  0
SECTION
  2
HEADER
  9
$ACADVER
  1
AC1009
  9
$INSBASE
 10
0.0
 20
0.0
 30
0.0
  9
$EXTMIN
 10
2922.7324314661059
 20
96.092404061039474
 30
0.0
  9
$EXTMAX
 10
5022.7324314661064
 20
3046.0924040610389
 30
0.0
  9
$LIMMIN
 10
0.0
 20
0.0
  9
$LIMMAX
 10
297.0
 20
210.0
  9
$ORTHOMODE
 70
     0
  9
$REGENMODE
 70
     1
  9
$FILLMODE
 70
     1
  9
$QTEXTMODE
 70
     0
  9
$MIRRTEXT
 70
     0
  9
$DRAGMODE
 70
     2
  9
$LTSCALE
 40
50.0
  9
$OSMODE
 70
   545
  9
$ATTMODE
 70
     1
  9
$TEXTSIZE
 40
3.5
  9
$TRACEWID
 40
0.05
  9
$TEXTSTYLE
  7
STANDARD
  9
$CLAYER
  8
SP
  9
$CELTYPE
  6
BYLAYER
  9
$CECOLOR
 62
   256
  9
$DIMSCALE
 40
10.0
  9
$DIMASZ
 40
2.5
  9
$DIMEXO
 40
1.0
  9
$DIMDLI
 40
7.0
  9
$DIMRND
 40
0.0
  9
$DIMDLE
 40
0.0
  9
$DIMEXE
 40
1.0
  9
$DIMTP
 40
0.0
  9
$DIMTM
 40
0.0
  9
$DIMTXT
 40
3.0
  9
$DIMCEN
 40
0.0
  9
$DIMTSZ
 40
0.0
  9
$DIMTOL
 70
     0
  9
$DIMLIM
 70
     0
  9
$DIMTIH
 70
     0
  9
$DIMTOH
 70
     0
  9
$DIMSE1
 70
     0
  9
$DIMSE2
 70
     0
  9
$DIMTAD
 70
     1
  9
$DIMZIN
 70
     8
  9
$DIMBLK
  1

  9
$DIMASO
 70
     1
  9
$DIMSHO
 70
     1
  9
$DIMPOST
  1

  9
$DIMAPOST
  1

  9
$DIMALT
 70
     0
  9
$DIMALTD
 70
     2
  9
$DIMALTF
 40
0.03937
  9
$DIMLFAC
 40
1.0
  9
$DIMTOFL
 70
     1
  9
$DIMTVP
 40
0.0
  9
$DIMTIX
 70
     0
  9
$DIMSOXD
 70
     0
  9
$DIMSAH
 70
     1
  9
$DIMBLK1
  1
OPEN
  9
$DIMBLK2
  1
OPEN
  9
$DIMSTYLE
  2
GOD
  9
$DIMCLRD
 70
   256
  9
$DIMCLRE
 70
   256
  9
$DIMCLRT
 70
   256
  9
$DIMTFAC
 40
1.0
  9
$DIMGAP
 40
1.0
  9
$LUNITS
 70
     2
  9
$LUPREC
 70
     3
  9
$SKETCHINC
 40
0.1
  9
$FILLETRAD
 40
0.0
  9
$AUNITS
 70
     0
  9
$AUPREC
 70
     2
  9
$MENU
  1
acad
  9
$ELEVATION
 40
0.0
  9
$PELEVATION
 40
0.0
  9
$THICKNESS
 40
0.0
  9
$LIMCHECK
 70
     0
  9
$BLIPMODE
 70
     0
  9
$CHAMFERA
 40
0.0
  9
$CHAMFERB
 40
0.0
  9
$SKPOLY
 70
     0
  9
$TDCREATE
 40
2454940.4140922911
  9
$TDUPDATE
 40
2454953.8277817471
  9
$TDINDWG
 40
0.0818330903
  9
$TDUSRTIMER
 40
0.0818330903
  9
$USRTIMER
 70
     1
  9
$ANGBASE
 50
0.0
  9
$ANGDIR
 70
     0
  9
$PDMODE
 70
     0
  9
$PDSIZE
 40
1.0
  9
$PLINEWID
 40
0.0
  9
$COORDS
 70
     2
  9
$SPLFRAME
 70
     0
  9
$SPLINETYPE
 70
     6
  9
$SPLINESEGS
 70
     8
  9
$ATTDIA
 70
     0
  9
$ATTREQ
 70
     1
  9
$HANDLING
 70
 22529
  9
$HANDSEED
  5
768E
  9
$SURFTAB1
 70
     6
  9
$SURFTAB2
 70
     6
  9
$SURFTYPE
 70
     6
  9
$SURFU
 70
     6
  9
$SURFV
 70
     6
  9
$UCSNAME
  2

  9
$UCSORG
 10
0.0
 20
0.0
 30
0.0
  9
$UCSXDIR
 10
1.0
 20
0.0
 30
0.0
  9
$UCSYDIR
 10
0.0
 20
1.0
 30
0.0
  9
$PUCSNAME
  2

  9
$PUCSORG
 10
0.0
 20
0.0
 30
0.0
  9
$PUCSXDIR
 10
1.0
 20
0.0
 30
0.0
  9
$PUCSYDIR
 10
0.0
 20
1.0
 30
0.0
  9
$USERI1
 70
     0
  9
$USERI2
 70
     0
  9
$USERI3
 70
     0
  9
$USERI4
 70
     0
  9
$USERI5
 70
     0
  9
$USERR1
 40
0.0
  9
$USERR2
 40
0.0
  9
$USERR3
 40
0.0
  9
$USERR4
 40
0.0
  9
$USERR5
 40
0.0
  9
$WORLDVIEW
 70
     1
  9
$SHADEDGE
 70
     3
  9
$SHADEDIF
 70
    70
  9
$TILEMODE
 70
     1
  9
$MAXACTVP
 70
    16
  9
$PLIMCHECK
 70
     0
  9
$PEXTMIN
 10
1.0000000000000000E+020
 20
1.0000000000000000E+020
 30
1.0000000000000000E+020
  9
$PEXTMAX
 10
-1.0000000000000000E+020
 20
-1.0000000000000000E+020
 30
-1.0000000000000000E+020
  9
$PLIMMIN
 10
0.0
 20
0.0
  9
$PLIMMAX
 10
12.0
 20
9.0
  9
$UNITMODE
 70
     0
  9
$VISRETAIN
 70
     0
  9
$PLINEGEN
 70
     0
  9
$PSLTSCALE
 70
     0
  0
ENDSEC
  0
SECTION
  2
TABLES
  0
TABLE
  2
VPORT
 70
     2
  0
VPORT
  2
*ACTIVE
 70
     0
 10
0.0
 20
0.0
 11
1.0
 21
1.0
 12
4159.4520680967944
 22
1571.036493086908
 13
0.0
 23
0.0
 14
5.0
 24
5.0
 15
0.0
 25
0.0
 16
0.0
 26
0.0
 36
1.0
 17
0.0
 27
0.0
 37
0.0
 40
2973.1932508427799
 41
1.6307901907356941
 42
50.0
 43
0.0
 44
0.0
 50
0.0
 51
0.0
 71
     0
 72
   100
 73
     1
 74
     0
 75
     0
 76
     0
 77
     0
 78
     0
  0
ENDTAB
  0
TABLE
  2
LTYPE
 70
     4
  0
LTYPE
  2
CONTINUOUS
 70
     0
  3
Solid line
 72
    65
 73
     0
 40
0.0
  0
LTYPE
  2
CENTER
 70
     0
  3
____ _ ____ _ ____ _ ____ _ ____ _ ____ _ ____ 
 72
    65
 73
     4
 40
2.0
 49
1.25
 49
-0.25
 49
0.25
 49
-0.25
  0
LTYPE
  2
HIDDEN
 70
     0
  3
__ __ __ __ __ __ __ __ __ __ __ __ __ __ __ __
 72
    65
 73
     2
 40
0.375
 49
0.25
 49
-0.125
  0
LTYPE
  2
PHANTOM
 70
     0
  3
______  __  __  ______  __  __  ______  __  __ 
 72
    65
 73
     6
 40
2.5
 49
1.25
 49
-0.25
 49
0.25
 49
-0.25
 49
0.25
 49
-0.25
  0
ENDTAB
  0
TABLE
  2
LAYER
 70
    13
  0
LAYER
  2
0
 70
     0
 62
     7
  6
CONTINUOUS
  0
LAYER
  2
CT
 70
     0
 62
     3
  6
CENTER
  0
LAYER
  2
FUTO
 70
     0
 62
     4
  6
CONTINUOUS
  0
LAYER
  2
HOSO
 70
     0
 62
     7
  6
CONTINUOUS
  0
LAYER
  2
KL
 70
     0
 62
     7
  6
HIDDEN
  0
LAYER
  2
MOJI
 70
     0
 62
     3
  6
CONTINUOUS
  0
LAYER
  2
SL
 70
     0
 62
     1
  6
PHANTOM
  0
LAYER
  2
SP
 70
     0
 62
     2
  6
CONTINUOUS
  0
LAYER
  2
DEFPOINTS
 70
     0
 62
     7
  6
CONTINUOUS
  0
LAYER
  2
3
 70
     0
 62
     2
  6
CONTINUOUS
  0
LAYER
  2
2
 70
     0
 62
     3
  6
CENTER
  0
LAYER
  2
1
 70
     0
 62
     4
  6
CONTINUOUS
  0
LAYER
  2
4
 70
     0
 62
     7
  6
CONTINUOUS
  0
ENDTAB
  0
TABLE
  2
STYLE
 70
     2
  0
STYLE
  2
STANDARD
 70
     0
 40
0.0
 41
1.0
 50
15.0
 71
     0
 42
3.5
  3
C:\Program Files\AutoCAD LT\simplex.shx
  4
C:\Program Files\AutoCAD LT\extfont.shx
  0
STYLE
  2
SUNPOU
 70
     0
 40
0.0
 41
1.0
 50
15.0
 71
     0
 42
30.0
  3
simplex.shx
  4
extfont.shx
  0
ENDTAB
  0
TABLE
  2
VIEW
 70
     0
  0
ENDTAB
  0
TABLE
  2
UCS
 70
     0
  0
ENDTAB
  0
TABLE
  2
APPID
 70
     1
  0
APPID
  2
ACAD
 70
     0
  0
ENDTAB
  0
TABLE
  2
DIMSTYLE
 70
     4
  0
DIMSTYLE
  2
STANDARD
 70
     0
  3

  4

  5

  6

  7

 40
1.0
 41
0.18
 42
0.0625
 43
0.38
 44
0.18
 45
0.0
 46
0.0
 47
0.0
 48
0.0
140
0.18
141
0.09
142
0.0
143
25.399999999999999
144
1.0
145
0.0
146
1.0
147
0.09
 71
     0
 72
     0
 73
     1
 74
     1
 75
     0
 76
     0
 77
     0
 78
     0
170
     0
171
     2
172
     0
173
     0
174
     0
175
     0
176
     0
177
     0
178
     0
  0
DIMSTYLE
  2
GOD
 70
     0
  3

  4

  5

  6
OPEN
  7
OPEN
 40
10.0
 41
2.5
 42
1.0
 43
7.0
 44
1.0
 45
0.0
 46
0.0
 47
0.0
 48
0.0
140
3.0
141
0.0
142
0.0
143
0.03937
144
1.0
145
0.0
146
1.0
147
1.0
 71
     0
 72
     0
 73
     0
 74
     0
 75
     0
 76
     0
 77
     1
 78
     8
170
     0
171
     2
172
     1
173
     1
174
     0
175
     0
176
   256
177
   256
178
   256
  0
DIMSTYLE
  2
IGA
 70
     0
  3

  4

  5

  6
OPEN
  7
OPEN
 40
2.0
 41
2.0
 42
0.5
 43
10.0
 44
1.0
 45
0.0
 46
0.0
 47
1.0
 48
1.0
140
3.0
141
0.0
142
0.0
143
0.03937
144
1.0
145
0.0
146
10.0
147
1.0
 71
     0
 72
     0
 73
     0
 74
     0
 75
     0
 76
     0
 77
     1
 78
     8
170
     0
171
     2
172
     0
173
     1
174
     0
175
     0
176
     0
177
     0
178
     0
  0
DIMSTYLE
  2
MATSU
 70
     0
  3

  4

  5

  6
OPEN
  7
OPEN
 40
1.0
 41
2.0
 42
1.0
 43
10.0
 44
1.0
 45
0.0
 46
0.0
 47
0.0
 48
0.0
140
3.0
141
0.0
142
0.0
143
0.03937
144
1.0
145
0.0
146
1.0
147
0.5
 71
     0
 72
     0
 73
     0
 74
     0
 75
     0
 76
     0
 77
     1
 78
     8
170
     0
171
     2
172
     1
173
     1
174
     0
175
     0
176
   256
177
   256
178
   256
  0
ENDTAB
  0
ENDSEC
  0
SECTION
  2
BLOCKS
  0
BLOCK
  8
0
  2
$MODEL_SPACE
 70
     0
 10
0.0
 20
0.0
 30
0.0
  3
$MODEL_SPACE
  1

  0
ENDBLK
  5
1B
  8
0
  0
BLOCK
 67
     1
  8
0
  2
$PAPER_SPACE
 70
     0
 10
0.0
 20
0.0
 30
0.0
  3
$PAPER_SPACE
  1

  0
ENDBLK
  5
18
 67
     1
  8
0
  0
BLOCK
  8
0
  2
_OPEN
 70
     0
 10
0.0
 20
0.0
 30
0.0
  3
_OPEN
  1

  0
LINE
  5
1E81
  8
0
  6
BYBLOCK
 62
     0
 10
-1.0
 20
0.1666666666666666
 30
0.0
 11
0.0
 21
0.0
 31
0.0
  0
LINE
  5
1E82
  8
0
  6
BYBLOCK
 62
     0
 10
0.0
 20
0.0
 30
0.0
 11
-1.0
 21
-0.1666666666666666
 31
0.0
  0
LINE
  5
1E83
  8
0
  6
BYBLOCK
 62
     0
 10
0.0
 20
0.0
 30
0.0
 11
-1.0
 21
0.0
 31
0.0
  0
ENDBLK
  5
1E84
  8
0
  0
BLOCK
  8
0
  2
_DOT
 70
     0
 10
0.0
 20
0.0
 30
0.0
  3
_DOT
  1

  0
LINE
  5
1EC3
  8
0
  6
BYBLOCK
 62
     0
 10
0.0
 20
0.0
 30
0.0
 11
-1.0
 21
-0.0000000000000284
 31
0.0
  0
POLYLINE
  5
1EC4
  8
0
  6
BYBLOCK
 62
     0
 66
     1
 10
0.0
 20
0.0
 30
0.0
 70
     1
 40
0.1666666666666666
 41
0.1666666666666666
  0
VERTEX
  5
7675
  8
0
  6
BYBLOCK
 62
     0
 10
-0.0833333333333286
 20
-0.0000000000000284
 30
0.0
 42
1.0
  0
VERTEX
  5
7676
  8
0
  6
BYBLOCK
 62
     0
 10
0.0833333333333286
 20
-0.0000000000000284
 30
0.0
 42
1.0
  0
SEQEND
  5
7677
  8
0
  6
BYBLOCK
 62
     0
  0
ENDBLK
  5
1EB8
  8
0
  0
BLOCK
  8
0
  2
*D2
 70
     1
 10
0.0
 20
0.0
 30
0.0
  3
*D2
  1

  0
LINE
  5
5685
  8
SP
 10
-1699.9142715201349
 20
823.03013774616693
 30
0.0
 11
-1699.9142715201349
 21
683.03013774616704
 31
0.0
  0
LINE
  5
5686
  8
SP
 10
-2079.914271520136
 20
823.03013774616522
 30
0.0
 11
-2079.914271520136
 21
683.03013774616704
 31
0.0
  0
LINE
  5
5687
  8
SP
 10
-1724.9142715201349
 20
693.03013774616704
 30
0.0
 11
-2054.914271520136
 21
693.03013774616704
 31
0.0
  0
INSERT
  5
5688
  8
SP
  2
_OPEN
 10
-1699.9142715201349
 20
693.03013774616704
 30
0.0
 41
25.0
 42
25.0
 43
25.0
  0
INSERT
  5
5689
  8
SP
  2
_OPEN
 10
-2079.914271520136
 20
693.03013774616704
 30
0.0
 41
25.0
 42
25.0
 43
25.0
 50
180.0
  0
TEXT
  5
568A
  8
SP
 10
-1931.790652263745
 20
703.03013774616704
 30
0.0
 40
30.0
  1
380
 51
15.0
  0
POINT
  5
568B
  8
DEFPOINTS
 62
     0
 10
-1699.9142715201349
 20
833.03013774616716
 30
0.0
  0
POINT
  5
568C
  8
DEFPOINTS
 62
     0
 10
-2079.914271520136
 20
833.03013774616511
 30
0.0
  0
POINT
  5
568D
  8
DEFPOINTS
 62
     0
 10
-2079.914271520136
 20
693.03013774616704
 30
0.0
  0
ENDBLK
  5
568F
  8
0
  0
BLOCK
  8
0
  2
*D3
 70
     1
 10
0.0
 20
0.0
 30
0.0
  3
*D3
  1

  0
LINE
  5
5691
  8
SP
 10
-2079.914271520136
 20
823.03013774616522
 30
0.0
 11
-2079.914271520136
 21
753.03013774616522
 31
0.0
  0
LINE
  5
5692
  8
SP
 10
-1889.9142715201349
 20
797.34538072303258
 30
0.0
 11
-1889.9142715201349
 21
753.03013774616522
 31
0.0
  0
LINE
  5
5693
  8
SP
 10
-2054.914271520136
 20
763.03013774616522
 30
0.0
 11
-1914.9142715201349
 21
763.03013774616522
 31
0.0
  0
INSERT
  5
5694
  8
SP
  2
_OPEN
 10
-2079.914271520136
 20
763.03013774616522
 30
0.0
 41
25.0
 42
25.0
 43
25.0
 50
180.0
  0
INSERT
  5
5695
  8
SP
  2
_OPEN
 10
-1889.9142715201349
 20
763.03013774616522
 30
0.0
 41
25.0
 42
25.0
 43
25.0
  0
TEXT
  5
5696
  8
SP
 10
-2026.421609050605
 20
773.03013774616522
 30
0.0
 40
30.0
  1
190
 51
15.0
  0
POINT
  5
5697
  8
DEFPOINTS
 62
     0
 10
-2079.914271520136
 20
833.03013774616511
 30
0.0
  0
POINT
  5
5698
  8
DEFPOINTS
 62
     0
 10
-1889.9142715201349
 20
807.34538072303246
 30
0.0
  0
POINT
  5
5699
  8
DEFPOINTS
 62
     0
 10
-1889.9142715201349
 20
763.03013774616522
 30
0.0
  0
ENDBLK
  5
569B
  8
0
  0
BLOCK
  8
0
  2
*D4
 70
     1
 10
0.0
 20
0.0
 30
0.0
  3
*D4
  1

  0
LINE
  5
569D
  8
SP
 10
-1889.9142715201349
 20
797.34538072303258
 30
0.0
 11
-1889.9142715201349
 21
753.03013774616704
 31
0.0
  0
LINE
  5
569E
  8
SP
 10
-1699.9142715201349
 20
823.03013774616693
 30
0.0
 11
-1699.9142715201349
 21
753.03013774616704
 31
0.0
  0
LINE
  5
569F
  8
SP
 10
-1864.9142715201349
 20
763.03013774616704
 30
0.0
 11
-1724.9142715201349
 21
763.03013774616704
 31
0.0
  0
INSERT
  5
56A0
  8
SP
  2
_OPEN
 10
-1889.9142715201349
 20
763.03013774616704
 30
0.0
 41
25.0
 42
25.0
 43
25.0
 50
180.0
  0
INSERT
  5
56A1
  8
SP
  2
_OPEN
 10
-1699.9142715201349
 20
763.03013774616704
 30
0.0
 41
25.0
 42
25.0
 43
25.0
  0
TEXT
  5
56A2
  8
SP
 10
-1836.4216090506061
 20
773.03013774616704
 30
0.0
 40
30.0
  1
190
 51
15.0
  0
POINT
  5
56A3
  8
DEFPOINTS
 62
     0
 10
-1889.9142715201349
 20
807.34538072303246
 30
0.0
  0
POINT
  5
56A4
  8
DEFPOINTS
 62
     0
 10
-1699.9142715201349
 20
833.03013774616716
 30
0.0
  0
POINT
  5
56A5
  8
DEFPOINTS
 62
     0
 10
-1699.9142715201349
 20
763.03013774616704
 30
0.0
  0
ENDBLK
  5
56A7
  8
0
  0
BLOCK
  8
0
  2
*D5
 70
     1
 10
0.0
 20
0.0
 30
0.0
  3
*D5
  1

  0
LINE
  5
56A9
  8
SP
 10
-2139.9142715201351
 20
1298.030137746166
 30
0.0
 11
-2139.9142715201351
 21
1368.030137746166
 31
0.0
  0
LINE
  5
56AA
  8
SP
 10
-1889.9142715201349
 20
1307.8065568904919
 30
0.0
 11
-1889.9142715201349
 21
1368.030137746166
 31
0.0
  0
LINE
  5
56AB
  8
SP
 10
-2114.9142715201351
 20
1358.030137746166
 30
0.0
 11
-1914.9142715201349
 21
1358.030137746166
 31
0.0
  0
INSERT
  5
56AC
  8
SP
  2
_OPEN
 10
-2139.9142715201351
 20
1358.030137746166
 30
0.0
 41
25.0
 42
25.0
 43
25.0
 50
180.0
  0
INSERT
  5
56AD
  8
SP
  2
_OPEN
 10
-1889.9142715201349
 20
1358.030137746166
 30
0.0
 41
25.0
 42
25.0
 43
25.0
  0
TEXT
  5
56AE
  8
SP
 10
-2056.0250831425128
 20
1368.030137746166
 30
0.0
 40
30.0
  1
250
 51
15.0
  0
POINT
  5
56AF
  8
DEFPOINTS
 62
     0
 10
-2139.9142715201351
 20
1288.030137746166
 30
0.0
  0
POINT
  5
56B0
  8
DEFPOINTS
 62
     0
 10
-1889.9142715201349
 20
1297.8065568904919
 30
0.0
  0
POINT
  5
56B1
  8
DEFPOINTS
 62
     0
 10
-1889.9142715201349
 20
1358.030137746166
 30
0.0
  0
ENDBLK
  5
56B3
  8
0
  0
BLOCK
  8
0
  2
*D6
 70
     1
 10
0.0
 20
0.0
 30
0.0
  3
*D6
  1

  0
LINE
  5
56B5
  8
SP
 10
-1889.9142715201349
 20
1307.8065568904919
 30
0.0
 11
-1889.9142715201349
 21
1368.030137746166
 31
0.0
  0
LINE
  5
56B6
  8
SP
 10
-1713.9142715201349
 20
1081.0301377461669
 30
0.0
 11
-1713.9142715201349
 21
1368.030137746166
 31
0.0
  0
LINE
  5
56B7
  8
SP
 10
-1864.9142715201349
 20
1358.030137746166
 30
0.0
 11
-1738.9142715201349
 21
1358.030137746166
 31
0.0
  0
INSERT
  5
56B8
  8
SP
  2
_OPEN
 10
-1889.9142715201349
 20
1358.030137746166
 30
0.0
 41
25.0
 42
25.0
 43
25.0
 50
180.0
  0
INSERT
  5
56B9
  8
SP
  2
_OPEN
 10
-1713.9142715201349
 20
1358.030137746166
 30
0.0
 41
25.0
 42
25.0
 43
25.0
  0
TEXT
  5
56BA
  8
SP
 10
-1842.8987156166279
 20
1368.030137746166
 30
0.0
 40
30.0
  1
176
 51
15.0
  0
POINT
  5
56BB
  8
DEFPOINTS
 62
     0
 10
-1889.9142715201349
 20
1297.8065568904919
 30
0.0
  0
POINT
  5
56BC
  8
DEFPOINTS
 62
     0
 10
-1713.9142715201349
 20
1071.0301377461669
 30
0.0
  0
POINT
  5
56BD
  8
DEFPOINTS
 62
     0
 10
-1713.9142715201349
 20
1358.030137746166
 30
0.0
  0
ENDBLK
  5
56BF
  8
0
  0
BLOCK
  8
0
  2
*D7
 70
     1
 10
0.0
 20
0.0
 30
0.0
  3
*D7
  1

  0
LINE
  5
56C1
  8
SP
 10
-2184.1007564974338
 20
1088.030137746166
 30
0.0
 11
-2249.3805561714089
 21
1088.030137746166
 31
0.0
  0
LINE
  5
56C2
  8
SP
 10
-2170.9142715201351
 20
1288.0301377461669
 30
0.0
 11
-2249.3805561714089
 21
1288.0301377461669
 31
0.0
  0
LINE
  5
56C3
  8
SP
 10
-2239.3805561714089
 20
1113.0301377461669
 30
0.0
 11
-2239.3805561714089
 21
1263.0301377461669
 31
0.0
  0
INSERT
  5
56C4
  8
SP
  2
_OPEN
 10
-2239.3805561714089
 20
1088.030137746166
 30
0.0
 41
25.0
 42
25.0
 43
25.0
 50
270.0
  0
INSERT
  5
56C5
  8
SP
  2
_OPEN
 10
-2239.3805561714089
 20
1288.0301377461669
 30
0.0
 41
25.0
 42
25.0
 43
25.0
 50
90.0
  0
TEXT
  5
56C6
  8
SP
 10
-2249.3805561714089
 20
1146.9193261237881
 30
0.0
 40
30.0
  1
200
 50
90.0
 51
15.0
  0
POINT
  5
56C7
  8
DEFPOINTS
 62
     0
 10
-2174.1007564974352
 20
1088.030137746166
 30
0.0
  0
POINT
  5
56C8
  8
DEFPOINTS
 62
     0
 10
-2160.9142715201351
 20
1288.0301377461669
 30
0.0
  0
POINT
  5
56C9
  8
DEFPOINTS
 62
     0
 10
-2239.3805561714089
 20
1288.0301377461669
 30
0.0
  0
ENDBLK
  5
56CB
  8
0
  0
BLOCK
  8
0
  2
*D8
 70
     1
 10
0.0
 20
0.0
 30
0.0
  3
*D8
  1

  0
LINE
  5
56CD
  8
SP
 10
-2184.1007564974338
 20
1088.030137746166
 30
0.0
 11
-2249.3805561714089
 21
1088.030137746166
 31
0.0
  0
LINE
  5
56CE
  8
SP
 10
-2089.914271520136
 20
833.03013774616511
 30
0.0
 11
-2249.3805561714089
 21
833.03013774616511
 31
0.0
  0
LINE
  5
56CF
  8
SP
 10
-2239.3805561714089
 20
1063.0301377461669
 30
0.0
 11
-2239.3805561714089
 21
858.03013774616511
 31
0.0
  0
INSERT
  5
56D0
  8
SP
  2
_OPEN
 10
-2239.3805561714089
 20
1088.030137746166
 30
0.0
 41
25.0
 42
25.0
 43
25.0
 50
90.0
  0
INSERT
  5
56D1
  8
SP
  2
_OPEN
 10
-2239.3805561714089
 20
833.03013774616511
 30
0.0
 41
25.0
 42
25.0
 43
25.0
 50
270.0
  0
TEXT
  5
56D2
  8
SP
 10
-2249.3805561714089
 20
919.36804271684161
 30
0.0
 40
30.0
  1
255
 50
90.0
 51
15.0
  0
POINT
  5
56D3
  8
DEFPOINTS
 62
     0
 10
-2174.1007564974352
 20
1088.030137746166
 30
0.0
  0
POINT
  5
56D4
  8
DEFPOINTS
 62
     0
 10
-2079.914271520136
 20
833.03013774616511
 30
0.0
  0
POINT
  5
56D5
  8
DEFPOINTS
 62
     0
 10
-2239.3805561714089
 20
833.03013774616511
 30
0.0
  0
ENDBLK
  5
56D7
  8
0
  0
BLOCK
  8
0
  2
A$C44EA23BE
 70
     0
 10
0.0
 20
0.0
 30
0.0
  3
A$C44EA23BE
  1

  0
DIMENSION
  5
56D9
  8
SP
  2
*D8
 10
-349.46628465127378
 20
-255.00000000000171
 30
0.0
 11
-374.46628465127378
 21
-127.50000000000119
 31
0.0
 12
1889.9142715201349
 22
-1088.030137746166
 32
0.0
  3
GOD
 13
-284.18648497729919
 23
0.0
 33
0.0
 14
-190.00000000000091
 24
-255.00000000000171
 34
0.0
 50
90.0
  0
ARC
  5
56DA
  8
FUTO
 10
-17.0
 20
-17.0
 30
0.0
 40
203.0
 50
269.572081032222
 51
0.4673217049947748
  0
ARC
  5
56DB
  8
FUTO
 10
-20.0
 20
20.0
 30
0.0
 40
240.0
 50
180.0
 51
270.39182689926031
  0
ARC
  5
56DC
  8
FUTO
 10
-17.0
 20
-17.0
 30
0.0
 40
193.0
 50
269.572081032222
 51
0.4673217049947748
  0
ARC
  5
56DD
  8
FUTO
 10
-20.0
 20
20.0
 30
0.0
 40
230.0
 50
180.0
 51
270.39182689926031
  0
LINE
  5
56DE
  8
2
 10
0.0
 20
-280.6847570231343
 30
0.0
 11
0.0
 21
209.77641914432559
 31
0.0
  0
LINE
  5
56DF
  8
1
 10
157.69999999999891
 20
66.099999999998545
 30
0.0
 11
157.69999999999891
 21
-255.00000000000179
 31
0.0
  0
LINE
  5
56E0
  8
1
 10
160.0
 20
66.099999999998545
 30
0.0
 11
160.0
 21
-252.7000000000007
 31
0.0
  0
LINE
  5
56E1
  8
1
 10
-157.69999999999979
 20
66.099999999998545
 30
0.0
 11
-157.69999999999979
 21
-255.00000000000179
 31
0.0
  0
LINE
  5
56E2
  8
1
 10
-160.0
 20
66.099999999998545
 30
0.0
 11
-159.99999999999901
 21
-252.69999999999891
 31
0.0
  0
ARC
  5
56E3
  8
1
 10
0.0
 20
0.0
 30
0.0
 40
85.0
 50
0.0
 51
244.12446600000609
  0
CIRCLE
  5
56E4
  8
2
 10
0.0
 20
0.0
 30
0.0
 40
136.0
  0
ARC
  5
56E5
  8
1
 10
0.0
 20
0.0
 30
0.0
 40
85.000007999999994
 50
295.91772599999888
 51
0.0
  0
DIMENSION
  5
56E6
  8
SP
  2
*D2
 10
-190.00000000000091
 20
-394.99999999999977
 30
0.0
 11
-0.0000000000004547
 21
-369.99999999999977
 31
0.0
 12
1889.9142715201349
 22
-1088.030137746166
 32
0.0
  3
GOD
 13
190.0
 23
-254.9999999999998
 33
0.0
 14
-190.00000000000091
 24
-255.00000000000171
 34
0.0
  0
DIMENSION
  5
56E7
  8
SP
  2
*D4
 10
190.0
 20
-324.99999999999989
 30
0.0
 11
95.0
 21
-299.99999999999989
 31
0.0
 12
1889.9142715201349
 22
-1088.030137746166
 32
0.0
  3
GOD
 13
0.0
 23
-280.6847570231343
 33
0.0
 14
190.0
 24
-254.9999999999998
 34
0.0
  0
DIMENSION
  5
56E8
  8
SP
  2
*D3
 10
0.0
 20
-325.00000000000171
 30
0.0
 11
-95.000000000000455
 21
-300.00000000000171
 31
0.0
 12
1889.9142715201349
 22
-1088.030137746166
 32
0.0
  3
GOD
 13
-190.00000000000091
 23
-255.00000000000171
 33
0.0
 14
0.0
 24
-280.6847570231343
 34
0.0
  0
LINE
  5
56E9
  8
FUTO
 10
-132.69999999999979
 20
-105.0
 30
0.0
 11
-157.69999999999891
 21
-80.0
 31
0.0
  0
LINE
  5
56EA
  8
1
 10
-157.69999999999891
 20
-203.9999999999998
 30
0.0
 11
-132.7000000000007
 21
-203.9999999999998
 31
0.0
  0
LINE
  5
56EB
  8
1
 10
-190.00000000000091
 20
-255.00000000000179
 30
0.0
 11
190.0
 21
-255.0
 31
0.0
  0
LINE
  5
56EC
  8
1
 10
-157.69999999999891
 20
-80.0
 30
0.0
 11
157.69999999999891
 21
-80.0
 31
0.0
  0
LINE
  5
56ED
  8
2
 10
-176.99999999999901
 20
-268.98279906584588
 30
0.0
 11
-176.99999999999901
 21
-242.69999999999879
 31
0.0
  0
LINE
  5
56EE
  8
1
 10
-190.00000000000091
 20
-255.00000000000179
 30
0.0
 11
-190.00000000000179
 21
-252.7000000000007
 31
0.0
  0
LINE
  5
56EF
  8
1
 10
-190.00000000000091
 20
-252.7000000000007
 30
0.0
 11
-159.99999999999901
 21
-252.69999999999891
 31
0.0
  0
LINE
  5
56F0
  8
1
 10
132.699999999997
 20
-105.0
 30
0.0
 11
132.699999999997
 21
-203.9999999999998
 31
0.0
  0
LINE
  5
56F1
  8
1
 10
-132.69999999999979
 20
-105.0
 30
0.0
 11
-132.69999999999979
 21
-203.9999999999998
 31
0.0
  0
LINE
  5
56F2
  8
1
 10
132.699999999997
 20
-203.9999999999998
 30
0.0
 11
157.69999999999891
 21
-203.9999999999998
 31
0.0
  0
LINE
  5
56F3
  8
1
 10
190.0
 20
-255.0
 30
0.0
 11
190.0
 21
-252.69999999999891
 31
0.0
  0
LINE
  5
56F4
  8
2
 10
176.9999999999981
 20
-267.91032669659847
 30
0.0
 11
177.0
 21
-242.7000000000007
 31
0.0
  0
LINE
  5
56F5
  8
1
 10
160.0
 20
-252.69999999999891
 30
0.0
 11
190.0
 21
-252.7000000000007
 31
0.0
  0
LINE
  5
56F6
  8
FUTO
 10
132.69999999999979
 20
-105.0
 30
0.0
 11
157.69999999999891
 21
-80.0
 31
0.0
  0
LINE
  5
56F7
  8
1
 10
-132.69999999999979
 20
-105.0
 30
0.0
 11
132.69999999999891
 21
-105.0
 31
0.0
  0
LINE
  5
56F8
  8
CT
 10
-57.086121054688192
 20
-137.8180876735004
 30
0.0
 11
-46.574035520656253
 21
-112.43966820841879
 31
0.0
  0
CIRCLE
  5
56F9
  8
1
 10
-52.044946801652252
 20
-125.64761642153459
 30
0.0
 40
4.0
  0
LINE
  5
56FA
  8
CT
 10
57.086121054688192
 20
-137.8180876735004
 30
0.0
 11
46.574035520658072
 21
-112.43966820841879
 31
0.0
  0
CIRCLE
  5
56FB
  8
1
 10
52.044946801652252
 20
-125.64761642153459
 30
0.0
 40
4.0
  0
LINE
  5
56FC
  8
1
 10
-37.095498999999108
 20
-76.450928000000204
 30
0.0
 11
37.151808999999041
 21
-76.450928000000204
 31
0.0
  0
LINE
  5
56FD
  8
1
 10
-82.5
 20
-78.34088200000042
 30
0.0
 11
82.500029999999242
 21
-78.34088200000042
 31
0.0
  0
LINE
  5
56FE
  8
CT
 10
-62.5
 20
-82.218586000000869
 30
0.0
 11
-62.5
 21
-73.631579000000784
 31
0.0
  0
LINE
  5
56FF
  8
CT
 10
-137.8180876735004
 20
-57.086121054690011
 30
0.0
 11
-112.439668208417
 21
-46.574035520658072
 31
0.0
  0
ARC
  5
5700
  8
1
 10
-52.365203999999721
 20
-70.5
 30
0.0
 40
5.0
 50
270.0
 51
324.46176099999479
  0
LINE
  5
5701
  8
1
 10
-46.623938000000628
 20
-71.064478000000236
 30
0.0
 11
-48.296539999999368
 21
-73.40625
 31
0.0
  0
LINE
  5
5702
  8
1
 10
-77.833160999999564
 20
-75.505370999999286
 30
0.0
 11
-62.323167999999889
 21
-57.818504000000758
 31
0.0
  0
LINE
  5
5703
  8
1
 10
-82.5
 20
-75.5
 30
0.0
 11
-52.36517399999866
 21
-75.5
 31
0.0
  0
CIRCLE
  5
5704
  8
1
 10
-125.64761642153459
 20
-52.044946801652252
 30
0.0
 40
4.0
  0
ARC
  5
5705
  8
1
 10
0.0
 20
0.0
 30
0.0
 40
85.0
 50
236.73178133170779
 51
244.12446600000609
  0
LINE
  5
5706
  8
1
 10
-42.5
 20
-78.34088200000042
 30
0.0
 11
-42.5
 21
-80.0
 31
0.0
  0
LINE
  5
5707
  8
1
 10
-77.5
 20
-78.34088200000042
 30
0.0
 11
-77.5
 21
-80.0
 31
0.0
  0
LINE
  5
5708
  8
1
 10
-82.5
 20
-78.34088200000042
 30
0.0
 11
-82.5
 21
-75.5
 31
0.0
  0
LINE
  5
5709
  8
CT
 10
137.8180876735004
 20
-57.086121054688192
 30
0.0
 11
112.439668208417
 21
-46.574035520658072
 31
0.0
  0
LINE
  5
570A
  8
CT
 10
62.5
 20
-82.218586000000869
 30
0.0
 11
62.5
 21
-73.631579000000784
 31
0.0
  0
LINE
  5
570B
  8
1
 10
82.500029999999242
 20
-75.5
 30
0.0
 11
52.365203999999721
 21
-75.5
 31
0.0
  0
LINE
  5
570C
  8
1
 10
77.834367999999813
 20
-75.506824000000051
 30
0.0
 11
62.32130799999868
 21
-57.816361999999572
 31
0.0
  0
LINE
  5
570D
  8
1
 10
47.508270000000259
 20
-72.302612999999837
 30
0.0
 11
48.296538999999029
 21
-73.40625
 31
0.0
  0
LINE
  5
570E
  8
1
 10
46.631551000000393
 20
-71.075138000000152
 30
0.0
 11
48.296538999999029
 21
-73.40625
 31
0.0
  0
ARC
  5
570F
  8
1
 10
52.365203999999721
 20
-70.5
 30
0.0
 40
5.000032
 50
215.53825399999309
 51
270.0
  0
LINE
  5
5710
  8
1
 10
77.5
 20
-78.34088200000042
 30
0.0
 11
77.5
 21
-80.0
 31
0.0
  0
LINE
  5
5711
  8
1
 10
42.5
 20
-78.34088200000042
 30
0.0
 11
42.5
 21
-80.0
 31
0.0
  0
LINE
  5
5712
  8
1
 10
82.500029999999242
 20
-75.5
 30
0.0
 11
82.500029999999242
 21
-78.34088200000042
 31
0.0
  0
CIRCLE
  5
5713
  8
1
 10
125.64761642153459
 20
-52.044946801652252
 30
0.0
 40
4.0
  0
DIMENSION
  5
5714
  8
SP
  2
*D7
 10
-349.46628465127333
 20
200.0
 30
0.0
 11
-374.46628465127378
 21
99.999999999999787
 31
0.0
 12
1889.9142715201349
 22
-1088.030137746166
 32
0.0
  3
GOD
 13
-284.18648497729919
 23
0.0
 33
0.0
 14
-271.0
 24
200.0
 34
0.0
 50
90.0
  0
DIMENSION
  5
5715
  8
SP
  2
*D6
 10
176.0
 20
269.99999999999898
 30
0.0
 11
88.0
 21
294.99999999999898
 31
0.0
 12
1889.9142715201349
 22
-1088.030137746166
 32
0.0
  3
GOD
 13
0.0
 23
209.77641914432559
 33
0.0
 14
176.0
 24
-17.0
 34
0.0
  0
LINE
  5
5716
  8
FUTO
 10
-250.99998456825821
 20
199.99444453017639
 30
0.0
 11
-249.99998456825821
 21
19.99444453017281
 31
0.0
  0
LINE
  5
5717
  8
FUTO
 10
-251.0
 20
200.0
 30
0.0
 11
-251.0
 21
180.0
 31
0.0
  0
LINE
  5
5718
  8
FUTO
 10
-252.0
 20
199.0
 30
0.0
 11
-252.0
 21
180.0
 31
0.0
  0
LINE
  5
5719
  8
FUTO
 10
-249.0
 20
198.0
 30
0.0
 11
-231.0
 21
180.0
 31
0.0
  0
LINE
  5
571A
  8
FUTO
 10
0.0
 20
180.0
 30
0.0
 11
0.0
 21
200.0
 31
0.0
  0
LINE
  5
571B
  8
FUTO
 10
1.0
 20
200.0
 30
0.0
 11
1.0
 21
180.0
 31
0.0
  0
LINE
  5
571C
  8
FUTO
 10
2.0
 20
199.0
 30
0.0
 11
2.0
 21
180.0
 31
0.0
  0
LINE
  5
571D
  8
FUTO
 10
-1.0
 20
198.0
 30
0.0
 11
-19.0
 21
180.0
 31
0.0
  0
LINE
  5
571E
  8
FUTO
 10
-231.0
 20
180.0
 30
0.0
 11
-19.0
 21
180.0
 31
0.0
  0
LINE
  5
571F
  8
1
 10
-60.0
 20
150.0
 30
0.0
 11
-158.39999999999961
 21
66.099999999998545
 31
0.0
  0
LINE
  5
5720
  8
2
 10
-284.18648497729919
 20
0.0
 30
0.0
 11
210.14761457335041
 21
-0.000000000001819
 31
0.0
  0
LINE
  5
5721
  8
FUTO
 10
-260.8890586406655
 20
180.0
 30
0.0
 11
-259.99983025084288
 21
19.938889831936191
 31
0.0
  0
LINE
  5
5722
  8
1
 10
-160.0
 20
66.099999999998545
 30
0.0
 11
-158.39999999999961
 21
66.099999999998545
 31
0.0
  0
LINE
  5
5723
  8
FUTO
 10
-260.8890586406655
 20
180.0
 30
0.0
 11
-250.88890432086819
 21
180.0
 31
0.0
  0
ARC
  5
5724
  8
FUTO
 10
14.0
 20
-14.0
 30
0.0
 40
172.0
 50
359.4896667551933
 51
78.450738176447032
  0
ARC
  5
5725
  8
FUTO
 10
14.0
 20
-14.0
 30
0.0
 40
162.0
 50
359.4896667551933
 51
78.450738176447032
  0
LINE
  5
5726
  8
1
 10
60.0
 20
150.0
 30
0.0
 11
158.39999999999961
 21
66.099999999998545
 31
0.0
  0
LINE
  5
5727
  8
CT
 10
-137.8180876735004
 20
57.086121054686373
 30
0.0
 11
-112.439668208417
 21
46.574035520658072
 31
0.0
  0
CIRCLE
  5
5728
  8
1
 10
-125.64761642153459
 20
52.044946801652252
 30
0.0
 40
4.0
  0
LINE
  5
5729
  8
CT
 10
137.8180876735004
 20
57.086121054686373
 30
0.0
 11
112.439668208417
 21
46.574035520658072
 31
0.0
  0
CIRCLE
  5
572A
  8
1
 10
125.64761642153459
 20
52.044946801652252
 30
0.0
 40
4.0
  0
LINE
  5
572B
  8
1
 10
158.39999999999961
 20
66.099999999998545
 30
0.0
 11
160.0
 21
66.099999999998545
 31
0.0
  0
LINE
  5
572C
  8
CT
 10
57.086121054688192
 20
137.81808767349861
 30
0.0
 11
46.574035520656253
 21
112.439668208417
 31
0.0
  0
LINE
  5
572D
  8
CT
 10
-57.086121054688192
 20
137.81808767349861
 30
0.0
 11
-46.574035520658072
 21
112.4396682084152
 31
0.0
  0
CIRCLE
  5
572E
  8
1
 10
-52.044946801652252
 20
125.64761642153459
 30
0.0
 40
4.0
  0
CIRCLE
  5
572F
  8
1
 10
52.044946801652252
 20
125.64761642153459
 30
0.0
 40
4.0
  0
ARC
  5
5730
  8
FUTO
 10
60.999999999996362
 20
216.0
 30
0.0
 40
72.753061747871584
 50
214.1996194554568
 51
258.45073817644709
  0
LINE
  5
5731
  8
FUTO
 10
0.0
 20
180.0
 30
0.0
 11
5.9318434102424362
 21
180.0
 31
0.0
  0
LINE
  5
5732
  8
1
 10
-60.0
 20
150.0
 30
0.0
 11
60.0
 21
150.0
 31
0.0
  0
LINE
  5
5733
  8
FUTO
 10
0.0
 20
180.0
 30
0.0
 11
1.0
 21
180.0
 31
0.0
  0
ARC
  5
5734
  8
FUTO
 10
59.528586099928361
 20
210.519969322142
 30
0.0
 40
57.203726762688042
 50
216.60350367361539
 51
261.67207569821369
  0
ARC
  5
5735
  8
FUTO
 10
5.9318434102424362
 20
170.0
 30
0.0
 40
10.0
 50
39.872968906140997
 51
90.0
  0
LINE
  5
5736
  8
FUTO
 10
-271.0
 20
200.0
 30
0.0
 11
21.0
 21
200.0
 31
0.0
  0
LINE
  5
5737
  8
FUTO
 10
-251.0
 20
199.0
 30
0.0
 11
1.0
 21
199.0
 31
0.0
  0
DIMENSION
  5
5738
  8
SP
  2
*D5
 10
0.0
 20
269.99999999999898
 30
0.0
 11
-125.0
 21
294.99999999999898
 31
0.0
 12
1889.9142715201349
 22
-1088.030137746166
 32
0.0
  3
GOD
 13
-250.0
 23
199.99999999999901
 33
0.0
 14
0.0
 24
209.77641914432559
 34
0.0
  0
LINE
  5
5739
  8
FUTO
 10
-271.0
 20
199.0
 30
0.0
 11
-252.0
 21
199.0
 31
0.0
  0
LINE
  5
573A
  8
FUTO
 10
-271.0
 20
200.0
 30
0.0
 11
-271.0
 21
199.0
 31
0.0
  0
LINE
  5
573B
  8
FUTO
 10
-251.0
 20
198.0
 30
0.0
 11
-249.0
 21
198.0
 31
0.0
  0
LINE
  5
573C
  8
FUTO
 10
2.0
 20
199.0
 30
0.0
 11
21.0
 21
199.0
 31
0.0
  0
LINE
  5
573D
  8
FUTO
 10
-1.0
 20
198.0
 30
0.0
 11
1.0
 21
198.0
 31
0.0
  0
LINE
  5
573E
  8
FUTO
 10
21.0
 20
200.0
 30
0.0
 11
21.0
 21
199.0
 31
0.0
  0
ENDBLK
  5
5740
  8
0
  0
BLOCK
  8
0
  2
*D10
 70
     1
 10
0.0
 20
0.0
 30
0.0
  3
*D10
  1

  0
LINE
  5
64EC
  8
SP
 10
3433.6969246773938
 20
1338.030122314422
 30
0.0
 11
3328.69136920757
 21
1338.030122314422
 31
0.0
  0
LINE
  5
64ED
  8
SP
 10
3413.5437546342209
 20
1088.030137746164
 30
0.0
 11
3328.69136920757
 21
1088.030137746164
 31
0.0
  0
LINE
  5
64EE
  8
SP
 10
3338.6913692075709
 20
1313.030122314422
 30
0.0
 11
3338.6913692075709
 21
1113.030137746164
 31
0.0
  0
INSERT
  5
64EF
  8
SP
  2
_OPEN
 10
3338.6913692075709
 20
1338.030122314422
 30
0.0
 41
25.0
 42
25.0
 43
25.0
 50
90.0
  0
INSERT
  5
64F0
  8
SP
  2
_OPEN
 10
3338.6913692075709
 20
1088.030137746164
 30
0.0
 41
25.0
 42
25.0
 43
25.0
 50
270.0
  0
TEXT
  5
64F1
  8
SP
 10
3328.69136920757
 20
1171.9193184079149
 30
0.0
 40
30.0
  1
250
 50
90.0
 51
15.0
  0
POINT
  5
64F2
  8
DEFPOINTS
 62
     0
 10
3443.6969246773938
 20
1338.030122314422
 30
0.0
  0
POINT
  5
64F3
  8
DEFPOINTS
 62
     0
 10
3423.5437546342218
 20
1088.030137746164
 30
0.0
  0
POINT
  5
64F4
  8
DEFPOINTS
 62
     0
 10
3338.6913692075709
 20
1088.030137746164
 30
0.0
  0
ENDBLK
  5
5F64
  8
0
  0
BLOCK
  8
0
  2
*D11
 70
     1
 10
0.0
 20
0.0
 30
0.0
  3
*D11
  1

  0
LINE
  5
64F5
  8
SP
 10
3413.5437546342209
 20
1088.030137746164
 30
0.0
 11
3328.69136920757
 21
1088.030137746164
 31
0.0
  0
LINE
  5
64F6
  8
SP
 10
3443.6913692075718
 20
833.03013774616602
 30
0.0
 11
3328.69136920757
 21
833.03013774616602
 31
0.0
  0
LINE
  5
64F7
  8
SP
 10
3338.6913692075709
 20
1063.030137746164
 30
0.0
 11
3338.6913692075709
 21
858.03013774616602
 31
0.0
  0
INSERT
  5
64F8
  8
SP
  2
_OPEN
 10
3338.6913692075709
 20
1088.030137746164
 30
0.0
 41
25.0
 42
25.0
 43
25.0
 50
90.0
  0
INSERT
  5
64F9
  8
SP
  2
_OPEN
 10
3338.6913692075709
 20
833.03013774616602
 30
0.0
 41
25.0
 42
25.0
 43
25.0
 50
270.0
  0
TEXT
  5
64FA
  8
SP
 10
3328.69136920757
 20
919.36804271684161
 30
0.0
 40
30.0
  1
255
 50
90.0
 51
15.0
  0
POINT
  5
64FB
  8
DEFPOINTS
 62
     0
 10
3423.5437546342218
 20
1088.030137746164
 30
0.0
  0
POINT
  5
64FC
  8
DEFPOINTS
 62
     0
 10
3453.6913692075718
 20
833.03013774616602
 30
0.0
  0
POINT
  5
64FD
  8
DEFPOINTS
 62
     0
 10
3338.6913692075709
 20
833.03013774616602
 30
0.0
  0
ENDBLK
  5
5F70
  8
0
  0
BLOCK
  8
0
  2
*D12
 70
     1
 10
0.0
 20
0.0
 30
0.0
  3
*D12
  1

  0
LINE
  5
6085
  8
SP
 10
3643.6913692075718
 20
1394.8458668319649
 30
0.0
 11
3643.6913692075718
 21
1428.0288877750991
 31
0.0
  0
LINE
  5
6086
  8
SP
 10
3443.69136920757
 20
1369.030137746164
 30
0.0
 11
3443.69136920757
 21
1428.0288877750991
 31
0.0
  0
LINE
  5
6087
  8
SP
 10
3618.6913692075732
 20
1418.0288877750991
 30
0.0
 11
3468.69136920757
 21
1418.0288877750991
 31
0.0
  0
INSERT
  5
6088
  8
SP
  2
_OPEN
 10
3643.6913692075718
 20
1418.0288877750991
 30
0.0
 41
25.0
 42
25.0
 43
25.0
  0
INSERT
  5
6089
  8
SP
  2
_OPEN
 10
3443.69136920757
 20
1418.0288877750991
 30
0.0
 41
25.0
 42
25.0
 43
25.0
 50
180.0
  0
TEXT
  5
608A
  8
SP
 10
3502.5805575851941
 20
1428.0288877750991
 30
0.0
 40
30.0
  1
200
 51
15.0
  0
POINT
  5
608B
  8
DEFPOINTS
 62
     0
 10
3643.6913692075718
 20
1384.8458668319649
 30
0.0
  0
POINT
  5
608C
  8
DEFPOINTS
 62
     0
 10
3443.69136920757
 20
1359.030137746164
 30
0.0
  0
POINT
  5
608D
  8
DEFPOINTS
 62
     0
 10
3443.69136920757
 20
1418.0288877750991
 30
0.0
  0
ENDBLK
  5
5F7C
  8
0
  0
BLOCK
  8
0
  2
*D13
 70
     1
 10
0.0
 20
0.0
 30
0.0
  3
*D13
  1

  0
LINE
  5
604F
  8
SP
 10
3643.6913692075718
 20
1394.8458668319649
 30
0.0
 11
3643.6913692075718
 21
1428.0288877750991
 31
0.0
  0
LINE
  5
6050
  8
SP
 10
3853.69136920757
 20
1115.030137746164
 30
0.0
 11
3853.69136920757
 21
1428.0288877750991
 31
0.0
  0
LINE
  5
6051
  8
SP
 10
3668.6913692075718
 20
1418.0288877750991
 30
0.0
 11
3828.69136920757
 21
1418.0288877750991
 31
0.0
  0
INSERT
  5
6052
  8
SP
  2
_OPEN
 10
3643.6913692075718
 20
1418.0288877750991
 30
0.0
 41
25.0
 42
25.0
 43
25.0
 50
180.0
  0
INSERT
  5
6053
  8
SP
  2
_OPEN
 10
3853.69136920757
 20
1418.0288877750991
 30
0.0
 41
25.0
 42
25.0
 43
25.0
  0
TEXT
  5
6054
  8
SP
 10
3710.4377004423359
 20
1428.0288877750991
 30
0.0
 40
30.0
  1
210
 51
15.0
  0
POINT
  5
6055
  8
DEFPOINTS
 62
     0
 10
3643.6913692075718
 20
1384.8458668319649
 30
0.0
  0
POINT
  5
6056
  8
DEFPOINTS
 62
     0
 10
3853.69136920757
 20
1105.030137746164
 30
0.0
  0
POINT
  5
6057
  8
DEFPOINTS
 62
     0
 10
3853.69136920757
 20
1418.0288877750991
 30
0.0
  0
ENDBLK
  5
5F88
  8
0
  0
BLOCK
  8
0
  2
*D14
 70
     1
 10
0.0
 20
0.0
 30
0.0
  3
*D14
  1

  0
LINE
  5
6648
  8
SP
 10
4602.6913692075732
 20
1213.030137746166
 30
0.0
 11
4706.9720854772531
 21
1213.0301377461651
 31
0.0
  0
LINE
  5
6649
  8
SP
 10
4602.6913692075723
 20
963.03013774616613
 30
0.0
 11
4706.9720854772531
 21
963.03013774616613
 31
0.0
  0
LINE
  5
664A
  8
SP
 10
4696.9720854772531
 20
1188.0301377461651
 30
0.0
 11
4696.9720854772531
 21
988.03013774616613
 31
0.0
  0
INSERT
  5
664B
  8
SP
  2
_OPEN
 10
4696.9720854772531
 20
1213.0301377461651
 30
0.0
 41
25.0
 42
25.0
 43
25.0
 50
90.0
  0
INSERT
  5
664C
  8
SP
  2
_OPEN
 10
4696.9720854772531
 20
963.03013774616613
 30
0.0
 41
25.0
 42
25.0
 43
25.0
 50
270.0
  0
TEXT
  5
664D
  8
SP
 10
4686.9720854772531
 20
1033.2590720859439
 30
0.0
 40
30.0
  1
φ250
 50
90.0
 51
15.0
  0
POINT
  5
664E
  8
DEFPOINTS
 62
     0
 10
4592.6913692075741
 20
1213.030137746166
 30
0.0
  0
POINT
  5
664F
  8
DEFPOINTS
 62
     0
 10
4592.6913692075714
 20
963.03013774616613
 30
0.0
  0
POINT
  5
6650
  8
DEFPOINTS
 62
     0
 10
4696.9720854772531
 20
963.03013774616613
 30
0.0
  0
ENDBLK
  5
6647
  8
0
  0
BLOCK
  8
0
  2
*D15
 70
     1
 10
0.0
 20
0.0
 30
0.0
  3
*D15
  1

  0
LINE
  5
666D
  8
SP
 10
4403.6913692075696
 20
1348.030137746164
 30
0.0
 11
4403.6913692075696
 21
1428.0288877750991
 31
0.0
  0
LINE
  5
666E
  8
SP
 10
4583.6913692075723
 20
1348.030137746164
 30
0.0
 11
4583.6913692075723
 21
1428.0288877750991
 31
0.0
  0
LINE
  5
666F
  8
SP
 10
4428.6913692075696
 20
1418.0288877750991
 30
0.0
 11
4558.6913692075723
 21
1418.0288877750991
 31
0.0
  0
INSERT
  5
6670
  8
SP
  2
_OPEN
 10
4403.6913692075696
 20
1418.0288877750991
 30
0.0
 41
25.0
 42
25.0
 43
25.0
 50
180.0
  0
INSERT
  5
6671
  8
SP
  2
_OPEN
 10
4583.6913692075723
 20
1418.0288877750991
 30
0.0
 41
25.0
 42
25.0
 43
25.0
  0
TEXT
  5
6672
  8
SP
 10
4452.1840316771013
 20
1428.0288877750991
 30
0.0
 40
30.0
  1
180
 51
15.0
  0
POINT
  5
6673
  8
DEFPOINTS
 62
     0
 10
4403.6913692075696
 20
1338.030137746164
 30
0.0
  0
POINT
  5
6674
  8
DEFPOINTS
 62
     0
 10
4583.6913692075723
 20
1338.030137746164
 30
0.0
  0
POINT
  5
6675
  8
DEFPOINTS
 62
     0
 10
4583.6913692075723
 20
1418.0288877750991
 30
0.0
  0
ENDBLK
  5
6677
  8
0
  0
BLOCK
  8
0
  2
*D16
 70
     1
 10
0.0
 20
0.0
 30
0.0
  3
*D16
  1

  0
LINE
  5
66A4
  8
SP
 10
4493.6913692075714
 20
1468.0288877750991
 30
0.0
 11
4493.6913692075714
 21
1503.6400384071269
 31
0.0
  0
LINE
  5
66A5
  8
SP
 10
4592.6913692075741
 20
1242.030137746166
 30
0.0
 11
4592.6913692075741
 21
1503.6400384071269
 31
0.0
  0
LINE
  5
66A6
  8
SP
 10
4518.6913692075714
 20
1493.6400384071269
 30
0.0
 11
4567.6913692075741
 21
1493.6400384071269
 31
0.0
  0
INSERT
  5
66A7
  8
SP
  2
_OPEN
 10
4493.6913692075714
 20
1493.6400384071269
 30
0.0
 41
25.0
 42
25.0
 43
25.0
 50
180.0
  0
INSERT
  5
66A8
  8
SP
  2
_OPEN
 10
4592.6913692075741
 20
1493.6400384071269
 30
0.0
 41
25.0
 42
25.0
 43
25.0
  0
TEXT
  5
66A9
  8
SP
 10
4515.6007027496762
 20
1503.6400384071269
 30
0.0
 40
30.0
  1
99
 51
15.0
  0
POINT
  5
66AA
  8
DEFPOINTS
 62
     0
 10
4493.6913692075714
 20
1458.0288877750991
 30
0.0
  0
POINT
  5
66AB
  8
DEFPOINTS
 62
     0
 10
4592.6913692075741
 20
1232.030137746166
 30
0.0
  0
POINT
  5
66AC
  8
DEFPOINTS
 62
     0
 10
4592.6913692075741
 20
1493.6400384071269
 30
0.0
  0
ENDBLK
  5
6684
  8
0
  0
BLOCK
  8
0
  2
*D17
 70
     1
 10
0.0
 20
0.0
 30
0.0
  3
*D17
  1

  0
LINE
  5
66AD
  8
SP
 10
4493.6913692075714
 20
1468.0288877750991
 30
0.0
 11
4493.6913692075714
 21
1503.6400384071269
 31
0.0
  0
LINE
  5
66AE
  8
SP
 10
4141.8913692075721
 20
1170.8074817461661
 30
0.0
 11
4141.8913692075721
 21
1503.6400384071269
 31
0.0
  0
LINE
  5
66AF
  8
SP
 10
4468.6913692075714
 20
1493.6400384071269
 30
0.0
 11
4166.8913692075712
 21
1493.6400384071269
 31
0.0
  0
INSERT
  5
66B0
  8
SP
  2
_OPEN
 10
4493.6913692075714
 20
1493.6400384071269
 30
0.0
 41
25.0
 42
25.0
 43
25.0
  0
INSERT
  5
66B1
  8
SP
  2
_OPEN
 10
4141.8913692075721
 20
1493.6400384071269
 30
0.0
 41
25.0
 42
25.0
 43
25.0
 50
180.0
  0
TEXT
  5
66B2
  8
SP
 10
4250.8816674671707
 20
1503.6400384071269
 30
0.0
 40
30.0
  1
（400）
 51
15.0
  0
POINT
  5
66B3
  8
DEFPOINTS
 62
     0
 10
4493.6913692075714
 20
1458.0288877750991
 30
0.0
  0
POINT
  5
66B4
  8
DEFPOINTS
 62
     0
 10
4141.8913692075721
 20
1160.8074817461661
 30
0.0
  0
POINT
  5
66B5
  8
DEFPOINTS
 62
     0
 10
4141.8913692075721
 20
1493.6400384071269
 30
0.0
  0
ENDBLK
  5
669A
  8
0
  0
BLOCK
  8
0
  2
A$C40AB6E05
 70
     0
 10
0.0
 20
0.0
 30
0.0
  3
A$C40AB6E05
  1

  0
LINE
  5
6751
  8
1
 10
-160.00000000000361
 20
-307.99999999999181
 30
0.0
 11
-160.00000000000591
 21
-99.000000000001606
 31
0.0
  0
LINE
  5
6752
  8
1
 10
-190.00000000000361
 20
-298.9999999999954
 30
0.0
 11
-190.00000000000591
 21
-99.000000000001364
 31
0.0
  0
LINE
  5
6753
  8
1
 10
-33.5
 20
-124.79999999999831
 30
0.0
 11
-33.5
 21
-133.79999999999831
 31
0.0
  0
LINE
  5
6754
  8
1
 10
-75.5
 20
-156.29999999999831
 30
0.0
 11
-75.5
 21
-135.79999999999831
 31
0.0
  0
ARC
  5
6755
  8
1
 10
-73.5
 20
-135.79999999999831
 30
0.0
 40
2.0
 50
90.0
 51
180.0
  0
LINE
  5
6756
  8
1
 10
-72.815002999999706
 20
-133.79999999999831
 30
0.0
 11
-64.184998000000633
 21
-133.79999999999831
 31
0.0
  0
LINE
  5
6757
  8
1
 10
-64.065796000000773
 20
-133.79999999999831
 30
0.0
 11
-73.065796000000773
 21
-133.79999999999831
 31
0.0
  0
LINE
  5
6758
  8
1
 10
-160.0000000000054
 20
-132.9999999999915
 30
0.0
 11
-33.5
 21
-132.99999999999361
 31
0.0
  0
CIRCLE
  5
6759
  8
FUTO
 10
-177.000000000005
 20
-119.00000000000109
 30
0.0
 40
6.0
  0
LINE
  5
675A
  8
CT
 10
-164.8129139847405
 20
-119.00000000000109
 30
0.0
 11
-189.18708601526981
 21
-119.00000000000109
 31
0.0
  0
LINE
  5
675B
  8
CT
 10
-177.000000000005
 20
-131.18708601526569
 30
0.0
 11
-177.000000000005
 21
-106.8129139847364
 31
0.0
  0
ARC
  5
675C
  8
1
 10
-143.99999999999631
 20
-95.999999999999091
 30
0.0
 40
3.0
 50
180.0
 51
270.0
  0
LINE
  5
675D
  8
1
 10
-146.99999999999631
 20
-93.999999999999091
 30
0.0
 11
-146.99999999999631
 21
-95.999999999999091
 31
0.0
  0
LINE
  5
675E
  8
1
 10
-146.99999999999631
 20
-93.999999999999091
 30
0.0
 11
-146.99999999999631
 21
-95.999999999999091
 31
0.0
  0
ARC
  5
675F
  8
1
 10
-149.99999999999631
 20
-93.999999999999091
 30
0.0
 40
3.0
 50
0.0
 51
90.0
  0
LINE
  5
6760
  8
1
 10
-22.5
 20
-110.9999999999972
 30
0.0
 11
-22.5
 21
-113.8000000000001
 31
0.0
  0
ARC
  5
6761
  8
1
 10
-32.5
 20
-124.79999999999831
 30
0.0
 40
1.0
 50
90.0
 51
180.0
  0
LINE
  5
6762
  8
FUTO
 10
190.00000000000179
 20
-99.000000000001137
 30
0.0
 11
-189.9999999999981
 21
-99.000000000001137
 31
0.0
  0
ARC
  5
6763
  8
1
 10
150.0
 20
-93.999999999999091
 30
0.0
 40
3.0
 50
90.0
 51
180.0
  0
LINE
  5
6764
  8
1
 10
147.0
 20
-93.999999999999091
 30
0.0
 11
147.0
 21
-95.999999999999091
 31
0.0
  0
LINE
  5
6765
  8
1
 10
147.0
 20
-93.999999999999091
 30
0.0
 11
147.0
 21
-95.999999999999091
 31
0.0
  0
ARC
  5
6766
  8
1
 10
144.0
 20
-95.999999999999091
 30
0.0
 40
3.0
 50
270.0
 51
0.0
  0
LINE
  5
6767
  8
1
 10
160.0
 20
-307.99999999999932
 30
0.0
 11
160.00000000000179
 21
-99.000000000001137
 31
0.0
  0
LINE
  5
6768
  8
FUTO
 10
190.0
 20
-298.9999999999954
 30
0.0
 11
190.00000000000179
 21
-99.000000000001137
 31
0.0
  0
LINE
  5
6769
  8
1
 10
33.499999999998181
 20
-132.99999999999719
 30
0.0
 11
160.00000000000151
 21
-132.99999999999719
 31
0.0
  0
LINE
  5
676A
  8
CT
 10
177.00000000000159
 20
-131.18708601526569
 30
0.0
 11
177.00000000000159
 21
-106.8129139847364
 31
0.0
  0
CIRCLE
  5
676B
  8
FUTO
 10
177.00000000000159
 20
-119.00000000000109
 30
0.0
 40
6.0
  0
CIRCLE
  5
676C
  8
FUTO
 10
177.00000000000159
 20
-279.00000000000108
 30
0.0
 40
6.0
  0
LINE
  5
676D
  8
CT
 10
164.81291398473689
 20
-279.00000000000108
 30
0.0
 11
189.1870860152662
 21
-279.00000000000108
 31
0.0
  0
LINE
  5
676E
  8
CT
 10
177.00000000000159
 20
-291.18708601526572
 30
0.0
 11
177.00000000000159
 21
-266.8129139847365
 31
0.0
  0
LINE
  5
676F
  8
FUTO
 10
159.99999999999969
 20
-298.9999999999954
 30
0.0
 11
190.00000000000179
 21
-298.9999999999954
 31
0.0
  0
LINE
  5
6770
  8
FUTO
 10
190.0
 20
-299.00000000000108
 30
0.0
 11
160.0
 21
-299.00000000000108
 31
0.0
  0
LINE
  5
6771
  8
1
 10
74.799988000000667
 20
-277.79999999999831
 30
0.0
 11
74.799988000000667
 21
-156.29999999999831
 31
0.0
  0
LINE
  5
6772
  8
1
 10
85.0
 20
-307.99999999999721
 30
0.0
 11
160.0
 21
-307.99999999999932
 31
0.0
  0
LINE
  5
6773
  8
1
 10
85.0
 20
-316.29999999999831
 30
0.0
 11
85.0
 21
-277.79999999999831
 31
0.0
  0
LINE
  5
6774
  8
1
 10
0.000000000001819
 20
-317.79999999999831
 30
0.0
 11
83.499999999999986
 21
-317.79999999999831
 31
0.0
  0
LINE
  5
6775
  8
1
 10
-72.777344000000085
 20
-351.79999999999831
 30
0.0
 11
72.626524999999674
 21
-351.79999999999831
 31
0.0
  0
ARC
  5
6776
  8
1
 10
83.499999999999986
 20
-316.29999999999831
 30
0.0
 40
1.4999849999999999
 50
270.0
 51
0.0005800000062725
  0
ARC
  5
6777
  8
1
 10
81.815002999999706
 20
-318.79993899999948
 30
0.0
 40
0.999898
 50
89.99650299999503
 51
168.37008699999251
  0
LINE
  5
6778
  8
1
 10
74.246521000000939
 20
-350.60248999999828
 30
0.0
 11
80.835633000000598
 21
-318.59833899999921
 31
0.0
  0
LINE
  5
6779
  8
1
 10
85.0
 20
-277.79999999999831
 30
0.0
 11
-85.0
 21
-277.79999999999831
 31
0.0
  0
LINE
  5
677A
  8
1
 10
-160.00000000000361
 20
-307.99999999999181
 30
0.0
 11
-84.999999999999091
 21
-307.9999999999954
 31
0.0
  0
LINE
  5
677B
  8
1
 10
-74.799988000000667
 20
-277.79999999999831
 30
0.0
 11
-74.799988000000667
 21
-156.29999999999831
 31
0.0
  0
LINE
  5
677C
  8
1
 10
-85.0
 20
-316.29999999999831
 30
0.0
 11
-85.0
 21
-277.79999999999831
 31
0.0
  0
ARC
  5
677D
  8
1
 10
-81.815002999999706
 20
-318.79993899999948
 30
0.0
 40
0.999898
 50
11.629913000007431
 51
90.003497000004955
  0
LINE
  5
677E
  8
1
 10
-74.246521000000939
 20
-350.60248999999828
 30
0.0
 11
-80.835633000000598
 21
-318.59833899999921
 31
0.0
  0
ARC
  5
677F
  8
1
 10
-83.499999999999986
 20
-316.29999999999831
 30
0.0
 40
1.4999849999999999
 50
179.99941999999371
 51
270.0
  0
LINE
  5
6780
  8
1
 10
-0.000000000001819
 20
-317.79999999999831
 30
0.0
 11
-83.499999999999986
 21
-317.79999999999831
 31
0.0
  0
LINE
  5
6781
  8
CT
 10
-177.000000000005
 20
-291.18708601526572
 30
0.0
 11
-177.000000000005
 21
-266.8129139847365
 31
0.0
  0
LINE
  5
6782
  8
CT
 10
-164.8129139847405
 20
-279.00000000000108
 30
0.0
 11
-189.18708601526981
 21
-279.00000000000108
 31
0.0
  0
CIRCLE
  5
6783
  8
FUTO
 10
-177.000000000005
 20
-279.00000000000108
 30
0.0
 40
6.0
  0
LINE
  5
6784
  8
1
 10
-189.99999999999909
 20
-298.9999999999954
 30
0.0
 11
-160.00000000000361
 21
-298.9999999999954
 31
0.0
  0
LINE
  5
6785
  8
1
 10
33.499999999998181
 20
-133.79999999999831
 30
0.0
 11
33.5
 21
-124.79999999999831
 31
0.0
  0
LINE
  5
6786
  8
1
 10
0.0
 20
-133.79999999999831
 30
0.0
 11
73.5
 21
-133.79999999999831
 31
0.0
  0
LINE
  5
6787
  8
1
 10
75.5
 20
-156.29999999999831
 30
0.0
 11
0.000000000001819
 21
-156.29999999999831
 31
0.0
  0
LINE
  5
6788
  8
1
 10
-75.5
 20
-156.29999999999831
 30
0.0
 11
-0.000000000001819
 21
-156.29999999999831
 31
0.0
  0
LINE
  5
6789
  8
1
 10
0.0
 20
-133.79999999999831
 30
0.0
 11
-73.5
 21
-133.79999999999831
 31
0.0
  0
LINE
  5
678A
  8
1
 10
75.5
 20
-156.29999999999831
 30
0.0
 11
75.5
 21
-135.79999999999831
 31
0.0
  0
ARC
  5
678B
  8
1
 10
73.5
 20
-135.79999999999831
 30
0.0
 40
2.0
 50
0.0
 51
90.0
  0
LINE
  5
678C
  8
1
 10
64.065796000000773
 20
-133.79999999999831
 30
0.0
 11
73.065796000000773
 21
-133.79999999999831
 31
0.0
  0
LINE
  5
678D
  8
1
 10
72.815002999999706
 20
-133.79999999999831
 30
0.0
 11
64.184998000000633
 21
-133.79999999999831
 31
0.0
  0
LINE
  5
678E
  8
1
 10
-17.5
 20
-118.8000000000001
 30
0.0
 11
17.5
 21
-118.8000000000001
 31
0.0
  0
LINE
  5
678F
  8
1
 10
32.5
 20
-123.79999999999831
 30
0.0
 11
-32.5
 21
-123.79999999999831
 31
0.0
  0
LINE
  5
6790
  8
1
 10
-10.5
 20
-118.79999999999831
 30
0.0
 11
-10.5
 21
-123.79999999999831
 31
0.0
  0
ARC
  5
6791
  8
1
 10
32.5
 20
-124.79999999999831
 30
0.0
 40
1.0
 50
0.0
 51
90.0
  0
LINE
  5
6792
  8
1
 10
10.5
 20
-118.79999999999831
 30
0.0
 11
10.5
 21
-123.79999999999831
 31
0.0
  0
LINE
  5
6793
  8
1
 10
22.5
 20
-113.8000000000001
 30
0.0
 11
17.5
 21
-118.8000000000001
 31
0.0
  0
LINE
  5
6794
  8
1
 10
22.5
 20
-101.2999999999965
 30
0.0
 11
22.5
 21
-113.8000000000001
 31
0.0
  0
LINE
  5
6795
  8
1
 10
-17.5
 20
-118.8000000000001
 30
0.0
 11
-22.5
 21
-113.8000000000001
 31
0.0
  0
ENDBLK
  5
6797
  8
0
  0
BLOCK
  8
0
  2
*D19
 70
     1
 10
0.0
 20
0.0
 30
0.0
  3
*D19
  1

  0
LINE
  5
6BB2
  8
SP
 10
3443.6913692075709
 20
2033.121728488441
 30
0.0
 11
3333.3177934528621
 21
2033.121728488441
 31
0.0
  0
LINE
  5
6BB3
  8
SP
 10
3443.6913692075718
 20
1833.121728488446
 30
0.0
 11
3333.3177934528621
 21
1833.121728488446
 31
0.0
  0
LINE
  5
6BB4
  8
SP
 10
3343.3177934528612
 20
2008.121728488441
 30
0.0
 11
3343.3177934528612
 21
1858.121728488446
 31
0.0
  0
INSERT
  5
6BB5
  8
SP
  2
_OPEN
 10
3343.3177934528612
 20
2033.121728488441
 30
0.0
 41
25.0
 42
25.0
 43
25.0
 50
90.0
  0
INSERT
  5
6BB6
  8
SP
  2
_OPEN
 10
3343.3177934528612
 20
1833.121728488446
 30
0.0
 41
25.0
 42
25.0
 43
25.0
 50
270.0
  0
TEXT
  5
6BB7
  8
SP
 10
3333.3177934528612
 20
1892.0109168660661
 30
0.0
 40
30.0
  1
200
 50
90.0
 51
15.0
  0
POINT
  5
6BB8
  8
DEFPOINTS
 62
     0
 10
3453.69136920757
 20
2033.121728488441
 30
0.0
  0
POINT
  5
6BB9
  8
DEFPOINTS
 62
     0
 10
3453.6913692075732
 20
1833.121728488446
 30
0.0
  0
POINT
  5
6BBA
  8
DEFPOINTS
 62
     0
 10
3343.3177934528612
 20
1833.121728488446
 30
0.0
  0
ENDBLK
  5
6B7D
  8
0
  0
BLOCK
  8
0
  2
*D20
 70
     1
 10
0.0
 20
0.0
 30
0.0
  3
*D20
  1

  0
LINE
  5
6BBB
  8
SP
 10
3833.6913692075759
 20
1823.121728488446
 30
0.0
 11
3833.6913692075759
 21
1665.5535321584241
 31
0.0
  0
LINE
  5
6BBC
  8
SP
 10
3453.6913692075732
 20
1823.121728488446
 30
0.0
 11
3453.6913692075732
 21
1665.5535321584241
 31
0.0
  0
LINE
  5
6BBD
  8
SP
 10
3808.6913692075759
 20
1675.5535321584241
 30
0.0
 11
3478.6913692075718
 21
1675.5535321584241
 31
0.0
  0
INSERT
  5
6BBE
  8
SP
  2
_OPEN
 10
3833.6913692075759
 20
1675.5535321584241
 30
0.0
 41
25.0
 42
25.0
 43
25.0
  0
INSERT
  5
6BBF
  8
SP
  2
_OPEN
 10
3453.6913692075732
 20
1675.5535321584241
 30
0.0
 41
25.0
 42
25.0
 43
25.0
 50
180.0
  0
TEXT
  5
6BC0
  8
SP
 10
3601.8149884639652
 20
1685.5535321584241
 30
0.0
 40
30.0
  1
380
 51
15.0
  0
POINT
  5
6BC1
  8
DEFPOINTS
 62
     0
 10
3833.6913692075759
 20
1833.121728488446
 30
0.0
  0
POINT
  5
6BC2
  8
DEFPOINTS
 62
     0
 10
3453.6913692075732
 20
1833.121728488446
 30
0.0
  0
POINT
  5
6BC3
  8
DEFPOINTS
 62
     0
 10
3453.6913692075732
 20
1675.5535321584241
 30
0.0
  0
ENDBLK
  5
6B89
  8
0
  0
BLOCK
  8
0
  2
*D21
 70
     1
 10
0.0
 20
0.0
 30
0.0
  3
*D21
  1

  0
LINE
  5
6BC4
  8
SP
 10
3443.6913692075709
 20
2033.121728488441
 30
0.0
 11
3333.3177934528599
 21
2033.121728488441
 31
0.0
  0
LINE
  5
6BC5
  8
SP
 10
3423.5437546342218
 20
2132.121728488441
 30
0.0
 11
3333.3177934528599
 21
2132.121728488441
 31
0.0
  0
LINE
  5
6BC6
  8
SP
 10
3343.3177934528612
 20
2058.1217284884401
 30
0.0
 11
3343.3177934528612
 21
2107.121728488441
 31
0.0
  0
INSERT
  5
6BC7
  8
SP
  2
_OPEN
 10
3343.3177934528612
 20
2033.121728488441
 30
0.0
 41
25.0
 42
25.0
 43
25.0
 50
270.0
  0
INSERT
  5
6BC8
  8
SP
  2
_OPEN
 10
3343.3177934528612
 20
2132.121728488441
 30
0.0
 41
25.0
 42
25.0
 43
25.0
 50
90.0
  0
TEXT
  5
6BC9
  8
SP
 10
3333.3177934528599
 20
2055.0310620305459
 30
0.0
 40
30.0
  1
99
 50
90.0
 51
15.0
  0
POINT
  5
6BCA
  8
DEFPOINTS
 62
     0
 10
3453.69136920757
 20
2033.121728488441
 30
0.0
  0
POINT
  5
6BCB
  8
DEFPOINTS
 62
     0
 10
3433.5437546342218
 20
2132.121728488441
 30
0.0
  0
POINT
  5
6BCC
  8
DEFPOINTS
 62
     0
 10
3343.3177934528612
 20
2132.121728488441
 30
0.0
  0
ENDBLK
  5
6B95
  8
0
  0
BLOCK
  8
0
  2
_NONE
 70
     0
 10
0.0
 20
0.0
 30
0.0
  3
_NONE
  1

  0
ENDBLK
  5
6F53
  8
0
  0
BLOCK
  8
0
  2
*D23
 70
     1
 10
0.0
 20
0.0
 30
0.0
  3
*D23
  1

  0
LINE
  5
747E
  8
SP
 10
3833.6913692075732
 20
741.03013774616329
 30
0.0
 11
3833.6913692075732
 21
671.03013774616329
 31
0.0
  0
LINE
  5
747F
  8
SP
 10
3643.6913692075718
 20
738.53182892376844
 30
0.0
 11
3643.6913692075718
 21
671.03013774616329
 31
0.0
  0
LINE
  5
7480
  8
SP
 10
3808.6913692075732
 20
681.0301377461634
 30
0.0
 11
3668.6913692075718
 21
681.0301377461634
 31
0.0
  0
INSERT
  5
7481
  8
SP
  2
_OPEN
 10
3833.6913692075732
 20
681.0301377461634
 30
0.0
 41
25.0
 42
25.0
 43
25.0
  0
INSERT
  5
7482
  8
SP
  2
_OPEN
 10
3643.6913692075718
 20
681.0301377461634
 30
0.0
 41
25.0
 42
25.0
 43
25.0
 50
180.0
  0
TEXT
  5
7483
  8
SP
 10
3697.1840316771031
 20
691.03013774616329
 30
0.0
 40
30.0
  1
190
 51
15.0
  0
POINT
  5
7484
  8
DEFPOINTS
 62
     0
 10
3833.6913692075732
 20
751.0301377461634
 30
0.0
  0
POINT
  5
7485
  8
DEFPOINTS
 62
     0
 10
3643.6913692075718
 20
748.53182892376844
 30
0.0
  0
POINT
  5
7486
  8
DEFPOINTS
 62
     0
 10
3643.6913692075718
 20
681.0301377461634
 30
0.0
  0
ENDBLK
  5
70F5
  8
0
  0
BLOCK
  8
0
  2
*D24
 70
     1
 10
0.0
 20
0.0
 30
0.0
  3
*D24
  1

  0
LINE
  5
7149
  8
SP
 10
3453.6913692075718
 20
741.03013774616522
 30
0.0
 11
3453.6913692075718
 21
601.03013774616522
 31
0.0
  0
LINE
  5
714A
  8
SP
 10
3833.6913692075732
 20
741.03013774616329
 30
0.0
 11
3833.6913692075732
 21
601.03013774616522
 31
0.0
  0
LINE
  5
714B
  8
SP
 10
3478.6913692075718
 20
611.03013774616522
 30
0.0
 11
3808.6913692075732
 21
611.03013774616522
 31
0.0
  0
INSERT
  5
714C
  8
SP
  2
_OPEN
 10
3453.6913692075718
 20
611.03013774616522
 30
0.0
 41
25.0
 42
25.0
 43
25.0
 50
180.0
  0
INSERT
  5
714D
  8
SP
  2
_OPEN
 10
3833.6913692075732
 20
611.03013774616522
 30
0.0
 41
25.0
 42
25.0
 43
25.0
  0
TEXT
  5
714E
  8
SP
 10
3601.8149884639629
 20
621.03013774616522
 30
0.0
 40
30.0
  1
380
 51
15.0
  0
POINT
  5
714F
  8
DEFPOINTS
 62
     0
 10
3453.6913692075718
 20
751.03013774616522
 30
0.0
  0
POINT
  5
7150
  8
DEFPOINTS
 62
     0
 10
3833.6913692075732
 20
751.0301377461634
 30
0.0
  0
POINT
  5
7151
  8
DEFPOINTS
 62
     0
 10
3833.6913692075732
 20
611.03013774616522
 30
0.0
  0
ENDBLK
  5
7101
  8
0
  0
BLOCK
  8
0
  2
*D25
 70
     1
 10
0.0
 20
0.0
 30
0.0
  3
*D25
  1

  0
LINE
  5
7487
  8
SP
 10
3643.6913692075718
 20
738.53182892376844
 30
0.0
 11
3643.6913692075718
 21
671.03013774616522
 31
0.0
  0
LINE
  5
7488
  8
SP
 10
3453.6913692075718
 20
741.03013774616522
 30
0.0
 11
3453.6913692075718
 21
671.03013774616522
 31
0.0
  0
LINE
  5
7489
  8
SP
 10
3618.6913692075732
 20
681.03013774616522
 30
0.0
 11
3478.6913692075718
 21
681.03013774616522
 31
0.0
  0
INSERT
  5
748A
  8
SP
  2
_OPEN
 10
3643.6913692075718
 20
681.03013774616522
 30
0.0
 41
25.0
 42
25.0
 43
25.0
  0
INSERT
  5
748B
  8
SP
  2
_OPEN
 10
3453.6913692075718
 20
681.03013774616522
 30
0.0
 41
25.0
 42
25.0
 43
25.0
 50
180.0
  0
TEXT
  5
748C
  8
SP
 10
3507.1840316771022
 20
691.03013774616522
 30
0.0
 40
30.0
  1
190
 51
15.0
  0
POINT
  5
748D
  8
DEFPOINTS
 62
     0
 10
3643.6913692075718
 20
748.53182892376844
 30
0.0
  0
POINT
  5
748E
  8
DEFPOINTS
 62
     0
 10
3453.6913692075718
 20
751.03013774616522
 30
0.0
  0
POINT
  5
748F
  8
DEFPOINTS
 62
     0
 10
3453.6913692075718
 20
681.03013774616522
 30
0.0
  0
ENDBLK
  5
710D
  8
0
  0
BLOCK
  8
0
  2
*D26
 70
     1
 10
0.0
 20
0.0
 30
0.0
  3
*D26
  1

  0
LINE
  5
74F0
  8
SP
 10
4394.6913692075723
 20
741.03013774616522
 30
0.0
 11
4394.6913692075723
 21
623.03013774616522
 31
0.0
  0
LINE
  5
74F1
  8
SP
 10
4493.6913692075714
 20
846.33073359066111
 30
0.0
 11
4493.6913692075714
 21
623.03013774616522
 31
0.0
  0
LINE
  5
74F2
  8
SP
 10
4419.6913692075723
 20
633.03013774616522
 30
0.0
 11
4468.6913692075714
 21
633.03013774616522
 31
0.0
  0
INSERT
  5
74F3
  8
SP
  2
_OPEN
 10
4394.6913692075723
 20
633.03013774616522
 30
0.0
 41
25.0
 42
25.0
 43
25.0
 50
180.0
  0
INSERT
  5
74F4
  8
SP
  2
_OPEN
 10
4493.6913692075714
 20
633.03013774616522
 30
0.0
 41
25.0
 42
25.0
 43
25.0
  0
TEXT
  5
74F5
  8
SP
 10
4416.6007027496762
 20
643.03013774616522
 30
0.0
 40
30.0
  1
99
 51
15.0
  0
POINT
  5
74F6
  8
DEFPOINTS
 62
     0
 10
4394.6913692075723
 20
751.03013774616522
 30
0.0
  0
POINT
  5
74F7
  8
DEFPOINTS
 62
     0
 10
4493.6913692075714
 20
856.330733590661
 30
0.0
  0
POINT
  5
74F8
  8
DEFPOINTS
 62
     0
 10
4493.6913692075714
 20
633.03013774616522
 30
0.0
  0
ENDBLK
  5
7133
  8
0
  0
BLOCK
  8
0
  2
*D27
 70
     1
 10
0.0
 20
0.0
 30
0.0
  3
*D27
  1

  0
LINE
  5
7178
  8
SP
 10
4194.6913692075723
 20
741.03013774616522
 30
0.0
 11
4194.6913692075723
 21
623.03013774616522
 31
0.0
  0
LINE
  5
7179
  8
SP
 10
4394.6913692075723
 20
741.03013774616522
 30
0.0
 11
4394.6913692075723
 21
623.03013774616522
 31
0.0
  0
LINE
  5
717A
  8
SP
 10
4219.6913692075732
 20
633.03013774616522
 30
0.0
 11
4369.6913692075723
 21
633.03013774616522
 31
0.0
  0
INSERT
  5
717B
  8
SP
  2
_OPEN
 10
4194.6913692075723
 20
633.03013774616522
 30
0.0
 41
25.0
 42
25.0
 43
25.0
 50
180.0
  0
INSERT
  5
717C
  8
SP
  2
_OPEN
 10
4394.6913692075723
 20
633.03013774616522
 30
0.0
 41
25.0
 42
25.0
 43
25.0
  0
TEXT
  5
717D
  8
SP
 10
4253.5805575851937
 20
643.03013774616522
 30
0.0
 40
30.0
  1
200
 51
15.0
  0
POINT
  5
717E
  8
DEFPOINTS
 62
     0
 10
4194.6913692075723
 20
751.03013774616522
 30
0.0
  0
POINT
  5
717F
  8
DEFPOINTS
 62
     0
 10
4394.6913692075723
 20
751.03013774616522
 30
0.0
  0
POINT
  5
7180
  8
DEFPOINTS
 62
     0
 10
4394.6913692075723
 20
633.03013774616522
 30
0.0
  0
ENDBLK
  5
713F
  8
0
  0
BLOCK
  8
0
  2
*D28
 70
     1
 10
0.0
 20
0.0
 30
0.0
  3
*D28
  1

  0
LINE
  5
7683
  8
SP
 10
3443.6913692075718
 20
833.03013774616329
 30
0.0
 11
3328.69136920757
 21
833.03013774616329
 31
0.0
  0
LINE
  5
7684
  8
SP
 10
3443.6913692075732
 20
811.03013774616511
 30
0.0
 11
3328.69136920757
 21
811.03013774616511
 31
0.0
  0
LINE
  5
7685
  8
SP
 10
3338.69136920757
 20
833.03013774616329
 30
0.0
 11
3338.69136920757
 21
858.03013774616329
 31
0.0
  0
LINE
  5
7686
  8
SP
 10
3338.69136920757
 20
811.03013774616511
 30
0.0
 11
3338.69136920757
 21
786.03013774616511
 31
0.0
  0
TEXT
  8
0
  40
30
  5
768C
  72
0
  71
0
 10
3237.39
 20
751.712
 30
0.000000
  1
（22）
  0
LINE
  5
7688
  8
SP
 10
3338.69136920757
 20
833.03013774616329
 30
0.0
 11
3338.69136920757
 21
811.03013774616511
 31
0.0
  0
POINT
  5
7689
  8
DEFPOINTS
 62
     0
 10
3453.6913692075718
 20
833.03013774616329
 30
0.0
  0
POINT
  5
768A
  8
DEFPOINTS
 62
     0
 10
3453.6913692075732
 20
811.03013774616511
 30
0.0
  0
POINT
  5
768B
  8
DEFPOINTS
 62
     0
 10
3338.69136920757
 20
811.03013774616511
 30
0.0
  0
ENDBLK
  5
745B
  8
0
  0
BLOCK
  8
0
  2
*D29
 70
     1
 10
0.0
 20
0.0
 30
0.0
  3
*D29
  1

  0
LINE
  5
7678
  8
SP
 10
3443.6913692075732
 20
811.03013774616511
 30
0.0
 11
3328.69136920757
 21
811.03013774616511
 31
0.0
  0
LINE
  5
7679
  8
SP
 10
3443.6913692075732
 20
751.03013774616318
 30
0.0
 11
3328.69136920757
 21
751.03013774616318
 31
0.0
  0
LINE
  5
767A
  8
SP
 10
3338.69136920757
 20
836.03013774616511
 30
0.0
 11
3338.69136920757
 21
861.03013774616511
 31
0.0
  0
LINE
  5
767B
  8
SP
 10
3338.69136920757
 20
726.03013774616318
 30
0.0
 11
3338.69136920757
 21
629.9568681832551
 31
0.0
  0
LINE
  5
767C
  8
SP
 10
3338.69136920757
 20
811.03013774616511
 30
0.0
 11
3338.69136920757
 21
751.03013774616318
 31
0.0
  0
INSERT
  5
767D
  8
SP
  2
_DOT
 10
3338.69136920757
 20
811.03013774616511
 30
0.0
 41
25.0
 42
25.0
 43
25.0
 50
270.0
  0
INSERT
  5
767E
  8
SP
  2
_OPEN
 10
3338.69136920757
 20
751.03013774616318
 30
0.0
 41
25.0
 42
25.0
 43
25.0
 50
90.0
  0
TEXT
  8
0
  40
30
  5
768D
  72
0
  71
0
 10
3253.69
 20
612.394
 30
0.000000
  1
60
  0
POINT
  5
7680
  8
DEFPOINTS
 62
     0
 10
3453.6913692075732
 20
811.03013774616511
 30
0.0
  0
POINT
  5
7681
  8
DEFPOINTS
 62
     0
 10
3453.6913692075732
 20
751.03013774616318
 30
0.0
  0
POINT
  5
7682
  8
DEFPOINTS
 62
     0
 10
3338.69136920757
 20
751.03013774616318
 30
0.0
  0
ENDBLK
  5
7469
  8
0
  0
ENDSEC
  0
SECTION
  2
ENTITIES
  0
LINE
  5
4496
  8
4
 10
5022.7324314661064
 20
96.092404061039474
 30
0.0
 11
2922.7324314661059
 21
96.092404061039474
 31
0.0
  0
LINE
  5
4497
  8
4
 10
2922.7324314661059
 20
3046.0924040610389
 30
0.0
 11
5022.7324314661064
 21
3046.0924040610389
 31
0.0
  0
LINE
  5
44A1
  8
4
 10
2922.7324314661059
 20
96.092404061039474
 30
0.0
 11
2922.7324314661059
 21
3046.0924040610389
 31
0.0
  0
LINE
  5
45B4
  8
4
 10
5022.7324314661064
 20
3046.0924040610389
 30
0.0
 11
5022.7324314661064
 21
96.092404061039474
 31
0.0
  0
LINE
  5
45BA
  8
1
 10
4394.6913692075723
 20
1359.0301377461651
 30
0.0
 11
4592.6913692075677
 21
1359.0301377461619
 31
0.0
  0
LINE
  5
45BB
  8
1
 10
4403.6913692075696
 20
1338.030137746164
 30
0.0
 11
4583.6913692075723
 21
1338.030137746164
 31
0.0
  0
LINE
  5
45BC
  8
1
 10
4402.6913692075723
 20
1339.030137746164
 30
0.0
 11
4584.691369207575
 21
1339.0301377461631
 31
0.0
  0
LINE
  5
45BE
  8
1
 10
4414.6913692075714
 20
912.03013774616613
 30
0.0
 11
4572.6913692075714
 21
912.03013774616613
 31
0.0
  0
LINE
  5
45BF
  8
1
 10
4414.6913692075714
 20
911.03013774616613
 30
0.0
 11
4572.6913692075714
 21
911.03013774616613
 31
0.0
  0
LINE
  5
45C0
  8
2
 10
4125.602924579669
 20
1088.030137746166
 30
0.0
 11
4633.1354916507289
 21
1088.030137746166
 31
0.0
  0
LINE
  5
45F4
  8
1
 10
4403.6913692075714
 20
923.03013774616602
 30
0.0
 11
4403.6913692075714
 21
1088.030137746166
 31
0.0
  0
LINE
  5
45F6
  8
1
 10
4402.6913692075714
 20
923.03013774616602
 30
0.0
 11
4402.6913692075714
 21
1088.030137746166
 31
0.0
  0
LINE
  5
45F7
  8
2
 10
4493.6913692075714
 20
1403.515821190038
 30
0.0
 11
4493.6913692075714
 21
856.330733590661
 31
0.0
  0
ARC
  5
45F9
  8
1
 10
4414.6913692075714
 20
923.03013774616602
 30
0.0
 40
12.0
 50
180.0
 51
270.0
  0
LINE
  5
4607
  8
1
 10
4402.6913692075714
 20
938.03013774616613
 30
0.0
 11
4402.6913692075714
 21
923.03013774616602
 31
0.0
  0
ARC
  5
4609
  8
1
 10
4414.6913692075714
 20
923.03013774616602
 30
0.0
 40
11.0
 50
180.0
 51
270.0
  0
LINE
  5
460E
  8
1
 10
4382.6913692075723
 20
1347.0301377461651
 30
0.0
 11
4382.691369207575
 21
1146.2742442100459
 31
0.0
  0
ARC
  5
461B
  8
1
 10
4394.6913692075723
 20
1347.0301377461651
 30
0.0
 40
12.0
 50
90.0
 51
180.00000000000031
  0
LINE
  5
461C
  8
1
 10
4403.6913692075696
 20
1338.030137746164
 30
0.0
 11
4403.6913692075723
 21
1088.030137746166
 31
0.0
  0
LINE
  5
461D
  8
1
 10
4402.6913692075723
 20
1339.030137746164
 30
0.0
 11
4402.6913692075723
 21
1087.0301377461651
 31
0.0
  0
LINE
  5
4621
  8
1
 10
4583.6913692075696
 20
1088.030137746166
 30
0.0
 11
4583.6913692075714
 21
923.03013774616602
 31
0.0
  0
LINE
  5
4624
  8
1
 10
4584.6913692075686
 20
1088.030137746166
 30
0.0
 11
4584.6913692075714
 21
923.03013774616602
 31
0.0
  0
LINE
  5
462A
  8
1
 10
4584.6913692075714
 20
938.03013774616613
 30
0.0
 11
4584.6913692075714
 21
923.03013774616602
 31
0.0
  0
ARC
  5
462B
  8
1
 10
4572.6913692075714
 20
923.03013774616602
 30
0.0
 40
11.0
 50
270.0
 51
0.0
  0
ARC
  5
462C
  8
1
 10
4572.6913692075714
 20
923.03013774616602
 30
0.0
 40
12.0
 50
270.0
 51
0.0
  0
LINE
  5
4639
  8
1
 10
4604.6913692075677
 20
1347.0301377461619
 30
0.0
 11
4604.6913692075741
 21
1092.0301377461651
 31
0.0
  0
LINE
  5
463A
  8
1
 10
4583.6913692075723
 20
1338.0301377461631
 30
0.0
 11
4583.6913692075723
 21
1088.030137746166
 31
0.0
  0
LINE
  5
463B
  8
1
 10
4584.691369207575
 20
1339.0301377461631
 30
0.0
 11
4584.6913692075677
 21
1087.0301377461651
 31
0.0
  0
LINE
  5
463C
  8
1
 10
4584.6913692075714
 20
1238.030137746166
 30
0.0
 11
4584.6913692075732
 21
1088.030137746166
 31
0.0
  0
ARC
  5
4644
  8
1
 10
4592.6913692075677
 20
1347.0301377461619
 30
0.0
 40
12.0
 50
0.0000000000003053
 51
90.0
  0
LINE
  5
464C
  8
4
 10
5022.7324314661064
 20
3046.0924040610389
 30
0.0
 11
5022.7324314661064
 21
3046.0924040610389
 31
0.0
  0
TEXT
  5
5476
  8
4
 10
3214.4069377329479
 20
2544.4293549289091
 30
0.0
 40
53.999999999999993
  1
左回転左横向
  0
TEXT
  5
5477
  8
4
 10
3382.3324314661058
 20
2695.5186316473701
 30
0.0
 40
72.0
  1
遠心式片吸込直動形多翼ファン
 72
     4
 11
3972.7324314661059
 21
2731.5186316473701
 31
0.0
  0
LINE
  5
5478
  8
4
 10
3172.7324314661059
 20
2631.5186316473701
 30
0.0
 11
4772.7324314661064
 21
2631.5186316473701
 31
0.0
  0
LINE
  5
5479
  8
4
 10
3172.7324314661059
 20
2831.5186316473701
 30
0.0
 11
4772.7324314661064
 21
2831.5186316473701
 31
0.0
  0
LINE
  5
547A
  8
4
 10
3172.7324314661059
 20
2831.5186316473701
 30
0.0
 11
3172.7324314661059
 21
2631.5186316473701
 31
0.0
  0
LINE
  5
547B
  8
4
 10
4363.349853825971
 20
2948.7621389323181
 30
0.0
 11
4772.7324314661064
 21
2948.7621389323181
 31
0.0
  0
LINE
  5
547C
  8
4
 10
4772.7324314661064
 20
2843.3734605079671
 30
0.0
 11
4363.349853825971
 21
2843.3734605079671
 31
0.0
  0
TEXT
  5
547E
  8
4
 10
4334.0284940661204
 20
2545.5387187150809
 30
0.0
 40
53.999999999999993
  1
縮尺：1/10
  0
LINE
  5
547F
  8
4
 10
4363.349853825971
 20
2843.3734605079671
 30
0.0
 11
4363.349853825971
 21
2948.7621389323181
 31
0.0
  0
TEXT
  5
5480
  8
4
 10
4391.7019907153963
 20
2868.170958877874
 30
0.0
 40
56.000000000000007
  1
No.
  0
LINE
  5
5481
  8
4
 10
4772.7324314661064
 20
2831.5186316473701
 30
0.0
 11
4772.7324314661064
 21
2631.5186316473701
 31
0.0
  0
LINE
  5
5482
  8
4
 10
4772.7324314661064
 20
2948.7621389323181
 30
0.0
 11
4772.7324314661064
 21
2843.3734605079671
 31
0.0
  0
TEXT
  5
5486
  8
4
 10
3408.9905374909031
 20
335.27468562959712
 30
0.0
 40
50.0
  1
機器型番
  0
TEXT
  5
5487
  8
4
 10
3411.2345123130081
 20
445.17255476419911
 30
0.0
 40
50.0
  1
機器名称
  0
LINE
  5
548A
  8
4
 10
3372.7324314661059
 20
513.62952889758606
 30
0.0
 11
4572.7324314661064
 21
513.62952889758606
 31
0.0
  0
LINE
  5
548B
  8
4
 10
3372.7324314661059
 20
413.62952889758611
 30
0.0
 11
4572.7324314661064
 21
413.62952889758611
 31
0.0
  0
LINE
  5
548C
  8
4
 10
3372.7324314661059
 20
313.62952889758611
 30
0.0
 11
4572.7324314661064
 21
313.62952889758611
 31
0.0
  0
LINE
  5
548D
  8
4
 10
3372.7324314661059
 20
513.62952889758606
 30
0.0
 11
3372.7324314661059
 21
313.62952889758611
 31
0.0
  0
LINE
  5
548E
  8
4
 10
4572.7324314661064
 20
513.62952889758606
 30
0.0
 11
4572.7324314661046
 21
313.62952889758611
 31
0.0
  0
LINE
  5
548F
  8
4
 10
3872.7324314661059
 20
513.62952889758606
 30
0.0
 11
3872.7324314661059
 21
313.62952889758611
 31
0.0
  0
TEXT
  5
5492
  8
4
 10
3900.4111769537708
 20
436.20129785515468
 30
0.0
 40
50.0
  1
ミツヤ多翼送風機
  0
TEXT
  5
5670
  8
4
 10
3909.386927051587
 20
330.78911317752949
 30
0.0
 40
50.0
  1
MF＃1 1/2-7
  0
LINE
  5
597D
  8
2
 10
3423.5437546342218
 20
1088.030137746164
 30
0.0
 11
3888.1045952243371
 21
1088.030137746164
 31
0.0
  0
ARC
  5
5E1B
  8
FUTO
 10
3623.69136920757
 20
1108.030137746164
 30
0.0
 40
230.0
 50
359.60817310073969
 51
90.000000000000028
  0
ARC
  5
5E1C
  8
FUTO
 10
3623.69136920757
 20
1108.030137746164
 30
0.0
 40
240.0
 50
359.60817310073969
 51
90.000000000000028
  0
ARC
  5
5E1D
  8
FUTO
 10
3660.6913692075709
 20
1105.030137746164
 30
0.0
 40
203.0
 50
269.5326782950051
 51
0.4279189677779492
  0
ARC
  5
5E1E
  8
FUTO
 10
3660.6913692075709
 20
1105.030137746164
 30
0.0
 40
193.0
 50
269.5326782950051
 51
0.4279189677779492
  0
DIMENSION
  5
5E20
  8
SP
  2
*D11
 10
3338.6913692075709
 20
833.03013774616602
 30
0.0
 11
3313.6913692075709
 21
960.53013774616545
 31
0.0
 70
     0
 13
3423.5437546342218
 23
1088.030137746164
 33
0.0
 14
3453.6913692075718
 24
833.03013774616602
 34
0.0
 50
90.0
  0
LINE
  5
5E21
  8
2
 10
3643.6913692075718
 20
748.53182892376844
 30
0.0
 11
3643.6913692075718
 21
1384.8458668319649
 31
0.0
  0
ARC
  5
5E22
  8
FUTO
 10
3433.1713998854279
 20
1028.5015516462361
 30
0.0
 40
57.203726762688042
 50
8.3279243017862772
 51
53.396496326400062
  0
ARC
  5
5E23
  8
FUTO
 10
3427.69136920757
 20
1027.0301377461681
 30
0.0
 40
72.753061747871584
 50
11.54926182357848
 51
55.800380544557747
  0
ARC
  5
5E24
  8
1
 10
3643.6913692075718
 20
1088.030137746166
 30
0.0
 40
85.000007999999994
 50
180.0
 51
244.0822740000246
  0
CIRCLE
  5
5E25
  8
2
 10
3643.6913692075718
 20
1088.030137746166
 30
0.0
 40
136.0
  0
ARC
  5
5E26
  8
1
 10
3643.6913692075718
 20
1088.030137746166
 30
0.0
 40
85.0
 50
295.87553399999388
 51
180.0
  0
LINE
  5
5E27
  8
1
 10
3803.6913692075718
 20
1154.1301377461641
 30
0.0
 11
3803.6913692075709
 21
835.330137746167
 31
0.0
  0
LINE
  5
5E28
  8
1
 10
3801.3913692075721
 20
1154.1301377461641
 30
0.0
 11
3801.3913692075721
 21
833.0301377461642
 31
0.0
  0
LINE
  5
5E29
  8
1
 10
3483.6913692075718
 20
1154.1301377461641
 30
0.0
 11
3483.6913692075718
 21
835.33013774616529
 31
0.0
  0
LINE
  5
5E2A
  8
1
 10
3485.9913692075729
 20
1154.1301377461641
 30
0.0
 11
3485.9913692075729
 21
833.0301377461642
 31
0.0
  0
ARC
  5
5E2E
  8
FUTO
 10
3657.69136920757
 20
1074.030137746164
 30
0.0
 40
162.0
 50
191.54926182357849
 51
270.51033324480647
  0
ARC
  5
5E2F
  8
FUTO
 10
3657.69136920757
 20
1074.030137746164
 30
0.0
 40
172.0
 50
191.54926182357849
 51
270.51033324480647
  0
LINE
  5
5E30
  8
1
 10
3776.3913692075721
 20
983.03013774616602
 30
0.0
 11
3776.3913692075721
 21
884.03013774616625
 31
0.0
  0
LINE
  5
5E31
  8
1
 10
3510.9913692075752
 20
983.03013774616602
 30
0.0
 11
3510.9913692075752
 21
884.03013774616625
 31
0.0
  0
LINE
  5
5E32
  8
1
 10
3833.6913692075732
 20
833.0301377461642
 30
0.0
 11
3453.6913692075718
 21
833.03013774616602
 31
0.0
  0
LINE
  5
5E33
  8
1
 10
3833.6913692075732
 20
835.33013774616529
 30
0.0
 11
3803.6913692075709
 21
835.330137746167
 31
0.0
  0
LINE
  5
5E34
  8
1
 10
3833.6913692075732
 20
833.0301377461642
 30
0.0
 11
3833.6913692075741
 21
835.33013774616529
 31
0.0
  0
LINE
  5
5E36
  8
1
 10
3801.3913692075712
 20
884.03013774616625
 30
0.0
 11
3776.391369207573
 21
884.03013774616625
 31
0.0
  0
LINE
  5
5E37
  8
1
 10
3483.6913692075718
 20
835.330137746167
 30
0.0
 11
3453.6913692075718
 21
835.33013774616529
 31
0.0
  0
LINE
  5
5E39
  8
1
 10
3453.6913692075718
 20
833.03013774616602
 30
0.0
 11
3453.6913692075718
 21
835.330137746167
 31
0.0
  0
LINE
  5
5E3A
  8
1
 10
3510.9913692075752
 20
884.03013774616625
 30
0.0
 11
3485.9913692075729
 21
884.03013774616625
 31
0.0
  0
LINE
  5
5E3B
  8
1
 10
3776.3913692075721
 20
983.03013774616602
 30
0.0
 11
3510.9913692075729
 21
983.03013774616602
 31
0.0
  0
LINE
  5
5E3C
  8
1
 10
3801.3913692075712
 20
1008.030137746166
 30
0.0
 11
3485.9913692075729
 21
1008.030137746166
 31
0.0
  0
LINE
  5
5E3D
  8
FUTO
 10
3776.3913692075721
 20
983.03013774616602
 30
0.0
 11
3801.3913692075712
 21
1008.030137746166
 31
0.0
  0
CIRCLE
  5
5E3E
  8
1
 10
3591.64642240592
 20
962.3825213246314
 30
0.0
 40
4.0
  0
LINE
  5
5E3F
  8
CT
 10
3586.6052481528841
 20
950.21205007266565
 30
0.0
 11
3597.1173336869142
 21
975.59046953774725
 31
0.0
  0
CIRCLE
  5
5E40
  8
1
 10
3695.736316009225
 20
962.3825213246314
 30
0.0
 40
4.0
  0
LINE
  5
5E41
  8
CT
 10
3700.77749026226
 20
950.21205007266565
 30
0.0
 11
3690.2654047282281
 21
975.59046953774725
 31
0.0
  0
LINE
  5
5E42
  8
1
 10
3726.1913692075718
 20
1012.530137746166
 30
0.0
 11
3696.0565432075709
 21
1012.530137746166
 31
0.0
  0
LINE
  5
5E43
  8
1
 10
3721.5245302075718
 20
1012.5247667461661
 30
0.0
 11
3706.0145372075722
 21
1030.211633746165
 31
0.0
  0
LINE
  5
5E44
  8
1
 10
3726.1913692075718
 20
1009.689255746165
 30
0.0
 11
3561.191339207573
 21
1009.689255746165
 31
0.0
  0
LINE
  5
5E45
  8
1
 10
3726.1913692075718
 20
1009.689255746165
 30
0.0
 11
3726.1913692075718
 21
1012.530137746166
 31
0.0
  0
LINE
  5
5E46
  8
1
 10
3721.1913692075718
 20
1009.689255746165
 30
0.0
 11
3721.1913692075718
 21
1008.030137746166
 31
0.0
  0
CIRCLE
  5
5E47
  8
1
 10
3769.3389856291069
 20
1035.9851909445131
 30
0.0
 40
4.0
  0
LINE
  5
5E48
  8
CT
 10
3781.5094568810732
 20
1030.944016691476
 30
0.0
 11
3756.1310374159889
 21
1041.456102225507
 31
0.0
  0
LINE
  5
5E49
  8
1
 10
3561.191339207573
 20
1012.530137746166
 30
0.0
 11
3561.191339207573
 21
1009.689255746165
 31
0.0
  0
LINE
  5
5E4A
  8
1
 10
3601.1913692075718
 20
1009.689255746165
 30
0.0
 11
3601.1913692075718
 21
1008.030137746166
 31
0.0
  0
LINE
  5
5E4B
  8
1
 10
3566.1913692075718
 20
1009.689255746165
 30
0.0
 11
3566.1913692075718
 21
1008.030137746166
 31
0.0
  0
ARC
  5
5E4C
  8
1
 10
3591.3261652075721
 20
1017.530137746166
 30
0.0
 40
5.000032
 50
270.0
 51
324.46174600002189
  0
LINE
  5
5E4D
  8
1
 10
3597.0598182075719
 20
1016.954999746165
 30
0.0
 11
3595.3948302075728
 21
1014.623887746166
 31
0.0
  0
LINE
  5
5E4E
  8
1
 10
3596.1830992075711
 20
1015.727524746166
 30
0.0
 11
3595.3948302075728
 21
1014.623887746166
 31
0.0
  0
LINE
  5
5E4F
  8
1
 10
3565.857001207572
 20
1012.5233137461649
 30
0.0
 11
3581.3700612075731
 21
1030.213775746166
 31
0.0
  0
LINE
  5
5E50
  8
1
 10
3561.191339207573
 20
1012.530137746166
 30
0.0
 11
3591.3261652075721
 21
1012.530137746166
 31
0.0
  0
LINE
  5
5E51
  8
CT
 10
3581.1913692075718
 20
1005.811551746165
 30
0.0
 11
3581.1913692075718
 21
1014.398558746165
 31
0.0
  0
LINE
  5
5E52
  8
1
 10
3686.1913692075718
 20
1009.689255746165
 30
0.0
 11
3686.1913692075718
 21
1008.030137746166
 31
0.0
  0
ARC
  5
5E53
  8
1
 10
3643.6913692075718
 20
1088.030137746166
 30
0.0
 40
85.0
 50
295.87553399999388
 51
303.26821866831381
  0
LINE
  5
5E54
  8
1
 10
3690.3153072075729
 20
1016.965659746165
 30
0.0
 11
3691.9879092075721
 21
1014.623887746166
 31
0.0
  0
ARC
  5
5E55
  8
1
 10
3696.056573207572
 20
1017.530137746166
 30
0.0
 40
5.0
 50
215.53823900000509
 51
270.0
  0
LINE
  5
5E56
  8
CT
 10
3706.1913692075718
 20
1005.811551746165
 30
0.0
 11
3706.1913692075718
 21
1014.398558746165
 31
0.0
  0
LINE
  5
5E57
  8
1
 10
3680.7868682075709
 20
1011.579209746165
 30
0.0
 11
3606.5395602075728
 21
1011.579209746165
 31
0.0
  0
LINE
  5
5E58
  8
FUTO
 10
3510.9913692075729
 20
983.03013774616602
 30
0.0
 11
3485.9913692075729
 21
1008.030137746166
 31
0.0
  0
CIRCLE
  5
5E59
  8
1
 10
3518.0437527860372
 20
1035.9851909445131
 30
0.0
 40
4.0
  0
LINE
  5
5E5A
  8
CT
 10
3505.8732815340709
 20
1030.9440166914781
 30
0.0
 11
3531.2517009991552
 21
1041.456102225507
 31
0.0
  0
DIMENSION
  5
5E5B
  8
SP
  2
*D13
 10
3853.69136920757
 20
1418.0288877750991
 30
0.0
 11
3748.6913692075718
 21
1443.0288877750991
 31
0.0
 70
     0
 13
3643.6913692075718
 23
1384.8458668319649
 33
0.0
 14
3853.69136920757
 24
1105.030137746164
 34
0.0
 50
180.0
  0
DIMENSION
  5
5E5C
  8
SP
  2
*D10
 10
3338.6913692075709
 20
1088.030137746164
 30
0.0
 11
3313.69136920757
 21
1213.0301300302931
 31
0.0
 70
     0
 13
3443.6969246773938
 23
1338.030122314422
 33
0.0
 14
3423.5437546342218
 24
1088.030137746164
 34
0.0
 50
90.0
  0
LINE
  5
5E5D
  8
FUTO
 10
3463.6913692075709
 20
1319.030137746164
 30
0.0
 11
3463.6913692075709
 21
1107.030137746164
 31
0.0
  0
LINE
  5
5E5E
  8
FUTO
 10
3443.69136920757
 20
1359.030137746164
 30
0.0
 11
3443.69136920757
 21
1067.030137746164
 31
0.0
  0
LINE
  5
5E5F
  8
FUTO
 10
3444.69136920757
 20
1339.030137746164
 30
0.0
 11
3444.69136920757
 21
1087.030137746164
 31
0.0
  0
LINE
  5
5E60
  8
1
 10
3583.6913692075718
 20
1238.030137746166
 30
0.0
 11
3485.2913692075722
 21
1154.1301377461641
 31
0.0
  0
LINE
  5
5E61
  8
1
 10
3703.6913692075718
 20
1238.030137746166
 30
0.0
 11
3802.0913692075719
 21
1154.1301377461641
 31
0.0
  0
CIRCLE
  5
5E62
  8
1
 10
3769.3389856291069
 20
1140.0750845478181
 30
0.0
 40
4.0
  0
LINE
  5
5E63
  8
CT
 10
3781.5094568810732
 20
1145.1162588008519
 30
0.0
 11
3756.1310374159889
 21
1134.6041732668241
 31
0.0
  0
LINE
  5
5E64
  8
1
 10
3803.6913692075718
 20
1154.1301377461641
 30
0.0
 11
3802.0913692075719
 21
1154.1301377461641
 31
0.0
  0
LINE
  5
5E65
  8
FUTO
 10
3445.6913692075709
 20
1089.030137746164
 30
0.0
 11
3463.6913692075709
 21
1107.030137746164
 31
0.0
  0
LINE
  5
5E66
  8
FUTO
 10
3444.69136920757
 20
1086.030137746164
 30
0.0
 11
3444.69136920757
 21
1067.030137746164
 31
0.0
  0
LINE
  5
5E67
  8
FUTO
 10
3445.6913692075709
 20
1089.030137746164
 30
0.0
 11
3445.6913692075709
 21
1087.030137746164
 31
0.0
  0
LINE
  5
5E68
  8
FUTO
 10
3443.69136920757
 20
1067.030137746164
 30
0.0
 11
3444.69136920757
 21
1067.030137746164
 31
0.0
  0
LINE
  5
5E69
  8
FUTO
 10
3463.6913692075709
 20
1088.030137746164
 30
0.0
 11
3463.6913692075709
 21
1082.098294335922
 31
0.0
  0
LINE
  5
5E6A
  8
FUTO
 10
3463.6913692075709
 20
1088.030137746164
 30
0.0
 11
3463.6913692075709
 21
1087.030137746164
 31
0.0
  0
ARC
  5
5E6B
  8
FUTO
 10
3473.69136920757
 20
1082.098294335922
 30
0.0
 40
10.0
 50
180.0
 51
230.12703109384231
  0
LINE
  5
5E6C
  8
FUTO
 10
3463.6913692075709
 20
1088.030137746164
 30
0.0
 11
3443.69136920757
 21
1088.030137746164
 31
0.0
  0
LINE
  5
5E6D
  8
FUTO
 10
3443.69136920757
 20
1087.030137746164
 30
0.0
 11
3463.6913692075709
 21
1087.030137746164
 31
0.0
  0
LINE
  5
5E6E
  8
FUTO
 10
3444.69136920757
 20
1086.030137746164
 30
0.0
 11
3463.6913692075709
 21
1086.030137746164
 31
0.0
  0
LINE
  5
5E6F
  8
1
 10
3485.2913692075722
 20
1154.1301377461641
 30
0.0
 11
3483.6913692075718
 21
1154.1301377461641
 31
0.0
  0
CIRCLE
  5
5E70
  8
1
 10
3518.0437527860372
 20
1140.0750845478181
 30
0.0
 40
4.0
  0
LINE
  5
5E71
  8
CT
 10
3505.8732815340709
 20
1145.1162588008519
 30
0.0
 11
3531.2517009991552
 21
1134.6041732668241
 31
0.0
  0
LINE
  5
5E72
  8
CT
 10
3700.77749026226
 20
1225.848225419664
 30
0.0
 11
3690.2654047282299
 21
1200.469805954581
 31
0.0
  0
LINE
  5
5E73
  8
CT
 10
3586.6052481528841
 20
1225.848225419664
 30
0.0
 11
3597.117333686916
 21
1200.4698059545831
 31
0.0
  0
CIRCLE
  5
5E74
  8
1
 10
3591.64642240592
 20
1213.6777541677
 30
0.0
 40
4.0
  0
CIRCLE
  5
5E75
  8
1
 10
3695.736316009225
 20
1213.6777541677
 30
0.0
 40
4.0
  0
LINE
  5
5E76
  8
1
 10
3703.6913692075718
 20
1238.030137746166
 30
0.0
 11
3583.6913692075718
 21
1238.030137746166
 31
0.0
  0
DIMENSION
  5
5E77
  8
SP
  2
*D12
 10
3443.69136920757
 20
1418.0288877750991
 30
0.0
 11
3543.6913692075709
 21
1443.0288877750991
 31
0.0
 70
     0
 13
3643.6913692075718
 23
1384.8458668319649
 33
0.0
 14
3443.69136920757
 24
1359.030137746164
 34
0.0
 50
180.0
  0
LINE
  5
5E78
  8
FUTO
 10
3443.6969246773938
 20
1338.030122314422
 30
0.0
 11
3623.6969246773979
 21
1338.030122314422
 31
0.0
  0
LINE
  5
5E79
  8
FUTO
 10
3463.6913692075709
 20
1348.9191963868291
 30
0.0
 11
3623.7524793756352
 21
1348.0299679970069
 31
0.0
  0
LINE
  5
5E7A
  8
FUTO
 10
3444.69136920757
 20
1359.030137746164
 30
0.0
 11
3444.69136920757
 21
1340.030137746164
 31
0.0
  0
LINE
  5
5E7B
  8
FUTO
 10
3463.6913692075709
 20
1348.9191963868291
 30
0.0
 11
3463.6913692075709
 21
1338.9190420670329
 31
0.0
  0
LINE
  5
5E7C
  8
FUTO
 10
3445.6913692075709
 20
1339.030137746164
 30
0.0
 11
3445.6913692075709
 21
1337.030137746164
 31
0.0
  0
LINE
  5
5E7D
  8
FUTO
 10
3443.69136920757
 20
1339.030137746164
 30
0.0
 11
3463.6913692075709
 21
1339.030137746164
 31
0.0
  0
LINE
  5
5E7E
  8
FUTO
 10
3444.69136920757
 20
1340.030137746164
 30
0.0
 11
3463.6913692075709
 21
1340.030137746164
 31
0.0
  0
LINE
  5
5E7F
  8
FUTO
 10
3445.6913692075709
 20
1337.030137746164
 30
0.0
 11
3463.6913692075709
 21
1319.030137746164
 31
0.0
  0
LINE
  5
5E80
  8
FUTO
 10
3443.69136920757
 20
1359.030137746164
 30
0.0
 11
3444.69136920757
 21
1359.030137746164
 31
0.0
  0
LINE
  5
628B
  8
1
 10
4194.6913692075714
 20
833.03013774616625
 30
0.0
 11
4424.6913692075714
 21
833.03013774616625
 31
0.0
  0
LINE
  5
628C
  8
1
 10
4194.6913692075714
 20
835.33013774616541
 30
0.0
 11
4392.3913692075721
 21
835.33013774616347
 31
0.0
  0
LINE
  5
628E
  8
1
 10
4194.6913692075732
 20
835.33013774616541
 30
0.0
 11
4194.6913692075714
 21
833.03013774616625
 31
0.0
  0
LINE
  5
6290
  8
1
 10
4394.6913692075714
 20
835.33013774616347
 30
0.0
 11
4424.6913692075714
 21
835.33013774616541
 31
0.0
  0
LINE
  5
6291
  8
1
 10
4424.6913692075714
 20
835.33013774616347
 30
0.0
 11
4424.6913692075714
 21
833.03013774616625
 31
0.0
  0
LINE
  5
6292
  8
1
 10
4394.6913692075714
 20
1238.030137746166
 30
0.0
 11
4394.6913692075714
 21
833.03013774616625
 31
0.0
  0
LINE
  5
6293
  8
1
 10
4392.3913692075703
 20
1238.030137746164
 30
0.0
 11
4392.3913692075721
 21
835.33013774616347
 31
0.0
  0
LINE
  5
6294
  8
2
 10
4274.8913692075721
 20
1168.314012746167
 30
0.0
 11
4274.8913692075721
 21
1004.014024746166
 31
0.0
  0
LINE
  5
6295
  8
1
 10
4175.8913692075721
 20
1011.030137746166
 30
0.0
 11
4175.8913692075721
 21
1171.5301377461651
 31
0.0
  0
LINE
  5
6296
  8
1
 10
4194.6913692075732
 20
835.33013774616541
 30
0.0
 11
4366.0913692075719
 21
1132.8301377461651
 31
0.0
  0
LINE
  5
6297
  8
1
 10
4185.6913692075714
 20
956.03013774616784
 30
0.0
 11
4218.9913692075706
 21
884.0301377461642
 31
0.0
  0
LINE
  5
6298
  8
1
 10
4185.6913692075714
 20
1008.030137746166
 30
0.0
 11
4185.6913692075714
 21
956.03013774616954
 31
0.0
  0
LINE
  5
6299
  8
1
 10
4295.342058283205
 20
1010.030137746166
 30
0.0
 11
4209.8913692075712
 21
1010.030137746166
 31
0.0
  0
LINE
  5
629A
  8
1
 10
4296.7823944176571
 20
1012.530137746166
 30
0.0
 11
4209.8913692075712
 21
1012.530137746166
 31
0.0
  0
LINE
  5
629B
  8
1
 10
4274.8913692075721
 20
1010.030137746166
 30
0.0
 11
4240.8913692075721
 21
1010.030137746166
 31
0.0
  0
LINE
  5
629C
  8
1
 10
4185.6913692075714
 20
1008.030137746167
 30
0.0
 11
4294.1897893756422
 21
1008.030137746169
 31
0.0
  0
LINE
  5
629D
  8
1
 10
4244.0194212075721
 20
1020.361558746166
 30
0.0
 11
4215.8913692075721
 21
1020.361558746166
 31
0.0
  0
LINE
  5
629E
  8
1
 10
4209.8913692075712
 20
1010.030137746166
 30
0.0
 11
4209.8913692075712
 21
1014.361558746166
 31
0.0
  0
LINE
  5
629F
  8
1
 10
4214.8913692075721
 20
1010.030137746166
 30
0.0
 11
4214.8913692075721
 21
1008.030137746166
 31
0.0
  0
LINE
  5
62A0
  8
1
 10
4212.3913692075721
 20
1045.4762427461669
 30
0.0
 11
4212.3913692075721
 21
1019.234955746166
 31
0.0
  0
ARC
  5
62A1
  8
1
 10
4215.8913692075721
 20
1014.361558746166
 30
0.0
 40
6.0
 50
90.0
 51
180.0
  0
LINE
  5
62A2
  8
1
 10
4209.5681272075708
 20
1013.230089746166
 30
0.0
 11
4209.8783692075713
 21
1013.230089746166
 31
0.0
  0
LINE
  5
62A3
  8
CT
 10
4224.8913692075721
 20
1016.242051746165
 30
0.0
 11
4224.8913692075721
 21
1000.730137746165
 31
0.0
  0
LINE
  5
62A4
  8
1
 10
4244.8913692075721
 20
1010.030137746166
 30
0.0
 11
4244.8913692075721
 21
1008.030137746166
 31
0.0
  0
ARC
  5
62A5
  8
1
 10
4251.938367207571
 20
1025.1874867461661
 30
0.0
 40
6.0001220000000002
 50
90.001167000028929
 51
161.67526200000961
  0
LINE
  5
62A6
  8
1
 10
4246.242383207571
 20
1027.0739617461661
 30
0.0
 11
4242.5611692075709
 21
1015.958238746165
 31
0.0
  0
ARC
  5
62A7
  8
1
 10
4237.8146482075699
 20
1017.530137746166
 30
0.0
 40
5.0
 50
270.0
 51
341.67651399999397
  0
ARC
  5
62A8
  8
1
 10
4176.8913692075721
 20
1011.030137746166
 30
0.0
 40
1.000030999999999
 50
180.0
 51
269.99825999998092
  0
LINE
  5
62A9
  8
1
 10
4197.8342412075717
 20
1037.9467027461651
 30
0.0
 11
4197.8342412075717
 21
1010.026536746165
 31
0.0
  0
LINE
  5
62AA
  8
1
 10
4197.8342412075717
 20
1010.030137746166
 30
0.0
 11
4176.8913692075721
 21
1010.030137746166
 31
0.0
  0
LINE
  5
62AB
  8
1
 10
4175.8913692075721
 20
1011.030137746166
 30
0.0
 11
4143.2595332075707
 21
1013.909410746166
 31
0.0
  0
LINE
  5
62AC
  8
1
 10
4197.8342412075717
 20
1013.230150746165
 30
0.0
 11
4209.8783692075713
 21
1013.230150746165
 31
0.0
  0
LINE
  5
62AD
  8
1
 10
4141.8913692075721
 20
1160.8074817461661
 30
0.0
 11
4141.8913692075721
 21
1015.403612746166
 31
0.0
  0
LINE
  5
62AE
  8
1
 10
4197.8342412075717
 20
1037.9467027461651
 30
0.0
 11
4215.891401207572
 21
1047.286600746165
 31
0.0
  0
LINE
  5
62AF
  8
1
 10
4274.8913692075721
 20
1031.187608746166
 30
0.0
 11
4251.9381832075705
 21
1031.187608746166
 31
0.0
  0
ARC
  5
62B0
  8
1
 10
4143.3913692075721
 20
1015.403612746166
 30
0.0
 40
1.4999849999999999
 50
180.0
 51
264.95834399996608
  0
LINE
  5
62B1
  8
1
 10
4274.8913692075721
 20
1031.187608746166
 30
0.0
 11
4297.8445552075709
 21
1031.187608746166
 31
0.0
  0
LINE
  5
62B2
  8
1
 10
4303.5403562075699
 20
1027.0739617461661
 30
0.0
 11
4304.1321164253077
 21
1025.2870939729801
 31
0.0
  0
ARC
  5
62B3
  8
1
 10
4297.8444942075721
 20
1025.1874867461661
 30
0.0
 40
6.0001939999999996
 50
18.324734000006391
 51
89.998833000023154
  0
LINE
  5
62B4
  8
1
 10
4215.8913692075721
 20
1047.286584194462
 30
0.0
 11
4215.8913692075721
 21
1173.030137746166
 31
0.0
  0
LINE
  5
62B5
  8
1
 10
4143.0888792075721
 20
1162.276658746167
 30
0.0
 11
4175.0930302075712
 21
1168.8657707461659
 31
0.0
  0
LINE
  5
62B6
  8
1
 10
4337.3913692075721
 20
1163.5301377461651
 30
0.0
 11
4337.3913692075739
 21
1083.0153769526969
 31
0.0
  0
LINE
  5
62B7
  8
1
 10
4215.8913692075721
 20
1162.830125746166
 30
0.0
 11
4337.3913692075721
 21
1162.830125746166
 31
0.0
  0
ARC
  5
62B8
  8
1
 10
4143.3913692075721
 20
1160.8074817461661
 30
0.0
 40
1.499994
 50
101.6341019999994
 51
180.0
  0
LINE
  5
62B9
  8
1
 10
4366.0913692075719
 20
1132.8301377461651
 30
0.0
 11
4392.3913692075703
 21
1154.1301377461641
 31
0.0
  0
LINE
  5
62BA
  8
1
 10
4359.8913692075721
 20
1122.0687608500141
 30
0.0
 11
4359.8913692075721
 21
1161.530137746166
 31
0.0
  0
ARC
  5
62BB
  8
1
 10
4357.8913692075721
 20
1161.530137746166
 30
0.0
 40
2.0
 50
0.0
 51
90.0
  0
LINE
  5
62BC
  8
1
 10
4337.3913692075721
 20
1163.5301377461651
 30
0.0
 11
4357.8913692075721
 21
1163.5301377461651
 31
0.0
  0
LINE
  5
62BD
  8
1
 10
4359.8913692075721
 20
1152.0959337461661
 30
0.0
 11
4359.8913692075721
 21
1161.0959337461661
 31
0.0
  0
LINE
  5
62BE
  8
1
 10
4359.8913692075721
 20
1160.845140746165
 30
0.0
 11
4359.8913692075721
 21
1152.215135746166
 31
0.0
  0
ARC
  5
62BF
  8
1
 10
4177.3913692075721
 20
1171.5301377461651
 30
0.0
 40
1.4999849999999999
 50
89.999419999993734
 51
180.0
  0
ARC
  5
62C0
  8
1
 10
4174.8914302075709
 20
1169.845140746165
 30
0.0
 40
0.999898
 50
281.62991300003551
 51
0.0034970000049811
  0
LINE
  5
62C1
  8
1
 10
4177.3913692075721
 20
1173.030137746166
 30
0.0
 11
4215.8913692075721
 21
1173.030137746166
 31
0.0
  0
LINE
  5
62C2
  8
1
 10
4392.3913692075703
 20
1238.030137746166
 30
0.0
 11
4394.6913692075714
 21
1238.030137746166
 31
0.0
  0
ARC
  5
62C3
  8
1
 10
4399.6913692075714
 20
1238.030137746166
 30
0.0
 40
3.0
 50
270.0
 51
0.0
  0
ARC
  5
62C4
  8
1
 10
4397.6913692075714
 20
1232.030137746166
 30
0.0
 40
3.0
 50
90.0
 51
180.0
  0
LINE
  5
62C5
  8
1
 10
4399.6913692075714
 20
1235.030137746166
 30
0.0
 11
4397.6913692075714
 21
1235.030137746166
 31
0.0
  0
ARC
  5
62C6
  8
1
 10
4397.6913692075714
 20
944.03013774616591
 30
0.0
 40
3.0
 50
180.0
 51
270.0
  0
LINE
  5
62C7
  8
1
 10
4399.6913692075714
 20
941.03013774616602
 30
0.0
 11
4397.6913692075714
 21
941.03013774616602
 31
0.0
  0
ARC
  5
62C8
  8
1
 10
4399.6913692075714
 20
938.03013774616613
 30
0.0
 40
3.0
 50
0.0
 51
90.0
  0
LINE
  5
62C9
  8
1
 10
4592.6913692075741
 20
1232.030137746166
 30
0.0
 11
4592.6913692075714
 21
944.03013774616591
 31
0.0
  0
ARC
  5
62CA
  8
1
 10
4587.6913692075714
 20
938.03013774616613
 30
0.0
 40
3.0
 50
90.0
 51
180.0
  0
LINE
  5
62CB
  8
1
 10
4587.6913692075714
 20
941.03013774616602
 30
0.0
 11
4589.6913692075714
 21
941.03013774616602
 31
0.0
  0
ARC
  5
62CC
  8
1
 10
4589.6913692075714
 20
944.03013774616591
 30
0.0
 40
3.0
 50
270.0
 51
0.0
  0
LINE
  5
62CD
  8
FUTO
 10
4583.6913692075696
 20
963.03013774616613
 30
0.0
 11
4592.6913692075714
 21
963.03013774616613
 31
0.0
  0
LINE
  5
62CE
  8
1
 10
4584.6913692075714
 20
1238.030137746166
 30
0.0
 11
4584.6913692075732
 21
1088.030137746166
 31
0.0
  0
LINE
  5
62CF
  8
FUTO
 10
4583.6913692075714
 20
1213.030137746166
 30
0.0
 11
4592.6913692075741
 21
1213.030137746166
 31
0.0
  0
LINE
  5
62D0
  8
1
 10
4587.6913692075714
 20
1235.030137746166
 30
0.0
 11
4589.6913692075714
 21
1235.030137746166
 31
0.0
  0
ARC
  5
62D1
  8
1
 10
4589.6913692075714
 20
1232.030137746166
 30
0.0
 40
3.0
 50
0.0
 51
90.0
  0
ARC
  5
62D2
  8
1
 10
4587.6913692075714
 20
1238.030137746166
 30
0.0
 40
3.0
 50
180.0
 51
270.0
  0
ARC
  5
64FF
  8
FUTO
 10
4579.6913692075723
 20
1092.030137746164
 30
0.0
 40
25.0
 50
301.33225149759409
 51
0.0000000000010422
  0
DIMENSION
  5
663B
  8
SP
  2
*D14
 10
4696.9720854772531
 20
963.03013774616613
 30
0.0
 11
4671.9720854772531
 21
1088.030137746166
 31
0.0
 70
     0
 13
4592.6913692075741
 23
1213.030137746166
 33
0.0
 14
4592.6913692075714
 24
963.03013774616613
 34
0.0
 50
90.0
1001
ACAD
1000
DSTYLE
1002
{
1070
     3
1000
φ<>
1002
}
  0
DIMENSION
  5
666B
  8
SP
  2
*D15
 10
4583.6913692075723
 20
1418.0288877750991
 30
0.0
 11
4493.6913692075714
 21
1443.0288877750991
 31
0.0
 70
     0
 13
4403.6913692075696
 23
1338.030137746164
 33
0.0
 14
4583.6913692075723
 24
1338.030137746164
 34
0.0
  0
DIMENSION
  5
6678
  8
SP
  2
*D16
 10
4592.6913692075741
 20
1493.6400384071269
 30
0.0
 11
4543.1913692075723
 21
1518.6400384071269
 31
0.0
 70
     0
 13
4493.6913692075714
 23
1458.0288877750991
 33
0.0
 14
4592.6913692075741
 24
1232.030137746166
 34
0.0
  0
DIMENSION
  5
668E
  8
SP
  2
*D17
 10
4141.8913692075721
 20
1493.6400384071269
 30
0.0
 11
4317.7913692075708
 21
1518.6400384071269
 31
0.0
 70
     0
  1
（400）
 13
4493.6913692075714
 23
1458.0288877750991
 33
0.0
 14
4141.8913692075721
 24
1160.8074817461661
 34
0.0
  0
LINE
  5
6B04
  8
1
 10
3803.6913692075759
 20
1824.1217284884499
 30
0.0
 11
3803.6913692075782
 21
2033.1217284884401
 31
0.0
  0
LINE
  5
6B05
  8
1
 10
3833.6913692075759
 20
1833.121728488446
 30
0.0
 11
3833.6913692075782
 21
2033.1217284884401
 31
0.0
  0
LINE
  5
6B06
  8
1
 10
3677.1913692075732
 20
2007.3217284884429
 30
0.0
 11
3677.1913692075732
 21
1998.3217284884429
 31
0.0
  0
LINE
  5
6B07
  8
1
 10
3483.6913692075718
 20
1824.1217284884419
 30
0.0
 11
3483.6913692075709
 21
2033.121728488441
 31
0.0
  0
LINE
  5
6B08
  8
FUTO
 10
3453.6913692075732
 20
1833.121728488446
 30
0.0
 11
3453.69136920757
 21
2033.121728488441
 31
0.0
  0
LINE
  5
6B09
  8
1
 10
3610.191369207575
 20
1998.3217284884429
 30
0.0
 11
3610.1913692075718
 21
2007.3217284884429
 31
0.0
  0
LINE
  5
6B0A
  8
2
 10
3643.6913692075718
 20
1736.6368343932661
 30
0.0
 11
3643.6913692075718
 21
2252.3691039297701
 31
0.0
  0
DIMENSION
  5
6B0B
  8
SP
  2
*D19
 10
3343.3177934528612
 20
1833.121728488446
 30
0.0
 11
3318.3177934528612
 21
1933.121728488444
 31
0.0
 70
     0
 13
3453.69136920757
 23
2033.121728488441
 33
0.0
 14
3453.6913692075732
 24
1833.121728488446
 34
0.0
 50
90.0
  0
DIMENSION
  5
6B0C
  8
SP
  2
*D20
 10
3453.6913692075732
 20
1675.5535321584241
 30
0.0
 11
3643.691369207575
 21
1700.5535321584241
 31
0.0
 70
     0
 13
3833.6913692075759
 23
1833.121728488446
 33
0.0
 14
3453.6913692075732
 24
1833.121728488446
 34
0.0
 50
180.0
  0
ARC
  5
6B0D
  8
1
 10
3570.1913692075718
 20
1996.3217284884429
 30
0.0
 40
2.0
 50
90.0
 51
180.0
  0
LINE
  5
6B0E
  8
1
 10
3558.6913692075718
 20
1854.3217284884429
 30
0.0
 11
3728.6913692075718
 21
1854.3217284884429
 31
0.0
  0
LINE
  5
6B0F
  8
1
 10
3643.6913692075709
 20
1814.3217284884429
 30
0.0
 11
3560.1913692075718
 21
1814.3217284884429
 31
0.0
  0
LINE
  5
6B10
  8
1
 10
3569.4448482075718
 20
1781.5192384884431
 30
0.0
 11
3562.8557362075721
 21
1813.5233894884429
 31
0.0
  0
LINE
  5
6B11
  8
1
 10
3568.8913812075712
 20
1854.3217284884429
 30
0.0
 11
3568.8913812075712
 21
1975.8217284884429
 31
0.0
  0
LINE
  5
6B12
  8
1
 10
3718.4913572075729
 20
1854.3217284884429
 30
0.0
 11
3718.4913572075729
 21
1975.8217284884429
 31
0.0
  0
LINE
  5
6B13
  8
1
 10
3728.6913692075718
 20
1815.8217284884429
 30
0.0
 11
3728.6913692075718
 21
1854.3217284884429
 31
0.0
  0
ARC
  5
6B14
  8
1
 10
3725.506372207572
 20
1813.3217894884419
 30
0.0
 40
0.999898
 50
89.996502999995045
 51
168.3700869999951
  0
LINE
  5
6B15
  8
1
 10
3717.9378902075741
 20
1781.5192384884431
 30
0.0
 11
3724.5270022075729
 21
1813.5233894884429
 31
0.0
  0
ARC
  5
6B16
  8
1
 10
3727.1913692075718
 20
1815.8217284884429
 30
0.0
 40
1.4999849999999999
 50
270.0
 51
0.0005800000062697
  0
LINE
  5
6B17
  8
1
 10
3716.4687132075719
 20
1780.3217284884429
 30
0.0
 11
3571.0648442075722
 21
1780.3217284884429
 31
0.0
  0
LINE
  5
6B18
  8
1
 10
3643.691369207575
 20
1814.3217284884429
 30
0.0
 11
3727.1913692075718
 21
1814.3217284884429
 31
0.0
  0
LINE
  5
6B19
  8
1
 10
3833.6913692075718
 20
1833.121728488446
 30
0.0
 11
3803.6913692075759
 21
1833.121728488446
 31
0.0
  0
LINE
  5
6B1A
  8
CT
 10
3820.6913692075782
 20
1840.9346424731759
 30
0.0
 11
3820.6913692075782
 21
1865.308814503705
 31
0.0
  0
LINE
  5
6B1B
  8
CT
 10
3808.5042831923129
 20
1853.1217284884401
 30
0.0
 11
3832.8784552228431
 21
1853.1217284884401
 31
0.0
  0
CIRCLE
  5
6B1C
  8
FUTO
 10
3820.6913692075782
 20
1853.1217284884401
 30
0.0
 40
6.0
  0
LINE
  5
6B1D
  8
1
 10
3803.6913692075759
 20
1824.1217284884499
 30
0.0
 11
3728.6913692075718
 21
1824.121728488446
 31
0.0
  0
LINE
  5
6B1E
  8
1
 10
3643.6913692075718
 20
1998.3217284884429
 30
0.0
 11
3570.1913692075718
 21
1998.3217284884429
 31
0.0
  0
LINE
  5
6B1F
  8
1
 10
3568.1913692075732
 20
1975.8217284884429
 30
0.0
 11
3643.6913692075709
 21
1975.8217284884429
 31
0.0
  0
LINE
  5
6B20
  8
1
 10
3568.1913692075732
 20
1975.8217284884429
 30
0.0
 11
3568.1913692075732
 21
1996.3217284884429
 31
0.0
  0
LINE
  5
6B21
  8
1
 10
3579.625573207572
 20
1998.3217284884429
 30
0.0
 11
3570.6255732075711
 21
1998.3217284884429
 31
0.0
  0
LINE
  5
6B22
  8
1
 10
3570.876366207573
 20
1998.3217284884429
 30
0.0
 11
3579.5063712075721
 21
1998.3217284884429
 31
0.0
  0
LINE
  5
6B23
  8
1
 10
3716.506372207572
 20
1998.3217284884429
 30
0.0
 11
3707.8763672075729
 21
1998.3217284884429
 31
0.0
  0
LINE
  5
6B24
  8
1
 10
3707.7571652075731
 20
1998.3217284884429
 30
0.0
 11
3716.7571652075731
 21
1998.3217284884429
 31
0.0
  0
LINE
  5
6B25
  8
1
 10
3719.1913692075732
 20
1975.8217284884429
 30
0.0
 11
3719.1913692075732
 21
1996.3217284884429
 31
0.0
  0
ARC
  5
6B26
  8
1
 10
3717.1913692075718
 20
1996.3217284884429
 30
0.0
 40
2.0
 50
0.000000000000007
 51
90.0
  0
LINE
  5
6B27
  8
1
 10
3719.1913692075732
 20
1975.8217284884429
 30
0.0
 11
3643.691369207575
 21
1975.8217284884429
 31
0.0
  0
LINE
  5
6B28
  8
1
 10
3643.6913692075718
 20
1998.3217284884429
 30
0.0
 11
3717.1913692075718
 21
1998.3217284884429
 31
0.0
  0
LINE
  5
6B29
  8
1
 10
3558.6913692075718
 20
1815.8217284884429
 30
0.0
 11
3558.6913692075718
 21
1854.3217284884429
 31
0.0
  0
ARC
  5
6B2A
  8
1
 10
3560.1913692075718
 20
1815.8217284884429
 30
0.0
 40
1.4999849999999999
 50
179.99941999999371
 51
270.0
  0
ARC
  5
6B2B
  8
1
 10
3561.8763662075721
 20
1813.3217894884419
 30
0.0
 40
0.999898
 50
11.629913000004811
 51
90.003497000004955
  0
LINE
  5
6B2C
  8
1
 10
3558.6913692075718
 20
1824.121728488444
 30
0.0
 11
3483.6913692075718
 21
1824.1217284884419
 31
0.0
  0
CIRCLE
  5
6B2D
  8
FUTO
 10
3466.6913692075709
 20
1853.1217284884401
 30
0.0
 40
6.0
  0
LINE
  5
6B2E
  8
CT
 10
3478.8784552228349
 20
1853.1217284884401
 30
0.0
 11
3454.504283192306
 21
1853.1217284884401
 31
0.0
  0
LINE
  5
6B2F
  8
CT
 10
3466.6913692075709
 20
1840.9346424731759
 30
0.0
 11
3466.6913692075709
 21
1865.308814503705
 31
0.0
  0
LINE
  5
6B30
  8
FUTO
 10
3483.6913692075718
 20
1833.121728488446
 30
0.0
 11
3453.69136920757
 21
1833.121728488446
 31
0.0
  0
LINE
  5
6B31
  8
FUTO
 10
3453.6913692075732
 20
1833.121728488441
 30
0.0
 11
3483.6913692075718
 21
1833.121728488441
 31
0.0
  0
LINE
  5
6B32
  8
1
 10
3443.69136920757
 20
2242.121728488441
 30
0.0
 11
3443.69136920757
 21
2022.1217284884419
 31
0.0
  0
LINE
  5
6B33
  8
1
 10
3444.69136920757
 20
2242.121728488441
 30
0.0
 11
3444.69136920757
 21
2223.121728488441
 31
0.0
  0
LINE
  5
6B34
  8
FUTO
 10
3499.6913692075732
 20
2231.1217284884428
 30
0.0
 11
3787.6913692075691
 21
2231.1217284884428
 31
0.0
  0
LINE
  5
6B35
  8
1
 10
3841.6913692075732
 20
2222.1217284884419
 30
0.0
 11
3463.69136920757
 21
2222.121728488441
 31
0.0
  0
LINE
  5
6B36
  8
1
 10
3841.6913692075732
 20
2223.121728488441
 30
0.0
 11
3463.69136920757
 21
2223.121728488441
 31
0.0
  0
LINE
  5
6B37
  8
1
 10
3610.191369207575
 20
1999.121728488444
 30
0.0
 11
3483.6913692075709
 21
1999.121728488444
 31
0.0
  0
LINE
  5
6B38
  8
FUTO
 10
3453.69136920757
 20
2033.121728488441
 30
0.0
 11
3833.6913692075709
 21
2033.121728488441
 31
0.0
  0
LINE
  5
6B39
  8
1
 10
3841.6913692075732
 20
2042.121728488441
 30
0.0
 11
3463.69136920757
 21
2042.1217284884401
 31
0.0
  0
LINE
  5
6B3A
  8
1
 10
3841.6913692075732
 20
2041.121728488441
 30
0.0
 11
3463.69136920757
 21
2041.121728488441
 31
0.0
  0
LINE
  5
6B3B
  8
2
 10
3886.901081700139
 20
2132.1217284884428
 30
0.0
 11
3433.5437546342218
 21
2132.121728488441
 31
0.0
  0
LINE
  5
6B3C
  8
FUTO
 10
3852.6913692075732
 20
2053.121728488441
 30
0.0
 11
3852.6913692075732
 21
2211.121728488441
 31
0.0
  0
LINE
  5
6B3D
  8
FUTO
 10
3853.6913692075718
 20
2053.121728488441
 30
0.0
 11
3853.6913692075718
 21
2211.121728488441
 31
0.0
  0
CIRCLE
  5
6B3E
  8
FUTO
 10
3820.6913692075782
 20
2013.1217284884401
 30
0.0
 40
6.0
  0
LINE
  5
6B3F
  8
CT
 10
3808.5042831923129
 20
2013.1217284884401
 30
0.0
 11
3832.8784552228431
 21
2013.1217284884401
 31
0.0
  0
LINE
  5
6B40
  8
CT
 10
3820.6913692075782
 20
2000.9346424731759
 30
0.0
 11
3820.6913692075782
 21
2025.308814503705
 31
0.0
  0
ARC
  5
6B41
  8
FUTO
 10
3841.6913692075732
 20
2053.121728488441
 30
0.0
 40
11.0
 50
270.00000000000011
 51
0.000000000000007
  0
ARC
  5
6B42
  8
FUTO
 10
3841.6913692075732
 20
2053.121728488441
 30
0.0
 40
12.0
 50
270.00000000000011
 51
0.000000000000007
  0
LINE
  5
6B43
  8
1
 10
3666.1913692075718
 20
2021.1217284884449
 30
0.0
 11
3666.1913692075718
 21
2018.3217284884411
 31
0.0
  0
LINE
  5
6B44
  8
1
 10
3661.1913692075732
 20
2013.3217284884411
 30
0.0
 11
3626.1913692075732
 21
2013.3217284884411
 31
0.0
  0
LINE
  5
6B45
  8
1
 10
3654.1913692075732
 20
2013.3217284884429
 30
0.0
 11
3654.1913692075732
 21
2008.3217284884429
 31
0.0
  0
ARC
  5
6B46
  8
1
 10
3611.1913692075732
 20
2007.3217284884429
 30
0.0
 40
1.0
 50
90.0
 51
180.0
  0
LINE
  5
6B47
  8
1
 10
3633.1913692075732
 20
2013.3217284884429
 30
0.0
 11
3633.1913692075732
 21
2008.3217284884429
 31
0.0
  0
LINE
  5
6B48
  8
1
 10
3621.1913692075718
 20
2018.3217284884411
 30
0.0
 11
3626.1913692075732
 21
2013.3217284884411
 31
0.0
  0
LINE
  5
6B49
  8
1
 10
3661.1913692075732
 20
2013.3217284884411
 30
0.0
 11
3666.1913692075718
 21
2018.3217284884411
 31
0.0
  0
LINE
  5
6B4A
  8
1
 10
3666.1913692075718
 20
2033.121728488441
 30
0.0
 11
3666.1913692075718
 21
2018.3217284884411
 31
0.0
  0
LINE
  5
6B4B
  8
1
 10
3621.1913692075718
 20
2033.121728488441
 30
0.0
 11
3621.1913692075718
 21
2018.3217284884411
 31
0.0
  0
LINE
  5
6B4C
  8
1
 10
3803.6913692075782
 20
1999.1217284884499
 30
0.0
 11
3677.1913692075732
 21
1999.1217284884481
 31
0.0
  0
ARC
  5
6B4D
  8
1
 10
3787.6913692075691
 20
2036.1217284884419
 30
0.0
 40
3.0
 50
270.0
 51
0.000000000000007
  0
LINE
  5
6B4E
  8
1
 10
3790.6913692075691
 20
2038.1217284884419
 30
0.0
 11
3790.6913692075691
 21
2036.1217284884419
 31
0.0
  0
LINE
  5
6B4F
  8
1
 10
3790.6913692075691
 20
2038.1217284884419
 30
0.0
 11
3790.6913692075691
 21
2036.1217284884419
 31
0.0
  0
ARC
  5
6B50
  8
1
 10
3793.6913692075691
 20
2038.1217284884419
 30
0.0
 40
3.0
 50
90.0
 51
180.0
  0
ARC
  5
6B51
  8
1
 10
3676.1913692075732
 20
2007.3217284884429
 30
0.0
 40
1.0
 50
0.000000000000007
 51
90.0
  0
LINE
  5
6B52
  8
1
 10
3611.1913692075732
 20
2008.3217284884429
 30
0.0
 11
3676.1913692075732
 21
2008.3217284884429
 31
0.0
  0
ARC
  5
6B53
  8
FUTO
 10
3841.6913692075732
 20
2211.121728488441
 30
0.0
 40
11.0
 50
0.000000000000007
 51
90.000000000000142
  0
ARC
  5
6B54
  8
FUTO
 10
3841.6913692075732
 20
2211.121728488441
 30
0.0
 40
12.0
 50
0.000000000000007
 51
90.000000000000142
  0
ARC
  5
6B55
  8
1
 10
3793.6913692075691
 20
2226.121728488441
 30
0.0
 40
3.0
 50
180.0
 51
270.0
  0
LINE
  5
6B56
  8
1
 10
3790.6913692075691
 20
2226.121728488441
 30
0.0
 11
3790.6913692075691
 21
2228.1217284884401
 31
0.0
  0
LINE
  5
6B57
  8
1
 10
3790.6913692075691
 20
2226.121728488441
 30
0.0
 11
3790.6913692075691
 21
2228.1217284884401
 31
0.0
  0
ARC
  5
6B58
  8
1
 10
3787.6913692075691
 20
2228.1217284884401
 30
0.0
 40
3.0
 50
0.000000000000007
 51
89.999999999999986
  0
LINE
  5
6B59
  8
1
 10
3463.69136920757
 20
2202.1217284884419
 30
0.0
 11
3463.69136920757
 21
2062.1217284884401
 31
0.0
  0
LINE
  5
6B5A
  8
1
 10
3444.69136920757
 20
2222.121728488441
 30
0.0
 11
3444.69136920757
 21
2042.1217284884401
 31
0.0
  0
DIMENSION
  5
6B5B
  8
SP
  2
*D21
 10
3343.3177934528612
 20
2132.121728488441
 30
0.0
 11
3318.3177934528599
 21
2082.621728488441
 31
0.0
 70
     0
 13
3453.69136920757
 23
2033.121728488441
 33
0.0
 14
3433.5437546342218
 24
2132.121728488441
 34
0.0
 50
90.0
  0
LINE
  5
6B5C
  8
1
 10
3445.69136920757
 20
2044.121728488441
 30
0.0
 11
3463.69136920757
 21
2062.1217284884401
 31
0.0
  0
LINE
  5
6B5D
  8
1
 10
3444.69136920757
 20
2041.121728488441
 30
0.0
 11
3444.69136920757
 21
2022.1217284884419
 31
0.0
  0
LINE
  5
6B5E
  8
1
 10
3443.69136920757
 20
2022.1217284884419
 30
0.0
 11
3444.69136920757
 21
2022.1217284884419
 31
0.0
  0
LINE
  5
6B5F
  8
1
 10
3444.69136920757
 20
2041.121728488441
 30
0.0
 11
3463.69136920757
 21
2041.121728488441
 31
0.0
  0
LINE
  5
6B60
  8
1
 10
3443.69136920757
 20
2042.1217284884401
 30
0.0
 11
3463.69136920757
 21
2042.1217284884401
 31
0.0
  0
LINE
  5
6B61
  8
1
 10
3445.69136920757
 20
2044.121728488441
 30
0.0
 11
3445.69136920757
 21
2042.1217284884401
 31
0.0
  0
ARC
  5
6B62
  8
1
 10
3493.6913692075732
 20
2038.1217284884419
 30
0.0
 40
3.0
 50
0.000000000000007
 51
90.0
  0
LINE
  5
6B63
  8
1
 10
3496.6913692075732
 20
2038.1217284884419
 30
0.0
 11
3496.6913692075732
 21
2036.1217284884419
 31
0.0
  0
LINE
  5
6B64
  8
1
 10
3496.6913692075732
 20
2038.1217284884419
 30
0.0
 11
3496.6913692075732
 21
2036.1217284884419
 31
0.0
  0
ARC
  5
6B65
  8
1
 10
3499.6913692075732
 20
2036.1217284884419
 30
0.0
 40
3.0
 50
180.0
 51
270.0
  0
LINE
  5
6B66
  8
CT
 10
3466.6913692075709
 20
2000.9346424731759
 30
0.0
 11
3466.6913692075709
 21
2025.308814503705
 31
0.0
  0
CIRCLE
  5
6B67
  8
FUTO
 10
3466.6913692075709
 20
2013.1217284884401
 30
0.0
 40
6.0
  0
LINE
  5
6B68
  8
CT
 10
3476.8784552228321
 20
2013.1217284884401
 30
0.0
 11
3452.504283192302
 21
2013.1217284884401
 31
0.0
  0
LINE
  5
6B69
  8
1
 10
3445.69136920757
 20
2220.121728488441
 30
0.0
 11
3463.69136920757
 21
2202.121728488441
 31
0.0
  0
LINE
  5
6B6A
  8
1
 10
3444.69136920757
 20
2223.121728488441
 30
0.0
 11
3463.69136920757
 21
2223.121728488441
 31
0.0
  0
LINE
  5
6B6B
  8
1
 10
3443.69136920757
 20
2222.121728488441
 30
0.0
 11
3463.69136920757
 21
2222.121728488441
 31
0.0
  0
LINE
  5
6B6C
  8
1
 10
3445.69136920757
 20
2222.121728488441
 30
0.0
 11
3445.69136920757
 21
2220.121728488441
 31
0.0
  0
ARC
  5
6B6D
  8
1
 10
3499.6913692075732
 20
2228.1217284884401
 30
0.0
 40
3.0
 50
89.999999999999986
 51
180.0
  0
LINE
  5
6B6E
  8
1
 10
3496.6913692075732
 20
2226.121728488441
 30
0.0
 11
3496.6913692075732
 21
2228.1217284884401
 31
0.0
  0
LINE
  5
6B6F
  8
1
 10
3496.6913692075732
 20
2226.121728488441
 30
0.0
 11
3496.6913692075732
 21
2228.1217284884401
 31
0.0
  0
ARC
  5
6B70
  8
1
 10
3493.6913692075732
 20
2226.121728488441
 30
0.0
 40
3.0
 50
270.0
 51
0.000000000000007
  0
LINE
  5
6B71
  8
1
 10
3443.69136920757
 20
2242.121728488441
 30
0.0
 11
3444.69136920757
 21
2242.121728488441
 31
0.0
  0
LINE
  5
70C9
  8
FUTO
 10
3453.6913692075718
 20
811.03013774616511
 30
0.0
 11
3453.6913692075718
 21
808.73013774616516
 31
0.0
  0
LINE
  5
70CA
  8
FUTO
 10
3483.6913692075718
 20
811.03013774616511
 30
0.0
 11
3483.6913692075741
 21
751.03013774616477
 31
0.0
  0
LINE
  5
70CB
  8
1
 10
3481.3913692075721
 20
808.73013774616493
 30
0.0
 11
3453.6913692075718
 21
808.73013774616516
 31
0.0
  0
LINE
  5
70CC
  8
FUTO
 10
3453.6913692075718
 20
753.33013774616495
 30
0.0
 11
3453.6913692075718
 21
751.03013774616511
 31
0.0
  0
LINE
  5
70CD
  8
1
 10
3481.3913692075739
 20
753.33013774616484
 30
0.0
 11
3453.6913692075718
 21
753.33013774616506
 31
0.0
  0
LINE
  5
70CE
  8
1
 10
3483.6913692075741
 20
751.030137746165
 30
0.0
 11
3453.6913692075718
 21
751.03013774616511
 31
0.0
  0
LINE
  5
70CF
  8
FUTO
 10
3481.3913692075721
 20
808.73013774616493
 30
0.0
 11
3481.3913692075739
 21
753.33013774616484
 31
0.0
  0
LINE
  5
70D0
  8
FUTO
 10
3453.6913692075718
 20
811.03013774616511
 30
0.0
 11
3833.6913692075718
 21
811.03013774616511
 31
0.0
  0
LINE
  5
70D1
  8
FUTO
 10
3483.6913692075741
 20
771.03013774616488
 30
0.0
 11
3803.69136920757
 21
771.03013774616488
 31
0.0
  0
LINE
  5
70D2
  8
1
 10
3805.991369207572
 20
808.73013774616493
 30
0.0
 11
3833.6913692075718
 21
808.73013774616516
 31
0.0
  0
LINE
  5
70D3
  8
1
 10
3833.6913692075732
 20
751.03013774616318
 30
0.0
 11
3803.69136920757
 21
751.0301377461634
 31
0.0
  0
LINE
  5
70D4
  8
1
 10
3805.9913692075702
 20
753.33013774616484
 30
0.0
 11
3833.6913692075718
 21
753.33013774616506
 31
0.0
  0
LINE
  5
70D5
  8
FUTO
 10
3803.6913692075718
 20
811.03013774616511
 30
0.0
 11
3803.69136920757
 21
751.03013774616477
 31
0.0
  0
LINE
  5
70D6
  8
FUTO
 10
3805.991369207572
 20
808.73013774616493
 30
0.0
 11
3805.9913692075702
 21
753.33013774616484
 31
0.0
  0
LINE
  5
70D7
  8
FUTO
 10
3833.6913692075718
 20
811.03013774616511
 30
0.0
 11
3833.6913692075718
 21
808.73013774616516
 31
0.0
  0
LINE
  5
70D8
  8
FUTO
 10
3833.6913692075718
 20
753.33013774616495
 30
0.0
 11
3833.6913692075718
 21
751.03013774616511
 31
0.0
  0
DIMENSION
  5
70D9
  8
SP
  2
*D23
 10
3643.6913692075718
 20
681.0301377461634
 30
0.0
 11
3738.6913692075732
 21
706.0301377461634
 31
0.0
 70
     0
 13
3833.6913692075732
 23
751.0301377461634
 33
0.0
 14
3643.6913692075718
 24
748.53182892376844
 34
0.0
 50
180.0
  0
DIMENSION
  5
70DA
  8
SP
  2
*D24
 10
3833.6913692075732
 20
611.03013774616522
 30
0.0
 11
3643.6913692075718
 21
636.03013774616522
 31
0.0
 70
     0
 13
3453.6913692075718
 23
751.03013774616522
 33
0.0
 14
3833.6913692075732
 24
751.0301377461634
 34
0.0
 50
180.0
  0
DIMENSION
  5
70DB
  8
SP
  2
*D25
 10
3453.6913692075718
 20
681.03013774616522
 30
0.0
 11
3548.6913692075718
 21
706.03013774616522
 31
0.0
 70
     0
 13
3643.6913692075718
 23
748.53182892376844
 33
0.0
 14
3453.6913692075718
 24
751.03013774616522
 34
0.0
 50
180.0
  0
LINE
  5
70DC
  8
2
 10
3466.6913692075741
 20
796.60917572428571
 30
0.0
 11
3466.6913692075718
 21
845.33013774616427
 31
0.0
  0
LINE
  5
70DD
  8
2
 10
3820.6913692075709
 20
798.48576158616834
 30
0.0
 11
3820.6913692075709
 21
845.33013774616609
 31
0.0
  0
DIMENSION
  5
70E0
  8
SP
  2
*D26
 10
4493.6913692075714
 20
633.03013774616522
 30
0.0
 11
4444.1913692075723
 21
658.03013774616522
 31
0.0
 70
     0
 13
4394.6913692075723
 23
751.03013774616522
 33
0.0
 14
4493.6913692075714
 24
856.330733590661
 34
0.0
  0
DIMENSION
  5
70E1
  8
SP
  2
*D27
 10
4394.6913692075723
 20
633.03013774616522
 30
0.0
 11
4294.6913692075723
 21
658.03013774616522
 31
0.0
 70
     0
 13
4194.6913692075723
 23
751.03013774616522
 33
0.0
 14
4394.6913692075723
 24
751.03013774616522
 34
0.0
  0
LINE
  5
70E2
  8
FUTO
 10
4394.6913692075723
 20
811.03013774616522
 30
0.0
 11
4394.6913692075723
 21
751.03013774616522
 31
0.0
  0
LINE
  5
70E3
  8
FUTO
 10
4194.6913692075723
 20
811.03013774616522
 30
0.0
 11
4194.6913692075723
 21
751.03013774616522
 31
0.0
  0
LINE
  5
70E6
  8
FUTO
 10
4194.6913692075723
 20
751.03013774616522
 30
0.0
 11
4394.6913692075723
 21
751.03013774616522
 31
0.0
  0
LINE
  5
70E7
  8
FUTO
 10
4194.6913692075723
 20
753.33013774616506
 30
0.0
 11
4394.6913692075723
 21
753.33013774616518
 31
0.0
  0
LINE
  5
70E8
  8
1
 10
4194.6913692075723
 20
808.73013774616527
 30
0.0
 11
4394.6913692075723
 21
808.73013774616527
 31
0.0
  0
LINE
  5
70E9
  8
1
 10
4194.6913692075723
 20
811.03013774616522
 30
0.0
 11
4394.6913692075723
 21
811.03013774616522
 31
0.0
  0
DIMENSION
  5
744E
  8
SP
  2
*D29
 10
3338.69136920757
 20
751.03013774616318
 30
0.0
 11
3313.69136920757
 21
665.49350296470982
 31
0.0
 70
     0
 13
3453.6913692075732
 23
811.03013774616511
 33
0.0
 14
3453.6913692075732
 24
751.03013774616318
 34
0.0
 50
90.0
1001
ACAD
1000
DSTYLE
1002
{
1070
     6
1000
DOT
1002
}
  0
DIMENSION
  5
744F
  8
SP
  2
*D28
 10
3338.69136920757
 20
811.03013774616511
 30
0.0
 11
3297.3937352382268
 21
804.81170738277206
 31
0.0
 70
   128
 13
3453.6913692075718
 23
833.03013774616329
 33
0.0
 14
3453.6913692075732
 24
811.03013774616511
 34
0.0
 50
90.0
1001
ACAD
1000
DSTYLE
1002
{
1070
   287
1070
     5
1070
   279
1070
     2
1070
     3
1000
（<>）
1070
     6
1000
NONE
1070
     7
1000
NONE
1002
}
  0
TEXT
  5
74B0
  8
4
 10
3701.0246001468659
 20
2545.5387187150809
 30
0.0
 40
53.999999999999993
  1
床置防振ベッド型
  0
ENDSEC
  0
EOF
