  0
SECTION
  2
HEADER
  9
$ACADVER
  1
AC1009
  9
$INSBASE
 10
0.0
 20
0.0
 30
0.0
  9
$EXTMIN
 10
183.62393455595441
 20
96.092404061039474
 30
0.0
  9
$EXTMAX
 10
2283.6239345559538
 20
3046.0924040610389
 30
0.0
  9
$LIMMIN
 10
0.0
 20
0.0
  9
$LIMMAX
 10
297.0
 20
210.0
  9
$ORTHOMODE
 70
     0
  9
$REGENMODE
 70
     1
  9
$FILLMODE
 70
     1
  9
$QTEXTMODE
 70
     0
  9
$MIRRTEXT
 70
     0
  9
$DRAGMODE
 70
     2
  9
$LTSCALE
 40
50.0
  9
$OSMODE
 70
   545
  9
$ATTMODE
 70
     1
  9
$TEXTSIZE
 40
3.5
  9
$TRACEWID
 40
0.05
  9
$TEXTSTYLE
  7
STANDARD
  9
$CLAYER
  8
SP
  9
$CELTYPE
  6
BYLAYER
  9
$CECOLOR
 62
   256
  9
$DIMSCALE
 40
10.0
  9
$DIMASZ
 40
2.5
  9
$DIMEXO
 40
1.0
  9
$DIMDLI
 40
7.0
  9
$DIMRND
 40
0.0
  9
$DIMDLE
 40
0.0
  9
$DIMEXE
 40
1.0
  9
$DIMTP
 40
0.0
  9
$DIMTM
 40
0.0
  9
$DIMTXT
 40
3.0
  9
$DIMCEN
 40
0.0
  9
$DIMTSZ
 40
0.0
  9
$DIMTOL
 70
     0
  9
$DIMLIM
 70
     0
  9
$DIMTIH
 70
     0
  9
$DIMTOH
 70
     0
  9
$DIMSE1
 70
     0
  9
$DIMSE2
 70
     0
  9
$DIMTAD
 70
     1
  9
$DIMZIN
 70
     8
  9
$DIMBLK
  1

  9
$DIMASO
 70
     1
  9
$DIMSHO
 70
     1
  9
$DIMPOST
  1

  9
$DIMAPOST
  1

  9
$DIMALT
 70
     0
  9
$DIMALTD
 70
     2
  9
$DIMALTF
 40
0.03937
  9
$DIMLFAC
 40
1.0
  9
$DIMTOFL
 70
     1
  9
$DIMTVP
 40
0.0
  9
$DIMTIX
 70
     0
  9
$DIMSOXD
 70
     0
  9
$DIMSAH
 70
     1
  9
$DIMBLK1
  1
OPEN
  9
$DIMBLK2
  1
OPEN
  9
$DIMSTYLE
  2
GOD
  9
$DIMCLRD
 70
   256
  9
$DIMCLRE
 70
   256
  9
$DIMCLRT
 70
   256
  9
$DIMTFAC
 40
1.0
  9
$DIMGAP
 40
1.0
  9
$LUNITS
 70
     2
  9
$LUPREC
 70
     3
  9
$SKETCHINC
 40
0.1
  9
$FILLETRAD
 40
1.0
  9
$AUNITS
 70
     0
  9
$AUPREC
 70
     2
  9
$MENU
  1
acad
  9
$ELEVATION
 40
0.0
  9
$PELEVATION
 40
0.0
  9
$THICKNESS
 40
0.0
  9
$LIMCHECK
 70
     0
  9
$BLIPMODE
 70
     0
  9
$CHAMFERA
 40
0.0
  9
$CHAMFERB
 40
0.0
  9
$SKPOLY
 70
     0
  9
$TDCREATE
 40
2454940.4140922911
  9
$TDUPDATE
 40
2455012.406406967
  9
$TDINDWG
 40
0.0561807523
  9
$TDUSRTIMER
 40
0.0561807523
  9
$USRTIMER
 70
     1
  9
$ANGBASE
 50
0.0
  9
$ANGDIR
 70
     0
  9
$PDMODE
 70
     0
  9
$PDSIZE
 40
1.0
  9
$PLINEWID
 40
0.0
  9
$COORDS
 70
     2
  9
$SPLFRAME
 70
     0
  9
$SPLINETYPE
 70
     6
  9
$SPLINESEGS
 70
     8
  9
$ATTDIA
 70
     0
  9
$ATTREQ
 70
     1
  9
$HANDLING
 70
 22529
  9
$HANDSEED
  5
738C
  9
$SURFTAB1
 70
     6
  9
$SURFTAB2
 70
     6
  9
$SURFTYPE
 70
     6
  9
$SURFU
 70
     6
  9
$SURFV
 70
     6
  9
$UCSNAME
  2

  9
$UCSORG
 10
0.0
 20
0.0
 30
0.0
  9
$UCSXDIR
 10
1.0
 20
0.0
 30
0.0
  9
$UCSYDIR
 10
0.0
 20
1.0
 30
0.0
  9
$PUCSNAME
  2

  9
$PUCSORG
 10
0.0
 20
0.0
 30
0.0
  9
$PUCSXDIR
 10
1.0
 20
0.0
 30
0.0
  9
$PUCSYDIR
 10
0.0
 20
1.0
 30
0.0
  9
$USERI1
 70
     0
  9
$USERI2
 70
     0
  9
$USERI3
 70
     0
  9
$USERI4
 70
     0
  9
$USERI5
 70
     0
  9
$USERR1
 40
0.0
  9
$USERR2
 40
0.0
  9
$USERR3
 40
0.0
  9
$USERR4
 40
0.0
  9
$USERR5
 40
0.0
  9
$WORLDVIEW
 70
     1
  9
$SHADEDGE
 70
     3
  9
$SHADEDIF
 70
    70
  9
$TILEMODE
 70
     1
  9
$MAXACTVP
 70
    16
  9
$PLIMCHECK
 70
     0
  9
$PEXTMIN
 10
1.0000000000000000E+020
 20
1.0000000000000000E+020
 30
1.0000000000000000E+020
  9
$PEXTMAX
 10
-1.0000000000000000E+020
 20
-1.0000000000000000E+020
 30
-1.0000000000000000E+020
  9
$PLIMMIN
 10
0.0
 20
0.0
  9
$PLIMMAX
 10
12.0
 20
9.0
  9
$UNITMODE
 70
     0
  9
$VISRETAIN
 70
     0
  9
$PLINEGEN
 70
     0
  9
$PSLTSCALE
 70
     0
  0
ENDSEC
  0
SECTION
  2
TABLES
  0
TABLE
  2
VPORT
 70
     2
  0
VPORT
  2
*ACTIVE
 70
     0
 10
0.0
 20
0.0
 11
1.0
 21
1.0
 12
1233.629432839095
 22
1571.036480284474
 13
0.0
 23
0.0
 14
5.0
 24
5.0
 15
0.0
 25
0.0
 16
0.0
 26
0.0
 36
1.0
 17
0.0
 27
0.0
 37
0.0
 40
2974.381843977641
 41
1.6307901907356941
 42
50.0
 43
0.0
 44
0.0
 50
0.0
 51
0.0
 71
     0
 72
   100
 73
     1
 74
     0
 75
     0
 76
     0
 77
     0
 78
     0
  0
ENDTAB
  0
TABLE
  2
LTYPE
 70
     4
  0
LTYPE
  2
CONTINUOUS
 70
     0
  3
Solid line
 72
    65
 73
     0
 40
0.0
  0
LTYPE
  2
CENTER
 70
     0
  3
____ _ ____ _ ____ _ ____ _ ____ _ ____ _ ____ 
 72
    65
 73
     4
 40
2.0
 49
1.25
 49
-0.25
 49
0.25
 49
-0.25
  0
LTYPE
  2
HIDDEN
 70
     0
  3
__ __ __ __ __ __ __ __ __ __ __ __ __ __ __ __
 72
    65
 73
     2
 40
0.375
 49
0.25
 49
-0.125
  0
LTYPE
  2
PHANTOM
 70
     0
  3
______  __  __  ______  __  __  ______  __  __ 
 72
    65
 73
     6
 40
2.5
 49
1.25
 49
-0.25
 49
0.25
 49
-0.25
 49
0.25
 49
-0.25
  0
ENDTAB
  0
TABLE
  2
LAYER
 70
    13
  0
LAYER
  2
0
 70
     0
 62
     7
  6
CONTINUOUS
  0
LAYER
  2
CT
 70
     0
 62
     3
  6
CENTER
  0
LAYER
  2
FUTO
 70
     0
 62
     4
  6
CONTINUOUS
  0
LAYER
  2
HOSO
 70
     0
 62
     7
  6
CONTINUOUS
  0
LAYER
  2
KL
 70
     0
 62
     7
  6
HIDDEN
  0
LAYER
  2
MOJI
 70
     0
 62
     3
  6
CONTINUOUS
  0
LAYER
  2
SL
 70
     0
 62
     1
  6
PHANTOM
  0
LAYER
  2
SP
 70
     0
 62
     2
  6
CONTINUOUS
  0
LAYER
  2
DEFPOINTS
 70
     0
 62
     7
  6
CONTINUOUS
  0
LAYER
  2
3
 70
     0
 62
     2
  6
CONTINUOUS
  0
LAYER
  2
2
 70
     0
 62
     3
  6
CENTER
  0
LAYER
  2
1
 70
     0
 62
     4
  6
CONTINUOUS
  0
LAYER
  2
4
 70
     0
 62
     7
  6
CONTINUOUS
  0
ENDTAB
  0
TABLE
  2
STYLE
 70
     2
  0
STYLE
  2
STANDARD
 70
     0
 40
0.0
 41
1.0
 50
15.0
 71
     0
 42
3.5
  3
C:\Program Files\AutoCAD LT\simplex.shx
  4
C:\Program Files\AutoCAD LT\extfont.shx
  0
STYLE
  2
SUNPOU
 70
     0
 40
0.0
 41
1.0
 50
15.0
 71
     0
 42
30.0
  3
simplex.shx
  4
extfont.shx
  0
ENDTAB
  0
TABLE
  2
VIEW
 70
     0
  0
ENDTAB
  0
TABLE
  2
UCS
 70
     0
  0
ENDTAB
  0
TABLE
  2
APPID
 70
     1
  0
APPID
  2
ACAD
 70
     0
  0
ENDTAB
  0
TABLE
  2
DIMSTYLE
 70
     4
  0
DIMSTYLE
  2
STANDARD
 70
     0
  3

  4

  5

  6

  7

 40
1.0
 41
0.18
 42
0.0625
 43
0.38
 44
0.18
 45
0.0
 46
0.0
 47
0.0
 48
0.0
140
0.18
141
0.09
142
0.0
143
25.399999999999999
144
1.0
145
0.0
146
1.0
147
0.09
 71
     0
 72
     0
 73
     1
 74
     1
 75
     0
 76
     0
 77
     0
 78
     0
170
     0
171
     2
172
     0
173
     0
174
     0
175
     0
176
     0
177
     0
178
     0
  0
DIMSTYLE
  2
GOD
 70
     0
  3

  4

  5

  6
OPEN
  7
OPEN
 40
10.0
 41
2.5
 42
1.0
 43
7.0
 44
1.0
 45
0.0
 46
0.0
 47
0.0
 48
0.0
140
3.0
141
0.0
142
0.0
143
0.03937
144
1.0
145
0.0
146
1.0
147
1.0
 71
     0
 72
     0
 73
     0
 74
     0
 75
     0
 76
     0
 77
     1
 78
     8
170
     0
171
     2
172
     1
173
     1
174
     0
175
     0
176
   256
177
   256
178
   256
  0
DIMSTYLE
  2
IGA
 70
     0
  3

  4

  5

  6
OPEN
  7
OPEN
 40
2.0
 41
2.0
 42
0.5
 43
10.0
 44
1.0
 45
0.0
 46
0.0
 47
1.0
 48
1.0
140
3.0
141
0.0
142
0.0
143
0.03937
144
1.0
145
0.0
146
10.0
147
1.0
 71
     0
 72
     0
 73
     0
 74
     0
 75
     0
 76
     0
 77
     1
 78
     8
170
     0
171
     2
172
     0
173
     1
174
     0
175
     0
176
     0
177
     0
178
     0
  0
DIMSTYLE
  2
MATSU
 70
     0
  3

  4

  5

  6
OPEN
  7
OPEN
 40
1.0
 41
2.0
 42
1.0
 43
10.0
 44
1.0
 45
0.0
 46
0.0
 47
0.0
 48
0.0
140
3.0
141
0.0
142
0.0
143
0.03937
144
1.0
145
0.0
146
1.0
147
0.5
 71
     0
 72
     0
 73
     0
 74
     0
 75
     0
 76
     0
 77
     1
 78
     8
170
     0
171
     2
172
     1
173
     1
174
     0
175
     0
176
   256
177
   256
178
   256
  0
ENDTAB
  0
ENDSEC
  0
SECTION
  2
BLOCKS
  0
BLOCK
  8
0
  2
$MODEL_SPACE
 70
     0
 10
0.0
 20
0.0
 30
0.0
  3
$MODEL_SPACE
  1

  0
ENDBLK
  5
1B
  8
0
  0
BLOCK
 67
     1
  8
0
  2
$PAPER_SPACE
 70
     0
 10
0.0
 20
0.0
 30
0.0
  3
$PAPER_SPACE
  1

  0
ENDBLK
  5
18
 67
     1
  8
0
  0
BLOCK
  8
0
  2
_OPEN
 70
     0
 10
0.0
 20
0.0
 30
0.0
  3
_OPEN
  1

  0
LINE
  5
1E81
  8
0
  6
BYBLOCK
 62
     0
 10
-1.0
 20
0.1666666666666666
 30
0.0
 11
0.0
 21
0.0
 31
0.0
  0
LINE
  5
1E82
  8
0
  6
BYBLOCK
 62
     0
 10
0.0
 20
0.0
 30
0.0
 11
-1.0
 21
-0.1666666666666666
 31
0.0
  0
LINE
  5
1E83
  8
0
  6
BYBLOCK
 62
     0
 10
0.0
 20
0.0
 30
0.0
 11
-1.0
 21
0.0
 31
0.0
  0
ENDBLK
  5
1E84
  8
0
  0
BLOCK
  8
0
  2
_DOT
 70
     0
 10
0.0
 20
0.0
 30
0.0
  3
_DOT
  1

  0
LINE
  5
1EC3
  8
0
  6
BYBLOCK
 62
     0
 10
0.0
 20
0.0
 30
0.0
 11
-1.0
 21
-0.0000000000000284
 31
0.0
  0
POLYLINE
  5
1EC4
  8
0
  6
BYBLOCK
 62
     0
 66
     1
 10
0.0
 20
0.0
 30
0.0
 70
     1
 40
0.1666666666666666
 41
0.1666666666666666
  0
VERTEX
  5
7389
  8
0
  6
BYBLOCK
 62
     0
 10
-0.0833333333333286
 20
-0.0000000000000284
 30
0.0
 42
1.0
  0
VERTEX
  5
738A
  8
0
  6
BYBLOCK
 62
     0
 10
0.0833333333333286
 20
-0.0000000000000284
 30
0.0
 42
1.0
  0
SEQEND
  5
738B
  8
0
  6
BYBLOCK
 62
     0
  0
ENDBLK
  5
1EB8
  8
0
  0
BLOCK
  8
0
  2
*D2
 70
     1
 10
0.0
 20
0.0
 30
0.0
  3
*D2
  1

  0
LINE
  5
5685
  8
SP
 10
-1699.9142715201349
 20
823.03013774616693
 30
0.0
 11
-1699.9142715201349
 21
683.03013774616704
 31
0.0
  0
LINE
  5
5686
  8
SP
 10
-2079.914271520136
 20
823.03013774616522
 30
0.0
 11
-2079.914271520136
 21
683.03013774616704
 31
0.0
  0
LINE
  5
5687
  8
SP
 10
-1724.9142715201349
 20
693.03013774616704
 30
0.0
 11
-2054.914271520136
 21
693.03013774616704
 31
0.0
  0
INSERT
  5
5688
  8
SP
  2
_OPEN
 10
-1699.9142715201349
 20
693.03013774616704
 30
0.0
 41
25.0
 42
25.0
 43
25.0
  0
INSERT
  5
5689
  8
SP
  2
_OPEN
 10
-2079.914271520136
 20
693.03013774616704
 30
0.0
 41
25.0
 42
25.0
 43
25.0
 50
180.0
  0
TEXT
  5
568A
  8
SP
 10
-1931.790652263745
 20
703.03013774616704
 30
0.0
 40
30.0
  1
380
 51
15.0
  0
POINT
  5
568B
  8
DEFPOINTS
 62
     0
 10
-1699.9142715201349
 20
833.03013774616716
 30
0.0
  0
POINT
  5
568C
  8
DEFPOINTS
 62
     0
 10
-2079.914271520136
 20
833.03013774616511
 30
0.0
  0
POINT
  5
568D
  8
DEFPOINTS
 62
     0
 10
-2079.914271520136
 20
693.03013774616704
 30
0.0
  0
ENDBLK
  5
568F
  8
0
  0
BLOCK
  8
0
  2
*D3
 70
     1
 10
0.0
 20
0.0
 30
0.0
  3
*D3
  1

  0
LINE
  5
5691
  8
SP
 10
-2079.914271520136
 20
823.03013774616522
 30
0.0
 11
-2079.914271520136
 21
753.03013774616522
 31
0.0
  0
LINE
  5
5692
  8
SP
 10
-1889.9142715201349
 20
797.34538072303258
 30
0.0
 11
-1889.9142715201349
 21
753.03013774616522
 31
0.0
  0
LINE
  5
5693
  8
SP
 10
-2054.914271520136
 20
763.03013774616522
 30
0.0
 11
-1914.9142715201349
 21
763.03013774616522
 31
0.0
  0
INSERT
  5
5694
  8
SP
  2
_OPEN
 10
-2079.914271520136
 20
763.03013774616522
 30
0.0
 41
25.0
 42
25.0
 43
25.0
 50
180.0
  0
INSERT
  5
5695
  8
SP
  2
_OPEN
 10
-1889.9142715201349
 20
763.03013774616522
 30
0.0
 41
25.0
 42
25.0
 43
25.0
  0
TEXT
  5
5696
  8
SP
 10
-2026.421609050605
 20
773.03013774616522
 30
0.0
 40
30.0
  1
190
 51
15.0
  0
POINT
  5
5697
  8
DEFPOINTS
 62
     0
 10
-2079.914271520136
 20
833.03013774616511
 30
0.0
  0
POINT
  5
5698
  8
DEFPOINTS
 62
     0
 10
-1889.9142715201349
 20
807.34538072303246
 30
0.0
  0
POINT
  5
5699
  8
DEFPOINTS
 62
     0
 10
-1889.9142715201349
 20
763.03013774616522
 30
0.0
  0
ENDBLK
  5
569B
  8
0
  0
BLOCK
  8
0
  2
*D4
 70
     1
 10
0.0
 20
0.0
 30
0.0
  3
*D4
  1

  0
LINE
  5
569D
  8
SP
 10
-1889.9142715201349
 20
797.34538072303258
 30
0.0
 11
-1889.9142715201349
 21
753.03013774616704
 31
0.0
  0
LINE
  5
569E
  8
SP
 10
-1699.9142715201349
 20
823.03013774616693
 30
0.0
 11
-1699.9142715201349
 21
753.03013774616704
 31
0.0
  0
LINE
  5
569F
  8
SP
 10
-1864.9142715201349
 20
763.03013774616704
 30
0.0
 11
-1724.9142715201349
 21
763.03013774616704
 31
0.0
  0
INSERT
  5
56A0
  8
SP
  2
_OPEN
 10
-1889.9142715201349
 20
763.03013774616704
 30
0.0
 41
25.0
 42
25.0
 43
25.0
 50
180.0
  0
INSERT
  5
56A1
  8
SP
  2
_OPEN
 10
-1699.9142715201349
 20
763.03013774616704
 30
0.0
 41
25.0
 42
25.0
 43
25.0
  0
TEXT
  5
56A2
  8
SP
 10
-1836.4216090506061
 20
773.03013774616704
 30
0.0
 40
30.0
  1
190
 51
15.0
  0
POINT
  5
56A3
  8
DEFPOINTS
 62
     0
 10
-1889.9142715201349
 20
807.34538072303246
 30
0.0
  0
POINT
  5
56A4
  8
DEFPOINTS
 62
     0
 10
-1699.9142715201349
 20
833.03013774616716
 30
0.0
  0
POINT
  5
56A5
  8
DEFPOINTS
 62
     0
 10
-1699.9142715201349
 20
763.03013774616704
 30
0.0
  0
ENDBLK
  5
56A7
  8
0
  0
BLOCK
  8
0
  2
*D5
 70
     1
 10
0.0
 20
0.0
 30
0.0
  3
*D5
  1

  0
LINE
  5
56A9
  8
SP
 10
-2139.9142715201351
 20
1298.030137746166
 30
0.0
 11
-2139.9142715201351
 21
1368.030137746166
 31
0.0
  0
LINE
  5
56AA
  8
SP
 10
-1889.9142715201349
 20
1307.8065568904919
 30
0.0
 11
-1889.9142715201349
 21
1368.030137746166
 31
0.0
  0
LINE
  5
56AB
  8
SP
 10
-2114.9142715201351
 20
1358.030137746166
 30
0.0
 11
-1914.9142715201349
 21
1358.030137746166
 31
0.0
  0
INSERT
  5
56AC
  8
SP
  2
_OPEN
 10
-2139.9142715201351
 20
1358.030137746166
 30
0.0
 41
25.0
 42
25.0
 43
25.0
 50
180.0
  0
INSERT
  5
56AD
  8
SP
  2
_OPEN
 10
-1889.9142715201349
 20
1358.030137746166
 30
0.0
 41
25.0
 42
25.0
 43
25.0
  0
TEXT
  5
56AE
  8
SP
 10
-2056.0250831425128
 20
1368.030137746166
 30
0.0
 40
30.0
  1
250
 51
15.0
  0
POINT
  5
56AF
  8
DEFPOINTS
 62
     0
 10
-2139.9142715201351
 20
1288.030137746166
 30
0.0
  0
POINT
  5
56B0
  8
DEFPOINTS
 62
     0
 10
-1889.9142715201349
 20
1297.8065568904919
 30
0.0
  0
POINT
  5
56B1
  8
DEFPOINTS
 62
     0
 10
-1889.9142715201349
 20
1358.030137746166
 30
0.0
  0
ENDBLK
  5
56B3
  8
0
  0
BLOCK
  8
0
  2
*D6
 70
     1
 10
0.0
 20
0.0
 30
0.0
  3
*D6
  1

  0
LINE
  5
56B5
  8
SP
 10
-1889.9142715201349
 20
1307.8065568904919
 30
0.0
 11
-1889.9142715201349
 21
1368.030137746166
 31
0.0
  0
LINE
  5
56B6
  8
SP
 10
-1713.9142715201349
 20
1081.0301377461669
 30
0.0
 11
-1713.9142715201349
 21
1368.030137746166
 31
0.0
  0
LINE
  5
56B7
  8
SP
 10
-1864.9142715201349
 20
1358.030137746166
 30
0.0
 11
-1738.9142715201349
 21
1358.030137746166
 31
0.0
  0
INSERT
  5
56B8
  8
SP
  2
_OPEN
 10
-1889.9142715201349
 20
1358.030137746166
 30
0.0
 41
25.0
 42
25.0
 43
25.0
 50
180.0
  0
INSERT
  5
56B9
  8
SP
  2
_OPEN
 10
-1713.9142715201349
 20
1358.030137746166
 30
0.0
 41
25.0
 42
25.0
 43
25.0
  0
TEXT
  5
56BA
  8
SP
 10
-1842.8987156166279
 20
1368.030137746166
 30
0.0
 40
30.0
  1
176
 51
15.0
  0
POINT
  5
56BB
  8
DEFPOINTS
 62
     0
 10
-1889.9142715201349
 20
1297.8065568904919
 30
0.0
  0
POINT
  5
56BC
  8
DEFPOINTS
 62
     0
 10
-1713.9142715201349
 20
1071.0301377461669
 30
0.0
  0
POINT
  5
56BD
  8
DEFPOINTS
 62
     0
 10
-1713.9142715201349
 20
1358.030137746166
 30
0.0
  0
ENDBLK
  5
56BF
  8
0
  0
BLOCK
  8
0
  2
*D7
 70
     1
 10
0.0
 20
0.0
 30
0.0
  3
*D7
  1

  0
LINE
  5
56C1
  8
SP
 10
-2184.1007564974338
 20
1088.030137746166
 30
0.0
 11
-2249.3805561714089
 21
1088.030137746166
 31
0.0
  0
LINE
  5
56C2
  8
SP
 10
-2170.9142715201351
 20
1288.0301377461669
 30
0.0
 11
-2249.3805561714089
 21
1288.0301377461669
 31
0.0
  0
LINE
  5
56C3
  8
SP
 10
-2239.3805561714089
 20
1113.0301377461669
 30
0.0
 11
-2239.3805561714089
 21
1263.0301377461669
 31
0.0
  0
INSERT
  5
56C4
  8
SP
  2
_OPEN
 10
-2239.3805561714089
 20
1088.030137746166
 30
0.0
 41
25.0
 42
25.0
 43
25.0
 50
270.0
  0
INSERT
  5
56C5
  8
SP
  2
_OPEN
 10
-2239.3805561714089
 20
1288.0301377461669
 30
0.0
 41
25.0
 42
25.0
 43
25.0
 50
90.0
  0
TEXT
  5
56C6
  8
SP
 10
-2249.3805561714089
 20
1146.9193261237881
 30
0.0
 40
30.0
  1
200
 50
90.0
 51
15.0
  0
POINT
  5
56C7
  8
DEFPOINTS
 62
     0
 10
-2174.1007564974352
 20
1088.030137746166
 30
0.0
  0
POINT
  5
56C8
  8
DEFPOINTS
 62
     0
 10
-2160.9142715201351
 20
1288.0301377461669
 30
0.0
  0
POINT
  5
56C9
  8
DEFPOINTS
 62
     0
 10
-2239.3805561714089
 20
1288.0301377461669
 30
0.0
  0
ENDBLK
  5
56CB
  8
0
  0
BLOCK
  8
0
  2
*D8
 70
     1
 10
0.0
 20
0.0
 30
0.0
  3
*D8
  1

  0
LINE
  5
56CD
  8
SP
 10
-2184.1007564974338
 20
1088.030137746166
 30
0.0
 11
-2249.3805561714089
 21
1088.030137746166
 31
0.0
  0
LINE
  5
56CE
  8
SP
 10
-2089.914271520136
 20
833.03013774616511
 30
0.0
 11
-2249.3805561714089
 21
833.03013774616511
 31
0.0
  0
LINE
  5
56CF
  8
SP
 10
-2239.3805561714089
 20
1063.0301377461669
 30
0.0
 11
-2239.3805561714089
 21
858.03013774616511
 31
0.0
  0
INSERT
  5
56D0
  8
SP
  2
_OPEN
 10
-2239.3805561714089
 20
1088.030137746166
 30
0.0
 41
25.0
 42
25.0
 43
25.0
 50
90.0
  0
INSERT
  5
56D1
  8
SP
  2
_OPEN
 10
-2239.3805561714089
 20
833.03013774616511
 30
0.0
 41
25.0
 42
25.0
 43
25.0
 50
270.0
  0
TEXT
  5
56D2
  8
SP
 10
-2249.3805561714089
 20
919.36804271684161
 30
0.0
 40
30.0
  1
255
 50
90.0
 51
15.0
  0
POINT
  5
56D3
  8
DEFPOINTS
 62
     0
 10
-2174.1007564974352
 20
1088.030137746166
 30
0.0
  0
POINT
  5
56D4
  8
DEFPOINTS
 62
     0
 10
-2079.914271520136
 20
833.03013774616511
 30
0.0
  0
POINT
  5
56D5
  8
DEFPOINTS
 62
     0
 10
-2239.3805561714089
 20
833.03013774616511
 30
0.0
  0
ENDBLK
  5
56D7
  8
0
  0
BLOCK
  8
0
  2
A$C44EA23BE
 70
     0
 10
0.0
 20
0.0
 30
0.0
  3
A$C44EA23BE
  1

  0
DIMENSION
  5
56D9
  8
SP
  2
*D8
 10
-349.46628465127378
 20
-255.00000000000171
 30
0.0
 11
-374.46628465127378
 21
-127.50000000000119
 31
0.0
 12
1889.9142715201349
 22
-1088.030137746166
 32
0.0
  3
GOD
 13
-284.18648497729919
 23
0.0
 33
0.0
 14
-190.00000000000091
 24
-255.00000000000171
 34
0.0
 50
90.0
  0
ARC
  5
56DA
  8
FUTO
 10
-17.0
 20
-17.0
 30
0.0
 40
203.0
 50
269.572081032222
 51
0.4673217049947748
  0
ARC
  5
56DB
  8
FUTO
 10
-20.0
 20
20.0
 30
0.0
 40
240.0
 50
180.0
 51
270.39182689926031
  0
ARC
  5
56DC
  8
FUTO
 10
-17.0
 20
-17.0
 30
0.0
 40
193.0
 50
269.572081032222
 51
0.4673217049947748
  0
ARC
  5
56DD
  8
FUTO
 10
-20.0
 20
20.0
 30
0.0
 40
230.0
 50
180.0
 51
270.39182689926031
  0
LINE
  5
56DE
  8
2
 10
0.0
 20
-280.6847570231343
 30
0.0
 11
0.0
 21
209.77641914432559
 31
0.0
  0
LINE
  5
56DF
  8
1
 10
157.69999999999891
 20
66.099999999998545
 30
0.0
 11
157.69999999999891
 21
-255.00000000000179
 31
0.0
  0
LINE
  5
56E0
  8
1
 10
160.0
 20
66.099999999998545
 30
0.0
 11
160.0
 21
-252.7000000000007
 31
0.0
  0
LINE
  5
56E1
  8
1
 10
-157.69999999999979
 20
66.099999999998545
 30
0.0
 11
-157.69999999999979
 21
-255.00000000000179
 31
0.0
  0
LINE
  5
56E2
  8
1
 10
-160.0
 20
66.099999999998545
 30
0.0
 11
-159.99999999999901
 21
-252.69999999999891
 31
0.0
  0
ARC
  5
56E3
  8
1
 10
0.0
 20
0.0
 30
0.0
 40
85.0
 50
0.0
 51
244.12446600000609
  0
CIRCLE
  5
56E4
  8
2
 10
0.0
 20
0.0
 30
0.0
 40
136.0
  0
ARC
  5
56E5
  8
1
 10
0.0
 20
0.0
 30
0.0
 40
85.000007999999994
 50
295.91772599999888
 51
0.0
  0
DIMENSION
  5
56E6
  8
SP
  2
*D2
 10
-190.00000000000091
 20
-394.99999999999977
 30
0.0
 11
-0.0000000000004547
 21
-369.99999999999977
 31
0.0
 12
1889.9142715201349
 22
-1088.030137746166
 32
0.0
  3
GOD
 13
190.0
 23
-254.9999999999998
 33
0.0
 14
-190.00000000000091
 24
-255.00000000000171
 34
0.0
  0
DIMENSION
  5
56E7
  8
SP
  2
*D4
 10
190.0
 20
-324.99999999999989
 30
0.0
 11
95.0
 21
-299.99999999999989
 31
0.0
 12
1889.9142715201349
 22
-1088.030137746166
 32
0.0
  3
GOD
 13
0.0
 23
-280.6847570231343
 33
0.0
 14
190.0
 24
-254.9999999999998
 34
0.0
  0
DIMENSION
  5
56E8
  8
SP
  2
*D3
 10
0.0
 20
-325.00000000000171
 30
0.0
 11
-95.000000000000455
 21
-300.00000000000171
 31
0.0
 12
1889.9142715201349
 22
-1088.030137746166
 32
0.0
  3
GOD
 13
-190.00000000000091
 23
-255.00000000000171
 33
0.0
 14
0.0
 24
-280.6847570231343
 34
0.0
  0
LINE
  5
56E9
  8
FUTO
 10
-132.69999999999979
 20
-105.0
 30
0.0
 11
-157.69999999999891
 21
-80.0
 31
0.0
  0
LINE
  5
56EA
  8
1
 10
-157.69999999999891
 20
-203.9999999999998
 30
0.0
 11
-132.7000000000007
 21
-203.9999999999998
 31
0.0
  0
LINE
  5
56EB
  8
1
 10
-190.00000000000091
 20
-255.00000000000179
 30
0.0
 11
190.0
 21
-255.0
 31
0.0
  0
LINE
  5
56EC
  8
1
 10
-157.69999999999891
 20
-80.0
 30
0.0
 11
157.69999999999891
 21
-80.0
 31
0.0
  0
LINE
  5
56ED
  8
2
 10
-176.99999999999901
 20
-268.98279906584588
 30
0.0
 11
-176.99999999999901
 21
-242.69999999999879
 31
0.0
  0
LINE
  5
56EE
  8
1
 10
-190.00000000000091
 20
-255.00000000000179
 30
0.0
 11
-190.00000000000179
 21
-252.7000000000007
 31
0.0
  0
LINE
  5
56EF
  8
1
 10
-190.00000000000091
 20
-252.7000000000007
 30
0.0
 11
-159.99999999999901
 21
-252.69999999999891
 31
0.0
  0
LINE
  5
56F0
  8
1
 10
132.699999999997
 20
-105.0
 30
0.0
 11
132.699999999997
 21
-203.9999999999998
 31
0.0
  0
LINE
  5
56F1
  8
1
 10
-132.69999999999979
 20
-105.0
 30
0.0
 11
-132.69999999999979
 21
-203.9999999999998
 31
0.0
  0
LINE
  5
56F2
  8
1
 10
132.699999999997
 20
-203.9999999999998
 30
0.0
 11
157.69999999999891
 21
-203.9999999999998
 31
0.0
  0
LINE
  5
56F3
  8
1
 10
190.0
 20
-255.0
 30
0.0
 11
190.0
 21
-252.69999999999891
 31
0.0
  0
LINE
  5
56F4
  8
2
 10
176.9999999999981
 20
-267.91032669659847
 30
0.0
 11
177.0
 21
-242.7000000000007
 31
0.0
  0
LINE
  5
56F5
  8
1
 10
160.0
 20
-252.69999999999891
 30
0.0
 11
190.0
 21
-252.7000000000007
 31
0.0
  0
LINE
  5
56F6
  8
FUTO
 10
132.69999999999979
 20
-105.0
 30
0.0
 11
157.69999999999891
 21
-80.0
 31
0.0
  0
LINE
  5
56F7
  8
1
 10
-132.69999999999979
 20
-105.0
 30
0.0
 11
132.69999999999891
 21
-105.0
 31
0.0
  0
LINE
  5
56F8
  8
CT
 10
-57.086121054688192
 20
-137.8180876735004
 30
0.0
 11
-46.574035520656253
 21
-112.43966820841879
 31
0.0
  0
CIRCLE
  5
56F9
  8
1
 10
-52.044946801652252
 20
-125.64761642153459
 30
0.0
 40
4.0
  0
LINE
  5
56FA
  8
CT
 10
57.086121054688192
 20
-137.8180876735004
 30
0.0
 11
46.574035520658072
 21
-112.43966820841879
 31
0.0
  0
CIRCLE
  5
56FB
  8
1
 10
52.044946801652252
 20
-125.64761642153459
 30
0.0
 40
4.0
  0
LINE
  5
56FC
  8
1
 10
-37.095498999999108
 20
-76.450928000000204
 30
0.0
 11
37.151808999999041
 21
-76.450928000000204
 31
0.0
  0
LINE
  5
56FD
  8
1
 10
-82.5
 20
-78.34088200000042
 30
0.0
 11
82.500029999999242
 21
-78.34088200000042
 31
0.0
  0
LINE
  5
56FE
  8
CT
 10
-62.5
 20
-82.218586000000869
 30
0.0
 11
-62.5
 21
-73.631579000000784
 31
0.0
  0
LINE
  5
56FF
  8
CT
 10
-137.8180876735004
 20
-57.086121054690011
 30
0.0
 11
-112.439668208417
 21
-46.574035520658072
 31
0.0
  0
ARC
  5
5700
  8
1
 10
-52.365203999999721
 20
-70.5
 30
0.0
 40
5.0
 50
270.0
 51
324.46176099999479
  0
LINE
  5
5701
  8
1
 10
-46.623938000000628
 20
-71.064478000000236
 30
0.0
 11
-48.296539999999368
 21
-73.40625
 31
0.0
  0
LINE
  5
5702
  8
1
 10
-77.833160999999564
 20
-75.505370999999286
 30
0.0
 11
-62.323167999999889
 21
-57.818504000000758
 31
0.0
  0
LINE
  5
5703
  8
1
 10
-82.5
 20
-75.5
 30
0.0
 11
-52.36517399999866
 21
-75.5
 31
0.0
  0
CIRCLE
  5
5704
  8
1
 10
-125.64761642153459
 20
-52.044946801652252
 30
0.0
 40
4.0
  0
ARC
  5
5705
  8
1
 10
0.0
 20
0.0
 30
0.0
 40
85.0
 50
236.73178133170779
 51
244.12446600000609
  0
LINE
  5
5706
  8
1
 10
-42.5
 20
-78.34088200000042
 30
0.0
 11
-42.5
 21
-80.0
 31
0.0
  0
LINE
  5
5707
  8
1
 10
-77.5
 20
-78.34088200000042
 30
0.0
 11
-77.5
 21
-80.0
 31
0.0
  0
LINE
  5
5708
  8
1
 10
-82.5
 20
-78.34088200000042
 30
0.0
 11
-82.5
 21
-75.5
 31
0.0
  0
LINE
  5
5709
  8
CT
 10
137.8180876735004
 20
-57.086121054688192
 30
0.0
 11
112.439668208417
 21
-46.574035520658072
 31
0.0
  0
LINE
  5
570A
  8
CT
 10
62.5
 20
-82.218586000000869
 30
0.0
 11
62.5
 21
-73.631579000000784
 31
0.0
  0
LINE
  5
570B
  8
1
 10
82.500029999999242
 20
-75.5
 30
0.0
 11
52.365203999999721
 21
-75.5
 31
0.0
  0
LINE
  5
570C
  8
1
 10
77.834367999999813
 20
-75.506824000000051
 30
0.0
 11
62.32130799999868
 21
-57.816361999999572
 31
0.0
  0
LINE
  5
570D
  8
1
 10
47.508270000000259
 20
-72.302612999999837
 30
0.0
 11
48.296538999999029
 21
-73.40625
 31
0.0
  0
LINE
  5
570E
  8
1
 10
46.631551000000393
 20
-71.075138000000152
 30
0.0
 11
48.296538999999029
 21
-73.40625
 31
0.0
  0
ARC
  5
570F
  8
1
 10
52.365203999999721
 20
-70.5
 30
0.0
 40
5.000032
 50
215.53825399999309
 51
270.0
  0
LINE
  5
5710
  8
1
 10
77.5
 20
-78.34088200000042
 30
0.0
 11
77.5
 21
-80.0
 31
0.0
  0
LINE
  5
5711
  8
1
 10
42.5
 20
-78.34088200000042
 30
0.0
 11
42.5
 21
-80.0
 31
0.0
  0
LINE
  5
5712
  8
1
 10
82.500029999999242
 20
-75.5
 30
0.0
 11
82.500029999999242
 21
-78.34088200000042
 31
0.0
  0
CIRCLE
  5
5713
  8
1
 10
125.64761642153459
 20
-52.044946801652252
 30
0.0
 40
4.0
  0
DIMENSION
  5
5714
  8
SP
  2
*D7
 10
-349.46628465127333
 20
200.0
 30
0.0
 11
-374.46628465127378
 21
99.999999999999787
 31
0.0
 12
1889.9142715201349
 22
-1088.030137746166
 32
0.0
  3
GOD
 13
-284.18648497729919
 23
0.0
 33
0.0
 14
-271.0
 24
200.0
 34
0.0
 50
90.0
  0
DIMENSION
  5
5715
  8
SP
  2
*D6
 10
176.0
 20
269.99999999999898
 30
0.0
 11
88.0
 21
294.99999999999898
 31
0.0
 12
1889.9142715201349
 22
-1088.030137746166
 32
0.0
  3
GOD
 13
0.0
 23
209.77641914432559
 33
0.0
 14
176.0
 24
-17.0
 34
0.0
  0
LINE
  5
5716
  8
FUTO
 10
-250.99998456825821
 20
199.99444453017639
 30
0.0
 11
-249.99998456825821
 21
19.99444453017281
 31
0.0
  0
LINE
  5
5717
  8
FUTO
 10
-251.0
 20
200.0
 30
0.0
 11
-251.0
 21
180.0
 31
0.0
  0
LINE
  5
5718
  8
FUTO
 10
-252.0
 20
199.0
 30
0.0
 11
-252.0
 21
180.0
 31
0.0
  0
LINE
  5
5719
  8
FUTO
 10
-249.0
 20
198.0
 30
0.0
 11
-231.0
 21
180.0
 31
0.0
  0
LINE
  5
571A
  8
FUTO
 10
0.0
 20
180.0
 30
0.0
 11
0.0
 21
200.0
 31
0.0
  0
LINE
  5
571B
  8
FUTO
 10
1.0
 20
200.0
 30
0.0
 11
1.0
 21
180.0
 31
0.0
  0
LINE
  5
571C
  8
FUTO
 10
2.0
 20
199.0
 30
0.0
 11
2.0
 21
180.0
 31
0.0
  0
LINE
  5
571D
  8
FUTO
 10
-1.0
 20
198.0
 30
0.0
 11
-19.0
 21
180.0
 31
0.0
  0
LINE
  5
571E
  8
FUTO
 10
-231.0
 20
180.0
 30
0.0
 11
-19.0
 21
180.0
 31
0.0
  0
LINE
  5
571F
  8
1
 10
-60.0
 20
150.0
 30
0.0
 11
-158.39999999999961
 21
66.099999999998545
 31
0.0
  0
LINE
  5
5720
  8
2
 10
-284.18648497729919
 20
0.0
 30
0.0
 11
210.14761457335041
 21
-0.000000000001819
 31
0.0
  0
LINE
  5
5721
  8
FUTO
 10
-260.8890586406655
 20
180.0
 30
0.0
 11
-259.99983025084288
 21
19.938889831936191
 31
0.0
  0
LINE
  5
5722
  8
1
 10
-160.0
 20
66.099999999998545
 30
0.0
 11
-158.39999999999961
 21
66.099999999998545
 31
0.0
  0
LINE
  5
5723
  8
FUTO
 10
-260.8890586406655
 20
180.0
 30
0.0
 11
-250.88890432086819
 21
180.0
 31
0.0
  0
ARC
  5
5724
  8
FUTO
 10
14.0
 20
-14.0
 30
0.0
 40
172.0
 50
359.4896667551933
 51
78.450738176447032
  0
ARC
  5
5725
  8
FUTO
 10
14.0
 20
-14.0
 30
0.0
 40
162.0
 50
359.4896667551933
 51
78.450738176447032
  0
LINE
  5
5726
  8
1
 10
60.0
 20
150.0
 30
0.0
 11
158.39999999999961
 21
66.099999999998545
 31
0.0
  0
LINE
  5
5727
  8
CT
 10
-137.8180876735004
 20
57.086121054686373
 30
0.0
 11
-112.439668208417
 21
46.574035520658072
 31
0.0
  0
CIRCLE
  5
5728
  8
1
 10
-125.64761642153459
 20
52.044946801652252
 30
0.0
 40
4.0
  0
LINE
  5
5729
  8
CT
 10
137.8180876735004
 20
57.086121054686373
 30
0.0
 11
112.439668208417
 21
46.574035520658072
 31
0.0
  0
CIRCLE
  5
572A
  8
1
 10
125.64761642153459
 20
52.044946801652252
 30
0.0
 40
4.0
  0
LINE
  5
572B
  8
1
 10
158.39999999999961
 20
66.099999999998545
 30
0.0
 11
160.0
 21
66.099999999998545
 31
0.0
  0
LINE
  5
572C
  8
CT
 10
57.086121054688192
 20
137.81808767349861
 30
0.0
 11
46.574035520656253
 21
112.439668208417
 31
0.0
  0
LINE
  5
572D
  8
CT
 10
-57.086121054688192
 20
137.81808767349861
 30
0.0
 11
-46.574035520658072
 21
112.4396682084152
 31
0.0
  0
CIRCLE
  5
572E
  8
1
 10
-52.044946801652252
 20
125.64761642153459
 30
0.0
 40
4.0
  0
CIRCLE
  5
572F
  8
1
 10
52.044946801652252
 20
125.64761642153459
 30
0.0
 40
4.0
  0
ARC
  5
5730
  8
FUTO
 10
60.999999999996362
 20
216.0
 30
0.0
 40
72.753061747871584
 50
214.1996194554568
 51
258.45073817644709
  0
LINE
  5
5731
  8
FUTO
 10
0.0
 20
180.0
 30
0.0
 11
5.9318434102424362
 21
180.0
 31
0.0
  0
LINE
  5
5732
  8
1
 10
-60.0
 20
150.0
 30
0.0
 11
60.0
 21
150.0
 31
0.0
  0
LINE
  5
5733
  8
FUTO
 10
0.0
 20
180.0
 30
0.0
 11
1.0
 21
180.0
 31
0.0
  0
ARC
  5
5734
  8
FUTO
 10
59.528586099928361
 20
210.519969322142
 30
0.0
 40
57.203726762688042
 50
216.60350367361539
 51
261.67207569821369
  0
ARC
  5
5735
  8
FUTO
 10
5.9318434102424362
 20
170.0
 30
0.0
 40
10.0
 50
39.872968906140997
 51
90.0
  0
LINE
  5
5736
  8
FUTO
 10
-271.0
 20
200.0
 30
0.0
 11
21.0
 21
200.0
 31
0.0
  0
LINE
  5
5737
  8
FUTO
 10
-251.0
 20
199.0
 30
0.0
 11
1.0
 21
199.0
 31
0.0
  0
DIMENSION
  5
5738
  8
SP
  2
*D5
 10
0.0
 20
269.99999999999898
 30
0.0
 11
-125.0
 21
294.99999999999898
 31
0.0
 12
1889.9142715201349
 22
-1088.030137746166
 32
0.0
  3
GOD
 13
-250.0
 23
199.99999999999901
 33
0.0
 14
0.0
 24
209.77641914432559
 34
0.0
  0
LINE
  5
5739
  8
FUTO
 10
-271.0
 20
199.0
 30
0.0
 11
-252.0
 21
199.0
 31
0.0
  0
LINE
  5
573A
  8
FUTO
 10
-271.0
 20
200.0
 30
0.0
 11
-271.0
 21
199.0
 31
0.0
  0
LINE
  5
573B
  8
FUTO
 10
-251.0
 20
198.0
 30
0.0
 11
-249.0
 21
198.0
 31
0.0
  0
LINE
  5
573C
  8
FUTO
 10
2.0
 20
199.0
 30
0.0
 11
21.0
 21
199.0
 31
0.0
  0
LINE
  5
573D
  8
FUTO
 10
-1.0
 20
198.0
 30
0.0
 11
1.0
 21
198.0
 31
0.0
  0
LINE
  5
573E
  8
FUTO
 10
21.0
 20
200.0
 30
0.0
 11
21.0
 21
199.0
 31
0.0
  0
ENDBLK
  5
5740
  8
0
  0
BLOCK
  8
0
  2
A$C40AB6E05
 70
     0
 10
0.0
 20
0.0
 30
0.0
  3
A$C40AB6E05
  1

  0
LINE
  5
6751
  8
1
 10
-160.00000000000361
 20
-307.99999999999181
 30
0.0
 11
-160.00000000000591
 21
-99.000000000001606
 31
0.0
  0
LINE
  5
6752
  8
1
 10
-190.00000000000361
 20
-298.9999999999954
 30
0.0
 11
-190.00000000000591
 21
-99.000000000001364
 31
0.0
  0
LINE
  5
6753
  8
1
 10
-33.5
 20
-124.79999999999831
 30
0.0
 11
-33.5
 21
-133.79999999999831
 31
0.0
  0
LINE
  5
6754
  8
1
 10
-75.5
 20
-156.29999999999831
 30
0.0
 11
-75.5
 21
-135.79999999999831
 31
0.0
  0
ARC
  5
6755
  8
1
 10
-73.5
 20
-135.79999999999831
 30
0.0
 40
2.0
 50
90.0
 51
180.0
  0
LINE
  5
6756
  8
1
 10
-72.815002999999706
 20
-133.79999999999831
 30
0.0
 11
-64.184998000000633
 21
-133.79999999999831
 31
0.0
  0
LINE
  5
6757
  8
1
 10
-64.065796000000773
 20
-133.79999999999831
 30
0.0
 11
-73.065796000000773
 21
-133.79999999999831
 31
0.0
  0
LINE
  5
6758
  8
1
 10
-160.0000000000054
 20
-132.9999999999915
 30
0.0
 11
-33.5
 21
-132.99999999999361
 31
0.0
  0
CIRCLE
  5
6759
  8
FUTO
 10
-177.000000000005
 20
-119.00000000000109
 30
0.0
 40
6.0
  0
LINE
  5
675A
  8
CT
 10
-164.8129139847405
 20
-119.00000000000109
 30
0.0
 11
-189.18708601526981
 21
-119.00000000000109
 31
0.0
  0
LINE
  5
675B
  8
CT
 10
-177.000000000005
 20
-131.18708601526569
 30
0.0
 11
-177.000000000005
 21
-106.8129139847364
 31
0.0
  0
ARC
  5
675C
  8
1
 10
-143.99999999999631
 20
-95.999999999999091
 30
0.0
 40
3.0
 50
180.0
 51
270.0
  0
LINE
  5
675D
  8
1
 10
-146.99999999999631
 20
-93.999999999999091
 30
0.0
 11
-146.99999999999631
 21
-95.999999999999091
 31
0.0
  0
LINE
  5
675E
  8
1
 10
-146.99999999999631
 20
-93.999999999999091
 30
0.0
 11
-146.99999999999631
 21
-95.999999999999091
 31
0.0
  0
ARC
  5
675F
  8
1
 10
-149.99999999999631
 20
-93.999999999999091
 30
0.0
 40
3.0
 50
0.0
 51
90.0
  0
LINE
  5
6760
  8
1
 10
-22.5
 20
-110.9999999999972
 30
0.0
 11
-22.5
 21
-113.8000000000001
 31
0.0
  0
ARC
  5
6761
  8
1
 10
-32.5
 20
-124.79999999999831
 30
0.0
 40
1.0
 50
90.0
 51
180.0
  0
LINE
  5
6762
  8
FUTO
 10
190.00000000000179
 20
-99.000000000001137
 30
0.0
 11
-189.9999999999981
 21
-99.000000000001137
 31
0.0
  0
ARC
  5
6763
  8
1
 10
150.0
 20
-93.999999999999091
 30
0.0
 40
3.0
 50
90.0
 51
180.0
  0
LINE
  5
6764
  8
1
 10
147.0
 20
-93.999999999999091
 30
0.0
 11
147.0
 21
-95.999999999999091
 31
0.0
  0
LINE
  5
6765
  8
1
 10
147.0
 20
-93.999999999999091
 30
0.0
 11
147.0
 21
-95.999999999999091
 31
0.0
  0
ARC
  5
6766
  8
1
 10
144.0
 20
-95.999999999999091
 30
0.0
 40
3.0
 50
270.0
 51
0.0
  0
LINE
  5
6767
  8
1
 10
160.0
 20
-307.99999999999932
 30
0.0
 11
160.00000000000179
 21
-99.000000000001137
 31
0.0
  0
LINE
  5
6768
  8
FUTO
 10
190.0
 20
-298.9999999999954
 30
0.0
 11
190.00000000000179
 21
-99.000000000001137
 31
0.0
  0
LINE
  5
6769
  8
1
 10
33.499999999998181
 20
-132.99999999999719
 30
0.0
 11
160.00000000000151
 21
-132.99999999999719
 31
0.0
  0
LINE
  5
676A
  8
CT
 10
177.00000000000159
 20
-131.18708601526569
 30
0.0
 11
177.00000000000159
 21
-106.8129139847364
 31
0.0
  0
CIRCLE
  5
676B
  8
FUTO
 10
177.00000000000159
 20
-119.00000000000109
 30
0.0
 40
6.0
  0
CIRCLE
  5
676C
  8
FUTO
 10
177.00000000000159
 20
-279.00000000000108
 30
0.0
 40
6.0
  0
LINE
  5
676D
  8
CT
 10
164.81291398473689
 20
-279.00000000000108
 30
0.0
 11
189.1870860152662
 21
-279.00000000000108
 31
0.0
  0
LINE
  5
676E
  8
CT
 10
177.00000000000159
 20
-291.18708601526572
 30
0.0
 11
177.00000000000159
 21
-266.8129139847365
 31
0.0
  0
LINE
  5
676F
  8
FUTO
 10
159.99999999999969
 20
-298.9999999999954
 30
0.0
 11
190.00000000000179
 21
-298.9999999999954
 31
0.0
  0
LINE
  5
6770
  8
FUTO
 10
190.0
 20
-299.00000000000108
 30
0.0
 11
160.0
 21
-299.00000000000108
 31
0.0
  0
LINE
  5
6771
  8
1
 10
74.799988000000667
 20
-277.79999999999831
 30
0.0
 11
74.799988000000667
 21
-156.29999999999831
 31
0.0
  0
LINE
  5
6772
  8
1
 10
85.0
 20
-307.99999999999721
 30
0.0
 11
160.0
 21
-307.99999999999932
 31
0.0
  0
LINE
  5
6773
  8
1
 10
85.0
 20
-316.29999999999831
 30
0.0
 11
85.0
 21
-277.79999999999831
 31
0.0
  0
LINE
  5
6774
  8
1
 10
0.000000000001819
 20
-317.79999999999831
 30
0.0
 11
83.499999999999986
 21
-317.79999999999831
 31
0.0
  0
LINE
  5
6775
  8
1
 10
-72.777344000000085
 20
-351.79999999999831
 30
0.0
 11
72.626524999999674
 21
-351.79999999999831
 31
0.0
  0
ARC
  5
6776
  8
1
 10
83.499999999999986
 20
-316.29999999999831
 30
0.0
 40
1.4999849999999999
 50
270.0
 51
0.0005800000062725
  0
ARC
  5
6777
  8
1
 10
81.815002999999706
 20
-318.79993899999948
 30
0.0
 40
0.999898
 50
89.99650299999503
 51
168.37008699999251
  0
LINE
  5
6778
  8
1
 10
74.246521000000939
 20
-350.60248999999828
 30
0.0
 11
80.835633000000598
 21
-318.59833899999921
 31
0.0
  0
LINE
  5
6779
  8
1
 10
85.0
 20
-277.79999999999831
 30
0.0
 11
-85.0
 21
-277.79999999999831
 31
0.0
  0
LINE
  5
677A
  8
1
 10
-160.00000000000361
 20
-307.99999999999181
 30
0.0
 11
-84.999999999999091
 21
-307.9999999999954
 31
0.0
  0
LINE
  5
677B
  8
1
 10
-74.799988000000667
 20
-277.79999999999831
 30
0.0
 11
-74.799988000000667
 21
-156.29999999999831
 31
0.0
  0
LINE
  5
677C
  8
1
 10
-85.0
 20
-316.29999999999831
 30
0.0
 11
-85.0
 21
-277.79999999999831
 31
0.0
  0
ARC
  5
677D
  8
1
 10
-81.815002999999706
 20
-318.79993899999948
 30
0.0
 40
0.999898
 50
11.629913000007431
 51
90.003497000004955
  0
LINE
  5
677E
  8
1
 10
-74.246521000000939
 20
-350.60248999999828
 30
0.0
 11
-80.835633000000598
 21
-318.59833899999921
 31
0.0
  0
ARC
  5
677F
  8
1
 10
-83.499999999999986
 20
-316.29999999999831
 30
0.0
 40
1.4999849999999999
 50
179.99941999999371
 51
270.0
  0
LINE
  5
6780
  8
1
 10
-0.000000000001819
 20
-317.79999999999831
 30
0.0
 11
-83.499999999999986
 21
-317.79999999999831
 31
0.0
  0
LINE
  5
6781
  8
CT
 10
-177.000000000005
 20
-291.18708601526572
 30
0.0
 11
-177.000000000005
 21
-266.8129139847365
 31
0.0
  0
LINE
  5
6782
  8
CT
 10
-164.8129139847405
 20
-279.00000000000108
 30
0.0
 11
-189.18708601526981
 21
-279.00000000000108
 31
0.0
  0
CIRCLE
  5
6783
  8
FUTO
 10
-177.000000000005
 20
-279.00000000000108
 30
0.0
 40
6.0
  0
LINE
  5
6784
  8
1
 10
-189.99999999999909
 20
-298.9999999999954
 30
0.0
 11
-160.00000000000361
 21
-298.9999999999954
 31
0.0
  0
LINE
  5
6785
  8
1
 10
33.499999999998181
 20
-133.79999999999831
 30
0.0
 11
33.5
 21
-124.79999999999831
 31
0.0
  0
LINE
  5
6786
  8
1
 10
0.0
 20
-133.79999999999831
 30
0.0
 11
73.5
 21
-133.79999999999831
 31
0.0
  0
LINE
  5
6787
  8
1
 10
75.5
 20
-156.29999999999831
 30
0.0
 11
0.000000000001819
 21
-156.29999999999831
 31
0.0
  0
LINE
  5
6788
  8
1
 10
-75.5
 20
-156.29999999999831
 30
0.0
 11
-0.000000000001819
 21
-156.29999999999831
 31
0.0
  0
LINE
  5
6789
  8
1
 10
0.0
 20
-133.79999999999831
 30
0.0
 11
-73.5
 21
-133.79999999999831
 31
0.0
  0
LINE
  5
678A
  8
1
 10
75.5
 20
-156.29999999999831
 30
0.0
 11
75.5
 21
-135.79999999999831
 31
0.0
  0
ARC
  5
678B
  8
1
 10
73.5
 20
-135.79999999999831
 30
0.0
 40
2.0
 50
0.0
 51
90.0
  0
LINE
  5
678C
  8
1
 10
64.065796000000773
 20
-133.79999999999831
 30
0.0
 11
73.065796000000773
 21
-133.79999999999831
 31
0.0
  0
LINE
  5
678D
  8
1
 10
72.815002999999706
 20
-133.79999999999831
 30
0.0
 11
64.184998000000633
 21
-133.79999999999831
 31
0.0
  0
LINE
  5
678E
  8
1
 10
-17.5
 20
-118.8000000000001
 30
0.0
 11
17.5
 21
-118.8000000000001
 31
0.0
  0
LINE
  5
678F
  8
1
 10
32.5
 20
-123.79999999999831
 30
0.0
 11
-32.5
 21
-123.79999999999831
 31
0.0
  0
LINE
  5
6790
  8
1
 10
-10.5
 20
-118.79999999999831
 30
0.0
 11
-10.5
 21
-123.79999999999831
 31
0.0
  0
ARC
  5
6791
  8
1
 10
32.5
 20
-124.79999999999831
 30
0.0
 40
1.0
 50
0.0
 51
90.0
  0
LINE
  5
6792
  8
1
 10
10.5
 20
-118.79999999999831
 30
0.0
 11
10.5
 21
-123.79999999999831
 31
0.0
  0
LINE
  5
6793
  8
1
 10
22.5
 20
-113.8000000000001
 30
0.0
 11
17.5
 21
-118.8000000000001
 31
0.0
  0
LINE
  5
6794
  8
1
 10
22.5
 20
-101.2999999999965
 30
0.0
 11
22.5
 21
-113.8000000000001
 31
0.0
  0
LINE
  5
6795
  8
1
 10
-17.5
 20
-118.8000000000001
 30
0.0
 11
-22.5
 21
-113.8000000000001
 31
0.0
  0
ENDBLK
  5
6797
  8
0
  0
BLOCK
  8
0
  2
*D45
 70
     1
 10
0.0
 20
0.0
 30
0.0
  3
*D45
  1

  0
LINE
  5
7306
  8
SP
 10
1827.5218651921041
 20
1322.9047358739231
 30
0.0
 11
1925.8596792914479
 21
1322.9047358739231
 31
0.0
  0
LINE
  5
7307
  8
SP
 10
1827.521865192102
 20
1072.9047358739231
 30
0.0
 11
1925.8596792914479
 21
1072.9047358739231
 31
0.0
  0
LINE
  5
7308
  8
SP
 10
1915.8596792914479
 20
1297.9047358739231
 30
0.0
 11
1915.8596792914479
 21
1097.9047358739231
 31
0.0
  0
INSERT
  5
7309
  8
SP
  2
_OPEN
 10
1915.8596792914479
 20
1322.9047358739231
 30
0.0
 41
25.0
 42
25.0
 43
25.0
 50
90.0
  0
INSERT
  5
730A
  8
SP
  2
_OPEN
 10
1915.8596792914479
 20
1072.9047358739231
 30
0.0
 41
25.0
 42
25.0
 43
25.0
 50
270.0
  0
TEXT
  5
730B
  8
SP
 10
1905.8596792914479
 20
1143.1336702137
 30
0.0
 40
30.0
  1
φ250
 50
90.0
 51
15.0
  0
POINT
  5
730C
  8
DEFPOINTS
 62
     0
 10
1817.5218651921041
 20
1322.9047358739231
 30
0.0
  0
POINT
  5
730D
  8
DEFPOINTS
 62
     0
 10
1817.521865192102
 20
1072.9047358739231
 30
0.0
  0
POINT
  5
730E
  8
DEFPOINTS
 62
     0
 10
1915.8596792914479
 20
1072.9047358739231
 30
0.0
  0
ENDBLK
  5
7152
  8
0
  0
BLOCK
  8
0
  2
*D46
 70
     1
 10
0.0
 20
0.0
 30
0.0
  3
*D46
  1

  0
LINE
  5
72D9
  8
SP
 10
626.16548570286795
 20
1197.9047358739231
 30
0.0
 11
588.52186519210397
 21
1197.9047358739231
 31
0.0
  0
LINE
  5
72DA
  8
SP
 10
658.52742066192695
 20
947.90475130566494
 30
0.0
 11
588.52186519210397
 21
947.90475130566494
 31
0.0
  0
LINE
  5
72DB
  8
SP
 10
598.52186519210409
 20
1172.9047358739231
 30
0.0
 11
598.52186519210409
 21
972.90475130566494
 31
0.0
  0
INSERT
  5
72DC
  8
SP
  2
_OPEN
 10
598.52186519210409
 20
1197.9047358739231
 30
0.0
 41
25.0
 42
25.0
 43
25.0
 50
90.0
  0
INSERT
  5
72DD
  8
SP
  2
_OPEN
 10
598.52186519210409
 20
947.90475130566494
 30
0.0
 41
25.0
 42
25.0
 43
25.0
 50
270.0
  0
TEXT
  5
72DE
  8
SP
 10
588.52186519210386
 20
1031.793931967416
 30
0.0
 40
30.0
  1
250
 50
90.0
 51
15.0
  0
POINT
  5
72DF
  8
DEFPOINTS
 62
     0
 10
636.16548570286795
 20
1197.9047358739231
 30
0.0
  0
POINT
  5
72E0
  8
DEFPOINTS
 62
     0
 10
668.52742066192695
 20
947.90475130566494
 30
0.0
  0
POINT
  5
72E1
  8
DEFPOINTS
 62
     0
 10
598.52186519210409
 20
947.90475130566494
 30
0.0
  0
ENDBLK
  5
715E
  8
0
  0
BLOCK
  8
0
  2
*D47
 70
     1
 10
0.0
 20
0.0
 30
0.0
  3
*D47
  1

  0
LINE
  5
72AC
  8
SP
 10
668.52186519210215
 20
882.90473587392125
 30
0.0
 11
518.52186519210397
 21
882.90473587392125
 31
0.0
  0
LINE
  5
72AD
  8
SP
 10
626.16548570286795
 20
1197.9047358739231
 30
0.0
 11
518.52186519210397
 21
1197.9047358739231
 31
0.0
  0
LINE
  5
72AE
  8
SP
 10
528.52186519210409
 20
907.90473587392125
 30
0.0
 11
528.52186519210409
 21
1172.9047358739231
 31
0.0
  0
INSERT
  5
72AF
  8
SP
  2
_OPEN
 10
528.52186519210409
 20
882.90473587392125
 30
0.0
 41
25.0
 42
25.0
 43
25.0
 50
270.0
  0
INSERT
  5
72B0
  8
SP
  2
_OPEN
 10
528.52186519210409
 20
1197.9047358739231
 30
0.0
 41
25.0
 42
25.0
 43
25.0
 50
90.0
  0
TEXT
  5
72B1
  8
SP
 10
518.52186519210375
 20
1001.334214580509
 30
0.0
 40
30.0
  1
315
 50
90.0
 51
15.0
  0
POINT
  5
72B2
  8
DEFPOINTS
 62
     0
 10
678.52186519210215
 20
882.90473587392125
 30
0.0
  0
POINT
  5
72B3
  8
DEFPOINTS
 62
     0
 10
636.16548570286795
 20
1197.9047358739231
 30
0.0
  0
POINT
  5
72B4
  8
DEFPOINTS
 62
     0
 10
528.52186519210409
 20
1197.9047358739231
 30
0.0
  0
ENDBLK
  5
716A
  8
0
  0
BLOCK
  8
0
  2
*D48
 70
     1
 10
0.0
 20
0.0
 30
0.0
  3
*D48
  1

  0
LINE
  5
72C7
  8
SP
 10
1058.5218651921041
 20
872.90473587392307
 30
0.0
 11
1058.5218651921041
 21
732.90473587392319
 31
0.0
  0
LINE
  5
72C8
  8
SP
 10
678.52186519210215
 20
872.90473587392125
 30
0.0
 11
678.52186519210215
 21
732.90473587392319
 31
0.0
  0
LINE
  5
72C9
  8
SP
 10
1033.5218651921041
 20
742.90473587392307
 30
0.0
 11
703.52186519210215
 21
742.90473587392307
 31
0.0
  0
INSERT
  5
72CA
  8
SP
  2
_OPEN
 10
1058.5218651921041
 20
742.90473587392307
 30
0.0
 41
25.0
 42
25.0
 43
25.0
  0
INSERT
  5
72CB
  8
SP
  2
_OPEN
 10
678.52186519210215
 20
742.90473587392307
 30
0.0
 41
25.0
 42
25.0
 43
25.0
 50
180.0
  0
TEXT
  5
72CC
  8
SP
 10
826.64548444849345
 20
752.90473587392319
 30
0.0
 40
30.0
  1
380
 51
15.0
  0
POINT
  5
72CD
  8
DEFPOINTS
 62
     0
 10
1058.5218651921041
 20
882.90473587392307
 30
0.0
  0
POINT
  5
72CE
  8
DEFPOINTS
 62
     0
 10
678.52186519210215
 20
882.90473587392125
 30
0.0
  0
POINT
  5
72CF
  8
DEFPOINTS
 62
     0
 10
678.52186519210215
 20
742.90473587392307
 30
0.0
  0
ENDBLK
  5
7176
  8
0
  0
BLOCK
  8
0
  2
*D49
 70
     1
 10
0.0
 20
0.0
 30
0.0
  3
*D49
  1

  0
LINE
  5
72E2
  8
SP
 10
678.52186519210215
 20
872.90473587392125
 30
0.0
 11
678.52186519210215
 21
802.90473587392137
 31
0.0
  0
LINE
  5
72E3
  8
SP
 10
868.52186519210397
 20
858.40642705152641
 30
0.0
 11
868.52186519210397
 21
802.90473587392137
 31
0.0
  0
LINE
  5
72E4
  8
SP
 10
703.52186519210215
 20
812.90473587392137
 30
0.0
 11
843.52186519210397
 21
812.90473587392137
 31
0.0
  0
INSERT
  5
72E5
  8
SP
  2
_OPEN
 10
678.52186519210215
 20
812.90473587392137
 30
0.0
 41
25.0
 42
25.0
 43
25.0
 50
180.0
  0
INSERT
  5
72E6
  8
SP
  2
_OPEN
 10
868.52186519210397
 20
812.90473587392137
 30
0.0
 41
25.0
 42
25.0
 43
25.0
  0
TEXT
  5
72E7
  8
SP
 10
732.014527661633
 20
822.90473587392125
 30
0.0
 40
30.0
  1
190
 51
15.0
  0
POINT
  5
72E8
  8
DEFPOINTS
 62
     0
 10
678.52186519210215
 20
882.90473587392125
 30
0.0
  0
POINT
  5
72E9
  8
DEFPOINTS
 62
     0
 10
868.52186519210397
 20
868.40642705152641
 30
0.0
  0
POINT
  5
72EA
  8
DEFPOINTS
 62
     0
 10
868.52186519210397
 20
812.90473587392137
 30
0.0
  0
ENDBLK
  5
7182
  8
0
  0
BLOCK
  8
0
  2
*D50
 70
     1
 10
0.0
 20
0.0
 30
0.0
  3
*D50
  1

  0
LINE
  5
72BE
  8
SP
 10
868.52186519210397
 20
858.40642705152641
 30
0.0
 11
868.52186519210397
 21
802.90473587392319
 31
0.0
  0
LINE
  5
72BF
  8
SP
 10
1058.5218651921041
 20
872.90473587392307
 30
0.0
 11
1058.5218651921041
 21
802.90473587392319
 31
0.0
  0
LINE
  5
72C0
  8
SP
 10
893.52186519210397
 20
812.90473587392319
 30
0.0
 11
1033.5218651921041
 21
812.90473587392319
 31
0.0
  0
INSERT
  5
72C1
  8
SP
  2
_OPEN
 10
868.52186519210397
 20
812.90473587392319
 30
0.0
 41
25.0
 42
25.0
 43
25.0
 50
180.0
  0
INSERT
  5
72C2
  8
SP
  2
_OPEN
 10
1058.5218651921041
 20
812.90473587392319
 30
0.0
 41
25.0
 42
25.0
 43
25.0
  0
TEXT
  5
72C3
  8
SP
 10
922.01452766163402
 20
822.90473587392307
 30
0.0
 40
30.0
  1
190
 51
15.0
  0
POINT
  5
72C4
  8
DEFPOINTS
 62
     0
 10
868.52186519210397
 20
868.40642705152641
 30
0.0
  0
POINT
  5
72C5
  8
DEFPOINTS
 62
     0
 10
1058.5218651921041
 20
882.90473587392307
 30
0.0
  0
POINT
  5
72C6
  8
DEFPOINTS
 62
     0
 10
1058.5218651921041
 20
812.90473587392319
 30
0.0
  0
ENDBLK
  5
718E
  8
0
  0
BLOCK
  8
0
  2
*D51
 70
     1
 10
0.0
 20
0.0
 30
0.0
  3
*D51
  1

  0
LINE
  5
72F4
  8
SP
 10
1419.521865192102
 20
872.90473587392307
 30
0.0
 11
1419.521865192102
 21
732.90473587392319
 31
0.0
  0
LINE
  5
72F5
  8
SP
 10
1619.521865192102
 20
872.90473587392307
 30
0.0
 11
1619.521865192102
 21
732.90473587392319
 31
0.0
  0
LINE
  5
72F6
  8
SP
 10
1444.521865192102
 20
742.90473587392307
 30
0.0
 11
1594.521865192102
 21
742.90473587392307
 31
0.0
  0
INSERT
  5
72F7
  8
SP
  2
_OPEN
 10
1419.521865192102
 20
742.90473587392307
 30
0.0
 41
25.0
 42
25.0
 43
25.0
 50
180.0
  0
INSERT
  5
72F8
  8
SP
  2
_OPEN
 10
1619.521865192102
 20
742.90473587392307
 30
0.0
 41
25.0
 42
25.0
 43
25.0
  0
TEXT
  5
72F9
  8
SP
 10
1478.4110535697239
 20
752.90473587392319
 30
0.0
 40
30.0
  1
200
 51
15.0
  0
POINT
  5
72FA
  8
DEFPOINTS
 62
     0
 10
1419.521865192102
 20
882.90473587392307
 30
0.0
  0
POINT
  5
72FB
  8
DEFPOINTS
 62
     0
 10
1619.521865192102
 20
882.90473587392307
 30
0.0
  0
POINT
  5
72FC
  8
DEFPOINTS
 62
     0
 10
1619.521865192102
 20
742.90473587392307
 30
0.0
  0
ENDBLK
  5
719A
  8
0
  0
BLOCK
  8
0
  2
*D52
 70
     1
 10
0.0
 20
0.0
 30
0.0
  3
*D52
  1

  0
LINE
  5
730F
  8
SP
 10
1619.521865192102
 20
872.90473587392307
 30
0.0
 11
1619.521865192102
 21
732.90473587392319
 31
0.0
  0
LINE
  5
7310
  8
SP
 10
1718.521865192102
 20
871.78468466022969
 30
0.0
 11
1718.521865192102
 21
732.90473587392319
 31
0.0
  0
LINE
  5
7311
  8
SP
 10
1644.521865192102
 20
742.90473587392307
 30
0.0
 11
1693.521865192102
 21
742.90473587392307
 31
0.0
  0
INSERT
  5
7312
  8
SP
  2
_OPEN
 10
1619.521865192102
 20
742.90473587392307
 30
0.0
 41
25.0
 42
25.0
 43
25.0
 50
180.0
  0
INSERT
  5
7313
  8
SP
  2
_OPEN
 10
1718.521865192102
 20
742.90473587392307
 30
0.0
 41
25.0
 42
25.0
 43
25.0
  0
TEXT
  5
7314
  8
SP
 10
1641.431198734206
 20
752.90473587392319
 30
0.0
 40
30.0
  1
99
 51
15.0
  0
POINT
  5
7315
  8
DEFPOINTS
 62
     0
 10
1619.521865192102
 20
882.90473587392307
 30
0.0
  0
POINT
  5
7316
  8
DEFPOINTS
 62
     0
 10
1718.521865192102
 20
881.78468466022969
 30
0.0
  0
POINT
  5
7317
  8
DEFPOINTS
 62
     0
 10
1718.521865192102
 20
742.90473587392307
 30
0.0
  0
ENDBLK
  5
71A6
  8
0
  0
BLOCK
  8
0
  2
*D53
 70
     1
 10
0.0
 20
0.0
 30
0.0
  3
*D53
  1

  0
LINE
  5
72D0
  8
SP
 10
868.52186519210397
 20
1417.6811550182481
 30
0.0
 11
868.52186519210397
 21
1463.9047358739231
 31
0.0
  0
LINE
  5
72D1
  8
SP
 10
1078.5218651921041
 20
1187.9047358739219
 30
0.0
 11
1078.5218651921041
 21
1463.9047358739231
 31
0.0
  0
LINE
  5
72D2
  8
SP
 10
893.52186519210397
 20
1453.9047358739231
 30
0.0
 11
1053.5218651921041
 21
1453.9047358739231
 31
0.0
  0
INSERT
  5
72D3
  8
SP
  2
_OPEN
 10
868.52186519210397
 20
1453.9047358739231
 30
0.0
 41
25.0
 42
25.0
 43
25.0
 50
180.0
  0
INSERT
  5
72D4
  8
SP
  2
_OPEN
 10
1078.5218651921041
 20
1453.9047358739231
 30
0.0
 41
25.0
 42
25.0
 43
25.0
  0
TEXT
  5
72D5
  8
SP
 10
935.26819642686905
 20
1463.9047358739231
 30
0.0
 40
30.0
  1
210
 51
15.0
  0
POINT
  5
72D6
  8
DEFPOINTS
 62
     0
 10
868.52186519210397
 20
1407.6811550182481
 30
0.0
  0
POINT
  5
72D7
  8
DEFPOINTS
 62
     0
 10
1078.5218651921041
 20
1177.9047358739231
 30
0.0
  0
POINT
  5
72D8
  8
DEFPOINTS
 62
     0
 10
1078.5218651921041
 20
1453.9047358739231
 30
0.0
  0
ENDBLK
  5
71B2
  8
0
  0
BLOCK
  8
0
  2
*D54
 70
     1
 10
0.0
 20
0.0
 30
0.0
  3
*D54
  1

  0
LINE
  5
72EB
  8
SP
 10
868.52186519210397
 20
1417.6811550182481
 30
0.0
 11
868.52186519210397
 21
1463.799134340657
 31
0.0
  0
LINE
  5
72EC
  8
SP
 10
668.52186519210397
 20
1228.9047358739231
 30
0.0
 11
668.52186519210397
 21
1463.799134340657
 31
0.0
  0
LINE
  5
72ED
  8
SP
 10
843.52186519210397
 20
1453.799134340657
 30
0.0
 11
693.52186519210397
 21
1453.799134340657
 31
0.0
  0
INSERT
  5
72EE
  8
SP
  2
_OPEN
 10
868.52186519210397
 20
1453.799134340657
 30
0.0
 41
25.0
 42
25.0
 43
25.0
  0
INSERT
  5
72EF
  8
SP
  2
_OPEN
 10
668.52186519210397
 20
1453.799134340657
 30
0.0
 41
25.0
 42
25.0
 43
25.0
 50
180.0
  0
TEXT
  5
72F0
  8
SP
 10
727.41105356972605
 20
1463.799134340657
 30
0.0
 40
30.0
  1
200
 51
15.0
  0
POINT
  5
72F1
  8
DEFPOINTS
 62
     0
 10
868.52186519210397
 20
1407.6811550182481
 30
0.0
  0
POINT
  5
72F2
  8
DEFPOINTS
 62
     0
 10
668.52186519210397
 20
1218.9047358739231
 30
0.0
  0
POINT
  5
72F3
  8
DEFPOINTS
 62
     0
 10
668.52186519210397
 20
1453.799134340657
 30
0.0
  0
ENDBLK
  5
71BE
  8
0
  0
BLOCK
  8
0
  2
*D55
 70
     1
 10
0.0
 20
0.0
 30
0.0
  3
*D55
  1

  0
LINE
  5
72B5
  8
SP
 10
626.16548570286795
 20
1197.9047358739231
 30
0.0
 11
518.52186519210386
 21
1197.9047358739231
 31
0.0
  0
LINE
  5
72B6
  8
SP
 10
875.52186519210397
 20
1373.9047358739231
 30
0.0
 11
518.52186519210397
 21
1373.9047358739231
 31
0.0
  0
LINE
  5
72B7
  8
SP
 10
528.52186519210397
 20
1222.9047358739231
 30
0.0
 11
528.52186519210409
 21
1348.9047358739231
 31
0.0
  0
INSERT
  5
72B8
  8
SP
  2
_OPEN
 10
528.52186519210397
 20
1197.9047358739231
 30
0.0
 41
25.0
 42
25.0
 43
25.0
 50
270.0
  0
INSERT
  5
72B9
  8
SP
  2
_OPEN
 10
528.52186519210409
 20
1373.9047358739231
 30
0.0
 41
25.0
 42
25.0
 43
25.0
 50
90.0
  0
TEXT
  5
72BA
  8
SP
 10
518.52186519210375
 20
1244.920291777431
 30
0.0
 40
30.0
  1
176
 50
90.0
 51
15.0
  0
POINT
  5
72BB
  8
DEFPOINTS
 62
     0
 10
636.16548570286795
 20
1197.9047358739231
 30
0.0
  0
POINT
  5
72BC
  8
DEFPOINTS
 62
     0
 10
885.52186519210397
 20
1373.9047358739231
 30
0.0
  0
POINT
  5
72BD
  8
DEFPOINTS
 62
     0
 10
528.52186519210409
 20
1373.9047358739231
 30
0.0
  0
ENDBLK
  5
71CA
  8
0
  0
BLOCK
  8
0
  2
*D56
 70
     1
 10
0.0
 20
0.0
 30
0.0
  3
*D56
  1

  0
LINE
  5
72FD
  8
SP
 10
1718.521865192102
 20
1503.9047358739231
 30
0.0
 11
1718.521865192102
 21
1543.0044655681299
 31
0.0
  0
LINE
  5
72FE
  8
SP
 10
1366.721865192103
 20
1280.6820798739229
 30
0.0
 11
1366.721865192103
 21
1543.0044655681299
 31
0.0
  0
LINE
  5
72FF
  8
SP
 10
1693.521865192102
 20
1533.0044655681299
 30
0.0
 11
1391.721865192103
 21
1533.0044655681299
 31
0.0
  0
INSERT
  5
7300
  8
SP
  2
_OPEN
 10
1718.521865192102
 20
1533.0044655681299
 30
0.0
 41
25.0
 42
25.0
 43
25.0
  0
INSERT
  5
7301
  8
SP
  2
_OPEN
 10
1366.721865192103
 20
1533.0044655681299
 30
0.0
 41
25.0
 42
25.0
 43
25.0
 50
180.0
  0
TEXT
  5
7302
  8
SP
 10
1475.7121634517021
 20
1543.0044655681299
 30
0.0
 40
30.0
  1
（400）
 51
15.0
  0
POINT
  5
7303
  8
DEFPOINTS
 62
     0
 10
1718.521865192102
 20
1493.9047358739231
 30
0.0
  0
POINT
  5
7304
  8
DEFPOINTS
 62
     0
 10
1366.721865192103
 20
1270.6820798739229
 30
0.0
  0
POINT
  5
7305
  8
DEFPOINTS
 62
     0
 10
1366.721865192103
 20
1533.0044655681299
 30
0.0
  0
ENDBLK
  5
71D6
  8
0
  0
BLOCK
  8
0
  2
*D57
 70
     1
 10
0.0
 20
0.0
 30
0.0
  3
*D57
  1

  0
LINE
  5
7321
  8
SP
 10
1718.521865192102
 20
1503.9047358739231
 30
0.0
 11
1718.521865192102
 21
1543.0044655681299
 31
0.0
  0
LINE
  5
7322
  8
SP
 10
1817.5218651921041
 20
1351.9047358739231
 30
0.0
 11
1817.5218651921041
 21
1543.0044655681299
 31
0.0
  0
LINE
  5
7323
  8
SP
 10
1743.521865192102
 20
1533.0044655681299
 30
0.0
 11
1792.5218651921041
 21
1533.0044655681299
 31
0.0
  0
INSERT
  5
7324
  8
SP
  2
_OPEN
 10
1718.521865192102
 20
1533.0044655681299
 30
0.0
 41
25.0
 42
25.0
 43
25.0
 50
180.0
  0
INSERT
  5
7325
  8
SP
  2
_OPEN
 10
1817.5218651921041
 20
1533.0044655681299
 30
0.0
 41
25.0
 42
25.0
 43
25.0
  0
TEXT
  5
7326
  8
SP
 10
1740.4311987342071
 20
1543.0044655681299
 30
0.0
 40
30.0
  1
99
 51
15.0
  0
POINT
  5
7327
  8
DEFPOINTS
 62
     0
 10
1718.521865192102
 20
1493.9047358739231
 30
0.0
  0
POINT
  5
7328
  8
DEFPOINTS
 62
     0
 10
1817.5218651921041
 20
1341.9047358739231
 30
0.0
  0
POINT
  5
7329
  8
DEFPOINTS
 62
     0
 10
1817.5218651921041
 20
1533.0044655681299
 30
0.0
  0
ENDBLK
  5
71E2
  8
0
  0
BLOCK
  8
0
  2
*D58
 70
     1
 10
0.0
 20
0.0
 30
0.0
  3
*D58
  1

  0
LINE
  5
7318
  8
SP
 10
1628.521865192102
 20
1372.9047358739231
 30
0.0
 11
1628.521865192102
 21
1463.9047358739231
 31
0.0
  0
LINE
  5
7319
  8
SP
 10
1808.521865192102
 20
1372.9047358739231
 30
0.0
 11
1808.521865192102
 21
1463.9047358739231
 31
0.0
  0
LINE
  5
731A
  8
SP
 10
1653.521865192102
 20
1453.9047358739231
 30
0.0
 11
1783.521865192102
 21
1453.9047358739231
 31
0.0
  0
INSERT
  5
731B
  8
SP
  2
_OPEN
 10
1628.521865192102
 20
1453.9047358739231
 30
0.0
 41
25.0
 42
25.0
 43
25.0
 50
180.0
  0
INSERT
  5
731C
  8
SP
  2
_OPEN
 10
1808.521865192102
 20
1453.9047358739231
 30
0.0
 41
25.0
 42
25.0
 43
25.0
  0
TEXT
  5
731D
  8
SP
 10
1677.014527661632
 20
1463.9047358739231
 30
0.0
 40
30.0
  1
180
 51
15.0
  0
POINT
  5
731E
  8
DEFPOINTS
 62
     0
 10
1628.521865192102
 20
1362.9047358739231
 30
0.0
  0
POINT
  5
731F
  8
DEFPOINTS
 62
     0
 10
1808.521865192102
 20
1362.9047358739231
 30
0.0
  0
POINT
  5
7320
  8
DEFPOINTS
 62
     0
 10
1808.521865192102
 20
1453.9047358739231
 30
0.0
  0
ENDBLK
  5
71EE
  8
0
  0
BLOCK
  8
0
  2
*D59
 70
     1
 10
0.0
 20
0.0
 30
0.0
  3
*D59
  1

  0
LINE
  5
7333
  8
SP
 10
668.52186519210215
 20
2142.996326616199
 30
0.0
 11
558.14828943739303
 21
2142.996326616199
 31
0.0
  0
LINE
  5
7334
  8
SP
 10
668.52186519210397
 20
1942.9963266162049
 30
0.0
 11
558.14828943739303
 21
1942.9963266162049
 31
0.0
  0
LINE
  5
7335
  8
SP
 10
568.14828943739303
 20
2117.996326616199
 30
0.0
 11
568.14828943739303
 21
1967.9963266162049
 31
0.0
  0
INSERT
  5
7336
  8
SP
  2
_OPEN
 10
568.14828943739303
 20
2142.996326616199
 30
0.0
 41
25.0
 42
25.0
 43
25.0
 50
90.0
  0
INSERT
  5
7337
  8
SP
  2
_OPEN
 10
568.14828943739303
 20
1942.9963266162049
 30
0.0
 41
25.0
 42
25.0
 43
25.0
 50
270.0
  0
TEXT
  5
7338
  8
SP
 10
558.14828943739269
 20
2001.885514993824
 30
0.0
 40
30.0
  1
200
 50
90.0
 51
15.0
  0
POINT
  5
7339
  8
DEFPOINTS
 62
     0
 10
678.52186519210215
 20
2142.996326616199
 30
0.0
  0
POINT
  5
733A
  8
DEFPOINTS
 62
     0
 10
678.52186519210409
 20
1942.9963266162049
 30
0.0
  0
POINT
  5
733B
  8
DEFPOINTS
 62
     0
 10
568.14828943739303
 20
1942.9963266162049
 30
0.0
  0
ENDBLK
  5
71FA
  8
0
  0
BLOCK
  8
0
  2
*D60
 70
     1
 10
0.0
 20
0.0
 30
0.0
  3
*D60
  1

  0
LINE
  5
732A
  8
SP
 10
1058.521865192107
 20
1932.9963266162049
 30
0.0
 11
1058.521865192107
 21
1775.428130286183
 31
0.0
  0
LINE
  5
732B
  8
SP
 10
678.52186519210409
 20
1932.9963266162049
 30
0.0
 11
678.52186519210409
 21
1775.428130286183
 31
0.0
  0
LINE
  5
732C
  8
SP
 10
1033.521865192107
 20
1785.428130286183
 30
0.0
 11
703.52186519210409
 21
1785.428130286183
 31
0.0
  0
INSERT
  5
732D
  8
SP
  2
_OPEN
 10
1058.521865192107
 20
1785.428130286183
 30
0.0
 41
25.0
 42
25.0
 43
25.0
  0
INSERT
  5
732E
  8
SP
  2
_OPEN
 10
678.52186519210409
 20
1785.428130286183
 30
0.0
 41
25.0
 42
25.0
 43
25.0
 50
180.0
  0
TEXT
  5
732F
  8
SP
 10
826.64548444849606
 20
1795.428130286183
 30
0.0
 40
30.0
  1
380
 51
15.0
  0
POINT
  5
7330
  8
DEFPOINTS
 62
     0
 10
1058.521865192107
 20
1942.9963266162049
 30
0.0
  0
POINT
  5
7331
  8
DEFPOINTS
 62
     0
 10
678.52186519210409
 20
1942.9963266162049
 30
0.0
  0
POINT
  5
7332
  8
DEFPOINTS
 62
     0
 10
678.52186519210409
 20
1785.428130286183
 30
0.0
  0
ENDBLK
  5
7206
  8
0
  0
BLOCK
  8
0
  2
*D61
 70
     1
 10
0.0
 20
0.0
 30
0.0
  3
*D61
  1

  0
LINE
  5
733C
  8
SP
 10
668.52186519210215
 20
2142.996326616199
 30
0.0
 11
558.14828943739303
 21
2142.996326616199
 31
0.0
  0
LINE
  5
733D
  8
SP
 10
648.37425061875365
 20
2241.9963266161999
 30
0.0
 11
558.14828943739303
 21
2241.9963266161999
 31
0.0
  0
LINE
  5
733E
  8
SP
 10
568.14828943739303
 20
2167.996326616199
 30
0.0
 11
568.14828943739303
 21
2216.9963266161999
 31
0.0
  0
INSERT
  5
733F
  8
SP
  2
_OPEN
 10
568.14828943739303
 20
2142.996326616199
 30
0.0
 41
25.0
 42
25.0
 43
25.0
 50
270.0
  0
INSERT
  5
7340
  8
SP
  2
_OPEN
 10
568.14828943739303
 20
2241.9963266161999
 30
0.0
 41
25.0
 42
25.0
 43
25.0
 50
90.0
  0
TEXT
  5
7341
  8
SP
 10
558.14828943739269
 20
2164.9056601583029
 30
0.0
 40
30.0
  1
99
 50
90.0
 51
15.0
  0
POINT
  5
7342
  8
DEFPOINTS
 62
     0
 10
678.52186519210215
 20
2142.996326616199
 30
0.0
  0
POINT
  5
7343
  8
DEFPOINTS
 62
     0
 10
658.37425061875365
 20
2241.9963266161999
 30
0.0
  0
POINT
  5
7344
  8
DEFPOINTS
 62
     0
 10
568.14828943739303
 20
2241.9963266161999
 30
0.0
  0
ENDBLK
  5
7212
  8
0
  0
ENDSEC
  0
SECTION
  2
ENTITIES
  0
LINE
  5
21A1
  8
4
 10
2283.6239345559538
 20
96.092404061039474
 30
0.0
 11
183.62393455595441
 21
96.092404061039474
 31
0.0
  0
LINE
  5
21A2
  8
4
 10
183.62393455595441
 20
3046.0924040610389
 30
0.0
 11
2283.6239345559538
 21
3046.0924040610389
 31
0.0
  0
LINE
  5
21AC
  8
4
 10
183.62393455595441
 20
96.092404061039474
 30
0.0
 11
183.62393455595441
 21
3046.0924040610389
 31
0.0
  0
LINE
  5
22D0
  8
4
 10
2283.6239345559538
 20
3046.0924040610389
 30
0.0
 11
2283.6239345559538
 21
96.092404061039474
 31
0.0
  0
LINE
  5
236E
  8
4
 10
2283.6239345559538
 20
3046.0924040610389
 30
0.0
 11
2283.6239345559538
 21
3046.0924040610389
 31
0.0
  0
TEXT
  5
54B4
  8
4
 10
575.29844082279567
 20
2544.4293549289091
 30
0.0
 40
53.999999999999993
  1
右回転左横向
  0
TEXT
  5
54B5
  8
4
 10
643.22393455595454
 20
2695.5186316473701
 30
0.0
 40
72.0
  1
遠心式片吸込直動形多翼ファン
 72
     4
 11
1233.6239345559541
 21
2731.5186316473701
 31
0.0
  0
LINE
  5
54B6
  8
4
 10
433.62393455595418
 20
2631.5186316473701
 30
0.0
 11
2033.6239345559541
 21
2631.5186316473701
 31
0.0
  0
LINE
  5
54B7
  8
4
 10
433.62393455595418
 20
2831.5186316473701
 30
0.0
 11
2033.6239345559541
 21
2831.5186316473701
 31
0.0
  0
LINE
  5
54B8
  8
4
 10
433.62393455595418
 20
2831.5186316473701
 30
0.0
 11
433.62393455595418
 21
2631.5186316473701
 31
0.0
  0
LINE
  5
54B9
  8
4
 10
1624.241356915818
 20
2948.7621389323181
 30
0.0
 11
2033.6239345559541
 21
2948.7621389323181
 31
0.0
  0
LINE
  5
54BA
  8
4
 10
2033.6239345559541
 20
2843.3734605079671
 30
0.0
 11
1624.241356915818
 21
2843.3734605079671
 31
0.0
  0
TEXT
  5
54BC
  8
4
 10
1494.9199971559669
 20
2545.5387187150809
 30
0.0
 40
53.999999999999993
  1
縮尺：1/10
  0
LINE
  5
54BD
  8
4
 10
1624.241356915818
 20
2843.3734605079671
 30
0.0
 11
1624.241356915818
 21
2948.7621389323181
 31
0.0
  0
TEXT
  5
54BE
  8
4
 10
1652.593493805244
 20
2868.170958877874
 30
0.0
 40
56.000000000000007
  1
No.
  0
LINE
  5
54BF
  8
4
 10
2033.6239345559541
 20
2831.5186316473701
 30
0.0
 11
2033.6239345559541
 21
2631.5186316473701
 31
0.0
  0
LINE
  5
54C0
  8
4
 10
2033.6239345559541
 20
2948.7621389323181
 30
0.0
 11
2033.6239345559541
 21
2843.3734605079671
 31
0.0
  0
TEXT
  5
54C4
  8
4
 10
669.88204058075178
 20
335.27468562959712
 30
0.0
 40
50.0
  1
機器型番
  0
TEXT
  5
54C5
  8
4
 10
672.12601540285596
 20
445.17255476419911
 30
0.0
 40
50.0
  1
機器名称
  0
LINE
  5
54C8
  8
4
 10
633.62393455595418
 20
513.62952889758606
 30
0.0
 11
1833.6239345559541
 21
513.62952889758606
 31
0.0
  0
LINE
  5
54C9
  8
4
 10
633.62393455595418
 20
413.62952889758611
 30
0.0
 11
1833.6239345559541
 21
413.62952889758611
 31
0.0
  0
LINE
  5
54CA
  8
4
 10
633.62393455595418
 20
313.62952889758611
 30
0.0
 11
1833.6239345559541
 21
313.62952889758611
 31
0.0
  0
LINE
  5
54CB
  8
4
 10
633.62393455595418
 20
513.62952889758606
 30
0.0
 11
633.62393455595418
 21
313.62952889758611
 31
0.0
  0
LINE
  5
54CC
  8
4
 10
1833.6239345559541
 20
513.62952889758606
 30
0.0
 11
1833.6239345559541
 21
313.62952889758611
 31
0.0
  0
LINE
  5
54CD
  8
4
 10
1133.6239345559541
 20
513.62952889758606
 30
0.0
 11
1133.6239345559541
 21
313.62952889758611
 31
0.0
  0
TEXT
  5
54D0
  8
4
 10
1161.3026800436189
 20
436.20129785515468
 30
0.0
 40
50.0
  1
ミツヤ多翼送風機
  0
TEXT
  5
5645
  8
4
 10
1011.157273065498
 20
2545.5387187150809
 30
0.0
 40
53.999999999999993
  1
床置ベッド型
  0
TEXT
  5
5668
  8
4
 10
1170.278430141434
 20
330.78911317752949
 30
0.0
 40
50.0
  1
MF＃1 1/2-7
  0
DIMENSION
  5
6FF4
  8
SP
  2
*D45
 10
1915.8596792914479
 20
1072.9047358739231
 30
0.0
 11
1890.8596792914479
 21
1197.9047358739231
 31
0.0
 70
     0
 13
1817.5218651921041
 23
1322.9047358739231
 33
0.0
 14
1817.521865192102
 24
1072.9047358739231
 34
0.0
 50
90.0
1001
ACAD
1000
DSTYLE
1002
{
1070
     3
1000
φ<>
1002
}
  0
LINE
  5
6FF5
  8
1
 10
1817.5218651921041
 20
1341.9047358739231
 30
0.0
 11
1817.521865192102
 21
1053.9047358739231
 31
0.0
  0
LINE
  5
6FF6
  8
1
 10
1422.6647371921019
 20
1147.8213008739219
 30
0.0
 11
1440.721897192102
 21
1157.1611988739221
 31
0.0
  0
LINE
  5
6FF7
  8
1
 10
1366.721865192103
 20
1270.6820798739229
 30
0.0
 11
1366.721865192103
 21
1125.2782108739229
 31
0.0
  0
LINE
  5
6FF8
  8
1
 10
1419.5218651921041
 20
945.20473587392246
 30
0.0
 11
1590.921865192103
 21
1242.7047358739219
 31
0.0
  0
LINE
  5
6FF9
  8
1
 10
1400.721865192103
 20
1120.9047358739231
 30
0.0
 11
1400.721865192103
 21
1281.4047358739231
 31
0.0
  0
LINE
  5
6FFA
  8
2
 10
1499.721865192103
 20
1278.1886108739241
 30
0.0
 11
1499.721865192103
 21
1113.8886228739229
 31
0.0
  0
LINE
  5
6FFB
  8
1
 10
1617.2218651921009
 20
1347.904735873921
 30
0.0
 11
1617.221865192103
 21
945.20473587392053
 31
0.0
  0
LINE
  5
6FFC
  8
1
 10
1619.521865192102
 20
1347.9047358739231
 30
0.0
 11
1619.521865192102
 21
942.90473587392319
 31
0.0
  0
ARC
  5
6FFD
  8
1
 10
868.52186519210397
 20
1197.9047358739231
 30
0.0
 40
85.000007999999994
 50
295.91772600002798
 51
0.0
  0
CIRCLE
  5
6FFE
  8
2
 10
868.52186519210397
 20
1197.9047358739231
 30
0.0
 40
136.0
  0
ARC
  5
6FFF
  8
1
 10
868.52186519210397
 20
1197.9047358739231
 30
0.0
 40
85.0
 50
0.0
 51
244.1244660000032
  0
LINE
  5
7000
  8
1
 10
708.52186519210397
 20
1264.0047358739209
 30
0.0
 11
708.52186519210397
 21
945.20473587392405
 31
0.0
  0
LINE
  5
7001
  8
1
 10
710.82186519210325
 20
1264.0047358739209
 30
0.0
 11
710.82186519210325
 21
942.90473587392125
 31
0.0
  0
LINE
  5
7002
  8
1
 10
1028.521865192103
 20
1264.0047358739209
 30
0.0
 11
1028.521865192103
 21
945.20473587392235
 31
0.0
  0
LINE
  5
7003
  8
1
 10
1026.2218651921009
 20
1264.0047358739209
 30
0.0
 11
1026.2218651921009
 21
942.90473587392125
 31
0.0
  0
LINE
  5
7004
  8
FUTO
 10
688.52186519210397
 20
966.90473587392307
 30
0.0
 11
688.52186519210397
 21
1178.9047358739231
 31
0.0
  0
LINE
  5
7005
  8
FUTO
 10
668.52186519210397
 20
926.90473587392296
 30
0.0
 11
668.52186519210397
 21
1218.9047358739231
 31
0.0
  0
LINE
  5
7006
  8
FUTO
 10
669.52186519210409
 20
946.90473587392296
 30
0.0
 11
669.52186519210409
 21
1198.9047358739231
 31
0.0
  0
ARC
  5
7007
  8
FUTO
 10
848.52186519210409
 20
1177.9047358739231
 30
0.0
 40
240.0
 50
270.0
 51
0.39182689926034
  0
ARC
  5
7008
  8
FUTO
 10
848.52186519210409
 20
1177.9047358739231
 30
0.0
 40
230.0
 50
270.0
 51
0.39182689926034
  0
LINE
  5
7009
  8
2
 10
868.52186519210397
 20
868.40642705152641
 30
0.0
 11
868.52186519210397
 21
1407.6811550182481
 31
0.0
  0
DIMENSION
  5
700A
  8
SP
  2
*D46
 10
598.52186519210409
 20
947.90475130566494
 30
0.0
 11
573.52186519210386
 21
1072.904743589794
 31
0.0
 70
     0
 13
636.16548570286795
 23
1197.9047358739231
 33
0.0
 14
668.52742066192695
 24
947.90475130566494
 34
0.0
 50
90.0
  0
DIMENSION
  5
700B
  8
SP
  2
*D47
 10
528.52186519210409
 20
1197.9047358739231
 30
0.0
 11
503.52186519210392
 21
1040.4047358739219
 31
0.0
 70
     0
 13
678.52186519210215
 23
882.90473587392125
 33
0.0
 14
636.16548570286795
 24
1197.9047358739231
 34
0.0
 50
90.0
  0
LINE
  5
700C
  8
1
 10
1809.521865192102
 20
946.90473587392626
 30
0.0
 11
1809.521865192105
 21
1197.9047358739231
 31
0.0
  0
LINE
  5
700D
  8
1
 10
1808.5218651921041
 20
947.90473587392626
 30
0.0
 11
1808.5218651921041
 21
1197.9047358739231
 31
0.0
  0
LINE
  5
700E
  8
1
 10
1829.5218651921
 20
938.90473587392717
 30
0.0
 11
1829.5218651921041
 21
1193.9047358739219
 31
0.0
  0
LINE
  5
700F
  8
2
 10
1718.521865192102
 20
1437.16686167394
 30
0.0
 11
1718.521865192102
 21
801.55968699881669
 31
0.0
  0
LINE
  5
7010
  8
1
 10
1627.5218651921041
 20
946.90473587392535
 30
0.0
 11
1627.5218651921041
 21
1198.9047358739231
 31
0.0
  0
LINE
  5
7011
  8
1
 10
1628.521865192102
 20
947.90473587392523
 30
0.0
 11
1628.5218651921041
 21
1197.9047358739231
 31
0.0
  0
LINE
  5
7012
  8
FUTO
 10
1028.521865192103
 20
942.90473587392296
 30
0.0
 11
1028.5218651921
 21
882.90473587392285
 31
0.0
  0
LINE
  5
7013
  8
FUTO
 10
1030.8218651921029
 20
940.60473587392289
 30
0.0
 11
1030.8218651921011
 21
885.20473587392269
 31
0.0
  0
LINE
  5
7014
  8
FUTO
 10
706.22186519210288
 20
940.60473587392289
 30
0.0
 11
706.22186519210481
 21
885.20473587392269
 31
0.0
  0
LINE
  5
7015
  8
FUTO
 10
708.52186519210397
 20
942.90473587392296
 30
0.0
 11
708.52186519210397
 21
882.90473587392285
 31
0.0
  0
DIMENSION
  5
7016
  8
SP
  2
*D48
 10
678.52186519210215
 20
742.90473587392307
 30
0.0
 11
868.52186519210306
 21
767.90473587392307
 31
0.0
 70
     0
 13
1058.5218651921041
 23
882.90473587392307
 33
0.0
 14
678.52186519210215
 24
882.90473587392125
 34
0.0
  0
DIMENSION
  5
7017
  8
SP
  2
*D49
 10
868.52186519210397
 20
812.90473587392137
 30
0.0
 11
773.52186519210306
 21
837.90473587392137
 31
0.0
 70
     0
 13
678.52186519210215
 23
882.90473587392125
 33
0.0
 14
868.52186519210397
 24
868.40642705152641
 34
0.0
  0
LINE
  5
7018
  8
FUTO
 10
678.52186519210409
 20
885.20473587392291
 30
0.0
 11
678.52186519210409
 21
882.90473587392307
 31
0.0
  0
LINE
  5
7019
  8
2
 10
691.52186519210409
 20
872.0487393943107
 30
0.0
 11
691.52186519210409
 21
898.33153846015784
 31
0.0
  0
LINE
  5
701A
  8
1
 10
706.22186519210481
 20
885.20473587392269
 30
0.0
 11
678.52186519210409
 21
885.20473587392303
 31
0.0
  0
LINE
  5
701B
  8
1
 10
678.52186519210215
 20
882.90473587392125
 30
0.0
 11
708.52186519210397
 21
882.90473587392125
 31
0.0
  0
DIMENSION
  5
701C
  8
SP
  2
*D50
 10
1058.5218651921041
 20
812.90473587392319
 30
0.0
 11
963.52186519210409
 21
837.90473587392319
 31
0.0
 70
     0
 13
868.52186519210397
 23
868.40642705152641
 33
0.0
 14
1058.5218651921041
 24
882.90473587392307
 34
0.0
  0
LINE
  5
701D
  8
FUTO
 10
1058.5218651921041
 20
885.20473587392291
 30
0.0
 11
1058.5218651921041
 21
882.90473587392307
 31
0.0
  0
LINE
  5
701E
  8
1
 10
1030.8218651921011
 20
885.20473587392269
 30
0.0
 11
1058.5218651921041
 21
885.20473587392303
 31
0.0
  0
LINE
  5
701F
  8
2
 10
1045.5218651921
 20
873.12121176355822
 30
0.0
 11
1045.5218651921041
 21
898.33153846015603
 31
0.0
  0
LINE
  5
7020
  8
1
 10
1028.5218651921
 20
882.90473587392285
 30
0.0
 11
1058.5218651921041
 21
882.90473587392307
 31
0.0
  0
LINE
  5
7021
  8
FUTO
 10
735.82186519210325
 20
1092.9047358739231
 30
0.0
 11
710.82186519210325
 21
1117.9047358739231
 31
0.0
  0
LINE
  5
7022
  8
1
 10
710.82186519210325
 20
1117.9047358739231
 30
0.0
 11
1026.2218651921009
 21
1117.9047358739231
 31
0.0
  0
LINE
  5
7023
  8
1
 10
710.82186519210325
 20
993.90473587392319
 30
0.0
 11
735.82186519210325
 21
993.90473587392319
 31
0.0
  0
LINE
  5
7024
  8
FUTO
 10
688.52186519210397
 20
937.01567723325763
 30
0.0
 11
848.58297536016653
 21
937.90490562308014
 31
0.0
  0
LINE
  5
7025
  8
1
 10
678.52186519210215
 20
942.90473587392125
 30
0.0
 11
1058.5218651921041
 21
942.90473587392296
 31
0.0
  0
LINE
  5
7026
  8
FUTO
 10
668.52742066192695
 20
947.90475130566494
 30
0.0
 11
848.52742066193048
 21
947.90475130566494
 31
0.0
  0
LINE
  5
7027
  8
FUTO
 10
688.52186519210397
 20
937.01567723325763
 30
0.0
 11
688.52186519210397
 21
947.0158315530548
 31
0.0
  0
LINE
  5
7028
  8
FUTO
 10
669.52186519210409
 20
926.90473587392296
 30
0.0
 11
669.52186519210409
 21
945.90473587392296
 31
0.0
  0
LINE
  5
7029
  8
FUTO
 10
668.52186519210397
 20
926.90473587392296
 30
0.0
 11
669.52186519210409
 21
926.90473587392296
 31
0.0
  0
LINE
  5
702A
  8
FUTO
 10
670.52186519210409
 20
946.90473587392296
 30
0.0
 11
670.52186519210409
 21
948.90473587392307
 31
0.0
  0
LINE
  5
702B
  8
FUTO
 10
668.52186519210397
 20
946.90473587392296
 30
0.0
 11
688.52186519210397
 21
946.90473587392296
 31
0.0
  0
LINE
  5
702C
  8
FUTO
 10
669.52186519210409
 20
945.90473587392296
 30
0.0
 11
688.52186519210397
 21
945.90473587392296
 31
0.0
  0
LINE
  5
702D
  8
FUTO
 10
670.52186519210409
 20
948.90473587392307
 30
0.0
 11
688.52186519210397
 21
966.90473587392307
 31
0.0
  0
LINE
  5
702E
  8
1
 10
678.52186519210215
 20
942.90473587392125
 30
0.0
 11
678.52186519210045
 21
945.20473587392235
 31
0.0
  0
LINE
  5
702F
  8
2
 10
691.52186519210409
 20
928.92193680807725
 30
0.0
 11
691.52186519210409
 21
955.20473587392416
 31
0.0
  0
LINE
  5
7030
  8
FUTO
 10
678.52186519210409
 20
942.90473587392296
 30
0.0
 11
678.52186519210409
 21
940.60473587392289
 31
0.0
  0
LINE
  5
7031
  8
1
 10
678.52186519210215
 20
945.20473587392235
 30
0.0
 11
708.52186519210397
 21
945.20473587392405
 31
0.0
  0
LINE
  5
7032
  8
1
 10
706.22186519210288
 20
940.60473587392289
 30
0.0
 11
678.52186519210409
 21
940.60473587392312
 31
0.0
  0
LINE
  5
7033
  8
1
 10
735.82186519210325
 20
1092.9047358739231
 30
0.0
 11
735.82186519210325
 21
993.90473587392319
 31
0.0
  0
LINE
  5
7034
  8
1
 10
1001.2218651921009
 20
1092.9047358739231
 30
0.0
 11
1001.2218651921009
 21
993.90473587392319
 31
0.0
  0
LINE
  5
7035
  8
2
 10
1045.5218651921
 20
929.99440917732443
 30
0.0
 11
1045.5218651921041
 21
955.20473587392235
 31
0.0
  0
LINE
  5
7036
  8
1
 10
1028.521865192103
 20
945.20473587392405
 30
0.0
 11
1058.5218651921041
 21
945.20473587392235
 31
0.0
  0
LINE
  5
7037
  8
FUTO
 10
1058.5218651921041
 20
942.90473587392296
 30
0.0
 11
1058.5218651921041
 21
945.20473587392405
 31
0.0
  0
LINE
  5
7038
  8
FUTO
 10
1058.5218651921041
 20
942.90473587392296
 30
0.0
 11
1058.5218651921041
 21
940.60473587392289
 31
0.0
  0
LINE
  5
7039
  8
1
 10
1030.8218651921029
 20
940.60473587392289
 30
0.0
 11
1058.5218651921041
 21
940.60473587392312
 31
0.0
  0
LINE
  5
703A
  8
1
 10
1001.2218651921009
 20
993.90473587392319
 30
0.0
 11
1026.2218651921009
 21
993.90473587392319
 31
0.0
  0
ARC
  5
703B
  8
1
 10
920.88706919210188
 20
1127.4047358739231
 30
0.0
 40
5.000032
 50
215.53825400000369
 51
270.0
  0
LINE
  5
703C
  8
1
 10
786.02186519210409
 20
1119.563853873922
 30
0.0
 11
951.02189519210322
 21
1119.563853873922
 31
0.0
  0
CIRCLE
  5
703D
  8
1
 10
920.56681199375635
 20
1072.257119452388
 30
0.0
 40
4.0
  0
LINE
  5
703E
  8
CT
 10
925.60798624679035
 20
1060.0866482004219
 30
0.0
 11
915.09590071276205
 21
1085.465067665504
 31
0.0
  0
LINE
  5
703F
  8
1
 10
735.82186519210325
 20
1092.9047358739231
 30
0.0
 11
1001.2218651921009
 21
1092.9047358739231
 31
0.0
  0
CIRCLE
  5
7040
  8
1
 10
816.47691839045183
 20
1072.257119452388
 30
0.0
 40
4.0
  0
LINE
  5
7041
  8
CT
 10
811.43574413741396
 20
1060.0866482004219
 30
0.0
 11
821.9478296714459
 21
1085.465067665504
 31
0.0
  0
ARC
  5
7042
  8
1
 10
816.15666119210255
 20
1127.4047358739231
 30
0.0
 40
5.0
 50
270.0
 51
324.46176099995841
  0
LINE
  5
7043
  8
1
 10
786.02186519210409
 20
1119.563853873922
 30
0.0
 11
786.02186519210409
 21
1122.4047358739231
 31
0.0
  0
LINE
  5
7044
  8
1
 10
791.02186519210409
 20
1119.563853873922
 30
0.0
 11
791.02186519210409
 21
1117.9047358739231
 31
0.0
  0
CIRCLE
  5
7045
  8
1
 10
742.87424877056947
 20
1145.859789072271
 30
0.0
 40
4.0
  0
LINE
  5
7046
  8
1
 10
786.02186519210409
 20
1122.4047358739231
 30
0.0
 11
816.15669119210543
 21
1122.4047358739231
 31
0.0
  0
LINE
  5
7047
  8
1
 10
790.68870419210361
 20
1122.3993648739231
 30
0.0
 11
806.19869719210328
 21
1140.0862318739221
 31
0.0
  0
LINE
  5
7048
  8
CT
 10
730.70377751860167
 20
1140.8186148192319
 30
0.0
 11
756.08219698368521
 21
1151.330700353265
 31
0.0
  0
LINE
  5
7049
  8
CT
 10
806.02186519210397
 20
1115.686149873922
 30
0.0
 11
806.02186519210397
 21
1124.2731568739221
 31
0.0
  0
LINE
  5
704A
  8
1
 10
826.02186519210409
 20
1119.563853873922
 30
0.0
 11
826.02186519210409
 21
1117.9047358739231
 31
0.0
  0
ARC
  5
704B
  8
1
 10
868.52186519210397
 20
1197.9047358739231
 30
0.0
 40
85.0
 50
236.731781331679
 51
244.1244660000032
  0
LINE
  5
704C
  8
1
 10
821.89792719210345
 20
1126.8402578739219
 30
0.0
 11
820.22532519210461
 21
1124.4984858739231
 31
0.0
  0
LINE
  5
704D
  8
1
 10
911.02186519210409
 20
1119.563853873922
 30
0.0
 11
911.02186519210409
 21
1117.9047358739231
 31
0.0
  0
LINE
  5
704E
  8
1
 10
915.15341619210267
 20
1126.8295978739229
 30
0.0
 11
916.81840419210323
 21
1124.4984858739231
 31
0.0
  0
LINE
  5
704F
  8
1
 10
916.03013519210265
 20
1125.602122873923
 30
0.0
 11
916.81840419210323
 21
1124.4984858739231
 31
0.0
  0
LINE
  5
7050
  8
1
 10
831.42636619210487
 20
1121.453807873922
 30
0.0
 11
905.67367419210325
 21
1121.453807873922
 31
0.0
  0
LINE
  5
7051
  8
FUTO
 10
1001.221865192102
 20
1092.9047358739231
 30
0.0
 11
1026.2218651921009
 21
1117.9047358739231
 31
0.0
  0
CIRCLE
  5
7052
  8
1
 10
994.1694816136386
 20
1145.859789072271
 30
0.0
 40
4.0
  0
LINE
  5
7053
  8
1
 10
951.02189519210322
 20
1122.4047358739231
 30
0.0
 11
951.02189519210322
 21
1119.563853873922
 31
0.0
  0
LINE
  5
7054
  8
1
 10
946.02186519210397
 20
1119.563853873922
 30
0.0
 11
946.02186519210397
 21
1117.9047358739231
 31
0.0
  0
LINE
  5
7055
  8
1
 10
946.3562331921039
 20
1122.397911873923
 30
0.0
 11
930.84317319210265
 21
1140.088373873923
 31
0.0
  0
LINE
  5
7056
  8
1
 10
951.02189519210322
 20
1122.4047358739231
 30
0.0
 11
920.88706919210188
 21
1122.4047358739231
 31
0.0
  0
LINE
  5
7057
  8
CT
 10
931.02186519210397
 20
1115.686149873922
 30
0.0
 11
931.02186519210397
 21
1124.2731568739221
 31
0.0
  0
LINE
  5
7058
  8
CT
 10
1006.339952865602
 20
1140.818614819234
 30
0.0
 11
980.96153340051944
 21
1151.330700353265
 31
0.0
  0
LINE
  5
7059
  8
FUTO
 10
1419.521865192102
 20
942.90473587392319
 30
0.0
 11
1419.521865192102
 21
882.90473587392307
 31
0.0
  0
LINE
  5
705A
  8
FUTO
 10
1619.521865192102
 20
942.90473587392319
 30
0.0
 11
1619.521865192102
 21
882.90473587392307
 31
0.0
  0
DIMENSION
  5
705B
  8
SP
  2
*D51
 10
1619.521865192102
 20
742.90473587392307
 30
0.0
 11
1519.521865192102
 21
767.90473587392307
 31
0.0
 70
     0
 13
1419.521865192102
 23
882.90473587392307
 33
0.0
 14
1619.521865192102
 24
882.90473587392307
 34
0.0
  0
LINE
  5
705C
  8
FUTO
 10
1419.521865192102
 20
885.20473587392303
 30
0.0
 11
1619.521865192102
 21
885.20473587392325
 31
0.0
  0
LINE
  5
705D
  8
FUTO
 10
1419.521865192102
 20
882.90473587392307
 30
0.0
 11
1619.521865192102
 21
882.90473587392307
 31
0.0
  0
LINE
  5
705E
  8
2
 10
1439.521865192102
 20
897.303845439376
 30
0.0
 11
1439.521865192102
 21
870.6850217485312
 31
0.0
  0
DIMENSION
  5
705F
  8
SP
  2
*D52
 10
1718.521865192102
 20
742.90473587392307
 30
0.0
 11
1669.021865192102
 21
767.90473587392307
 31
0.0
 70
     0
 13
1619.521865192102
 23
882.90473587392307
 33
0.0
 14
1718.521865192102
 24
881.78468466022969
 34
0.0
  0
LINE
  5
7060
  8
2
 10
1599.521865192102
 20
897.303845439376
 30
0.0
 11
1599.521865192102
 21
870.6850217485312
 31
0.0
  0
LINE
  5
7061
  8
1
 10
1499.721865192103
 20
1141.0622068739231
 30
0.0
 11
1522.6750511921009
 21
1141.0622068739231
 31
0.0
  0
LINE
  5
7062
  8
1
 10
1419.521865192102
 20
945.20473587392246
 30
0.0
 11
1617.221865192103
 21
945.20473587392053
 31
0.0
  0
LINE
  5
7063
  8
1
 10
1419.521865192102
 20
942.90473587392319
 30
0.0
 11
1649.521865192102
 21
942.90473587392319
 31
0.0
  0
LINE
  5
7064
  8
1
 10
1410.521865192102
 20
1065.904735873924
 30
0.0
 11
1443.8218651921011
 21
993.90473587392137
 31
0.0
  0
LINE
  5
7065
  8
1
 10
1419.5218651921041
 20
945.20473587392246
 30
0.0
 11
1419.521865192102
 21
942.90473587392319
 31
0.0
  0
LINE
  5
7066
  8
2
 10
1439.521865192102
 20
955.20473587392235
 30
0.0
 11
1439.521865192102
 21
921.95318508654384
 31
0.0
  0
LINE
  5
7067
  8
1
 10
1410.521865192102
 20
1117.9047358739231
 30
0.0
 11
1410.521865192102
 21
1065.904735873926
 31
0.0
  0
LINE
  5
7068
  8
1
 10
1422.6647371921019
 20
1119.9047358739231
 30
0.0
 11
1401.721865192103
 21
1119.9047358739231
 31
0.0
  0
LINE
  5
7069
  8
1
 10
1410.521865192102
 20
1117.904735873924
 30
0.0
 11
1519.0202853601729
 21
1117.904735873926
 31
0.0
  0
ARC
  5
706A
  8
1
 10
1368.2218651921021
 20
1125.2782108739229
 30
0.0
 40
1.4999849999999999
 50
180.0
 51
264.95834400001871
  0
LINE
  5
706B
  8
1
 10
1400.721865192103
 20
1120.9047358739231
 30
0.0
 11
1368.0900291921021
 21
1123.7840088739231
 31
0.0
  0
ARC
  5
706C
  8
1
 10
1401.721865192103
 20
1120.9047358739231
 30
0.0
 40
1.000030999999999
 50
180.0
 51
269.99826000003299
  0
LINE
  5
706D
  8
1
 10
1499.721865192103
 20
1141.0622068739231
 30
0.0
 11
1476.7686791921019
 21
1141.0622068739231
 31
0.0
  0
LINE
  5
706E
  8
1
 10
1422.6647371921019
 20
1123.1047488739221
 30
0.0
 11
1434.7088651921019
 21
1123.1047488739221
 31
0.0
  0
LINE
  5
706F
  8
1
 10
1422.6647371921019
 20
1147.8213008739219
 30
0.0
 11
1422.6647371921019
 21
1119.901134873922
 31
0.0
  0
ARC
  5
7070
  8
1
 10
1462.645144192102
 20
1127.4047358739231
 30
0.0
 40
5.0
 50
270.0
 51
341.67651400002069
  0
LINE
  5
7071
  8
1
 10
1471.0728791921019
 20
1136.9485598739229
 30
0.0
 11
1467.391665192102
 21
1125.8328368739219
 31
0.0
  0
ARC
  5
7072
  8
1
 10
1476.7688631921019
 20
1135.0620848739241
 30
0.0
 40
6.0001220000000002
 50
90.001166999976832
 51
161.67526199997661
  0
LINE
  5
7073
  8
1
 10
1469.721865192103
 20
1119.9047358739231
 30
0.0
 11
1469.721865192103
 21
1117.9047358739231
 31
0.0
  0
LINE
  5
7074
  8
CT
 10
1449.721865192103
 20
1126.1166498739219
 30
0.0
 11
1449.721865192103
 21
1110.6047358739211
 31
0.0
  0
LINE
  5
7075
  8
1
 10
1434.3986231921019
 20
1123.104687873923
 30
0.0
 11
1434.7088651921019
 21
1123.104687873923
 31
0.0
  0
ARC
  5
7076
  8
1
 10
1440.7218651921021
 20
1124.2361568739241
 30
0.0
 40
6.0
 50
90.0
 51
180.0
  0
LINE
  5
7077
  8
1
 10
1437.221865192103
 20
1155.350840873924
 30
0.0
 11
1437.221865192103
 21
1129.109553873923
 31
0.0
  0
LINE
  5
7078
  8
1
 10
1439.721865192103
 20
1119.9047358739231
 30
0.0
 11
1439.721865192103
 21
1117.9047358739231
 31
0.0
  0
LINE
  5
7079
  8
1
 10
1434.721865192103
 20
1119.9047358739231
 30
0.0
 11
1434.721865192103
 21
1124.2361568739241
 31
0.0
  0
LINE
  5
707A
  8
1
 10
1468.849917192103
 20
1130.2361568739229
 30
0.0
 11
1440.7218651921021
 21
1130.2361568739229
 31
0.0
  0
LINE
  5
707B
  8
1
 10
1499.721865192103
 20
1119.9047358739231
 30
0.0
 11
1465.721865192103
 21
1119.9047358739231
 31
0.0
  0
LINE
  5
707C
  8
1
 10
1521.612890402188
 20
1122.4047358739231
 30
0.0
 11
1434.721865192103
 21
1122.4047358739231
 31
0.0
  0
LINE
  5
707D
  8
1
 10
1520.1725542677359
 20
1119.9047358739231
 30
0.0
 11
1434.721865192103
 21
1119.9047358739231
 31
0.0
  0
LINE
  5
707E
  8
1
 10
1627.5218651921041
 20
946.90473587392535
 30
0.0
 11
1809.521865192105
 21
946.90473587392626
 31
0.0
  0
LINE
  5
707F
  8
1
 10
1628.521865192102
 20
947.90473587392523
 30
0.0
 11
1808.5218651921041
 21
947.90473587392523
 31
0.0
  0
LINE
  5
7080
  8
1
 10
1619.5218651921041
 20
926.90473587392455
 30
0.0
 11
1817.5218651921
 21
926.90473587392705
 31
0.0
  0
LINE
  5
7081
  8
1
 10
1619.521865192102
 20
945.20473587392053
 30
0.0
 11
1649.521865192102
 21
945.20473587392246
 31
0.0
  0
LINE
  5
7082
  8
2
 10
1599.521865192102
 20
955.20473587392235
 30
0.0
 11
1599.521865192102
 21
921.95318508654384
 31
0.0
  0
LINE
  5
7083
  8
1
 10
1607.5218651921041
 20
938.90473587392444
 30
0.0
 11
1607.5218651921041
 21
942.90473587392364
 31
0.0
  0
ARC
  5
7084
  8
1
 10
1619.5218651921059
 20
938.90473587392444
 30
0.0
 40
12.00000000000022
 50
180.0
 51
270.0
  0
LINE
  5
7085
  8
1
 10
1649.521865192102
 20
945.20473587392053
 30
0.0
 11
1649.521865192102
 21
942.90473587392319
 31
0.0
  0
ARC
  5
7086
  8
1
 10
1817.521865192102
 20
938.90473587392671
 30
0.0
 40
12.0
 50
270.0
 51
0.0
  0
LINE
  5
7087
  8
1
 10
1624.521865192102
 20
1050.9047358739231
 30
0.0
 11
1622.521865192102
 21
1050.9047358739231
 31
0.0
  0
ARC
  5
7088
  8
1
 10
1622.521865192102
 20
1053.9047358739231
 30
0.0
 40
3.0
 50
180.0
 51
270.0
  0
ARC
  5
7089
  8
1
 10
1624.521865192102
 20
1047.9047358739231
 30
0.0
 40
3.0
 50
0.0
 51
90.0
  0
ARC
  5
708A
  8
1
 10
1522.674990192103
 20
1135.0620848739241
 30
0.0
 40
6.0001939999999996
 50
18.324734000010569
 51
89.998833000023154
  0
LINE
  5
708B
  8
1
 10
1528.370852192101
 20
1136.9485598739229
 30
0.0
 11
1528.962612409839
 21
1135.1616921007369
 31
0.0
  0
LINE
  5
708C
  8
FUTO
 10
1808.5218651921
 20
1072.9047358739231
 30
0.0
 11
1817.521865192102
 21
1072.9047358739231
 31
0.0
  0
ARC
  5
708D
  8
1
 10
1814.521865192102
 20
1053.9047358739231
 30
0.0
 40
3.0
 50
270.0
 51
0.0
  0
LINE
  5
708E
  8
1
 10
1812.521865192102
 20
1050.9047358739231
 30
0.0
 11
1814.521865192102
 21
1050.9047358739231
 31
0.0
  0
ARC
  5
708F
  8
1
 10
1812.521865192102
 20
1047.9047358739231
 30
0.0
 40
3.0
 50
90.0
 51
180.0
  0
ARC
  5
7090
  8
FUTO
 10
885.52186519210397
 20
1180.9047358739231
 30
0.0
 40
203.0
 50
359.57208103222189
 51
90.467321704981742
  0
ARC
  5
7091
  8
FUTO
 10
885.52186519210397
 20
1180.9047358739231
 30
0.0
 40
193.0
 50
359.57208103222189
 51
90.467321704981742
  0
LINE
  5
7092
  8
2
 10
584.33538021480308
 20
1197.9047358739231
 30
0.0
 11
1123.6453887852199
 21
1197.904735873921
 31
0.0
  0
ARC
  5
7093
  8
FUTO
 10
882.52186519210409
 20
1211.9047358739231
 30
0.0
 40
162.0
 50
89.489666755206386
 51
168.45073817644959
  0
DIMENSION
  5
7094
  8
SP
  2
*D53
 10
1078.5218651921041
 20
1453.9047358739231
 30
0.0
 11
973.52186519210409
 21
1478.9047358739231
 31
0.0
 70
     0
 13
868.52186519210397
 23
1407.6811550182481
 33
0.0
 14
1078.5218651921041
 24
1177.9047358739231
 34
0.0
 50
180.0
  0
ARC
  5
7095
  8
FUTO
 10
882.52186519210409
 20
1211.9047358739231
 30
0.0
 40
172.0
 50
89.489666755206386
 51
168.45073817644959
  0
DIMENSION
  5
7096
  8
SP
  2
*D54
 10
668.52186519210397
 20
1453.799134340657
 30
0.0
 11
768.52186519210409
 21
1478.799134340657
 31
0.0
 70
     0
 13
868.52186519210397
 23
1407.6811550182481
 33
0.0
 14
668.52186519210397
 24
1218.9047358739231
 34
0.0
 50
180.0
  0
LINE
  5
7097
  8
1
 10
808.52186519210397
 20
1347.9047358739231
 30
0.0
 11
710.12186519210263
 21
1264.0047358739209
 31
0.0
  0
ARC
  5
7098
  8
FUTO
 10
658.00189586996021
 20
1257.433321973851
 30
0.0
 40
57.203726762688042
 50
306.60350367362588
 51
351.67207569821181
  0
ARC
  5
7099
  8
FUTO
 10
652.52186519210409
 20
1258.904735873919
 30
0.0
 40
72.753061747871584
 50
304.19961945547118
 51
348.45073817644948
  0
DIMENSION
  5
709A
  8
SP
  2
*D55
 10
528.52186519210409
 20
1373.9047358739231
 30
0.0
 11
503.5218651921038
 21
1285.9047358739231
 31
0.0
 70
     0
 13
636.16548570286795
 23
1197.9047358739231
 33
0.0
 14
885.52186519210397
 24
1373.9047358739231
 34
0.0
 50
90.0
  0
LINE
  5
709B
  8
FUTO
 10
669.52186519210409
 20
1199.9047358739231
 30
0.0
 11
669.52186519210409
 21
1218.9047358739231
 31
0.0
  0
LINE
  5
709C
  8
FUTO
 10
670.52186519210409
 20
1196.9047358739231
 30
0.0
 11
670.52186519210409
 21
1198.9047358739231
 31
0.0
  0
LINE
  5
709D
  8
FUTO
 10
688.52186519210397
 20
1197.9047358739231
 30
0.0
 11
688.52186519210397
 21
1203.8365792841651
 31
0.0
  0
LINE
  5
709E
  8
FUTO
 10
688.52186519210397
 20
1197.9047358739231
 30
0.0
 11
688.52186519210397
 21
1198.9047358739231
 31
0.0
  0
ARC
  5
709F
  8
FUTO
 10
698.52186519210409
 20
1203.8365792841651
 30
0.0
 40
10.0
 50
129.87296890616349
 51
180.0
  0
LINE
  5
70A0
  8
FUTO
 10
688.52186519210397
 20
1197.9047358739231
 30
0.0
 11
668.52186519210397
 21
1197.9047358739231
 31
0.0
  0
LINE
  5
70A1
  8
FUTO
 10
668.52186519210397
 20
1198.9047358739231
 30
0.0
 11
688.52186519210397
 21
1198.9047358739231
 31
0.0
  0
LINE
  5
70A2
  8
FUTO
 10
669.52186519210409
 20
1199.9047358739231
 30
0.0
 11
688.52186519210397
 21
1199.9047358739231
 31
0.0
  0
LINE
  5
70A3
  8
FUTO
 10
670.52186519210409
 20
1196.9047358739231
 30
0.0
 11
688.52186519210397
 21
1178.9047358739231
 31
0.0
  0
LINE
  5
70A4
  8
FUTO
 10
668.52186519210397
 20
1218.9047358739231
 30
0.0
 11
669.52186519210409
 21
1218.9047358739231
 31
0.0
  0
LINE
  5
70A5
  8
1
 10
708.52186519210397
 20
1264.0047358739209
 30
0.0
 11
710.12186519210263
 21
1264.0047358739209
 31
0.0
  0
LINE
  5
70A6
  8
1
 10
928.52186519210397
 20
1347.9047358739231
 30
0.0
 11
1026.921865192101
 21
1264.0047358739209
 31
0.0
  0
CIRCLE
  5
70A7
  8
1
 10
742.87424877056947
 20
1249.9496826755751
 30
0.0
 40
4.0
  0
LINE
  5
70A8
  8
CT
 10
730.70377751860167
 20
1254.990856928609
 30
0.0
 11
756.08219698368521
 21
1244.4787713945809
 31
0.0
  0
CIRCLE
  5
70A9
  8
1
 10
994.1694816136386
 20
1249.9496826755751
 30
0.0
 40
4.0
  0
LINE
  5
70AA
  8
CT
 10
1006.339952865602
 20
1254.990856928609
 30
0.0
 11
980.96153340051944
 21
1244.4787713945809
 31
0.0
  0
LINE
  5
70AB
  8
1
 10
1026.921865192101
 20
1264.0047358739209
 30
0.0
 11
1028.521865192103
 21
1264.0047358739209
 31
0.0
  0
LINE
  5
70AC
  8
1
 10
808.52186519210397
 20
1347.9047358739231
 30
0.0
 11
928.52186519210397
 21
1347.9047358739231
 31
0.0
  0
CIRCLE
  5
70AD
  8
1
 10
920.56681199375635
 20
1323.552352295457
 30
0.0
 40
4.0
  0
LINE
  5
70AE
  8
CT
 10
925.60798624679035
 20
1335.7228235474211
 30
0.0
 11
915.09590071275852
 21
1310.3444040823399
 31
0.0
  0
LINE
  5
70AF
  8
CT
 10
811.43574413741396
 20
1335.7228235474211
 30
0.0
 11
821.9478296714459
 21
1310.3444040823381
 31
0.0
  0
CIRCLE
  5
70B0
  8
1
 10
816.47691839045183
 20
1323.552352295457
 30
0.0
 40
4.0
  0
DIMENSION
  5
70B1
  8
SP
  2
*D56
 10
1366.721865192103
 20
1533.0044655681299
 30
0.0
 11
1542.621865192102
 21
1558.0044655681299
 31
0.0
 70
     0
  1
（400）
 13
1718.521865192102
 23
1493.9047358739231
 33
0.0
 14
1366.721865192103
 24
1270.6820798739229
 34
0.0
  0
DIMENSION
  5
70B2
  8
SP
  2
*D57
 10
1817.5218651921041
 20
1533.0044655681299
 30
0.0
 11
1768.021865192103
 21
1558.0044655681299
 31
0.0
 70
     0
 13
1718.521865192102
 23
1493.9047358739231
 33
0.0
 14
1817.5218651921041
 24
1341.9047358739231
 34
0.0
  0
DIMENSION
  5
70B3
  8
SP
  2
*D58
 10
1808.521865192102
 20
1453.9047358739231
 30
0.0
 11
1718.521865192102
 21
1478.9047358739231
 31
0.0
 70
     0
 13
1628.521865192102
 23
1362.9047358739231
 33
0.0
 14
1808.521865192102
 24
1362.9047358739231
 34
0.0
  0
LINE
  5
70B4
  8
1
 10
1440.7218651921021
 20
1272.7047238739231
 30
0.0
 11
1562.221865192103
 21
1272.7047238739231
 31
0.0
  0
LINE
  5
70B5
  8
2
 10
1350.433420564201
 20
1197.9047358739231
 30
0.0
 11
1857.9659876352589
 21
1197.9047358739231
 31
0.0
  0
LINE
  5
70B6
  8
1
 10
1367.919375192103
 20
1272.151256873924
 30
0.0
 11
1399.9235261921019
 21
1278.740368873923
 31
0.0
  0
LINE
  5
70B7
  8
1
 10
1440.7218651921021
 20
1157.161182322219
 30
0.0
 11
1440.7218651921021
 21
1282.9047358739231
 31
0.0
  0
ARC
  5
70B8
  8
1
 10
1368.2218651921021
 20
1270.6820798739229
 30
0.0
 40
1.499994
 50
101.6341020000531
 51
180.0
  0
LINE
  5
70B9
  8
1
 10
1402.2218651921021
 20
1282.9047358739231
 30
0.0
 11
1440.7218651921021
 21
1282.9047358739231
 31
0.0
  0
ARC
  5
70BA
  8
1
 10
1399.7219261921009
 20
1279.7197388739221
 30
0.0
 40
0.999898
 50
281.62991300003551
 51
0.0034970000049811
  0
ARC
  5
70BB
  8
1
 10
1402.2218651921021
 20
1281.4047358739231
 30
0.0
 40
1.4999849999999999
 50
89.999420000045831
 51
180.0
  0
LINE
  5
70BC
  8
1
 10
1809.521865192102
 20
1347.9047358739231
 30
0.0
 11
1809.5218651921041
 21
1197.9047358739231
 31
0.0
  0
LINE
  5
70BD
  8
1
 10
1809.521865192102
 20
1197.9047358739231
 30
0.0
 11
1809.521865192102
 21
1362.9047358739231
 31
0.0
  0
LINE
  5
70BE
  8
1
 10
1808.521865192102
 20
1197.9047358739231
 30
0.0
 11
1808.521865192102
 21
1362.9047358739231
 31
0.0
  0
LINE
  5
70BF
  8
1
 10
1627.521865192102
 20
1362.9047358739231
 30
0.0
 11
1627.521865192102
 21
1197.9047358739231
 31
0.0
  0
LINE
  5
70C0
  8
1
 10
1628.521865192102
 20
1362.9047358739231
 30
0.0
 11
1628.521865192102
 21
1197.9047358739231
 31
0.0
  0
LINE
  5
70C1
  8
1
 10
1562.221865192103
 20
1273.4047358739231
 30
0.0
 11
1562.2218651921039
 21
1192.889975080454
 31
0.0
  0
LINE
  5
70C2
  8
1
 10
1584.721865192103
 20
1270.7197388739221
 30
0.0
 11
1584.721865192103
 21
1262.089733873923
 31
0.0
  0
LINE
  5
70C3
  8
1
 10
1584.721865192103
 20
1261.9705318739241
 30
0.0
 11
1584.721865192103
 21
1270.9705318739229
 31
0.0
  0
LINE
  5
70C4
  8
1
 10
1562.221865192103
 20
1273.4047358739231
 30
0.0
 11
1582.721865192103
 21
1273.4047358739231
 31
0.0
  0
ARC
  5
70C5
  8
1
 10
1582.721865192103
 20
1271.4047358739231
 30
0.0
 40
2.0
 50
0.0
 51
90.0
  0
LINE
  5
70C6
  8
1
 10
1584.721865192103
 20
1231.9433589777709
 30
0.0
 11
1584.721865192103
 21
1271.4047358739231
 31
0.0
  0
LINE
  5
70C7
  8
1
 10
1590.921865192103
 20
1242.7047358739219
 30
0.0
 11
1617.2218651921009
 21
1264.0047358739209
 31
0.0
  0
ARC
  5
70C8
  8
FUTO
 10
1804.521865192102
 20
1193.9047358739219
 30
0.0
 40
25.0
 50
0.0
 51
58.667748502377883
  0
LINE
  5
70C9
  8
1
 10
1639.521865192102
 20
1374.9047358739231
 30
0.0
 11
1797.521865192102
 21
1374.9047358739231
 31
0.0
  0
LINE
  5
70CA
  8
1
 10
1639.521865192102
 20
1373.9047358739231
 30
0.0
 11
1797.521865192102
 21
1373.9047358739231
 31
0.0
  0
LINE
  5
70CB
  8
1
 10
1624.521865192102
 20
1344.9047358739231
 30
0.0
 11
1622.521865192102
 21
1344.9047358739231
 31
0.0
  0
ARC
  5
70CC
  8
1
 10
1622.521865192102
 20
1341.9047358739231
 30
0.0
 40
3.0
 50
90.0
 51
180.0
  0
LINE
  5
70CD
  8
1
 10
1617.2218651921009
 20
1347.9047358739231
 30
0.0
 11
1619.521865192102
 21
1347.9047358739231
 31
0.0
  0
ARC
  5
70CE
  8
1
 10
1624.521865192102
 20
1347.9047358739231
 30
0.0
 40
3.0
 50
270.0
 51
0.0
  0
ARC
  5
70CF
  8
1
 10
1639.521865192102
 20
1362.9047358739231
 30
0.0
 40
11.0
 50
90.0
 51
180.0
  0
LINE
  5
70D0
  8
1
 10
1627.521865192102
 20
1347.9047358739231
 30
0.0
 11
1627.521865192102
 21
1362.9047358739231
 31
0.0
  0
ARC
  5
70D1
  8
1
 10
1639.521865192102
 20
1362.9047358739231
 30
0.0
 40
12.0
 50
90.0
 51
180.0
  0
LINE
  5
70D2
  8
FUTO
 10
1808.521865192102
 20
1322.9047358739231
 30
0.0
 11
1817.5218651921041
 21
1322.9047358739231
 31
0.0
  0
ARC
  5
70D3
  8
1
 10
1812.521865192102
 20
1347.9047358739231
 30
0.0
 40
3.0
 50
180.0
 51
270.0
  0
ARC
  5
70D4
  8
1
 10
1814.521865192102
 20
1341.9047358739231
 30
0.0
 40
3.0
 50
0.0
 51
90.0
  0
LINE
  5
70D5
  8
1
 10
1812.521865192102
 20
1344.9047358739231
 30
0.0
 11
1814.521865192102
 21
1344.9047358739231
 31
0.0
  0
ARC
  5
70D6
  8
1
 10
1797.521865192102
 20
1362.9047358739231
 30
0.0
 40
12.0
 50
0.0
 51
90.0
  0
ARC
  5
70D7
  8
1
 10
1797.521865192102
 20
1362.9047358739231
 30
0.0
 40
11.0
 50
0.0
 51
90.0
  0
LINE
  5
70D8
  8
1
 10
1809.521865192102
 20
1347.9047358739231
 30
0.0
 11
1809.521865192102
 21
1362.9047358739231
 31
0.0
  0
DIMENSION
  5
70D9
  8
SP
  2
*D59
 10
568.14828943739303
 20
1942.9963266162049
 30
0.0
 11
543.14828943739258
 21
2042.9963266162019
 31
0.0
 70
     0
 13
678.52186519210215
 23
2142.996326616199
 33
0.0
 14
678.52186519210409
 24
1942.9963266162049
 34
0.0
 50
90.0
  0
LINE
  5
70DA
  8
2
 10
868.52186519210397
 20
1846.5114325210241
 30
0.0
 11
868.52186519210397
 21
2362.2437020575289
 31
0.0
  0
LINE
  5
70DB
  8
1
 10
835.02186519210591
 20
2108.196326616202
 30
0.0
 11
835.02186519210409
 21
2117.196326616202
 31
0.0
  0
LINE
  5
70DC
  8
FUTO
 10
678.52186519210409
 20
1942.9963266162049
 30
0.0
 11
678.52186519210215
 21
2142.996326616199
 31
0.0
  0
LINE
  5
70DD
  8
1
 10
708.52186519210397
 20
1933.996326616201
 30
0.0
 11
708.52186519210227
 21
2142.996326616199
 31
0.0
  0
LINE
  5
70DE
  8
1
 10
902.02186519210409
 20
2117.196326616202
 30
0.0
 11
902.02186519210409
 21
2108.196326616202
 31
0.0
  0
LINE
  5
70DF
  8
1
 10
1058.521865192107
 20
1942.9963266162049
 30
0.0
 11
1058.5218651921091
 21
2142.996326616199
 31
0.0
  0
LINE
  5
70E0
  8
1
 10
1028.521865192107
 20
1933.996326616209
 30
0.0
 11
1028.5218651921091
 21
2142.996326616199
 31
0.0
  0
DIMENSION
  5
70E1
  8
SP
  2
*D60
 10
678.52186519210409
 20
1785.428130286183
 30
0.0
 11
868.52186519210602
 21
1810.428130286183
 31
0.0
 70
     0
 13
1058.521865192107
 23
1942.9963266162049
 33
0.0
 14
678.52186519210409
 24
1942.9963266162049
 34
0.0
 50
180.0
  0
LINE
  5
70E2
  8
1
 10
783.52186519210397
 20
1933.9963266162031
 30
0.0
 11
708.52186519210397
 21
1933.996326616201
 31
0.0
  0
LINE
  5
70E3
  8
FUTO
 10
678.52186519210409
 20
1942.996326616199
 30
0.0
 11
708.52186519210397
 21
1942.996326616199
 31
0.0
  0
LINE
  5
70E4
  8
FUTO
 10
708.52186519210397
 20
1942.9963266162049
 30
0.0
 11
678.52186519210215
 21
1942.9963266162049
 31
0.0
  0
LINE
  5
70E5
  8
CT
 10
691.52186519210227
 20
1950.809240600935
 30
0.0
 11
691.52186519210227
 21
1975.1834126314641
 31
0.0
  0
LINE
  5
70E6
  8
CT
 10
703.70895120736714
 20
1962.996326616199
 30
0.0
 11
679.3347791768374
 21
1962.996326616199
 31
0.0
  0
CIRCLE
  5
70E7
  8
FUTO
 10
691.52186519210227
 20
1962.996326616199
 30
0.0
 40
6.0
  0
LINE
  5
70E8
  8
1
 10
943.32185319210475
 20
1964.196326616202
 30
0.0
 11
943.32185319210475
 21
2085.696326616202
 31
0.0
  0
LINE
  5
70E9
  8
1
 10
793.72187719210342
 20
1964.196326616202
 30
0.0
 11
793.72187719210342
 21
2085.696326616202
 31
0.0
  0
LINE
  5
70EA
  8
1
 10
783.52186519210397
 20
1964.196326616202
 30
0.0
 11
953.52186519210397
 21
1964.196326616202
 31
0.0
  0
LINE
  5
70EB
  8
1
 10
868.52186519210602
 20
1924.196326616202
 30
0.0
 11
952.02186519210409
 21
1924.196326616202
 31
0.0
  0
LINE
  5
70EC
  8
1
 10
941.29920919210417
 20
1890.196326616202
 30
0.0
 11
795.89534019210441
 21
1890.196326616202
 31
0.0
  0
LINE
  5
70ED
  8
1
 10
783.52186519210397
 20
1925.696326616202
 30
0.0
 11
783.52186519210397
 21
1964.196326616202
 31
0.0
  0
LINE
  5
70EE
  8
1
 10
868.52186519210215
 20
1924.196326616202
 30
0.0
 11
785.02186519210397
 21
1924.196326616202
 31
0.0
  0
ARC
  5
70EF
  8
1
 10
786.70686219210438
 20
1923.196387616201
 30
0.0
 40
0.999898
 50
11.629913000010051
 51
90.003496999952887
  0
ARC
  5
70F0
  8
1
 10
785.02186519210397
 20
1925.696326616202
 30
0.0
 40
1.4999849999999999
 50
179.99941999999371
 51
270.0
  0
LINE
  5
70F1
  8
1
 10
794.27534419210315
 20
1891.393836616202
 30
0.0
 11
787.68623219210338
 21
1923.3979876162009
 31
0.0
  0
LINE
  5
70F2
  8
1
 10
953.52186519210397
 20
1925.696326616202
 30
0.0
 11
953.52186519210397
 21
1964.196326616202
 31
0.0
  0
ARC
  5
70F3
  8
1
 10
952.02186519210409
 20
1925.696326616202
 30
0.0
 40
1.4999849999999999
 50
270.0
 51
0.0005800000062726
  0
LINE
  5
70F4
  8
1
 10
942.76838619210503
 20
1891.393836616202
 30
0.0
 11
949.35749819210457
 21
1923.3979876162009
 31
0.0
  0
ARC
  5
70F5
  8
1
 10
950.33686819210379
 20
1923.196387616201
 30
0.0
 40
0.999898
 50
89.996503000047156
 51
168.37008699998989
  0
LINE
  5
70F6
  8
1
 10
1028.521865192107
 20
1933.996326616209
 30
0.0
 11
953.52186519210397
 21
1933.9963266162049
 31
0.0
  0
CIRCLE
  5
70F7
  8
FUTO
 10
1045.5218651921091
 20
1962.996326616199
 30
0.0
 40
6.0
  0
LINE
  5
70F8
  8
CT
 10
1033.334779176844
 20
1962.996326616199
 30
0.0
 11
1057.708951207374
 21
1962.996326616199
 31
0.0
  0
LINE
  5
70F9
  8
CT
 10
1045.5218651921091
 20
1950.809240600935
 30
0.0
 11
1045.5218651921091
 21
1975.1834126314641
 31
0.0
  0
LINE
  5
70FA
  8
1
 10
1058.5218651921041
 20
1942.9963266162049
 30
0.0
 11
1028.521865192107
 21
1942.9963266162049
 31
0.0
  0
LINE
  5
70FB
  8
1
 10
868.52186519210397
 20
2108.196326616202
 30
0.0
 11
942.02186519210409
 21
2108.196326616202
 31
0.0
  0
LINE
  5
70FC
  8
1
 10
944.02186519210409
 20
2085.696326616202
 30
0.0
 11
868.52186519210602
 21
2085.696326616202
 31
0.0
  0
LINE
  5
70FD
  8
1
 10
793.02186519210397
 20
2085.696326616202
 30
0.0
 11
868.52186519210215
 21
2085.696326616202
 31
0.0
  0
LINE
  5
70FE
  8
1
 10
868.52186519210397
 20
2108.196326616202
 30
0.0
 11
795.02186519210409
 21
2108.196326616202
 31
0.0
  0
LINE
  5
70FF
  8
1
 10
795.70686219210438
 20
2108.196326616202
 30
0.0
 11
804.33686719210345
 21
2108.196326616202
 31
0.0
  0
LINE
  5
7100
  8
1
 10
804.45606919210331
 20
2108.196326616202
 30
0.0
 11
795.45606919210331
 21
2108.196326616202
 31
0.0
  0
LINE
  5
7101
  8
1
 10
793.02186519210397
 20
2085.696326616202
 30
0.0
 11
793.02186519210397
 21
2106.196326616202
 31
0.0
  0
ARC
  5
7102
  8
1
 10
795.02186519210409
 20
2106.196326616202
 30
0.0
 40
2.0
 50
90.0
 51
180.0
  0
ARC
  5
7103
  8
1
 10
942.02186519210409
 20
2106.196326616202
 30
0.0
 40
2.0
 50
0.0
 51
90.0
  0
LINE
  5
7104
  8
1
 10
944.02186519210409
 20
2085.696326616202
 30
0.0
 11
944.02186519210409
 21
2106.196326616202
 31
0.0
  0
LINE
  5
7105
  8
1
 10
932.58766119210475
 20
2108.196326616202
 30
0.0
 11
941.58766119210475
 21
2108.196326616202
 31
0.0
  0
LINE
  5
7106
  8
1
 10
941.33686819210379
 20
2108.196326616202
 30
0.0
 11
932.70686319210472
 21
2108.196326616202
 31
0.0
  0
LINE
  5
7107
  8
1
 10
669.52186519210215
 20
2351.9963266161999
 30
0.0
 11
669.52186519210215
 21
2332.996326616199
 31
0.0
  0
LINE
  5
7108
  8
1
 10
668.52186519210215
 20
2351.9963266161999
 30
0.0
 11
668.52186519210215
 21
2131.9963266162008
 31
0.0
  0
LINE
  5
7109
  8
FUTO
 10
678.52186519210215
 20
2142.996326616199
 30
0.0
 11
1058.521865192102
 21
2142.996326616199
 31
0.0
  0
LINE
  5
710A
  8
1
 10
835.02186519210591
 20
2108.9963266162031
 30
0.0
 11
708.52186519210227
 21
2108.9963266162031
 31
0.0
  0
LINE
  5
710B
  8
2
 10
1111.731577684669
 20
2241.9963266162008
 30
0.0
 11
658.37425061875365
 21
2241.9963266161999
 31
0.0
  0
LINE
  5
710C
  8
1
 10
1066.5218651921041
 20
2150.9963266161999
 30
0.0
 11
688.52186519210227
 21
2150.996326616199
 31
0.0
  0
LINE
  5
710D
  8
1
 10
1066.5218651921041
 20
2151.9963266161999
 30
0.0
 11
688.52186519210227
 21
2151.996326616199
 31
0.0
  0
LINE
  5
710E
  8
1
 10
1066.5218651921041
 20
2332.9963266161999
 30
0.0
 11
688.52186519210227
 21
2332.996326616199
 31
0.0
  0
LINE
  5
710F
  8
1
 10
1066.5218651921041
 20
2331.9963266161999
 30
0.0
 11
688.52186519210227
 21
2331.9963266161999
 31
0.0
  0
DIMENSION
  5
7110
  8
SP
  2
*D61
 10
568.14828943739303
 20
2241.9963266161999
 30
0.0
 11
543.14828943739258
 21
2192.496326616199
 31
0.0
 70
     0
 13
678.52186519210215
 23
2142.996326616199
 33
0.0
 14
658.37425061875365
 24
2241.9963266161999
 34
0.0
 50
90.0
  0
LINE
  5
7111
  8
1
 10
669.52186519210215
 20
2331.9963266161999
 30
0.0
 11
669.52186519210215
 21
2151.996326616199
 31
0.0
  0
LINE
  5
7112
  8
1
 10
688.52186519210227
 20
2311.9963266162008
 30
0.0
 11
688.52186519210227
 21
2171.9963266161999
 31
0.0
  0
LINE
  5
7113
  8
1
 10
670.52186519210215
 20
2153.9963266161999
 30
0.0
 11
688.52186519210227
 21
2171.9963266161999
 31
0.0
  0
LINE
  5
7114
  8
CT
 10
701.7089512073635
 20
2122.996326616199
 30
0.0
 11
677.33477917683365
 21
2122.996326616199
 31
0.0
  0
CIRCLE
  5
7115
  8
FUTO
 10
691.52186519210227
 20
2122.996326616199
 30
0.0
 40
6.0
  0
LINE
  5
7116
  8
CT
 10
691.52186519210227
 20
2110.809240600935
 30
0.0
 11
691.52186519210227
 21
2135.1834126314639
 31
0.0
  0
LINE
  5
7117
  8
1
 10
670.52186519210215
 20
2153.9963266161999
 30
0.0
 11
670.52186519210215
 21
2151.996326616199
 31
0.0
  0
LINE
  5
7118
  8
1
 10
668.52186519210215
 20
2151.996326616199
 30
0.0
 11
688.52186519210227
 21
2151.996326616199
 31
0.0
  0
LINE
  5
7119
  8
1
 10
669.52186519210215
 20
2150.996326616199
 30
0.0
 11
688.52186519210227
 21
2150.996326616199
 31
0.0
  0
LINE
  5
711A
  8
1
 10
668.52186519210215
 20
2131.9963266162008
 30
0.0
 11
669.52186519210215
 21
2131.9963266162008
 31
0.0
  0
LINE
  5
711B
  8
1
 10
669.52186519210215
 20
2150.996326616199
 30
0.0
 11
669.52186519210215
 21
2131.9963266162008
 31
0.0
  0
LINE
  5
711C
  8
1
 10
670.52186519210215
 20
2331.9963266161999
 30
0.0
 11
670.52186519210215
 21
2329.996326616199
 31
0.0
  0
LINE
  5
711D
  8
1
 10
668.52186519210215
 20
2331.9963266161999
 30
0.0
 11
688.52186519210227
 21
2331.9963266161999
 31
0.0
  0
LINE
  5
711E
  8
1
 10
669.52186519210215
 20
2332.996326616199
 30
0.0
 11
688.52186519210227
 21
2332.996326616199
 31
0.0
  0
LINE
  5
711F
  8
1
 10
670.52186519210215
 20
2329.996326616199
 30
0.0
 11
688.52186519210227
 21
2311.9963266161999
 31
0.0
  0
LINE
  5
7120
  8
FUTO
 10
1078.5218651921041
 20
2162.9963266161999
 30
0.0
 11
1078.5218651921041
 21
2320.9963266162008
 31
0.0
  0
LINE
  5
7121
  8
FUTO
 10
1077.5218651921041
 20
2162.9963266161999
 30
0.0
 11
1077.5218651921041
 21
2320.9963266162008
 31
0.0
  0
LINE
  5
7122
  8
1
 10
1028.5218651921091
 20
2108.996326616209
 30
0.0
 11
902.02186519210409
 21
2108.9963266162072
 31
0.0
  0
ARC
  5
7123
  8
1
 10
724.52186519210409
 20
2145.9963266162008
 30
0.0
 40
3.0
 50
180.0
 51
270.0
  0
LINE
  5
7124
  8
1
 10
721.52186519210397
 20
2147.9963266162008
 30
0.0
 11
721.52186519210397
 21
2145.9963266162008
 31
0.0
  0
LINE
  5
7125
  8
1
 10
721.52186519210397
 20
2147.9963266162008
 30
0.0
 11
721.52186519210397
 21
2145.9963266162008
 31
0.0
  0
ARC
  5
7126
  8
1
 10
718.52186519210397
 20
2147.9963266162008
 30
0.0
 40
3.0
 50
0.0
 51
90.0
  0
LINE
  5
7127
  8
1
 10
836.02186519210409
 20
2118.196326616202
 30
0.0
 11
901.02186519210409
 21
2118.196326616202
 31
0.0
  0
ARC
  5
7128
  8
1
 10
901.02186519210409
 20
2117.196326616202
 30
0.0
 40
1.0
 50
0.0
 51
90.0
  0
LINE
  5
7129
  8
1
 10
846.02186519210397
 20
2142.996326616199
 30
0.0
 11
846.02186519210397
 21
2128.1963266162002
 31
0.0
  0
LINE
  5
712A
  8
1
 10
891.02186519210397
 20
2142.996326616199
 30
0.0
 11
891.02186519210397
 21
2128.1963266162002
 31
0.0
  0
LINE
  5
712B
  8
1
 10
886.02186519210409
 20
2123.1963266162002
 30
0.0
 11
891.02186519210397
 21
2128.1963266162002
 31
0.0
  0
LINE
  5
712C
  8
1
 10
846.02186519210397
 20
2128.1963266162002
 30
0.0
 11
851.02186519210409
 21
2123.1963266162002
 31
0.0
  0
LINE
  5
712D
  8
1
 10
858.02186519210409
 20
2123.196326616202
 30
0.0
 11
858.02186519210409
 21
2118.196326616202
 31
0.0
  0
ARC
  5
712E
  8
1
 10
836.02186519210409
 20
2117.196326616202
 30
0.0
 40
1.0
 50
90.0
 51
180.0
  0
LINE
  5
712F
  8
1
 10
879.02186519210409
 20
2123.196326616202
 30
0.0
 11
879.02186519210409
 21
2118.196326616202
 31
0.0
  0
LINE
  5
7130
  8
1
 10
886.02186519210409
 20
2123.1963266162002
 30
0.0
 11
851.02186519210409
 21
2123.1963266162002
 31
0.0
  0
LINE
  5
7131
  8
1
 10
891.02186519210397
 20
2130.9963266162031
 30
0.0
 11
891.02186519210397
 21
2128.1963266162002
 31
0.0
  0
ARC
  5
7132
  8
1
 10
1018.5218651921
 20
2147.9963266162008
 30
0.0
 40
3.0
 50
90.0
 51
180.0
  0
LINE
  5
7133
  8
1
 10
1015.5218651921
 20
2147.9963266162008
 30
0.0
 11
1015.5218651921
 21
2145.9963266162008
 31
0.0
  0
LINE
  5
7134
  8
1
 10
1015.5218651921
 20
2147.9963266162008
 30
0.0
 11
1015.5218651921
 21
2145.9963266162008
 31
0.0
  0
ARC
  5
7135
  8
1
 10
1012.5218651921
 20
2145.9963266162008
 30
0.0
 40
3.0
 50
270.0
 51
0.0
  0
ARC
  5
7136
  8
FUTO
 10
1066.5218651921041
 20
2162.9963266161999
 30
0.0
 40
12.0
 50
270.0
 51
0.0
  0
ARC
  5
7137
  8
FUTO
 10
1066.5218651921041
 20
2162.9963266161999
 30
0.0
 40
11.0
 50
270.0
 51
0.0
  0
LINE
  5
7138
  8
CT
 10
1045.5218651921091
 20
2110.809240600935
 30
0.0
 11
1045.5218651921091
 21
2135.1834126314639
 31
0.0
  0
LINE
  5
7139
  8
CT
 10
1033.334779176844
 20
2122.996326616199
 30
0.0
 11
1057.708951207374
 21
2122.996326616199
 31
0.0
  0
CIRCLE
  5
713A
  8
FUTO
 10
1045.5218651921091
 20
2122.996326616199
 30
0.0
 40
6.0
  0
LINE
  5
713B
  8
FUTO
 10
724.52186519210409
 20
2340.9963266162022
 30
0.0
 11
1012.5218651921
 21
2340.9963266162022
 31
0.0
  0
ARC
  5
713C
  8
1
 10
718.52186519210397
 20
2335.9963266161999
 30
0.0
 40
3.0
 50
270.0
 51
0.0
  0
LINE
  5
713D
  8
1
 10
721.52186519210397
 20
2335.9963266161999
 30
0.0
 11
721.52186519210397
 21
2337.9963266161999
 31
0.0
  0
LINE
  5
713E
  8
1
 10
721.52186519210397
 20
2335.9963266161999
 30
0.0
 11
721.52186519210397
 21
2337.9963266161999
 31
0.0
  0
ARC
  5
713F
  8
1
 10
724.52186519210409
 20
2337.9963266161999
 30
0.0
 40
3.0
 50
90.0
 51
180.0
  0
ARC
  5
7140
  8
1
 10
1018.5218651921
 20
2335.9963266161999
 30
0.0
 40
3.0
 50
180.0
 51
270.0
  0
ARC
  5
7141
  8
1
 10
1012.5218651921
 20
2337.9963266161999
 30
0.0
 40
3.0
 50
0.0
 51
90.0
  0
LINE
  5
7142
  8
1
 10
1015.5218651921
 20
2335.9963266161999
 30
0.0
 11
1015.5218651921
 21
2337.9963266161999
 31
0.0
  0
LINE
  5
7143
  8
1
 10
1015.5218651921
 20
2335.9963266161999
 30
0.0
 11
1015.5218651921
 21
2337.9963266161999
 31
0.0
  0
ARC
  5
7144
  8
FUTO
 10
1066.5218651921041
 20
2320.9963266162008
 30
0.0
 40
12.0
 50
0.0
 51
90.0
  0
ARC
  5
7145
  8
FUTO
 10
1066.5218651921041
 20
2320.9963266162008
 30
0.0
 40
11.0
 50
0.0
 51
90.0
  0
LINE
  5
7146
  8
1
 10
668.52186519210215
 20
2351.9963266161999
 30
0.0
 11
669.52186519210215
 21
2351.9963266161999
 31
0.0
  0
ENDSEC
  0
EOF
