  0
SECTION
  2
HEADER
  9
$ACADVER
  1
AC1009
  9
$INSBASE
 10
0.0
 20
0.0
 30
0.0
  9
$EXTMIN
 10
183.62393455595441
 20
96.092404061039474
 30
0.0
  9
$EXTMAX
 10
2283.6239345559538
 20
3046.0924040610389
 30
0.0
  9
$LIMMIN
 10
0.0
 20
0.0
  9
$LIMMAX
 10
297.0
 20
210.0
  9
$ORTHOMODE
 70
     0
  9
$REGENMODE
 70
     1
  9
$FILLMODE
 70
     1
  9
$QTEXTMODE
 70
     0
  9
$MIRRTEXT
 70
     0
  9
$DRAGMODE
 70
     2
  9
$LTSCALE
 40
50.0
  9
$OSMODE
 70
   545
  9
$ATTMODE
 70
     1
  9
$TEXTSIZE
 40
3.5
  9
$TRACEWID
 40
0.05
  9
$TEXTSTYLE
  7
STANDARD
  9
$CLAYER
  8
SP
  9
$CELTYPE
  6
BYLAYER
  9
$CECOLOR
 62
   256
  9
$DIMSCALE
 40
10.0
  9
$DIMASZ
 40
2.5
  9
$DIMEXO
 40
1.0
  9
$DIMDLI
 40
7.0
  9
$DIMRND
 40
0.0
  9
$DIMDLE
 40
0.0
  9
$DIMEXE
 40
1.0
  9
$DIMTP
 40
0.0
  9
$DIMTM
 40
0.0
  9
$DIMTXT
 40
3.0
  9
$DIMCEN
 40
0.0
  9
$DIMTSZ
 40
0.0
  9
$DIMTOL
 70
     0
  9
$DIMLIM
 70
     0
  9
$DIMTIH
 70
     0
  9
$DIMTOH
 70
     0
  9
$DIMSE1
 70
     0
  9
$DIMSE2
 70
     0
  9
$DIMTAD
 70
     1
  9
$DIMZIN
 70
     8
  9
$DIMBLK
  1

  9
$DIMASO
 70
     1
  9
$DIMSHO
 70
     1
  9
$DIMPOST
  1

  9
$DIMAPOST
  1

  9
$DIMALT
 70
     0
  9
$DIMALTD
 70
     2
  9
$DIMALTF
 40
0.03937
  9
$DIMLFAC
 40
1.0
  9
$DIMTOFL
 70
     1
  9
$DIMTVP
 40
0.0
  9
$DIMTIX
 70
     0
  9
$DIMSOXD
 70
     0
  9
$DIMSAH
 70
     1
  9
$DIMBLK1
  1
OPEN
  9
$DIMBLK2
  1
OPEN
  9
$DIMSTYLE
  2
GOD
  9
$DIMCLRD
 70
   256
  9
$DIMCLRE
 70
   256
  9
$DIMCLRT
 70
   256
  9
$DIMTFAC
 40
1.0
  9
$DIMGAP
 40
1.0
  9
$LUNITS
 70
     2
  9
$LUPREC
 70
     3
  9
$SKETCHINC
 40
0.1
  9
$FILLETRAD
 40
1.0
  9
$AUNITS
 70
     0
  9
$AUPREC
 70
     2
  9
$MENU
  1
acad
  9
$ELEVATION
 40
0.0
  9
$PELEVATION
 40
0.0
  9
$THICKNESS
 40
0.0
  9
$LIMCHECK
 70
     0
  9
$BLIPMODE
 70
     0
  9
$CHAMFERA
 40
0.0
  9
$CHAMFERB
 40
0.0
  9
$SKPOLY
 70
     0
  9
$TDCREATE
 40
2454940.4140922911
  9
$TDUPDATE
 40
2454953.8279958679
  9
$TDINDWG
 40
0.0553311458
  9
$TDUSRTIMER
 40
0.0553311458
  9
$USRTIMER
 70
     1
  9
$ANGBASE
 50
0.0
  9
$ANGDIR
 70
     0
  9
$PDMODE
 70
     0
  9
$PDSIZE
 40
1.0
  9
$PLINEWID
 40
0.0
  9
$COORDS
 70
     2
  9
$SPLFRAME
 70
     0
  9
$SPLINETYPE
 70
     6
  9
$SPLINESEGS
 70
     8
  9
$ATTDIA
 70
     0
  9
$ATTREQ
 70
     1
  9
$HANDLING
 70
 22529
  9
$HANDSEED
  5
6DA0
  9
$SURFTAB1
 70
     6
  9
$SURFTAB2
 70
     6
  9
$SURFTYPE
 70
     6
  9
$SURFU
 70
     6
  9
$SURFV
 70
     6
  9
$UCSNAME
  2

  9
$UCSORG
 10
0.0
 20
0.0
 30
0.0
  9
$UCSXDIR
 10
1.0
 20
0.0
 30
0.0
  9
$UCSYDIR
 10
0.0
 20
1.0
 30
0.0
  9
$PUCSNAME
  2

  9
$PUCSORG
 10
0.0
 20
0.0
 30
0.0
  9
$PUCSXDIR
 10
1.0
 20
0.0
 30
0.0
  9
$PUCSYDIR
 10
0.0
 20
1.0
 30
0.0
  9
$USERI1
 70
     0
  9
$USERI2
 70
     0
  9
$USERI3
 70
     0
  9
$USERI4
 70
     0
  9
$USERI5
 70
     0
  9
$USERR1
 40
0.0
  9
$USERR2
 40
0.0
  9
$USERR3
 40
0.0
  9
$USERR4
 40
0.0
  9
$USERR5
 40
0.0
  9
$WORLDVIEW
 70
     1
  9
$SHADEDGE
 70
     3
  9
$SHADEDIF
 70
    70
  9
$TILEMODE
 70
     1
  9
$MAXACTVP
 70
    16
  9
$PLIMCHECK
 70
     0
  9
$PEXTMIN
 10
1.0000000000000000E+020
 20
1.0000000000000000E+020
 30
1.0000000000000000E+020
  9
$PEXTMAX
 10
-1.0000000000000000E+020
 20
-1.0000000000000000E+020
 30
-1.0000000000000000E+020
  9
$PLIMMIN
 10
0.0
 20
0.0
  9
$PLIMMAX
 10
12.0
 20
9.0
  9
$UNITMODE
 70
     0
  9
$VISRETAIN
 70
     0
  9
$PLINEGEN
 70
     0
  9
$PSLTSCALE
 70
     0
  0
ENDSEC
  0
SECTION
  2
TABLES
  0
TABLE
  2
VPORT
 70
     2
  0
VPORT
  2
*ACTIVE
 70
     0
 10
0.0
 20
0.0
 11
1.0
 21
1.0
 12
1420.538766180365
 22
1571.036480284474
 13
0.0
 23
0.0
 14
5.0
 24
5.0
 15
0.0
 25
0.0
 16
0.0
 26
0.0
 36
1.0
 17
0.0
 27
0.0
 37
0.0
 40
2974.4847073829642
 41
1.6307901907356941
 42
50.0
 43
0.0
 44
0.0
 50
0.0
 51
0.0
 71
     0
 72
   100
 73
     1
 74
     0
 75
     0
 76
     0
 77
     0
 78
     0
  0
ENDTAB
  0
TABLE
  2
LTYPE
 70
     4
  0
LTYPE
  2
CONTINUOUS
 70
     0
  3
Solid line
 72
    65
 73
     0
 40
0.0
  0
LTYPE
  2
CENTER
 70
     0
  3
____ _ ____ _ ____ _ ____ _ ____ _ ____ _ ____ 
 72
    65
 73
     4
 40
2.0
 49
1.25
 49
-0.25
 49
0.25
 49
-0.25
  0
LTYPE
  2
HIDDEN
 70
     0
  3
__ __ __ __ __ __ __ __ __ __ __ __ __ __ __ __
 72
    65
 73
     2
 40
0.375
 49
0.25
 49
-0.125
  0
LTYPE
  2
PHANTOM
 70
     0
  3
______  __  __  ______  __  __  ______  __  __ 
 72
    65
 73
     6
 40
2.5
 49
1.25
 49
-0.25
 49
0.25
 49
-0.25
 49
0.25
 49
-0.25
  0
ENDTAB
  0
TABLE
  2
LAYER
 70
    13
  0
LAYER
  2
0
 70
     0
 62
     7
  6
CONTINUOUS
  0
LAYER
  2
CT
 70
     0
 62
     3
  6
CENTER
  0
LAYER
  2
FUTO
 70
     0
 62
     4
  6
CONTINUOUS
  0
LAYER
  2
HOSO
 70
     0
 62
     7
  6
CONTINUOUS
  0
LAYER
  2
KL
 70
     0
 62
     7
  6
HIDDEN
  0
LAYER
  2
MOJI
 70
     0
 62
     3
  6
CONTINUOUS
  0
LAYER
  2
SL
 70
     0
 62
     1
  6
PHANTOM
  0
LAYER
  2
SP
 70
     0
 62
     2
  6
CONTINUOUS
  0
LAYER
  2
DEFPOINTS
 70
     0
 62
     7
  6
CONTINUOUS
  0
LAYER
  2
3
 70
     0
 62
     2
  6
CONTINUOUS
  0
LAYER
  2
2
 70
     0
 62
     3
  6
CENTER
  0
LAYER
  2
1
 70
     0
 62
     4
  6
CONTINUOUS
  0
LAYER
  2
4
 70
     0
 62
     7
  6
CONTINUOUS
  0
ENDTAB
  0
TABLE
  2
STYLE
 70
     2
  0
STYLE
  2
STANDARD
 70
     0
 40
0.0
 41
1.0
 50
15.0
 71
     0
 42
3.5
  3
C:\Program Files\AutoCAD LT\simplex.shx
  4
C:\Program Files\AutoCAD LT\extfont.shx
  0
STYLE
  2
SUNPOU
 70
     0
 40
0.0
 41
1.0
 50
15.0
 71
     0
 42
30.0
  3
simplex.shx
  4
extfont.shx
  0
ENDTAB
  0
TABLE
  2
VIEW
 70
     0
  0
ENDTAB
  0
TABLE
  2
UCS
 70
     0
  0
ENDTAB
  0
TABLE
  2
APPID
 70
     1
  0
APPID
  2
ACAD
 70
     0
  0
ENDTAB
  0
TABLE
  2
DIMSTYLE
 70
     4
  0
DIMSTYLE
  2
STANDARD
 70
     0
  3

  4

  5

  6

  7

 40
1.0
 41
0.18
 42
0.0625
 43
0.38
 44
0.18
 45
0.0
 46
0.0
 47
0.0
 48
0.0
140
0.18
141
0.09
142
0.0
143
25.399999999999999
144
1.0
145
0.0
146
1.0
147
0.09
 71
     0
 72
     0
 73
     1
 74
     1
 75
     0
 76
     0
 77
     0
 78
     0
170
     0
171
     2
172
     0
173
     0
174
     0
175
     0
176
     0
177
     0
178
     0
  0
DIMSTYLE
  2
GOD
 70
     0
  3

  4

  5

  6
OPEN
  7
OPEN
 40
10.0
 41
2.5
 42
1.0
 43
7.0
 44
1.0
 45
0.0
 46
0.0
 47
0.0
 48
0.0
140
3.0
141
0.0
142
0.0
143
0.03937
144
1.0
145
0.0
146
1.0
147
1.0
 71
     0
 72
     0
 73
     0
 74
     0
 75
     0
 76
     0
 77
     1
 78
     8
170
     0
171
     2
172
     1
173
     1
174
     0
175
     0
176
   256
177
   256
178
   256
  0
DIMSTYLE
  2
IGA
 70
     0
  3

  4

  5

  6
OPEN
  7
OPEN
 40
2.0
 41
2.0
 42
0.5
 43
10.0
 44
1.0
 45
0.0
 46
0.0
 47
1.0
 48
1.0
140
3.0
141
0.0
142
0.0
143
0.03937
144
1.0
145
0.0
146
10.0
147
1.0
 71
     0
 72
     0
 73
     0
 74
     0
 75
     0
 76
     0
 77
     1
 78
     8
170
     0
171
     2
172
     0
173
     1
174
     0
175
     0
176
     0
177
     0
178
     0
  0
DIMSTYLE
  2
MATSU
 70
     0
  3

  4

  5

  6
OPEN
  7
OPEN
 40
1.0
 41
2.0
 42
1.0
 43
10.0
 44
1.0
 45
0.0
 46
0.0
 47
0.0
 48
0.0
140
3.0
141
0.0
142
0.0
143
0.03937
144
1.0
145
0.0
146
1.0
147
0.5
 71
     0
 72
     0
 73
     0
 74
     0
 75
     0
 76
     0
 77
     1
 78
     8
170
     0
171
     2
172
     1
173
     1
174
     0
175
     0
176
   256
177
   256
178
   256
  0
ENDTAB
  0
ENDSEC
  0
SECTION
  2
BLOCKS
  0
BLOCK
  8
0
  2
$MODEL_SPACE
 70
     0
 10
0.0
 20
0.0
 30
0.0
  3
$MODEL_SPACE
  1

  0
ENDBLK
  5
1B
  8
0
  0
BLOCK
 67
     1
  8
0
  2
$PAPER_SPACE
 70
     0
 10
0.0
 20
0.0
 30
0.0
  3
$PAPER_SPACE
  1

  0
ENDBLK
  5
18
 67
     1
  8
0
  0
BLOCK
  8
0
  2
_OPEN
 70
     0
 10
0.0
 20
0.0
 30
0.0
  3
_OPEN
  1

  0
LINE
  5
1E81
  8
0
  6
BYBLOCK
 62
     0
 10
-1.0
 20
0.1666666666666666
 30
0.0
 11
0.0
 21
0.0
 31
0.0
  0
LINE
  5
1E82
  8
0
  6
BYBLOCK
 62
     0
 10
0.0
 20
0.0
 30
0.0
 11
-1.0
 21
-0.1666666666666666
 31
0.0
  0
LINE
  5
1E83
  8
0
  6
BYBLOCK
 62
     0
 10
0.0
 20
0.0
 30
0.0
 11
-1.0
 21
0.0
 31
0.0
  0
ENDBLK
  5
1E84
  8
0
  0
BLOCK
  8
0
  2
_DOT
 70
     0
 10
0.0
 20
0.0
 30
0.0
  3
_DOT
  1

  0
LINE
  5
1EC3
  8
0
  6
BYBLOCK
 62
     0
 10
0.0
 20
0.0
 30
0.0
 11
-1.0
 21
-0.0000000000000284
 31
0.0
  0
POLYLINE
  5
1EC4
  8
0
  6
BYBLOCK
 62
     0
 66
     1
 10
0.0
 20
0.0
 30
0.0
 70
     1
 40
0.1666666666666666
 41
0.1666666666666666
  0
VERTEX
  5
6D9D
  8
0
  6
BYBLOCK
 62
     0
 10
-0.0833333333333286
 20
-0.0000000000000284
 30
0.0
 42
1.0
  0
VERTEX
  5
6D9E
  8
0
  6
BYBLOCK
 62
     0
 10
0.0833333333333286
 20
-0.0000000000000284
 30
0.0
 42
1.0
  0
SEQEND
  5
6D9F
  8
0
  6
BYBLOCK
 62
     0
  0
ENDBLK
  5
1EB8
  8
0
  0
BLOCK
  8
0
  2
*D2
 70
     1
 10
0.0
 20
0.0
 30
0.0
  3
*D2
  1

  0
LINE
  5
5685
  8
SP
 10
-1699.9142715201349
 20
823.03013774616693
 30
0.0
 11
-1699.9142715201349
 21
683.03013774616704
 31
0.0
  0
LINE
  5
5686
  8
SP
 10
-2079.914271520136
 20
823.03013774616522
 30
0.0
 11
-2079.914271520136
 21
683.03013774616704
 31
0.0
  0
LINE
  5
5687
  8
SP
 10
-1724.9142715201349
 20
693.03013774616704
 30
0.0
 11
-2054.914271520136
 21
693.03013774616704
 31
0.0
  0
INSERT
  5
5688
  8
SP
  2
_OPEN
 10
-1699.9142715201349
 20
693.03013774616704
 30
0.0
 41
25.0
 42
25.0
 43
25.0
  0
INSERT
  5
5689
  8
SP
  2
_OPEN
 10
-2079.914271520136
 20
693.03013774616704
 30
0.0
 41
25.0
 42
25.0
 43
25.0
 50
180.0
  0
TEXT
  5
568A
  8
SP
 10
-1931.790652263745
 20
703.03013774616704
 30
0.0
 40
30.0
  1
380
 51
15.0
  0
POINT
  5
568B
  8
DEFPOINTS
 62
     0
 10
-1699.9142715201349
 20
833.03013774616716
 30
0.0
  0
POINT
  5
568C
  8
DEFPOINTS
 62
     0
 10
-2079.914271520136
 20
833.03013774616511
 30
0.0
  0
POINT
  5
568D
  8
DEFPOINTS
 62
     0
 10
-2079.914271520136
 20
693.03013774616704
 30
0.0
  0
ENDBLK
  5
568F
  8
0
  0
BLOCK
  8
0
  2
*D3
 70
     1
 10
0.0
 20
0.0
 30
0.0
  3
*D3
  1

  0
LINE
  5
5691
  8
SP
 10
-2079.914271520136
 20
823.03013774616522
 30
0.0
 11
-2079.914271520136
 21
753.03013774616522
 31
0.0
  0
LINE
  5
5692
  8
SP
 10
-1889.9142715201349
 20
797.34538072303258
 30
0.0
 11
-1889.9142715201349
 21
753.03013774616522
 31
0.0
  0
LINE
  5
5693
  8
SP
 10
-2054.914271520136
 20
763.03013774616522
 30
0.0
 11
-1914.9142715201349
 21
763.03013774616522
 31
0.0
  0
INSERT
  5
5694
  8
SP
  2
_OPEN
 10
-2079.914271520136
 20
763.03013774616522
 30
0.0
 41
25.0
 42
25.0
 43
25.0
 50
180.0
  0
INSERT
  5
5695
  8
SP
  2
_OPEN
 10
-1889.9142715201349
 20
763.03013774616522
 30
0.0
 41
25.0
 42
25.0
 43
25.0
  0
TEXT
  5
5696
  8
SP
 10
-2026.421609050605
 20
773.03013774616522
 30
0.0
 40
30.0
  1
190
 51
15.0
  0
POINT
  5
5697
  8
DEFPOINTS
 62
     0
 10
-2079.914271520136
 20
833.03013774616511
 30
0.0
  0
POINT
  5
5698
  8
DEFPOINTS
 62
     0
 10
-1889.9142715201349
 20
807.34538072303246
 30
0.0
  0
POINT
  5
5699
  8
DEFPOINTS
 62
     0
 10
-1889.9142715201349
 20
763.03013774616522
 30
0.0
  0
ENDBLK
  5
569B
  8
0
  0
BLOCK
  8
0
  2
*D4
 70
     1
 10
0.0
 20
0.0
 30
0.0
  3
*D4
  1

  0
LINE
  5
569D
  8
SP
 10
-1889.9142715201349
 20
797.34538072303258
 30
0.0
 11
-1889.9142715201349
 21
753.03013774616704
 31
0.0
  0
LINE
  5
569E
  8
SP
 10
-1699.9142715201349
 20
823.03013774616693
 30
0.0
 11
-1699.9142715201349
 21
753.03013774616704
 31
0.0
  0
LINE
  5
569F
  8
SP
 10
-1864.9142715201349
 20
763.03013774616704
 30
0.0
 11
-1724.9142715201349
 21
763.03013774616704
 31
0.0
  0
INSERT
  5
56A0
  8
SP
  2
_OPEN
 10
-1889.9142715201349
 20
763.03013774616704
 30
0.0
 41
25.0
 42
25.0
 43
25.0
 50
180.0
  0
INSERT
  5
56A1
  8
SP
  2
_OPEN
 10
-1699.9142715201349
 20
763.03013774616704
 30
0.0
 41
25.0
 42
25.0
 43
25.0
  0
TEXT
  5
56A2
  8
SP
 10
-1836.4216090506061
 20
773.03013774616704
 30
0.0
 40
30.0
  1
190
 51
15.0
  0
POINT
  5
56A3
  8
DEFPOINTS
 62
     0
 10
-1889.9142715201349
 20
807.34538072303246
 30
0.0
  0
POINT
  5
56A4
  8
DEFPOINTS
 62
     0
 10
-1699.9142715201349
 20
833.03013774616716
 30
0.0
  0
POINT
  5
56A5
  8
DEFPOINTS
 62
     0
 10
-1699.9142715201349
 20
763.03013774616704
 30
0.0
  0
ENDBLK
  5
56A7
  8
0
  0
BLOCK
  8
0
  2
*D5
 70
     1
 10
0.0
 20
0.0
 30
0.0
  3
*D5
  1

  0
LINE
  5
56A9
  8
SP
 10
-2139.9142715201351
 20
1298.030137746166
 30
0.0
 11
-2139.9142715201351
 21
1368.030137746166
 31
0.0
  0
LINE
  5
56AA
  8
SP
 10
-1889.9142715201349
 20
1307.8065568904919
 30
0.0
 11
-1889.9142715201349
 21
1368.030137746166
 31
0.0
  0
LINE
  5
56AB
  8
SP
 10
-2114.9142715201351
 20
1358.030137746166
 30
0.0
 11
-1914.9142715201349
 21
1358.030137746166
 31
0.0
  0
INSERT
  5
56AC
  8
SP
  2
_OPEN
 10
-2139.9142715201351
 20
1358.030137746166
 30
0.0
 41
25.0
 42
25.0
 43
25.0
 50
180.0
  0
INSERT
  5
56AD
  8
SP
  2
_OPEN
 10
-1889.9142715201349
 20
1358.030137746166
 30
0.0
 41
25.0
 42
25.0
 43
25.0
  0
TEXT
  5
56AE
  8
SP
 10
-2056.0250831425128
 20
1368.030137746166
 30
0.0
 40
30.0
  1
250
 51
15.0
  0
POINT
  5
56AF
  8
DEFPOINTS
 62
     0
 10
-2139.9142715201351
 20
1288.030137746166
 30
0.0
  0
POINT
  5
56B0
  8
DEFPOINTS
 62
     0
 10
-1889.9142715201349
 20
1297.8065568904919
 30
0.0
  0
POINT
  5
56B1
  8
DEFPOINTS
 62
     0
 10
-1889.9142715201349
 20
1358.030137746166
 30
0.0
  0
ENDBLK
  5
56B3
  8
0
  0
BLOCK
  8
0
  2
*D6
 70
     1
 10
0.0
 20
0.0
 30
0.0
  3
*D6
  1

  0
LINE
  5
56B5
  8
SP
 10
-1889.9142715201349
 20
1307.8065568904919
 30
0.0
 11
-1889.9142715201349
 21
1368.030137746166
 31
0.0
  0
LINE
  5
56B6
  8
SP
 10
-1713.9142715201349
 20
1081.0301377461669
 30
0.0
 11
-1713.9142715201349
 21
1368.030137746166
 31
0.0
  0
LINE
  5
56B7
  8
SP
 10
-1864.9142715201349
 20
1358.030137746166
 30
0.0
 11
-1738.9142715201349
 21
1358.030137746166
 31
0.0
  0
INSERT
  5
56B8
  8
SP
  2
_OPEN
 10
-1889.9142715201349
 20
1358.030137746166
 30
0.0
 41
25.0
 42
25.0
 43
25.0
 50
180.0
  0
INSERT
  5
56B9
  8
SP
  2
_OPEN
 10
-1713.9142715201349
 20
1358.030137746166
 30
0.0
 41
25.0
 42
25.0
 43
25.0
  0
TEXT
  5
56BA
  8
SP
 10
-1842.8987156166279
 20
1368.030137746166
 30
0.0
 40
30.0
  1
176
 51
15.0
  0
POINT
  5
56BB
  8
DEFPOINTS
 62
     0
 10
-1889.9142715201349
 20
1297.8065568904919
 30
0.0
  0
POINT
  5
56BC
  8
DEFPOINTS
 62
     0
 10
-1713.9142715201349
 20
1071.0301377461669
 30
0.0
  0
POINT
  5
56BD
  8
DEFPOINTS
 62
     0
 10
-1713.9142715201349
 20
1358.030137746166
 30
0.0
  0
ENDBLK
  5
56BF
  8
0
  0
BLOCK
  8
0
  2
*D7
 70
     1
 10
0.0
 20
0.0
 30
0.0
  3
*D7
  1

  0
LINE
  5
56C1
  8
SP
 10
-2184.1007564974338
 20
1088.030137746166
 30
0.0
 11
-2249.3805561714089
 21
1088.030137746166
 31
0.0
  0
LINE
  5
56C2
  8
SP
 10
-2170.9142715201351
 20
1288.0301377461669
 30
0.0
 11
-2249.3805561714089
 21
1288.0301377461669
 31
0.0
  0
LINE
  5
56C3
  8
SP
 10
-2239.3805561714089
 20
1113.0301377461669
 30
0.0
 11
-2239.3805561714089
 21
1263.0301377461669
 31
0.0
  0
INSERT
  5
56C4
  8
SP
  2
_OPEN
 10
-2239.3805561714089
 20
1088.030137746166
 30
0.0
 41
25.0
 42
25.0
 43
25.0
 50
270.0
  0
INSERT
  5
56C5
  8
SP
  2
_OPEN
 10
-2239.3805561714089
 20
1288.0301377461669
 30
0.0
 41
25.0
 42
25.0
 43
25.0
 50
90.0
  0
TEXT
  5
56C6
  8
SP
 10
-2249.3805561714089
 20
1146.9193261237881
 30
0.0
 40
30.0
  1
200
 50
90.0
 51
15.0
  0
POINT
  5
56C7
  8
DEFPOINTS
 62
     0
 10
-2174.1007564974352
 20
1088.030137746166
 30
0.0
  0
POINT
  5
56C8
  8
DEFPOINTS
 62
     0
 10
-2160.9142715201351
 20
1288.0301377461669
 30
0.0
  0
POINT
  5
56C9
  8
DEFPOINTS
 62
     0
 10
-2239.3805561714089
 20
1288.0301377461669
 30
0.0
  0
ENDBLK
  5
56CB
  8
0
  0
BLOCK
  8
0
  2
*D8
 70
     1
 10
0.0
 20
0.0
 30
0.0
  3
*D8
  1

  0
LINE
  5
56CD
  8
SP
 10
-2184.1007564974338
 20
1088.030137746166
 30
0.0
 11
-2249.3805561714089
 21
1088.030137746166
 31
0.0
  0
LINE
  5
56CE
  8
SP
 10
-2089.914271520136
 20
833.03013774616511
 30
0.0
 11
-2249.3805561714089
 21
833.03013774616511
 31
0.0
  0
LINE
  5
56CF
  8
SP
 10
-2239.3805561714089
 20
1063.0301377461669
 30
0.0
 11
-2239.3805561714089
 21
858.03013774616511
 31
0.0
  0
INSERT
  5
56D0
  8
SP
  2
_OPEN
 10
-2239.3805561714089
 20
1088.030137746166
 30
0.0
 41
25.0
 42
25.0
 43
25.0
 50
90.0
  0
INSERT
  5
56D1
  8
SP
  2
_OPEN
 10
-2239.3805561714089
 20
833.03013774616511
 30
0.0
 41
25.0
 42
25.0
 43
25.0
 50
270.0
  0
TEXT
  5
56D2
  8
SP
 10
-2249.3805561714089
 20
919.36804271684161
 30
0.0
 40
30.0
  1
255
 50
90.0
 51
15.0
  0
POINT
  5
56D3
  8
DEFPOINTS
 62
     0
 10
-2174.1007564974352
 20
1088.030137746166
 30
0.0
  0
POINT
  5
56D4
  8
DEFPOINTS
 62
     0
 10
-2079.914271520136
 20
833.03013774616511
 30
0.0
  0
POINT
  5
56D5
  8
DEFPOINTS
 62
     0
 10
-2239.3805561714089
 20
833.03013774616511
 30
0.0
  0
ENDBLK
  5
56D7
  8
0
  0
BLOCK
  8
0
  2
A$C44EA23BE
 70
     0
 10
0.0
 20
0.0
 30
0.0
  3
A$C44EA23BE
  1

  0
DIMENSION
  5
56D9
  8
SP
  2
*D8
 10
-349.46628465127378
 20
-255.00000000000171
 30
0.0
 11
-374.46628465127378
 21
-127.50000000000119
 31
0.0
 12
1889.9142715201349
 22
-1088.030137746166
 32
0.0
  3
GOD
 13
-284.18648497729919
 23
0.0
 33
0.0
 14
-190.00000000000091
 24
-255.00000000000171
 34
0.0
 50
90.0
  0
ARC
  5
56DA
  8
FUTO
 10
-17.0
 20
-17.0
 30
0.0
 40
203.0
 50
269.572081032222
 51
0.4673217049947748
  0
ARC
  5
56DB
  8
FUTO
 10
-20.0
 20
20.0
 30
0.0
 40
240.0
 50
180.0
 51
270.39182689926031
  0
ARC
  5
56DC
  8
FUTO
 10
-17.0
 20
-17.0
 30
0.0
 40
193.0
 50
269.572081032222
 51
0.4673217049947748
  0
ARC
  5
56DD
  8
FUTO
 10
-20.0
 20
20.0
 30
0.0
 40
230.0
 50
180.0
 51
270.39182689926031
  0
LINE
  5
56DE
  8
2
 10
0.0
 20
-280.6847570231343
 30
0.0
 11
0.0
 21
209.77641914432559
 31
0.0
  0
LINE
  5
56DF
  8
1
 10
157.69999999999891
 20
66.099999999998545
 30
0.0
 11
157.69999999999891
 21
-255.00000000000179
 31
0.0
  0
LINE
  5
56E0
  8
1
 10
160.0
 20
66.099999999998545
 30
0.0
 11
160.0
 21
-252.7000000000007
 31
0.0
  0
LINE
  5
56E1
  8
1
 10
-157.69999999999979
 20
66.099999999998545
 30
0.0
 11
-157.69999999999979
 21
-255.00000000000179
 31
0.0
  0
LINE
  5
56E2
  8
1
 10
-160.0
 20
66.099999999998545
 30
0.0
 11
-159.99999999999901
 21
-252.69999999999891
 31
0.0
  0
ARC
  5
56E3
  8
1
 10
0.0
 20
0.0
 30
0.0
 40
85.0
 50
0.0
 51
244.12446600000609
  0
CIRCLE
  5
56E4
  8
2
 10
0.0
 20
0.0
 30
0.0
 40
136.0
  0
ARC
  5
56E5
  8
1
 10
0.0
 20
0.0
 30
0.0
 40
85.000007999999994
 50
295.91772599999888
 51
0.0
  0
DIMENSION
  5
56E6
  8
SP
  2
*D2
 10
-190.00000000000091
 20
-394.99999999999977
 30
0.0
 11
-0.0000000000004547
 21
-369.99999999999977
 31
0.0
 12
1889.9142715201349
 22
-1088.030137746166
 32
0.0
  3
GOD
 13
190.0
 23
-254.9999999999998
 33
0.0
 14
-190.00000000000091
 24
-255.00000000000171
 34
0.0
  0
DIMENSION
  5
56E7
  8
SP
  2
*D4
 10
190.0
 20
-324.99999999999989
 30
0.0
 11
95.0
 21
-299.99999999999989
 31
0.0
 12
1889.9142715201349
 22
-1088.030137746166
 32
0.0
  3
GOD
 13
0.0
 23
-280.6847570231343
 33
0.0
 14
190.0
 24
-254.9999999999998
 34
0.0
  0
DIMENSION
  5
56E8
  8
SP
  2
*D3
 10
0.0
 20
-325.00000000000171
 30
0.0
 11
-95.000000000000455
 21
-300.00000000000171
 31
0.0
 12
1889.9142715201349
 22
-1088.030137746166
 32
0.0
  3
GOD
 13
-190.00000000000091
 23
-255.00000000000171
 33
0.0
 14
0.0
 24
-280.6847570231343
 34
0.0
  0
LINE
  5
56E9
  8
FUTO
 10
-132.69999999999979
 20
-105.0
 30
0.0
 11
-157.69999999999891
 21
-80.0
 31
0.0
  0
LINE
  5
56EA
  8
1
 10
-157.69999999999891
 20
-203.9999999999998
 30
0.0
 11
-132.7000000000007
 21
-203.9999999999998
 31
0.0
  0
LINE
  5
56EB
  8
1
 10
-190.00000000000091
 20
-255.00000000000179
 30
0.0
 11
190.0
 21
-255.0
 31
0.0
  0
LINE
  5
56EC
  8
1
 10
-157.69999999999891
 20
-80.0
 30
0.0
 11
157.69999999999891
 21
-80.0
 31
0.0
  0
LINE
  5
56ED
  8
2
 10
-176.99999999999901
 20
-268.98279906584588
 30
0.0
 11
-176.99999999999901
 21
-242.69999999999879
 31
0.0
  0
LINE
  5
56EE
  8
1
 10
-190.00000000000091
 20
-255.00000000000179
 30
0.0
 11
-190.00000000000179
 21
-252.7000000000007
 31
0.0
  0
LINE
  5
56EF
  8
1
 10
-190.00000000000091
 20
-252.7000000000007
 30
0.0
 11
-159.99999999999901
 21
-252.69999999999891
 31
0.0
  0
LINE
  5
56F0
  8
1
 10
132.699999999997
 20
-105.0
 30
0.0
 11
132.699999999997
 21
-203.9999999999998
 31
0.0
  0
LINE
  5
56F1
  8
1
 10
-132.69999999999979
 20
-105.0
 30
0.0
 11
-132.69999999999979
 21
-203.9999999999998
 31
0.0
  0
LINE
  5
56F2
  8
1
 10
132.699999999997
 20
-203.9999999999998
 30
0.0
 11
157.69999999999891
 21
-203.9999999999998
 31
0.0
  0
LINE
  5
56F3
  8
1
 10
190.0
 20
-255.0
 30
0.0
 11
190.0
 21
-252.69999999999891
 31
0.0
  0
LINE
  5
56F4
  8
2
 10
176.9999999999981
 20
-267.91032669659847
 30
0.0
 11
177.0
 21
-242.7000000000007
 31
0.0
  0
LINE
  5
56F5
  8
1
 10
160.0
 20
-252.69999999999891
 30
0.0
 11
190.0
 21
-252.7000000000007
 31
0.0
  0
LINE
  5
56F6
  8
FUTO
 10
132.69999999999979
 20
-105.0
 30
0.0
 11
157.69999999999891
 21
-80.0
 31
0.0
  0
LINE
  5
56F7
  8
1
 10
-132.69999999999979
 20
-105.0
 30
0.0
 11
132.69999999999891
 21
-105.0
 31
0.0
  0
LINE
  5
56F8
  8
CT
 10
-57.086121054688192
 20
-137.8180876735004
 30
0.0
 11
-46.574035520656253
 21
-112.43966820841879
 31
0.0
  0
CIRCLE
  5
56F9
  8
1
 10
-52.044946801652252
 20
-125.64761642153459
 30
0.0
 40
4.0
  0
LINE
  5
56FA
  8
CT
 10
57.086121054688192
 20
-137.8180876735004
 30
0.0
 11
46.574035520658072
 21
-112.43966820841879
 31
0.0
  0
CIRCLE
  5
56FB
  8
1
 10
52.044946801652252
 20
-125.64761642153459
 30
0.0
 40
4.0
  0
LINE
  5
56FC
  8
1
 10
-37.095498999999108
 20
-76.450928000000204
 30
0.0
 11
37.151808999999041
 21
-76.450928000000204
 31
0.0
  0
LINE
  5
56FD
  8
1
 10
-82.5
 20
-78.34088200000042
 30
0.0
 11
82.500029999999242
 21
-78.34088200000042
 31
0.0
  0
LINE
  5
56FE
  8
CT
 10
-62.5
 20
-82.218586000000869
 30
0.0
 11
-62.5
 21
-73.631579000000784
 31
0.0
  0
LINE
  5
56FF
  8
CT
 10
-137.8180876735004
 20
-57.086121054690011
 30
0.0
 11
-112.439668208417
 21
-46.574035520658072
 31
0.0
  0
ARC
  5
5700
  8
1
 10
-52.365203999999721
 20
-70.5
 30
0.0
 40
5.0
 50
270.0
 51
324.46176099999479
  0
LINE
  5
5701
  8
1
 10
-46.623938000000628
 20
-71.064478000000236
 30
0.0
 11
-48.296539999999368
 21
-73.40625
 31
0.0
  0
LINE
  5
5702
  8
1
 10
-77.833160999999564
 20
-75.505370999999286
 30
0.0
 11
-62.323167999999889
 21
-57.818504000000758
 31
0.0
  0
LINE
  5
5703
  8
1
 10
-82.5
 20
-75.5
 30
0.0
 11
-52.36517399999866
 21
-75.5
 31
0.0
  0
CIRCLE
  5
5704
  8
1
 10
-125.64761642153459
 20
-52.044946801652252
 30
0.0
 40
4.0
  0
ARC
  5
5705
  8
1
 10
0.0
 20
0.0
 30
0.0
 40
85.0
 50
236.73178133170779
 51
244.12446600000609
  0
LINE
  5
5706
  8
1
 10
-42.5
 20
-78.34088200000042
 30
0.0
 11
-42.5
 21
-80.0
 31
0.0
  0
LINE
  5
5707
  8
1
 10
-77.5
 20
-78.34088200000042
 30
0.0
 11
-77.5
 21
-80.0
 31
0.0
  0
LINE
  5
5708
  8
1
 10
-82.5
 20
-78.34088200000042
 30
0.0
 11
-82.5
 21
-75.5
 31
0.0
  0
LINE
  5
5709
  8
CT
 10
137.8180876735004
 20
-57.086121054688192
 30
0.0
 11
112.439668208417
 21
-46.574035520658072
 31
0.0
  0
LINE
  5
570A
  8
CT
 10
62.5
 20
-82.218586000000869
 30
0.0
 11
62.5
 21
-73.631579000000784
 31
0.0
  0
LINE
  5
570B
  8
1
 10
82.500029999999242
 20
-75.5
 30
0.0
 11
52.365203999999721
 21
-75.5
 31
0.0
  0
LINE
  5
570C
  8
1
 10
77.834367999999813
 20
-75.506824000000051
 30
0.0
 11
62.32130799999868
 21
-57.816361999999572
 31
0.0
  0
LINE
  5
570D
  8
1
 10
47.508270000000259
 20
-72.302612999999837
 30
0.0
 11
48.296538999999029
 21
-73.40625
 31
0.0
  0
LINE
  5
570E
  8
1
 10
46.631551000000393
 20
-71.075138000000152
 30
0.0
 11
48.296538999999029
 21
-73.40625
 31
0.0
  0
ARC
  5
570F
  8
1
 10
52.365203999999721
 20
-70.5
 30
0.0
 40
5.000032
 50
215.53825399999309
 51
270.0
  0
LINE
  5
5710
  8
1
 10
77.5
 20
-78.34088200000042
 30
0.0
 11
77.5
 21
-80.0
 31
0.0
  0
LINE
  5
5711
  8
1
 10
42.5
 20
-78.34088200000042
 30
0.0
 11
42.5
 21
-80.0
 31
0.0
  0
LINE
  5
5712
  8
1
 10
82.500029999999242
 20
-75.5
 30
0.0
 11
82.500029999999242
 21
-78.34088200000042
 31
0.0
  0
CIRCLE
  5
5713
  8
1
 10
125.64761642153459
 20
-52.044946801652252
 30
0.0
 40
4.0
  0
DIMENSION
  5
5714
  8
SP
  2
*D7
 10
-349.46628465127333
 20
200.0
 30
0.0
 11
-374.46628465127378
 21
99.999999999999787
 31
0.0
 12
1889.9142715201349
 22
-1088.030137746166
 32
0.0
  3
GOD
 13
-284.18648497729919
 23
0.0
 33
0.0
 14
-271.0
 24
200.0
 34
0.0
 50
90.0
  0
DIMENSION
  5
5715
  8
SP
  2
*D6
 10
176.0
 20
269.99999999999898
 30
0.0
 11
88.0
 21
294.99999999999898
 31
0.0
 12
1889.9142715201349
 22
-1088.030137746166
 32
0.0
  3
GOD
 13
0.0
 23
209.77641914432559
 33
0.0
 14
176.0
 24
-17.0
 34
0.0
  0
LINE
  5
5716
  8
FUTO
 10
-250.99998456825821
 20
199.99444453017639
 30
0.0
 11
-249.99998456825821
 21
19.99444453017281
 31
0.0
  0
LINE
  5
5717
  8
FUTO
 10
-251.0
 20
200.0
 30
0.0
 11
-251.0
 21
180.0
 31
0.0
  0
LINE
  5
5718
  8
FUTO
 10
-252.0
 20
199.0
 30
0.0
 11
-252.0
 21
180.0
 31
0.0
  0
LINE
  5
5719
  8
FUTO
 10
-249.0
 20
198.0
 30
0.0
 11
-231.0
 21
180.0
 31
0.0
  0
LINE
  5
571A
  8
FUTO
 10
0.0
 20
180.0
 30
0.0
 11
0.0
 21
200.0
 31
0.0
  0
LINE
  5
571B
  8
FUTO
 10
1.0
 20
200.0
 30
0.0
 11
1.0
 21
180.0
 31
0.0
  0
LINE
  5
571C
  8
FUTO
 10
2.0
 20
199.0
 30
0.0
 11
2.0
 21
180.0
 31
0.0
  0
LINE
  5
571D
  8
FUTO
 10
-1.0
 20
198.0
 30
0.0
 11
-19.0
 21
180.0
 31
0.0
  0
LINE
  5
571E
  8
FUTO
 10
-231.0
 20
180.0
 30
0.0
 11
-19.0
 21
180.0
 31
0.0
  0
LINE
  5
571F
  8
1
 10
-60.0
 20
150.0
 30
0.0
 11
-158.39999999999961
 21
66.099999999998545
 31
0.0
  0
LINE
  5
5720
  8
2
 10
-284.18648497729919
 20
0.0
 30
0.0
 11
210.14761457335041
 21
-0.000000000001819
 31
0.0
  0
LINE
  5
5721
  8
FUTO
 10
-260.8890586406655
 20
180.0
 30
0.0
 11
-259.99983025084288
 21
19.938889831936191
 31
0.0
  0
LINE
  5
5722
  8
1
 10
-160.0
 20
66.099999999998545
 30
0.0
 11
-158.39999999999961
 21
66.099999999998545
 31
0.0
  0
LINE
  5
5723
  8
FUTO
 10
-260.8890586406655
 20
180.0
 30
0.0
 11
-250.88890432086819
 21
180.0
 31
0.0
  0
ARC
  5
5724
  8
FUTO
 10
14.0
 20
-14.0
 30
0.0
 40
172.0
 50
359.4896667551933
 51
78.450738176447032
  0
ARC
  5
5725
  8
FUTO
 10
14.0
 20
-14.0
 30
0.0
 40
162.0
 50
359.4896667551933
 51
78.450738176447032
  0
LINE
  5
5726
  8
1
 10
60.0
 20
150.0
 30
0.0
 11
158.39999999999961
 21
66.099999999998545
 31
0.0
  0
LINE
  5
5727
  8
CT
 10
-137.8180876735004
 20
57.086121054686373
 30
0.0
 11
-112.439668208417
 21
46.574035520658072
 31
0.0
  0
CIRCLE
  5
5728
  8
1
 10
-125.64761642153459
 20
52.044946801652252
 30
0.0
 40
4.0
  0
LINE
  5
5729
  8
CT
 10
137.8180876735004
 20
57.086121054686373
 30
0.0
 11
112.439668208417
 21
46.574035520658072
 31
0.0
  0
CIRCLE
  5
572A
  8
1
 10
125.64761642153459
 20
52.044946801652252
 30
0.0
 40
4.0
  0
LINE
  5
572B
  8
1
 10
158.39999999999961
 20
66.099999999998545
 30
0.0
 11
160.0
 21
66.099999999998545
 31
0.0
  0
LINE
  5
572C
  8
CT
 10
57.086121054688192
 20
137.81808767349861
 30
0.0
 11
46.574035520656253
 21
112.439668208417
 31
0.0
  0
LINE
  5
572D
  8
CT
 10
-57.086121054688192
 20
137.81808767349861
 30
0.0
 11
-46.574035520658072
 21
112.4396682084152
 31
0.0
  0
CIRCLE
  5
572E
  8
1
 10
-52.044946801652252
 20
125.64761642153459
 30
0.0
 40
4.0
  0
CIRCLE
  5
572F
  8
1
 10
52.044946801652252
 20
125.64761642153459
 30
0.0
 40
4.0
  0
ARC
  5
5730
  8
FUTO
 10
60.999999999996362
 20
216.0
 30
0.0
 40
72.753061747871584
 50
214.1996194554568
 51
258.45073817644709
  0
LINE
  5
5731
  8
FUTO
 10
0.0
 20
180.0
 30
0.0
 11
5.9318434102424362
 21
180.0
 31
0.0
  0
LINE
  5
5732
  8
1
 10
-60.0
 20
150.0
 30
0.0
 11
60.0
 21
150.0
 31
0.0
  0
LINE
  5
5733
  8
FUTO
 10
0.0
 20
180.0
 30
0.0
 11
1.0
 21
180.0
 31
0.0
  0
ARC
  5
5734
  8
FUTO
 10
59.528586099928361
 20
210.519969322142
 30
0.0
 40
57.203726762688042
 50
216.60350367361539
 51
261.67207569821369
  0
ARC
  5
5735
  8
FUTO
 10
5.9318434102424362
 20
170.0
 30
0.0
 40
10.0
 50
39.872968906140997
 51
90.0
  0
LINE
  5
5736
  8
FUTO
 10
-271.0
 20
200.0
 30
0.0
 11
21.0
 21
200.0
 31
0.0
  0
LINE
  5
5737
  8
FUTO
 10
-251.0
 20
199.0
 30
0.0
 11
1.0
 21
199.0
 31
0.0
  0
DIMENSION
  5
5738
  8
SP
  2
*D5
 10
0.0
 20
269.99999999999898
 30
0.0
 11
-125.0
 21
294.99999999999898
 31
0.0
 12
1889.9142715201349
 22
-1088.030137746166
 32
0.0
  3
GOD
 13
-250.0
 23
199.99999999999901
 33
0.0
 14
0.0
 24
209.77641914432559
 34
0.0
  0
LINE
  5
5739
  8
FUTO
 10
-271.0
 20
199.0
 30
0.0
 11
-252.0
 21
199.0
 31
0.0
  0
LINE
  5
573A
  8
FUTO
 10
-271.0
 20
200.0
 30
0.0
 11
-271.0
 21
199.0
 31
0.0
  0
LINE
  5
573B
  8
FUTO
 10
-251.0
 20
198.0
 30
0.0
 11
-249.0
 21
198.0
 31
0.0
  0
LINE
  5
573C
  8
FUTO
 10
2.0
 20
199.0
 30
0.0
 11
21.0
 21
199.0
 31
0.0
  0
LINE
  5
573D
  8
FUTO
 10
-1.0
 20
198.0
 30
0.0
 11
1.0
 21
198.0
 31
0.0
  0
LINE
  5
573E
  8
FUTO
 10
21.0
 20
200.0
 30
0.0
 11
21.0
 21
199.0
 31
0.0
  0
ENDBLK
  5
5740
  8
0
  0
BLOCK
  8
0
  2
*D10
 70
     1
 10
0.0
 20
0.0
 30
0.0
  3
*D10
  1

  0
LINE
  5
5C5D
  8
SP
 10
714.58287229741927
 20
763.03013774616613
 30
0.0
 11
714.58287229741927
 21
623.03013774616613
 31
0.0
  0
LINE
  5
5C5E
  8
SP
 10
1094.58287229742
 20
763.03013774616431
 30
0.0
 11
1094.58287229742
 21
623.03013774616613
 31
0.0
  0
LINE
  5
5C5F
  8
SP
 10
739.58287229741927
 20
633.03013774616613
 30
0.0
 11
1069.58287229742
 21
633.03013774616613
 31
0.0
  0
INSERT
  5
5C60
  8
SP
  2
_OPEN
 10
714.58287229741927
 20
633.03013774616613
 30
0.0
 41
25.0
 42
25.0
 43
25.0
 50
180.0
  0
INSERT
  5
5C61
  8
SP
  2
_OPEN
 10
1094.58287229742
 20
633.03013774616613
 30
0.0
 41
25.0
 42
25.0
 43
25.0
  0
TEXT
  5
5C62
  8
SP
 10
862.70649155380988
 20
643.03013774616613
 30
0.0
 40
30.0
  1
380
 51
15.0
  0
POINT
  5
5C63
  8
DEFPOINTS
 62
     0
 10
714.58287229741927
 20
773.03013774616613
 30
0.0
  0
POINT
  5
5C64
  8
DEFPOINTS
 62
     0
 10
1094.58287229742
 20
773.03013774616431
 30
0.0
  0
POINT
  5
5C65
  8
DEFPOINTS
 62
     0
 10
1094.58287229742
 20
633.03013774616613
 30
0.0
  0
ENDBLK
  5
58B9
  8
0
  0
BLOCK
  8
0
  2
*D11
 70
     1
 10
0.0
 20
0.0
 30
0.0
  3
*D11
  1

  0
LINE
  5
5C78
  8
SP
 10
904.58287229741916
 20
748.53182892376935
 30
0.0
 11
904.58287229741916
 21
693.03013774616613
 31
0.0
  0
LINE
  5
5C79
  8
SP
 10
714.58287229741927
 20
763.03013774616613
 30
0.0
 11
714.58287229741927
 21
693.03013774616613
 31
0.0
  0
LINE
  5
5C7A
  8
SP
 10
879.58287229741916
 20
703.03013774616613
 30
0.0
 11
739.58287229741927
 21
703.03013774616613
 31
0.0
  0
INSERT
  5
5C7B
  8
SP
  2
_OPEN
 10
904.58287229741916
 20
703.03013774616613
 30
0.0
 41
25.0
 42
25.0
 43
25.0
  0
INSERT
  5
5C7C
  8
SP
  2
_OPEN
 10
714.58287229741927
 20
703.03013774616613
 30
0.0
 41
25.0
 42
25.0
 43
25.0
 50
180.0
  0
TEXT
  5
5C7D
  8
SP
 10
768.07553476694909
 20
713.03013774616613
 30
0.0
 40
30.0
  1
190
 51
15.0
  0
POINT
  5
5C7E
  8
DEFPOINTS
 62
     0
 10
904.58287229741916
 20
758.53182892376935
 30
0.0
  0
POINT
  5
5C7F
  8
DEFPOINTS
 62
     0
 10
714.58287229741927
 20
773.03013774616613
 30
0.0
  0
POINT
  5
5C80
  8
DEFPOINTS
 62
     0
 10
714.58287229741927
 20
703.03013774616613
 30
0.0
  0
ENDBLK
  5
58C5
  8
0
  0
BLOCK
  8
0
  2
*D12
 70
     1
 10
0.0
 20
0.0
 30
0.0
  3
*D12
  1

  0
LINE
  5
5C81
  8
SP
 10
1094.58287229742
 20
763.03013774616431
 30
0.0
 11
1094.58287229742
 21
693.03013774616431
 31
0.0
  0
LINE
  5
5C82
  8
SP
 10
904.58287229741916
 20
748.53182892376935
 30
0.0
 11
904.58287229741916
 21
693.03013774616431
 31
0.0
  0
LINE
  5
5C83
  8
SP
 10
1069.58287229742
 20
703.0301377461642
 30
0.0
 11
929.58287229741916
 21
703.0301377461642
 31
0.0
  0
INSERT
  5
5C84
  8
SP
  2
_OPEN
 10
1094.58287229742
 20
703.0301377461642
 30
0.0
 41
25.0
 42
25.0
 43
25.0
  0
INSERT
  5
5C85
  8
SP
  2
_OPEN
 10
904.58287229741916
 20
703.0301377461642
 30
0.0
 41
25.0
 42
25.0
 43
25.0
 50
180.0
  0
TEXT
  5
5C86
  8
SP
 10
958.07553476694954
 20
713.03013774616431
 30
0.0
 40
30.0
  1
190
 51
15.0
  0
POINT
  5
5C87
  8
DEFPOINTS
 62
     0
 10
1094.58287229742
 20
773.03013774616431
 30
0.0
  0
POINT
  5
5C88
  8
DEFPOINTS
 62
     0
 10
904.58287229741916
 20
758.53182892376935
 30
0.0
  0
POINT
  5
5C89
  8
DEFPOINTS
 62
     0
 10
904.58287229741916
 20
703.0301377461642
 30
0.0
  0
ENDBLK
  5
58D1
  8
0
  0
BLOCK
  8
0
  2
*D13
 70
     1
 10
0.0
 20
0.0
 30
0.0
  3
*D13
  1

  0
LINE
  5
5CAB
  8
SP
 10
1146.9392517866529
 20
1088.030137746166
 30
0.0
 11
1184.582872297419
 21
1088.030137746166
 31
0.0
  0
LINE
  5
5CAC
  8
SP
 10
1114.577316827595
 20
838.03015317790778
 30
0.0
 11
1184.582872297419
 21
838.03015317790778
 31
0.0
  0
LINE
  5
5CAD
  8
SP
 10
1174.582872297419
 20
1063.030137746166
 30
0.0
 11
1174.582872297419
 21
863.03015317790778
 31
0.0
  0
INSERT
  5
5CAE
  8
SP
  2
_OPEN
 10
1174.582872297419
 20
1088.030137746166
 30
0.0
 41
25.0
 42
25.0
 43
25.0
 50
90.0
  0
INSERT
  5
5CAF
  8
SP
  2
_OPEN
 10
1174.582872297419
 20
838.03015317790778
 30
0.0
 41
25.0
 42
25.0
 43
25.0
 50
270.0
  0
TEXT
  5
5CB0
  8
SP
 10
1164.582872297419
 20
921.91933383965909
 30
0.0
 40
30.0
  1
250
 50
90.0
 51
15.0
  0
POINT
  5
5CB1
  8
DEFPOINTS
 62
     0
 10
1136.9392517866529
 20
1088.030137746166
 30
0.0
  0
POINT
  5
5CB2
  8
DEFPOINTS
 62
     0
 10
1104.577316827595
 20
838.03015317790778
 30
0.0
  0
POINT
  5
5CB3
  8
DEFPOINTS
 62
     0
 10
1174.582872297419
 20
838.03015317790778
 30
0.0
  0
ENDBLK
  5
5CA9
  8
0
  0
BLOCK
  8
0
  2
*D14
 70
     1
 10
0.0
 20
0.0
 30
0.0
  3
*D14
  1

  0
LINE
  5
5CB6
  8
SP
 10
1104.58287229742
 20
773.0301377461642
 30
0.0
 11
1254.582872297419
 21
773.0301377461642
 31
0.0
  0
LINE
  5
5CB7
  8
SP
 10
1146.9392517866529
 20
1088.030137746166
 30
0.0
 11
1254.582872297419
 21
1088.030137746166
 31
0.0
  0
LINE
  5
5CB8
  8
SP
 10
1244.582872297419
 20
798.0301377461642
 30
0.0
 11
1244.582872297419
 21
1063.030137746166
 31
0.0
  0
INSERT
  5
5CB9
  8
SP
  2
_OPEN
 10
1244.582872297419
 20
773.0301377461642
 30
0.0
 41
25.0
 42
25.0
 43
25.0
 50
270.0
  0
INSERT
  5
5CBA
  8
SP
  2
_OPEN
 10
1244.582872297419
 20
1088.030137746166
 30
0.0
 41
25.0
 42
25.0
 43
25.0
 50
90.0
  0
TEXT
  5
5CBB
  8
SP
 10
1234.582872297419
 20
891.45961645275213
 30
0.0
 40
30.0
  1
315
 50
90.0
 51
15.0
  0
POINT
  5
5CBC
  8
DEFPOINTS
 62
     0
 10
1094.58287229742
 20
773.0301377461642
 30
0.0
  0
POINT
  5
5CBD
  8
DEFPOINTS
 62
     0
 10
1136.9392517866529
 20
1088.030137746166
 30
0.0
  0
POINT
  5
5CBE
  8
DEFPOINTS
 62
     0
 10
1244.582872297419
 20
1088.030137746166
 30
0.0
  0
ENDBLK
  5
5CC0
  8
0
  0
BLOCK
  8
0
  2
*D15
 70
     1
 10
0.0
 20
0.0
 30
0.0
  3
*D15
  1

  0
LINE
  5
5CC3
  8
SP
 10
1146.9392517866529
 20
1088.030137746166
 30
0.0
 11
1254.582872297419
 21
1088.030137746166
 31
0.0
  0
LINE
  5
5CC4
  8
SP
 10
897.58287229741916
 20
1264.030137746166
 30
0.0
 11
1254.582872297419
 21
1264.030137746166
 31
0.0
  0
LINE
  5
5CC5
  8
SP
 10
1244.582872297419
 20
1113.030137746166
 30
0.0
 11
1244.582872297419
 21
1239.030137746166
 31
0.0
  0
INSERT
  5
5CC6
  8
SP
  2
_OPEN
 10
1244.582872297419
 20
1088.030137746166
 30
0.0
 41
25.0
 42
25.0
 43
25.0
 50
270.0
  0
INSERT
  5
5CC7
  8
SP
  2
_OPEN
 10
1244.582872297419
 20
1264.030137746166
 30
0.0
 41
25.0
 42
25.0
 43
25.0
 50
90.0
  0
TEXT
  5
5CC8
  8
SP
 10
1234.582872297419
 20
1135.0456936496739
 30
0.0
 40
30.0
  1
176
 50
90.0
 51
15.0
  0
POINT
  5
5CC9
  8
DEFPOINTS
 62
     0
 10
1136.9392517866529
 20
1088.030137746166
 30
0.0
  0
POINT
  5
5CCA
  8
DEFPOINTS
 62
     0
 10
887.58287229741904
 20
1264.030137746166
 30
0.0
  0
POINT
  5
5CCB
  8
DEFPOINTS
 62
     0
 10
1244.582872297419
 20
1264.030137746166
 30
0.0
  0
ENDBLK
  5
5CCD
  8
0
  0
BLOCK
  8
0
  2
*D16
 70
     1
 10
0.0
 20
0.0
 30
0.0
  3
*D16
  1

  0
LINE
  5
6518
  8
SP
 10
904.58287229741916
 20
1307.806556890491
 30
0.0
 11
904.58287229741916
 21
1345.0301377461651
 31
0.0
  0
LINE
  5
6519
  8
SP
 10
694.58287229741904
 20
1078.030137746166
 30
0.0
 11
694.58287229741904
 21
1345.0301377461651
 31
0.0
  0
LINE
  5
651A
  8
SP
 10
879.58287229741916
 20
1335.030137746166
 30
0.0
 11
719.58287229741904
 21
1335.030137746166
 31
0.0
  0
INSERT
  5
651B
  8
SP
  2
_OPEN
 10
904.58287229741916
 20
1335.030137746166
 30
0.0
 41
25.0
 42
25.0
 43
25.0
  0
INSERT
  5
651C
  8
SP
  2
_OPEN
 10
694.58287229741904
 20
1335.030137746166
 30
0.0
 41
25.0
 42
25.0
 43
25.0
 50
180.0
  0
TEXT
  5
651D
  8
SP
 10
761.32920353218424
 20
1345.0301377461651
 30
0.0
 40
30.0
  1
210
 51
15.0
  0
POINT
  5
651E
  8
DEFPOINTS
 62
     0
 10
904.58287229741916
 20
1297.806556890491
 30
0.0
  0
POINT
  5
651F
  8
DEFPOINTS
 62
     0
 10
694.58287229741904
 20
1068.030137746166
 30
0.0
  0
POINT
  5
6520
  8
DEFPOINTS
 62
     0
 10
694.58287229741904
 20
1335.030137746166
 30
0.0
  0
ENDBLK
  5
5CDE
  8
0
  0
BLOCK
  8
0
  2
*D17
 70
     1
 10
0.0
 20
0.0
 30
0.0
  3
*D17
  1

  0
LINE
  5
6521
  8
SP
 10
904.58287229741916
 20
1307.806556890491
 30
0.0
 11
904.58287229741916
 21
1345.0301377461651
 31
0.0
  0
LINE
  5
6522
  8
SP
 10
1104.582872297419
 20
1119.0301377461651
 30
0.0
 11
1104.582872297419
 21
1345.0301377461651
 31
0.0
  0
LINE
  5
6523
  8
SP
 10
929.58287229741916
 20
1335.030137746166
 30
0.0
 11
1079.582872297419
 21
1335.030137746166
 31
0.0
  0
INSERT
  5
6524
  8
SP
  2
_OPEN
 10
904.58287229741916
 20
1335.030137746166
 30
0.0
 41
25.0
 42
25.0
 43
25.0
 50
180.0
  0
INSERT
  5
6525
  8
SP
  2
_OPEN
 10
1104.582872297419
 20
1335.030137746166
 30
0.0
 41
25.0
 42
25.0
 43
25.0
  0
TEXT
  5
6526
  8
SP
 10
963.47206067504135
 20
1345.0301377461651
 30
0.0
 40
30.0
  1
200
 51
15.0
  0
POINT
  5
6527
  8
DEFPOINTS
 62
     0
 10
904.58287229741916
 20
1297.806556890491
 30
0.0
  0
POINT
  5
6528
  8
DEFPOINTS
 62
     0
 10
1104.582872297419
 20
1109.0301377461651
 30
0.0
  0
POINT
  5
6529
  8
DEFPOINTS
 62
     0
 10
1104.582872297419
 20
1335.030137746166
 30
0.0
  0
ENDBLK
  5
5CF4
  8
0
  0
BLOCK
  8
0
  2
*D18
 70
     1
 10
0.0
 20
0.0
 30
0.0
  3
*D18
  1

  0
LINE
  5
650F
  8
SP
 10
1664.582872297419
 20
1263.030137746166
 30
0.0
 11
1664.582872297419
 21
1345.0301377461651
 31
0.0
  0
LINE
  5
6510
  8
SP
 10
1844.582872297419
 20
1263.030137746166
 30
0.0
 11
1844.582872297419
 21
1345.0301377461651
 31
0.0
  0
LINE
  5
6511
  8
SP
 10
1689.582872297419
 20
1335.030137746166
 30
0.0
 11
1819.582872297419
 21
1335.030137746166
 31
0.0
  0
INSERT
  5
6512
  8
SP
  2
_OPEN
 10
1664.582872297419
 20
1335.030137746166
 30
0.0
 41
25.0
 42
25.0
 43
25.0
 50
180.0
  0
INSERT
  5
6513
  8
SP
  2
_OPEN
 10
1844.582872297419
 20
1335.030137746166
 30
0.0
 41
25.0
 42
25.0
 43
25.0
  0
TEXT
  5
6514
  8
SP
 10
1713.075534766949
 20
1345.0301377461651
 30
0.0
 40
30.0
  1
180
 51
15.0
  0
POINT
  5
6515
  8
DEFPOINTS
 62
     0
 10
1664.582872297419
 20
1253.030137746166
 30
0.0
  0
POINT
  5
6516
  8
DEFPOINTS
 62
     0
 10
1844.582872297419
 20
1253.030137746166
 30
0.0
  0
POINT
  5
6517
  8
DEFPOINTS
 62
     0
 10
1844.582872297419
 20
1335.030137746166
 30
0.0
  0
ENDBLK
  5
650C
  8
0
  0
BLOCK
  8
0
  2
*D19
 70
     1
 10
0.0
 20
0.0
 30
0.0
  3
*D19
  1

  0
LINE
  5
6556
  8
SP
 10
1754.582872297419
 20
1385.030137746166
 30
0.0
 11
1754.582872297419
 21
1415.030137746166
 31
0.0
  0
LINE
  5
6557
  8
SP
 10
1853.5828722974211
 20
1242.030137746166
 30
0.0
 11
1853.5828722974211
 21
1415.030137746166
 31
0.0
  0
LINE
  5
6558
  8
SP
 10
1779.582872297419
 20
1405.030137746166
 30
0.0
 11
1828.5828722974211
 21
1405.030137746166
 31
0.0
  0
INSERT
  5
6559
  8
SP
  2
_OPEN
 10
1754.582872297419
 20
1405.030137746166
 30
0.0
 41
25.0
 42
25.0
 43
25.0
 50
180.0
  0
INSERT
  5
655A
  8
SP
  2
_OPEN
 10
1853.5828722974211
 20
1405.030137746166
 30
0.0
 41
25.0
 42
25.0
 43
25.0
  0
TEXT
  5
655B
  8
SP
 10
1776.492205839525
 20
1415.030137746166
 30
0.0
 40
30.0
  1
99
 51
15.0
  0
POINT
  5
655C
  8
DEFPOINTS
 62
     0
 10
1754.582872297419
 20
1375.030137746166
 30
0.0
  0
POINT
  5
655D
  8
DEFPOINTS
 62
     0
 10
1853.5828722974211
 20
1232.030137746166
 30
0.0
  0
POINT
  5
655E
  8
DEFPOINTS
 62
     0
 10
1853.5828722974211
 20
1405.030137746166
 30
0.0
  0
ENDBLK
  5
6536
  8
0
  0
BLOCK
  8
0
  2
*D20
 70
     1
 10
0.0
 20
0.0
 30
0.0
  3
*D20
  1

  0
LINE
  5
655F
  8
SP
 10
1754.582872297419
 20
1385.030137746166
 30
0.0
 11
1754.582872297419
 21
1415.030137746166
 31
0.0
  0
LINE
  5
6560
  8
SP
 10
1402.78287229742
 20
1170.8074817461661
 30
0.0
 11
1402.78287229742
 21
1415.030137746166
 31
0.0
  0
LINE
  5
6561
  8
SP
 10
1729.582872297419
 20
1405.030137746166
 30
0.0
 11
1427.78287229742
 21
1405.030137746166
 31
0.0
  0
INSERT
  5
6562
  8
SP
  2
_OPEN
 10
1754.582872297419
 20
1405.030137746166
 30
0.0
 41
25.0
 42
25.0
 43
25.0
  0
INSERT
  5
6563
  8
SP
  2
_OPEN
 10
1402.78287229742
 20
1405.030137746166
 30
0.0
 41
25.0
 42
25.0
 43
25.0
 50
180.0
  0
TEXT
  5
6564
  8
SP
 10
1511.7731705570191
 20
1415.030137746166
 30
0.0
 40
30.0
  1
（400）
 51
15.0
  0
POINT
  5
6565
  8
DEFPOINTS
 62
     0
 10
1754.582872297419
 20
1375.030137746166
 30
0.0
  0
POINT
  5
6566
  8
DEFPOINTS
 62
     0
 10
1402.78287229742
 20
1160.8074817461661
 30
0.0
  0
POINT
  5
6567
  8
DEFPOINTS
 62
     0
 10
1402.78287229742
 20
1405.030137746166
 30
0.0
  0
ENDBLK
  5
6543
  8
0
  0
BLOCK
  8
0
  2
*D21
 70
     1
 10
0.0
 20
0.0
 30
0.0
  3
*D21
  1

  0
LINE
  5
6575
  8
SP
 10
1863.5828722974211
 20
1213.030137746166
 30
0.0
 11
1955.59494723445
 21
1213.030137746166
 31
0.0
  0
LINE
  5
6576
  8
SP
 10
1863.582872297419
 20
963.03013774616613
 30
0.0
 11
1955.59494723445
 21
963.03013774616613
 31
0.0
  0
LINE
  5
6577
  8
SP
 10
1945.594947234451
 20
1188.030137746166
 30
0.0
 11
1945.594947234451
 21
988.03013774616613
 31
0.0
  0
INSERT
  5
6578
  8
SP
  2
_OPEN
 10
1945.594947234451
 20
1213.030137746166
 30
0.0
 41
25.0
 42
25.0
 43
25.0
 50
90.0
  0
INSERT
  5
6579
  8
SP
  2
_OPEN
 10
1945.594947234451
 20
963.03013774616613
 30
0.0
 41
25.0
 42
25.0
 43
25.0
 50
270.0
  0
TEXT
  5
657A
  8
SP
 10
1935.59494723445
 20
1033.2590720859439
 30
0.0
 40
30.0
  1
φ250
 50
90.0
 51
15.0
  0
POINT
  5
657B
  8
DEFPOINTS
 62
     0
 10
1853.5828722974211
 20
1213.030137746166
 30
0.0
  0
POINT
  5
657C
  8
DEFPOINTS
 62
     0
 10
1853.582872297419
 20
963.03013774616613
 30
0.0
  0
POINT
  5
657D
  8
DEFPOINTS
 62
     0
 10
1945.594947234451
 20
963.03013774616613
 30
0.0
  0
ENDBLK
  5
6574
  8
0
  0
BLOCK
  8
0
  2
*D22
 70
     1
 10
0.0
 20
0.0
 30
0.0
  3
*D22
  1

  0
LINE
  5
65A3
  8
SP
 10
1455.582872297419
 20
763.03013774616613
 30
0.0
 11
1455.582872297419
 21
623.03013774616613
 31
0.0
  0
LINE
  5
65A4
  8
SP
 10
1655.582872297419
 20
763.03013774616613
 30
0.0
 11
1655.582872297419
 21
623.03013774616613
 31
0.0
  0
LINE
  5
65A5
  8
SP
 10
1480.582872297419
 20
633.03013774616613
 30
0.0
 11
1630.582872297419
 21
633.03013774616613
 31
0.0
  0
INSERT
  5
65A6
  8
SP
  2
_OPEN
 10
1455.582872297419
 20
633.03013774616613
 30
0.0
 41
25.0
 42
25.0
 43
25.0
 50
180.0
  0
INSERT
  5
65A7
  8
SP
  2
_OPEN
 10
1655.582872297419
 20
633.03013774616613
 30
0.0
 41
25.0
 42
25.0
 43
25.0
  0
TEXT
  5
65A8
  8
SP
 10
1514.4720606750409
 20
643.03013774616613
 30
0.0
 40
30.0
  1
200
 51
15.0
  0
POINT
  5
65A9
  8
DEFPOINTS
 62
     0
 10
1455.582872297419
 20
773.03013774616613
 30
0.0
  0
POINT
  5
65AA
  8
DEFPOINTS
 62
     0
 10
1655.582872297419
 20
773.03013774616613
 30
0.0
  0
POINT
  5
65AB
  8
DEFPOINTS
 62
     0
 10
1655.582872297419
 20
633.03013774616613
 30
0.0
  0
ENDBLK
  5
6593
  8
0
  0
BLOCK
  8
0
  2
*D23
 70
     1
 10
0.0
 20
0.0
 30
0.0
  3
*D23
  1

  0
LINE
  5
65AC
  8
SP
 10
1655.582872297419
 20
763.03013774616613
 30
0.0
 11
1655.582872297419
 21
623.03013774616613
 31
0.0
  0
LINE
  5
65AD
  8
SP
 10
1754.582872297419
 20
783.13168504360601
 30
0.0
 11
1754.582872297419
 21
623.03013774616613
 31
0.0
  0
LINE
  5
65AE
  8
SP
 10
1680.582872297419
 20
633.03013774616613
 30
0.0
 11
1729.582872297419
 21
633.03013774616613
 31
0.0
  0
INSERT
  5
65AF
  8
SP
  2
_OPEN
 10
1655.582872297419
 20
633.03013774616613
 30
0.0
 41
25.0
 42
25.0
 43
25.0
 50
180.0
  0
INSERT
  5
65B0
  8
SP
  2
_OPEN
 10
1754.582872297419
 20
633.03013774616613
 30
0.0
 41
25.0
 42
25.0
 43
25.0
  0
TEXT
  5
65B1
  8
SP
 10
1677.4922058395241
 20
643.03013774616613
 30
0.0
 40
30.0
  1
99
 51
15.0
  0
POINT
  5
65B2
  8
DEFPOINTS
 62
     0
 10
1655.582872297419
 20
773.03013774616613
 30
0.0
  0
POINT
  5
65B3
  8
DEFPOINTS
 62
     0
 10
1754.582872297419
 20
793.13168504360601
 30
0.0
  0
POINT
  5
65B4
  8
DEFPOINTS
 62
     0
 10
1754.582872297419
 20
633.03013774616613
 30
0.0
  0
ENDBLK
  5
65A2
  8
0
  0
BLOCK
  8
0
  2
A$C40AB6E05
 70
     0
 10
0.0
 20
0.0
 30
0.0
  3
A$C40AB6E05
  1

  0
LINE
  5
6751
  8
1
 10
-160.00000000000361
 20
-307.99999999999181
 30
0.0
 11
-160.00000000000591
 21
-99.000000000001606
 31
0.0
  0
LINE
  5
6752
  8
1
 10
-190.00000000000361
 20
-298.9999999999954
 30
0.0
 11
-190.00000000000591
 21
-99.000000000001364
 31
0.0
  0
LINE
  5
6753
  8
1
 10
-33.5
 20
-124.79999999999831
 30
0.0
 11
-33.5
 21
-133.79999999999831
 31
0.0
  0
LINE
  5
6754
  8
1
 10
-75.5
 20
-156.29999999999831
 30
0.0
 11
-75.5
 21
-135.79999999999831
 31
0.0
  0
ARC
  5
6755
  8
1
 10
-73.5
 20
-135.79999999999831
 30
0.0
 40
2.0
 50
90.0
 51
180.0
  0
LINE
  5
6756
  8
1
 10
-72.815002999999706
 20
-133.79999999999831
 30
0.0
 11
-64.184998000000633
 21
-133.79999999999831
 31
0.0
  0
LINE
  5
6757
  8
1
 10
-64.065796000000773
 20
-133.79999999999831
 30
0.0
 11
-73.065796000000773
 21
-133.79999999999831
 31
0.0
  0
LINE
  5
6758
  8
1
 10
-160.0000000000054
 20
-132.9999999999915
 30
0.0
 11
-33.5
 21
-132.99999999999361
 31
0.0
  0
CIRCLE
  5
6759
  8
FUTO
 10
-177.000000000005
 20
-119.00000000000109
 30
0.0
 40
6.0
  0
LINE
  5
675A
  8
CT
 10
-164.8129139847405
 20
-119.00000000000109
 30
0.0
 11
-189.18708601526981
 21
-119.00000000000109
 31
0.0
  0
LINE
  5
675B
  8
CT
 10
-177.000000000005
 20
-131.18708601526569
 30
0.0
 11
-177.000000000005
 21
-106.8129139847364
 31
0.0
  0
ARC
  5
675C
  8
1
 10
-143.99999999999631
 20
-95.999999999999091
 30
0.0
 40
3.0
 50
180.0
 51
270.0
  0
LINE
  5
675D
  8
1
 10
-146.99999999999631
 20
-93.999999999999091
 30
0.0
 11
-146.99999999999631
 21
-95.999999999999091
 31
0.0
  0
LINE
  5
675E
  8
1
 10
-146.99999999999631
 20
-93.999999999999091
 30
0.0
 11
-146.99999999999631
 21
-95.999999999999091
 31
0.0
  0
ARC
  5
675F
  8
1
 10
-149.99999999999631
 20
-93.999999999999091
 30
0.0
 40
3.0
 50
0.0
 51
90.0
  0
LINE
  5
6760
  8
1
 10
-22.5
 20
-110.9999999999972
 30
0.0
 11
-22.5
 21
-113.8000000000001
 31
0.0
  0
ARC
  5
6761
  8
1
 10
-32.5
 20
-124.79999999999831
 30
0.0
 40
1.0
 50
90.0
 51
180.0
  0
LINE
  5
6762
  8
FUTO
 10
190.00000000000179
 20
-99.000000000001137
 30
0.0
 11
-189.9999999999981
 21
-99.000000000001137
 31
0.0
  0
ARC
  5
6763
  8
1
 10
150.0
 20
-93.999999999999091
 30
0.0
 40
3.0
 50
90.0
 51
180.0
  0
LINE
  5
6764
  8
1
 10
147.0
 20
-93.999999999999091
 30
0.0
 11
147.0
 21
-95.999999999999091
 31
0.0
  0
LINE
  5
6765
  8
1
 10
147.0
 20
-93.999999999999091
 30
0.0
 11
147.0
 21
-95.999999999999091
 31
0.0
  0
ARC
  5
6766
  8
1
 10
144.0
 20
-95.999999999999091
 30
0.0
 40
3.0
 50
270.0
 51
0.0
  0
LINE
  5
6767
  8
1
 10
160.0
 20
-307.99999999999932
 30
0.0
 11
160.00000000000179
 21
-99.000000000001137
 31
0.0
  0
LINE
  5
6768
  8
FUTO
 10
190.0
 20
-298.9999999999954
 30
0.0
 11
190.00000000000179
 21
-99.000000000001137
 31
0.0
  0
LINE
  5
6769
  8
1
 10
33.499999999998181
 20
-132.99999999999719
 30
0.0
 11
160.00000000000151
 21
-132.99999999999719
 31
0.0
  0
LINE
  5
676A
  8
CT
 10
177.00000000000159
 20
-131.18708601526569
 30
0.0
 11
177.00000000000159
 21
-106.8129139847364
 31
0.0
  0
CIRCLE
  5
676B
  8
FUTO
 10
177.00000000000159
 20
-119.00000000000109
 30
0.0
 40
6.0
  0
CIRCLE
  5
676C
  8
FUTO
 10
177.00000000000159
 20
-279.00000000000108
 30
0.0
 40
6.0
  0
LINE
  5
676D
  8
CT
 10
164.81291398473689
 20
-279.00000000000108
 30
0.0
 11
189.1870860152662
 21
-279.00000000000108
 31
0.0
  0
LINE
  5
676E
  8
CT
 10
177.00000000000159
 20
-291.18708601526572
 30
0.0
 11
177.00000000000159
 21
-266.8129139847365
 31
0.0
  0
LINE
  5
676F
  8
FUTO
 10
159.99999999999969
 20
-298.9999999999954
 30
0.0
 11
190.00000000000179
 21
-298.9999999999954
 31
0.0
  0
LINE
  5
6770
  8
FUTO
 10
190.0
 20
-299.00000000000108
 30
0.0
 11
160.0
 21
-299.00000000000108
 31
0.0
  0
LINE
  5
6771
  8
1
 10
74.799988000000667
 20
-277.79999999999831
 30
0.0
 11
74.799988000000667
 21
-156.29999999999831
 31
0.0
  0
LINE
  5
6772
  8
1
 10
85.0
 20
-307.99999999999721
 30
0.0
 11
160.0
 21
-307.99999999999932
 31
0.0
  0
LINE
  5
6773
  8
1
 10
85.0
 20
-316.29999999999831
 30
0.0
 11
85.0
 21
-277.79999999999831
 31
0.0
  0
LINE
  5
6774
  8
1
 10
0.000000000001819
 20
-317.79999999999831
 30
0.0
 11
83.499999999999986
 21
-317.79999999999831
 31
0.0
  0
LINE
  5
6775
  8
1
 10
-72.777344000000085
 20
-351.79999999999831
 30
0.0
 11
72.626524999999674
 21
-351.79999999999831
 31
0.0
  0
ARC
  5
6776
  8
1
 10
83.499999999999986
 20
-316.29999999999831
 30
0.0
 40
1.4999849999999999
 50
270.0
 51
0.0005800000062725
  0
ARC
  5
6777
  8
1
 10
81.815002999999706
 20
-318.79993899999948
 30
0.0
 40
0.999898
 50
89.99650299999503
 51
168.37008699999251
  0
LINE
  5
6778
  8
1
 10
74.246521000000939
 20
-350.60248999999828
 30
0.0
 11
80.835633000000598
 21
-318.59833899999921
 31
0.0
  0
LINE
  5
6779
  8
1
 10
85.0
 20
-277.79999999999831
 30
0.0
 11
-85.0
 21
-277.79999999999831
 31
0.0
  0
LINE
  5
677A
  8
1
 10
-160.00000000000361
 20
-307.99999999999181
 30
0.0
 11
-84.999999999999091
 21
-307.9999999999954
 31
0.0
  0
LINE
  5
677B
  8
1
 10
-74.799988000000667
 20
-277.79999999999831
 30
0.0
 11
-74.799988000000667
 21
-156.29999999999831
 31
0.0
  0
LINE
  5
677C
  8
1
 10
-85.0
 20
-316.29999999999831
 30
0.0
 11
-85.0
 21
-277.79999999999831
 31
0.0
  0
ARC
  5
677D
  8
1
 10
-81.815002999999706
 20
-318.79993899999948
 30
0.0
 40
0.999898
 50
11.629913000007431
 51
90.003497000004955
  0
LINE
  5
677E
  8
1
 10
-74.246521000000939
 20
-350.60248999999828
 30
0.0
 11
-80.835633000000598
 21
-318.59833899999921
 31
0.0
  0
ARC
  5
677F
  8
1
 10
-83.499999999999986
 20
-316.29999999999831
 30
0.0
 40
1.4999849999999999
 50
179.99941999999371
 51
270.0
  0
LINE
  5
6780
  8
1
 10
-0.000000000001819
 20
-317.79999999999831
 30
0.0
 11
-83.499999999999986
 21
-317.79999999999831
 31
0.0
  0
LINE
  5
6781
  8
CT
 10
-177.000000000005
 20
-291.18708601526572
 30
0.0
 11
-177.000000000005
 21
-266.8129139847365
 31
0.0
  0
LINE
  5
6782
  8
CT
 10
-164.8129139847405
 20
-279.00000000000108
 30
0.0
 11
-189.18708601526981
 21
-279.00000000000108
 31
0.0
  0
CIRCLE
  5
6783
  8
FUTO
 10
-177.000000000005
 20
-279.00000000000108
 30
0.0
 40
6.0
  0
LINE
  5
6784
  8
1
 10
-189.99999999999909
 20
-298.9999999999954
 30
0.0
 11
-160.00000000000361
 21
-298.9999999999954
 31
0.0
  0
LINE
  5
6785
  8
1
 10
33.499999999998181
 20
-133.79999999999831
 30
0.0
 11
33.5
 21
-124.79999999999831
 31
0.0
  0
LINE
  5
6786
  8
1
 10
0.0
 20
-133.79999999999831
 30
0.0
 11
73.5
 21
-133.79999999999831
 31
0.0
  0
LINE
  5
6787
  8
1
 10
75.5
 20
-156.29999999999831
 30
0.0
 11
0.000000000001819
 21
-156.29999999999831
 31
0.0
  0
LINE
  5
6788
  8
1
 10
-75.5
 20
-156.29999999999831
 30
0.0
 11
-0.000000000001819
 21
-156.29999999999831
 31
0.0
  0
LINE
  5
6789
  8
1
 10
0.0
 20
-133.79999999999831
 30
0.0
 11
-73.5
 21
-133.79999999999831
 31
0.0
  0
LINE
  5
678A
  8
1
 10
75.5
 20
-156.29999999999831
 30
0.0
 11
75.5
 21
-135.79999999999831
 31
0.0
  0
ARC
  5
678B
  8
1
 10
73.5
 20
-135.79999999999831
 30
0.0
 40
2.0
 50
0.0
 51
90.0
  0
LINE
  5
678C
  8
1
 10
64.065796000000773
 20
-133.79999999999831
 30
0.0
 11
73.065796000000773
 21
-133.79999999999831
 31
0.0
  0
LINE
  5
678D
  8
1
 10
72.815002999999706
 20
-133.79999999999831
 30
0.0
 11
64.184998000000633
 21
-133.79999999999831
 31
0.0
  0
LINE
  5
678E
  8
1
 10
-17.5
 20
-118.8000000000001
 30
0.0
 11
17.5
 21
-118.8000000000001
 31
0.0
  0
LINE
  5
678F
  8
1
 10
32.5
 20
-123.79999999999831
 30
0.0
 11
-32.5
 21
-123.79999999999831
 31
0.0
  0
LINE
  5
6790
  8
1
 10
-10.5
 20
-118.79999999999831
 30
0.0
 11
-10.5
 21
-123.79999999999831
 31
0.0
  0
ARC
  5
6791
  8
1
 10
32.5
 20
-124.79999999999831
 30
0.0
 40
1.0
 50
0.0
 51
90.0
  0
LINE
  5
6792
  8
1
 10
10.5
 20
-118.79999999999831
 30
0.0
 11
10.5
 21
-123.79999999999831
 31
0.0
  0
LINE
  5
6793
  8
1
 10
22.5
 20
-113.8000000000001
 30
0.0
 11
17.5
 21
-118.8000000000001
 31
0.0
  0
LINE
  5
6794
  8
1
 10
22.5
 20
-101.2999999999965
 30
0.0
 11
22.5
 21
-113.8000000000001
 31
0.0
  0
LINE
  5
6795
  8
1
 10
-17.5
 20
-118.8000000000001
 30
0.0
 11
-22.5
 21
-113.8000000000001
 31
0.0
  0
ENDBLK
  5
6797
  8
0
  0
BLOCK
  8
0
  2
*D25
 70
     1
 10
0.0
 20
0.0
 30
0.0
  3
*D25
  1

  0
LINE
  5
6AE9
  8
SP
 10
714.58287229741563
 20
1823.121728488446
 30
0.0
 11
714.58287229741563
 21
1665.5535321584241
 31
0.0
  0
LINE
  5
6AEA
  8
SP
 10
1094.582872297419
 20
1823.121728488446
 30
0.0
 11
1094.582872297419
 21
1665.5535321584241
 31
0.0
  0
LINE
  5
6AEB
  8
SP
 10
739.58287229741563
 20
1675.5535321584241
 30
0.0
 11
1069.582872297419
 21
1675.5535321584241
 31
0.0
  0
INSERT
  5
6AEC
  8
SP
  2
_OPEN
 10
714.58287229741563
 20
1675.5535321584241
 30
0.0
 41
25.0
 42
25.0
 43
25.0
 50
180.0
  0
INSERT
  5
6AED
  8
SP
  2
_OPEN
 10
1094.582872297419
 20
1675.5535321584241
 30
0.0
 41
25.0
 42
25.0
 43
25.0
  0
TEXT
  5
6AEE
  8
SP
 10
862.70649155380784
 20
1685.5535321584241
 30
0.0
 40
30.0
  1
380
 51
15.0
  0
POINT
  5
6AEF
  8
DEFPOINTS
 62
     0
 10
714.58287229741563
 20
1833.121728488446
 30
0.0
  0
POINT
  5
6AF0
  8
DEFPOINTS
 62
     0
 10
1094.582872297419
 20
1833.121728488446
 30
0.0
  0
POINT
  5
6AF1
  8
DEFPOINTS
 62
     0
 10
1094.582872297419
 20
1675.5535321584241
 30
0.0
  0
ENDBLK
  5
6AD0
  8
0
  0
BLOCK
  8
0
  2
*D26
 70
     1
 10
0.0
 20
0.0
 30
0.0
  3
*D26
  1

  0
LINE
  5
6AF2
  8
SP
 10
1104.5828722974211
 20
2033.121728488441
 30
0.0
 11
1214.9564480521301
 21
2033.121728488441
 31
0.0
  0
LINE
  5
6AF3
  8
SP
 10
1104.582872297419
 20
1833.121728488446
 30
0.0
 11
1214.9564480521301
 21
1833.121728488446
 31
0.0
  0
LINE
  5
6AF4
  8
SP
 10
1204.9564480521301
 20
2008.121728488441
 30
0.0
 11
1204.9564480521301
 21
1858.121728488446
 31
0.0
  0
INSERT
  5
6AF5
  8
SP
  2
_OPEN
 10
1204.9564480521301
 20
2033.121728488441
 30
0.0
 41
25.0
 42
25.0
 43
25.0
 50
90.0
  0
INSERT
  5
6AF6
  8
SP
  2
_OPEN
 10
1204.9564480521301
 20
1833.121728488446
 30
0.0
 41
25.0
 42
25.0
 43
25.0
 50
270.0
  0
TEXT
  5
6AF7
  8
SP
 10
1194.9564480521301
 20
1892.0109168660649
 30
0.0
 40
30.0
  1
200
 50
90.0
 51
15.0
  0
POINT
  5
6AF8
  8
DEFPOINTS
 62
     0
 10
1094.5828722974211
 20
2033.121728488441
 30
0.0
  0
POINT
  5
6AF9
  8
DEFPOINTS
 62
     0
 10
1094.582872297419
 20
1833.121728488446
 30
0.0
  0
POINT
  5
6AFA
  8
DEFPOINTS
 62
     0
 10
1204.9564480521301
 20
1833.121728488446
 30
0.0
  0
ENDBLK
  5
6ADC
  8
0
  0
BLOCK
  8
0
  2
*D27
 70
     1
 10
0.0
 20
0.0
 30
0.0
  3
*D27
  1

  0
LINE
  5
6AFB
  8
SP
 10
1104.5828722974211
 20
2033.121728488441
 30
0.0
 11
1214.956448052131
 21
2033.121728488441
 31
0.0
  0
LINE
  5
6AFC
  8
SP
 10
1124.730486870769
 20
2132.121728488441
 30
0.0
 11
1214.956448052131
 21
2132.121728488441
 31
0.0
  0
LINE
  5
6AFD
  8
SP
 10
1204.956448052131
 20
2058.1217284884401
 30
0.0
 11
1204.956448052131
 21
2107.121728488441
 31
0.0
  0
INSERT
  5
6AFE
  8
SP
  2
_OPEN
 10
1204.956448052131
 20
2033.121728488441
 30
0.0
 41
25.0
 42
25.0
 43
25.0
 50
270.0
  0
INSERT
  5
6AFF
  8
SP
  2
_OPEN
 10
1204.956448052131
 20
2132.121728488441
 30
0.0
 41
25.0
 42
25.0
 43
25.0
 50
90.0
  0
TEXT
  5
6B00
  8
SP
 10
1194.956448052131
 20
2055.0310620305459
 30
0.0
 40
30.0
  1
99
 50
90.0
 51
15.0
  0
POINT
  5
6B01
  8
DEFPOINTS
 62
     0
 10
1094.5828722974211
 20
2033.121728488441
 30
0.0
  0
POINT
  5
6B02
  8
DEFPOINTS
 62
     0
 10
1114.730486870769
 20
2132.121728488441
 30
0.0
  0
POINT
  5
6B03
  8
DEFPOINTS
 62
     0
 10
1204.956448052131
 20
2132.121728488441
 30
0.0
  0
ENDBLK
  5
6AE8
  8
0
  0
ENDSEC
  0
SECTION
  2
ENTITIES
  0
LINE
  5
21A1
  8
4
 10
2283.6239345559538
 20
96.092404061039474
 30
0.0
 11
183.62393455595441
 21
96.092404061039474
 31
0.0
  0
LINE
  5
21A2
  8
4
 10
183.62393455595441
 20
3046.0924040610389
 30
0.0
 11
2283.6239345559538
 21
3046.0924040610389
 31
0.0
  0
LINE
  5
21AC
  8
4
 10
183.62393455595441
 20
96.092404061039474
 30
0.0
 11
183.62393455595441
 21
3046.0924040610389
 31
0.0
  0
LINE
  5
22D0
  8
4
 10
2283.6239345559538
 20
3046.0924040610389
 30
0.0
 11
2283.6239345559538
 21
96.092404061039474
 31
0.0
  0
LINE
  5
22D6
  8
1
 10
1655.582872297424
 20
1109.030137746164
 30
0.0
 11
1853.58287229742
 21
1109.0301377461669
 31
0.0
  0
LINE
  5
22D7
  8
1
 10
1844.58287229742
 20
1088.030137746166
 30
0.0
 11
1664.5828722974211
 21
1088.030137746166
 31
0.0
  0
LINE
  5
22D8
  8
1
 10
1845.582872297417
 20
1089.030137746166
 30
0.0
 11
1663.58287229742
 21
1089.030137746166
 31
0.0
  0
LINE
  5
22D9
  8
1
 10
1655.58287229742
 20
817.03013774616716
 30
0.0
 11
1853.5828722974161
 21
817.03013774616966
 31
0.0
  0
LINE
  5
22DA
  8
1
 10
1664.5828722974179
 20
838.03013774616795
 30
0.0
 11
1844.58287229742
 21
838.03013774616795
 31
0.0
  0
LINE
  5
22DB
  8
1
 10
1663.58287229742
 20
837.03013774616795
 30
0.0
 11
1845.582872297422
 21
837.03013774616875
 31
0.0
  0
LINE
  5
22DC
  8
HOSO
 10
1664.5828722974179
 20
838.03013774616795
 30
0.0
 11
1844.58287229742
 21
1088.030137746166
 31
0.0
  0
LINE
  5
22DD
  8
HOSO
 10
1844.58287229742
 20
838.03013774616795
 30
0.0
 11
1664.5828722974211
 21
1088.030137746166
 31
0.0
  0
LINE
  5
22DF
  8
1
 10
1675.582872297419
 20
1264.030137746166
 30
0.0
 11
1833.582872297419
 21
1264.030137746166
 31
0.0
  0
LINE
  5
22E0
  8
1
 10
1675.582872297419
 20
1265.030137746166
 30
0.0
 11
1833.582872297419
 21
1265.030137746166
 31
0.0
  0
LINE
  5
22E1
  8
2
 10
1386.4944276695171
 20
1088.030137746166
 30
0.0
 11
1894.0269947405759
 21
1088.030137746166
 31
0.0
  0
LINE
  5
2319
  8
1
 10
1643.58287229742
 20
829.03013774616704
 30
0.0
 11
1643.582872297424
 21
1097.030137746164
 31
0.0
  0
LINE
  5
231A
  8
1
 10
1664.5828722974179
 20
838.03013774616795
 30
0.0
 11
1664.5828722974211
 21
1088.030137746166
 31
0.0
  0
LINE
  5
231B
  8
1
 10
1663.58287229742
 20
837.03013774616795
 30
0.0
 11
1663.58287229742
 21
1089.030137746166
 31
0.0
  0
ARC
  5
231F
  8
1
 10
1655.58287229742
 20
829.03013774616704
 30
0.0
 40
12.00000000000022
 50
179.99999999999909
 51
270.0
  0
ARC
  5
2322
  8
1
 10
1675.582872297419
 20
1253.030137746166
 30
0.0
 40
12.0
 50
90.0
 51
180.0
  0
ARC
  5
2337
  8
1
 10
1655.582872297424
 20
1097.030137746164
 30
0.0
 40
12.0
 50
90.000000000001606
 51
180.0
  0
LINE
  5
233E
  8
1
 10
1664.582872297419
 20
1253.030137746166
 30
0.0
 11
1664.582872297419
 21
1109.030137746164
 31
0.0
  0
LINE
  5
233F
  8
1
 10
1663.582872297419
 20
1253.030137746166
 30
0.0
 11
1663.582872297419
 21
1109.030137746164
 31
0.0
  0
ARC
  5
2340
  8
1
 10
1675.582872297419
 20
1253.030137746166
 30
0.0
 40
11.0
 50
90.0
 51
180.0
  0
LINE
  5
2347
  8
1
 10
1865.582872297417
 20
829.03013774616977
 30
0.0
 11
1865.58287229742
 21
1097.0301377461669
 31
0.0
  0
LINE
  5
2348
  8
1
 10
1844.58287229742
 20
838.03013774616875
 30
0.0
 11
1844.58287229742
 21
1088.030137746166
 31
0.0
  0
LINE
  5
234A
  8
1
 10
1845.5828722974179
 20
837.03013774616886
 30
0.0
 11
1845.5828722974211
 21
1088.030137746166
 31
0.0
  0
ARC
  5
234F
  8
1
 10
1853.5828722974161
 20
829.03013774616977
 30
0.0
 40
12.0
 50
270.0
 51
0.0
  0
LINE
  5
2358
  8
1
 10
1844.5828722974179
 20
1109.0301377461669
 30
0.0
 11
1844.582872297419
 21
1253.030137746166
 31
0.0
  0
LINE
  5
235A
  8
1
 10
1845.582872297417
 20
1109.0301377461669
 30
0.0
 11
1845.582872297419
 21
1253.030137746166
 31
0.0
  0
ARC
  5
235C
  8
1
 10
1853.58287229742
 20
1097.0301377461669
 30
0.0
 40
12.0
 50
359.9999999999992
 51
90.000000000001606
  0
ARC
  5
235F
  8
1
 10
1833.582872297419
 20
1253.030137746166
 30
0.0
 40
11.0
 50
0.0
 51
90.0
  0
ARC
  5
2360
  8
1
 10
1833.582872297419
 20
1253.030137746166
 30
0.0
 40
12.0
 50
0.0
 51
90.0
  0
LINE
  5
2362
  8
1
 10
1845.582872297419
 20
1238.030137746166
 30
0.0
 11
1845.582872297419
 21
1253.030137746166
 31
0.0
  0
LINE
  5
236E
  8
4
 10
2283.6239345559538
 20
3046.0924040610389
 30
0.0
 11
2283.6239345559538
 21
3046.0924040610389
 31
0.0
  0
LINE
  5
53F7
  8
CT
 10
1754.582872297419
 20
793.13168504360601
 30
0.0
 11
1754.582872297419
 21
1313.280400113392
 31
0.0
  0
TEXT
  5
54B4
  8
4
 10
575.29844082279567
 20
2544.4293549289091
 30
0.0
 40
53.999999999999993
  1
左回転右横向
  0
TEXT
  5
54B5
  8
4
 10
643.22393455595454
 20
2695.5186316473701
 30
0.0
 40
72.0
  1
遠心式片吸込直動形多翼ファン
 72
     4
 11
1233.6239345559541
 21
2731.5186316473701
 31
0.0
  0
LINE
  5
54B6
  8
4
 10
433.62393455595418
 20
2631.5186316473701
 30
0.0
 11
2033.6239345559541
 21
2631.5186316473701
 31
0.0
  0
LINE
  5
54B7
  8
4
 10
433.62393455595418
 20
2831.5186316473701
 30
0.0
 11
2033.6239345559541
 21
2831.5186316473701
 31
0.0
  0
LINE
  5
54B8
  8
4
 10
433.62393455595418
 20
2831.5186316473701
 30
0.0
 11
433.62393455595418
 21
2631.5186316473701
 31
0.0
  0
LINE
  5
54B9
  8
4
 10
1624.241356915818
 20
2948.7621389323181
 30
0.0
 11
2033.6239345559541
 21
2948.7621389323181
 31
0.0
  0
LINE
  5
54BA
  8
4
 10
2033.6239345559541
 20
2843.3734605079671
 30
0.0
 11
1624.241356915818
 21
2843.3734605079671
 31
0.0
  0
TEXT
  5
54BC
  8
4
 10
1494.9199971559669
 20
2545.5387187150809
 30
0.0
 40
53.999999999999993
  1
縮尺：1/10
  0
LINE
  5
54BD
  8
4
 10
1624.241356915818
 20
2843.3734605079671
 30
0.0
 11
1624.241356915818
 21
2948.7621389323181
 31
0.0
  0
TEXT
  5
54BE
  8
4
 10
1652.593493805244
 20
2868.170958877874
 30
0.0
 40
56.000000000000007
  1
No.
  0
LINE
  5
54BF
  8
4
 10
2033.6239345559541
 20
2831.5186316473701
 30
0.0
 11
2033.6239345559541
 21
2631.5186316473701
 31
0.0
  0
LINE
  5
54C0
  8
4
 10
2033.6239345559541
 20
2948.7621389323181
 30
0.0
 11
2033.6239345559541
 21
2843.3734605079671
 31
0.0
  0
TEXT
  5
54C4
  8
4
 10
669.88204058075178
 20
335.27468562959712
 30
0.0
 40
50.0
  1
機器型番
  0
TEXT
  5
54C5
  8
4
 10
672.12601540285596
 20
445.17255476419911
 30
0.0
 40
50.0
  1
機器名称
  0
LINE
  5
54C8
  8
4
 10
633.62393455595418
 20
513.62952889758606
 30
0.0
 11
1833.6239345559541
 21
513.62952889758606
 31
0.0
  0
LINE
  5
54C9
  8
4
 10
633.62393455595418
 20
413.62952889758611
 30
0.0
 11
1833.6239345559541
 21
413.62952889758611
 31
0.0
  0
LINE
  5
54CA
  8
4
 10
633.62393455595418
 20
313.62952889758611
 30
0.0
 11
1833.6239345559541
 21
313.62952889758611
 31
0.0
  0
LINE
  5
54CB
  8
4
 10
633.62393455595418
 20
513.62952889758606
 30
0.0
 11
633.62393455595418
 21
313.62952889758611
 31
0.0
  0
LINE
  5
54CC
  8
4
 10
1833.6239345559541
 20
513.62952889758606
 30
0.0
 11
1833.6239345559541
 21
313.62952889758611
 31
0.0
  0
LINE
  5
54CD
  8
4
 10
1133.6239345559541
 20
513.62952889758606
 30
0.0
 11
1133.6239345559541
 21
313.62952889758611
 31
0.0
  0
TEXT
  5
54D0
  8
4
 10
1161.3026800436189
 20
436.20129785515468
 30
0.0
 40
50.0
  1
ミツヤ多翼送風機
  0
TEXT
  5
5645
  8
4
 10
1011.157273065498
 20
2545.5387187150809
 30
0.0
 40
53.999999999999993
  1
床置ベッド型
  0
TEXT
  5
5668
  8
4
 10
1170.278430141434
 20
330.78911317752949
 30
0.0
 40
50.0
  1
MF＃1 1/2-7
  0
ARC
  5
583D
  8
FUTO
 10
887.58287229741904
 20
1071.0301377461651
 30
0.0
 40
203.0
 50
89.532678295005226
 51
180.42791896777791
  0
ARC
  5
583E
  8
FUTO
 10
924.58287229741916
 20
1068.030137746166
 30
0.0
 40
240.0
 50
179.60817310073961
 51
270.0
  0
ARC
  5
583F
  8
FUTO
 10
887.58287229741904
 20
1071.0301377461651
 30
0.0
 40
193.0
 50
89.532678295005226
 51
180.42791896777791
  0
ARC
  5
5840
  8
FUTO
 10
924.58287229741916
 20
1068.030137746166
 30
0.0
 40
230.0
 50
179.60817310073961
 51
270.0
  0
LINE
  5
5841
  8
2
 10
904.58287229741916
 20
758.53182892376935
 30
0.0
 11
904.58287229741916
 21
1297.806556890491
 31
0.0
  0
LINE
  5
5842
  8
1
 10
746.88287229742025
 20
1154.1301377461641
 30
0.0
 11
746.88287229742025
 21
833.0301377461642
 31
0.0
  0
LINE
  5
5843
  8
1
 10
744.58287229741927
 20
1154.1301377461641
 30
0.0
 11
744.58287229741927
 21
835.33013774616529
 31
0.0
  0
LINE
  5
5844
  8
1
 10
1062.2828722974191
 20
1154.1301377461641
 30
0.0
 11
1062.2828722974191
 21
833.0301377461642
 31
0.0
  0
LINE
  5
5845
  8
1
 10
1064.582872297419
 20
1154.1301377461641
 30
0.0
 11
1064.5828722974179
 21
835.330137746167
 31
0.0
  0
ARC
  5
5846
  8
1
 10
904.58287229741916
 20
1088.030137746166
 30
0.0
 40
85.0
 50
295.87553399999388
 51
180.0
  0
CIRCLE
  5
5847
  8
2
 10
904.58287229741916
 20
1088.030137746166
 30
0.0
 40
136.0
  0
ARC
  5
5848
  8
1
 10
904.58287229741916
 20
1088.030137746166
 30
0.0
 40
85.000007999999994
 50
180.0
 51
244.08227400000101
  0
DIMENSION
  5
5849
  8
SP
  2
*D10
 10
1094.58287229742
 20
633.03013774616613
 30
0.0
 11
904.58287229741984
 21
658.03013774616613
 31
0.0
 70
     0
 13
714.58287229741927
 23
773.03013774616613
 33
0.0
 14
1094.58287229742
 24
773.03013774616431
 34
0.0
 50
180.0
  0
DIMENSION
  5
584A
  8
SP
  2
*D11
 10
714.58287229741927
 20
703.03013774616613
 30
0.0
 11
809.58287229741927
 21
728.03013774616613
 31
0.0
 70
     0
 13
904.58287229741916
 23
758.53182892376935
 33
0.0
 14
714.58287229741927
 24
773.03013774616613
 34
0.0
 50
180.0
  0
DIMENSION
  5
584B
  8
SP
  2
*D12
 10
904.58287229741916
 20
703.0301377461642
 30
0.0
 11
999.58287229741973
 21
728.0301377461642
 31
0.0
 70
     0
 13
1094.58287229742
 23
773.03013774616431
 33
0.0
 14
904.58287229741916
 24
758.53182892376935
 34
0.0
 50
180.0
  0
LINE
  5
584C
  8
FUTO
 10
1037.2828722974191
 20
983.03013774616602
 30
0.0
 11
1062.282872297418
 21
1008.030137746166
 31
0.0
  0
LINE
  5
584D
  8
1
 10
1062.282872297418
 20
884.03013774616625
 30
0.0
 11
1037.28287229742
 21
884.03013774616625
 31
0.0
  0
LINE
  5
584E
  8
1
 10
1094.58287229742
 20
833.0301377461642
 30
0.0
 11
714.58287229741927
 21
833.03013774616602
 31
0.0
  0
LINE
  5
584F
  8
1
 10
1062.282872297418
 20
1008.030137746166
 30
0.0
 11
746.88287229742025
 21
1008.030137746166
 31
0.0
  0
LINE
  5
5850
  8
2
 10
1081.5828722974179
 20
819.04733868032008
 30
0.0
 11
1081.5828722974179
 21
845.330137746167
 31
0.0
  0
LINE
  5
5851
  8
1
 10
1094.58287229742
 20
833.0301377461642
 30
0.0
 11
1094.5828722974211
 21
835.33013774616529
 31
0.0
  0
LINE
  5
5852
  8
1
 10
1094.58287229742
 20
835.33013774616529
 30
0.0
 11
1064.5828722974179
 21
835.330137746167
 31
0.0
  0
LINE
  5
5853
  8
1
 10
771.88287229742218
 20
983.03013774616602
 30
0.0
 11
771.88287229742218
 21
884.03013774616625
 31
0.0
  0
LINE
  5
5854
  8
1
 10
1037.2828722974191
 20
983.03013774616602
 30
0.0
 11
1037.2828722974191
 21
884.03013774616625
 31
0.0
  0
LINE
  5
5855
  8
1
 10
771.88287229742218
 20
884.03013774616625
 30
0.0
 11
746.88287229742025
 21
884.03013774616625
 31
0.0
  0
LINE
  5
5856
  8
FUTO
 10
714.58287229741927
 20
833.03013774616602
 30
0.0
 11
714.58287229741927
 21
835.330137746167
 31
0.0
  0
LINE
  5
5857
  8
2
 10
727.58287229742098
 20
820.11981104956737
 30
0.0
 11
727.58287229741927
 21
845.33013774616518
 31
0.0
  0
LINE
  5
5858
  8
1
 10
744.58287229741927
 20
835.330137746167
 30
0.0
 11
714.58287229741927
 21
835.33013774616529
 31
0.0
  0
LINE
  5
5859
  8
FUTO
 10
771.88287229741945
 20
983.03013774616602
 30
0.0
 11
746.88287229742025
 21
1008.030137746166
 31
0.0
  0
LINE
  5
585A
  8
1
 10
1037.2828722974191
 20
983.03013774616602
 30
0.0
 11
771.88287229742025
 21
983.03013774616602
 31
0.0
  0
LINE
  5
585B
  8
CT
 10
961.66899335210735
 20
950.21205007266565
 30
0.0
 11
951.15690781807552
 21
975.59046953774725
 31
0.0
  0
CIRCLE
  5
585C
  8
1
 10
956.62781909907153
 20
962.3825213246314
 30
0.0
 40
4.0
  0
LINE
  5
585D
  8
CT
 10
847.49675124273097
 20
950.21205007266565
 30
0.0
 11
858.00883677676109
 21
975.59046953774725
 31
0.0
  0
CIRCLE
  5
585E
  8
1
 10
852.53792549576701
 20
962.3825213246314
 30
0.0
 40
4.0
  0
LINE
  5
585F
  8
1
 10
941.67837129741827
 20
1011.579209746165
 30
0.0
 11
867.43106329742034
 21
1011.579209746165
 31
0.0
  0
LINE
  5
5860
  8
1
 10
987.08287229741927
 20
1009.689255746165
 30
0.0
 11
822.08284229742003
 21
1009.689255746165
 31
0.0
  0
LINE
  5
5861
  8
CT
 10
967.08287229741916
 20
1005.811551746165
 30
0.0
 11
967.08287229741916
 21
1014.398558746165
 31
0.0
  0
LINE
  5
5862
  8
CT
 10
1042.4009599709191
 20
1030.944016691476
 30
0.0
 11
1017.022540505836
 21
1041.456102225507
 31
0.0
  0
ARC
  5
5863
  8
1
 10
956.94807629741899
 20
1017.530137746166
 30
0.0
 40
5.0
 50
215.53823900000509
 51
270.0
  0
LINE
  5
5864
  8
1
 10
951.20681029741991
 20
1016.965659746165
 30
0.0
 11
952.87941229741864
 21
1014.623887746166
 31
0.0
  0
LINE
  5
5865
  8
1
 10
982.41603329741872
 20
1012.5247667461661
 30
0.0
 11
966.90604029741917
 21
1030.211633746165
 31
0.0
  0
LINE
  5
5866
  8
1
 10
987.08287229741927
 20
1012.530137746166
 30
0.0
 11
956.94804629741805
 21
1012.530137746166
 31
0.0
  0
CIRCLE
  5
5867
  8
1
 10
1030.230488718953
 20
1035.9851909445131
 30
0.0
 40
4.0
  0
ARC
  5
5868
  8
1
 10
904.58287229741916
 20
1088.030137746166
 30
0.0
 40
85.0
 50
295.87553399999388
 51
303.26821866829198
  0
LINE
  5
5869
  8
1
 10
947.08287229741927
 20
1009.689255746165
 30
0.0
 11
947.08287229741927
 21
1008.030137746166
 31
0.0
  0
LINE
  5
586A
  8
1
 10
982.08287229741927
 20
1009.689255746165
 30
0.0
 11
982.08287229741927
 21
1008.030137746166
 31
0.0
  0
LINE
  5
586B
  8
1
 10
987.08287229741927
 20
1009.689255746165
 30
0.0
 11
987.08287229741927
 21
1012.530137746166
 31
0.0
  0
LINE
  5
586C
  8
CT
 10
766.76478462391867
 20
1030.9440166914781
 30
0.0
 11
792.14320408900221
 21
1041.456102225507
 31
0.0
  0
LINE
  5
586D
  8
CT
 10
842.08287229741916
 20
1005.811551746165
 30
0.0
 11
842.08287229741916
 21
1014.398558746165
 31
0.0
  0
LINE
  5
586E
  8
1
 10
822.08284229742003
 20
1012.530137746166
 30
0.0
 11
852.21766829741955
 21
1012.530137746166
 31
0.0
  0
LINE
  5
586F
  8
1
 10
826.74850429741946
 20
1012.5233137461649
 30
0.0
 11
842.26156429742048
 21
1030.213775746166
 31
0.0
  0
LINE
  5
5870
  8
1
 10
857.07460229741889
 20
1015.727524746166
 30
0.0
 11
856.28633329742024
 21
1014.623887746166
 31
0.0
  0
LINE
  5
5871
  8
1
 10
857.95132129741887
 20
1016.954999746165
 30
0.0
 11
856.28633329742024
 21
1014.623887746166
 31
0.0
  0
ARC
  5
5872
  8
1
 10
852.21766829741955
 20
1017.530137746166
 30
0.0
 40
5.000032
 50
270.0
 51
324.46174600000688
  0
LINE
  5
5873
  8
1
 10
827.08287229741916
 20
1009.689255746165
 30
0.0
 11
827.08287229741916
 21
1008.030137746166
 31
0.0
  0
LINE
  5
5874
  8
1
 10
862.08287229741927
 20
1009.689255746165
 30
0.0
 11
862.08287229741927
 21
1008.030137746166
 31
0.0
  0
LINE
  5
5875
  8
1
 10
822.08284229742003
 20
1012.530137746166
 30
0.0
 11
822.08284229742003
 21
1009.689255746165
 31
0.0
  0
CIRCLE
  5
5876
  8
1
 10
778.93525587588465
 20
1035.9851909445131
 30
0.0
 40
4.0
  0
LINE
  5
5879
  8
FUTO
 10
1104.577316827595
 20
838.03015317790778
 30
0.0
 11
924.57731682759197
 21
838.03015317790778
 31
0.0
  0
LINE
  5
587A
  8
FUTO
 10
1104.582872297419
 20
837.03013774616591
 30
0.0
 11
1084.582872297419
 21
837.03013774616591
 31
0.0
  0
LINE
  5
587B
  8
FUTO
 10
1103.582872297419
 20
836.03013774616591
 30
0.0
 11
1084.582872297419
 21
836.03013774616591
 31
0.0
  0
LINE
  5
587C
  8
FUTO
 10
1102.582872297419
 20
839.03013774616613
 30
0.0
 11
1084.582872297419
 21
857.03013774616602
 31
0.0
  0
LINE
  5
587D
  8
FUTO
 10
1084.582872297419
 20
1088.030137746166
 30
0.0
 11
1104.582872297419
 21
1088.030137746166
 31
0.0
  0
LINE
  5
587E
  8
FUTO
 10
1104.582872297419
 20
1089.030137746166
 30
0.0
 11
1084.582872297419
 21
1089.030137746166
 31
0.0
  0
LINE
  5
587F
  8
FUTO
 10
1103.582872297419
 20
1090.030137746166
 30
0.0
 11
1084.582872297419
 21
1090.030137746166
 31
0.0
  0
LINE
  5
5880
  8
FUTO
 10
1102.582872297419
 20
1087.0301377461651
 30
0.0
 11
1084.582872297419
 21
1069.0301377461651
 31
0.0
  0
LINE
  5
5881
  8
FUTO
 10
1084.582872297419
 20
857.03013774616602
 30
0.0
 11
1084.582872297419
 21
1069.0301377461651
 31
0.0
  0
LINE
  5
5882
  8
1
 10
964.58287229741916
 20
1238.030137746166
 30
0.0
 11
1062.982872297418
 21
1154.1301377461641
 31
0.0
  0
LINE
  5
5883
  8
2
 10
1136.9392517866529
 20
1088.030137746166
 30
0.0
 11
642.60515223600385
 21
1088.030137746164
 31
0.0
  0
LINE
  5
5884
  8
FUTO
 10
1084.582872297419
 20
827.14107910550035
 30
0.0
 11
924.52176212935547
 21
828.03030749532309
 31
0.0
  0
LINE
  5
5885
  8
1
 10
1064.582872297419
 20
1154.1301377461641
 30
0.0
 11
1062.982872297418
 21
1154.1301377461641
 31
0.0
  0
LINE
  5
5886
  8
FUTO
 10
1084.582872297419
 20
827.14107910550035
 30
0.0
 11
1084.582872297419
 21
837.14123342529763
 31
0.0
  0
ARC
  5
5887
  8
FUTO
 10
890.58287229741916
 20
1102.030137746166
 30
0.0
 40
172.0
 50
11.54926182355298
 51
90.510333244806702
  0
ARC
  5
5888
  8
FUTO
 10
890.58287229741916
 20
1102.030137746166
 30
0.0
 40
162.0
 50
11.54926182355298
 51
90.510333244806702
  0
LINE
  5
5889
  8
1
 10
844.58287229741927
 20
1238.030137746166
 30
0.0
 11
746.18287229741964
 21
1154.1301377461641
 31
0.0
  0
LINE
  5
588A
  8
CT
 10
1042.4009599709191
 20
1145.1162588008519
 30
0.0
 11
1017.022540505836
 21
1134.6041732668241
 31
0.0
  0
CIRCLE
  5
588B
  8
1
 10
1030.230488718953
 20
1140.0750845478181
 30
0.0
 40
4.0
  0
LINE
  5
588C
  8
CT
 10
766.76478462391867
 20
1145.1162588008519
 30
0.0
 11
792.14320408900221
 21
1134.6041732668241
 31
0.0
  0
CIRCLE
  5
588D
  8
1
 10
778.93525587588465
 20
1140.0750845478181
 30
0.0
 40
4.0
  0
LINE
  5
588E
  8
1
 10
746.18287229741964
 20
1154.1301377461641
 30
0.0
 11
744.58287229741927
 21
1154.1301377461641
 31
0.0
  0
LINE
  5
588F
  8
CT
 10
847.49675124273097
 20
1225.848225419664
 30
0.0
 11
858.00883677676291
 21
1200.4698059545831
 31
0.0
  0
LINE
  5
5890
  8
CT
 10
961.66899335210735
 20
1225.848225419664
 30
0.0
 11
951.15690781807734
 21
1200.469805954581
 31
0.0
  0
CIRCLE
  5
5891
  8
1
 10
956.62781909907153
 20
1213.6777541677
 30
0.0
 40
4.0
  0
CIRCLE
  5
5892
  8
1
 10
852.53792549576701
 20
1213.6777541677
 30
0.0
 40
4.0
  0
ARC
  5
5893
  8
FUTO
 10
1120.582872297419
 20
1149.0301377461619
 30
0.0
 40
72.753061747871584
 50
191.54926182355291
 51
235.800380544543
  0
LINE
  5
5894
  8
FUTO
 10
1084.582872297419
 20
1088.030137746166
 30
0.0
 11
1084.582872297419
 21
1093.961981156408
 31
0.0
  0
LINE
  5
5895
  8
1
 10
964.58287229741916
 20
1238.030137746166
 30
0.0
 11
844.58287229741927
 21
1238.030137746166
 31
0.0
  0
LINE
  5
5896
  8
FUTO
 10
1084.582872297419
 20
1088.030137746166
 30
0.0
 11
1084.582872297419
 21
1089.030137746166
 31
0.0
  0
ARC
  5
5897
  8
FUTO
 10
1115.1028416195611
 20
1147.5587238460939
 30
0.0
 40
57.203726762688042
 50
188.3279243017862
 51
233.39649632638839
  0
ARC
  5
5898
  8
FUTO
 10
1074.582872297419
 20
1093.961981156408
 30
0.0
 40
10.0
 50
0.000000000000007
 51
50.12703109385901
  0
LINE
  5
5899
  8
FUTO
 10
1104.582872297419
 20
817.03013774616602
 30
0.0
 11
1104.582872297419
 21
1109.0301377461651
 31
0.0
  0
LINE
  5
589A
  8
FUTO
 10
1103.582872297419
 20
837.03013774616591
 30
0.0
 11
1103.582872297419
 21
1089.030137746166
 31
0.0
  0
LINE
  5
589C
  8
FUTO
 10
1103.582872297419
 20
817.03013774616602
 30
0.0
 11
1103.582872297419
 21
836.03013774616591
 31
0.0
  0
LINE
  5
589D
  8
FUTO
 10
1104.582872297419
 20
817.03013774616602
 30
0.0
 11
1103.582872297419
 21
817.03013774616602
 31
0.0
  0
LINE
  5
589E
  8
FUTO
 10
1102.582872297419
 20
837.03013774616591
 30
0.0
 11
1102.582872297419
 21
839.03013774616613
 31
0.0
  0
LINE
  5
589F
  8
FUTO
 10
1103.582872297419
 20
1090.030137746166
 30
0.0
 11
1103.582872297419
 21
1109.0301377461651
 31
0.0
  0
LINE
  5
58A0
  8
FUTO
 10
1102.582872297419
 20
1087.0301377461651
 30
0.0
 11
1102.582872297419
 21
1089.030137746166
 31
0.0
  0
LINE
  5
58A1
  8
FUTO
 10
1104.582872297419
 20
1109.0301377461651
 30
0.0
 11
1103.582872297419
 21
1109.0301377461651
 31
0.0
  0
LINE
  5
5C59
  8
1
 10
1094.58287229742
 20
773.0301377461642
 30
0.0
 11
1064.582872297417
 21
773.03013774616431
 31
0.0
  0
LINE
  5
5C5C
  8
FUTO
 10
714.58287229741927
 20
833.03013774616602
 30
0.0
 11
714.58287229741927
 21
830.73013774616595
 31
0.0
  0
LINE
  5
5C8D
  8
FUTO
 10
714.58287229741904
 20
775.33013774616575
 30
0.0
 11
714.58287229741927
 21
773.03013774616602
 31
0.0
  0
LINE
  5
5C8F
  8
1
 10
742.28287229741932
 20
830.73013774616595
 30
0.0
 11
714.58287229741927
 21
830.73013774616595
 31
0.0
  0
LINE
  5
5C90
  8
1
 10
742.28287229742125
 20
775.33013774616575
 30
0.0
 11
714.58287229741927
 21
775.33013774616586
 31
0.0
  0
LINE
  5
5C91
  8
FUTO
 10
744.58287229741927
 20
833.03013774616602
 30
0.0
 11
744.5828722974212
 21
773.03013774616579
 31
0.0
  0
LINE
  5
5C92
  8
FUTO
 10
742.28287229741932
 20
830.73013774616595
 30
0.0
 11
742.28287229742125
 21
775.33013774616575
 31
0.0
  0
LINE
  5
5C93
  8
FUTO
 10
1066.882872297419
 20
830.73013774616595
 30
0.0
 11
1066.882872297417
 21
775.33013774616575
 31
0.0
  0
LINE
  5
5C94
  8
FUTO
 10
1064.582872297419
 20
833.03013774616602
 30
0.0
 11
1064.582872297417
 21
773.03013774616579
 31
0.0
  0
LINE
  5
5C95
  8
1
 10
1066.882872297417
 20
775.33013774616575
 30
0.0
 11
1094.582872297419
 21
775.33013774616586
 31
0.0
  0
LINE
  5
5C96
  8
FUTO
 10
1094.582872297419
 20
775.33013774616575
 30
0.0
 11
1094.582872297419
 21
773.03013774616602
 31
0.0
  0
LINE
  5
5C97
  8
1
 10
1066.882872297419
 20
830.73013774616595
 30
0.0
 11
1094.582872297419
 21
830.73013774616595
 31
0.0
  0
LINE
  5
5C98
  8
FUTO
 10
1094.582872297419
 20
833.03013774616602
 30
0.0
 11
1094.582872297419
 21
830.73013774616595
 31
0.0
  0
LINE
  5
5C99
  8
2
 10
727.58287229742098
 20
763.24661363580105
 30
0.0
 11
727.58287229741927
 21
788.45694033239897
 31
0.0
  0
LINE
  5
5C9A
  8
2
 10
1081.5828722974179
 20
762.17414126655365
 30
0.0
 11
1081.5828722974179
 21
788.45694033240068
 31
0.0
  0
DIMENSION
  5
5C9D
  8
SP
  2
*D13
 10
1174.582872297419
 20
838.03015317790778
 30
0.0
 11
1149.582872297419
 21
963.03014546203701
 31
0.0
 70
     0
 13
1136.9392517866529
 23
1088.030137746166
 33
0.0
 14
1104.577316827595
 24
838.03015317790778
 34
0.0
 50
90.0
  0
DIMENSION
  5
5CB4
  8
SP
  2
*D14
 10
1244.582872297419
 20
1088.030137746166
 30
0.0
 11
1219.582872297419
 21
930.53013774616534
 31
0.0
 70
     0
 13
1094.58287229742
 23
773.0301377461642
 33
0.0
 14
1136.9392517866529
 24
1088.030137746166
 34
0.0
 50
90.0
  0
DIMENSION
  5
5CC1
  8
SP
  2
*D15
 10
1244.582872297419
 20
1264.030137746166
 30
0.0
 11
1219.582872297419
 21
1176.030137746166
 31
0.0
 70
     0
 13
1136.9392517866529
 23
1088.030137746166
 33
0.0
 14
887.58287229741904
 24
1264.030137746166
 34
0.0
 50
90.0
  0
LINE
  5
5CCE
  8
1
 10
744.58287229742132
 20
773.03013774616591
 30
0.0
 11
714.58287229741927
 21
773.03013774616602
 31
0.0
  0
DIMENSION
  5
5CD2
  8
SP
  2
*D16
 10
694.58287229741904
 20
1335.030137746166
 30
0.0
 11
799.58287229741916
 21
1360.030137746166
 31
0.0
 70
     0
 13
904.58287229741916
 23
1297.806556890491
 33
0.0
 14
694.58287229741904
 24
1068.030137746166
 34
0.0
  0
DIMENSION
  5
5CE8
  8
SP
  2
*D17
 10
1104.582872297419
 20
1335.030137746166
 30
0.0
 11
1004.582872297419
 21
1360.030137746166
 31
0.0
 70
     0
 13
904.58287229741916
 23
1297.806556890491
 33
0.0
 14
1104.582872297419
 24
1109.0301377461651
 34
0.0
  0
LINE
  5
61F7
  8
1
 10
1455.582872297419
 20
833.03013774616625
 30
0.0
 11
1685.582872297419
 21
833.03013774616625
 31
0.0
  0
LINE
  5
61F8
  8
1
 10
1455.582872297419
 20
835.33013774616541
 30
0.0
 11
1653.28287229742
 21
835.33013774616347
 31
0.0
  0
LINE
  5
61FA
  8
1
 10
1455.5828722974211
 20
835.33013774616541
 30
0.0
 11
1455.582872297419
 21
833.03013774616625
 31
0.0
  0
LINE
  5
61FC
  8
1
 10
1655.582872297419
 20
835.33013774616347
 30
0.0
 11
1685.582872297419
 21
835.33013774616541
 31
0.0
  0
LINE
  5
61FD
  8
1
 10
1685.582872297419
 20
835.33013774616347
 30
0.0
 11
1685.582872297419
 21
833.03013774616625
 31
0.0
  0
LINE
  5
61FE
  8
1
 10
1655.582872297419
 20
1238.030137746166
 30
0.0
 11
1655.582872297419
 21
833.03013774616625
 31
0.0
  0
LINE
  5
61FF
  8
1
 10
1653.282872297418
 20
1238.030137746164
 30
0.0
 11
1653.28287229742
 21
835.33013774616347
 31
0.0
  0
LINE
  5
6200
  8
2
 10
1535.78287229742
 20
1168.314012746167
 30
0.0
 11
1535.78287229742
 21
1004.014024746166
 31
0.0
  0
LINE
  5
6201
  8
1
 10
1436.78287229742
 20
1011.030137746166
 30
0.0
 11
1436.78287229742
 21
1171.5301377461651
 31
0.0
  0
LINE
  5
6202
  8
1
 10
1455.5828722974211
 20
835.33013774616541
 30
0.0
 11
1626.98287229742
 21
1132.8301377461651
 31
0.0
  0
LINE
  5
6203
  8
1
 10
1446.582872297419
 20
956.03013774616784
 30
0.0
 11
1479.8828722974181
 21
884.0301377461642
 31
0.0
  0
LINE
  5
6204
  8
1
 10
1446.582872297419
 20
1008.030137746166
 30
0.0
 11
1446.582872297419
 21
956.03013774616954
 31
0.0
  0
LINE
  5
6205
  8
1
 10
1556.233561373052
 20
1010.030137746166
 30
0.0
 11
1470.78287229742
 21
1010.030137746166
 31
0.0
  0
LINE
  5
6206
  8
1
 10
1557.673897507505
 20
1012.530137746166
 30
0.0
 11
1470.78287229742
 21
1012.530137746166
 31
0.0
  0
LINE
  5
6207
  8
1
 10
1535.78287229742
 20
1010.030137746166
 30
0.0
 11
1501.78287229742
 21
1010.030137746166
 31
0.0
  0
LINE
  5
6208
  8
1
 10
1446.582872297419
 20
1008.030137746167
 30
0.0
 11
1555.0812924654899
 21
1008.030137746169
 31
0.0
  0
LINE
  5
6209
  8
1
 10
1504.91092429742
 20
1020.361558746166
 30
0.0
 11
1476.78287229742
 21
1020.361558746166
 31
0.0
  0
LINE
  5
620A
  8
1
 10
1470.78287229742
 20
1010.030137746166
 30
0.0
 11
1470.78287229742
 21
1014.361558746166
 31
0.0
  0
LINE
  5
620B
  8
1
 10
1475.7828722974191
 20
1010.030137746166
 30
0.0
 11
1475.7828722974191
 21
1008.030137746166
 31
0.0
  0
LINE
  5
620C
  8
1
 10
1473.28287229742
 20
1045.4762427461669
 30
0.0
 11
1473.28287229742
 21
1019.234955746166
 31
0.0
  0
ARC
  5
620D
  8
1
 10
1476.78287229742
 20
1014.361558746166
 30
0.0
 40
6.0
 50
90.0
 51
180.0
  0
LINE
  5
620E
  8
1
 10
1470.4596302974189
 20
1013.230089746166
 30
0.0
 11
1470.7698722974189
 21
1013.230089746166
 31
0.0
  0
LINE
  5
620F
  8
CT
 10
1485.78287229742
 20
1016.242051746165
 30
0.0
 11
1485.78287229742
 21
1000.730137746165
 31
0.0
  0
LINE
  5
6210
  8
1
 10
1505.78287229742
 20
1010.030137746166
 30
0.0
 11
1505.78287229742
 21
1008.030137746166
 31
0.0
  0
ARC
  5
6211
  8
1
 10
1512.8298702974189
 20
1025.1874867461661
 30
0.0
 40
6.0001220000000002
 50
90.001167000002894
 51
161.67526200000549
  0
LINE
  5
6212
  8
1
 10
1507.1338862974189
 20
1027.0739617461661
 30
0.0
 11
1503.452672297419
 21
1015.958238746165
 31
0.0
  0
ARC
  5
6213
  8
1
 10
1498.706151297418
 20
1017.530137746166
 30
0.0
 40
5.0
 50
270.0
 51
341.67651399999801
  0
ARC
  5
6214
  8
1
 10
1437.78287229742
 20
1011.030137746166
 30
0.0
 40
1.000030999999999
 50
180.0
 51
269.99826000000689
  0
LINE
  5
6215
  8
1
 10
1458.7257442974189
 20
1037.9467027461651
 30
0.0
 11
1458.7257442974189
 21
1010.026536746165
 31
0.0
  0
LINE
  5
6216
  8
1
 10
1458.7257442974189
 20
1010.030137746166
 30
0.0
 11
1437.78287229742
 21
1010.030137746166
 31
0.0
  0
LINE
  5
6217
  8
1
 10
1436.78287229742
 20
1011.030137746166
 30
0.0
 11
1404.1510362974191
 21
1013.909410746166
 31
0.0
  0
LINE
  5
6218
  8
1
 10
1458.7257442974189
 20
1013.230150746165
 30
0.0
 11
1470.7698722974189
 21
1013.230150746165
 31
0.0
  0
LINE
  5
6219
  8
1
 10
1402.78287229742
 20
1160.8074817461661
 30
0.0
 11
1402.78287229742
 21
1015.403612746166
 31
0.0
  0
LINE
  5
621A
  8
1
 10
1458.7257442974189
 20
1037.9467027461651
 30
0.0
 11
1476.7829042974199
 21
1047.286600746165
 31
0.0
  0
LINE
  5
621B
  8
1
 10
1535.78287229742
 20
1031.187608746166
 30
0.0
 11
1512.8296862974189
 21
1031.187608746166
 31
0.0
  0
ARC
  5
621C
  8
1
 10
1404.28287229742
 20
1015.403612746166
 30
0.0
 40
1.4999849999999999
 50
180.0
 51
264.95834399999211
  0
LINE
  5
621D
  8
1
 10
1535.78287229742
 20
1031.187608746166
 30
0.0
 11
1558.736058297419
 21
1031.187608746166
 31
0.0
  0
LINE
  5
621E
  8
1
 10
1564.431859297418
 20
1027.0739617461661
 30
0.0
 11
1565.023619515156
 21
1025.2870939729801
 31
0.0
  0
ARC
  5
621F
  8
1
 10
1558.73599729742
 20
1025.1874867461661
 30
0.0
 40
6.0001939999999996
 50
18.324733999998202
 51
89.99883299999712
  0
LINE
  5
6220
  8
1
 10
1476.78287229742
 20
1047.286584194462
 30
0.0
 11
1476.78287229742
 21
1173.030137746166
 31
0.0
  0
LINE
  5
6221
  8
1
 10
1403.98038229742
 20
1162.276658746167
 30
0.0
 11
1435.9845332974189
 21
1168.8657707461659
 31
0.0
  0
LINE
  5
6222
  8
1
 10
1598.28287229742
 20
1163.5301377461651
 30
0.0
 11
1598.282872297422
 21
1083.0153769526969
 31
0.0
  0
LINE
  5
6223
  8
1
 10
1476.78287229742
 20
1162.830125746166
 30
0.0
 11
1598.28287229742
 21
1162.830125746166
 31
0.0
  0
ARC
  5
6224
  8
1
 10
1404.28287229742
 20
1160.8074817461661
 30
0.0
 40
1.499994
 50
101.6341019999994
 51
180.0
  0
LINE
  5
6225
  8
1
 10
1626.98287229742
 20
1132.8301377461651
 30
0.0
 11
1653.282872297418
 21
1154.1301377461641
 31
0.0
  0
LINE
  5
6226
  8
1
 10
1620.78287229742
 20
1122.0687608500141
 30
0.0
 11
1620.78287229742
 21
1161.530137746166
 31
0.0
  0
ARC
  5
6227
  8
1
 10
1618.78287229742
 20
1161.530137746166
 30
0.0
 40
2.0
 50
0.0
 51
90.0
  0
LINE
  5
6228
  8
1
 10
1598.28287229742
 20
1163.5301377461651
 30
0.0
 11
1618.78287229742
 21
1163.5301377461651
 31
0.0
  0
LINE
  5
6229
  8
1
 10
1620.78287229742
 20
1152.0959337461661
 30
0.0
 11
1620.78287229742
 21
1161.0959337461661
 31
0.0
  0
LINE
  5
622A
  8
1
 10
1620.78287229742
 20
1160.845140746165
 30
0.0
 11
1620.78287229742
 21
1152.215135746166
 31
0.0
  0
ARC
  5
622B
  8
1
 10
1438.28287229742
 20
1171.5301377461651
 30
0.0
 40
1.4999849999999999
 50
89.999419999993734
 51
180.0
  0
ARC
  5
622C
  8
1
 10
1435.782933297419
 20
1169.845140746165
 30
0.0
 40
0.999898
 50
281.62991300000999
 51
0.0034970000049811
  0
LINE
  5
622D
  8
1
 10
1438.28287229742
 20
1173.030137746166
 30
0.0
 11
1476.78287229742
 21
1173.030137746166
 31
0.0
  0
LINE
  5
622E
  8
1
 10
1653.282872297418
 20
1238.030137746166
 30
0.0
 11
1655.582872297419
 21
1238.030137746166
 31
0.0
  0
ARC
  5
622F
  8
1
 10
1660.582872297419
 20
1238.030137746166
 30
0.0
 40
3.0
 50
270.0
 51
0.0
  0
ARC
  5
6230
  8
1
 10
1658.582872297419
 20
1232.030137746166
 30
0.0
 40
3.0
 50
90.0
 51
180.0
  0
LINE
  5
6231
  8
1
 10
1660.582872297419
 20
1235.030137746166
 30
0.0
 11
1658.582872297419
 21
1235.030137746166
 31
0.0
  0
ARC
  5
6232
  8
1
 10
1658.582872297419
 20
944.03013774616591
 30
0.0
 40
3.0
 50
180.0
 51
270.0
  0
LINE
  5
6233
  8
1
 10
1660.582872297419
 20
941.03013774616602
 30
0.0
 11
1658.582872297419
 21
941.03013774616602
 31
0.0
  0
ARC
  5
6234
  8
1
 10
1660.582872297419
 20
938.03013774616613
 30
0.0
 40
3.0
 50
0.0
 51
90.0
  0
LINE
  5
6235
  8
1
 10
1853.5828722974211
 20
1232.030137746166
 30
0.0
 11
1853.582872297419
 21
944.03013774616591
 31
0.0
  0
ARC
  5
6236
  8
1
 10
1848.582872297419
 20
938.03013774616613
 30
0.0
 40
3.0
 50
90.0
 51
180.0
  0
LINE
  5
6237
  8
1
 10
1848.582872297419
 20
941.03013774616602
 30
0.0
 11
1850.582872297419
 21
941.03013774616602
 31
0.0
  0
ARC
  5
6238
  8
1
 10
1850.582872297419
 20
944.03013774616591
 30
0.0
 40
3.0
 50
270.0
 51
0.0
  0
LINE
  5
6239
  8
FUTO
 10
1844.5828722974179
 20
963.03013774616613
 30
0.0
 11
1853.582872297419
 21
963.03013774616613
 31
0.0
  0
LINE
  5
623A
  8
1
 10
1845.582872297419
 20
1238.030137746166
 30
0.0
 11
1845.5828722974211
 21
1088.030137746166
 31
0.0
  0
LINE
  5
623B
  8
FUTO
 10
1844.582872297419
 20
1213.030137746166
 30
0.0
 11
1853.58287229742
 21
1213.030137746166
 31
0.0
  0
LINE
  5
623C
  8
1
 10
1848.582872297419
 20
1235.030137746166
 30
0.0
 11
1850.582872297419
 21
1235.030137746166
 31
0.0
  0
ARC
  5
623D
  8
1
 10
1850.582872297419
 20
1232.030137746166
 30
0.0
 40
3.0
 50
0.0
 51
90.0
  0
ARC
  5
623E
  8
1
 10
1848.582872297419
 20
1238.030137746166
 30
0.0
 40
3.0
 50
180.0
 51
270.0
  0
DIMENSION
  5
6500
  8
SP
  2
*D18
 10
1844.582872297419
 20
1335.030137746166
 30
0.0
 11
1754.582872297419
 21
1360.030137746166
 31
0.0
 70
     0
 13
1664.582872297419
 23
1253.030137746166
 33
0.0
 14
1844.582872297419
 24
1253.030137746166
 34
0.0
  0
DIMENSION
  5
652A
  8
SP
  2
*D19
 10
1853.5828722974211
 20
1405.030137746166
 30
0.0
 11
1804.08287229742
 21
1430.030137746166
 31
0.0
 70
     0
 13
1754.582872297419
 23
1375.030137746166
 33
0.0
 14
1853.5828722974211
 24
1232.030137746166
 34
0.0
  0
DIMENSION
  5
6537
  8
SP
  2
*D20
 10
1402.78287229742
 20
1405.030137746166
 30
0.0
 11
1578.682872297419
 21
1430.030137746166
 31
0.0
 70
     0
  1
（400）
 13
1754.582872297419
 23
1375.030137746166
 33
0.0
 14
1402.78287229742
 24
1160.8074817461661
 34
0.0
  0
DIMENSION
  5
6568
  8
SP
  2
*D21
 10
1945.594947234451
 20
963.03013774616613
 30
0.0
 11
1920.59494723445
 21
1088.030137746166
 31
0.0
 70
     0
 13
1853.5828722974211
 23
1213.030137746166
 33
0.0
 14
1853.582872297419
 24
963.03013774616613
 34
0.0
 50
90.0
1001
ACAD
1000
DSTYLE
1002
{
1070
     3
1000
φ<>
1002
}
  0
LINE
  5
657E
  8
FUTO
 10
1455.582872297419
 20
773.03013774616613
 30
0.0
 11
1655.582872297419
 21
773.03013774616613
 31
0.0
  0
LINE
  5
657F
  8
FUTO
 10
1455.582872297419
 20
833.03013774616625
 30
0.0
 11
1455.582872297419
 21
773.03013774616613
 31
0.0
  0
LINE
  5
6580
  8
FUTO
 10
1655.582872297419
 20
833.03013774616625
 30
0.0
 11
1655.582872297419
 21
773.03013774616613
 31
0.0
  0
LINE
  5
6581
  8
1
 10
1455.582872297419
 20
830.73013774616618
 30
0.0
 11
1655.582872297419
 21
830.73013774616618
 31
0.0
  0
LINE
  5
6582
  8
FUTO
 10
1455.582872297419
 20
775.33013774616609
 30
0.0
 11
1655.582872297419
 21
775.3301377461662
 31
0.0
  0
LINE
  5
6583
  8
2
 10
1475.582872297419
 20
787.42924731161895
 30
0.0
 11
1475.582872297419
 21
760.81042362077426
 31
0.0
  0
LINE
  5
6584
  8
2
 10
1635.582872297419
 20
787.42924731161895
 30
0.0
 11
1635.582872297419
 21
760.81042362077426
 31
0.0
  0
LINE
  5
6585
  8
2
 10
1475.582872297419
 20
847.12361809318509
 30
0.0
 11
1475.582872297419
 21
820.50479440234051
 31
0.0
  0
LINE
  5
6586
  8
2
 10
1635.582872297419
 20
847.12361809318509
 30
0.0
 11
1635.582872297419
 21
820.50479440234051
 31
0.0
  0
DIMENSION
  5
6587
  8
SP
  2
*D22
 10
1655.582872297419
 20
633.03013774616613
 30
0.0
 11
1555.582872297419
 21
658.03013774616613
 31
0.0
 70
     0
 13
1455.582872297419
 23
773.03013774616613
 33
0.0
 14
1655.582872297419
 24
773.03013774616613
 34
0.0
  0
DIMENSION
  5
6594
  8
SP
  2
*D23
 10
1754.582872297419
 20
633.03013774616613
 30
0.0
 11
1705.082872297419
 21
658.03013774616613
 31
0.0
 70
     0
 13
1655.582872297419
 23
773.03013774616613
 33
0.0
 14
1754.582872297419
 24
793.13168504360601
 34
0.0
  0
DIMENSION
  5
6A57
  8
SP
  2
*D26
 10
1204.9564480521301
 20
1833.121728488446
 30
0.0
 11
1179.9564480521301
 21
1933.1217284884431
 31
0.0
 70
     0
 13
1094.5828722974211
 23
2033.121728488441
 33
0.0
 14
1094.582872297419
 24
1833.121728488446
 34
0.0
 50
90.0
  0
LINE
  5
6A58
  8
2
 10
904.58287229741916
 20
1736.6368343932661
 30
0.0
 11
904.58287229741916
 21
2252.3691039297701
 31
0.0
  0
LINE
  5
6A59
  8
1
 10
938.08287229741745
 20
1998.3217284884429
 30
0.0
 11
938.08287229741927
 21
2007.3217284884429
 31
0.0
  0
LINE
  5
6A5A
  8
FUTO
 10
1094.582872297419
 20
1833.121728488446
 30
0.0
 11
1094.5828722974211
 21
2033.121728488441
 31
0.0
  0
LINE
  5
6A5B
  8
1
 10
1064.582872297419
 20
1824.1217284884419
 30
0.0
 11
1064.5828722974211
 21
2033.121728488441
 31
0.0
  0
LINE
  5
6A5C
  8
1
 10
871.08287229741927
 20
2007.3217284884429
 30
0.0
 11
871.08287229741927
 21
1998.3217284884429
 31
0.0
  0
LINE
  5
6A5D
  8
1
 10
714.58287229741563
 20
1833.121728488446
 30
0.0
 11
714.58287229741381
 21
2033.1217284884401
 31
0.0
  0
LINE
  5
6A5E
  8
1
 10
744.58287229741563
 20
1824.1217284884499
 30
0.0
 11
744.58287229741381
 21
2033.1217284884401
 31
0.0
  0
DIMENSION
  5
6A5F
  8
SP
  2
*D25
 10
1094.582872297419
 20
1675.5535321584241
 30
0.0
 11
904.58287229741745
 21
1700.5535321584241
 31
0.0
 70
     0
 13
714.58287229741563
 23
1833.121728488446
 33
0.0
 14
1094.582872297419
 24
1833.121728488446
 34
0.0
  0
LINE
  5
6A60
  8
1
 10
829.78288429741849
 20
1854.3217284884429
 30
0.0
 11
829.78288429741849
 21
1975.8217284884429
 31
0.0
  0
LINE
  5
6A61
  8
1
 10
979.38286029741994
 20
1854.3217284884429
 30
0.0
 11
979.38286029741994
 21
1975.8217284884429
 31
0.0
  0
LINE
  5
6A62
  8
1
 10
819.58287229741927
 20
1815.8217284884429
 30
0.0
 11
819.58287229741927
 21
1854.3217284884429
 31
0.0
  0
LINE
  5
6A63
  8
1
 10
989.58287229741916
 20
1815.8217284884429
 30
0.0
 11
989.58287229741916
 21
1854.3217284884429
 31
0.0
  0
LINE
  5
6A64
  8
1
 10
904.58287229741745
 20
1814.3217284884429
 30
0.0
 11
821.08287229741927
 21
1814.3217284884429
 31
0.0
  0
LINE
  5
6A65
  8
1
 10
831.80552829741919
 20
1780.3217284884429
 30
0.0
 11
977.20939729741895
 21
1780.3217284884429
 31
0.0
  0
ARC
  5
6A66
  8
1
 10
821.08287229741927
 20
1815.8217284884429
 30
0.0
 40
1.4999849999999999
 50
179.99941999999371
 51
270.0
  0
LINE
  5
6A67
  8
1
 10
830.33635129741833
 20
1781.5192384884431
 30
0.0
 11
823.74723929741856
 21
1813.5233894884429
 31
0.0
  0
ARC
  5
6A68
  8
1
 10
822.76786929741957
 20
1813.3217894884419
 30
0.0
 40
0.999898
 50
11.6299130000048
 51
90.003497000004955
  0
LINE
  5
6A69
  8
1
 10
978.82939329742021
 20
1781.5192384884431
 30
0.0
 11
985.41850529741976
 21
1813.5233894884429
 31
0.0
  0
ARC
  5
6A6A
  8
1
 10
986.39787529741886
 20
1813.3217894884419
 30
0.0
 40
0.999898
 50
89.99650299999503
 51
168.3700869999951
  0
ARC
  5
6A6B
  8
1
 10
988.08287229741927
 20
1815.8217284884429
 30
0.0
 40
1.4999849999999999
 50
270.0
 51
0.0005800000062724
  0
LINE
  5
6A6C
  8
1
 10
904.58287229742098
 20
1814.3217284884429
 30
0.0
 11
988.08287229741927
 21
1814.3217284884429
 31
0.0
  0
LINE
  5
6A6D
  8
1
 10
989.58287229741916
 20
1854.3217284884429
 30
0.0
 11
819.58287229741927
 21
1854.3217284884429
 31
0.0
  0
LINE
  5
6A6E
  8
1
 10
714.58287229742018
 20
1833.121728488446
 30
0.0
 11
744.58287229741563
 21
1833.121728488446
 31
0.0
  0
CIRCLE
  5
6A6F
  8
FUTO
 10
727.58287229741381
 20
1853.1217284884401
 30
0.0
 40
6.0
  0
LINE
  5
6A70
  8
CT
 10
739.76995831267868
 20
1853.1217284884401
 30
0.0
 11
715.39578628214895
 21
1853.1217284884401
 31
0.0
  0
LINE
  5
6A71
  8
CT
 10
727.58287229741381
 20
1840.9346424731759
 30
0.0
 11
727.58287229741381
 21
1865.308814503705
 31
0.0
  0
LINE
  5
6A72
  8
1
 10
744.58287229741563
 20
1824.1217284884499
 30
0.0
 11
819.58287229742007
 21
1824.121728488446
 31
0.0
  0
LINE
  5
6A73
  8
FUTO
 10
1094.582872297419
 20
1833.121728488441
 30
0.0
 11
1064.582872297419
 21
1833.121728488441
 31
0.0
  0
LINE
  5
6A74
  8
FUTO
 10
1064.582872297419
 20
1833.121728488446
 30
0.0
 11
1094.5828722974211
 21
1833.121728488446
 31
0.0
  0
LINE
  5
6A75
  8
CT
 10
1081.5828722974211
 20
1840.9346424731759
 30
0.0
 11
1081.5828722974211
 21
1865.308814503705
 31
0.0
  0
LINE
  5
6A76
  8
CT
 10
1069.395786282156
 20
1853.1217284884401
 30
0.0
 11
1093.769958312685
 21
1853.1217284884401
 31
0.0
  0
CIRCLE
  5
6A77
  8
FUTO
 10
1081.5828722974211
 20
1853.1217284884401
 30
0.0
 40
6.0
  0
LINE
  5
6A78
  8
1
 10
989.58287229741916
 20
1824.121728488444
 30
0.0
 11
1064.582872297419
 21
1824.1217284884419
 31
0.0
  0
LINE
  5
6A79
  8
1
 10
904.58287229741916
 20
1998.3217284884429
 30
0.0
 11
831.08287229741927
 21
1998.3217284884429
 31
0.0
  0
LINE
  5
6A7A
  8
1
 10
829.08287229741927
 20
1975.8217284884429
 30
0.0
 11
904.58287229741745
 21
1975.8217284884429
 31
0.0
  0
ARC
  5
6A7B
  8
1
 10
831.08287229741927
 20
1996.3217284884429
 30
0.0
 40
2.0
 50
90.0
 51
180.0
  0
LINE
  5
6A7C
  8
1
 10
829.08287229741927
 20
1975.8217284884429
 30
0.0
 11
829.08287229741927
 21
1996.3217284884429
 31
0.0
  0
LINE
  5
6A7D
  8
1
 10
840.5170762974185
 20
1998.3217284884429
 30
0.0
 11
831.5170762974185
 21
1998.3217284884429
 31
0.0
  0
LINE
  5
6A7E
  8
1
 10
831.76786929741957
 20
1998.3217284884429
 30
0.0
 11
840.39787429741853
 21
1998.3217284884429
 31
0.0
  0
LINE
  5
6A7F
  8
1
 10
977.39787529741886
 20
1998.3217284884429
 30
0.0
 11
968.7678702974199
 21
1998.3217284884429
 31
0.0
  0
LINE
  5
6A80
  8
1
 10
968.64866829742004
 20
1998.3217284884429
 30
0.0
 11
977.64866829742004
 21
1998.3217284884429
 31
0.0
  0
ARC
  5
6A81
  8
1
 10
978.08287229741916
 20
1996.3217284884429
 30
0.0
 40
2.0
 50
0.0
 51
90.0
  0
LINE
  5
6A82
  8
1
 10
980.08287229741927
 20
1975.8217284884429
 30
0.0
 11
980.08287229741927
 21
1996.3217284884429
 31
0.0
  0
LINE
  5
6A83
  8
1
 10
980.08287229741927
 20
1975.8217284884429
 30
0.0
 11
904.58287229742098
 21
1975.8217284884429
 31
0.0
  0
LINE
  5
6A84
  8
1
 10
904.58287229741916
 20
1998.3217284884429
 30
0.0
 11
978.08287229741916
 21
1998.3217284884429
 31
0.0
  0
LINE
  5
6A85
  8
1
 10
1103.5828722974211
 20
2242.121728488441
 30
0.0
 11
1103.5828722974211
 21
2223.121728488441
 31
0.0
  0
LINE
  5
6A86
  8
1
 10
1104.582872297422
 20
2242.121728488441
 30
0.0
 11
1104.582872297422
 21
2022.1217284884419
 31
0.0
  0
DIMENSION
  5
6A87
  8
SP
  2
*D27
 10
1204.956448052131
 20
2132.121728488441
 30
0.0
 11
1179.9564480521301
 21
2082.621728488441
 31
0.0
 70
     0
 13
1094.5828722974211
 23
2033.121728488441
 33
0.0
 14
1114.730486870769
 24
2132.121728488441
 34
0.0
 50
90.0
  0
LINE
  5
6A88
  8
2
 10
661.37315980485334
 20
2132.1217284884428
 30
0.0
 11
1114.730486870769
 21
2132.121728488441
 31
0.0
  0
LINE
  5
6A89
  8
FUTO
 10
694.58287229741927
 20
2053.121728488441
 30
0.0
 11
694.58287229741927
 21
2211.121728488441
 31
0.0
  0
LINE
  5
6A8A
  8
FUTO
 10
695.58287229741916
 20
2053.121728488441
 30
0.0
 11
695.58287229741916
 21
2211.121728488441
 31
0.0
  0
LINE
  5
6A8B
  8
1
 10
1103.5828722974211
 20
2222.121728488441
 30
0.0
 11
1103.5828722974211
 21
2042.1217284884401
 31
0.0
  0
LINE
  5
6A8C
  8
1
 10
1084.582872297422
 20
2202.1217284884419
 30
0.0
 11
1084.582872297422
 21
2062.1217284884401
 31
0.0
  0
LINE
  5
6A8D
  8
1
 10
1102.582872297422
 20
2044.121728488441
 30
0.0
 11
1084.582872297422
 21
2062.1217284884401
 31
0.0
  0
LINE
  5
6A8E
  8
1
 10
706.58287229741927
 20
2041.121728488441
 30
0.0
 11
1084.582872297422
 21
2041.121728488441
 31
0.0
  0
LINE
  5
6A8F
  8
1
 10
706.58287229741927
 20
2042.121728488441
 30
0.0
 11
1084.582872297422
 21
2042.1217284884401
 31
0.0
  0
LINE
  5
6A90
  8
1
 10
937.08287229741927
 20
2008.3217284884429
 30
0.0
 11
872.08287229741927
 21
2008.3217284884429
 31
0.0
  0
LINE
  5
6A91
  8
FUTO
 10
1094.5828722974211
 20
2033.121728488441
 30
0.0
 11
714.58287229742109
 21
2033.121728488441
 31
0.0
  0
ARC
  5
6A92
  8
FUTO
 10
706.58287229741927
 20
2053.121728488441
 30
0.0
 40
12.0
 50
180.0
 51
269.99999999999977
  0
ARC
  5
6A93
  8
FUTO
 10
706.58287229741927
 20
2053.121728488441
 30
0.0
 40
11.0
 50
180.0
 51
269.99999999999977
  0
ARC
  5
6A94
  8
1
 10
872.08287229741927
 20
2007.3217284884429
 30
0.0
 40
1.0
 50
90.0
 51
180.0
  0
ARC
  5
6A95
  8
1
 10
754.58287229742291
 20
2038.1217284884419
 30
0.0
 40
3.0
 50
0.0
 51
90.0
  0
LINE
  5
6A96
  8
1
 10
757.58287229742291
 20
2038.1217284884419
 30
0.0
 11
757.58287229742291
 21
2036.1217284884419
 31
0.0
  0
LINE
  5
6A97
  8
1
 10
757.58287229742291
 20
2038.1217284884419
 30
0.0
 11
757.58287229742291
 21
2036.1217284884419
 31
0.0
  0
ARC
  5
6A98
  8
1
 10
760.58287229742291
 20
2036.1217284884419
 30
0.0
 40
3.0
 50
180.0
 51
270.0
  0
LINE
  5
6A99
  8
CT
 10
727.58287229741381
 20
2000.9346424731759
 30
0.0
 11
727.58287229741381
 21
2025.308814503705
 31
0.0
  0
LINE
  5
6A9A
  8
CT
 10
739.76995831267868
 20
2013.1217284884401
 30
0.0
 11
715.39578628214895
 21
2013.1217284884401
 31
0.0
  0
CIRCLE
  5
6A9B
  8
FUTO
 10
727.58287229741381
 20
2013.1217284884401
 30
0.0
 40
6.0
  0
LINE
  5
6A9C
  8
1
 10
744.58287229741381
 20
1999.1217284884499
 30
0.0
 11
871.08287229741927
 21
1999.1217284884481
 31
0.0
  0
LINE
  5
6A9D
  8
CT
 10
1071.395786282159
 20
2013.1217284884401
 30
0.0
 11
1095.7699583126889
 21
2013.1217284884401
 31
0.0
  0
LINE
  5
6A9E
  8
1
 10
927.08287229741916
 20
2033.121728488441
 30
0.0
 11
927.08287229741916
 21
2018.3217284884411
 31
0.0
  0
LINE
  5
6A9F
  8
1
 10
882.08287229741927
 20
2033.121728488441
 30
0.0
 11
882.08287229741927
 21
2018.3217284884411
 31
0.0
  0
CIRCLE
  5
6AA0
  8
FUTO
 10
1081.5828722974211
 20
2013.1217284884401
 30
0.0
 40
6.0
  0
LINE
  5
6AA1
  8
CT
 10
1081.5828722974211
 20
2000.9346424731759
 30
0.0
 11
1081.5828722974211
 21
2025.308814503705
 31
0.0
  0
ARC
  5
6AA2
  8
1
 10
1048.582872297419
 20
2036.1217284884419
 30
0.0
 40
3.0
 50
270.0
 51
0.0
  0
LINE
  5
6AA3
  8
1
 10
1051.582872297419
 20
2038.1217284884419
 30
0.0
 11
1051.582872297419
 21
2036.1217284884419
 31
0.0
  0
LINE
  5
6AA4
  8
1
 10
1051.582872297419
 20
2038.1217284884419
 30
0.0
 11
1051.582872297419
 21
2036.1217284884419
 31
0.0
  0
ARC
  5
6AA5
  8
1
 10
1054.582872297419
 20
2038.1217284884419
 30
0.0
 40
3.0
 50
90.0
 51
180.0
  0
LINE
  5
6AA6
  8
1
 10
1102.582872297422
 20
2044.121728488441
 30
0.0
 11
1102.582872297422
 21
2042.1217284884401
 31
0.0
  0
LINE
  5
6AA7
  8
1
 10
1104.582872297422
 20
2042.1217284884401
 30
0.0
 11
1084.582872297422
 21
2042.1217284884401
 31
0.0
  0
LINE
  5
6AA8
  8
1
 10
1103.5828722974211
 20
2041.121728488441
 30
0.0
 11
1084.582872297422
 21
2041.121728488441
 31
0.0
  0
LINE
  5
6AA9
  8
1
 10
1104.582872297422
 20
2022.1217284884419
 30
0.0
 11
1103.5828722974211
 21
2022.1217284884419
 31
0.0
  0
LINE
  5
6AAA
  8
1
 10
1103.5828722974211
 20
2041.121728488441
 30
0.0
 11
1103.5828722974211
 21
2022.1217284884419
 31
0.0
  0
LINE
  5
6AAB
  8
1
 10
887.08287229741927
 20
2013.3217284884411
 30
0.0
 11
882.08287229741927
 21
2018.3217284884411
 31
0.0
  0
LINE
  5
6AAC
  8
1
 10
927.08287229741916
 20
2018.3217284884411
 30
0.0
 11
922.08287229741927
 21
2013.3217284884411
 31
0.0
  0
LINE
  5
6AAD
  8
1
 10
915.08287229741927
 20
2013.3217284884429
 30
0.0
 11
915.08287229741927
 21
2008.3217284884429
 31
0.0
  0
ARC
  5
6AAE
  8
1
 10
937.08287229741927
 20
2007.3217284884429
 30
0.0
 40
1.0
 50
0.0
 51
90.0
  0
LINE
  5
6AAF
  8
1
 10
894.08287229741916
 20
2013.3217284884429
 30
0.0
 11
894.08287229741916
 21
2008.3217284884429
 31
0.0
  0
LINE
  5
6AB0
  8
1
 10
887.08287229741927
 20
2013.3217284884411
 30
0.0
 11
922.08287229741927
 21
2013.3217284884411
 31
0.0
  0
LINE
  5
6AB1
  8
1
 10
882.08287229741927
 20
2021.1217284884449
 30
0.0
 11
882.08287229741927
 21
2018.3217284884411
 31
0.0
  0
LINE
  5
6AB2
  8
1
 10
938.08287229741745
 20
1999.121728488444
 30
0.0
 11
1064.5828722974211
 21
1999.121728488444
 31
0.0
  0
LINE
  5
6AB3
  8
1
 10
706.58287229741927
 20
2223.121728488441
 30
0.0
 11
1084.582872297422
 21
2223.121728488441
 31
0.0
  0
LINE
  5
6AB4
  8
1
 10
706.58287229741927
 20
2222.1217284884419
 30
0.0
 11
1084.582872297422
 21
2222.121728488441
 31
0.0
  0
LINE
  5
6AB5
  8
FUTO
 10
1048.582872297419
 20
2231.1217284884428
 30
0.0
 11
760.58287229742291
 21
2231.1217284884428
 31
0.0
  0
ARC
  5
6AB6
  8
FUTO
 10
706.58287229741927
 20
2211.121728488441
 30
0.0
 40
12.0
 50
89.999999999999844
 51
180.0
  0
ARC
  5
6AB7
  8
FUTO
 10
706.58287229741927
 20
2211.121728488441
 30
0.0
 40
11.0
 50
89.999999999999844
 51
180.0
  0
ARC
  5
6AB8
  8
1
 10
760.58287229742291
 20
2228.1217284884401
 30
0.0
 40
3.0
 50
90.000000000000028
 51
180.0
  0
LINE
  5
6AB9
  8
1
 10
757.58287229742291
 20
2226.121728488441
 30
0.0
 11
757.58287229742291
 21
2228.1217284884401
 31
0.0
  0
LINE
  5
6ABA
  8
1
 10
757.58287229742291
 20
2226.121728488441
 30
0.0
 11
757.58287229742291
 21
2228.1217284884401
 31
0.0
  0
ARC
  5
6ABB
  8
1
 10
754.58287229742291
 20
2226.121728488441
 30
0.0
 40
3.0
 50
270.0
 51
0.0
  0
ARC
  5
6ABC
  8
1
 10
1054.582872297419
 20
2226.121728488441
 30
0.0
 40
3.0
 50
180.0
 51
270.0
  0
LINE
  5
6ABD
  8
1
 10
1051.582872297419
 20
2226.121728488441
 30
0.0
 11
1051.582872297419
 21
2228.1217284884401
 31
0.0
  0
LINE
  5
6ABE
  8
1
 10
1051.582872297419
 20
2226.121728488441
 30
0.0
 11
1051.582872297419
 21
2228.1217284884401
 31
0.0
  0
ARC
  5
6ABF
  8
1
 10
1048.582872297419
 20
2228.1217284884401
 30
0.0
 40
3.0
 50
0.0
 51
90.000000000000028
  0
LINE
  5
6AC0
  8
1
 10
1102.582872297422
 20
2222.121728488441
 30
0.0
 11
1102.582872297422
 21
2220.121728488441
 31
0.0
  0
LINE
  5
6AC1
  8
1
 10
1104.582872297422
 20
2222.121728488441
 30
0.0
 11
1084.582872297422
 21
2222.121728488441
 31
0.0
  0
LINE
  5
6AC2
  8
1
 10
1103.5828722974211
 20
2223.121728488441
 30
0.0
 11
1084.582872297422
 21
2223.121728488441
 31
0.0
  0
LINE
  5
6AC3
  8
1
 10
1102.582872297422
 20
2220.121728488441
 30
0.0
 11
1084.582872297422
 21
2202.121728488441
 31
0.0
  0
LINE
  5
6AC4
  8
1
 10
1104.582872297422
 20
2242.121728488441
 30
0.0
 11
1103.5828722974211
 21
2242.121728488441
 31
0.0
  0
ENDSEC
  0
EOF
