  0
SECTION
  2
HEADER
  9
$ACADVER
  1
AC1009
  9
$INSBASE
 10
0.0
 20
0.0
 30
0.0
  9
$EXTMIN
 10
11013.60959423641
 20
96.092404061039474
 30
0.0
  9
$EXTMAX
 10
13113.60959423641
 20
3046.0924040610389
 30
0.0
  9
$LIMMIN
 10
0.0
 20
0.0
  9
$LIMMAX
 10
297.0
 20
210.0
  9
$ORTHOMODE
 70
     0
  9
$REGENMODE
 70
     1
  9
$FILLMODE
 70
     1
  9
$QTEXTMODE
 70
     0
  9
$MIRRTEXT
 70
     0
  9
$DRAGMODE
 70
     2
  9
$LTSCALE
 40
50.0
  9
$OSMODE
 70
   545
  9
$ATTMODE
 70
     1
  9
$TEXTSIZE
 40
3.5
  9
$TRACEWID
 40
0.05
  9
$TEXTSTYLE
  7
STANDARD
  9
$CLAYER
  8
SP
  9
$CELTYPE
  6
BYLAYER
  9
$CECOLOR
 62
   256
  9
$DIMSCALE
 40
10.0
  9
$DIMASZ
 40
2.5
  9
$DIMEXO
 40
1.0
  9
$DIMDLI
 40
7.0
  9
$DIMRND
 40
0.0
  9
$DIMDLE
 40
0.0
  9
$DIMEXE
 40
1.0
  9
$DIMTP
 40
0.0
  9
$DIMTM
 40
0.0
  9
$DIMTXT
 40
3.0
  9
$DIMCEN
 40
0.0
  9
$DIMTSZ
 40
0.0
  9
$DIMTOL
 70
     0
  9
$DIMLIM
 70
     0
  9
$DIMTIH
 70
     0
  9
$DIMTOH
 70
     0
  9
$DIMSE1
 70
     0
  9
$DIMSE2
 70
     0
  9
$DIMTAD
 70
     1
  9
$DIMZIN
 70
     8
  9
$DIMBLK
  1

  9
$DIMASO
 70
     1
  9
$DIMSHO
 70
     1
  9
$DIMPOST
  1

  9
$DIMAPOST
  1

  9
$DIMALT
 70
     0
  9
$DIMALTD
 70
     2
  9
$DIMALTF
 40
0.03937
  9
$DIMLFAC
 40
1.0
  9
$DIMTOFL
 70
     1
  9
$DIMTVP
 40
0.0
  9
$DIMTIX
 70
     0
  9
$DIMSOXD
 70
     0
  9
$DIMSAH
 70
     1
  9
$DIMBLK1
  1
OPEN
  9
$DIMBLK2
  1
OPEN
  9
$DIMSTYLE
  2
GOD
  9
$DIMCLRD
 70
   256
  9
$DIMCLRE
 70
   256
  9
$DIMCLRT
 70
   256
  9
$DIMTFAC
 40
1.0
  9
$DIMGAP
 40
1.0
  9
$LUNITS
 70
     2
  9
$LUPREC
 70
     3
  9
$SKETCHINC
 40
0.1
  9
$FILLETRAD
 40
0.0
  9
$AUNITS
 70
     0
  9
$AUPREC
 70
     2
  9
$MENU
  1
acad
  9
$ELEVATION
 40
0.0
  9
$PELEVATION
 40
0.0
  9
$THICKNESS
 40
0.0
  9
$LIMCHECK
 70
     0
  9
$BLIPMODE
 70
     0
  9
$CHAMFERA
 40
0.0
  9
$CHAMFERB
 40
0.0
  9
$SKPOLY
 70
     0
  9
$TDCREATE
 40
2454940.4140922911
  9
$TDUPDATE
 40
2455012.406240405
  9
$TDINDWG
 40
0.1224276389
  9
$TDUSRTIMER
 40
0.1224276389
  9
$USRTIMER
 70
     1
  9
$ANGBASE
 50
0.0
  9
$ANGDIR
 70
     0
  9
$PDMODE
 70
     0
  9
$PDSIZE
 40
1.0
  9
$PLINEWID
 40
0.0
  9
$COORDS
 70
     2
  9
$SPLFRAME
 70
     0
  9
$SPLINETYPE
 70
     6
  9
$SPLINESEGS
 70
     8
  9
$ATTDIA
 70
     0
  9
$ATTREQ
 70
     1
  9
$HANDLING
 70
 22529
  9
$HANDSEED
  5
90F8
  9
$SURFTAB1
 70
     6
  9
$SURFTAB2
 70
     6
  9
$SURFTYPE
 70
     6
  9
$SURFU
 70
     6
  9
$SURFV
 70
     6
  9
$UCSNAME
  2

  9
$UCSORG
 10
0.0
 20
0.0
 30
0.0
  9
$UCSXDIR
 10
1.0
 20
0.0
 30
0.0
  9
$UCSYDIR
 10
0.0
 20
1.0
 30
0.0
  9
$PUCSNAME
  2

  9
$PUCSORG
 10
0.0
 20
0.0
 30
0.0
  9
$PUCSXDIR
 10
1.0
 20
0.0
 30
0.0
  9
$PUCSYDIR
 10
0.0
 20
1.0
 30
0.0
  9
$USERI1
 70
     0
  9
$USERI2
 70
     0
  9
$USERI3
 70
     0
  9
$USERI4
 70
     0
  9
$USERI5
 70
     0
  9
$USERR1
 40
0.0
  9
$USERR2
 40
0.0
  9
$USERR3
 40
0.0
  9
$USERR4
 40
0.0
  9
$USERR5
 40
0.0
  9
$WORLDVIEW
 70
     1
  9
$SHADEDGE
 70
     3
  9
$SHADEDIF
 70
    70
  9
$TILEMODE
 70
     1
  9
$MAXACTVP
 70
    16
  9
$PLIMCHECK
 70
     0
  9
$PEXTMIN
 10
1.0000000000000000E+020
 20
1.0000000000000000E+020
 30
1.0000000000000000E+020
  9
$PEXTMAX
 10
-1.0000000000000000E+020
 20
-1.0000000000000000E+020
 30
-1.0000000000000000E+020
  9
$PLIMMIN
 10
0.0
 20
0.0
  9
$PLIMMAX
 10
12.0
 20
9.0
  9
$UNITMODE
 70
     0
  9
$VISRETAIN
 70
     0
  9
$PLINEGEN
 70
     0
  9
$PSLTSCALE
 70
     0
  0
ENDSEC
  0
SECTION
  2
TABLES
  0
TABLE
  2
VPORT
 70
     2
  0
VPORT
  2
*ACTIVE
 70
     0
 10
0.0
 20
0.0
 11
1.0
 21
1.0
 12
12063.49636289109
 22
1571.036480284474
 13
0.0
 23
0.0
 14
5.0
 24
5.0
 15
0.0
 25
0.0
 16
0.0
 26
0.0
 36
1.0
 17
0.0
 27
0.0
 37
0.0
 40
2974.381843977641
 41
1.6307901907356941
 42
50.0
 43
0.0
 44
0.0
 50
0.0
 51
0.0
 71
     0
 72
   100
 73
     1
 74
     0
 75
     0
 76
     0
 77
     0
 78
     0
  0
ENDTAB
  0
TABLE
  2
LTYPE
 70
     4
  0
LTYPE
  2
CONTINUOUS
 70
     0
  3
Solid line
 72
    65
 73
     0
 40
0.0
  0
LTYPE
  2
CENTER
 70
     0
  3
____ _ ____ _ ____ _ ____ _ ____ _ ____ _ ____ 
 72
    65
 73
     4
 40
2.0
 49
1.25
 49
-0.25
 49
0.25
 49
-0.25
  0
LTYPE
  2
HIDDEN
 70
     0
  3
__ __ __ __ __ __ __ __ __ __ __ __ __ __ __ __
 72
    65
 73
     2
 40
0.375
 49
0.25
 49
-0.125
  0
LTYPE
  2
PHANTOM
 70
     0
  3
______  __  __  ______  __  __  ______  __  __ 
 72
    65
 73
     6
 40
2.5
 49
1.25
 49
-0.25
 49
0.25
 49
-0.25
 49
0.25
 49
-0.25
  0
ENDTAB
  0
TABLE
  2
LAYER
 70
    13
  0
LAYER
  2
0
 70
     0
 62
     7
  6
CONTINUOUS
  0
LAYER
  2
CT
 70
     0
 62
     3
  6
CENTER
  0
LAYER
  2
FUTO
 70
     0
 62
     4
  6
CONTINUOUS
  0
LAYER
  2
HOSO
 70
     0
 62
     7
  6
CONTINUOUS
  0
LAYER
  2
KL
 70
     0
 62
     7
  6
HIDDEN
  0
LAYER
  2
MOJI
 70
     0
 62
     3
  6
CONTINUOUS
  0
LAYER
  2
SL
 70
     0
 62
     1
  6
PHANTOM
  0
LAYER
  2
SP
 70
     0
 62
     2
  6
CONTINUOUS
  0
LAYER
  2
DEFPOINTS
 70
     0
 62
     7
  6
CONTINUOUS
  0
LAYER
  2
3
 70
     0
 62
     2
  6
CONTINUOUS
  0
LAYER
  2
2
 70
     0
 62
     3
  6
CENTER
  0
LAYER
  2
1
 70
     0
 62
     4
  6
CONTINUOUS
  0
LAYER
  2
4
 70
     0
 62
     7
  6
CONTINUOUS
  0
ENDTAB
  0
TABLE
  2
STYLE
 70
     2
  0
STYLE
  2
STANDARD
 70
     0
 40
0.0
 41
1.0
 50
15.0
 71
     0
 42
3.5
  3
C:\Program Files\AutoCAD LT\simplex.shx
  4
C:\Program Files\AutoCAD LT\extfont.shx
  0
STYLE
  2
SUNPOU
 70
     0
 40
0.0
 41
1.0
 50
15.0
 71
     0
 42
30.0
  3
simplex.shx
  4
extfont.shx
  0
ENDTAB
  0
TABLE
  2
VIEW
 70
     0
  0
ENDTAB
  0
TABLE
  2
UCS
 70
     0
  0
ENDTAB
  0
TABLE
  2
APPID
 70
     1
  0
APPID
  2
ACAD
 70
     0
  0
ENDTAB
  0
TABLE
  2
DIMSTYLE
 70
     4
  0
DIMSTYLE
  2
STANDARD
 70
     0
  3

  4

  5

  6

  7

 40
1.0
 41
0.18
 42
0.0625
 43
0.38
 44
0.18
 45
0.0
 46
0.0
 47
0.0
 48
0.0
140
0.18
141
0.09
142
0.0
143
25.399999999999999
144
1.0
145
0.0
146
1.0
147
0.09
 71
     0
 72
     0
 73
     1
 74
     1
 75
     0
 76
     0
 77
     0
 78
     0
170
     0
171
     2
172
     0
173
     0
174
     0
175
     0
176
     0
177
     0
178
     0
  0
DIMSTYLE
  2
GOD
 70
     0
  3

  4

  5

  6
OPEN
  7
OPEN
 40
10.0
 41
2.5
 42
1.0
 43
7.0
 44
1.0
 45
0.0
 46
0.0
 47
0.0
 48
0.0
140
3.0
141
0.0
142
0.0
143
0.03937
144
1.0
145
0.0
146
1.0
147
1.0
 71
     0
 72
     0
 73
     0
 74
     0
 75
     0
 76
     0
 77
     1
 78
     8
170
     0
171
     2
172
     1
173
     1
174
     0
175
     0
176
   256
177
   256
178
   256
  0
DIMSTYLE
  2
IGA
 70
     0
  3

  4

  5

  6
OPEN
  7
OPEN
 40
2.0
 41
2.0
 42
0.5
 43
10.0
 44
1.0
 45
0.0
 46
0.0
 47
1.0
 48
1.0
140
3.0
141
0.0
142
0.0
143
0.03937
144
1.0
145
0.0
146
10.0
147
1.0
 71
     0
 72
     0
 73
     0
 74
     0
 75
     0
 76
     0
 77
     1
 78
     8
170
     0
171
     2
172
     0
173
     1
174
     0
175
     0
176
     0
177
     0
178
     0
  0
DIMSTYLE
  2
MATSU
 70
     0
  3

  4

  5

  6
OPEN
  7
OPEN
 40
1.0
 41
2.0
 42
1.0
 43
10.0
 44
1.0
 45
0.0
 46
0.0
 47
0.0
 48
0.0
140
3.0
141
0.0
142
0.0
143
0.03937
144
1.0
145
0.0
146
1.0
147
0.5
 71
     0
 72
     0
 73
     0
 74
     0
 75
     0
 76
     0
 77
     1
 78
     8
170
     0
171
     2
172
     1
173
     1
174
     0
175
     0
176
   256
177
   256
178
   256
  0
ENDTAB
  0
ENDSEC
  0
SECTION
  2
BLOCKS
  0
BLOCK
  8
0
  2
$MODEL_SPACE
 70
     0
 10
0.0
 20
0.0
 30
0.0
  3
$MODEL_SPACE
  1

  0
ENDBLK
  5
1B
  8
0
  0
BLOCK
 67
     1
  8
0
  2
$PAPER_SPACE
 70
     0
 10
0.0
 20
0.0
 30
0.0
  3
$PAPER_SPACE
  1

  0
ENDBLK
  5
18
 67
     1
  8
0
  0
BLOCK
  8
0
  2
_OPEN
 70
     0
 10
0.0
 20
0.0
 30
0.0
  3
_OPEN
  1

  0
LINE
  5
1E81
  8
0
  6
BYBLOCK
 62
     0
 10
-1.0
 20
0.1666666666666666
 30
0.0
 11
0.0
 21
0.0
 31
0.0
  0
LINE
  5
1E82
  8
0
  6
BYBLOCK
 62
     0
 10
0.0
 20
0.0
 30
0.0
 11
-1.0
 21
-0.1666666666666666
 31
0.0
  0
LINE
  5
1E83
  8
0
  6
BYBLOCK
 62
     0
 10
0.0
 20
0.0
 30
0.0
 11
-1.0
 21
0.0
 31
0.0
  0
ENDBLK
  5
1E84
  8
0
  0
BLOCK
  8
0
  2
_DOT
 70
     0
 10
0.0
 20
0.0
 30
0.0
  3
_DOT
  1

  0
LINE
  5
1EC3
  8
0
  6
BYBLOCK
 62
     0
 10
0.0
 20
0.0
 30
0.0
 11
-1.0
 21
-0.0000000000000284
 31
0.0
  0
POLYLINE
  5
1EC4
  8
0
  6
BYBLOCK
 62
     0
 66
     1
 10
0.0
 20
0.0
 30
0.0
 70
     1
 40
0.1666666666666666
 41
0.1666666666666666
  0
VERTEX
  5
90ED
  8
0
  6
BYBLOCK
 62
     0
 10
-0.0833333333333286
 20
-0.0000000000000284
 30
0.0
 42
1.0
  0
VERTEX
  5
90EE
  8
0
  6
BYBLOCK
 62
     0
 10
0.0833333333333286
 20
-0.0000000000000284
 30
0.0
 42
1.0
  0
SEQEND
  5
90EF
  8
0
  6
BYBLOCK
 62
     0
  0
ENDBLK
  5
1EB8
  8
0
  0
BLOCK
  8
0
  2
*D2
 70
     1
 10
0.0
 20
0.0
 30
0.0
  3
*D2
  1

  0
LINE
  5
5685
  8
SP
 10
-1699.9142715201349
 20
823.03013774616693
 30
0.0
 11
-1699.9142715201349
 21
683.03013774616704
 31
0.0
  0
LINE
  5
5686
  8
SP
 10
-2079.914271520136
 20
823.03013774616522
 30
0.0
 11
-2079.914271520136
 21
683.03013774616704
 31
0.0
  0
LINE
  5
5687
  8
SP
 10
-1724.9142715201349
 20
693.03013774616704
 30
0.0
 11
-2054.914271520136
 21
693.03013774616704
 31
0.0
  0
INSERT
  5
5688
  8
SP
  2
_OPEN
 10
-1699.9142715201349
 20
693.03013774616704
 30
0.0
 41
25.0
 42
25.0
 43
25.0
  0
INSERT
  5
5689
  8
SP
  2
_OPEN
 10
-2079.914271520136
 20
693.03013774616704
 30
0.0
 41
25.0
 42
25.0
 43
25.0
 50
180.0
  0
TEXT
  5
568A
  8
SP
 10
-1931.790652263745
 20
703.03013774616704
 30
0.0
 40
30.0
  1
380
 51
15.0
  0
POINT
  5
568B
  8
DEFPOINTS
 62
     0
 10
-1699.9142715201349
 20
833.03013774616716
 30
0.0
  0
POINT
  5
568C
  8
DEFPOINTS
 62
     0
 10
-2079.914271520136
 20
833.03013774616511
 30
0.0
  0
POINT
  5
568D
  8
DEFPOINTS
 62
     0
 10
-2079.914271520136
 20
693.03013774616704
 30
0.0
  0
ENDBLK
  5
568F
  8
0
  0
BLOCK
  8
0
  2
*D3
 70
     1
 10
0.0
 20
0.0
 30
0.0
  3
*D3
  1

  0
LINE
  5
5691
  8
SP
 10
-2079.914271520136
 20
823.03013774616522
 30
0.0
 11
-2079.914271520136
 21
753.03013774616522
 31
0.0
  0
LINE
  5
5692
  8
SP
 10
-1889.9142715201349
 20
797.34538072303258
 30
0.0
 11
-1889.9142715201349
 21
753.03013774616522
 31
0.0
  0
LINE
  5
5693
  8
SP
 10
-2054.914271520136
 20
763.03013774616522
 30
0.0
 11
-1914.9142715201349
 21
763.03013774616522
 31
0.0
  0
INSERT
  5
5694
  8
SP
  2
_OPEN
 10
-2079.914271520136
 20
763.03013774616522
 30
0.0
 41
25.0
 42
25.0
 43
25.0
 50
180.0
  0
INSERT
  5
5695
  8
SP
  2
_OPEN
 10
-1889.9142715201349
 20
763.03013774616522
 30
0.0
 41
25.0
 42
25.0
 43
25.0
  0
TEXT
  5
5696
  8
SP
 10
-2026.421609050605
 20
773.03013774616522
 30
0.0
 40
30.0
  1
190
 51
15.0
  0
POINT
  5
5697
  8
DEFPOINTS
 62
     0
 10
-2079.914271520136
 20
833.03013774616511
 30
0.0
  0
POINT
  5
5698
  8
DEFPOINTS
 62
     0
 10
-1889.9142715201349
 20
807.34538072303246
 30
0.0
  0
POINT
  5
5699
  8
DEFPOINTS
 62
     0
 10
-1889.9142715201349
 20
763.03013774616522
 30
0.0
  0
ENDBLK
  5
569B
  8
0
  0
BLOCK
  8
0
  2
*D4
 70
     1
 10
0.0
 20
0.0
 30
0.0
  3
*D4
  1

  0
LINE
  5
569D
  8
SP
 10
-1889.9142715201349
 20
797.34538072303258
 30
0.0
 11
-1889.9142715201349
 21
753.03013774616704
 31
0.0
  0
LINE
  5
569E
  8
SP
 10
-1699.9142715201349
 20
823.03013774616693
 30
0.0
 11
-1699.9142715201349
 21
753.03013774616704
 31
0.0
  0
LINE
  5
569F
  8
SP
 10
-1864.9142715201349
 20
763.03013774616704
 30
0.0
 11
-1724.9142715201349
 21
763.03013774616704
 31
0.0
  0
INSERT
  5
56A0
  8
SP
  2
_OPEN
 10
-1889.9142715201349
 20
763.03013774616704
 30
0.0
 41
25.0
 42
25.0
 43
25.0
 50
180.0
  0
INSERT
  5
56A1
  8
SP
  2
_OPEN
 10
-1699.9142715201349
 20
763.03013774616704
 30
0.0
 41
25.0
 42
25.0
 43
25.0
  0
TEXT
  5
56A2
  8
SP
 10
-1836.4216090506061
 20
773.03013774616704
 30
0.0
 40
30.0
  1
190
 51
15.0
  0
POINT
  5
56A3
  8
DEFPOINTS
 62
     0
 10
-1889.9142715201349
 20
807.34538072303246
 30
0.0
  0
POINT
  5
56A4
  8
DEFPOINTS
 62
     0
 10
-1699.9142715201349
 20
833.03013774616716
 30
0.0
  0
POINT
  5
56A5
  8
DEFPOINTS
 62
     0
 10
-1699.9142715201349
 20
763.03013774616704
 30
0.0
  0
ENDBLK
  5
56A7
  8
0
  0
BLOCK
  8
0
  2
*D5
 70
     1
 10
0.0
 20
0.0
 30
0.0
  3
*D5
  1

  0
LINE
  5
56A9
  8
SP
 10
-2139.9142715201351
 20
1298.030137746166
 30
0.0
 11
-2139.9142715201351
 21
1368.030137746166
 31
0.0
  0
LINE
  5
56AA
  8
SP
 10
-1889.9142715201349
 20
1307.8065568904919
 30
0.0
 11
-1889.9142715201349
 21
1368.030137746166
 31
0.0
  0
LINE
  5
56AB
  8
SP
 10
-2114.9142715201351
 20
1358.030137746166
 30
0.0
 11
-1914.9142715201349
 21
1358.030137746166
 31
0.0
  0
INSERT
  5
56AC
  8
SP
  2
_OPEN
 10
-2139.9142715201351
 20
1358.030137746166
 30
0.0
 41
25.0
 42
25.0
 43
25.0
 50
180.0
  0
INSERT
  5
56AD
  8
SP
  2
_OPEN
 10
-1889.9142715201349
 20
1358.030137746166
 30
0.0
 41
25.0
 42
25.0
 43
25.0
  0
TEXT
  5
56AE
  8
SP
 10
-2056.0250831425128
 20
1368.030137746166
 30
0.0
 40
30.0
  1
250
 51
15.0
  0
POINT
  5
56AF
  8
DEFPOINTS
 62
     0
 10
-2139.9142715201351
 20
1288.030137746166
 30
0.0
  0
POINT
  5
56B0
  8
DEFPOINTS
 62
     0
 10
-1889.9142715201349
 20
1297.8065568904919
 30
0.0
  0
POINT
  5
56B1
  8
DEFPOINTS
 62
     0
 10
-1889.9142715201349
 20
1358.030137746166
 30
0.0
  0
ENDBLK
  5
56B3
  8
0
  0
BLOCK
  8
0
  2
*D6
 70
     1
 10
0.0
 20
0.0
 30
0.0
  3
*D6
  1

  0
LINE
  5
56B5
  8
SP
 10
-1889.9142715201349
 20
1307.8065568904919
 30
0.0
 11
-1889.9142715201349
 21
1368.030137746166
 31
0.0
  0
LINE
  5
56B6
  8
SP
 10
-1713.9142715201349
 20
1081.0301377461669
 30
0.0
 11
-1713.9142715201349
 21
1368.030137746166
 31
0.0
  0
LINE
  5
56B7
  8
SP
 10
-1864.9142715201349
 20
1358.030137746166
 30
0.0
 11
-1738.9142715201349
 21
1358.030137746166
 31
0.0
  0
INSERT
  5
56B8
  8
SP
  2
_OPEN
 10
-1889.9142715201349
 20
1358.030137746166
 30
0.0
 41
25.0
 42
25.0
 43
25.0
 50
180.0
  0
INSERT
  5
56B9
  8
SP
  2
_OPEN
 10
-1713.9142715201349
 20
1358.030137746166
 30
0.0
 41
25.0
 42
25.0
 43
25.0
  0
TEXT
  5
56BA
  8
SP
 10
-1842.8987156166279
 20
1368.030137746166
 30
0.0
 40
30.0
  1
176
 51
15.0
  0
POINT
  5
56BB
  8
DEFPOINTS
 62
     0
 10
-1889.9142715201349
 20
1297.8065568904919
 30
0.0
  0
POINT
  5
56BC
  8
DEFPOINTS
 62
     0
 10
-1713.9142715201349
 20
1071.0301377461669
 30
0.0
  0
POINT
  5
56BD
  8
DEFPOINTS
 62
     0
 10
-1713.9142715201349
 20
1358.030137746166
 30
0.0
  0
ENDBLK
  5
56BF
  8
0
  0
BLOCK
  8
0
  2
*D7
 70
     1
 10
0.0
 20
0.0
 30
0.0
  3
*D7
  1

  0
LINE
  5
56C1
  8
SP
 10
-2184.1007564974338
 20
1088.030137746166
 30
0.0
 11
-2249.3805561714089
 21
1088.030137746166
 31
0.0
  0
LINE
  5
56C2
  8
SP
 10
-2170.9142715201351
 20
1288.0301377461669
 30
0.0
 11
-2249.3805561714089
 21
1288.0301377461669
 31
0.0
  0
LINE
  5
56C3
  8
SP
 10
-2239.3805561714089
 20
1113.0301377461669
 30
0.0
 11
-2239.3805561714089
 21
1263.0301377461669
 31
0.0
  0
INSERT
  5
56C4
  8
SP
  2
_OPEN
 10
-2239.3805561714089
 20
1088.030137746166
 30
0.0
 41
25.0
 42
25.0
 43
25.0
 50
270.0
  0
INSERT
  5
56C5
  8
SP
  2
_OPEN
 10
-2239.3805561714089
 20
1288.0301377461669
 30
0.0
 41
25.0
 42
25.0
 43
25.0
 50
90.0
  0
TEXT
  5
56C6
  8
SP
 10
-2249.3805561714089
 20
1146.9193261237881
 30
0.0
 40
30.0
  1
200
 50
90.0
 51
15.0
  0
POINT
  5
56C7
  8
DEFPOINTS
 62
     0
 10
-2174.1007564974352
 20
1088.030137746166
 30
0.0
  0
POINT
  5
56C8
  8
DEFPOINTS
 62
     0
 10
-2160.9142715201351
 20
1288.0301377461669
 30
0.0
  0
POINT
  5
56C9
  8
DEFPOINTS
 62
     0
 10
-2239.3805561714089
 20
1288.0301377461669
 30
0.0
  0
ENDBLK
  5
56CB
  8
0
  0
BLOCK
  8
0
  2
*D8
 70
     1
 10
0.0
 20
0.0
 30
0.0
  3
*D8
  1

  0
LINE
  5
56CD
  8
SP
 10
-2184.1007564974338
 20
1088.030137746166
 30
0.0
 11
-2249.3805561714089
 21
1088.030137746166
 31
0.0
  0
LINE
  5
56CE
  8
SP
 10
-2089.914271520136
 20
833.03013774616511
 30
0.0
 11
-2249.3805561714089
 21
833.03013774616511
 31
0.0
  0
LINE
  5
56CF
  8
SP
 10
-2239.3805561714089
 20
1063.0301377461669
 30
0.0
 11
-2239.3805561714089
 21
858.03013774616511
 31
0.0
  0
INSERT
  5
56D0
  8
SP
  2
_OPEN
 10
-2239.3805561714089
 20
1088.030137746166
 30
0.0
 41
25.0
 42
25.0
 43
25.0
 50
90.0
  0
INSERT
  5
56D1
  8
SP
  2
_OPEN
 10
-2239.3805561714089
 20
833.03013774616511
 30
0.0
 41
25.0
 42
25.0
 43
25.0
 50
270.0
  0
TEXT
  5
56D2
  8
SP
 10
-2249.3805561714089
 20
919.36804271684161
 30
0.0
 40
30.0
  1
255
 50
90.0
 51
15.0
  0
POINT
  5
56D3
  8
DEFPOINTS
 62
     0
 10
-2174.1007564974352
 20
1088.030137746166
 30
0.0
  0
POINT
  5
56D4
  8
DEFPOINTS
 62
     0
 10
-2079.914271520136
 20
833.03013774616511
 30
0.0
  0
POINT
  5
56D5
  8
DEFPOINTS
 62
     0
 10
-2239.3805561714089
 20
833.03013774616511
 30
0.0
  0
ENDBLK
  5
56D7
  8
0
  0
BLOCK
  8
0
  2
A$C44EA23BE
 70
     0
 10
0.0
 20
0.0
 30
0.0
  3
A$C44EA23BE
  1

  0
DIMENSION
  5
56D9
  8
SP
  2
*D8
 10
-349.46628465127378
 20
-255.00000000000171
 30
0.0
 11
-374.46628465127378
 21
-127.50000000000119
 31
0.0
 12
1889.9142715201349
 22
-1088.030137746166
 32
0.0
  3
GOD
 13
-284.18648497729919
 23
0.0
 33
0.0
 14
-190.00000000000091
 24
-255.00000000000171
 34
0.0
 50
90.0
  0
ARC
  5
56DA
  8
FUTO
 10
-17.0
 20
-17.0
 30
0.0
 40
203.0
 50
269.572081032222
 51
0.4673217049947748
  0
ARC
  5
56DB
  8
FUTO
 10
-20.0
 20
20.0
 30
0.0
 40
240.0
 50
180.0
 51
270.39182689926031
  0
ARC
  5
56DC
  8
FUTO
 10
-17.0
 20
-17.0
 30
0.0
 40
193.0
 50
269.572081032222
 51
0.4673217049947748
  0
ARC
  5
56DD
  8
FUTO
 10
-20.0
 20
20.0
 30
0.0
 40
230.0
 50
180.0
 51
270.39182689926031
  0
LINE
  5
56DE
  8
2
 10
0.0
 20
-280.6847570231343
 30
0.0
 11
0.0
 21
209.77641914432559
 31
0.0
  0
LINE
  5
56DF
  8
1
 10
157.69999999999891
 20
66.099999999998545
 30
0.0
 11
157.69999999999891
 21
-255.00000000000179
 31
0.0
  0
LINE
  5
56E0
  8
1
 10
160.0
 20
66.099999999998545
 30
0.0
 11
160.0
 21
-252.7000000000007
 31
0.0
  0
LINE
  5
56E1
  8
1
 10
-157.69999999999979
 20
66.099999999998545
 30
0.0
 11
-157.69999999999979
 21
-255.00000000000179
 31
0.0
  0
LINE
  5
56E2
  8
1
 10
-160.0
 20
66.099999999998545
 30
0.0
 11
-159.99999999999901
 21
-252.69999999999891
 31
0.0
  0
ARC
  5
56E3
  8
1
 10
0.0
 20
0.0
 30
0.0
 40
85.0
 50
0.0
 51
244.12446600000609
  0
CIRCLE
  5
56E4
  8
2
 10
0.0
 20
0.0
 30
0.0
 40
136.0
  0
ARC
  5
56E5
  8
1
 10
0.0
 20
0.0
 30
0.0
 40
85.000007999999994
 50
295.91772599999888
 51
0.0
  0
DIMENSION
  5
56E6
  8
SP
  2
*D2
 10
-190.00000000000091
 20
-394.99999999999977
 30
0.0
 11
-0.0000000000004547
 21
-369.99999999999977
 31
0.0
 12
1889.9142715201349
 22
-1088.030137746166
 32
0.0
  3
GOD
 13
190.0
 23
-254.9999999999998
 33
0.0
 14
-190.00000000000091
 24
-255.00000000000171
 34
0.0
  0
DIMENSION
  5
56E7
  8
SP
  2
*D4
 10
190.0
 20
-324.99999999999989
 30
0.0
 11
95.0
 21
-299.99999999999989
 31
0.0
 12
1889.9142715201349
 22
-1088.030137746166
 32
0.0
  3
GOD
 13
0.0
 23
-280.6847570231343
 33
0.0
 14
190.0
 24
-254.9999999999998
 34
0.0
  0
DIMENSION
  5
56E8
  8
SP
  2
*D3
 10
0.0
 20
-325.00000000000171
 30
0.0
 11
-95.000000000000455
 21
-300.00000000000171
 31
0.0
 12
1889.9142715201349
 22
-1088.030137746166
 32
0.0
  3
GOD
 13
-190.00000000000091
 23
-255.00000000000171
 33
0.0
 14
0.0
 24
-280.6847570231343
 34
0.0
  0
LINE
  5
56E9
  8
FUTO
 10
-132.69999999999979
 20
-105.0
 30
0.0
 11
-157.69999999999891
 21
-80.0
 31
0.0
  0
LINE
  5
56EA
  8
1
 10
-157.69999999999891
 20
-203.9999999999998
 30
0.0
 11
-132.7000000000007
 21
-203.9999999999998
 31
0.0
  0
LINE
  5
56EB
  8
1
 10
-190.00000000000091
 20
-255.00000000000179
 30
0.0
 11
190.0
 21
-255.0
 31
0.0
  0
LINE
  5
56EC
  8
1
 10
-157.69999999999891
 20
-80.0
 30
0.0
 11
157.69999999999891
 21
-80.0
 31
0.0
  0
LINE
  5
56ED
  8
2
 10
-176.99999999999901
 20
-268.98279906584588
 30
0.0
 11
-176.99999999999901
 21
-242.69999999999879
 31
0.0
  0
LINE
  5
56EE
  8
1
 10
-190.00000000000091
 20
-255.00000000000179
 30
0.0
 11
-190.00000000000179
 21
-252.7000000000007
 31
0.0
  0
LINE
  5
56EF
  8
1
 10
-190.00000000000091
 20
-252.7000000000007
 30
0.0
 11
-159.99999999999901
 21
-252.69999999999891
 31
0.0
  0
LINE
  5
56F0
  8
1
 10
132.699999999997
 20
-105.0
 30
0.0
 11
132.699999999997
 21
-203.9999999999998
 31
0.0
  0
LINE
  5
56F1
  8
1
 10
-132.69999999999979
 20
-105.0
 30
0.0
 11
-132.69999999999979
 21
-203.9999999999998
 31
0.0
  0
LINE
  5
56F2
  8
1
 10
132.699999999997
 20
-203.9999999999998
 30
0.0
 11
157.69999999999891
 21
-203.9999999999998
 31
0.0
  0
LINE
  5
56F3
  8
1
 10
190.0
 20
-255.0
 30
0.0
 11
190.0
 21
-252.69999999999891
 31
0.0
  0
LINE
  5
56F4
  8
2
 10
176.9999999999981
 20
-267.91032669659847
 30
0.0
 11
177.0
 21
-242.7000000000007
 31
0.0
  0
LINE
  5
56F5
  8
1
 10
160.0
 20
-252.69999999999891
 30
0.0
 11
190.0
 21
-252.7000000000007
 31
0.0
  0
LINE
  5
56F6
  8
FUTO
 10
132.69999999999979
 20
-105.0
 30
0.0
 11
157.69999999999891
 21
-80.0
 31
0.0
  0
LINE
  5
56F7
  8
1
 10
-132.69999999999979
 20
-105.0
 30
0.0
 11
132.69999999999891
 21
-105.0
 31
0.0
  0
LINE
  5
56F8
  8
CT
 10
-57.086121054688192
 20
-137.8180876735004
 30
0.0
 11
-46.574035520656253
 21
-112.43966820841879
 31
0.0
  0
CIRCLE
  5
56F9
  8
1
 10
-52.044946801652252
 20
-125.64761642153459
 30
0.0
 40
4.0
  0
LINE
  5
56FA
  8
CT
 10
57.086121054688192
 20
-137.8180876735004
 30
0.0
 11
46.574035520658072
 21
-112.43966820841879
 31
0.0
  0
CIRCLE
  5
56FB
  8
1
 10
52.044946801652252
 20
-125.64761642153459
 30
0.0
 40
4.0
  0
LINE
  5
56FC
  8
1
 10
-37.095498999999108
 20
-76.450928000000204
 30
0.0
 11
37.151808999999041
 21
-76.450928000000204
 31
0.0
  0
LINE
  5
56FD
  8
1
 10
-82.5
 20
-78.34088200000042
 30
0.0
 11
82.500029999999242
 21
-78.34088200000042
 31
0.0
  0
LINE
  5
56FE
  8
CT
 10
-62.5
 20
-82.218586000000869
 30
0.0
 11
-62.5
 21
-73.631579000000784
 31
0.0
  0
LINE
  5
56FF
  8
CT
 10
-137.8180876735004
 20
-57.086121054690011
 30
0.0
 11
-112.439668208417
 21
-46.574035520658072
 31
0.0
  0
ARC
  5
5700
  8
1
 10
-52.365203999999721
 20
-70.5
 30
0.0
 40
5.0
 50
270.0
 51
324.46176099999479
  0
LINE
  5
5701
  8
1
 10
-46.623938000000628
 20
-71.064478000000236
 30
0.0
 11
-48.296539999999368
 21
-73.40625
 31
0.0
  0
LINE
  5
5702
  8
1
 10
-77.833160999999564
 20
-75.505370999999286
 30
0.0
 11
-62.323167999999889
 21
-57.818504000000758
 31
0.0
  0
LINE
  5
5703
  8
1
 10
-82.5
 20
-75.5
 30
0.0
 11
-52.36517399999866
 21
-75.5
 31
0.0
  0
CIRCLE
  5
5704
  8
1
 10
-125.64761642153459
 20
-52.044946801652252
 30
0.0
 40
4.0
  0
ARC
  5
5705
  8
1
 10
0.0
 20
0.0
 30
0.0
 40
85.0
 50
236.73178133170779
 51
244.12446600000609
  0
LINE
  5
5706
  8
1
 10
-42.5
 20
-78.34088200000042
 30
0.0
 11
-42.5
 21
-80.0
 31
0.0
  0
LINE
  5
5707
  8
1
 10
-77.5
 20
-78.34088200000042
 30
0.0
 11
-77.5
 21
-80.0
 31
0.0
  0
LINE
  5
5708
  8
1
 10
-82.5
 20
-78.34088200000042
 30
0.0
 11
-82.5
 21
-75.5
 31
0.0
  0
LINE
  5
5709
  8
CT
 10
137.8180876735004
 20
-57.086121054688192
 30
0.0
 11
112.439668208417
 21
-46.574035520658072
 31
0.0
  0
LINE
  5
570A
  8
CT
 10
62.5
 20
-82.218586000000869
 30
0.0
 11
62.5
 21
-73.631579000000784
 31
0.0
  0
LINE
  5
570B
  8
1
 10
82.500029999999242
 20
-75.5
 30
0.0
 11
52.365203999999721
 21
-75.5
 31
0.0
  0
LINE
  5
570C
  8
1
 10
77.834367999999813
 20
-75.506824000000051
 30
0.0
 11
62.32130799999868
 21
-57.816361999999572
 31
0.0
  0
LINE
  5
570D
  8
1
 10
47.508270000000259
 20
-72.302612999999837
 30
0.0
 11
48.296538999999029
 21
-73.40625
 31
0.0
  0
LINE
  5
570E
  8
1
 10
46.631551000000393
 20
-71.075138000000152
 30
0.0
 11
48.296538999999029
 21
-73.40625
 31
0.0
  0
ARC
  5
570F
  8
1
 10
52.365203999999721
 20
-70.5
 30
0.0
 40
5.000032
 50
215.53825399999309
 51
270.0
  0
LINE
  5
5710
  8
1
 10
77.5
 20
-78.34088200000042
 30
0.0
 11
77.5
 21
-80.0
 31
0.0
  0
LINE
  5
5711
  8
1
 10
42.5
 20
-78.34088200000042
 30
0.0
 11
42.5
 21
-80.0
 31
0.0
  0
LINE
  5
5712
  8
1
 10
82.500029999999242
 20
-75.5
 30
0.0
 11
82.500029999999242
 21
-78.34088200000042
 31
0.0
  0
CIRCLE
  5
5713
  8
1
 10
125.64761642153459
 20
-52.044946801652252
 30
0.0
 40
4.0
  0
DIMENSION
  5
5714
  8
SP
  2
*D7
 10
-349.46628465127333
 20
200.0
 30
0.0
 11
-374.46628465127378
 21
99.999999999999787
 31
0.0
 12
1889.9142715201349
 22
-1088.030137746166
 32
0.0
  3
GOD
 13
-284.18648497729919
 23
0.0
 33
0.0
 14
-271.0
 24
200.0
 34
0.0
 50
90.0
  0
DIMENSION
  5
5715
  8
SP
  2
*D6
 10
176.0
 20
269.99999999999898
 30
0.0
 11
88.0
 21
294.99999999999898
 31
0.0
 12
1889.9142715201349
 22
-1088.030137746166
 32
0.0
  3
GOD
 13
0.0
 23
209.77641914432559
 33
0.0
 14
176.0
 24
-17.0
 34
0.0
  0
LINE
  5
5716
  8
FUTO
 10
-250.99998456825821
 20
199.99444453017639
 30
0.0
 11
-249.99998456825821
 21
19.99444453017281
 31
0.0
  0
LINE
  5
5717
  8
FUTO
 10
-251.0
 20
200.0
 30
0.0
 11
-251.0
 21
180.0
 31
0.0
  0
LINE
  5
5718
  8
FUTO
 10
-252.0
 20
199.0
 30
0.0
 11
-252.0
 21
180.0
 31
0.0
  0
LINE
  5
5719
  8
FUTO
 10
-249.0
 20
198.0
 30
0.0
 11
-231.0
 21
180.0
 31
0.0
  0
LINE
  5
571A
  8
FUTO
 10
0.0
 20
180.0
 30
0.0
 11
0.0
 21
200.0
 31
0.0
  0
LINE
  5
571B
  8
FUTO
 10
1.0
 20
200.0
 30
0.0
 11
1.0
 21
180.0
 31
0.0
  0
LINE
  5
571C
  8
FUTO
 10
2.0
 20
199.0
 30
0.0
 11
2.0
 21
180.0
 31
0.0
  0
LINE
  5
571D
  8
FUTO
 10
-1.0
 20
198.0
 30
0.0
 11
-19.0
 21
180.0
 31
0.0
  0
LINE
  5
571E
  8
FUTO
 10
-231.0
 20
180.0
 30
0.0
 11
-19.0
 21
180.0
 31
0.0
  0
LINE
  5
571F
  8
1
 10
-60.0
 20
150.0
 30
0.0
 11
-158.39999999999961
 21
66.099999999998545
 31
0.0
  0
LINE
  5
5720
  8
2
 10
-284.18648497729919
 20
0.0
 30
0.0
 11
210.14761457335041
 21
-0.000000000001819
 31
0.0
  0
LINE
  5
5721
  8
FUTO
 10
-260.8890586406655
 20
180.0
 30
0.0
 11
-259.99983025084288
 21
19.938889831936191
 31
0.0
  0
LINE
  5
5722
  8
1
 10
-160.0
 20
66.099999999998545
 30
0.0
 11
-158.39999999999961
 21
66.099999999998545
 31
0.0
  0
LINE
  5
5723
  8
FUTO
 10
-260.8890586406655
 20
180.0
 30
0.0
 11
-250.88890432086819
 21
180.0
 31
0.0
  0
ARC
  5
5724
  8
FUTO
 10
14.0
 20
-14.0
 30
0.0
 40
172.0
 50
359.4896667551933
 51
78.450738176447032
  0
ARC
  5
5725
  8
FUTO
 10
14.0
 20
-14.0
 30
0.0
 40
162.0
 50
359.4896667551933
 51
78.450738176447032
  0
LINE
  5
5726
  8
1
 10
60.0
 20
150.0
 30
0.0
 11
158.39999999999961
 21
66.099999999998545
 31
0.0
  0
LINE
  5
5727
  8
CT
 10
-137.8180876735004
 20
57.086121054686373
 30
0.0
 11
-112.439668208417
 21
46.574035520658072
 31
0.0
  0
CIRCLE
  5
5728
  8
1
 10
-125.64761642153459
 20
52.044946801652252
 30
0.0
 40
4.0
  0
LINE
  5
5729
  8
CT
 10
137.8180876735004
 20
57.086121054686373
 30
0.0
 11
112.439668208417
 21
46.574035520658072
 31
0.0
  0
CIRCLE
  5
572A
  8
1
 10
125.64761642153459
 20
52.044946801652252
 30
0.0
 40
4.0
  0
LINE
  5
572B
  8
1
 10
158.39999999999961
 20
66.099999999998545
 30
0.0
 11
160.0
 21
66.099999999998545
 31
0.0
  0
LINE
  5
572C
  8
CT
 10
57.086121054688192
 20
137.81808767349861
 30
0.0
 11
46.574035520656253
 21
112.439668208417
 31
0.0
  0
LINE
  5
572D
  8
CT
 10
-57.086121054688192
 20
137.81808767349861
 30
0.0
 11
-46.574035520658072
 21
112.4396682084152
 31
0.0
  0
CIRCLE
  5
572E
  8
1
 10
-52.044946801652252
 20
125.64761642153459
 30
0.0
 40
4.0
  0
CIRCLE
  5
572F
  8
1
 10
52.044946801652252
 20
125.64761642153459
 30
0.0
 40
4.0
  0
ARC
  5
5730
  8
FUTO
 10
60.999999999996362
 20
216.0
 30
0.0
 40
72.753061747871584
 50
214.1996194554568
 51
258.45073817644709
  0
LINE
  5
5731
  8
FUTO
 10
0.0
 20
180.0
 30
0.0
 11
5.9318434102424362
 21
180.0
 31
0.0
  0
LINE
  5
5732
  8
1
 10
-60.0
 20
150.0
 30
0.0
 11
60.0
 21
150.0
 31
0.0
  0
LINE
  5
5733
  8
FUTO
 10
0.0
 20
180.0
 30
0.0
 11
1.0
 21
180.0
 31
0.0
  0
ARC
  5
5734
  8
FUTO
 10
59.528586099928361
 20
210.519969322142
 30
0.0
 40
57.203726762688042
 50
216.60350367361539
 51
261.67207569821369
  0
ARC
  5
5735
  8
FUTO
 10
5.9318434102424362
 20
170.0
 30
0.0
 40
10.0
 50
39.872968906140997
 51
90.0
  0
LINE
  5
5736
  8
FUTO
 10
-271.0
 20
200.0
 30
0.0
 11
21.0
 21
200.0
 31
0.0
  0
LINE
  5
5737
  8
FUTO
 10
-251.0
 20
199.0
 30
0.0
 11
1.0
 21
199.0
 31
0.0
  0
DIMENSION
  5
5738
  8
SP
  2
*D5
 10
0.0
 20
269.99999999999898
 30
0.0
 11
-125.0
 21
294.99999999999898
 31
0.0
 12
1889.9142715201349
 22
-1088.030137746166
 32
0.0
  3
GOD
 13
-250.0
 23
199.99999999999901
 33
0.0
 14
0.0
 24
209.77641914432559
 34
0.0
  0
LINE
  5
5739
  8
FUTO
 10
-271.0
 20
199.0
 30
0.0
 11
-252.0
 21
199.0
 31
0.0
  0
LINE
  5
573A
  8
FUTO
 10
-271.0
 20
200.0
 30
0.0
 11
-271.0
 21
199.0
 31
0.0
  0
LINE
  5
573B
  8
FUTO
 10
-251.0
 20
198.0
 30
0.0
 11
-249.0
 21
198.0
 31
0.0
  0
LINE
  5
573C
  8
FUTO
 10
2.0
 20
199.0
 30
0.0
 11
21.0
 21
199.0
 31
0.0
  0
LINE
  5
573D
  8
FUTO
 10
-1.0
 20
198.0
 30
0.0
 11
1.0
 21
198.0
 31
0.0
  0
LINE
  5
573E
  8
FUTO
 10
21.0
 20
200.0
 30
0.0
 11
21.0
 21
199.0
 31
0.0
  0
ENDBLK
  5
5740
  8
0
  0
BLOCK
  8
0
  2
A$C40AB6E05
 70
     0
 10
0.0
 20
0.0
 30
0.0
  3
A$C40AB6E05
  1

  0
LINE
  5
6751
  8
1
 10
-160.00000000000361
 20
-307.99999999999181
 30
0.0
 11
-160.00000000000591
 21
-99.000000000001606
 31
0.0
  0
LINE
  5
6752
  8
1
 10
-190.00000000000361
 20
-298.9999999999954
 30
0.0
 11
-190.00000000000591
 21
-99.000000000001364
 31
0.0
  0
LINE
  5
6753
  8
1
 10
-33.5
 20
-124.79999999999831
 30
0.0
 11
-33.5
 21
-133.79999999999831
 31
0.0
  0
LINE
  5
6754
  8
1
 10
-75.5
 20
-156.29999999999831
 30
0.0
 11
-75.5
 21
-135.79999999999831
 31
0.0
  0
ARC
  5
6755
  8
1
 10
-73.5
 20
-135.79999999999831
 30
0.0
 40
2.0
 50
90.0
 51
180.0
  0
LINE
  5
6756
  8
1
 10
-72.815002999999706
 20
-133.79999999999831
 30
0.0
 11
-64.184998000000633
 21
-133.79999999999831
 31
0.0
  0
LINE
  5
6757
  8
1
 10
-64.065796000000773
 20
-133.79999999999831
 30
0.0
 11
-73.065796000000773
 21
-133.79999999999831
 31
0.0
  0
LINE
  5
6758
  8
1
 10
-160.0000000000054
 20
-132.9999999999915
 30
0.0
 11
-33.5
 21
-132.99999999999361
 31
0.0
  0
CIRCLE
  5
6759
  8
FUTO
 10
-177.000000000005
 20
-119.00000000000109
 30
0.0
 40
6.0
  0
LINE
  5
675A
  8
CT
 10
-164.8129139847405
 20
-119.00000000000109
 30
0.0
 11
-189.18708601526981
 21
-119.00000000000109
 31
0.0
  0
LINE
  5
675B
  8
CT
 10
-177.000000000005
 20
-131.18708601526569
 30
0.0
 11
-177.000000000005
 21
-106.8129139847364
 31
0.0
  0
ARC
  5
675C
  8
1
 10
-143.99999999999631
 20
-95.999999999999091
 30
0.0
 40
3.0
 50
180.0
 51
270.0
  0
LINE
  5
675D
  8
1
 10
-146.99999999999631
 20
-93.999999999999091
 30
0.0
 11
-146.99999999999631
 21
-95.999999999999091
 31
0.0
  0
LINE
  5
675E
  8
1
 10
-146.99999999999631
 20
-93.999999999999091
 30
0.0
 11
-146.99999999999631
 21
-95.999999999999091
 31
0.0
  0
ARC
  5
675F
  8
1
 10
-149.99999999999631
 20
-93.999999999999091
 30
0.0
 40
3.0
 50
0.0
 51
90.0
  0
LINE
  5
6760
  8
1
 10
-22.5
 20
-110.9999999999972
 30
0.0
 11
-22.5
 21
-113.8000000000001
 31
0.0
  0
ARC
  5
6761
  8
1
 10
-32.5
 20
-124.79999999999831
 30
0.0
 40
1.0
 50
90.0
 51
180.0
  0
LINE
  5
6762
  8
FUTO
 10
190.00000000000179
 20
-99.000000000001137
 30
0.0
 11
-189.9999999999981
 21
-99.000000000001137
 31
0.0
  0
ARC
  5
6763
  8
1
 10
150.0
 20
-93.999999999999091
 30
0.0
 40
3.0
 50
90.0
 51
180.0
  0
LINE
  5
6764
  8
1
 10
147.0
 20
-93.999999999999091
 30
0.0
 11
147.0
 21
-95.999999999999091
 31
0.0
  0
LINE
  5
6765
  8
1
 10
147.0
 20
-93.999999999999091
 30
0.0
 11
147.0
 21
-95.999999999999091
 31
0.0
  0
ARC
  5
6766
  8
1
 10
144.0
 20
-95.999999999999091
 30
0.0
 40
3.0
 50
270.0
 51
0.0
  0
LINE
  5
6767
  8
1
 10
160.0
 20
-307.99999999999932
 30
0.0
 11
160.00000000000179
 21
-99.000000000001137
 31
0.0
  0
LINE
  5
6768
  8
FUTO
 10
190.0
 20
-298.9999999999954
 30
0.0
 11
190.00000000000179
 21
-99.000000000001137
 31
0.0
  0
LINE
  5
6769
  8
1
 10
33.499999999998181
 20
-132.99999999999719
 30
0.0
 11
160.00000000000151
 21
-132.99999999999719
 31
0.0
  0
LINE
  5
676A
  8
CT
 10
177.00000000000159
 20
-131.18708601526569
 30
0.0
 11
177.00000000000159
 21
-106.8129139847364
 31
0.0
  0
CIRCLE
  5
676B
  8
FUTO
 10
177.00000000000159
 20
-119.00000000000109
 30
0.0
 40
6.0
  0
CIRCLE
  5
676C
  8
FUTO
 10
177.00000000000159
 20
-279.00000000000108
 30
0.0
 40
6.0
  0
LINE
  5
676D
  8
CT
 10
164.81291398473689
 20
-279.00000000000108
 30
0.0
 11
189.1870860152662
 21
-279.00000000000108
 31
0.0
  0
LINE
  5
676E
  8
CT
 10
177.00000000000159
 20
-291.18708601526572
 30
0.0
 11
177.00000000000159
 21
-266.8129139847365
 31
0.0
  0
LINE
  5
676F
  8
FUTO
 10
159.99999999999969
 20
-298.9999999999954
 30
0.0
 11
190.00000000000179
 21
-298.9999999999954
 31
0.0
  0
LINE
  5
6770
  8
FUTO
 10
190.0
 20
-299.00000000000108
 30
0.0
 11
160.0
 21
-299.00000000000108
 31
0.0
  0
LINE
  5
6771
  8
1
 10
74.799988000000667
 20
-277.79999999999831
 30
0.0
 11
74.799988000000667
 21
-156.29999999999831
 31
0.0
  0
LINE
  5
6772
  8
1
 10
85.0
 20
-307.99999999999721
 30
0.0
 11
160.0
 21
-307.99999999999932
 31
0.0
  0
LINE
  5
6773
  8
1
 10
85.0
 20
-316.29999999999831
 30
0.0
 11
85.0
 21
-277.79999999999831
 31
0.0
  0
LINE
  5
6774
  8
1
 10
0.000000000001819
 20
-317.79999999999831
 30
0.0
 11
83.499999999999986
 21
-317.79999999999831
 31
0.0
  0
LINE
  5
6775
  8
1
 10
-72.777344000000085
 20
-351.79999999999831
 30
0.0
 11
72.626524999999674
 21
-351.79999999999831
 31
0.0
  0
ARC
  5
6776
  8
1
 10
83.499999999999986
 20
-316.29999999999831
 30
0.0
 40
1.4999849999999999
 50
270.0
 51
0.0005800000062725
  0
ARC
  5
6777
  8
1
 10
81.815002999999706
 20
-318.79993899999948
 30
0.0
 40
0.999898
 50
89.99650299999503
 51
168.37008699999251
  0
LINE
  5
6778
  8
1
 10
74.246521000000939
 20
-350.60248999999828
 30
0.0
 11
80.835633000000598
 21
-318.59833899999921
 31
0.0
  0
LINE
  5
6779
  8
1
 10
85.0
 20
-277.79999999999831
 30
0.0
 11
-85.0
 21
-277.79999999999831
 31
0.0
  0
LINE
  5
677A
  8
1
 10
-160.00000000000361
 20
-307.99999999999181
 30
0.0
 11
-84.999999999999091
 21
-307.9999999999954
 31
0.0
  0
LINE
  5
677B
  8
1
 10
-74.799988000000667
 20
-277.79999999999831
 30
0.0
 11
-74.799988000000667
 21
-156.29999999999831
 31
0.0
  0
LINE
  5
677C
  8
1
 10
-85.0
 20
-316.29999999999831
 30
0.0
 11
-85.0
 21
-277.79999999999831
 31
0.0
  0
ARC
  5
677D
  8
1
 10
-81.815002999999706
 20
-318.79993899999948
 30
0.0
 40
0.999898
 50
11.629913000007431
 51
90.003497000004955
  0
LINE
  5
677E
  8
1
 10
-74.246521000000939
 20
-350.60248999999828
 30
0.0
 11
-80.835633000000598
 21
-318.59833899999921
 31
0.0
  0
ARC
  5
677F
  8
1
 10
-83.499999999999986
 20
-316.29999999999831
 30
0.0
 40
1.4999849999999999
 50
179.99941999999371
 51
270.0
  0
LINE
  5
6780
  8
1
 10
-0.000000000001819
 20
-317.79999999999831
 30
0.0
 11
-83.499999999999986
 21
-317.79999999999831
 31
0.0
  0
LINE
  5
6781
  8
CT
 10
-177.000000000005
 20
-291.18708601526572
 30
0.0
 11
-177.000000000005
 21
-266.8129139847365
 31
0.0
  0
LINE
  5
6782
  8
CT
 10
-164.8129139847405
 20
-279.00000000000108
 30
0.0
 11
-189.18708601526981
 21
-279.00000000000108
 31
0.0
  0
CIRCLE
  5
6783
  8
FUTO
 10
-177.000000000005
 20
-279.00000000000108
 30
0.0
 40
6.0
  0
LINE
  5
6784
  8
1
 10
-189.99999999999909
 20
-298.9999999999954
 30
0.0
 11
-160.00000000000361
 21
-298.9999999999954
 31
0.0
  0
LINE
  5
6785
  8
1
 10
33.499999999998181
 20
-133.79999999999831
 30
0.0
 11
33.5
 21
-124.79999999999831
 31
0.0
  0
LINE
  5
6786
  8
1
 10
0.0
 20
-133.79999999999831
 30
0.0
 11
73.5
 21
-133.79999999999831
 31
0.0
  0
LINE
  5
6787
  8
1
 10
75.5
 20
-156.29999999999831
 30
0.0
 11
0.000000000001819
 21
-156.29999999999831
 31
0.0
  0
LINE
  5
6788
  8
1
 10
-75.5
 20
-156.29999999999831
 30
0.0
 11
-0.000000000001819
 21
-156.29999999999831
 31
0.0
  0
LINE
  5
6789
  8
1
 10
0.0
 20
-133.79999999999831
 30
0.0
 11
-73.5
 21
-133.79999999999831
 31
0.0
  0
LINE
  5
678A
  8
1
 10
75.5
 20
-156.29999999999831
 30
0.0
 11
75.5
 21
-135.79999999999831
 31
0.0
  0
ARC
  5
678B
  8
1
 10
73.5
 20
-135.79999999999831
 30
0.0
 40
2.0
 50
0.0
 51
90.0
  0
LINE
  5
678C
  8
1
 10
64.065796000000773
 20
-133.79999999999831
 30
0.0
 11
73.065796000000773
 21
-133.79999999999831
 31
0.0
  0
LINE
  5
678D
  8
1
 10
72.815002999999706
 20
-133.79999999999831
 30
0.0
 11
64.184998000000633
 21
-133.79999999999831
 31
0.0
  0
LINE
  5
678E
  8
1
 10
-17.5
 20
-118.8000000000001
 30
0.0
 11
17.5
 21
-118.8000000000001
 31
0.0
  0
LINE
  5
678F
  8
1
 10
32.5
 20
-123.79999999999831
 30
0.0
 11
-32.5
 21
-123.79999999999831
 31
0.0
  0
LINE
  5
6790
  8
1
 10
-10.5
 20
-118.79999999999831
 30
0.0
 11
-10.5
 21
-123.79999999999831
 31
0.0
  0
ARC
  5
6791
  8
1
 10
32.5
 20
-124.79999999999831
 30
0.0
 40
1.0
 50
0.0
 51
90.0
  0
LINE
  5
6792
  8
1
 10
10.5
 20
-118.79999999999831
 30
0.0
 11
10.5
 21
-123.79999999999831
 31
0.0
  0
LINE
  5
6793
  8
1
 10
22.5
 20
-113.8000000000001
 30
0.0
 11
17.5
 21
-118.8000000000001
 31
0.0
  0
LINE
  5
6794
  8
1
 10
22.5
 20
-101.2999999999965
 30
0.0
 11
22.5
 21
-113.8000000000001
 31
0.0
  0
LINE
  5
6795
  8
1
 10
-17.5
 20
-118.8000000000001
 30
0.0
 11
-22.5
 21
-113.8000000000001
 31
0.0
  0
ENDBLK
  5
6797
  8
0
  0
BLOCK
  8
0
  2
_NONE
 70
     0
 10
0.0
 20
0.0
 30
0.0
  3
_NONE
  1

  0
ENDBLK
  5
6F53
  8
0
  0
BLOCK
  8
0
  2
L-30-3
 70
     0
 10
0.0
 20
0.0
 30
0.0
  3
L-30-3
  1

  0
LINE
  5
7501
  8
0
 10
115.2488417492448
 20
98.116970357453638
 30
0.0
 11
145.2488417492448
 21
98.116970357453638
 31
0.0
  0
LINE
  5
7502
  8
0
 10
115.2488417492448
 20
98.116970357453638
 30
0.0
 11
115.2488417492448
 21
128.1169703574536
 31
0.0
  0
LINE
  5
7503
  8
0
 10
145.2488417492448
 20
98.116970357453638
 30
0.0
 11
145.2488417492448
 21
99.116970357453638
 31
0.0
  0
LINE
  5
7504
  8
0
 10
115.2488417492448
 20
128.1169703574536
 30
0.0
 11
116.2488417492448
 21
128.1169703574536
 31
0.0
  0
LINE
  5
7505
  8
0
 10
122.2488417492448
 20
101.1169703574536
 30
0.0
 11
143.2488417492448
 21
101.1169703574536
 31
0.0
  0
LINE
  5
7506
  8
0
 10
118.2488417492448
 20
105.1169703574536
 30
0.0
 11
118.2488417492448
 21
126.1169703574536
 31
0.0
  0
ARC
  5
7507
  8
0
 10
143.2488417492448
 20
99.116970357453638
 30
0.0
 40
2.0
 50
0.0
 51
90.0
  0
ARC
  5
7508
  8
0
 10
116.2488417492448
 20
126.1169703574536
 30
0.0
 40
2.0
 50
0.0
 51
90.0
  0
ARC
  5
7509
  8
0
 10
122.2488417492448
 20
105.1169703574536
 30
0.0
 40
4.0
 50
180.0
 51
270.0
  0
ENDBLK
  5
750B
  8
0
  0
BLOCK
  8
0
  2
*D50
 70
     1
 10
0.0
 20
0.0
 30
0.0
  3
*D50
  1

  0
LINE
  5
9005
  8
SP
 10
12506.594591732
 20
1548.4014399682451
 30
0.0
 11
12506.594591732
 21
1587.5011696624531
 31
0.0
  0
LINE
  5
9006
  8
SP
 10
12154.794591731999
 20
1325.1787839682461
 30
0.0
 11
12154.794591731999
 21
1587.5011696624531
 31
0.0
  0
LINE
  5
9007
  8
SP
 10
12481.594591732
 20
1577.5011696624531
 30
0.0
 11
12179.794591731999
 21
1577.5011696624531
 31
0.0
  0
INSERT
  5
9008
  8
SP
  2
_OPEN
 10
12506.594591732
 20
1577.5011696624531
 30
0.0
 41
25.0
 42
25.0
 43
25.0
  0
INSERT
  5
9009
  8
SP
  2
_OPEN
 10
12154.794591731999
 20
1577.5011696624531
 30
0.0
 41
25.0
 42
25.0
 43
25.0
 50
180.0
  0
TEXT
  5
900A
  8
SP
 10
12263.784889991601
 20
1587.5011696624531
 30
0.0
 40
30.0
  1
（400）
 51
15.0
  0
POINT
  5
900B
  8
DEFPOINTS
 62
     0
 10
12506.594591732
 20
1538.401439968246
 30
0.0
  0
POINT
  5
900C
  8
DEFPOINTS
 62
     0
 10
12154.794591731999
 20
1315.1787839682461
 30
0.0
  0
POINT
  5
900D
  8
DEFPOINTS
 62
     0
 10
12154.794591731999
 20
1577.5011696624531
 30
0.0
  0
ENDBLK
  5
8E84
  8
0
  0
BLOCK
  8
0
  2
*D51
 70
     1
 10
0.0
 20
0.0
 30
0.0
  3
*D51
  1

  0
LINE
  5
8FFC
  8
SP
 10
12506.594591732
 20
1548.4014399682451
 30
0.0
 11
12506.594591732
 21
1587.5011696624531
 31
0.0
  0
LINE
  5
8FFD
  8
SP
 10
12605.594591732
 20
1396.401439968246
 30
0.0
 11
12605.594591732
 21
1587.5011696624531
 31
0.0
  0
LINE
  5
8FFE
  8
SP
 10
12531.594591732
 20
1577.5011696624531
 30
0.0
 11
12580.594591732
 21
1577.5011696624531
 31
0.0
  0
INSERT
  5
8FFF
  8
SP
  2
_OPEN
 10
12506.594591732
 20
1577.5011696624531
 30
0.0
 41
25.0
 42
25.0
 43
25.0
 50
180.0
  0
INSERT
  5
9000
  8
SP
  2
_OPEN
 10
12605.594591732
 20
1577.5011696624531
 30
0.0
 41
25.0
 42
25.0
 43
25.0
  0
TEXT
  5
9001
  8
SP
 10
12528.503925274101
 20
1587.5011696624531
 30
0.0
 40
30.0
  1
99
 51
15.0
  0
POINT
  5
9002
  8
DEFPOINTS
 62
     0
 10
12506.594591732
 20
1538.401439968246
 30
0.0
  0
POINT
  5
9003
  8
DEFPOINTS
 62
     0
 10
12605.594591732
 20
1386.401439968246
 30
0.0
  0
POINT
  5
9004
  8
DEFPOINTS
 62
     0
 10
12605.594591732
 20
1577.5011696624531
 30
0.0
  0
ENDBLK
  5
8E90
  8
0
  0
BLOCK
  8
0
  2
*D52
 70
     1
 10
0.0
 20
0.0
 30
0.0
  3
*D52
  1

  0
LINE
  5
8FF3
  8
SP
 10
12416.594591732
 20
1417.401439968246
 30
0.0
 11
12416.594591732
 21
1508.4014399682451
 31
0.0
  0
LINE
  5
8FF4
  8
SP
 10
12596.594591732
 20
1417.401439968246
 30
0.0
 11
12596.594591732
 21
1508.4014399682451
 31
0.0
  0
LINE
  5
8FF5
  8
SP
 10
12441.594591732
 20
1498.401439968246
 30
0.0
 11
12571.594591732
 21
1498.401439968246
 31
0.0
  0
INSERT
  5
8FF6
  8
SP
  2
_OPEN
 10
12416.594591732
 20
1498.401439968246
 30
0.0
 41
25.0
 42
25.0
 43
25.0
 50
180.0
  0
INSERT
  5
8FF7
  8
SP
  2
_OPEN
 10
12596.594591732
 20
1498.401439968246
 30
0.0
 41
25.0
 42
25.0
 43
25.0
  0
TEXT
  5
8FF8
  8
SP
 10
12465.08725420153
 20
1508.4014399682451
 30
0.0
 40
30.0
  1
180
 51
15.0
  0
POINT
  5
8FF9
  8
DEFPOINTS
 62
     0
 10
12416.594591732
 20
1407.4014399682451
 30
0.0
  0
POINT
  5
8FFA
  8
DEFPOINTS
 62
     0
 10
12596.594591732
 20
1407.4014399682451
 30
0.0
  0
POINT
  5
8FFB
  8
DEFPOINTS
 62
     0
 10
12596.594591732
 20
1498.401439968246
 30
0.0
  0
ENDBLK
  5
8E9C
  8
0
  0
BLOCK
  8
0
  2
*D53
 70
     1
 10
0.0
 20
0.0
 30
0.0
  3
*D53
  1

  0
LINE
  5
9029
  8
SP
 10
12506.594591732
 20
937.11146061490933
 30
0.0
 11
12506.594591732
 21
795.40143996824531
 31
0.0
  0
LINE
  5
902A
  8
SP
 10
12714.594591732
 20
895.40143996824565
 30
0.0
 11
12714.594591732
 21
795.40143996824531
 31
0.0
  0
LINE
  5
902B
  8
SP
 10
12531.594591732
 20
805.4014399682452
 30
0.0
 11
12689.594591732
 21
805.4014399682452
 31
0.0
  0
INSERT
  5
902C
  8
SP
  2
_OPEN
 10
12506.594591732
 20
805.4014399682452
 30
0.0
 41
25.0
 42
25.0
 43
25.0
 50
180.0
  0
INSERT
  5
902D
  8
SP
  2
_OPEN
 10
12714.594591732
 20
805.4014399682452
 30
0.0
 41
25.0
 42
25.0
 43
25.0
  0
TEXT
  5
902E
  8
SP
 10
12569.29238782931
 20
815.4014399682452
 30
0.0
 40
30.0
  1
208
 51
15.0
  0
POINT
  5
902F
  8
DEFPOINTS
 62
     0
 10
12506.594591732
 20
947.11146061490945
 30
0.0
  0
POINT
  5
9030
  8
DEFPOINTS
 62
     0
 10
12714.594591732
 20
905.40143996824565
 30
0.0
  0
POINT
  5
9031
  8
DEFPOINTS
 62
     0
 10
12714.594591732
 20
805.4014399682452
 30
0.0
  0
ENDBLK
  5
8EA8
  8
0
  0
BLOCK
  8
0
  2
*D54
 70
     1
 10
0.0
 20
0.0
 30
0.0
  3
*D54
  1

  0
LINE
  5
9020
  8
SP
 10
12164.594591732
 20
868.57012856248718
 30
0.0
 11
12164.594591732
 21
725.40143996824531
 31
0.0
  0
LINE
  5
9021
  8
SP
 10
12714.594591732
 20
895.40143996824565
 30
0.0
 11
12714.594591732
 21
725.40143996824531
 31
0.0
  0
LINE
  5
9022
  8
SP
 10
12189.594591732
 20
735.40143996824531
 30
0.0
 11
12689.594591732
 21
735.40143996824531
 31
0.0
  0
INSERT
  5
9023
  8
SP
  2
_OPEN
 10
12164.594591732
 20
735.40143996824531
 30
0.0
 41
25.0
 42
25.0
 43
25.0
 50
180.0
  0
INSERT
  5
9024
  8
SP
  2
_OPEN
 10
12714.594591732
 20
735.40143996824531
 30
0.0
 41
25.0
 42
25.0
 43
25.0
  0
TEXT
  5
9025
  8
SP
 10
12397.718210988391
 20
745.40143996824531
 30
0.0
 40
30.0
  1
550
 51
15.0
  0
POINT
  5
9026
  8
DEFPOINTS
 62
     0
 10
12164.594591732
 20
878.57012856248718
 30
0.0
  0
POINT
  5
9027
  8
DEFPOINTS
 62
     0
 10
12714.594591732
 20
905.40143996824565
 30
0.0
  0
POINT
  5
9028
  8
DEFPOINTS
 62
     0
 10
12714.594591732
 20
735.40143996824531
 30
0.0
  0
ENDBLK
  5
8EB4
  8
0
  0
BLOCK
  8
0
  2
*D55
 70
     1
 10
0.0
 20
0.0
 30
0.0
  3
*D55
  1

  0
LINE
  5
907A
  8
SP
 10
12615.594591732
 20
1367.401439968246
 30
0.0
 11
12685.85145201064
 21
1367.401439968246
 31
0.0
  0
LINE
  5
907B
  8
SP
 10
12615.594591732
 20
1117.401439968246
 30
0.0
 11
12685.85145201064
 21
1117.401439968246
 31
0.0
  0
LINE
  5
907C
  8
SP
 10
12675.85145201064
 20
1342.401439968246
 30
0.0
 11
12675.85145201064
 21
1142.401439968246
 31
0.0
  0
INSERT
  5
907D
  8
SP
  2
_OPEN
 10
12675.85145201064
 20
1367.401439968246
 30
0.0
 41
25.0
 42
25.0
 43
25.0
 50
90.0
  0
INSERT
  5
907E
  8
SP
  2
_OPEN
 10
12675.85145201064
 20
1117.401439968246
 30
0.0
 41
25.0
 42
25.0
 43
25.0
 50
270.0
  0
TEXT
  5
907F
  8
SP
 10
12665.85145201064
 20
1187.630374308025
 30
0.0
 40
30.0
  1
φ250
 50
90.0
 51
15.0
  0
POINT
  5
9080
  8
DEFPOINTS
 62
     0
 10
12605.594591732
 20
1367.401439968246
 30
0.0
  0
POINT
  5
9081
  8
DEFPOINTS
 62
     0
 10
12605.594591732
 20
1117.401439968246
 30
0.0
  0
POINT
  5
9082
  8
DEFPOINTS
 62
     0
 10
12675.85145201064
 20
1117.401439968246
 30
0.0
  0
ENDBLK
  5
8EC0
  8
0
  0
BLOCK
  8
0
  2
*D56
 70
     1
 10
0.0
 20
0.0
 30
0.0
  3
*D56
  1

  0
LINE
  5
9068
  8
SP
 10
12506.594591732
 20
937.11146061490933
 30
0.0
 11
12506.594591732
 21
795.40143996824531
 31
0.0
  0
LINE
  5
9069
  8
SP
 10
12164.594591732
 20
895.40143996824281
 30
0.0
 11
12164.594591732
 21
795.40143996824531
 31
0.0
  0
LINE
  5
906A
  8
SP
 10
12481.594591732
 20
805.4014399682452
 30
0.0
 11
12189.594591732
 21
805.4014399682452
 31
0.0
  0
INSERT
  5
906B
  8
SP
  2
_OPEN
 10
12506.594591732
 20
805.4014399682452
 30
0.0
 41
25.0
 42
25.0
 43
25.0
  0
INSERT
  5
906C
  8
SP
  2
_OPEN
 10
12164.594591732
 20
805.4014399682452
 30
0.0
 41
25.0
 42
25.0
 43
25.0
 50
180.0
  0
TEXT
  5
906D
  8
SP
 10
12293.718210988391
 20
815.4014399682452
 30
0.0
 40
30.0
  1
342
 51
15.0
  0
POINT
  5
906E
  8
DEFPOINTS
 62
     0
 10
12506.594591732
 20
947.11146061490945
 30
0.0
  0
POINT
  5
906F
  8
DEFPOINTS
 62
     0
 10
12164.594591732
 20
905.40143996824281
 30
0.0
  0
POINT
  5
9070
  8
DEFPOINTS
 62
     0
 10
12164.594591732
 20
805.4014399682452
 30
0.0
  0
ENDBLK
  5
8ECC
  8
0
  0
BLOCK
  8
0
  2
*D57
 70
     1
 10
0.0
 20
0.0
 30
0.0
  3
*D57
  1

  0
LINE
  5
9017
  8
SP
 10
11656.594591732
 20
1462.177859112571
 30
0.0
 11
11656.594591732
 21
1508.4014399682451
 31
0.0
  0
LINE
  5
9018
  8
SP
 10
11866.594591732
 20
1232.401439968246
 30
0.0
 11
11866.594591732
 21
1508.4014399682451
 31
0.0
  0
LINE
  5
9019
  8
SP
 10
11681.594591732
 20
1498.401439968246
 30
0.0
 11
11841.594591732
 21
1498.401439968246
 31
0.0
  0
INSERT
  5
901A
  8
SP
  2
_OPEN
 10
11656.594591732
 20
1498.401439968246
 30
0.0
 41
25.0
 42
25.0
 43
25.0
 50
180.0
  0
INSERT
  5
901B
  8
SP
  2
_OPEN
 10
11866.594591732
 20
1498.401439968246
 30
0.0
 41
25.0
 42
25.0
 43
25.0
  0
TEXT
  5
901C
  8
SP
 10
11723.34092296676
 20
1508.4014399682451
 30
0.0
 40
30.0
  1
210
 51
15.0
  0
POINT
  5
901D
  8
DEFPOINTS
 62
     0
 10
11656.594591732
 20
1452.177859112571
 30
0.0
  0
POINT
  5
901E
  8
DEFPOINTS
 62
     0
 10
11866.594591732
 20
1222.401439968246
 30
0.0
  0
POINT
  5
901F
  8
DEFPOINTS
 62
     0
 10
11866.594591732
 20
1498.401439968246
 30
0.0
  0
ENDBLK
  5
8ED8
  8
0
  0
BLOCK
  8
0
  2
*D58
 70
     1
 10
0.0
 20
0.0
 30
0.0
  3
*D58
  1

  0
LINE
  5
900E
  8
SP
 10
11656.594591732
 20
1462.177859112571
 30
0.0
 11
11656.594591732
 21
1508.2958384349799
 31
0.0
  0
LINE
  5
900F
  8
SP
 10
11456.594591732
 20
1273.401439968246
 30
0.0
 11
11456.594591732
 21
1508.2958384349799
 31
0.0
  0
LINE
  5
9010
  8
SP
 10
11631.594591732
 20
1498.2958384349799
 30
0.0
 11
11481.594591732
 21
1498.2958384349799
 31
0.0
  0
INSERT
  5
9011
  8
SP
  2
_OPEN
 10
11656.594591732
 20
1498.2958384349799
 30
0.0
 41
25.0
 42
25.0
 43
25.0
  0
INSERT
  5
9012
  8
SP
  2
_OPEN
 10
11456.594591732
 20
1498.2958384349799
 30
0.0
 41
25.0
 42
25.0
 43
25.0
 50
180.0
  0
TEXT
  5
9013
  8
SP
 10
11515.48378010962
 20
1508.2958384349799
 30
0.0
 40
30.0
  1
200
 51
15.0
  0
POINT
  5
9014
  8
DEFPOINTS
 62
     0
 10
11656.594591732
 20
1452.177859112571
 30
0.0
  0
POINT
  5
9015
  8
DEFPOINTS
 62
     0
 10
11456.594591732
 20
1263.401439968246
 30
0.0
  0
POINT
  5
9016
  8
DEFPOINTS
 62
     0
 10
11456.594591732
 20
1498.2958384349799
 30
0.0
  0
ENDBLK
  5
8EE4
  8
0
  0
BLOCK
  8
0
  2
*D59
 70
     1
 10
0.0
 20
0.0
 30
0.0
  3
*D59
  1

  0
LINE
  5
90D0
  8
SP
 10
11396.594591732
 20
905.40143996824293
 30
0.0
 11
11306.594591732
 21
905.40143996824293
 31
0.0
  0
LINE
  5
90D1
  8
SP
 10
11396.594591732
 20
875.40143996824247
 30
0.0
 11
11306.594591732
 21
875.40143996824247
 31
0.0
  0
LINE
  5
90D2
  8
SP
 10
11316.594591732
 20
930.40143996824293
 30
0.0
 11
11316.594591732
 21
955.40143996824293
 31
0.0
  0
LINE
  5
90D3
  8
SP
 10
11316.594591732
 20
850.40143996824247
 30
0.0
 11
11316.594591732
 21
753.28238353737902
 31
0.0
  0
LINE
  5
90D4
  8
SP
 10
11316.594591732
 20
905.40143996824293
 30
0.0
 11
11316.594591732
 21
875.40143996824247
 31
0.0
  0
INSERT
  5
90D5
  8
SP
  2
_DOT
 10
11316.594591732
 20
905.40143996824293
 30
0.0
 41
25.0
 42
25.0
 43
25.0
 50
270.0
  0
INSERT
  5
90D6
  8
SP
  2
_OPEN
 10
11316.594591732
 20
875.40143996824247
 30
0.0
 41
25.0
 42
25.0
 43
25.0
 50
90.0
  0
TEXT
  5
90D7
  8
SP
 10
11306.594591732
 20
761.75124529491711
 30
0.0
 40
30.0
  1
30
 50
90.0
 51
15.0
  0
POINT
  5
90D8
  8
DEFPOINTS
 62
     0
 10
11406.594591732
 20
905.40143996824293
 30
0.0
  0
POINT
  5
90D9
  8
DEFPOINTS
 62
     0
 10
11406.594591732
 20
875.40143996824247
 30
0.0
  0
POINT
  5
90DA
  8
DEFPOINTS
 62
     0
 10
11316.594591732
 20
875.40143996824247
 30
0.0
  0
ENDBLK
  5
8EF2
  8
0
  0
BLOCK
  8
0
  2
*D60
 70
     1
 10
0.0
 20
0.0
 30
0.0
  3
*D60
  1

  0
LINE
  5
90F0
  8
SP
 10
11456.594591732
 20
927.401439968246
 30
0.0
 11
11306.594591732
 21
927.401439968246
 31
0.0
  0
LINE
  5
90F1
  8
SP
 10
11396.594591732
 20
905.40143996824293
 30
0.0
 11
11306.594591732
 21
905.40143996824293
 31
0.0
  0
LINE
  5
90F2
  8
SP
 10
11316.594591732
 20
927.401439968246
 30
0.0
 11
11316.594591732
 21
905.40143996824293
 31
0.0
  0
TEXT
  8
0
  40
30
  5
90F7
  72
0
  71
0
 10
11222.6
 20
853.459
 30
0.000000
  1
（22）
  0
POINT
  5
90F4
  8
DEFPOINTS
 62
     0
 10
11466.594591732
 20
927.401439968246
 30
0.0
  0
POINT
  5
90F5
  8
DEFPOINTS
 62
     0
 10
11406.594591732
 20
905.40143996824293
 30
0.0
  0
POINT
  5
90F6
  8
DEFPOINTS
 62
     0
 10
11316.594591732
 20
905.40143996824293
 30
0.0
  0
ENDBLK
  5
8EFC
  8
0
  0
BLOCK
  8
0
  2
*D61
 70
     1
 10
0.0
 20
0.0
 30
0.0
  3
*D61
  1

  0
LINE
  5
9071
  8
SP
 10
11427.122800930731
 20
1242.401439968246
 30
0.0
 11
11306.594591732
 21
1242.401439968246
 31
0.0
  0
LINE
  5
9072
  8
SP
 10
11663.594591732
 20
1418.401439968246
 30
0.0
 11
11306.594591732
 21
1418.401439968246
 31
0.0
  0
LINE
  5
9073
  8
SP
 10
11316.594591732
 20
1267.401439968246
 30
0.0
 11
11316.594591732
 21
1393.401439968246
 31
0.0
  0
INSERT
  5
9074
  8
SP
  2
_OPEN
 10
11316.594591732
 20
1242.401439968246
 30
0.0
 41
25.0
 42
25.0
 43
25.0
 50
270.0
  0
INSERT
  5
9075
  8
SP
  2
_OPEN
 10
11316.594591732
 20
1418.401439968246
 30
0.0
 41
25.0
 42
25.0
 43
25.0
 50
90.0
  0
TEXT
  5
9076
  8
SP
 10
11306.594591732
 20
1289.416995871755
 30
0.0
 40
30.0
  1
176
 50
90.0
 51
15.0
  0
POINT
  5
9077
  8
DEFPOINTS
 62
     0
 10
11437.122800930731
 20
1242.401439968246
 30
0.0
  0
POINT
  5
9078
  8
DEFPOINTS
 62
     0
 10
11673.594591732
 20
1418.401439968246
 30
0.0
  0
POINT
  5
9079
  8
DEFPOINTS
 62
     0
 10
11316.594591732
 20
1418.401439968246
 30
0.0
  0
ENDBLK
  5
8F08
  8
0
  0
BLOCK
  8
0
  2
*D62
 70
     1
 10
0.0
 20
0.0
 30
0.0
  3
*D62
  1

  0
LINE
  5
9032
  8
SP
 10
11427.122800930731
 20
1242.401439968246
 30
0.0
 11
11306.594591732
 21
1242.401439968246
 31
0.0
  0
LINE
  5
9033
  8
SP
 10
11456.594591732
 20
927.401439968246
 30
0.0
 11
11306.594591732
 21
927.401439968246
 31
0.0
  0
LINE
  5
9034
  8
SP
 10
11316.594591732
 20
1217.401439968246
 30
0.0
 11
11316.594591732
 21
952.401439968246
 31
0.0
  0
INSERT
  5
9035
  8
SP
  2
_OPEN
 10
11316.594591732
 20
1242.401439968246
 30
0.0
 41
25.0
 42
25.0
 43
25.0
 50
90.0
  0
INSERT
  5
9036
  8
SP
  2
_OPEN
 10
11316.594591732
 20
927.401439968246
 30
0.0
 41
25.0
 42
25.0
 43
25.0
 50
270.0
  0
TEXT
  5
9037
  8
SP
 10
11306.594591732
 20
1045.8309186748349
 30
0.0
 40
30.0
  1
315
 50
90.0
 51
15.0
  0
POINT
  5
9038
  8
DEFPOINTS
 62
     0
 10
11437.122800930731
 20
1242.401439968246
 30
0.0
  0
POINT
  5
9039
  8
DEFPOINTS
 62
     0
 10
11466.594591732
 20
927.401439968246
 30
0.0
  0
POINT
  5
903A
  8
DEFPOINTS
 62
     0
 10
11316.594591732
 20
927.401439968246
 30
0.0
  0
ENDBLK
  5
8F14
  8
0
  0
BLOCK
  8
0
  2
*D63
 70
     1
 10
0.0
 20
0.0
 30
0.0
  3
*D63
  1

  0
LINE
  5
9044
  8
SP
 10
11406.594591732
 20
835.74547234979548
 30
0.0
 11
11406.594591732
 21
722.57678375555383
 31
0.0
  0
LINE
  5
9045
  8
SP
 10
11906.594591732
 20
835.74547234979832
 30
0.0
 11
11906.594591732
 21
722.57678375555383
 31
0.0
  0
LINE
  5
9046
  8
SP
 10
11431.594591732
 20
732.57678375555383
 30
0.0
 11
11881.594591732
 21
732.57678375555383
 31
0.0
  0
INSERT
  5
9047
  8
SP
  2
_OPEN
 10
11406.594591732
 20
732.57678375555383
 30
0.0
 41
25.0
 42
25.0
 43
25.0
 50
180.0
  0
INSERT
  5
9048
  8
SP
  2
_OPEN
 10
11906.594591732
 20
732.57678375555383
 30
0.0
 41
25.0
 42
25.0
 43
25.0
  0
TEXT
  5
9049
  8
SP
 10
11614.718210988391
 20
742.57678375555383
 30
0.0
 40
30.0
  1
500
 51
15.0
  0
POINT
  5
904A
  8
DEFPOINTS
 62
     0
 10
11406.594591732
 20
845.74547234979559
 30
0.0
  0
POINT
  5
904B
  8
DEFPOINTS
 62
     0
 10
11906.594591732
 20
845.74547234979832
 30
0.0
  0
POINT
  5
904C
  8
DEFPOINTS
 62
     0
 10
11906.594591732
 20
732.57678375555383
 30
0.0
  0
ENDBLK
  5
8F20
  8
0
  0
BLOCK
  8
0
  2
*D64
 70
     1
 10
0.0
 20
0.0
 30
0.0
  3
*D64
  1

  0
LINE
  5
905F
  8
SP
 10
11656.594591732
 20
830.11972830621369
 30
0.0
 11
11656.594591732
 21
792.5767837555552
 31
0.0
  0
LINE
  5
9060
  8
SP
 10
11906.594591732
 20
865.4014399682452
 30
0.0
 11
11906.594591732
 21
792.5767837555552
 31
0.0
  0
LINE
  5
9061
  8
SP
 10
11681.594591732
 20
802.5767837555552
 30
0.0
 11
11881.594591732
 21
802.5767837555552
 31
0.0
  0
INSERT
  5
9062
  8
SP
  2
_OPEN
 10
11656.594591732
 20
802.5767837555552
 30
0.0
 41
25.0
 42
25.0
 43
25.0
 50
180.0
  0
INSERT
  5
9063
  8
SP
  2
_OPEN
 10
11906.594591732
 20
802.5767837555552
 30
0.0
 41
25.0
 42
25.0
 43
25.0
  0
TEXT
  5
9064
  8
SP
 10
11740.48378010962
 20
812.57678375555508
 30
0.0
 40
30.0
  1
250
 51
15.0
  0
POINT
  5
9065
  8
DEFPOINTS
 62
     0
 10
11656.594591732
 20
840.1197283062138
 30
0.0
  0
POINT
  5
9066
  8
DEFPOINTS
 62
     0
 10
11906.594591732
 20
875.40143996824531
 30
0.0
  0
POINT
  5
9067
  8
DEFPOINTS
 62
     0
 10
11906.594591732
 20
802.5767837555552
 30
0.0
  0
ENDBLK
  5
8F2C
  8
0
  0
BLOCK
  8
0
  2
*D65
 70
     1
 10
0.0
 20
0.0
 30
0.0
  3
*D65
  1

  0
LINE
  5
903B
  8
SP
 10
11406.594591732
 20
865.40143996824247
 30
0.0
 11
11406.594591732
 21
792.57678375555236
 31
0.0
  0
LINE
  5
903C
  8
SP
 10
11656.594591732
 20
830.11972830621369
 30
0.0
 11
11656.594591732
 21
792.57678375555236
 31
0.0
  0
LINE
  5
903D
  8
SP
 10
11431.594591732
 20
802.57678375555247
 30
0.0
 11
11631.594591732
 21
802.57678375555247
 31
0.0
  0
INSERT
  5
903E
  8
SP
  2
_OPEN
 10
11406.594591732
 20
802.57678375555247
 30
0.0
 41
25.0
 42
25.0
 43
25.0
 50
180.0
  0
INSERT
  5
903F
  8
SP
  2
_OPEN
 10
11656.594591732
 20
802.57678375555247
 30
0.0
 41
25.0
 42
25.0
 43
25.0
  0
TEXT
  5
9040
  8
SP
 10
11490.48378010962
 20
812.57678375555247
 30
0.0
 40
30.0
  1
250
 51
15.0
  0
POINT
  5
9041
  8
DEFPOINTS
 62
     0
 10
11406.594591732
 20
875.40143996824247
 30
0.0
  0
POINT
  5
9042
  8
DEFPOINTS
 62
     0
 10
11656.594591732
 20
840.1197283062138
 30
0.0
  0
POINT
  5
9043
  8
DEFPOINTS
 62
     0
 10
11656.594591732
 20
802.57678375555247
 30
0.0
  0
ENDBLK
  5
8F38
  8
0
  0
BLOCK
  8
0
  2
*D66
 70
     1
 10
0.0
 20
0.0
 30
0.0
  3
*D66
  1

  0
LINE
  5
9083
  8
SP
 10
11387.187991309491
 20
2394.4930307105219
 30
0.0
 11
11257.9548364928
 21
2394.4930307105219
 31
0.0
  0
LINE
  5
9084
  8
SP
 10
11387.187991309491
 20
1844.4930307105219
 30
0.0
 11
11257.9548364928
 21
1844.4930307105219
 31
0.0
  0
LINE
  5
9085
  8
SP
 10
11267.9548364928
 20
2369.4930307105219
 30
0.0
 11
11267.9548364928
 21
1869.4930307105219
 31
0.0
  0
INSERT
  5
9086
  8
SP
  2
_OPEN
 10
11267.9548364928
 20
2394.4930307105219
 30
0.0
 41
25.0
 42
25.0
 43
25.0
 50
90.0
  0
INSERT
  5
9087
  8
SP
  2
_OPEN
 10
11267.9548364928
 20
1844.4930307105219
 30
0.0
 41
25.0
 42
25.0
 43
25.0
 50
270.0
  0
TEXT
  5
9088
  8
SP
 10
11257.9548364928
 20
2077.6166499669139
 30
0.0
 40
30.0
  1
550
 50
90.0
 51
15.0
  0
POINT
  5
9089
  8
DEFPOINTS
 62
     0
 10
11397.1879913095
 20
2394.4930307105219
 30
0.0
  0
POINT
  5
908A
  8
DEFPOINTS
 62
     0
 10
11397.1879913095
 20
1844.4930307105219
 30
0.0
  0
POINT
  5
908B
  8
DEFPOINTS
 62
     0
 10
11267.9548364928
 20
1844.4930307105219
 30
0.0
  0
ENDBLK
  5
8F44
  8
0
  0
BLOCK
  8
0
  2
*D67
 70
     1
 10
0.0
 20
0.0
 30
0.0
  3
*D67
  1

  0
LINE
  5
908C
  8
SP
 10
11397.1879913095
 20
1834.4930307105219
 30
0.0
 11
11397.1879913095
 21
1715.744689436907
 31
0.0
  0
LINE
  5
908D
  8
SP
 10
11897.1879913095
 20
1834.493030710524
 30
0.0
 11
11897.1879913095
 21
1715.744689436907
 31
0.0
  0
LINE
  5
908E
  8
SP
 10
11422.1879913095
 20
1725.744689436907
 30
0.0
 11
11872.187991309491
 21
1725.744689436907
 31
0.0
  0
INSERT
  5
908F
  8
SP
  2
_OPEN
 10
11397.1879913095
 20
1725.744689436907
 30
0.0
 41
25.0
 42
25.0
 43
25.0
 50
180.0
  0
INSERT
  5
9090
  8
SP
  2
_OPEN
 10
11897.1879913095
 20
1725.744689436907
 30
0.0
 41
25.0
 42
25.0
 43
25.0
  0
TEXT
  5
9091
  8
SP
 10
11605.31161056589
 20
1735.744689436907
 30
0.0
 40
30.0
  1
500
 51
15.0
  0
POINT
  5
9092
  8
DEFPOINTS
 62
     0
 10
11397.1879913095
 20
1844.4930307105219
 30
0.0
  0
POINT
  5
9093
  8
DEFPOINTS
 62
     0
 10
11897.1879913095
 20
1844.493030710524
 30
0.0
  0
POINT
  5
9094
  8
DEFPOINTS
 62
     0
 10
11897.1879913095
 20
1725.744689436907
 30
0.0
  0
ENDBLK
  5
8F50
  8
0
  0
ENDSEC
  0
SECTION
  2
ENTITIES
  0
LINE
  5
21A1
  8
4
 10
13113.60959423641
 20
96.092404061039474
 30
0.0
 11
11013.60959423641
 21
96.092404061039474
 31
0.0
  0
LINE
  5
21A2
  8
4
 10
11013.60959423641
 20
3046.0924040610389
 30
0.0
 11
13113.60959423641
 21
3046.0924040610389
 31
0.0
  0
LINE
  5
21AC
  8
4
 10
11013.60959423641
 20
96.092404061039474
 30
0.0
 11
11013.60959423641
 21
3046.0924040610389
 31
0.0
  0
LINE
  5
22D0
  8
4
 10
13113.60959423641
 20
3046.0924040610389
 30
0.0
 11
13113.60959423641
 21
96.092404061039474
 31
0.0
  0
LINE
  5
236E
  8
4
 10
13113.60959423641
 20
3046.0924040610389
 30
0.0
 11
13113.60959423641
 21
3046.0924040610389
 31
0.0
  0
TEXT
  5
54B4
  8
4
 10
11305.284100503261
 20
2544.4293549289091
 30
0.0
 40
53.999999999999993
  1
右回転左横向
  0
TEXT
  5
54B5
  8
4
 10
11473.20959423641
 20
2695.5186316473701
 30
0.0
 40
72.0
  1
遠心式片吸込直動形多翼ファン
 72
     4
 11
12063.60959423641
 21
2731.5186316473701
 31
0.0
  0
LINE
  5
54B6
  8
4
 10
11263.60959423641
 20
2631.5186316473701
 30
0.0
 11
12863.609594236421
 21
2631.5186316473701
 31
0.0
  0
LINE
  5
54B7
  8
4
 10
11263.60959423641
 20
2831.5186316473701
 30
0.0
 11
12863.609594236421
 21
2831.5186316473701
 31
0.0
  0
LINE
  5
54B8
  8
4
 10
11263.60959423641
 20
2831.5186316473701
 30
0.0
 11
11263.60959423641
 21
2631.5186316473701
 31
0.0
  0
LINE
  5
54B9
  8
4
 10
12454.22701659628
 20
2948.7621389323181
 30
0.0
 11
12863.609594236421
 21
2948.7621389323181
 31
0.0
  0
LINE
  5
54BA
  8
4
 10
12863.609594236421
 20
2843.3734605079671
 30
0.0
 11
12454.22701659628
 21
2843.3734605079671
 31
0.0
  0
TEXT
  5
54BC
  8
4
 10
12424.90565683643
 20
2545.5387187150809
 30
0.0
 40
53.999999999999993
  1
縮尺：1/10
  0
LINE
  5
54BD
  8
4
 10
12454.22701659628
 20
2843.3734605079671
 30
0.0
 11
12454.22701659628
 21
2948.7621389323181
 31
0.0
  0
TEXT
  5
54BE
  8
4
 10
12482.5791534857
 20
2868.170958877874
 30
0.0
 40
56.000000000000007
  1
No.
  0
LINE
  5
54BF
  8
4
 10
12863.609594236421
 20
2831.5186316473701
 30
0.0
 11
12863.609594236421
 21
2631.5186316473701
 31
0.0
  0
LINE
  5
54C0
  8
4
 10
12863.609594236421
 20
2948.7621389323181
 30
0.0
 11
12863.609594236421
 21
2843.3734605079671
 31
0.0
  0
TEXT
  5
54C4
  8
4
 10
11499.867700261209
 20
335.27468562959712
 30
0.0
 40
50.0
  1
機器型番
  0
TEXT
  5
54C5
  8
4
 10
11502.111675083321
 20
445.17255476419911
 30
0.0
 40
50.0
  1
機器名称
  0
LINE
  5
54C8
  8
4
 10
11463.60959423641
 20
513.62952889758606
 30
0.0
 11
12663.609594236421
 21
513.62952889758606
 31
0.0
  0
LINE
  5
54C9
  8
4
 10
11463.60959423641
 20
413.62952889758611
 30
0.0
 11
12663.609594236421
 21
413.62952889758611
 31
0.0
  0
LINE
  5
54CA
  8
4
 10
11463.60959423641
 20
313.62952889758611
 30
0.0
 11
12663.609594236421
 21
313.62952889758611
 31
0.0
  0
LINE
  5
54CB
  8
4
 10
11463.60959423641
 20
513.62952889758606
 30
0.0
 11
11463.609594236421
 21
313.62952889758611
 31
0.0
  0
LINE
  5
54CC
  8
4
 10
12663.609594236421
 20
513.62952889758606
 30
0.0
 11
12663.609594236421
 21
313.62952889758611
 31
0.0
  0
LINE
  5
54CD
  8
4
 10
11963.60959423641
 20
513.62952889758606
 30
0.0
 11
11963.60959423641
 21
313.62952889758611
 31
0.0
  0
TEXT
  5
54D0
  8
4
 10
11991.28833972408
 20
436.20129785515468
 30
0.0
 40
50.0
  1
ミツヤ多翼送風機
  0
TEXT
  5
5668
  8
4
 10
12000.264089821891
 20
330.78911317752949
 30
0.0
 40
50.0
  1
MF＃1 1/2-7
  0
TEXT
  5
88B3
  8
4
 10
11791.901762917179
 20
2545.5387187150809
 30
0.0
 40
53.999999999999993
  1
天井吊防振ベッド型
  0
DIMENSION
  5
8D12
  8
SP
  2
*D57
 10
11866.594591732
 20
1498.401439968246
 30
0.0
 11
11761.594591732
 21
1523.401439968246
 31
0.0
 70
     0
 13
11656.594591732
 23
1452.177859112571
 33
0.0
 14
11866.594591732
 24
1222.401439968246
 34
0.0
 50
180.0
  0
DIMENSION
  5
8D13
  8
SP
  2
*D58
 10
11456.594591732
 20
1498.2958384349799
 30
0.0
 11
11556.594591732
 21
1523.2958384349799
 31
0.0
 70
     0
 13
11656.594591732
 23
1452.177859112571
 33
0.0
 14
11456.594591732
 24
1263.401439968246
 34
0.0
 50
180.0
  0
DIMENSION
  5
8D14
  8
SP
  2
*D59
 10
11316.594591732
 20
875.40143996824247
 30
0.0
 11
11291.594591732
 21
789.34191175281262
 31
0.0
 70
     0
 13
11406.594591732
 23
905.40143996824293
 33
0.0
 14
11406.594591732
 24
875.40143996824247
 34
0.0
 50
90.0
1001
ACAD
1000
DSTYLE
1002
{
1070
     6
1000
DOT
1002
}
  0
DIMENSION
  5
8D15
  8
SP
  2
*D60
 10
11316.594591732
 20
905.40143996824293
 30
0.0
 11
11282.554779936539
 21
906.5590221501667
 31
0.0
 70
   128
 13
11466.594591732
 23
927.401439968246
 33
0.0
 14
11406.594591732
 24
905.40143996824293
 34
0.0
 50
90.0
1001
ACAD
1000
DSTYLE
1002
{
1070
   287
1070
     5
1070
     3
1000
（<>）
1070
   279
1070
     2
1070
   289
1070
     3
1070
     6
1000
NONE
1070
     7
1000
NONE
1002
}
  0
DIMENSION
  5
8D16
  8
SP
  2
*D61
 10
11316.594591732
 20
1418.401439968246
 30
0.0
 11
11291.594591732
 21
1330.4014399682469
 31
0.0
 70
     0
 13
11437.122800930731
 23
1242.401439968246
 33
0.0
 14
11673.594591732
 24
1418.401439968246
 34
0.0
 50
90.0
  0
DIMENSION
  5
8D17
  8
SP
  2
*D62
 10
11316.594591732
 20
927.401439968246
 30
0.0
 11
11291.594591732
 21
1084.9014399682469
 31
0.0
 70
     0
 13
11437.122800930731
 23
1242.401439968246
 33
0.0
 14
11466.594591732
 24
927.401439968246
 34
0.0
 50
90.0
  0
DIMENSION
  5
8D18
  8
SP
  2
*D63
 10
11906.594591732
 20
732.57678375555383
 30
0.0
 11
11656.594591732
 21
757.57678375555383
 31
0.0
 70
     0
 13
11406.594591732
 23
845.74547234979559
 33
0.0
 14
11906.594591732
 24
845.74547234979832
 34
0.0
  0
DIMENSION
  5
8D19
  8
SP
  2
*D64
 10
11906.594591732
 20
802.5767837555552
 30
0.0
 11
11781.594591732
 21
827.5767837555552
 31
0.0
 70
     0
 13
11656.594591732
 23
840.1197283062138
 33
0.0
 14
11906.594591732
 24
875.40143996824531
 34
0.0
  0
LINE
  5
8D1A
  8
1
 10
11406.594591732
 20
905.40143996824293
 30
0.0
 11
11906.594591732
 21
905.4014399682452
 31
0.0
  0
LINE
  5
8D1B
  8
FUTO
 10
11406.594591732
 20
875.40143996824247
 30
0.0
 11
11906.594591732
 21
875.40143996824531
 31
0.0
  0
LINE
  5
8D1C
  8
1
 10
11406.594591732
 20
902.40143996824304
 30
0.0
 11
11906.594591732
 21
902.40143996824531
 31
0.0
  0
LINE
  5
8D1D
  8
1
 10
11596.594591732
 20
1392.401439968246
 30
0.0
 11
11716.594591732
 21
1392.401439968246
 31
0.0
  0
ARC
  5
8D1E
  8
FUTO
 10
11670.594591732
 20
1256.401439968246
 30
0.0
 40
162.0
 50
89.489666755206386
 51
168.45073817644439
  0
ARC
  5
8D1F
  8
FUTO
 10
11670.594591732
 20
1256.401439968246
 30
0.0
 40
172.0
 50
89.489666755206386
 51
168.45073817644439
  0
LINE
  5
8D20
  8
1
 10
11574.094591732
 20
1164.0605579682449
 30
0.0
 11
11739.094621732
 21
1164.0605579682449
 31
0.0
  0
LINE
  5
8D21
  8
1
 10
11619.499092732
 20
1165.9505119682451
 30
0.0
 11
11693.746400732
 21
1165.9505119682451
 31
0.0
  0
LINE
  5
8D22
  8
1
 10
11523.894591732
 20
1137.401439968246
 30
0.0
 11
11789.294591731999
 21
1137.401439968246
 31
0.0
  0
LINE
  5
8D23
  8
1
 10
11498.894591732
 20
1162.401439968246
 30
0.0
 11
11814.29459173199
 21
1162.401439968246
 31
0.0
  0
LINE
  5
8D24
  8
1
 10
11466.594591732
 20
987.40143996824418
 30
0.0
 11
11846.594591732
 21
987.401439968246
 31
0.0
  0
CIRCLE
  5
8D25
  8
2
 10
11656.594591732
 20
1242.401439968246
 30
0.0
 40
136.0
  0
ARC
  5
8D26
  8
1
 10
11656.594591732
 20
1242.401439968246
 30
0.0
 40
85.0
 50
0.0
 51
244.1244660000032
  0
ARC
  5
8D27
  8
FUTO
 10
11636.594591732
 20
1222.401439968246
 30
0.0
 40
240.0
 50
270.0
 51
0.39182689926034
  0
ARC
  5
8D28
  8
FUTO
 10
11636.594591732
 20
1222.401439968246
 30
0.0
 40
230.0
 50
270.0
 51
0.39182689926034
  0
LINE
  5
8D29
  8
2
 10
11437.122800930731
 20
1242.401439968246
 30
0.0
 11
11893.552066769969
 21
1242.4014399682439
 31
0.0
  0
LINE
  5
8D2A
  8
1
 10
11523.894591732
 20
1137.401439968246
 30
0.0
 11
11523.894591732
 21
1038.4014399682451
 31
0.0
  0
LINE
  5
8D2B
  8
1
 10
11496.594591732
 20
1308.5014399682441
 30
0.0
 11
11496.594591732
 21
989.70143996824697
 31
0.0
  0
LINE
  5
8D2C
  8
1
 10
11498.894591732
 20
1308.5014399682441
 30
0.0
 11
11498.894591732
 21
987.40143996824418
 31
0.0
  0
LINE
  5
8D2D
  8
FUTO
 10
11476.594591732
 20
1011.401439968246
 30
0.0
 11
11476.594591732
 21
1223.401439968246
 31
0.0
  0
LINE
  5
8D2E
  8
FUTO
 10
11456.594591732
 20
971.401439968246
 30
0.0
 11
11456.594591732
 21
1263.401439968246
 31
0.0
  0
LINE
  5
8D2F
  8
FUTO
 10
11457.594591732
 20
991.40143996824588
 30
0.0
 11
11457.594591732
 21
1243.401439968246
 31
0.0
  0
LINE
  5
8D30
  8
2
 10
11656.594591732
 20
840.1197283062138
 30
0.0
 11
11656.594591732
 21
1452.177859112571
 31
0.0
  0
DIMENSION
  5
8D31
  8
SP
  2
*D65
 10
11656.594591732
 20
802.57678375555247
 30
0.0
 11
11531.594591732
 21
827.57678375555247
 31
0.0
 70
     0
 13
11406.594591732
 23
875.40143996824247
 33
0.0
 14
11656.594591732
 24
840.1197283062138
 34
0.0
  0
LINE
  5
8D32
  8
1
 10
11496.594591732
 20
927.401439968246
 30
0.0
 11
11466.594591732
 21
927.401439968246
 31
0.0
  0
LINE
  5
8D33
  8
1
 10
11494.294591731999
 20
929.70143996824561
 30
0.0
 11
11466.594591732
 21
929.70143996824595
 31
0.0
  0
LINE
  5
8D34
  8
1
 10
11494.294591731999
 20
985.10143996824581
 30
0.0
 11
11466.594591732
 21
985.10143996824604
 31
0.0
  0
LINE
  5
8D35
  8
FUTO
 10
11476.594591732
 20
981.51238132758033
 30
0.0
 11
11636.655701900059
 21
982.40160971740295
 31
0.0
  0
LINE
  5
8D36
  8
1
 10
11466.594591732
 20
989.70143996824515
 30
0.0
 11
11496.594591732
 21
989.70143996824697
 31
0.0
  0
LINE
  5
8D37
  8
FUTO
 10
11456.60014720182
 20
992.40145539998775
 30
0.0
 11
11636.60014720182
 21
992.40145539998775
 31
0.0
  0
LINE
  5
8D38
  8
FUTO
 10
11406.594591732
 20
875.40143996824247
 30
0.0
 11
11406.594591732
 21
905.40143996824293
 31
0.0
  0
LINE
  5
8D39
  8
2
 10
11479.594591732
 20
891.59090122405541
 30
0.0
 11
11479.594591732
 21
942.62861907682816
 31
0.0
  0
LINE
  5
8D3A
  8
FUTO
 10
11466.594591732
 20
929.70143996824561
 30
0.0
 11
11466.594591732
 21
927.401439968246
 31
0.0
  0
LINE
  5
8D3B
  8
2
 10
11479.594591732
 20
973.36722985099186
 30
0.0
 11
11479.594591732
 21
999.70143996824697
 31
0.0
  0
LINE
  5
8D3C
  8
FUTO
 10
11458.594591732
 20
991.40143996824588
 30
0.0
 11
11458.594591732
 21
993.401439968246
 31
0.0
  0
LINE
  5
8D3D
  8
FUTO
 10
11456.594591732
 20
991.40143996824588
 30
0.0
 11
11476.594591732
 21
991.40143996824588
 31
0.0
  0
LINE
  5
8D3E
  8
FUTO
 10
11457.594591732
 20
990.40143996824588
 30
0.0
 11
11476.594591732
 21
990.40143996824588
 31
0.0
  0
LINE
  5
8D3F
  8
FUTO
 10
11466.594591732
 20
987.401439968246
 30
0.0
 11
11466.594591732
 21
985.10143996824581
 31
0.0
  0
LINE
  5
8D40
  8
FUTO
 10
11457.594591732
 20
971.401439968246
 30
0.0
 11
11457.594591732
 21
990.40143996824588
 31
0.0
  0
LINE
  5
8D41
  8
FUTO
 10
11456.594591732
 20
971.401439968246
 30
0.0
 11
11457.594591732
 21
971.401439968246
 31
0.0
  0
LINE
  5
8D42
  8
1
 10
11466.594591732
 20
987.40143996824418
 30
0.0
 11
11466.594591732
 21
989.70143996824515
 31
0.0
  0
LINE
  5
8D43
  8
FUTO
 10
11476.594591732
 20
981.51238132758033
 30
0.0
 11
11476.594591732
 21
991.51253564737783
 31
0.0
  0
LINE
  5
8D44
  8
FUTO
 10
11458.594591732
 20
993.401439968246
 30
0.0
 11
11476.594591732
 21
1011.401439968246
 31
0.0
  0
LINE
  5
8D45
  8
FUTO
 10
11494.294591731999
 20
985.10143996824581
 30
0.0
 11
11494.294591731999
 21
929.70143996824561
 31
0.0
  0
LINE
  5
8D46
  8
FUTO
 10
11496.594591732
 20
987.401439968246
 30
0.0
 11
11496.594591732
 21
927.40143996824565
 31
0.0
  0
LINE
  5
8D47
  8
1
 10
11498.894591732
 20
1038.4014399682451
 30
0.0
 11
11523.894591732
 21
1038.4014399682451
 31
0.0
  0
ARC
  5
8D48
  8
FUTO
 10
11446.074622409849
 20
1301.9300260681739
 30
0.0
 40
57.203726762688042
 50
306.60350367362201
 51
351.67207569821181
  0
ARC
  5
8D49
  8
FUTO
 10
11440.594591732
 20
1303.4014399682419
 30
0.0
 40
72.753061747871584
 50
304.1996194554676
 51
348.45073817644442
  0
LINE
  5
8D4A
  8
FUTO
 10
11458.594591732
 20
1241.401439968246
 30
0.0
 11
11476.594591732
 21
1223.401439968246
 31
0.0
  0
LINE
  5
8D4B
  8
FUTO
 10
11476.594591732
 20
1242.401439968246
 30
0.0
 11
11456.594591732
 21
1242.401439968246
 31
0.0
  0
LINE
  5
8D4C
  8
FUTO
 10
11456.594591732
 20
1243.401439968246
 30
0.0
 11
11476.594591732
 21
1243.401439968246
 31
0.0
  0
LINE
  5
8D4D
  8
FUTO
 10
11457.594591732
 20
1244.401439968246
 30
0.0
 11
11476.594591732
 21
1244.401439968246
 31
0.0
  0
LINE
  5
8D4E
  8
FUTO
 10
11456.594591732
 20
1263.401439968246
 30
0.0
 11
11457.594591732
 21
1263.401439968246
 31
0.0
  0
LINE
  5
8D4F
  8
FUTO
 10
11458.594591732
 20
1241.401439968246
 30
0.0
 11
11458.594591732
 21
1243.401439968246
 31
0.0
  0
LINE
  5
8D50
  8
FUTO
 10
11457.594591732
 20
1244.401439968246
 30
0.0
 11
11457.594591732
 21
1263.401439968246
 31
0.0
  0
LINE
  5
8D51
  8
FUTO
 10
11476.594591732
 20
1242.401439968246
 30
0.0
 11
11476.594591732
 21
1248.333283378488
 31
0.0
  0
LINE
  5
8D52
  8
FUTO
 10
11476.594591732
 20
1242.401439968246
 30
0.0
 11
11476.594591732
 21
1243.401439968246
 31
0.0
  0
ARC
  5
8D53
  8
FUTO
 10
11486.594591732
 20
1248.333283378488
 30
0.0
 40
10.0
 50
129.87296890617091
 51
180.0
  0
LINE
  5
8D54
  8
CT
 10
11518.7765040585
 20
1299.4875610229319
 30
0.0
 11
11544.15492352358
 21
1288.9754754889041
 31
0.0
  0
LINE
  5
8D55
  8
1
 10
11574.094591732
 20
1166.901439968246
 30
0.0
 11
11604.229417732
 21
1166.901439968246
 31
0.0
  0
LINE
  5
8D56
  8
FUTO
 10
11523.894591732
 20
1137.401439968246
 30
0.0
 11
11498.894591732
 21
1162.401439968246
 31
0.0
  0
LINE
  5
8D57
  8
1
 10
11574.094591732
 20
1164.0605579682449
 30
0.0
 11
11574.094591732
 21
1166.901439968246
 31
0.0
  0
CIRCLE
  5
8D58
  8
1
 10
11530.94697531046
 20
1190.3564931665931
 30
0.0
 40
4.0
  0
LINE
  5
8D59
  8
CT
 10
11518.7765040585
 20
1185.3153189135551
 30
0.0
 11
11544.15492352358
 21
1195.8274044475879
 31
0.0
  0
ARC
  5
8D5A
  8
1
 10
11656.594591732
 20
1242.401439968246
 30
0.0
 40
85.0
 50
236.73178133168611
 51
244.1244660000032
  0
LINE
  5
8D5B
  8
1
 10
11578.761430732
 20
1166.896068968246
 30
0.0
 11
11594.271423732
 21
1184.582935968245
 31
0.0
  0
LINE
  5
8D5C
  8
1
 10
11609.970653732
 20
1171.3369619682451
 30
0.0
 11
11608.298051731999
 21
1168.995189968246
 31
0.0
  0
LINE
  5
8D5D
  8
CT
 10
11599.50847067731
 20
1104.5833522947451
 30
0.0
 11
11610.020556211341
 21
1129.9617717598269
 31
0.0
  0
LINE
  5
8D5E
  8
1
 10
11579.094591732
 20
1164.0605579682449
 30
0.0
 11
11579.094591732
 21
1162.401439968246
 31
0.0
  0
LINE
  5
8D5F
  8
CT
 10
11594.094591732
 20
1160.1828539682449
 30
0.0
 11
11594.094591732
 21
1168.769860968245
 31
0.0
  0
LINE
  5
8D60
  8
1
 10
11614.094591732
 20
1164.0605579682449
 30
0.0
 11
11614.094591732
 21
1162.401439968246
 31
0.0
  0
ARC
  5
8D61
  8
1
 10
11604.229387732001
 20
1171.901439968246
 30
0.0
 40
5.0
 50
270.0
 51
324.4617609999645
  0
CIRCLE
  5
8D62
  8
1
 10
11604.54964493035
 20
1116.7538235467109
 30
0.0
 40
4.0
  0
LINE
  5
8D63
  8
1
 10
11596.594591732
 20
1392.401439968246
 30
0.0
 11
11498.194591732001
 21
1308.5014399682441
 31
0.0
  0
CIRCLE
  5
8D64
  8
1
 10
11530.94697531046
 20
1294.446386769898
 30
0.0
 40
4.0
  0
LINE
  5
8D65
  8
1
 10
11496.594591732
 20
1308.5014399682441
 30
0.0
 11
11498.194591732001
 21
1308.5014399682441
 31
0.0
  0
CIRCLE
  5
8D66
  8
1
 10
11604.54964493035
 20
1368.0490563897799
 30
0.0
 40
4.0
  0
LINE
  5
8D67
  8
CT
 10
11599.50847067731
 20
1380.219527641744
 30
0.0
 11
11610.020556211341
 21
1354.841108176661
 31
0.0
  0
LINE
  5
8D68
  8
1
 10
11789.294591731999
 20
1137.401439968246
 30
0.0
 11
11789.294591731999
 21
1038.4014399682451
 31
0.0
  0
LINE
  5
8D69
  8
1
 10
11816.594591732
 20
1308.5014399682441
 30
0.0
 11
11816.594591732
 21
989.70143996824515
 31
0.0
  0
LINE
  5
8D6A
  8
1
 10
11814.29459173199
 20
1308.5014399682441
 30
0.0
 11
11814.29459173199
 21
987.40143996824418
 31
0.0
  0
LINE
  5
8D6B
  8
1
 10
11818.894591732
 20
929.70143996824561
 30
0.0
 11
11846.594591732
 21
929.70143996824595
 31
0.0
  0
LINE
  5
8D6C
  8
1
 10
11846.594591732
 20
927.40143996824406
 30
0.0
 11
11816.594591732
 21
927.40143996824406
 31
0.0
  0
LINE
  5
8D6D
  8
1
 10
11818.894591732
 20
985.10143996824581
 30
0.0
 11
11846.594591732
 21
985.10143996824604
 31
0.0
  0
LINE
  5
8D6E
  8
1
 10
11816.594591732
 20
989.70143996824697
 30
0.0
 11
11846.594591732
 21
989.70143996824515
 31
0.0
  0
LINE
  5
8D6F
  8
FUTO
 10
11818.894591732
 20
985.10143996824581
 30
0.0
 11
11818.894591732
 21
929.70143996824561
 31
0.0
  0
LINE
  5
8D70
  8
FUTO
 10
11816.594591732
 20
987.401439968246
 30
0.0
 11
11816.594591732
 21
927.40143996824565
 31
0.0
  0
LINE
  5
8D71
  8
1
 10
11789.294591731999
 20
1038.4014399682451
 30
0.0
 11
11814.29459173199
 21
1038.4014399682451
 31
0.0
  0
LINE
  5
8D72
  8
2
 10
11833.594591732
 20
889.7557076221492
 30
0.0
 11
11833.594591732
 21
942.62861907682816
 31
0.0
  0
LINE
  5
8D73
  8
FUTO
 10
11846.594591732
 20
929.70143996824561
 30
0.0
 11
11846.594591732
 21
927.401439968246
 31
0.0
  0
LINE
  5
8D74
  8
2
 10
11833.594591732
 20
973.36722985099186
 30
0.0
 11
11833.594591732
 21
999.70143996824697
 31
0.0
  0
LINE
  5
8D75
  8
FUTO
 10
11846.594591732
 20
987.401439968246
 30
0.0
 11
11846.594591732
 21
985.10143996824581
 31
0.0
  0
LINE
  5
8D76
  8
FUTO
 10
11846.594591732
 20
987.401439968246
 30
0.0
 11
11846.594591732
 21
989.70143996824697
 31
0.0
  0
LINE
  5
8D77
  8
FUTO
 10
11906.594591732
 20
875.40143996824531
 30
0.0
 11
11906.594591732
 21
905.4014399682452
 31
0.0
  0
ARC
  5
8D78
  8
FUTO
 10
11673.594591732
 20
1225.401439968246
 30
0.0
 40
203.0
 50
359.57208103222172
 51
90.467321704981742
  0
ARC
  5
8D79
  8
FUTO
 10
11673.594591732
 20
1225.401439968246
 30
0.0
 40
193.0
 50
359.57208103222172
 51
90.467321704981742
  0
LINE
  5
8D7A
  8
CT
 10
11794.412679405499
 20
1299.4875610229319
 30
0.0
 11
11769.03425994041
 21
1288.9754754889041
 31
0.0
  0
ARC
  5
8D7B
  8
1
 10
11656.594591732
 20
1242.401439968246
 30
0.0
 40
85.000007999999994
 50
295.91772600002218
 51
0.0
  0
LINE
  5
8D7C
  8
1
 10
11703.226142732001
 20
1171.3263019682449
 30
0.0
 11
11704.891130732
 21
1168.995189968246
 31
0.0
  0
LINE
  5
8D7D
  8
1
 10
11734.428959732
 20
1166.8946159682459
 30
0.0
 11
11718.915899731999
 21
1184.585077968246
 31
0.0
  0
LINE
  5
8D7E
  8
CT
 10
11713.68071278668
 20
1104.5833522947451
 30
0.0
 11
11703.16862725266
 21
1129.9617717598269
 31
0.0
  0
LINE
  5
8D7F
  8
1
 10
11739.094621732
 20
1166.901439968246
 30
0.0
 11
11708.959795732
 21
1166.901439968246
 31
0.0
  0
LINE
  5
8D80
  8
1
 10
11699.094591732
 20
1164.0605579682449
 30
0.0
 11
11699.094591732
 21
1162.401439968246
 31
0.0
  0
ARC
  5
8D81
  8
1
 10
11708.959795732
 20
1171.901439968246
 30
0.0
 40
5.000032
 50
215.53825400000829
 51
270.0
  0
LINE
  5
8D82
  8
1
 10
11704.102861732001
 20
1170.0988269682459
 30
0.0
 11
11704.891130732
 21
1168.995189968246
 31
0.0
  0
CIRCLE
  5
8D83
  8
1
 10
11708.639538533649
 20
1116.7538235467109
 30
0.0
 40
4.0
  0
LINE
  5
8D84
  8
1
 10
11739.094621732
 20
1166.901439968246
 30
0.0
 11
11739.094621732
 21
1164.0605579682449
 31
0.0
  0
LINE
  5
8D85
  8
1
 10
11734.094591732
 20
1164.0605579682449
 30
0.0
 11
11734.094591732
 21
1162.401439968246
 31
0.0
  0
LINE
  5
8D86
  8
CT
 10
11719.094591732
 20
1160.1828539682449
 30
0.0
 11
11719.094591732
 21
1168.769860968245
 31
0.0
  0
LINE
  5
8D87
  8
FUTO
 10
11789.294591731999
 20
1137.401439968246
 30
0.0
 11
11814.29459173199
 21
1162.401439968246
 31
0.0
  0
CIRCLE
  5
8D88
  8
1
 10
11782.24220815353
 20
1190.3564931665931
 30
0.0
 40
4.0
  0
LINE
  5
8D89
  8
CT
 10
11794.412679405499
 20
1185.3153189135569
 30
0.0
 11
11769.03425994041
 21
1195.8274044475879
 31
0.0
  0
LINE
  5
8D8A
  8
1
 10
11716.594591732
 20
1392.401439968246
 30
0.0
 11
11814.994591731989
 21
1308.5014399682441
 31
0.0
  0
CIRCLE
  5
8D8B
  8
1
 10
11708.639538533649
 20
1368.0490563897799
 30
0.0
 40
4.0
  0
LINE
  5
8D8C
  8
CT
 10
11713.68071278668
 20
1380.219527641744
 30
0.0
 11
11703.168627252649
 21
1354.8411081766631
 31
0.0
  0
CIRCLE
  5
8D8D
  8
1
 10
11782.24220815353
 20
1294.446386769898
 30
0.0
 40
4.0
  0
LINE
  5
8D8E
  8
1
 10
11814.994591731989
 20
1308.5014399682441
 30
0.0
 11
11816.594591732
 21
1308.5014399682441
 31
0.0
  0
DIMENSION
  5
8D8F
  8
SP
  2
*D66
 10
11267.9548364928
 20
1844.4930307105219
 30
0.0
 11
11242.9548364928
 21
2119.4930307105242
 31
0.0
 70
     0
 13
11397.1879913095
 23
2394.4930307105219
 33
0.0
 14
11397.1879913095
 24
1844.4930307105219
 34
0.0
 50
90.0
  0
LINE
  5
8D90
  8
FUTO
 10
11897.1879913095
 20
2364.4930307105242
 30
0.0
 11
11397.1879913095
 21
2364.4930307105219
 31
0.0
  0
LINE
  5
8D91
  8
FUTO
 10
11897.1879913095
 20
2394.4930307105242
 30
0.0
 11
11397.1879913095
 21
2394.4930307105219
 31
0.0
  0
LINE
  5
8D92
  8
1
 10
11845.1879913095
 20
2276.4930307105228
 30
0.0
 11
11467.187991309491
 21
2276.4930307105219
 31
0.0
  0
LINE
  5
8D93
  8
1
 10
11845.1879913095
 20
2277.4930307105228
 30
0.0
 11
11467.187991309491
 21
2277.4930307105219
 31
0.0
  0
LINE
  5
8D94
  8
2
 10
11890.39770380206
 20
2186.4930307105242
 30
0.0
 11
11437.04037673614
 21
2186.4930307105219
 31
0.0
  0
LINE
  5
8D95
  8
FUTO
 10
11503.1879913095
 20
2285.4930307105251
 30
0.0
 11
11791.187991309491
 21
2285.4930307105251
 31
0.0
  0
LINE
  5
8D96
  8
1
 10
11664.6879913095
 20
2067.6930307105231
 30
0.0
 11
11629.6879913095
 21
2067.6930307105231
 31
0.0
  0
LINE
  5
8D97
  8
1
 10
11614.6879913095
 20
2062.6930307105249
 30
0.0
 11
11679.687991309491
 21
2062.6930307105249
 31
0.0
  0
LINE
  5
8D98
  8
1
 10
11845.1879913095
 20
2096.4930307105228
 30
0.0
 11
11467.187991309491
 21
2096.4930307105219
 31
0.0
  0
LINE
  5
8D99
  8
FUTO
 10
11457.187991309491
 20
2087.4930307105219
 30
0.0
 11
11837.187991309491
 21
2087.4930307105219
 31
0.0
  0
LINE
  5
8D9A
  8
1
 10
11845.1879913095
 20
2095.4930307105228
 30
0.0
 11
11467.187991309491
 21
2095.4930307105219
 31
0.0
  0
LINE
  5
8D9B
  8
1
 10
11722.687991309491
 20
2030.193030710524
 30
0.0
 11
11647.187991309491
 21
2030.193030710524
 31
0.0
  0
LINE
  5
8D9C
  8
1
 10
11647.187991309491
 20
2052.693030710524
 30
0.0
 11
11720.687991309491
 21
2052.693030710524
 31
0.0
  0
LINE
  5
8D9D
  8
1
 10
11647.187991309491
 20
1868.6930307105249
 30
0.0
 11
11730.6879913095
 21
1868.6930307105249
 31
0.0
  0
LINE
  5
8D9E
  8
FUTO
 10
11897.1879913095
 20
1874.493030710524
 30
0.0
 11
11397.1879913095
 21
1874.4930307105219
 31
0.0
  0
LINE
  5
8D9F
  8
FUTO
 10
11897.1879913095
 20
1844.493030710524
 30
0.0
 11
11397.1879913095
 21
1844.4930307105219
 31
0.0
  0
LINE
  5
8DA0
  8
1
 10
11719.965335309489
 20
1834.6930307105249
 30
0.0
 11
11574.5614663095
 21
1834.6930307105249
 31
0.0
  0
LINE
  5
8DA1
  8
1
 10
11562.1879913095
 20
1908.6930307105249
 30
0.0
 11
11732.187991309491
 21
1908.6930307105249
 31
0.0
  0
DIMENSION
  5
8DA2
  8
SP
  2
*D67
 10
11897.1879913095
 20
1725.744689436907
 30
0.0
 11
11647.187991309491
 21
1750.744689436907
 31
0.0
 70
     0
 13
11397.1879913095
 23
1844.4930307105219
 33
0.0
 14
11897.1879913095
 24
1844.493030710524
 34
0.0
 50
180.0
  0
LINE
  5
8DA3
  8
1
 10
11572.38800330949
 20
1908.6930307105249
 30
0.0
 11
11572.38800330949
 21
2030.193030710524
 31
0.0
  0
LINE
  5
8DA4
  8
FUTO
 10
11457.1879913095
 20
1874.493030710523
 30
0.0
 11
11457.187991309491
 21
2096.4930307105219
 31
0.0
  0
LINE
  5
8DA5
  8
1
 10
11487.187991309491
 20
1874.493030710523
 30
0.0
 11
11487.187991309491
 21
2096.4930307105219
 31
0.0
  0
LINE
  5
8DA6
  8
2
 10
11647.187991309491
 20
1791.008136615347
 30
0.0
 11
11647.187991309491
 21
2306.7404061518519
 31
0.0
  0
LINE
  5
8DA7
  8
1
 10
11562.1879913095
 20
1878.493030710526
 30
0.0
 11
11487.187991309491
 21
1878.493030710523
 31
0.0
  0
LINE
  5
8DA8
  8
FUTO
 10
11397.1879913095
 20
1844.4930307105219
 30
0.0
 11
11397.1879913095
 21
1874.4930307105219
 31
0.0
  0
LINE
  5
8DA9
  8
CT
 10
11438.910336078279
 20
1857.493030710524
 30
0.0
 11
11415.46564654071
 21
1857.493030710524
 31
0.0
  0
CIRCLE
  5
8DAA
  8
FUTO
 10
11427.187991309491
 20
1857.493030710524
 30
0.0
 40
6.5
  0
LINE
  5
8DAB
  8
CT
 10
11427.187991309491
 20
1869.2153754793071
 30
0.0
 11
11427.187991309491
 21
1845.7706859417419
 31
0.0
  0
LINE
  5
8DAC
  8
FUTO
 10
11487.187991309491
 20
1887.493030710528
 30
0.0
 11
11457.187991309491
 21
1887.493030710528
 31
0.0
  0
LINE
  5
8DAD
  8
FUTO
 10
11457.1879913095
 20
1887.4930307105219
 30
0.0
 11
11487.187991309491
 21
1887.4930307105219
 31
0.0
  0
LINE
  5
8DAE
  8
1
 10
11647.187991309491
 20
1868.6930307105249
 30
0.0
 11
11563.6879913095
 21
1868.6930307105249
 31
0.0
  0
LINE
  5
8DAF
  8
1
 10
11562.1879913095
 20
1870.1930307105249
 30
0.0
 11
11562.1879913095
 21
1908.6930307105249
 31
0.0
  0
ARC
  5
8DB0
  8
1
 10
11563.6879913095
 20
1870.1930307105249
 30
0.0
 40
1.4999849999999999
 50
179.99941999999371
 51
270.0
  0
ARC
  5
8DB1
  8
1
 10
11565.3729883095
 20
1867.693091710523
 30
0.0
 40
0.999898
 50
11.62991300000893
 51
90.003496999952887
  0
LINE
  5
8DB2
  8
1
 10
11572.94147030949
 20
1835.8905407105251
 30
0.0
 11
11566.35235830949
 21
1867.8946917105241
 31
0.0
  0
LINE
  5
8DB3
  8
1
 10
11613.6879913095
 20
2053.493030710526
 30
0.0
 11
11487.187991309491
 21
2053.493030710526
 31
0.0
  0
LINE
  5
8DB4
  8
1
 10
11467.187991309491
 20
2256.4930307105242
 30
0.0
 11
11467.187991309491
 21
2116.4930307105219
 31
0.0
  0
LINE
  5
8DB5
  8
1
 10
11448.187991309491
 20
2276.4930307105219
 30
0.0
 11
11448.187991309491
 21
2096.4930307105219
 31
0.0
  0
LINE
  5
8DB6
  8
1
 10
11447.187991309491
 20
2296.4930307105219
 30
0.0
 11
11447.187991309491
 21
2076.4930307105242
 31
0.0
  0
LINE
  5
8DB7
  8
1
 10
11448.187991309491
 20
2095.4930307105219
 30
0.0
 11
11467.187991309491
 21
2095.4930307105219
 31
0.0
  0
LINE
  5
8DB8
  8
1
 10
11447.187991309491
 20
2096.4930307105219
 30
0.0
 11
11467.187991309491
 21
2096.4930307105219
 31
0.0
  0
LINE
  5
8DB9
  8
1
 10
11449.187991309491
 20
2098.4930307105219
 30
0.0
 11
11467.187991309491
 21
2116.4930307105219
 31
0.0
  0
LINE
  5
8DBA
  8
1
 10
11449.187991309491
 20
2098.4930307105219
 30
0.0
 11
11449.187991309491
 21
2096.4930307105219
 31
0.0
  0
LINE
  5
8DBB
  8
1
 10
11447.187991309491
 20
2076.4930307105242
 30
0.0
 11
11448.187991309491
 21
2076.4930307105242
 31
0.0
  0
LINE
  5
8DBC
  8
1
 10
11448.187991309491
 20
2095.4930307105219
 30
0.0
 11
11448.187991309491
 21
2076.4930307105242
 31
0.0
  0
LINE
  5
8DBD
  8
FUTO
 10
11397.1879913095
 20
2364.493030710521
 30
0.0
 11
11397.1879913095
 21
2394.4930307105219
 31
0.0
  0
LINE
  5
8DBE
  8
1
 10
11487.187991309491
 20
2276.4930307105219
 30
0.0
 11
11487.187991309491
 21
2364.4930307105219
 31
0.0
  0
LINE
  5
8DBF
  8
FUTO
 10
11457.187991309491
 20
2276.4930307105219
 30
0.0
 11
11457.187991309491
 21
2364.4930307105219
 31
0.0
  0
LINE
  5
8DC0
  8
1
 10
11448.187991309491
 20
2277.4930307105219
 30
0.0
 11
11467.187991309491
 21
2277.4930307105219
 31
0.0
  0
LINE
  5
8DC1
  8
1
 10
11447.187991309491
 20
2276.4930307105219
 30
0.0
 11
11467.187991309491
 21
2276.4930307105219
 31
0.0
  0
LINE
  5
8DC2
  8
1
 10
11449.187991309491
 20
2274.4930307105219
 30
0.0
 11
11467.187991309491
 21
2256.4930307105219
 31
0.0
  0
LINE
  5
8DC3
  8
1
 10
11447.187991309491
 20
2296.4930307105219
 30
0.0
 11
11448.187991309491
 21
2296.4930307105219
 31
0.0
  0
LINE
  5
8DC4
  8
1
 10
11449.187991309491
 20
2276.4930307105219
 30
0.0
 11
11449.187991309491
 21
2274.4930307105219
 31
0.0
  0
LINE
  5
8DC5
  8
1
 10
11448.187991309491
 20
2296.4930307105219
 30
0.0
 11
11448.187991309491
 21
2277.4930307105219
 31
0.0
  0
CIRCLE
  5
8DC6
  8
FUTO
 10
11427.187991309491
 20
2381.4930307105242
 30
0.0
 40
6.5
  0
LINE
  5
8DC7
  8
CT
 10
11438.910336078279
 20
2381.4930307105242
 30
0.0
 11
11415.46564654071
 21
2381.4930307105242
 31
0.0
  0
LINE
  5
8DC8
  8
CT
 10
11427.187991309491
 20
2369.7706859417408
 30
0.0
 11
11427.187991309491
 21
2393.2153754793062
 31
0.0
  0
LINE
  5
8DC9
  8
1
 10
11583.12219530949
 20
2052.693030710524
 30
0.0
 11
11574.12219530949
 21
2052.693030710524
 31
0.0
  0
LINE
  5
8DCA
  8
1
 10
11574.3729883095
 20
2052.693030710524
 30
0.0
 11
11583.00299330949
 21
2052.693030710524
 31
0.0
  0
LINE
  5
8DCB
  8
1
 10
11647.187991309491
 20
2052.693030710524
 30
0.0
 11
11573.6879913095
 21
2052.693030710524
 31
0.0
  0
LINE
  5
8DCC
  8
1
 10
11571.6879913095
 20
2030.193030710524
 30
0.0
 11
11647.187991309491
 21
2030.193030710524
 31
0.0
  0
ARC
  5
8DCD
  8
1
 10
11497.1879913095
 20
2092.4930307105242
 30
0.0
 40
3.0
 50
0.0
 51
90.0
  0
LINE
  5
8DCE
  8
1
 10
11500.1879913095
 20
2092.4930307105242
 30
0.0
 11
11500.1879913095
 21
2090.4930307105242
 31
0.0
  0
LINE
  5
8DCF
  8
1
 10
11500.1879913095
 20
2092.4930307105242
 30
0.0
 11
11500.1879913095
 21
2090.4930307105242
 31
0.0
  0
ARC
  5
8DD0
  8
1
 10
11503.1879913095
 20
2090.4930307105242
 30
0.0
 40
3.0
 50
180.0
 51
270.0
  0
LINE
  5
8DD1
  8
1
 10
11571.6879913095
 20
2030.193030710524
 30
0.0
 11
11571.6879913095
 21
2050.6930307105249
 31
0.0
  0
ARC
  5
8DD2
  8
1
 10
11573.6879913095
 20
2050.6930307105249
 30
0.0
 40
2.0
 50
90.0
 51
180.0
  0
ARC
  5
8DD3
  8
1
 10
11614.6879913095
 20
2061.6930307105249
 30
0.0
 40
1.0
 50
90.0
 51
180.0
  0
LINE
  5
8DD4
  8
1
 10
11613.6879913095
 20
2052.693030710524
 30
0.0
 11
11613.6879913095
 21
2061.6930307105249
 31
0.0
  0
LINE
  5
8DD5
  8
1
 10
11636.6879913095
 20
2067.6930307105249
 30
0.0
 11
11636.6879913095
 21
2062.6930307105249
 31
0.0
  0
LINE
  5
8DD6
  8
1
 10
11624.6879913095
 20
2072.6930307105231
 30
0.0
 11
11629.6879913095
 21
2067.6930307105231
 31
0.0
  0
LINE
  5
8DD7
  8
1
 10
11624.6879913095
 20
2087.4930307105219
 30
0.0
 11
11624.6879913095
 21
2072.6930307105231
 31
0.0
  0
ARC
  5
8DD8
  8
1
 10
11503.1879913095
 20
2282.4930307105219
 30
0.0
 40
3.0
 50
90.0
 51
180.0
  0
LINE
  5
8DD9
  8
1
 10
11500.1879913095
 20
2280.4930307105219
 30
0.0
 11
11500.1879913095
 21
2282.4930307105219
 31
0.0
  0
LINE
  5
8DDA
  8
1
 10
11500.1879913095
 20
2280.4930307105219
 30
0.0
 11
11500.1879913095
 21
2282.4930307105219
 31
0.0
  0
ARC
  5
8DDB
  8
1
 10
11497.1879913095
 20
2280.4930307105219
 30
0.0
 40
3.0
 50
270.0
 51
0.0
  0
LINE
  5
8DDC
  8
1
 10
11721.98797930949
 20
1908.6930307105249
 30
0.0
 11
11721.98797930949
 21
2030.193030710524
 31
0.0
  0
LINE
  5
8DDD
  8
1
 10
11807.1879913095
 20
1874.493030710524
 30
0.0
 11
11807.1879913095
 21
2096.4930307105228
 31
0.0
  0
LINE
  5
8DDE
  8
1
 10
11837.1879913095
 20
1874.493030710524
 30
0.0
 11
11837.1879913095
 21
2096.4930307105219
 31
0.0
  0
LINE
  5
8DDF
  8
1
 10
11837.1879913095
 20
1887.493030710528
 30
0.0
 11
11807.1879913095
 21
1887.493030710528
 31
0.0
  0
LINE
  5
8DE0
  8
1
 10
11807.1879913095
 20
1878.493030710531
 30
0.0
 11
11732.187991309491
 21
1878.493030710528
 31
0.0
  0
LINE
  5
8DE1
  8
1
 10
11732.187991309491
 20
1870.1930307105249
 30
0.0
 11
11732.187991309491
 21
1908.6930307105249
 31
0.0
  0
ARC
  5
8DE2
  8
1
 10
11729.0029943095
 20
1867.693091710523
 30
0.0
 40
0.999898
 50
89.996503000047156
 51
168.370086999991
  0
ARC
  5
8DE3
  8
1
 10
11730.6879913095
 20
1870.1930307105249
 30
0.0
 40
1.4999849999999999
 50
270.0
 51
0.0005800000062724
  0
LINE
  5
8DE4
  8
1
 10
11721.434512309501
 20
1835.8905407105251
 30
0.0
 11
11728.02362430949
 21
1867.8946917105241
 31
0.0
  0
CIRCLE
  5
8DE5
  8
FUTO
 10
11867.1879913095
 20
1857.493030710524
 30
0.0
 40
6.5
  0
LINE
  5
8DE6
  8
CT
 10
11878.91033607827
 20
1857.493030710524
 30
0.0
 11
11855.46564654071
 21
1857.493030710524
 31
0.0
  0
LINE
  5
8DE7
  8
CT
 10
11867.1879913095
 20
1869.2153754793071
 30
0.0
 11
11867.1879913095
 21
1845.7706859417419
 31
0.0
  0
LINE
  5
8DE8
  8
FUTO
 10
11897.1879913095
 20
1844.493030710524
 30
0.0
 11
11897.1879913095
 21
1874.493030710524
 31
0.0
  0
LINE
  5
8DE9
  8
1
 10
11807.1879913095
 20
2053.4930307105319
 30
0.0
 11
11680.687991309491
 21
2053.4930307105292
 31
0.0
  0
ARC
  5
8DEA
  8
1
 10
11679.687991309491
 20
2061.6930307105249
 30
0.0
 40
1.0
 50
0.0
 51
90.0
  0
LINE
  5
8DEB
  8
1
 10
11657.687991309491
 20
2067.6930307105249
 30
0.0
 11
11657.687991309491
 21
2062.6930307105249
 31
0.0
  0
LINE
  5
8DEC
  8
1
 10
11680.687991309491
 20
2061.6930307105249
 30
0.0
 11
11680.687991309491
 21
2052.693030710524
 31
0.0
  0
LINE
  5
8DED
  8
1
 10
11664.6879913095
 20
2067.6930307105231
 30
0.0
 11
11669.6879913095
 21
2072.6930307105231
 31
0.0
  0
LINE
  5
8DEE
  8
1
 10
11669.6879913095
 20
2075.493030710526
 30
0.0
 11
11669.6879913095
 21
2072.6930307105231
 31
0.0
  0
LINE
  5
8DEF
  8
1
 10
11669.6879913095
 20
2087.4930307105219
 30
0.0
 11
11669.6879913095
 21
2072.6930307105231
 31
0.0
  0
LINE
  5
8DF0
  8
1
 10
11720.002994309491
 20
2052.693030710524
 30
0.0
 11
11711.372989309501
 21
2052.693030710524
 31
0.0
  0
LINE
  5
8DF1
  8
1
 10
11711.25378730949
 20
2052.693030710524
 30
0.0
 11
11720.253787309501
 21
2052.693030710524
 31
0.0
  0
LINE
  5
8DF2
  8
1
 10
11722.687991309491
 20
2030.193030710524
 30
0.0
 11
11722.687991309491
 21
2050.6930307105249
 31
0.0
  0
ARC
  5
8DF3
  8
1
 10
11720.687991309491
 20
2050.6930307105249
 30
0.0
 40
2.0
 50
0.0
 51
90.0
  0
ARC
  5
8DF4
  8
1
 10
11791.187991309491
 20
2090.4930307105242
 30
0.0
 40
3.0
 50
270.0
 51
0.0
  0
LINE
  5
8DF5
  8
1
 10
11794.187991309491
 20
2092.4930307105242
 30
0.0
 11
11794.187991309491
 21
2090.4930307105242
 31
0.0
  0
LINE
  5
8DF6
  8
1
 10
11794.187991309491
 20
2092.4930307105242
 30
0.0
 11
11794.187991309491
 21
2090.4930307105242
 31
0.0
  0
ARC
  5
8DF7
  8
1
 10
11797.187991309491
 20
2092.4930307105242
 30
0.0
 40
3.0
 50
90.0
 51
180.0
  0
LINE
  5
8DF8
  8
1
 10
11807.1879913095
 20
2276.4930307105219
 30
0.0
 11
11807.1879913095
 21
2364.4930307105228
 31
0.0
  0
ARC
  5
8DF9
  8
1
 10
11797.187991309491
 20
2280.4930307105219
 30
0.0
 40
3.0
 50
180.0
 51
270.0
  0
LINE
  5
8DFA
  8
1
 10
11794.187991309491
 20
2280.4930307105219
 30
0.0
 11
11794.187991309491
 21
2282.4930307105219
 31
0.0
  0
LINE
  5
8DFB
  8
1
 10
11794.187991309491
 20
2280.4930307105219
 30
0.0
 11
11794.187991309491
 21
2282.4930307105219
 31
0.0
  0
ARC
  5
8DFC
  8
1
 10
11791.187991309491
 20
2282.4930307105219
 30
0.0
 40
3.0
 50
0.0
 51
90.0
  0
LINE
  5
8DFD
  8
FUTO
 10
11856.1879913095
 20
2107.4930307105228
 30
0.0
 11
11856.1879913095
 21
2265.4930307105228
 31
0.0
  0
LINE
  5
8DFE
  8
FUTO
 10
11857.1879913095
 20
2107.4930307105228
 30
0.0
 11
11857.1879913095
 21
2265.4930307105228
 31
0.0
  0
ARC
  5
8DFF
  8
FUTO
 10
11845.1879913095
 20
2107.4930307105228
 30
0.0
 40
11.0
 50
270.0
 51
0.0
  0
ARC
  5
8E00
  8
FUTO
 10
11845.1879913095
 20
2107.4930307105228
 30
0.0
 40
12.0
 50
270.0
 51
0.0
  0
LINE
  5
8E01
  8
1
 10
11837.1879913095
 20
2276.4930307105228
 30
0.0
 11
11837.1879913095
 21
2364.4930307105242
 31
0.0
  0
ARC
  5
8E02
  8
FUTO
 10
11845.1879913095
 20
2265.4930307105228
 30
0.0
 40
11.0
 50
0.0
 51
90.0
  0
ARC
  5
8E03
  8
FUTO
 10
11845.1879913095
 20
2265.4930307105228
 30
0.0
 40
12.0
 50
0.0
 51
90.0
  0
LINE
  5
8E04
  8
CT
 10
11878.91033607827
 20
2381.4930307105242
 30
0.0
 11
11855.46564654071
 21
2381.4930307105242
 31
0.0
  0
CIRCLE
  5
8E05
  8
FUTO
 10
11867.1879913095
 20
2381.4930307105242
 30
0.0
 40
6.5
  0
LINE
  5
8E06
  8
CT
 10
11867.1879913095
 20
2369.7706859417408
 30
0.0
 11
11867.1879913095
 21
2393.2153754793062
 31
0.0
  0
LINE
  5
8E07
  8
FUTO
 10
11897.1879913095
 20
2364.4930307105242
 30
0.0
 11
11897.1879913095
 21
2394.4930307105242
 31
0.0
  0
DIMENSION
  5
8E08
  8
SP
  2
*D50
 10
12154.794591731999
 20
1577.5011696624531
 30
0.0
 11
12330.694591732001
 21
1602.5011696624531
 31
0.0
 70
     0
  1
（400）
 13
12506.594591732
 23
1538.401439968246
 33
0.0
 14
12154.794591731999
 24
1315.1787839682461
 34
0.0
  0
DIMENSION
  5
8E09
  8
SP
  2
*D51
 10
12605.594591732
 20
1577.5011696624531
 30
0.0
 11
12556.094591732
 21
1602.5011696624531
 31
0.0
 70
     0
 13
12506.594591732
 23
1538.401439968246
 33
0.0
 14
12605.594591732
 24
1386.401439968246
 34
0.0
  0
DIMENSION
  5
8E0A
  8
SP
  2
*D52
 10
12596.594591732
 20
1498.401439968246
 30
0.0
 11
12506.594591732
 21
1523.401439968246
 31
0.0
 70
     0
 13
12416.594591732
 23
1407.4014399682451
 33
0.0
 14
12596.594591732
 24
1407.4014399682451
 34
0.0
  0
DIMENSION
  5
8E0B
  8
SP
  2
*D53
 10
12714.594591732
 20
805.4014399682452
 30
0.0
 11
12610.594591732
 21
830.4014399682452
 31
0.0
 70
     0
 13
12506.594591732
 23
947.11146061490945
 33
0.0
 14
12714.594591732
 24
905.40143996824565
 34
0.0
  0
DIMENSION
  5
8E0C
  8
SP
  2
*D54
 10
12714.594591732
 20
735.40143996824531
 30
0.0
 11
12439.594591732
 21
760.40143996824531
 31
0.0
 70
     0
 13
12164.594591732
 23
878.57012856248718
 33
0.0
 14
12714.594591732
 24
905.40143996824565
 34
0.0
  0
LINE
  5
8E0D
  8
FUTO
 10
12194.594591732
 20
875.40143996824247
 30
0.0
 11
12684.594591732
 21
875.40143996824565
 31
0.0
  0
LINE
  5
8E0E
  8
FUTO
 10
12194.594591732
 20
905.40143996824281
 30
0.0
 11
12684.594591732
 21
905.40143996824565
 31
0.0
  0
DIMENSION
  5
8E0F
  8
SP
  2
*D55
 10
12675.85145201064
 20
1117.401439968246
 30
0.0
 11
12650.85145201064
 21
1242.401439968248
 31
0.0
 70
     0
 13
12605.594591732
 23
1367.401439968246
 33
0.0
 14
12605.594591732
 24
1117.401439968246
 34
0.0
 50
90.0
1001
ACAD
1000
DSTYLE
1002
{
1070
     3
1000
φ<>
1002
}
  0
DIMENSION
  5
8E10
  8
SP
  2
*D56
 10
12164.594591732
 20
805.4014399682452
 30
0.0
 11
12335.594591732
 21
830.4014399682452
 31
0.0
 70
     0
 13
12506.594591732
 23
947.11146061490945
 33
0.0
 14
12164.594591732
 24
905.40143996824281
 34
0.0
  0
LINE
  5
8E11
  8
1
 10
12207.594591732
 20
987.401439968246
 30
0.0
 11
12407.594591732
 21
987.401439968246
 31
0.0
  0
LINE
  5
8E12
  8
1
 10
12207.594591732
 20
985.10143996824615
 30
0.0
 11
12407.594591732
 21
985.10143996824615
 31
0.0
  0
LINE
  5
8E13
  8
FUTO
 10
12207.594591732
 20
929.70143996824618
 30
0.0
 11
12407.594591732
 21
929.70143996824618
 31
0.0
  0
LINE
  5
8E14
  8
FUTO
 10
12207.594591732
 20
927.401439968246
 30
0.0
 11
12407.594591732
 21
927.401439968246
 31
0.0
  0
LINE
  5
8E15
  8
1
 10
12228.794591731999
 20
1317.201427968246
 30
0.0
 11
12350.294591731999
 21
1317.201427968246
 31
0.0
  0
ARC
  5
8E16
  8
1
 10
12310.747716731999
 20
1179.558788968247
 30
0.0
 40
6.0001939999999996
 50
18.32473400001258
 51
89.998833000023154
  0
LINE
  5
8E17
  8
1
 10
12207.594591732
 20
989.70143996824515
 30
0.0
 11
12378.994591732
 21
1287.201439968245
 31
0.0
  0
LINE
  5
8E18
  8
1
 10
12207.594591732
 20
989.70143996824515
 30
0.0
 11
12405.294591731999
 21
989.70143996824345
 31
0.0
  0
LINE
  5
8E19
  8
1
 10
12207.594591732
 20
987.401439968246
 30
0.0
 11
12437.594591732
 21
987.401439968246
 31
0.0
  0
LINE
  5
8E1A
  8
2
 10
12138.506147104101
 20
1242.401439968246
 30
0.0
 11
12628.03992027313
 21
1242.401439968246
 31
0.0
  0
LINE
  5
8E1B
  8
SL
 10
12177.594591732
 20
884.90603907954289
 30
0.0
 11
12177.594591732
 21
1258.300704604261
 31
0.0
  0
LINE
  5
8E1C
  8
1
 10
12198.594591732
 20
1110.4014399682469
 30
0.0
 11
12231.894591731991
 21
1038.4014399682439
 31
0.0
  0
LINE
  5
8E1D
  8
FUTO
 10
12207.594591732
 20
987.401439968246
 30
0.0
 11
12207.594591732
 21
927.401439968246
 31
0.0
  0
INSERT
  5
8E1E
  8
FUTO
  2
L-30-3
 10
12292.711562089449
 20
1020.650281717487
 30
0.0
 41
-1.0
 50
90.0
  0
LINE
  5
8E1F
  8
1
 10
12207.594591732
 20
989.70143996824515
 30
0.0
 11
12207.594591732
 21
987.401439968246
 31
0.0
  0
LINE
  5
8E20
  8
1
 10
12228.794591731999
 20
1201.6578864165419
 30
0.0
 11
12228.794591731999
 21
1327.401439968246
 31
0.0
  0
LINE
  5
8E21
  8
1
 10
12154.794591731999
 20
1315.1787839682461
 30
0.0
 11
12154.794591731999
 21
1169.7749149682461
 31
0.0
  0
LINE
  5
8E22
  8
1
 10
12188.794591731999
 20
1165.4014399682451
 30
0.0
 11
12188.794591731999
 21
1325.901439968246
 31
0.0
  0
LINE
  5
8E23
  8
2
 10
12287.794591731999
 20
1322.6853149682461
 30
0.0
 11
12287.794591731999
 21
1158.3853269682461
 31
0.0
  0
LINE
  5
8E24
  8
1
 10
12256.922643731999
 20
1174.7328609682461
 30
0.0
 11
12228.794591731999
 21
1174.7328609682461
 31
0.0
  0
LINE
  5
8E25
  8
1
 10
12198.594591732
 20
1162.4014399682469
 30
0.0
 11
12307.09301190007
 21
1162.401439968249
 31
0.0
  0
LINE
  5
8E26
  8
1
 10
12309.685616942081
 20
1166.901439968246
 30
0.0
 11
12222.794591731999
 21
1166.901439968246
 31
0.0
  0
LINE
  5
8E27
  8
1
 10
12308.24528080763
 20
1164.401439968246
 30
0.0
 11
12222.794591731999
 21
1164.401439968246
 31
0.0
  0
LINE
  5
8E28
  8
1
 10
12210.737463732001
 20
1192.3180049682451
 30
0.0
 11
12210.737463732001
 21
1164.397838968245
 31
0.0
  0
ARC
  5
8E29
  8
1
 10
12228.794591731999
 20
1168.7328609682461
 30
0.0
 40
6.0
 50
90.0
 51
180.0
  0
LINE
  5
8E2A
  8
1
 10
12210.737463732001
 20
1164.401439968246
 30
0.0
 11
12189.794591731999
 21
1164.401439968246
 31
0.0
  0
LINE
  5
8E2B
  8
1
 10
12188.794591731999
 20
1165.4014399682451
 30
0.0
 11
12156.162755732001
 21
1168.280712968246
 31
0.0
  0
ARC
  5
8E2C
  8
1
 10
12156.294591731999
 20
1169.7749149682461
 30
0.0
 40
1.4999849999999999
 50
180.0
 51
264.95834400001871
  0
ARC
  5
8E2D
  8
1
 10
12189.794591731999
 20
1165.4014399682451
 30
0.0
 40
1.000030999999999
 50
180.0
 51
269.99826000003299
  0
LINE
  5
8E2E
  8
1
 10
12198.594591732
 20
1162.401439968246
 30
0.0
 11
12198.594591732
 21
1110.401439968249
 31
0.0
  0
LINE
  5
8E2F
  8
1
 10
12210.737463732001
 20
1167.601452968245
 30
0.0
 11
12222.781591732
 21
1167.601452968245
 31
0.0
  0
LINE
  5
8E30
  8
1
 10
12222.471349732001
 20
1167.6013919682459
 30
0.0
 11
12222.781591732
 21
1167.6013919682459
 31
0.0
  0
LINE
  5
8E31
  8
1
 10
12227.794591731999
 20
1164.401439968246
 30
0.0
 11
12227.794591731999
 21
1162.401439968246
 31
0.0
  0
LINE
  5
8E32
  8
1
 10
12222.794591731999
 20
1164.401439968246
 30
0.0
 11
12222.794591731999
 21
1168.7328609682461
 31
0.0
  0
LINE
  5
8E33
  8
1
 10
12210.737463732001
 20
1192.3180049682451
 30
0.0
 11
12228.794623731999
 21
1201.657902968245
 31
0.0
  0
LINE
  5
8E34
  8
1
 10
12225.294591731999
 20
1199.8475449682469
 30
0.0
 11
12225.294591731999
 21
1173.6062579682459
 31
0.0
  0
LINE
  5
8E35
  8
1
 10
12259.145605731999
 20
1181.4452639682461
 30
0.0
 11
12255.464391732001
 21
1170.3295409682451
 31
0.0
  0
LINE
  5
8E36
  8
CT
 10
12237.794591731999
 20
1170.6133539682451
 30
0.0
 11
12237.794591731999
 21
1155.101439968244
 31
0.0
  0
LINE
  5
8E37
  8
1
 10
12287.794591731999
 20
1164.401439968246
 30
0.0
 11
12253.794591731999
 21
1164.401439968246
 31
0.0
  0
ARC
  5
8E38
  8
1
 10
12250.717870731991
 20
1171.901439968246
 30
0.0
 40
5.0
 50
270.0
 51
341.67651400002268
  0
LINE
  5
8E39
  8
1
 10
12257.794591731999
 20
1164.401439968246
 30
0.0
 11
12257.794591731999
 21
1162.401439968246
 31
0.0
  0
LINE
  5
8E3A
  8
1
 10
12287.794591731999
 20
1185.558910968246
 30
0.0
 11
12264.841405732001
 21
1185.558910968246
 31
0.0
  0
ARC
  5
8E3B
  8
1
 10
12264.841589731999
 20
1179.558788968247
 30
0.0
 40
6.0001220000000002
 50
90.001166999976832
 51
161.67526199998079
  0
LINE
  5
8E3C
  8
1
 10
12287.794591731999
 20
1185.558910968246
 30
0.0
 11
12310.747777732
 21
1185.558910968246
 31
0.0
  0
LINE
  5
8E3D
  8
1
 10
12190.294591731999
 20
1327.401439968246
 30
0.0
 11
12228.794591731999
 21
1327.401439968246
 31
0.0
  0
LINE
  5
8E3E
  8
1
 10
12155.992101731999
 20
1316.647960968246
 30
0.0
 11
12187.996252732
 21
1323.2370729682459
 31
0.0
  0
ARC
  5
8E3F
  8
1
 10
12156.294591731999
 20
1315.1787839682461
 30
0.0
 40
1.499994
 50
101.6341020000517
 51
180.0
  0
ARC
  5
8E40
  8
1
 10
12187.794652732
 20
1324.216442968245
 30
0.0
 40
0.999898
 50
281.62991300003551
 51
0.0034970000049811
  0
ARC
  5
8E41
  8
1
 10
12190.294591731999
 20
1325.901439968246
 30
0.0
 40
1.4999849999999999
 50
89.999420000045831
 51
180.0
  0
LINE
  5
8E42
  8
1
 10
12405.29459173199
 20
1392.4014399682439
 30
0.0
 11
12405.294591731999
 21
989.70143996824345
 31
0.0
  0
LINE
  5
8E43
  8
1
 10
12407.594591732
 20
1392.401439968246
 30
0.0
 11
12407.594591732
 21
987.401439968246
 31
0.0
  0
LINE
  5
8E44
  8
1
 10
12597.594591732
 20
991.40143996824906
 30
0.0
 11
12597.594591732
 21
1242.401439968246
 31
0.0
  0
LINE
  5
8E45
  8
1
 10
12596.594591732
 20
992.40143996824906
 30
0.0
 11
12596.594591732
 21
1242.401439968246
 31
0.0
  0
LINE
  5
8E46
  8
1
 10
12617.59459173199
 20
983.40143996824997
 30
0.0
 11
12617.594591732
 21
1251.4014399682451
 31
0.0
  0
LINE
  5
8E47
  8
2
 10
12506.594591732
 20
1481.663565768263
 30
0.0
 11
12506.594591732
 21
947.11146061490945
 31
0.0
  0
LINE
  5
8E48
  8
1
 10
12415.594591732
 20
991.40143996824816
 30
0.0
 11
12415.594591732
 21
1243.401439968246
 31
0.0
  0
LINE
  5
8E49
  8
1
 10
12416.594591732
 20
992.40143996824816
 30
0.0
 11
12416.594591732
 21
1242.401439968246
 31
0.0
  0
LINE
  5
8E4A
  8
1
 10
12415.594591732
 20
991.40143996824816
 30
0.0
 11
12597.594591732
 21
991.40143996824906
 31
0.0
  0
LINE
  5
8E4B
  8
1
 10
12416.594591732
 20
992.40143996824816
 30
0.0
 11
12596.594591732
 21
992.40143996824816
 31
0.0
  0
LINE
  5
8E4C
  8
1
 10
12407.594591732
 20
971.40143996824736
 30
0.0
 11
12605.59459173199
 21
971.40143996825009
 31
0.0
  0
LINE
  5
8E4D
  8
FUTO
 10
12407.594591732
 20
987.401439968246
 30
0.0
 11
12407.594591732
 21
927.401439968246
 31
0.0
  0
LINE
  5
8E4E
  8
1
 10
12407.594591732
 20
989.70143996824345
 30
0.0
 11
12437.594591732
 21
989.70143996824515
 31
0.0
  0
LINE
  5
8E4F
  8
1
 10
12437.594591732
 20
989.70143996824345
 30
0.0
 11
12437.594591732
 21
987.401439968246
 31
0.0
  0
ARC
  5
8E50
  8
1
 10
12605.594591732
 20
983.40143996824963
 30
0.0
 40
12.0
 50
270.0
 51
0.0
  0
LINE
  5
8E51
  8
1
 10
12427.594591732
 20
1419.401439968246
 30
0.0
 11
12585.594591732
 21
1419.401439968246
 31
0.0
  0
LINE
  5
8E52
  8
1
 10
12427.594591732
 20
1418.401439968246
 30
0.0
 11
12585.594591732
 21
1418.401439968246
 31
0.0
  0
LINE
  5
8E53
  8
1
 10
12372.794591731999
 20
1276.4400630720941
 30
0.0
 11
12372.794591731999
 21
1315.901439968246
 31
0.0
  0
LINE
  5
8E54
  8
1
 10
12378.994591732
 20
1287.201439968245
 30
0.0
 11
12405.29459173199
 21
1308.5014399682441
 31
0.0
  0
LINE
  5
8E55
  8
1
 10
12350.294591731999
 20
1317.901439968246
 30
0.0
 11
12350.294591731999
 21
1237.3866791747771
 31
0.0
  0
LINE
  5
8E56
  8
1
 10
12415.594591732
 20
1407.4014399682451
 30
0.0
 11
12415.594591732
 21
1242.401439968246
 31
0.0
  0
LINE
  5
8E57
  8
1
 10
12416.594591732
 20
1407.4014399682451
 30
0.0
 11
12416.594591732
 21
1242.401439968246
 31
0.0
  0
LINE
  5
8E58
  8
1
 10
12316.443578732
 20
1181.4452639682461
 30
0.0
 11
12317.03533894973
 21
1179.65839619506
 31
0.0
  0
ARC
  5
8E59
  8
1
 10
12412.594591732
 20
1092.401439968246
 30
0.0
 40
3.0
 50
0.0
 51
90.0
  0
LINE
  5
8E5A
  8
1
 10
12412.594591732
 20
1095.401439968246
 30
0.0
 11
12410.594591732
 21
1095.401439968246
 31
0.0
  0
ARC
  5
8E5B
  8
1
 10
12410.594591732
 20
1098.401439968246
 30
0.0
 40
3.0
 50
180.0
 51
270.0
  0
LINE
  5
8E5C
  8
1
 10
12350.294591731999
 20
1317.901439968246
 30
0.0
 11
12370.794591731999
 21
1317.901439968246
 31
0.0
  0
LINE
  5
8E5D
  8
1
 10
12372.794591731999
 20
1315.216442968245
 30
0.0
 11
12372.794591731999
 21
1306.5864379682459
 31
0.0
  0
LINE
  5
8E5E
  8
1
 10
12372.794591731999
 20
1306.4672359682461
 30
0.0
 11
12372.794591731999
 21
1315.4672359682461
 31
0.0
  0
ARC
  5
8E5F
  8
1
 10
12370.794591731999
 20
1315.901439968246
 30
0.0
 40
2.0
 50
0.0
 51
90.0
  0
ARC
  5
8E60
  8
1
 10
12427.594591732
 20
1407.4014399682451
 30
0.0
 40
11.0
 50
90.0
 51
180.0
  0
ARC
  5
8E61
  8
1
 10
12427.594591732
 20
1407.4014399682451
 30
0.0
 40
12.0
 50
90.0
 51
180.0
  0
LINE
  5
8E62
  8
1
 10
12412.594591732
 20
1389.401439968246
 30
0.0
 11
12410.594591732
 21
1389.401439968246
 31
0.0
  0
ARC
  5
8E63
  8
1
 10
12410.594591732
 20
1386.401439968246
 30
0.0
 40
3.0
 50
90.0
 51
180.0
  0
ARC
  5
8E64
  8
1
 10
12412.594591732
 20
1392.401439968246
 30
0.0
 40
3.0
 50
270.0
 51
0.0
  0
LINE
  5
8E65
  8
1
 10
12405.29459173199
 20
1392.401439968246
 30
0.0
 11
12407.594591732
 21
1392.401439968246
 31
0.0
  0
LINE
  5
8E66
  8
1
 10
12415.594591732
 20
1392.401439968246
 30
0.0
 11
12415.594591732
 21
1407.4014399682451
 31
0.0
  0
LINE
  5
8E67
  8
1
 10
12597.594591732
 20
1392.401439968246
 30
0.0
 11
12597.594591732
 21
1242.401439968246
 31
0.0
  0
LINE
  5
8E68
  8
1
 10
12605.594591732
 20
1386.401439968246
 30
0.0
 11
12605.594591732
 21
1098.401439968246
 31
0.0
  0
LINE
  5
8E69
  8
1
 10
12597.594591732
 20
1242.401439968246
 30
0.0
 11
12597.594591732
 21
1407.4014399682451
 31
0.0
  0
LINE
  5
8E6A
  8
1
 10
12596.594591732
 20
1242.401439968246
 30
0.0
 11
12596.594591732
 21
1407.4014399682451
 31
0.0
  0
LINE
  5
8E6B
  8
FUTO
 10
12596.59459173199
 20
1117.401439968246
 30
0.0
 11
12605.594591732
 21
1117.401439968246
 31
0.0
  0
LINE
  5
8E6C
  8
1
 10
12600.594591732
 20
1095.401439968246
 30
0.0
 11
12602.594591732
 21
1095.401439968246
 31
0.0
  0
ARC
  5
8E6D
  8
1
 10
12600.594591732
 20
1092.401439968246
 30
0.0
 40
3.0
 50
90.0
 51
180.0
  0
ARC
  5
8E6E
  8
1
 10
12602.594591732
 20
1098.401439968246
 30
0.0
 40
3.0
 50
270.0
 51
0.0
  0
ARC
  5
8E6F
  8
1
 10
12605.594591732
 20
1251.4014399682451
 30
0.0
 40
11.99999999999954
 50
0.0
 51
90.0
  0
ARC
  5
8E70
  8
1
 10
12585.594591732
 20
1407.4014399682451
 30
0.0
 40
12.0
 50
0.0
 51
90.0
  0
ARC
  5
8E71
  8
1
 10
12585.594591732
 20
1407.4014399682451
 30
0.0
 40
11.0
 50
0.0
 51
90.0
  0
LINE
  5
8E72
  8
1
 10
12600.594591732
 20
1389.401439968246
 30
0.0
 11
12602.594591732
 21
1389.401439968246
 31
0.0
  0
LINE
  5
8E73
  8
FUTO
 10
12596.594591732
 20
1367.401439968246
 30
0.0
 11
12605.594591732
 21
1367.401439968246
 31
0.0
  0
ARC
  5
8E74
  8
1
 10
12600.594591732
 20
1392.401439968246
 30
0.0
 40
3.0
 50
180.0
 51
270.0
  0
LINE
  5
8E75
  8
1
 10
12597.594591732
 20
1392.401439968246
 30
0.0
 11
12597.594591732
 21
1407.4014399682451
 31
0.0
  0
ARC
  5
8E76
  8
1
 10
12602.594591732
 20
1386.401439968246
 30
0.0
 40
3.0
 50
0.0
 51
90.0
  0
LINE
  5
8E77
  8
SL
 10
12701.594591732
 20
885.90603907954312
 30
0.0
 11
12701.594591732
 21
1259.300704604261
 31
0.0
  0
INSERT
  5
8E78
  8
FUTO
  2
L-30-3
 10
12586.477621374541
 20
1020.65028171749
 30
0.0
 50
270.0
  0
ENDSEC
  0
EOF
