  0
SECTION
  2
HEADER
  9
$ACADVER
  1
AC1009
  9
$INSBASE
 10
0.0
 20
0.0
 30
0.0
  9
$EXTMIN
 10
-2610.8732092616001
 20
96.092404061039474
 30
0.0
  9
$EXTMAX
 10
-510.87320926160049
 20
3046.0924040610389
 30
0.0
  9
$LIMMIN
 10
0.0
 20
0.0
  9
$LIMMAX
 10
297.0
 20
210.0
  9
$ORTHOMODE
 70
     0
  9
$REGENMODE
 70
     1
  9
$FILLMODE
 70
     1
  9
$QTEXTMODE
 70
     0
  9
$MIRRTEXT
 70
     0
  9
$DRAGMODE
 70
     2
  9
$LTSCALE
 40
50.0
  9
$OSMODE
 70
   545
  9
$ATTMODE
 70
     1
  9
$TEXTSIZE
 40
3.5
  9
$TRACEWID
 40
0.05
  9
$TEXTSTYLE
  7
STANDARD
  9
$CLAYER
  8
SP
  9
$CELTYPE
  6
BYLAYER
  9
$CECOLOR
 62
   256
  9
$DIMSCALE
 40
10.0
  9
$DIMASZ
 40
2.5
  9
$DIMEXO
 40
1.0
  9
$DIMDLI
 40
7.0
  9
$DIMRND
 40
0.0
  9
$DIMDLE
 40
0.0
  9
$DIMEXE
 40
1.0
  9
$DIMTP
 40
0.0
  9
$DIMTM
 40
0.0
  9
$DIMTXT
 40
3.0
  9
$DIMCEN
 40
0.0
  9
$DIMTSZ
 40
0.0
  9
$DIMTOL
 70
     0
  9
$DIMLIM
 70
     0
  9
$DIMTIH
 70
     0
  9
$DIMTOH
 70
     0
  9
$DIMSE1
 70
     0
  9
$DIMSE2
 70
     0
  9
$DIMTAD
 70
     1
  9
$DIMZIN
 70
     8
  9
$DIMBLK
  1

  9
$DIMASO
 70
     1
  9
$DIMSHO
 70
     1
  9
$DIMPOST
  1

  9
$DIMAPOST
  1

  9
$DIMALT
 70
     0
  9
$DIMALTD
 70
     2
  9
$DIMALTF
 40
0.03937
  9
$DIMLFAC
 40
1.0
  9
$DIMTOFL
 70
     1
  9
$DIMTVP
 40
0.0
  9
$DIMTIX
 70
     0
  9
$DIMSOXD
 70
     0
  9
$DIMSAH
 70
     1
  9
$DIMBLK1
  1
OPEN
  9
$DIMBLK2
  1
OPEN
  9
$DIMSTYLE
  2
GOD
  9
$DIMCLRD
 70
   256
  9
$DIMCLRE
 70
   256
  9
$DIMCLRT
 70
   256
  9
$DIMTFAC
 40
1.0
  9
$DIMGAP
 40
1.0
  9
$LUNITS
 70
     2
  9
$LUPREC
 70
     3
  9
$SKETCHINC
 40
0.1
  9
$FILLETRAD
 40
0.0
  9
$AUNITS
 70
     0
  9
$AUPREC
 70
     2
  9
$MENU
  1
acad
  9
$ELEVATION
 40
0.0
  9
$PELEVATION
 40
0.0
  9
$THICKNESS
 40
0.0
  9
$LIMCHECK
 70
     0
  9
$BLIPMODE
 70
     0
  9
$CHAMFERA
 40
0.0
  9
$CHAMFERB
 40
0.0
  9
$SKPOLY
 70
     0
  9
$TDCREATE
 40
2454940.4140922911
  9
$TDUPDATE
 40
2454953.8282032982
  9
$TDINDWG
 40
0.0986962153
  9
$TDUSRTIMER
 40
0.0986962153
  9
$USRTIMER
 70
     1
  9
$ANGBASE
 50
0.0
  9
$ANGDIR
 70
     0
  9
$PDMODE
 70
     0
  9
$PDSIZE
 40
1.0
  9
$PLINEWID
 40
0.0
  9
$COORDS
 70
     2
  9
$SPLFRAME
 70
     0
  9
$SPLINETYPE
 70
     6
  9
$SPLINESEGS
 70
     8
  9
$ATTDIA
 70
     0
  9
$ATTREQ
 70
     1
  9
$HANDLING
 70
 22529
  9
$HANDSEED
  5
8A51
  9
$SURFTAB1
 70
     6
  9
$SURFTAB2
 70
     6
  9
$SURFTYPE
 70
     6
  9
$SURFU
 70
     6
  9
$SURFV
 70
     6
  9
$UCSNAME
  2

  9
$UCSORG
 10
0.0
 20
0.0
 30
0.0
  9
$UCSXDIR
 10
1.0
 20
0.0
 30
0.0
  9
$UCSYDIR
 10
0.0
 20
1.0
 30
0.0
  9
$PUCSNAME
  2

  9
$PUCSORG
 10
0.0
 20
0.0
 30
0.0
  9
$PUCSXDIR
 10
1.0
 20
0.0
 30
0.0
  9
$PUCSYDIR
 10
0.0
 20
1.0
 30
0.0
  9
$USERI1
 70
     0
  9
$USERI2
 70
     0
  9
$USERI3
 70
     0
  9
$USERI4
 70
     0
  9
$USERI5
 70
     0
  9
$USERR1
 40
0.0
  9
$USERR2
 40
0.0
  9
$USERR3
 40
0.0
  9
$USERR4
 40
0.0
  9
$USERR5
 40
0.0
  9
$WORLDVIEW
 70
     1
  9
$SHADEDGE
 70
     3
  9
$SHADEDIF
 70
    70
  9
$TILEMODE
 70
     1
  9
$MAXACTVP
 70
    16
  9
$PLIMCHECK
 70
     0
  9
$PEXTMIN
 10
1.0000000000000000E+020
 20
1.0000000000000000E+020
 30
1.0000000000000000E+020
  9
$PEXTMAX
 10
-1.0000000000000000E+020
 20
-1.0000000000000000E+020
 30
-1.0000000000000000E+020
  9
$PLIMMIN
 10
0.0
 20
0.0
  9
$PLIMMAX
 10
12.0
 20
9.0
  9
$UNITMODE
 70
     0
  9
$VISRETAIN
 70
     0
  9
$PLINEGEN
 70
     0
  9
$PSLTSCALE
 70
     0
  0
ENDSEC
  0
SECTION
  2
TABLES
  0
TABLE
  2
VPORT
 70
     2
  0
VPORT
  2
*ACTIVE
 70
     0
 10
0.0
 20
0.0
 11
1.0
 21
1.0
 12
-1374.0949663025351
 22
1571.0844409737331
 13
0.0
 23
0.0
 14
5.0
 24
5.0
 15
0.0
 25
0.0
 16
0.0
 26
0.0
 36
1.0
 17
0.0
 27
0.0
 37
0.0
 40
2973.2839924227042
 41
1.6307901907356941
 42
50.0
 43
0.0
 44
0.0
 50
0.0
 51
0.0
 71
     0
 72
   100
 73
     1
 74
     0
 75
     0
 76
     0
 77
     0
 78
     0
  0
ENDTAB
  0
TABLE
  2
LTYPE
 70
     4
  0
LTYPE
  2
CONTINUOUS
 70
     0
  3
Solid line
 72
    65
 73
     0
 40
0.0
  0
LTYPE
  2
CENTER
 70
     0
  3
____ _ ____ _ ____ _ ____ _ ____ _ ____ _ ____ 
 72
    65
 73
     4
 40
2.0
 49
1.25
 49
-0.25
 49
0.25
 49
-0.25
  0
LTYPE
  2
HIDDEN
 70
     0
  3
__ __ __ __ __ __ __ __ __ __ __ __ __ __ __ __
 72
    65
 73
     2
 40
0.375
 49
0.25
 49
-0.125
  0
LTYPE
  2
PHANTOM
 70
     0
  3
______  __  __  ______  __  __  ______  __  __ 
 72
    65
 73
     6
 40
2.5
 49
1.25
 49
-0.25
 49
0.25
 49
-0.25
 49
0.25
 49
-0.25
  0
ENDTAB
  0
TABLE
  2
LAYER
 70
    13
  0
LAYER
  2
0
 70
     0
 62
     7
  6
CONTINUOUS
  0
LAYER
  2
CT
 70
     0
 62
     3
  6
CENTER
  0
LAYER
  2
FUTO
 70
     0
 62
     4
  6
CONTINUOUS
  0
LAYER
  2
HOSO
 70
     0
 62
     7
  6
CONTINUOUS
  0
LAYER
  2
KL
 70
     0
 62
     7
  6
HIDDEN
  0
LAYER
  2
MOJI
 70
     0
 62
     3
  6
CONTINUOUS
  0
LAYER
  2
SL
 70
     0
 62
     1
  6
PHANTOM
  0
LAYER
  2
SP
 70
     0
 62
     2
  6
CONTINUOUS
  0
LAYER
  2
DEFPOINTS
 70
     0
 62
     7
  6
CONTINUOUS
  0
LAYER
  2
3
 70
     0
 62
     2
  6
CONTINUOUS
  0
LAYER
  2
2
 70
     0
 62
     3
  6
CENTER
  0
LAYER
  2
1
 70
     0
 62
     4
  6
CONTINUOUS
  0
LAYER
  2
4
 70
     0
 62
     7
  6
CONTINUOUS
  0
ENDTAB
  0
TABLE
  2
STYLE
 70
     2
  0
STYLE
  2
STANDARD
 70
     0
 40
0.0
 41
1.0
 50
15.0
 71
     0
 42
3.5
  3
C:\Program Files\AutoCAD LT\simplex.shx
  4
C:\Program Files\AutoCAD LT\extfont.shx
  0
STYLE
  2
SUNPOU
 70
     0
 40
0.0
 41
1.0
 50
15.0
 71
     0
 42
30.0
  3
simplex.shx
  4
extfont.shx
  0
ENDTAB
  0
TABLE
  2
VIEW
 70
     0
  0
ENDTAB
  0
TABLE
  2
UCS
 70
     0
  0
ENDTAB
  0
TABLE
  2
APPID
 70
     1
  0
APPID
  2
ACAD
 70
     0
  0
ENDTAB
  0
TABLE
  2
DIMSTYLE
 70
     4
  0
DIMSTYLE
  2
STANDARD
 70
     0
  3

  4

  5

  6

  7

 40
1.0
 41
0.18
 42
0.0625
 43
0.38
 44
0.18
 45
0.0
 46
0.0
 47
0.0
 48
0.0
140
0.18
141
0.09
142
0.0
143
25.399999999999999
144
1.0
145
0.0
146
1.0
147
0.09
 71
     0
 72
     0
 73
     1
 74
     1
 75
     0
 76
     0
 77
     0
 78
     0
170
     0
171
     2
172
     0
173
     0
174
     0
175
     0
176
     0
177
     0
178
     0
  0
DIMSTYLE
  2
GOD
 70
     0
  3

  4

  5

  6
OPEN
  7
OPEN
 40
10.0
 41
2.5
 42
1.0
 43
7.0
 44
1.0
 45
0.0
 46
0.0
 47
0.0
 48
0.0
140
3.0
141
0.0
142
0.0
143
0.03937
144
1.0
145
0.0
146
1.0
147
1.0
 71
     0
 72
     0
 73
     0
 74
     0
 75
     0
 76
     0
 77
     1
 78
     8
170
     0
171
     2
172
     1
173
     1
174
     0
175
     0
176
   256
177
   256
178
   256
  0
DIMSTYLE
  2
IGA
 70
     0
  3

  4

  5

  6
OPEN
  7
OPEN
 40
2.0
 41
2.0
 42
0.5
 43
10.0
 44
1.0
 45
0.0
 46
0.0
 47
1.0
 48
1.0
140
3.0
141
0.0
142
0.0
143
0.03937
144
1.0
145
0.0
146
10.0
147
1.0
 71
     0
 72
     0
 73
     0
 74
     0
 75
     0
 76
     0
 77
     1
 78
     8
170
     0
171
     2
172
     0
173
     1
174
     0
175
     0
176
     0
177
     0
178
     0
  0
DIMSTYLE
  2
MATSU
 70
     0
  3

  4

  5

  6
OPEN
  7
OPEN
 40
1.0
 41
2.0
 42
1.0
 43
10.0
 44
1.0
 45
0.0
 46
0.0
 47
0.0
 48
0.0
140
3.0
141
0.0
142
0.0
143
0.03937
144
1.0
145
0.0
146
1.0
147
0.5
 71
     0
 72
     0
 73
     0
 74
     0
 75
     0
 76
     0
 77
     1
 78
     8
170
     0
171
     2
172
     1
173
     1
174
     0
175
     0
176
   256
177
   256
178
   256
  0
ENDTAB
  0
ENDSEC
  0
SECTION
  2
BLOCKS
  0
BLOCK
  8
0
  2
$MODEL_SPACE
 70
     0
 10
0.0
 20
0.0
 30
0.0
  3
$MODEL_SPACE
  1

  0
ENDBLK
  5
1B
  8
0
  0
BLOCK
 67
     1
  8
0
  2
$PAPER_SPACE
 70
     0
 10
0.0
 20
0.0
 30
0.0
  3
$PAPER_SPACE
  1

  0
ENDBLK
  5
18
 67
     1
  8
0
  0
BLOCK
  8
0
  2
_OPEN
 70
     0
 10
0.0
 20
0.0
 30
0.0
  3
_OPEN
  1

  0
LINE
  5
1E81
  8
0
  6
BYBLOCK
 62
     0
 10
-1.0
 20
0.1666666666666666
 30
0.0
 11
0.0
 21
0.0
 31
0.0
  0
LINE
  5
1E82
  8
0
  6
BYBLOCK
 62
     0
 10
0.0
 20
0.0
 30
0.0
 11
-1.0
 21
-0.1666666666666666
 31
0.0
  0
LINE
  5
1E83
  8
0
  6
BYBLOCK
 62
     0
 10
0.0
 20
0.0
 30
0.0
 11
-1.0
 21
0.0
 31
0.0
  0
ENDBLK
  5
1E84
  8
0
  0
BLOCK
  8
0
  2
_DOT
 70
     0
 10
0.0
 20
0.0
 30
0.0
  3
_DOT
  1

  0
LINE
  5
1EC3
  8
0
  6
BYBLOCK
 62
     0
 10
0.0
 20
0.0
 30
0.0
 11
-1.0
 21
-0.0000000000000284
 31
0.0
  0
POLYLINE
  5
1EC4
  8
0
  6
BYBLOCK
 62
     0
 66
     1
 10
0.0
 20
0.0
 30
0.0
 70
     1
 40
0.1666666666666666
 41
0.1666666666666666
  0
VERTEX
  5
8A3A
  8
0
  6
BYBLOCK
 62
     0
 10
-0.0833333333333286
 20
-0.0000000000000284
 30
0.0
 42
1.0
  0
VERTEX
  5
8A3B
  8
0
  6
BYBLOCK
 62
     0
 10
0.0833333333333286
 20
-0.0000000000000284
 30
0.0
 42
1.0
  0
SEQEND
  5
8A3C
  8
0
  6
BYBLOCK
 62
     0
  0
ENDBLK
  5
1EB8
  8
0
  0
BLOCK
  8
0
  2
*D2
 70
     1
 10
0.0
 20
0.0
 30
0.0
  3
*D2
  1

  0
LINE
  5
8268
  8
SP
 10
-1129.9142715201331
 20
1298.0301377461669
 30
0.0
 11
-1129.9142715201331
 21
1368.0301377461651
 31
0.0
  0
LINE
  5
8269
  8
SP
 10
-949.91427152013557
 20
1298.0301377461669
 30
0.0
 11
-949.91427152013557
 21
1368.0301377461651
 31
0.0
  0
LINE
  5
826A
  8
SP
 10
-1104.9142715201331
 20
1358.0301377461651
 30
0.0
 11
-974.91427152013557
 21
1358.0301377461651
 31
0.0
  0
INSERT
  5
826B
  8
SP
  2
_OPEN
 10
-1129.9142715201331
 20
1358.0301377461651
 30
0.0
 41
25.0
 42
25.0
 43
25.0
 50
180.0
  0
INSERT
  5
826C
  8
SP
  2
_OPEN
 10
-949.91427152013557
 20
1358.0301377461651
 30
0.0
 41
25.0
 42
25.0
 43
25.0
  0
TEXT
  5
826D
  8
SP
 10
-1081.421609050604
 20
1368.0301377461651
 30
0.0
 40
30.0
  1
180
 51
15.0
  0
POINT
  5
826E
  8
DEFPOINTS
 62
     0
 10
-1129.9142715201331
 20
1288.0301377461669
 30
0.0
  0
POINT
  5
826F
  8
DEFPOINTS
 62
     0
 10
-949.91427152013557
 20
1288.0301377461669
 30
0.0
  0
POINT
  5
8270
  8
DEFPOINTS
 62
     0
 10
-949.91427152013557
 20
1358.0301377461651
 30
0.0
  0
ENDBLK
  5
4FC7
  8
0
  0
BLOCK
  8
0
  2
*D3
 70
     1
 10
0.0
 20
0.0
 30
0.0
  3
*D3
  1

  0
LINE
  5
82B9
  8
SP
 10
-930.91427152013387
 20
1213.0301377461669
 30
0.0
 11
-859.91427152013364
 21
1213.0301377461669
 31
0.0
  0
LINE
  5
82BA
  8
SP
 10
-930.91427152013387
 20
963.03013774616704
 30
0.0
 11
-859.91427152013364
 21
963.03013774616704
 31
0.0
  0
LINE
  5
82BB
  8
SP
 10
-869.91427152013375
 20
1188.0301377461669
 30
0.0
 11
-869.91427152013375
 21
988.03013774616704
 31
0.0
  0
INSERT
  5
82BC
  8
SP
  2
_OPEN
 10
-869.91427152013375
 20
1213.0301377461669
 30
0.0
 41
25.0
 42
25.0
 43
25.0
 50
90.0
  0
INSERT
  5
82BD
  8
SP
  2
_OPEN
 10
-869.91427152013375
 20
963.03013774616704
 30
0.0
 41
25.0
 42
25.0
 43
25.0
 50
270.0
  0
TEXT
  5
82BE
  8
SP
 10
-879.91427152013387
 20
1033.2590720859439
 30
0.0
 40
30.0
  1
φ250
 50
90.0
 51
15.0
  0
POINT
  5
82BF
  8
DEFPOINTS
 62
     0
 10
-940.91427152013387
 20
1213.0301377461669
 30
0.0
  0
POINT
  5
82C0
  8
DEFPOINTS
 62
     0
 10
-940.91427152013387
 20
963.03013774616704
 30
0.0
  0
POINT
  5
82C1
  8
DEFPOINTS
 62
     0
 10
-869.91427152013375
 20
963.03013774616704
 30
0.0
  0
ENDBLK
  5
4FF5
  8
0
  0
BLOCK
  8
0
  2
*D4
 70
     1
 10
0.0
 20
0.0
 30
0.0
  3
*D4
  1

  0
LINE
  5
8271
  8
SP
 10
-1039.9142715201349
 20
1408.0301377461651
 30
0.0
 11
-1039.9142715201349
 21
1438.0301377461651
 31
0.0
  0
LINE
  5
8272
  8
SP
 10
-940.91427152013546
 20
1242.0301377461669
 30
0.0
 11
-940.91427152013546
 21
1438.0301377461651
 31
0.0
  0
LINE
  5
8273
  8
SP
 10
-1014.914271520135
 20
1428.0301377461651
 30
0.0
 11
-965.91427152013546
 21
1428.0301377461651
 31
0.0
  0
INSERT
  5
8274
  8
SP
  2
_OPEN
 10
-1039.9142715201349
 20
1428.0301377461651
 30
0.0
 41
25.0
 42
25.0
 43
25.0
 50
180.0
  0
INSERT
  5
8275
  8
SP
  2
_OPEN
 10
-940.91427152013546
 20
1428.0301377461651
 30
0.0
 41
25.0
 42
25.0
 43
25.0
  0
TEXT
  5
8276
  8
SP
 10
-1018.004937978031
 20
1438.0301377461651
 30
0.0
 40
30.0
  1
99
 51
15.0
  0
POINT
  5
8277
  8
DEFPOINTS
 62
     0
 10
-1039.9142715201349
 20
1398.0301377461651
 30
0.0
  0
POINT
  5
8278
  8
DEFPOINTS
 62
     0
 10
-940.91427152013546
 20
1232.0301377461669
 30
0.0
  0
POINT
  5
8279
  8
DEFPOINTS
 62
     0
 10
-940.91427152013546
 20
1428.0301377461651
 30
0.0
  0
ENDBLK
  5
500B
  8
0
  0
BLOCK
  8
0
  2
*D5
 70
     1
 10
0.0
 20
0.0
 30
0.0
  3
*D5
  1

  0
LINE
  5
827A
  8
SP
 10
-1039.9142715201349
 20
1408.0301377461651
 30
0.0
 11
-1039.9142715201349
 21
1438.0301377461651
 31
0.0
  0
LINE
  5
827B
  8
SP
 10
-1391.7142715201339
 20
1170.807481746167
 30
0.0
 11
-1391.7142715201339
 21
1438.0301377461651
 31
0.0
  0
LINE
  5
827C
  8
SP
 10
-1064.9142715201349
 20
1428.0301377461651
 30
0.0
 11
-1366.7142715201351
 21
1428.0301377461651
 31
0.0
  0
INSERT
  5
827D
  8
SP
  2
_OPEN
 10
-1039.9142715201349
 20
1428.0301377461651
 30
0.0
 41
25.0
 42
25.0
 43
25.0
  0
INSERT
  5
827E
  8
SP
  2
_OPEN
 10
-1391.7142715201339
 20
1428.0301377461651
 30
0.0
 41
25.0
 42
25.0
 43
25.0
 50
180.0
  0
TEXT
  5
827F
  8
SP
 10
-1282.7239732605351
 20
1438.0301377461651
 30
0.0
 40
30.0
  1
（400）
 51
15.0
  0
POINT
  5
8280
  8
DEFPOINTS
 62
     0
 10
-1039.9142715201349
 20
1398.0301377461651
 30
0.0
  0
POINT
  5
8281
  8
DEFPOINTS
 62
     0
 10
-1391.7142715201339
 20
1160.807481746167
 30
0.0
  0
POINT
  5
8282
  8
DEFPOINTS
 62
     0
 10
-1391.7142715201339
 20
1428.0301377461651
 30
0.0
  0
ENDBLK
  5
5021
  8
0
  0
BLOCK
  8
0
  2
*D6
 70
     1
 10
0.0
 20
0.0
 30
0.0
  3
*D6
  1

  0
LINE
  5
8283
  8
SP
 10
-2139.9142715201351
 20
1298.0301377461669
 30
0.0
 11
-2139.9142715201351
 21
1368.030137746166
 31
0.0
  0
LINE
  5
8284
  8
SP
 10
-1889.9142715201349
 20
1307.8065568904931
 30
0.0
 11
-1889.9142715201349
 21
1368.030137746166
 31
0.0
  0
LINE
  5
8285
  8
SP
 10
-2114.9142715201351
 20
1358.030137746166
 30
0.0
 11
-1914.9142715201349
 21
1358.030137746166
 31
0.0
  0
INSERT
  5
8286
  8
SP
  2
_OPEN
 10
-2139.9142715201351
 20
1358.030137746166
 30
0.0
 41
25.0
 42
25.0
 43
25.0
 50
180.0
  0
INSERT
  5
8287
  8
SP
  2
_OPEN
 10
-1889.9142715201349
 20
1358.030137746166
 30
0.0
 41
25.0
 42
25.0
 43
25.0
  0
TEXT
  5
8288
  8
SP
 10
-2056.0250831425128
 20
1368.030137746166
 30
0.0
 40
30.0
  1
250
 51
15.0
  0
POINT
  5
8289
  8
DEFPOINTS
 62
     0
 10
-2139.9142715201351
 20
1288.0301377461669
 30
0.0
  0
POINT
  5
828A
  8
DEFPOINTS
 62
     0
 10
-1889.9142715201349
 20
1297.8065568904931
 30
0.0
  0
POINT
  5
828B
  8
DEFPOINTS
 62
     0
 10
-1889.9142715201349
 20
1358.030137746166
 30
0.0
  0
ENDBLK
  5
52A6
  8
0
  0
BLOCK
  8
0
  2
*D7
 70
     1
 10
0.0
 20
0.0
 30
0.0
  3
*D7
  1

  0
LINE
  5
828C
  8
SP
 10
-1889.9142715201349
 20
1307.8065568904931
 30
0.0
 11
-1889.9142715201349
 21
1368.030137746166
 31
0.0
  0
LINE
  5
828D
  8
SP
 10
-1713.9142715201349
 20
1081.0301377461669
 30
0.0
 11
-1713.9142715201349
 21
1368.030137746166
 31
0.0
  0
LINE
  5
828E
  8
SP
 10
-1864.9142715201349
 20
1358.030137746166
 30
0.0
 11
-1738.9142715201349
 21
1358.030137746166
 31
0.0
  0
INSERT
  5
828F
  8
SP
  2
_OPEN
 10
-1889.9142715201349
 20
1358.030137746166
 30
0.0
 41
25.0
 42
25.0
 43
25.0
 50
180.0
  0
INSERT
  5
8290
  8
SP
  2
_OPEN
 10
-1713.9142715201349
 20
1358.030137746166
 30
0.0
 41
25.0
 42
25.0
 43
25.0
  0
TEXT
  5
8291
  8
SP
 10
-1842.8987156166279
 20
1368.030137746166
 30
0.0
 40
30.0
  1
176
 51
15.0
  0
POINT
  5
8292
  8
DEFPOINTS
 62
     0
 10
-1889.9142715201349
 20
1297.8065568904931
 30
0.0
  0
POINT
  5
8293
  8
DEFPOINTS
 62
     0
 10
-1713.9142715201349
 20
1071.0301377461669
 30
0.0
  0
POINT
  5
8294
  8
DEFPOINTS
 62
     0
 10
-1713.9142715201349
 20
1358.030137746166
 30
0.0
  0
ENDBLK
  5
5391
  8
0
  0
BLOCK
  8
0
  2
*D8
 70
     1
 10
0.0
 20
0.0
 30
0.0
  3
*D8
  1

  0
LINE
  5
82B0
  8
SP
 10
-2184.1007564974338
 20
1088.0301377461669
 30
0.0
 11
-2249.3805561714089
 21
1088.0301377461669
 31
0.0
  0
LINE
  5
82B1
  8
SP
 10
-2170.9142715201351
 20
1288.0301377461681
 30
0.0
 11
-2249.3805561714089
 21
1288.0301377461681
 31
0.0
  0
LINE
  5
82B2
  8
SP
 10
-2239.3805561714089
 20
1113.0301377461669
 30
0.0
 11
-2239.3805561714089
 21
1263.0301377461669
 31
0.0
  0
INSERT
  5
82B3
  8
SP
  2
_OPEN
 10
-2239.3805561714089
 20
1088.0301377461669
 30
0.0
 41
25.0
 42
25.0
 43
25.0
 50
270.0
  0
INSERT
  5
82B4
  8
SP
  2
_OPEN
 10
-2239.3805561714089
 20
1288.0301377461681
 30
0.0
 41
25.0
 42
25.0
 43
25.0
 50
90.0
  0
TEXT
  5
82B5
  8
SP
 10
-2249.3805561714089
 20
1146.919326123789
 30
0.0
 40
30.0
  1
200
 50
90.0
 51
15.0
  0
POINT
  5
82B6
  8
DEFPOINTS
 62
     0
 10
-2174.1007564974352
 20
1088.0301377461669
 30
0.0
  0
POINT
  5
82B7
  8
DEFPOINTS
 62
     0
 10
-2160.9142715201351
 20
1288.0301377461681
 30
0.0
  0
POINT
  5
82B8
  8
DEFPOINTS
 62
     0
 10
-2239.3805561714089
 20
1288.0301377461681
 30
0.0
  0
ENDBLK
  5
53B9
  8
0
  0
BLOCK
  8
0
  2
*D9
 70
     1
 10
0.0
 20
0.0
 30
0.0
  3
*D9
  1

  0
LINE
  5
8295
  8
SP
 10
-2184.1007564974338
 20
1088.0301377461669
 30
0.0
 11
-2249.3805561714089
 21
1088.0301377461669
 31
0.0
  0
LINE
  5
8296
  8
SP
 10
-2089.914271520136
 20
833.03013774616625
 30
0.0
 11
-2249.3805561714089
 21
833.03013774616625
 31
0.0
  0
LINE
  5
8297
  8
SP
 10
-2239.3805561714089
 20
1063.0301377461669
 30
0.0
 11
-2239.3805561714089
 21
858.03013774616625
 31
0.0
  0
INSERT
  5
8298
  8
SP
  2
_OPEN
 10
-2239.3805561714089
 20
1088.0301377461669
 30
0.0
 41
25.0
 42
25.0
 43
25.0
 50
90.0
  0
INSERT
  5
8299
  8
SP
  2
_OPEN
 10
-2239.3805561714089
 20
833.03013774616625
 30
0.0
 41
25.0
 42
25.0
 43
25.0
 50
270.0
  0
TEXT
  5
829A
  8
SP
 10
-2249.3805561714089
 20
919.36804271684275
 30
0.0
 40
30.0
  1
255
 50
90.0
 51
15.0
  0
POINT
  5
829B
  8
DEFPOINTS
 62
     0
 10
-2174.1007564974352
 20
1088.0301377461669
 30
0.0
  0
POINT
  5
829C
  8
DEFPOINTS
 62
     0
 10
-2079.914271520136
 20
833.03013774616625
 30
0.0
  0
POINT
  5
829D
  8
DEFPOINTS
 62
     0
 10
-2239.3805561714089
 20
833.03013774616625
 30
0.0
  0
ENDBLK
  5
53C6
  8
0
  0
BLOCK
  8
0
  2
*D10
 70
     1
 10
0.0
 20
0.0
 30
0.0
  3
*D10
  1

  0
LINE
  5
5685
  8
SP
 10
-1699.9142715201349
 20
823.03013774616693
 30
0.0
 11
-1699.9142715201349
 21
683.03013774616704
 31
0.0
  0
LINE
  5
5686
  8
SP
 10
-2079.914271520136
 20
823.03013774616522
 30
0.0
 11
-2079.914271520136
 21
683.03013774616704
 31
0.0
  0
LINE
  5
5687
  8
SP
 10
-1724.9142715201349
 20
693.03013774616704
 30
0.0
 11
-2054.914271520136
 21
693.03013774616704
 31
0.0
  0
INSERT
  5
5688
  8
SP
  2
_OPEN
 10
-1699.9142715201349
 20
693.03013774616704
 30
0.0
 41
25.0
 42
25.0
 43
25.0
  0
INSERT
  5
5689
  8
SP
  2
_OPEN
 10
-2079.914271520136
 20
693.03013774616704
 30
0.0
 41
25.0
 42
25.0
 43
25.0
 50
180.0
  0
TEXT
  5
568A
  8
SP
 10
-1931.790652263745
 20
703.03013774616704
 30
0.0
 40
30.0
  1
380
 51
15.0
  0
POINT
  5
568B
  8
DEFPOINTS
 62
     0
 10
-1699.9142715201349
 20
833.03013774616716
 30
0.0
  0
POINT
  5
568C
  8
DEFPOINTS
 62
     0
 10
-2079.914271520136
 20
833.03013774616511
 30
0.0
  0
POINT
  5
568D
  8
DEFPOINTS
 62
     0
 10
-2079.914271520136
 20
693.03013774616704
 30
0.0
  0
ENDBLK
  5
568F
  8
0
  0
BLOCK
  8
0
  2
*D11
 70
     1
 10
0.0
 20
0.0
 30
0.0
  3
*D11
  1

  0
LINE
  5
5691
  8
SP
 10
-2079.914271520136
 20
823.03013774616522
 30
0.0
 11
-2079.914271520136
 21
753.03013774616522
 31
0.0
  0
LINE
  5
5692
  8
SP
 10
-1889.9142715201349
 20
797.34538072303258
 30
0.0
 11
-1889.9142715201349
 21
753.03013774616522
 31
0.0
  0
LINE
  5
5693
  8
SP
 10
-2054.914271520136
 20
763.03013774616522
 30
0.0
 11
-1914.9142715201349
 21
763.03013774616522
 31
0.0
  0
INSERT
  5
5694
  8
SP
  2
_OPEN
 10
-2079.914271520136
 20
763.03013774616522
 30
0.0
 41
25.0
 42
25.0
 43
25.0
 50
180.0
  0
INSERT
  5
5695
  8
SP
  2
_OPEN
 10
-1889.9142715201349
 20
763.03013774616522
 30
0.0
 41
25.0
 42
25.0
 43
25.0
  0
TEXT
  5
5696
  8
SP
 10
-2026.421609050605
 20
773.03013774616522
 30
0.0
 40
30.0
  1
190
 51
15.0
  0
POINT
  5
5697
  8
DEFPOINTS
 62
     0
 10
-2079.914271520136
 20
833.03013774616511
 30
0.0
  0
POINT
  5
5698
  8
DEFPOINTS
 62
     0
 10
-1889.9142715201349
 20
807.34538072303246
 30
0.0
  0
POINT
  5
5699
  8
DEFPOINTS
 62
     0
 10
-1889.9142715201349
 20
763.03013774616522
 30
0.0
  0
ENDBLK
  5
569B
  8
0
  0
BLOCK
  8
0
  2
*D12
 70
     1
 10
0.0
 20
0.0
 30
0.0
  3
*D12
  1

  0
LINE
  5
569D
  8
SP
 10
-1889.9142715201349
 20
797.34538072303258
 30
0.0
 11
-1889.9142715201349
 21
753.03013774616704
 31
0.0
  0
LINE
  5
569E
  8
SP
 10
-1699.9142715201349
 20
823.03013774616693
 30
0.0
 11
-1699.9142715201349
 21
753.03013774616704
 31
0.0
  0
LINE
  5
569F
  8
SP
 10
-1864.9142715201349
 20
763.03013774616704
 30
0.0
 11
-1724.9142715201349
 21
763.03013774616704
 31
0.0
  0
INSERT
  5
56A0
  8
SP
  2
_OPEN
 10
-1889.9142715201349
 20
763.03013774616704
 30
0.0
 41
25.0
 42
25.0
 43
25.0
 50
180.0
  0
INSERT
  5
56A1
  8
SP
  2
_OPEN
 10
-1699.9142715201349
 20
763.03013774616704
 30
0.0
 41
25.0
 42
25.0
 43
25.0
  0
TEXT
  5
56A2
  8
SP
 10
-1836.4216090506061
 20
773.03013774616704
 30
0.0
 40
30.0
  1
190
 51
15.0
  0
POINT
  5
56A3
  8
DEFPOINTS
 62
     0
 10
-1889.9142715201349
 20
807.34538072303246
 30
0.0
  0
POINT
  5
56A4
  8
DEFPOINTS
 62
     0
 10
-1699.9142715201349
 20
833.03013774616716
 30
0.0
  0
POINT
  5
56A5
  8
DEFPOINTS
 62
     0
 10
-1699.9142715201349
 20
763.03013774616704
 30
0.0
  0
ENDBLK
  5
56A7
  8
0
  0
BLOCK
  8
0
  2
*D13
 70
     1
 10
0.0
 20
0.0
 30
0.0
  3
*D13
  1

  0
LINE
  5
56A9
  8
SP
 10
-2139.9142715201351
 20
1298.030137746166
 30
0.0
 11
-2139.9142715201351
 21
1368.030137746166
 31
0.0
  0
LINE
  5
56AA
  8
SP
 10
-1889.9142715201349
 20
1307.8065568904919
 30
0.0
 11
-1889.9142715201349
 21
1368.030137746166
 31
0.0
  0
LINE
  5
56AB
  8
SP
 10
-2114.9142715201351
 20
1358.030137746166
 30
0.0
 11
-1914.9142715201349
 21
1358.030137746166
 31
0.0
  0
INSERT
  5
56AC
  8
SP
  2
_OPEN
 10
-2139.9142715201351
 20
1358.030137746166
 30
0.0
 41
25.0
 42
25.0
 43
25.0
 50
180.0
  0
INSERT
  5
56AD
  8
SP
  2
_OPEN
 10
-1889.9142715201349
 20
1358.030137746166
 30
0.0
 41
25.0
 42
25.0
 43
25.0
  0
TEXT
  5
56AE
  8
SP
 10
-2056.0250831425128
 20
1368.030137746166
 30
0.0
 40
30.0
  1
250
 51
15.0
  0
POINT
  5
56AF
  8
DEFPOINTS
 62
     0
 10
-2139.9142715201351
 20
1288.030137746166
 30
0.0
  0
POINT
  5
56B0
  8
DEFPOINTS
 62
     0
 10
-1889.9142715201349
 20
1297.8065568904919
 30
0.0
  0
POINT
  5
56B1
  8
DEFPOINTS
 62
     0
 10
-1889.9142715201349
 20
1358.030137746166
 30
0.0
  0
ENDBLK
  5
56B3
  8
0
  0
BLOCK
  8
0
  2
*D14
 70
     1
 10
0.0
 20
0.0
 30
0.0
  3
*D14
  1

  0
LINE
  5
56B5
  8
SP
 10
-1889.9142715201349
 20
1307.8065568904919
 30
0.0
 11
-1889.9142715201349
 21
1368.030137746166
 31
0.0
  0
LINE
  5
56B6
  8
SP
 10
-1713.9142715201349
 20
1081.0301377461669
 30
0.0
 11
-1713.9142715201349
 21
1368.030137746166
 31
0.0
  0
LINE
  5
56B7
  8
SP
 10
-1864.9142715201349
 20
1358.030137746166
 30
0.0
 11
-1738.9142715201349
 21
1358.030137746166
 31
0.0
  0
INSERT
  5
56B8
  8
SP
  2
_OPEN
 10
-1889.9142715201349
 20
1358.030137746166
 30
0.0
 41
25.0
 42
25.0
 43
25.0
 50
180.0
  0
INSERT
  5
56B9
  8
SP
  2
_OPEN
 10
-1713.9142715201349
 20
1358.030137746166
 30
0.0
 41
25.0
 42
25.0
 43
25.0
  0
TEXT
  5
56BA
  8
SP
 10
-1842.8987156166279
 20
1368.030137746166
 30
0.0
 40
30.0
  1
176
 51
15.0
  0
POINT
  5
56BB
  8
DEFPOINTS
 62
     0
 10
-1889.9142715201349
 20
1297.8065568904919
 30
0.0
  0
POINT
  5
56BC
  8
DEFPOINTS
 62
     0
 10
-1713.9142715201349
 20
1071.0301377461669
 30
0.0
  0
POINT
  5
56BD
  8
DEFPOINTS
 62
     0
 10
-1713.9142715201349
 20
1358.030137746166
 30
0.0
  0
ENDBLK
  5
56BF
  8
0
  0
BLOCK
  8
0
  2
*D15
 70
     1
 10
0.0
 20
0.0
 30
0.0
  3
*D15
  1

  0
LINE
  5
56C1
  8
SP
 10
-2184.1007564974338
 20
1088.030137746166
 30
0.0
 11
-2249.3805561714089
 21
1088.030137746166
 31
0.0
  0
LINE
  5
56C2
  8
SP
 10
-2170.9142715201351
 20
1288.0301377461669
 30
0.0
 11
-2249.3805561714089
 21
1288.0301377461669
 31
0.0
  0
LINE
  5
56C3
  8
SP
 10
-2239.3805561714089
 20
1113.0301377461669
 30
0.0
 11
-2239.3805561714089
 21
1263.0301377461669
 31
0.0
  0
INSERT
  5
56C4
  8
SP
  2
_OPEN
 10
-2239.3805561714089
 20
1088.030137746166
 30
0.0
 41
25.0
 42
25.0
 43
25.0
 50
270.0
  0
INSERT
  5
56C5
  8
SP
  2
_OPEN
 10
-2239.3805561714089
 20
1288.0301377461669
 30
0.0
 41
25.0
 42
25.0
 43
25.0
 50
90.0
  0
TEXT
  5
56C6
  8
SP
 10
-2249.3805561714089
 20
1146.9193261237881
 30
0.0
 40
30.0
  1
200
 50
90.0
 51
15.0
  0
POINT
  5
56C7
  8
DEFPOINTS
 62
     0
 10
-2174.1007564974352
 20
1088.030137746166
 30
0.0
  0
POINT
  5
56C8
  8
DEFPOINTS
 62
     0
 10
-2160.9142715201351
 20
1288.0301377461669
 30
0.0
  0
POINT
  5
56C9
  8
DEFPOINTS
 62
     0
 10
-2239.3805561714089
 20
1288.0301377461669
 30
0.0
  0
ENDBLK
  5
56CB
  8
0
  0
BLOCK
  8
0
  2
*D16
 70
     1
 10
0.0
 20
0.0
 30
0.0
  3
*D16
  1

  0
LINE
  5
56CD
  8
SP
 10
-2184.1007564974338
 20
1088.030137746166
 30
0.0
 11
-2249.3805561714089
 21
1088.030137746166
 31
0.0
  0
LINE
  5
56CE
  8
SP
 10
-2089.914271520136
 20
833.03013774616511
 30
0.0
 11
-2249.3805561714089
 21
833.03013774616511
 31
0.0
  0
LINE
  5
56CF
  8
SP
 10
-2239.3805561714089
 20
1063.0301377461669
 30
0.0
 11
-2239.3805561714089
 21
858.03013774616511
 31
0.0
  0
INSERT
  5
56D0
  8
SP
  2
_OPEN
 10
-2239.3805561714089
 20
1088.030137746166
 30
0.0
 41
25.0
 42
25.0
 43
25.0
 50
90.0
  0
INSERT
  5
56D1
  8
SP
  2
_OPEN
 10
-2239.3805561714089
 20
833.03013774616511
 30
0.0
 41
25.0
 42
25.0
 43
25.0
 50
270.0
  0
TEXT
  5
56D2
  8
SP
 10
-2249.3805561714089
 20
919.36804271684161
 30
0.0
 40
30.0
  1
255
 50
90.0
 51
15.0
  0
POINT
  5
56D3
  8
DEFPOINTS
 62
     0
 10
-2174.1007564974352
 20
1088.030137746166
 30
0.0
  0
POINT
  5
56D4
  8
DEFPOINTS
 62
     0
 10
-2079.914271520136
 20
833.03013774616511
 30
0.0
  0
POINT
  5
56D5
  8
DEFPOINTS
 62
     0
 10
-2239.3805561714089
 20
833.03013774616511
 30
0.0
  0
ENDBLK
  5
56D7
  8
0
  0
BLOCK
  8
0
  2
A$C44EA23BE
 70
     0
 10
0.0
 20
0.0
 30
0.0
  3
A$C44EA23BE
  1

  0
DIMENSION
  5
56D9
  8
SP
  2
*D16
 10
-349.46628465127378
 20
-255.00000000000171
 30
0.0
 11
-374.46628465127378
 21
-127.50000000000119
 31
0.0
 12
1889.9142715201349
 22
-1088.030137746166
 32
0.0
  3
GOD
 13
-284.18648497729919
 23
0.0
 33
0.0
 14
-190.00000000000091
 24
-255.00000000000171
 34
0.0
 50
90.0
  0
ARC
  5
56DA
  8
FUTO
 10
-17.0
 20
-17.0
 30
0.0
 40
203.0
 50
269.572081032222
 51
0.4673217049947748
  0
ARC
  5
56DB
  8
FUTO
 10
-20.0
 20
20.0
 30
0.0
 40
240.0
 50
180.0
 51
270.39182689926031
  0
ARC
  5
56DC
  8
FUTO
 10
-17.0
 20
-17.0
 30
0.0
 40
193.0
 50
269.572081032222
 51
0.4673217049947748
  0
ARC
  5
56DD
  8
FUTO
 10
-20.0
 20
20.0
 30
0.0
 40
230.0
 50
180.0
 51
270.39182689926031
  0
LINE
  5
56DE
  8
2
 10
0.0
 20
-280.6847570231343
 30
0.0
 11
0.0
 21
209.77641914432559
 31
0.0
  0
LINE
  5
56DF
  8
1
 10
157.69999999999891
 20
66.099999999998545
 30
0.0
 11
157.69999999999891
 21
-255.00000000000179
 31
0.0
  0
LINE
  5
56E0
  8
1
 10
160.0
 20
66.099999999998545
 30
0.0
 11
160.0
 21
-252.7000000000007
 31
0.0
  0
LINE
  5
56E1
  8
1
 10
-157.69999999999979
 20
66.099999999998545
 30
0.0
 11
-157.69999999999979
 21
-255.00000000000179
 31
0.0
  0
LINE
  5
56E2
  8
1
 10
-160.0
 20
66.099999999998545
 30
0.0
 11
-159.99999999999901
 21
-252.69999999999891
 31
0.0
  0
ARC
  5
56E3
  8
1
 10
0.0
 20
0.0
 30
0.0
 40
85.0
 50
0.0
 51
244.12446600000609
  0
CIRCLE
  5
56E4
  8
2
 10
0.0
 20
0.0
 30
0.0
 40
136.0
  0
ARC
  5
56E5
  8
1
 10
0.0
 20
0.0
 30
0.0
 40
85.000007999999994
 50
295.91772599999888
 51
0.0
  0
DIMENSION
  5
56E6
  8
SP
  2
*D10
 10
-190.00000000000091
 20
-394.99999999999977
 30
0.0
 11
-0.0000000000004547
 21
-369.99999999999977
 31
0.0
 12
1889.9142715201349
 22
-1088.030137746166
 32
0.0
  3
GOD
 13
190.0
 23
-254.9999999999998
 33
0.0
 14
-190.00000000000091
 24
-255.00000000000171
 34
0.0
  0
DIMENSION
  5
56E7
  8
SP
  2
*D12
 10
190.0
 20
-324.99999999999989
 30
0.0
 11
95.0
 21
-299.99999999999989
 31
0.0
 12
1889.9142715201349
 22
-1088.030137746166
 32
0.0
  3
GOD
 13
0.0
 23
-280.6847570231343
 33
0.0
 14
190.0
 24
-254.9999999999998
 34
0.0
  0
DIMENSION
  5
56E8
  8
SP
  2
*D11
 10
0.0
 20
-325.00000000000171
 30
0.0
 11
-95.000000000000455
 21
-300.00000000000171
 31
0.0
 12
1889.9142715201349
 22
-1088.030137746166
 32
0.0
  3
GOD
 13
-190.00000000000091
 23
-255.00000000000171
 33
0.0
 14
0.0
 24
-280.6847570231343
 34
0.0
  0
LINE
  5
56E9
  8
FUTO
 10
-132.69999999999979
 20
-105.0
 30
0.0
 11
-157.69999999999891
 21
-80.0
 31
0.0
  0
LINE
  5
56EA
  8
1
 10
-157.69999999999891
 20
-203.9999999999998
 30
0.0
 11
-132.7000000000007
 21
-203.9999999999998
 31
0.0
  0
LINE
  5
56EB
  8
1
 10
-190.00000000000091
 20
-255.00000000000179
 30
0.0
 11
190.0
 21
-255.0
 31
0.0
  0
LINE
  5
56EC
  8
1
 10
-157.69999999999891
 20
-80.0
 30
0.0
 11
157.69999999999891
 21
-80.0
 31
0.0
  0
LINE
  5
56ED
  8
2
 10
-176.99999999999901
 20
-268.98279906584588
 30
0.0
 11
-176.99999999999901
 21
-242.69999999999879
 31
0.0
  0
LINE
  5
56EE
  8
1
 10
-190.00000000000091
 20
-255.00000000000179
 30
0.0
 11
-190.00000000000179
 21
-252.7000000000007
 31
0.0
  0
LINE
  5
56EF
  8
1
 10
-190.00000000000091
 20
-252.7000000000007
 30
0.0
 11
-159.99999999999901
 21
-252.69999999999891
 31
0.0
  0
LINE
  5
56F0
  8
1
 10
132.699999999997
 20
-105.0
 30
0.0
 11
132.699999999997
 21
-203.9999999999998
 31
0.0
  0
LINE
  5
56F1
  8
1
 10
-132.69999999999979
 20
-105.0
 30
0.0
 11
-132.69999999999979
 21
-203.9999999999998
 31
0.0
  0
LINE
  5
56F2
  8
1
 10
132.699999999997
 20
-203.9999999999998
 30
0.0
 11
157.69999999999891
 21
-203.9999999999998
 31
0.0
  0
LINE
  5
56F3
  8
1
 10
190.0
 20
-255.0
 30
0.0
 11
190.0
 21
-252.69999999999891
 31
0.0
  0
LINE
  5
56F4
  8
2
 10
176.9999999999981
 20
-267.91032669659847
 30
0.0
 11
177.0
 21
-242.7000000000007
 31
0.0
  0
LINE
  5
56F5
  8
1
 10
160.0
 20
-252.69999999999891
 30
0.0
 11
190.0
 21
-252.7000000000007
 31
0.0
  0
LINE
  5
56F6
  8
FUTO
 10
132.69999999999979
 20
-105.0
 30
0.0
 11
157.69999999999891
 21
-80.0
 31
0.0
  0
LINE
  5
56F7
  8
1
 10
-132.69999999999979
 20
-105.0
 30
0.0
 11
132.69999999999891
 21
-105.0
 31
0.0
  0
LINE
  5
56F8
  8
CT
 10
-57.086121054688192
 20
-137.8180876735004
 30
0.0
 11
-46.574035520656253
 21
-112.43966820841879
 31
0.0
  0
CIRCLE
  5
56F9
  8
1
 10
-52.044946801652252
 20
-125.64761642153459
 30
0.0
 40
4.0
  0
LINE
  5
56FA
  8
CT
 10
57.086121054688192
 20
-137.8180876735004
 30
0.0
 11
46.574035520658072
 21
-112.43966820841879
 31
0.0
  0
CIRCLE
  5
56FB
  8
1
 10
52.044946801652252
 20
-125.64761642153459
 30
0.0
 40
4.0
  0
LINE
  5
56FC
  8
1
 10
-37.095498999999108
 20
-76.450928000000204
 30
0.0
 11
37.151808999999041
 21
-76.450928000000204
 31
0.0
  0
LINE
  5
56FD
  8
1
 10
-82.5
 20
-78.34088200000042
 30
0.0
 11
82.500029999999242
 21
-78.34088200000042
 31
0.0
  0
LINE
  5
56FE
  8
CT
 10
-62.5
 20
-82.218586000000869
 30
0.0
 11
-62.5
 21
-73.631579000000784
 31
0.0
  0
LINE
  5
56FF
  8
CT
 10
-137.8180876735004
 20
-57.086121054690011
 30
0.0
 11
-112.439668208417
 21
-46.574035520658072
 31
0.0
  0
ARC
  5
5700
  8
1
 10
-52.365203999999721
 20
-70.5
 30
0.0
 40
5.0
 50
270.0
 51
324.46176099999479
  0
LINE
  5
5701
  8
1
 10
-46.623938000000628
 20
-71.064478000000236
 30
0.0
 11
-48.296539999999368
 21
-73.40625
 31
0.0
  0
LINE
  5
5702
  8
1
 10
-77.833160999999564
 20
-75.505370999999286
 30
0.0
 11
-62.323167999999889
 21
-57.818504000000758
 31
0.0
  0
LINE
  5
5703
  8
1
 10
-82.5
 20
-75.5
 30
0.0
 11
-52.36517399999866
 21
-75.5
 31
0.0
  0
CIRCLE
  5
5704
  8
1
 10
-125.64761642153459
 20
-52.044946801652252
 30
0.0
 40
4.0
  0
ARC
  5
5705
  8
1
 10
0.0
 20
0.0
 30
0.0
 40
85.0
 50
236.73178133170779
 51
244.12446600000609
  0
LINE
  5
5706
  8
1
 10
-42.5
 20
-78.34088200000042
 30
0.0
 11
-42.5
 21
-80.0
 31
0.0
  0
LINE
  5
5707
  8
1
 10
-77.5
 20
-78.34088200000042
 30
0.0
 11
-77.5
 21
-80.0
 31
0.0
  0
LINE
  5
5708
  8
1
 10
-82.5
 20
-78.34088200000042
 30
0.0
 11
-82.5
 21
-75.5
 31
0.0
  0
LINE
  5
5709
  8
CT
 10
137.8180876735004
 20
-57.086121054688192
 30
0.0
 11
112.439668208417
 21
-46.574035520658072
 31
0.0
  0
LINE
  5
570A
  8
CT
 10
62.5
 20
-82.218586000000869
 30
0.0
 11
62.5
 21
-73.631579000000784
 31
0.0
  0
LINE
  5
570B
  8
1
 10
82.500029999999242
 20
-75.5
 30
0.0
 11
52.365203999999721
 21
-75.5
 31
0.0
  0
LINE
  5
570C
  8
1
 10
77.834367999999813
 20
-75.506824000000051
 30
0.0
 11
62.32130799999868
 21
-57.816361999999572
 31
0.0
  0
LINE
  5
570D
  8
1
 10
47.508270000000259
 20
-72.302612999999837
 30
0.0
 11
48.296538999999029
 21
-73.40625
 31
0.0
  0
LINE
  5
570E
  8
1
 10
46.631551000000393
 20
-71.075138000000152
 30
0.0
 11
48.296538999999029
 21
-73.40625
 31
0.0
  0
ARC
  5
570F
  8
1
 10
52.365203999999721
 20
-70.5
 30
0.0
 40
5.000032
 50
215.53825399999309
 51
270.0
  0
LINE
  5
5710
  8
1
 10
77.5
 20
-78.34088200000042
 30
0.0
 11
77.5
 21
-80.0
 31
0.0
  0
LINE
  5
5711
  8
1
 10
42.5
 20
-78.34088200000042
 30
0.0
 11
42.5
 21
-80.0
 31
0.0
  0
LINE
  5
5712
  8
1
 10
82.500029999999242
 20
-75.5
 30
0.0
 11
82.500029999999242
 21
-78.34088200000042
 31
0.0
  0
CIRCLE
  5
5713
  8
1
 10
125.64761642153459
 20
-52.044946801652252
 30
0.0
 40
4.0
  0
DIMENSION
  5
5714
  8
SP
  2
*D15
 10
-349.46628465127333
 20
200.0
 30
0.0
 11
-374.46628465127378
 21
99.999999999999787
 31
0.0
 12
1889.9142715201349
 22
-1088.030137746166
 32
0.0
  3
GOD
 13
-284.18648497729919
 23
0.0
 33
0.0
 14
-271.0
 24
200.0
 34
0.0
 50
90.0
  0
DIMENSION
  5
5715
  8
SP
  2
*D14
 10
176.0
 20
269.99999999999898
 30
0.0
 11
88.0
 21
294.99999999999898
 31
0.0
 12
1889.9142715201349
 22
-1088.030137746166
 32
0.0
  3
GOD
 13
0.0
 23
209.77641914432559
 33
0.0
 14
176.0
 24
-17.0
 34
0.0
  0
LINE
  5
5716
  8
FUTO
 10
-250.99998456825821
 20
199.99444453017639
 30
0.0
 11
-249.99998456825821
 21
19.99444453017281
 31
0.0
  0
LINE
  5
5717
  8
FUTO
 10
-251.0
 20
200.0
 30
0.0
 11
-251.0
 21
180.0
 31
0.0
  0
LINE
  5
5718
  8
FUTO
 10
-252.0
 20
199.0
 30
0.0
 11
-252.0
 21
180.0
 31
0.0
  0
LINE
  5
5719
  8
FUTO
 10
-249.0
 20
198.0
 30
0.0
 11
-231.0
 21
180.0
 31
0.0
  0
LINE
  5
571A
  8
FUTO
 10
0.0
 20
180.0
 30
0.0
 11
0.0
 21
200.0
 31
0.0
  0
LINE
  5
571B
  8
FUTO
 10
1.0
 20
200.0
 30
0.0
 11
1.0
 21
180.0
 31
0.0
  0
LINE
  5
571C
  8
FUTO
 10
2.0
 20
199.0
 30
0.0
 11
2.0
 21
180.0
 31
0.0
  0
LINE
  5
571D
  8
FUTO
 10
-1.0
 20
198.0
 30
0.0
 11
-19.0
 21
180.0
 31
0.0
  0
LINE
  5
571E
  8
FUTO
 10
-231.0
 20
180.0
 30
0.0
 11
-19.0
 21
180.0
 31
0.0
  0
LINE
  5
571F
  8
1
 10
-60.0
 20
150.0
 30
0.0
 11
-158.39999999999961
 21
66.099999999998545
 31
0.0
  0
LINE
  5
5720
  8
2
 10
-284.18648497729919
 20
0.0
 30
0.0
 11
210.14761457335041
 21
-0.000000000001819
 31
0.0
  0
LINE
  5
5721
  8
FUTO
 10
-260.8890586406655
 20
180.0
 30
0.0
 11
-259.99983025084288
 21
19.938889831936191
 31
0.0
  0
LINE
  5
5722
  8
1
 10
-160.0
 20
66.099999999998545
 30
0.0
 11
-158.39999999999961
 21
66.099999999998545
 31
0.0
  0
LINE
  5
5723
  8
FUTO
 10
-260.8890586406655
 20
180.0
 30
0.0
 11
-250.88890432086819
 21
180.0
 31
0.0
  0
ARC
  5
5724
  8
FUTO
 10
14.0
 20
-14.0
 30
0.0
 40
172.0
 50
359.4896667551933
 51
78.450738176447032
  0
ARC
  5
5725
  8
FUTO
 10
14.0
 20
-14.0
 30
0.0
 40
162.0
 50
359.4896667551933
 51
78.450738176447032
  0
LINE
  5
5726
  8
1
 10
60.0
 20
150.0
 30
0.0
 11
158.39999999999961
 21
66.099999999998545
 31
0.0
  0
LINE
  5
5727
  8
CT
 10
-137.8180876735004
 20
57.086121054686373
 30
0.0
 11
-112.439668208417
 21
46.574035520658072
 31
0.0
  0
CIRCLE
  5
5728
  8
1
 10
-125.64761642153459
 20
52.044946801652252
 30
0.0
 40
4.0
  0
LINE
  5
5729
  8
CT
 10
137.8180876735004
 20
57.086121054686373
 30
0.0
 11
112.439668208417
 21
46.574035520658072
 31
0.0
  0
CIRCLE
  5
572A
  8
1
 10
125.64761642153459
 20
52.044946801652252
 30
0.0
 40
4.0
  0
LINE
  5
572B
  8
1
 10
158.39999999999961
 20
66.099999999998545
 30
0.0
 11
160.0
 21
66.099999999998545
 31
0.0
  0
LINE
  5
572C
  8
CT
 10
57.086121054688192
 20
137.81808767349861
 30
0.0
 11
46.574035520656253
 21
112.439668208417
 31
0.0
  0
LINE
  5
572D
  8
CT
 10
-57.086121054688192
 20
137.81808767349861
 30
0.0
 11
-46.574035520658072
 21
112.4396682084152
 31
0.0
  0
CIRCLE
  5
572E
  8
1
 10
-52.044946801652252
 20
125.64761642153459
 30
0.0
 40
4.0
  0
CIRCLE
  5
572F
  8
1
 10
52.044946801652252
 20
125.64761642153459
 30
0.0
 40
4.0
  0
ARC
  5
5730
  8
FUTO
 10
60.999999999996362
 20
216.0
 30
0.0
 40
72.753061747871584
 50
214.1996194554568
 51
258.45073817644709
  0
LINE
  5
5731
  8
FUTO
 10
0.0
 20
180.0
 30
0.0
 11
5.9318434102424362
 21
180.0
 31
0.0
  0
LINE
  5
5732
  8
1
 10
-60.0
 20
150.0
 30
0.0
 11
60.0
 21
150.0
 31
0.0
  0
LINE
  5
5733
  8
FUTO
 10
0.0
 20
180.0
 30
0.0
 11
1.0
 21
180.0
 31
0.0
  0
ARC
  5
5734
  8
FUTO
 10
59.528586099928361
 20
210.519969322142
 30
0.0
 40
57.203726762688042
 50
216.60350367361539
 51
261.67207569821369
  0
ARC
  5
5735
  8
FUTO
 10
5.9318434102424362
 20
170.0
 30
0.0
 40
10.0
 50
39.872968906140997
 51
90.0
  0
LINE
  5
5736
  8
FUTO
 10
-271.0
 20
200.0
 30
0.0
 11
21.0
 21
200.0
 31
0.0
  0
LINE
  5
5737
  8
FUTO
 10
-251.0
 20
199.0
 30
0.0
 11
1.0
 21
199.0
 31
0.0
  0
DIMENSION
  5
5738
  8
SP
  2
*D13
 10
0.0
 20
269.99999999999898
 30
0.0
 11
-125.0
 21
294.99999999999898
 31
0.0
 12
1889.9142715201349
 22
-1088.030137746166
 32
0.0
  3
GOD
 13
-250.0
 23
199.99999999999901
 33
0.0
 14
0.0
 24
209.77641914432559
 34
0.0
  0
LINE
  5
5739
  8
FUTO
 10
-271.0
 20
199.0
 30
0.0
 11
-252.0
 21
199.0
 31
0.0
  0
LINE
  5
573A
  8
FUTO
 10
-271.0
 20
200.0
 30
0.0
 11
-271.0
 21
199.0
 31
0.0
  0
LINE
  5
573B
  8
FUTO
 10
-251.0
 20
198.0
 30
0.0
 11
-249.0
 21
198.0
 31
0.0
  0
LINE
  5
573C
  8
FUTO
 10
2.0
 20
199.0
 30
0.0
 11
21.0
 21
199.0
 31
0.0
  0
LINE
  5
573D
  8
FUTO
 10
-1.0
 20
198.0
 30
0.0
 11
1.0
 21
198.0
 31
0.0
  0
LINE
  5
573E
  8
FUTO
 10
21.0
 20
200.0
 30
0.0
 11
21.0
 21
199.0
 31
0.0
  0
ENDBLK
  5
5740
  8
0
  0
BLOCK
  8
0
  2
A$C40AB6E05
 70
     0
 10
0.0
 20
0.0
 30
0.0
  3
A$C40AB6E05
  1

  0
LINE
  5
6751
  8
1
 10
-160.00000000000361
 20
-307.99999999999181
 30
0.0
 11
-160.00000000000591
 21
-99.000000000001606
 31
0.0
  0
LINE
  5
6752
  8
1
 10
-190.00000000000361
 20
-298.9999999999954
 30
0.0
 11
-190.00000000000591
 21
-99.000000000001364
 31
0.0
  0
LINE
  5
6753
  8
1
 10
-33.5
 20
-124.79999999999831
 30
0.0
 11
-33.5
 21
-133.79999999999831
 31
0.0
  0
LINE
  5
6754
  8
1
 10
-75.5
 20
-156.29999999999831
 30
0.0
 11
-75.5
 21
-135.79999999999831
 31
0.0
  0
ARC
  5
6755
  8
1
 10
-73.5
 20
-135.79999999999831
 30
0.0
 40
2.0
 50
90.0
 51
180.0
  0
LINE
  5
6756
  8
1
 10
-72.815002999999706
 20
-133.79999999999831
 30
0.0
 11
-64.184998000000633
 21
-133.79999999999831
 31
0.0
  0
LINE
  5
6757
  8
1
 10
-64.065796000000773
 20
-133.79999999999831
 30
0.0
 11
-73.065796000000773
 21
-133.79999999999831
 31
0.0
  0
LINE
  5
6758
  8
1
 10
-160.0000000000054
 20
-132.9999999999915
 30
0.0
 11
-33.5
 21
-132.99999999999361
 31
0.0
  0
CIRCLE
  5
6759
  8
FUTO
 10
-177.000000000005
 20
-119.00000000000109
 30
0.0
 40
6.0
  0
LINE
  5
675A
  8
CT
 10
-164.8129139847405
 20
-119.00000000000109
 30
0.0
 11
-189.18708601526981
 21
-119.00000000000109
 31
0.0
  0
LINE
  5
675B
  8
CT
 10
-177.000000000005
 20
-131.18708601526569
 30
0.0
 11
-177.000000000005
 21
-106.8129139847364
 31
0.0
  0
ARC
  5
675C
  8
1
 10
-143.99999999999631
 20
-95.999999999999091
 30
0.0
 40
3.0
 50
180.0
 51
270.0
  0
LINE
  5
675D
  8
1
 10
-146.99999999999631
 20
-93.999999999999091
 30
0.0
 11
-146.99999999999631
 21
-95.999999999999091
 31
0.0
  0
LINE
  5
675E
  8
1
 10
-146.99999999999631
 20
-93.999999999999091
 30
0.0
 11
-146.99999999999631
 21
-95.999999999999091
 31
0.0
  0
ARC
  5
675F
  8
1
 10
-149.99999999999631
 20
-93.999999999999091
 30
0.0
 40
3.0
 50
0.0
 51
90.0
  0
LINE
  5
6760
  8
1
 10
-22.5
 20
-110.9999999999972
 30
0.0
 11
-22.5
 21
-113.8000000000001
 31
0.0
  0
ARC
  5
6761
  8
1
 10
-32.5
 20
-124.79999999999831
 30
0.0
 40
1.0
 50
90.0
 51
180.0
  0
LINE
  5
6762
  8
FUTO
 10
190.00000000000179
 20
-99.000000000001137
 30
0.0
 11
-189.9999999999981
 21
-99.000000000001137
 31
0.0
  0
ARC
  5
6763
  8
1
 10
150.0
 20
-93.999999999999091
 30
0.0
 40
3.0
 50
90.0
 51
180.0
  0
LINE
  5
6764
  8
1
 10
147.0
 20
-93.999999999999091
 30
0.0
 11
147.0
 21
-95.999999999999091
 31
0.0
  0
LINE
  5
6765
  8
1
 10
147.0
 20
-93.999999999999091
 30
0.0
 11
147.0
 21
-95.999999999999091
 31
0.0
  0
ARC
  5
6766
  8
1
 10
144.0
 20
-95.999999999999091
 30
0.0
 40
3.0
 50
270.0
 51
0.0
  0
LINE
  5
6767
  8
1
 10
160.0
 20
-307.99999999999932
 30
0.0
 11
160.00000000000179
 21
-99.000000000001137
 31
0.0
  0
LINE
  5
6768
  8
FUTO
 10
190.0
 20
-298.9999999999954
 30
0.0
 11
190.00000000000179
 21
-99.000000000001137
 31
0.0
  0
LINE
  5
6769
  8
1
 10
33.499999999998181
 20
-132.99999999999719
 30
0.0
 11
160.00000000000151
 21
-132.99999999999719
 31
0.0
  0
LINE
  5
676A
  8
CT
 10
177.00000000000159
 20
-131.18708601526569
 30
0.0
 11
177.00000000000159
 21
-106.8129139847364
 31
0.0
  0
CIRCLE
  5
676B
  8
FUTO
 10
177.00000000000159
 20
-119.00000000000109
 30
0.0
 40
6.0
  0
CIRCLE
  5
676C
  8
FUTO
 10
177.00000000000159
 20
-279.00000000000108
 30
0.0
 40
6.0
  0
LINE
  5
676D
  8
CT
 10
164.81291398473689
 20
-279.00000000000108
 30
0.0
 11
189.1870860152662
 21
-279.00000000000108
 31
0.0
  0
LINE
  5
676E
  8
CT
 10
177.00000000000159
 20
-291.18708601526572
 30
0.0
 11
177.00000000000159
 21
-266.8129139847365
 31
0.0
  0
LINE
  5
676F
  8
FUTO
 10
159.99999999999969
 20
-298.9999999999954
 30
0.0
 11
190.00000000000179
 21
-298.9999999999954
 31
0.0
  0
LINE
  5
6770
  8
FUTO
 10
190.0
 20
-299.00000000000108
 30
0.0
 11
160.0
 21
-299.00000000000108
 31
0.0
  0
LINE
  5
6771
  8
1
 10
74.799988000000667
 20
-277.79999999999831
 30
0.0
 11
74.799988000000667
 21
-156.29999999999831
 31
0.0
  0
LINE
  5
6772
  8
1
 10
85.0
 20
-307.99999999999721
 30
0.0
 11
160.0
 21
-307.99999999999932
 31
0.0
  0
LINE
  5
6773
  8
1
 10
85.0
 20
-316.29999999999831
 30
0.0
 11
85.0
 21
-277.79999999999831
 31
0.0
  0
LINE
  5
6774
  8
1
 10
0.000000000001819
 20
-317.79999999999831
 30
0.0
 11
83.499999999999986
 21
-317.79999999999831
 31
0.0
  0
LINE
  5
6775
  8
1
 10
-72.777344000000085
 20
-351.79999999999831
 30
0.0
 11
72.626524999999674
 21
-351.79999999999831
 31
0.0
  0
ARC
  5
6776
  8
1
 10
83.499999999999986
 20
-316.29999999999831
 30
0.0
 40
1.4999849999999999
 50
270.0
 51
0.0005800000062725
  0
ARC
  5
6777
  8
1
 10
81.815002999999706
 20
-318.79993899999948
 30
0.0
 40
0.999898
 50
89.99650299999503
 51
168.37008699999251
  0
LINE
  5
6778
  8
1
 10
74.246521000000939
 20
-350.60248999999828
 30
0.0
 11
80.835633000000598
 21
-318.59833899999921
 31
0.0
  0
LINE
  5
6779
  8
1
 10
85.0
 20
-277.79999999999831
 30
0.0
 11
-85.0
 21
-277.79999999999831
 31
0.0
  0
LINE
  5
677A
  8
1
 10
-160.00000000000361
 20
-307.99999999999181
 30
0.0
 11
-84.999999999999091
 21
-307.9999999999954
 31
0.0
  0
LINE
  5
677B
  8
1
 10
-74.799988000000667
 20
-277.79999999999831
 30
0.0
 11
-74.799988000000667
 21
-156.29999999999831
 31
0.0
  0
LINE
  5
677C
  8
1
 10
-85.0
 20
-316.29999999999831
 30
0.0
 11
-85.0
 21
-277.79999999999831
 31
0.0
  0
ARC
  5
677D
  8
1
 10
-81.815002999999706
 20
-318.79993899999948
 30
0.0
 40
0.999898
 50
11.629913000007431
 51
90.003497000004955
  0
LINE
  5
677E
  8
1
 10
-74.246521000000939
 20
-350.60248999999828
 30
0.0
 11
-80.835633000000598
 21
-318.59833899999921
 31
0.0
  0
ARC
  5
677F
  8
1
 10
-83.499999999999986
 20
-316.29999999999831
 30
0.0
 40
1.4999849999999999
 50
179.99941999999371
 51
270.0
  0
LINE
  5
6780
  8
1
 10
-0.000000000001819
 20
-317.79999999999831
 30
0.0
 11
-83.499999999999986
 21
-317.79999999999831
 31
0.0
  0
LINE
  5
6781
  8
CT
 10
-177.000000000005
 20
-291.18708601526572
 30
0.0
 11
-177.000000000005
 21
-266.8129139847365
 31
0.0
  0
LINE
  5
6782
  8
CT
 10
-164.8129139847405
 20
-279.00000000000108
 30
0.0
 11
-189.18708601526981
 21
-279.00000000000108
 31
0.0
  0
CIRCLE
  5
6783
  8
FUTO
 10
-177.000000000005
 20
-279.00000000000108
 30
0.0
 40
6.0
  0
LINE
  5
6784
  8
1
 10
-189.99999999999909
 20
-298.9999999999954
 30
0.0
 11
-160.00000000000361
 21
-298.9999999999954
 31
0.0
  0
LINE
  5
6785
  8
1
 10
33.499999999998181
 20
-133.79999999999831
 30
0.0
 11
33.5
 21
-124.79999999999831
 31
0.0
  0
LINE
  5
6786
  8
1
 10
0.0
 20
-133.79999999999831
 30
0.0
 11
73.5
 21
-133.79999999999831
 31
0.0
  0
LINE
  5
6787
  8
1
 10
75.5
 20
-156.29999999999831
 30
0.0
 11
0.000000000001819
 21
-156.29999999999831
 31
0.0
  0
LINE
  5
6788
  8
1
 10
-75.5
 20
-156.29999999999831
 30
0.0
 11
-0.000000000001819
 21
-156.29999999999831
 31
0.0
  0
LINE
  5
6789
  8
1
 10
0.0
 20
-133.79999999999831
 30
0.0
 11
-73.5
 21
-133.79999999999831
 31
0.0
  0
LINE
  5
678A
  8
1
 10
75.5
 20
-156.29999999999831
 30
0.0
 11
75.5
 21
-135.79999999999831
 31
0.0
  0
ARC
  5
678B
  8
1
 10
73.5
 20
-135.79999999999831
 30
0.0
 40
2.0
 50
0.0
 51
90.0
  0
LINE
  5
678C
  8
1
 10
64.065796000000773
 20
-133.79999999999831
 30
0.0
 11
73.065796000000773
 21
-133.79999999999831
 31
0.0
  0
LINE
  5
678D
  8
1
 10
72.815002999999706
 20
-133.79999999999831
 30
0.0
 11
64.184998000000633
 21
-133.79999999999831
 31
0.0
  0
LINE
  5
678E
  8
1
 10
-17.5
 20
-118.8000000000001
 30
0.0
 11
17.5
 21
-118.8000000000001
 31
0.0
  0
LINE
  5
678F
  8
1
 10
32.5
 20
-123.79999999999831
 30
0.0
 11
-32.5
 21
-123.79999999999831
 31
0.0
  0
LINE
  5
6790
  8
1
 10
-10.5
 20
-118.79999999999831
 30
0.0
 11
-10.5
 21
-123.79999999999831
 31
0.0
  0
ARC
  5
6791
  8
1
 10
32.5
 20
-124.79999999999831
 30
0.0
 40
1.0
 50
0.0
 51
90.0
  0
LINE
  5
6792
  8
1
 10
10.5
 20
-118.79999999999831
 30
0.0
 11
10.5
 21
-123.79999999999831
 31
0.0
  0
LINE
  5
6793
  8
1
 10
22.5
 20
-113.8000000000001
 30
0.0
 11
17.5
 21
-118.8000000000001
 31
0.0
  0
LINE
  5
6794
  8
1
 10
22.5
 20
-101.2999999999965
 30
0.0
 11
22.5
 21
-113.8000000000001
 31
0.0
  0
LINE
  5
6795
  8
1
 10
-17.5
 20
-118.8000000000001
 30
0.0
 11
-22.5
 21
-113.8000000000001
 31
0.0
  0
ENDBLK
  5
6797
  8
0
  0
BLOCK
  8
0
  2
*D19
 70
     1
 10
0.0
 20
0.0
 30
0.0
  3
*D19
  1

  0
LINE
  5
8A3D
  8
SP
 10
-2149.9142715201328
 20
811.03013774616511
 30
0.0
 11
-2249.3805561714089
 21
811.03013774616511
 31
0.0
  0
LINE
  5
8A3E
  8
SP
 10
-2149.9142715201351
 20
781.03013774616443
 30
0.0
 11
-2249.3805561714089
 21
781.03013774616443
 31
0.0
  0
LINE
  5
8A3F
  8
SP
 10
-2239.3805561714089
 20
836.03013774616511
 30
0.0
 11
-2239.3805561714089
 21
861.03013774616511
 31
0.0
  0
LINE
  5
8A40
  8
SP
 10
-2239.3805561714089
 20
756.03013774616443
 30
0.0
 11
-2239.3805561714089
 21
658.91108131530075
 31
0.0
  0
LINE
  5
8A41
  8
SP
 10
-2239.3805561714089
 20
811.03013774616511
 30
0.0
 11
-2239.3805561714089
 21
781.03013774616443
 31
0.0
  0
INSERT
  5
8A42
  8
SP
  2
_DOT
 10
-2239.3805561714089
 20
811.03013774616511
 30
0.0
 41
25.0
 42
25.0
 43
25.0
 50
270.0
  0
INSERT
  5
8A43
  8
SP
  2
_OPEN
 10
-2239.3805561714089
 20
781.03013774616443
 30
0.0
 41
25.0
 42
25.0
 43
25.0
 50
90.0
  0
TEXT
  8
0
  40
30
  5
8A4F
  72
0
  71
0
 10
-2324.38
 20
641.871
 30
0.000000
  1
30
  0
POINT
  5
8A45
  8
DEFPOINTS
 62
     0
 10
-2139.9142715201342
 20
811.03013774616511
 30
0.0
  0
POINT
  5
8A46
  8
DEFPOINTS
 62
     0
 10
-2139.9142715201351
 20
781.03013774616443
 30
0.0
  0
POINT
  5
8A47
  8
DEFPOINTS
 62
     0
 10
-2239.3805561714089
 20
781.03013774616443
 30
0.0
  0
ENDBLK
  5
6F36
  8
0
  0
BLOCK
  8
0
  2
*D20
 70
     1
 10
0.0
 20
0.0
 30
0.0
  3
*D20
  1

  0
LINE
  5
8A48
  8
SP
 10
-2089.914271520136
 20
833.03013774616602
 30
0.0
 11
-2249.3805561714089
 21
833.03013774616602
 31
0.0
  0
LINE
  5
8A49
  8
SP
 10
-2149.9142715201328
 20
811.03013774616511
 30
0.0
 11
-2249.3805561714089
 21
811.03013774616511
 31
0.0
  0
LINE
  5
8A4A
  8
SP
 10
-2239.3805561714089
 20
833.03013774616602
 30
0.0
 11
-2239.3805561714089
 21
811.03013774616511
 31
0.0
  0
TEXT
  8
0
  40
30
  5
8A50
  72
0
  71
0
 10
-2324.38
 20
768.930
 30
0.000000
  1
（22）
  0
POINT
  5
8A4C
  8
DEFPOINTS
 62
     0
 10
-2079.914271520136
 20
833.03013774616602
 30
0.0
  0
POINT
  5
8A4D
  8
DEFPOINTS
 62
     0
 10
-2139.9142715201342
 20
811.03013774616511
 30
0.0
  0
POINT
  5
8A4E
  8
DEFPOINTS
 62
     0
 10
-2239.3805561714089
 20
811.03013774616511
 30
0.0
  0
ENDBLK
  5
6F50
  8
0
  0
BLOCK
  8
0
  2
_NONE
 70
     0
 10
0.0
 20
0.0
 30
0.0
  3
_NONE
  1

  0
ENDBLK
  5
6F53
  8
0
  0
BLOCK
  8
0
  2
L-30-3
 70
     0
 10
0.0
 20
0.0
 30
0.0
  3
L-30-3
  1

  0
LINE
  5
7501
  8
0
 10
115.2488417492448
 20
98.116970357453638
 30
0.0
 11
145.2488417492448
 21
98.116970357453638
 31
0.0
  0
LINE
  5
7502
  8
0
 10
115.2488417492448
 20
98.116970357453638
 30
0.0
 11
115.2488417492448
 21
128.1169703574536
 31
0.0
  0
LINE
  5
7503
  8
0
 10
145.2488417492448
 20
98.116970357453638
 30
0.0
 11
145.2488417492448
 21
99.116970357453638
 31
0.0
  0
LINE
  5
7504
  8
0
 10
115.2488417492448
 20
128.1169703574536
 30
0.0
 11
116.2488417492448
 21
128.1169703574536
 31
0.0
  0
LINE
  5
7505
  8
0
 10
122.2488417492448
 20
101.1169703574536
 30
0.0
 11
143.2488417492448
 21
101.1169703574536
 31
0.0
  0
LINE
  5
7506
  8
0
 10
118.2488417492448
 20
105.1169703574536
 30
0.0
 11
118.2488417492448
 21
126.1169703574536
 31
0.0
  0
ARC
  5
7507
  8
0
 10
143.2488417492448
 20
99.116970357453638
 30
0.0
 40
2.0
 50
0.0
 51
90.0
  0
ARC
  5
7508
  8
0
 10
116.2488417492448
 20
126.1169703574536
 30
0.0
 40
2.0
 50
0.0
 51
90.0
  0
ARC
  5
7509
  8
0
 10
122.2488417492448
 20
105.1169703574536
 30
0.0
 40
4.0
 50
180.0
 51
270.0
  0
ENDBLK
  5
750B
  8
0
  0
BLOCK
  8
0
  2
*D23
 70
     1
 10
0.0
 20
0.0
 30
0.0
  3
*D23
  1

  0
LINE
  5
8099
  8
SP
 10
-1629.914271520136
 20
2390.1217284884419
 30
0.0
 11
-1500.6811167034371
 21
2390.1217284884419
 31
0.0
  0
LINE
  5
809A
  8
SP
 10
-1629.914271520136
 20
1840.121728488441
 30
0.0
 11
-1500.6811167034371
 21
1840.121728488441
 31
0.0
  0
LINE
  5
809B
  8
SP
 10
-1510.6811167034371
 20
2365.1217284884419
 30
0.0
 11
-1510.6811167034371
 21
1865.121728488441
 31
0.0
  0
INSERT
  5
809C
  8
SP
  2
_OPEN
 10
-1510.6811167034371
 20
2390.1217284884419
 30
0.0
 41
25.0
 42
25.0
 43
25.0
 50
90.0
  0
INSERT
  5
809D
  8
SP
  2
_OPEN
 10
-1510.6811167034371
 20
1840.121728488441
 30
0.0
 41
25.0
 42
25.0
 43
25.0
 50
270.0
  0
TEXT
  5
809E
  8
SP
 10
-1520.6811167034371
 20
2073.2453477448321
 30
0.0
 40
30.0
  1
550
 50
90.0
 51
15.0
  0
POINT
  5
809F
  8
DEFPOINTS
 62
     0
 10
-1639.914271520136
 20
2390.1217284884419
 30
0.0
  0
POINT
  5
80A0
  8
DEFPOINTS
 62
     0
 10
-1639.914271520136
 20
1840.121728488441
 30
0.0
  0
POINT
  5
80A1
  8
DEFPOINTS
 62
     0
 10
-1510.6811167034371
 20
1840.121728488441
 30
0.0
  0
ENDBLK
  5
7FF5
  8
0
  0
BLOCK
  8
0
  2
*D24
 70
     1
 10
0.0
 20
0.0
 30
0.0
  3
*D24
  1

  0
LINE
  5
80A2
  8
SP
 10
-1639.914271520136
 20
1830.121728488441
 30
0.0
 11
-1639.914271520136
 21
1711.3733872148271
 31
0.0
  0
LINE
  5
80A3
  8
SP
 10
-2139.9142715201369
 20
1830.121728488444
 30
0.0
 11
-2139.9142715201369
 21
1711.3733872148271
 31
0.0
  0
LINE
  5
80A4
  8
SP
 10
-1664.914271520136
 20
1721.3733872148259
 30
0.0
 11
-2114.9142715201369
 21
1721.3733872148259
 31
0.0
  0
INSERT
  5
80A5
  8
SP
  2
_OPEN
 10
-1639.914271520136
 20
1721.3733872148259
 30
0.0
 41
25.0
 42
25.0
 43
25.0
  0
INSERT
  5
80A6
  8
SP
  2
_OPEN
 10
-2139.9142715201369
 20
1721.3733872148259
 30
0.0
 41
25.0
 42
25.0
 43
25.0
 50
180.0
  0
TEXT
  5
80A7
  8
SP
 10
-1931.7906522637461
 20
1731.3733872148259
 30
0.0
 40
30.0
  1
500
 51
15.0
  0
POINT
  5
80A8
  8
DEFPOINTS
 62
     0
 10
-1639.914271520136
 20
1840.121728488441
 30
0.0
  0
POINT
  5
80A9
  8
DEFPOINTS
 62
     0
 10
-2139.9142715201369
 20
1840.1217284884431
 30
0.0
  0
POINT
  5
80AA
  8
DEFPOINTS
 62
     0
 10
-2139.9142715201369
 20
1721.3733872148259
 30
0.0
  0
ENDBLK
  5
8001
  8
0
  0
BLOCK
  8
0
  2
*D25
 70
     1
 10
0.0
 20
0.0
 30
0.0
  3
*D25
  1

  0
LINE
  5
843C
  8
SP
 10
-2139.914271520136
 20
744.19882634040891
 30
0.0
 11
-2139.914271520136
 21
631.03013774616716
 31
0.0
  0
LINE
  5
843D
  8
SP
 10
-1639.914271520136
 20
744.19882634041164
 30
0.0
 11
-1639.914271520136
 21
631.03013774616716
 31
0.0
  0
LINE
  5
843E
  8
SP
 10
-2114.914271520136
 20
641.03013774616716
 30
0.0
 11
-1664.914271520136
 21
641.03013774616716
 31
0.0
  0
INSERT
  5
843F
  8
SP
  2
_OPEN
 10
-2139.914271520136
 20
641.03013774616716
 30
0.0
 41
25.0
 42
25.0
 43
25.0
 50
180.0
  0
INSERT
  5
8440
  8
SP
  2
_OPEN
 10
-1639.914271520136
 20
641.03013774616716
 30
0.0
 41
25.0
 42
25.0
 43
25.0
  0
TEXT
  5
8441
  8
SP
 10
-1931.790652263745
 20
651.03013774616716
 30
0.0
 40
30.0
  1
500
 51
15.0
  0
POINT
  5
8442
  8
DEFPOINTS
 62
     0
 10
-2139.914271520136
 20
754.19882634040891
 30
0.0
  0
POINT
  5
8443
  8
DEFPOINTS
 62
     0
 10
-1639.914271520136
 20
754.19882634041164
 30
0.0
  0
POINT
  5
8444
  8
DEFPOINTS
 62
     0
 10
-1639.914271520136
 20
641.03013774616716
 30
0.0
  0
ENDBLK
  5
837D
  8
0
  0
BLOCK
  8
0
  2
*D26
 70
     1
 10
0.0
 20
0.0
 30
0.0
  3
*D26
  1

  0
LINE
  5
8433
  8
SP
 10
-2139.914271520136
 20
771.03013774616443
 30
0.0
 11
-2139.914271520136
 21
701.03013774616579
 31
0.0
  0
LINE
  5
8434
  8
SP
 10
-1889.914271520136
 20
744.90508321591915
 30
0.0
 11
-1889.914271520136
 21
701.03013774616579
 31
0.0
  0
LINE
  5
8435
  8
SP
 10
-2114.914271520136
 20
711.03013774616579
 30
0.0
 11
-1914.914271520136
 21
711.03013774616579
 31
0.0
  0
INSERT
  5
8436
  8
SP
  2
_OPEN
 10
-2139.914271520136
 20
711.03013774616579
 30
0.0
 41
25.0
 42
25.0
 43
25.0
 50
180.0
  0
INSERT
  5
8437
  8
SP
  2
_OPEN
 10
-1889.914271520136
 20
711.03013774616579
 30
0.0
 41
25.0
 42
25.0
 43
25.0
  0
TEXT
  5
8438
  8
SP
 10
-2056.0250831425128
 20
721.03013774616568
 30
0.0
 40
30.0
  1
250
 51
15.0
  0
POINT
  5
8439
  8
DEFPOINTS
 62
     0
 10
-2139.914271520136
 20
781.03013774616443
 30
0.0
  0
POINT
  5
843A
  8
DEFPOINTS
 62
     0
 10
-1889.914271520136
 20
754.90508321591915
 30
0.0
  0
POINT
  5
843B
  8
DEFPOINTS
 62
     0
 10
-1889.914271520136
 20
711.03013774616579
 30
0.0
  0
ENDBLK
  5
8389
  8
0
  0
BLOCK
  8
0
  2
*D27
 70
     1
 10
0.0
 20
0.0
 30
0.0
  3
*D27
  1

  0
LINE
  5
842A
  8
SP
 10
-1889.914271520136
 20
744.90508321591915
 30
0.0
 11
-1889.914271520136
 21
701.03013774616852
 31
0.0
  0
LINE
  5
842B
  8
SP
 10
-1639.914271520136
 20
771.03013774616716
 30
0.0
 11
-1639.914271520136
 21
701.03013774616852
 31
0.0
  0
LINE
  5
842C
  8
SP
 10
-1864.914271520136
 20
711.03013774616852
 30
0.0
 11
-1664.914271520136
 21
711.03013774616852
 31
0.0
  0
INSERT
  5
842D
  8
SP
  2
_OPEN
 10
-1889.914271520136
 20
711.03013774616852
 30
0.0
 41
25.0
 42
25.0
 43
25.0
 50
180.0
  0
INSERT
  5
842E
  8
SP
  2
_OPEN
 10
-1639.914271520136
 20
711.03013774616852
 30
0.0
 41
25.0
 42
25.0
 43
25.0
  0
TEXT
  5
842F
  8
SP
 10
-1806.0250831425139
 20
721.03013774616852
 30
0.0
 40
30.0
  1
250
 51
15.0
  0
POINT
  5
8430
  8
DEFPOINTS
 62
     0
 10
-1889.914271520136
 20
754.90508321591915
 30
0.0
  0
POINT
  5
8431
  8
DEFPOINTS
 62
     0
 10
-1639.914271520136
 20
781.03013774616716
 30
0.0
  0
POINT
  5
8432
  8
DEFPOINTS
 62
     0
 10
-1639.914271520136
 20
711.03013774616852
 30
0.0
  0
ENDBLK
  5
8395
  8
0
  0
BLOCK
  8
0
  2
*D28
 70
     1
 10
0.0
 20
0.0
 30
0.0
  3
*D28
  1

  0
LINE
  5
8460
  8
SP
 10
-1381.9142715201369
 20
774.19882634040914
 30
0.0
 11
-1381.9142715201369
 21
631.03013774616716
 31
0.0
  0
LINE
  5
8461
  8
SP
 10
-831.91427152013478
 20
801.03013774616738
 30
0.0
 11
-831.91427152013478
 21
631.03013774616716
 31
0.0
  0
LINE
  5
8462
  8
SP
 10
-1356.914271520136
 20
641.03013774616716
 30
0.0
 11
-856.91427152013478
 21
641.03013774616716
 31
0.0
  0
INSERT
  5
8463
  8
SP
  2
_OPEN
 10
-1381.9142715201369
 20
641.03013774616716
 30
0.0
 41
25.0
 42
25.0
 43
25.0
 50
180.0
  0
INSERT
  5
8464
  8
SP
  2
_OPEN
 10
-831.91427152013478
 20
641.03013774616716
 30
0.0
 41
25.0
 42
25.0
 43
25.0
  0
TEXT
  5
8465
  8
SP
 10
-1148.790652263745
 20
651.03013774616716
 30
0.0
 40
30.0
  1
550
 51
15.0
  0
POINT
  5
8466
  8
DEFPOINTS
 62
     0
 10
-1381.9142715201369
 20
784.19882634040914
 30
0.0
  0
POINT
  5
8467
  8
DEFPOINTS
 62
     0
 10
-831.91427152013478
 20
811.0301377461675
 30
0.0
  0
POINT
  5
8468
  8
DEFPOINTS
 62
     0
 10
-831.91427152013478
 20
641.03013774616716
 30
0.0
  0
ENDBLK
  5
83A1
  8
0
  0
BLOCK
  8
0
  2
*D29
 70
     1
 10
0.0
 20
0.0
 30
0.0
  3
*D29
  1

  0
LINE
  5
8469
  8
SP
 10
-1039.914271520136
 20
827.00327254600597
 30
0.0
 11
-1039.914271520136
 21
701.03013774616716
 31
0.0
  0
LINE
  5
846A
  8
SP
 10
-1381.9142715201369
 20
801.03013774616466
 30
0.0
 11
-1381.9142715201369
 21
701.03013774616716
 31
0.0
  0
LINE
  5
846B
  8
SP
 10
-1064.914271520136
 20
711.03013774616716
 30
0.0
 11
-1356.914271520136
 21
711.03013774616716
 31
0.0
  0
INSERT
  5
846C
  8
SP
  2
_OPEN
 10
-1039.914271520136
 20
711.03013774616716
 30
0.0
 41
25.0
 42
25.0
 43
25.0
  0
INSERT
  5
846D
  8
SP
  2
_OPEN
 10
-1381.9142715201369
 20
711.03013774616716
 30
0.0
 41
25.0
 42
25.0
 43
25.0
 50
180.0
  0
TEXT
  5
846E
  8
SP
 10
-1252.7906522637461
 20
721.03013774616716
 30
0.0
 40
30.0
  1
342
 51
15.0
  0
POINT
  5
846F
  8
DEFPOINTS
 62
     0
 10
-1039.914271520136
 20
837.00327254600597
 30
0.0
  0
POINT
  5
8470
  8
DEFPOINTS
 62
     0
 10
-1381.9142715201369
 20
811.03013774616466
 30
0.0
  0
POINT
  5
8471
  8
DEFPOINTS
 62
     0
 10
-1381.9142715201369
 20
711.03013774616716
 30
0.0
  0
ENDBLK
  5
83AD
  8
0
  0
BLOCK
  8
0
  2
*D30
 70
     1
 10
0.0
 20
0.0
 30
0.0
  3
*D30
  1

  0
LINE
  5
8472
  8
SP
 10
-1039.914271520136
 20
827.00327254600597
 30
0.0
 11
-1039.914271520136
 21
701.03013774616716
 31
0.0
  0
LINE
  5
8473
  8
SP
 10
-831.91427152013478
 20
801.03013774616738
 30
0.0
 11
-831.91427152013478
 21
701.03013774616716
 31
0.0
  0
LINE
  5
8474
  8
SP
 10
-1014.914271520136
 20
711.03013774616716
 30
0.0
 11
-856.91427152013478
 21
711.03013774616716
 31
0.0
  0
INSERT
  5
8475
  8
SP
  2
_OPEN
 10
-1039.914271520136
 20
711.03013774616716
 30
0.0
 41
25.0
 42
25.0
 43
25.0
 50
180.0
  0
INSERT
  5
8476
  8
SP
  2
_OPEN
 10
-831.91427152013478
 20
711.03013774616716
 30
0.0
 41
25.0
 42
25.0
 43
25.0
  0
TEXT
  5
8477
  8
SP
 10
-977.21647542282119
 20
721.03013774616716
 30
0.0
 40
30.0
  1
208
 51
15.0
  0
POINT
  5
8478
  8
DEFPOINTS
 62
     0
 10
-1039.914271520136
 20
837.00327254600597
 30
0.0
  0
POINT
  5
8479
  8
DEFPOINTS
 62
     0
 10
-831.91427152013478
 20
811.0301377461675
 30
0.0
  0
POINT
  5
847A
  8
DEFPOINTS
 62
     0
 10
-831.91427152013478
 20
711.03013774616716
 30
0.0
  0
ENDBLK
  5
83B9
  8
0
  0
ENDSEC
  0
SECTION
  2
ENTITIES
  0
LINE
  5
2E2D
  8
4
 10
-510.87320926160049
 20
96.092404061039474
 30
0.0
 11
-2610.8732092616001
 21
96.092404061039474
 31
0.0
  0
LINE
  5
2E2E
  8
4
 10
-2610.8732092616001
 20
3046.0924040610389
 30
0.0
 11
-510.87320926160049
 21
3046.0924040610389
 31
0.0
  0
LINE
  5
2E37
  8
4
 10
-2610.8732092616001
 20
96.092404061039474
 30
0.0
 11
-2610.8732092616001
 21
3046.0924040610389
 31
0.0
  0
LINE
  5
2E42
  8
1
 10
-2022.614271520134
 20
983.03013774616784
 30
0.0
 11
-1757.2142715201369
 21
983.03013774616784
 31
0.0
  0
LINE
  5
2E43
  8
1
 10
-2047.6142715201349
 20
1008.030137746167
 30
0.0
 11
-1732.2142715201369
 21
1008.030137746167
 31
0.0
  0
LINE
  5
2E44
  8
1
 10
-1972.4142715201349
 20
1009.689255746167
 30
0.0
 11
-1807.4142415201361
 21
1009.689255746167
 31
0.0
  0
ARC
  5
2E45
  8
1
 10
-1889.914271520136
 20
1088.0301377461669
 30
0.0
 40
85.0
 50
236.73178133171069
 51
244.12446600000291
  0
ARC
  5
2E46
  8
1
 10
-1889.914271520136
 20
1088.0301377461669
 30
0.0
 40
85.0
 50
0.0
 51
244.12446600000291
  0
LINE
  5
2E47
  8
1
 10
-2079.914271520136
 20
833.03013774616602
 30
0.0
 11
-1699.914271520136
 21
833.03013774616784
 31
0.0
  0
CIRCLE
  5
2E4B
  8
2
 10
-1889.914271520136
 20
1088.0301377461669
 30
0.0
 40
136.0
  0
LINE
  5
2E4C
  8
2
 10
-2174.1007564974352
 20
1088.0301377461669
 30
0.0
 11
-1679.7666569467849
 21
1088.030137746166
 31
0.0
  0
LINE
  5
2E4D
  8
1
 10
-1949.914271520136
 20
1238.0301377461669
 30
0.0
 11
-1829.9142715201349
 21
1238.0301377461669
 31
0.0
  0
LINE
  5
2E50
  8
1
 10
-2047.6142715201349
 20
1154.1301377461659
 30
0.0
 11
-2047.6142715201349
 21
833.03013774616602
 31
0.0
  0
LINE
  5
2E51
  8
1
 10
-2049.914271520136
 20
1154.1301377461659
 30
0.0
 11
-2049.9142715201342
 21
835.33013774616882
 31
0.0
  0
LINE
  5
2E54
  8
1
 10
-2079.914271520136
 20
835.330137746167
 30
0.0
 11
-2049.9142715201342
 21
835.33013774616882
 31
0.0
  0
LINE
  5
2E55
  8
1
 10
-2079.914271520136
 20
833.03013774616602
 30
0.0
 11
-2079.9142715201369
 21
835.330137746167
 31
0.0
  0
LINE
  5
2E56
  8
2
 10
-2066.9142715201342
 20
800.11394772633275
 30
0.0
 11
-2066.9142715201342
 21
845.33013774616904
 31
0.0
  0
LINE
  5
2E58
  8
1
 10
-2022.614271520134
 20
983.03013774616784
 30
0.0
 11
-2022.614271520134
 21
884.03013774616784
 31
0.0
  0
LINE
  5
2E59
  8
1
 10
-2047.6142715201349
 20
884.03013774616784
 30
0.0
 11
-2022.6142715201361
 21
884.03013774616784
 31
0.0
  0
LINE
  5
2E5A
  8
CT
 10
-1947.000392574824
 20
950.21205007266735
 30
0.0
 11
-1936.4883070407921
 21
975.59046953774885
 31
0.0
  0
CIRCLE
  5
2E5B
  8
1
 10
-1941.9592183217881
 20
962.38252132463322
 30
0.0
 40
4.0
  0
LINE
  5
2E67
  8
CT
 10
-1947.000392574824
 20
1225.8482254196661
 30
0.0
 11
-1936.4883070407941
 21
1200.4698059545831
 31
0.0
  0
LINE
  5
2E68
  8
1
 10
-1949.914271520136
 20
1238.0301377461669
 30
0.0
 11
-2048.3142715201352
 21
1154.1301377461659
 31
0.0
  0
LINE
  5
2E69
  8
CT
 10
-2027.7323591936361
 20
1145.116258800854
 30
0.0
 11
-2002.3539397285531
 21
1134.604173266825
 31
0.0
  0
LINE
  5
2E6A
  8
CT
 10
-2027.7323591936361
 20
1030.9440166914781
 30
0.0
 11
-2002.3539397285531
 21
1041.4561022255091
 31
0.0
  0
CIRCLE
  5
2E6C
  8
1
 10
-2015.56188794167
 20
1035.9851909445149
 30
0.0
 40
4.0
  0
LINE
  5
2E6D
  8
1
 10
-2049.914271520136
 20
1154.1301377461659
 30
0.0
 11
-2048.3142715201352
 21
1154.1301377461659
 31
0.0
  0
CIRCLE
  5
2E6E
  8
1
 10
-2015.56188794167
 20
1140.0750845478201
 30
0.0
 40
4.0
  0
LINE
  5
2E6F
  8
1
 10
-1972.4142715201349
 20
1012.530137746167
 30
0.0
 11
-1942.279445520134
 21
1012.530137746167
 31
0.0
  0
LINE
  5
2E70
  8
1
 10
-1972.4142715201349
 20
1009.689255746167
 30
0.0
 11
-1972.4142715201349
 21
1012.530137746167
 31
0.0
  0
LINE
  5
2E71
  8
CT
 10
-1952.414271520136
 20
1005.811551746167
 30
0.0
 11
-1952.414271520136
 21
1014.3985587461671
 31
0.0
  0
LINE
  5
2E72
  8
1
 10
-1967.4142715201349
 20
1009.689255746167
 30
0.0
 11
-1967.4142715201349
 21
1008.030137746167
 31
0.0
  0
LINE
  5
2E73
  8
1
 10
-1967.747432520134
 20
1012.524766746168
 30
0.0
 11
-1952.237439520135
 21
1030.2116337461671
 31
0.0
  0
LINE
  5
2E74
  8
1
 10
-1932.414271520136
 20
1009.689255746167
 30
0.0
 11
-1932.414271520136
 21
1008.030137746167
 31
0.0
  0
ARC
  5
2E75
  8
1
 10
-1942.279475520136
 20
1017.530137746167
 30
0.0
 40
5.0
 50
270.0
 51
324.46176099999911
  0
LINE
  5
2E76
  8
1
 10
-1936.538209520136
 20
1016.965659746167
 30
0.0
 11
-1938.2108115201349
 21
1014.623887746167
 31
0.0
  0
CIRCLE
  5
2E77
  8
1
 10
-1941.9592183217881
 20
1213.677754167702
 30
0.0
 40
4.0
  0
LINE
  5
2E7B
  8
1
 10
-1732.2142715201369
 20
1154.1301377461659
 30
0.0
 11
-1732.2142715201369
 21
833.03013774616602
 31
0.0
  0
LINE
  5
2E7C
  8
1
 10
-1729.914271520136
 20
1154.1301377461659
 30
0.0
 11
-1729.914271520136
 21
835.330137746167
 31
0.0
  0
LINE
  5
2E7D
  8
2
 10
-1889.914271520136
 20
754.90508321591915
 30
0.0
 11
-1889.914271520136
 21
1297.8065568904931
 31
0.0
  0
LINE
  5
2E7F
  8
CT
 10
-1832.8281504654481
 20
950.21205007266735
 30
0.0
 11
-1843.340235999478
 21
975.59046953774885
 31
0.0
  0
CIRCLE
  5
2E80
  8
1
 10
-1837.8693247184831
 20
962.38252132463322
 30
0.0
 40
4.0
  0
LINE
  5
2E81
  8
1
 10
-1729.914271520136
 20
835.33013774616882
 30
0.0
 11
-1699.914271520136
 21
835.330137746167
 31
0.0
  0
LINE
  5
2E82
  8
2
 10
-1712.9142715201369
 20
801.18642009558016
 30
0.0
 11
-1712.914271520136
 21
845.330137746167
 31
0.0
  0
LINE
  5
2E83
  8
1
 10
-1699.914271520136
 20
833.03013774616784
 30
0.0
 11
-1699.914271520136
 21
835.33013774616882
 31
0.0
  0
LINE
  5
2E85
  8
1
 10
-1757.2142715201389
 20
983.03013774616784
 30
0.0
 11
-1757.2142715201389
 21
884.03013774616784
 31
0.0
  0
LINE
  5
2E86
  8
1
 10
-1757.2142715201389
 20
884.03013774616784
 30
0.0
 11
-1732.2142715201369
 21
884.03013774616784
 31
0.0
  0
LINE
  5
2E89
  8
CT
 10
-1752.0961838466351
 20
1145.116258800854
 30
0.0
 11
-1777.474603311719
 21
1134.604173266825
 31
0.0
  0
LINE
  5
2E8A
  8
CT
 10
-1752.0961838466351
 20
1030.944016691479
 30
0.0
 11
-1777.474603311719
 21
1041.4561022255091
 31
0.0
  0
CIRCLE
  5
2E8B
  8
1
 10
-1764.2666550986009
 20
1035.9851909445149
 30
0.0
 40
4.0
  0
CIRCLE
  5
2E8C
  8
1
 10
-1764.2666550986009
 20
1140.0750845478201
 30
0.0
 40
4.0
  0
LINE
  5
2E8D
  8
1
 10
-1829.9142715201349
 20
1238.0301377461669
 30
0.0
 11
-1731.5142715201359
 21
1154.1301377461659
 31
0.0
  0
LINE
  5
2E90
  8
CT
 10
-1832.8281504654481
 20
1225.8482254196661
 30
0.0
 11
-1843.3402359994791
 21
1200.469805954584
 31
0.0
  0
ARC
  5
2E91
  8
1
 10
-1889.914271520136
 20
1088.0301377461669
 30
0.0
 40
85.000007999999994
 50
295.9177260000003
 51
0.0
  0
LINE
  5
2E92
  8
1
 10
-1927.0097705201349
 20
1011.579209746167
 30
0.0
 11
-1852.762462520137
 21
1011.579209746167
 31
0.0
  0
LINE
  5
2E93
  8
1
 10
-1847.4142715201349
 20
1009.689255746167
 30
0.0
 11
-1847.4142715201349
 21
1008.030137746167
 31
0.0
  0
LINE
  5
2E94
  8
1
 10
-1807.4142415201361
 20
1012.530137746167
 30
0.0
 11
-1837.5490675201361
 21
1012.530137746167
 31
0.0
  0
LINE
  5
2E95
  8
1
 10
-1812.079903520136
 20
1012.523313746167
 30
0.0
 11
-1827.5929635201369
 21
1030.213775746168
 31
0.0
  0
LINE
  5
2E96
  8
CT
 10
-1827.414271520136
 20
1005.811551746167
 30
0.0
 11
-1827.414271520136
 21
1014.3985587461671
 31
0.0
  0
LINE
  5
2E97
  8
1
 10
-1842.4060015201351
 20
1015.727524746168
 30
0.0
 11
-1841.617732520137
 21
1014.623887746167
 31
0.0
  0
LINE
  5
2E98
  8
1
 10
-1843.2827205201349
 20
1016.954999746167
 30
0.0
 11
-1841.617732520137
 21
1014.623887746167
 31
0.0
  0
ARC
  5
2E99
  8
1
 10
-1837.5490675201361
 20
1017.530137746167
 30
0.0
 40
5.000032
 50
215.53825399999789
 51
270.0
  0
LINE
  5
2E9A
  8
1
 10
-1807.4142415201361
 20
1012.530137746167
 30
0.0
 11
-1807.4142415201361
 21
1009.689255746167
 31
0.0
  0
LINE
  5
2E9B
  8
1
 10
-1812.414271520136
 20
1009.689255746167
 30
0.0
 11
-1812.414271520136
 21
1008.030137746167
 31
0.0
  0
CIRCLE
  5
2E9C
  8
1
 10
-1837.8693247184831
 20
1213.677754167702
 30
0.0
 40
4.0
  0
LINE
  5
2EAB
  8
1
 10
-1731.5142715201359
 20
1154.1301377461659
 30
0.0
 11
-1729.914271520136
 21
1154.1301377461659
 31
0.0
  0
LINE
  5
2F3D
  8
4
 10
-510.87320926160049
 20
3046.0924040610389
 30
0.0
 11
-510.87320926160049
 21
96.092404061039474
 31
0.0
  0
LINE
  5
2F44
  8
1
 10
-1150.914271520136
 20
1287.0301377461669
 30
0.0
 11
-928.91427152013614
 21
1287.0301377461669
 31
0.0
  0
LINE
  5
2F45
  8
1
 10
-951.91427152013785
 20
1286.030137746166
 30
0.0
 11
-969.91427152013785
 21
1268.030137746166
 31
0.0
  0
LINE
  5
2F46
  8
1
 10
-1118.914271520136
 20
880.03013774616704
 30
0.0
 11
-960.91427152013591
 21
880.03013774616704
 31
0.0
  0
LINE
  5
2F47
  8
1
 10
-1150.914271520134
 20
1288.0301377461669
 30
0.0
 11
-928.91427152013614
 21
1288.0301377461651
 31
0.0
  0
LINE
  5
2F48
  8
1
 10
-1118.914271520136
 20
879.03013774616704
 30
0.0
 11
-960.91427152013591
 21
879.03013774616704
 31
0.0
  0
LINE
  5
2F49
  8
2
 10
-1408.0027161480371
 20
1088.030137746166
 30
0.0
 11
-926.39768282589091
 21
1088.030137746166
 31
0.0
  0
LINE
  5
2F4F
  8
1
 10
-1238.2635824445019
 20
1010.030137746166
 30
0.0
 11
-1323.7142715201351
 21
1010.030137746166
 31
0.0
  0
LINE
  5
2F50
  8
1
 10
-1347.914271520136
 20
1008.030137746168
 30
0.0
 11
-1239.4158513520649
 21
1008.03013774617
 31
0.0
  0
LINE
  5
2F51
  8
1
 10
-1338.914271520134
 20
835.3301377461662
 30
0.0
 11
-1167.5142715201339
 21
1132.830137746166
 31
0.0
  0
LINE
  5
2F52
  8
1
 10
-1338.914271520136
 20
835.3301377461662
 30
0.0
 11
-1141.2142715201351
 21
835.33013774616438
 31
0.0
  0
LINE
  5
2F53
  8
1
 10
-1338.914271520136
 20
833.03013774616693
 30
0.0
 11
-1108.914271520136
 21
833.03013774616693
 31
0.0
  0
LINE
  5
2F54
  8
1
 10
-1317.7142715201351
 20
1162.8301257461669
 30
0.0
 11
-1196.2142715201351
 21
1162.8301257461669
 31
0.0
  0
LINE
  5
2F55
  8
1
 10
-1236.8232463100501
 20
1012.530137746167
 30
0.0
 11
-1323.7142715201351
 21
1012.530137746167
 31
0.0
  0
LINE
  5
2F56
  8
1
 10
-1289.586219520135
 20
1020.361558746167
 30
0.0
 11
-1317.7142715201351
 21
1020.361558746167
 31
0.0
  0
LINE
  5
2F57
  8
1
 10
-1347.914271520136
 20
1008.030137746166
 30
0.0
 11
-1347.914271520136
 21
956.03013774617045
 31
0.0
  0
LINE
  5
2F62
  8
1
 10
-1338.914271520134
 20
835.3301377461662
 30
0.0
 11
-1338.914271520136
 21
833.03013774616693
 31
0.0
  0
LINE
  5
2F64
  8
1
 10
-1347.914271520136
 20
956.03013774616875
 30
0.0
 11
-1314.6142715201361
 21
884.03013774616511
 31
0.0
  0
LINE
  5
2F65
  8
1
 10
-1314.6142715201379
 20
884.03013774616863
 30
0.0
 11
-1310.856523620972
 21
884.03013774616863
 31
0.0
  0
LINE
  5
2F66
  8
1
 10
-1390.5167615201351
 20
1162.276658746167
 30
0.0
 11
-1358.5126105201359
 21
1168.8657707461671
 31
0.0
  0
LINE
  5
2F67
  8
1
 10
-1357.7142715201351
 20
1011.030137746167
 30
0.0
 11
-1390.3461075201351
 21
1013.9094107461671
 31
0.0
  0
LINE
  5
2F68
  8
1
 10
-1391.7142715201351
 20
1160.807481746167
 30
0.0
 11
-1391.7142715201351
 21
1015.403612746167
 31
0.0
  0
ARC
  5
2F69
  8
1
 10
-1390.2142715201351
 20
1015.403612746167
 30
0.0
 40
1.4999849999999999
 50
180.0
 51
264.95834399999262
  0
ARC
  5
2F6A
  8
1
 10
-1390.2142715201351
 20
1160.807481746167
 30
0.0
 40
1.499994
 50
101.6341019999993
 51
180.0
  0
LINE
  5
2F6B
  8
1
 10
-1317.7142715201351
 20
1047.2865841944631
 30
0.0
 11
-1317.7142715201351
 21
1173.030137746166
 31
0.0
  0
LINE
  5
2F6C
  8
1
 10
-1357.7142715201351
 20
1011.030137746167
 30
0.0
 11
-1357.7142715201351
 21
1171.530137746166
 31
0.0
  0
LINE
  5
2F6D
  8
1
 10
-1335.771399520135
 20
1010.030137746166
 30
0.0
 11
-1356.7142715201351
 21
1010.030137746166
 31
0.0
  0
ARC
  5
2F6E
  8
1
 10
-1356.7142715201351
 20
1011.030137746167
 30
0.0
 40
1.000030999999999
 50
180.0
 51
269.99826000000689
  0
LINE
  5
2F6F
  8
1
 10
-1335.771399520135
 20
1037.946702746166
 30
0.0
 11
-1317.7142395201349
 21
1047.286600746166
 31
0.0
  0
LINE
  5
2F70
  8
1
 10
-1324.037513520135
 20
1013.230089746167
 30
0.0
 11
-1323.7272715201359
 21
1013.230089746167
 31
0.0
  0
LINE
  5
2F71
  8
1
 10
-1323.7142715201351
 20
1010.030137746166
 30
0.0
 11
-1323.7142715201351
 21
1014.361558746167
 31
0.0
  0
LINE
  5
2F72
  8
1
 10
-1335.771399520135
 20
1013.230150746166
 30
0.0
 11
-1323.7272715201359
 21
1013.230150746166
 31
0.0
  0
ARC
  5
2F73
  8
1
 10
-1317.7142715201351
 20
1014.361558746167
 30
0.0
 40
6.0
 50
90.0
 51
180.0
  0
LINE
  5
2F74
  8
1
 10
-1318.7142715201351
 20
1010.030137746166
 30
0.0
 11
-1318.7142715201351
 21
1008.030137746166
 31
0.0
  0
LINE
  5
2F75
  8
1
 10
-1321.2142715201351
 20
1045.4762427461669
 30
0.0
 11
-1321.2142715201351
 21
1019.234955746167
 31
0.0
  0
LINE
  5
2F76
  8
1
 10
-1335.771399520135
 20
1037.946702746166
 30
0.0
 11
-1335.771399520135
 21
1010.026536746166
 31
0.0
  0
LINE
  5
2F77
  8
CT
 10
-1308.7142715201351
 20
1016.242051746166
 30
0.0
 11
-1308.7142715201351
 21
1000.730137746165
 31
0.0
  0
LINE
  5
2F78
  8
1
 10
-1356.2142715201351
 20
1173.030137746166
 30
0.0
 11
-1317.7142715201351
 21
1173.030137746166
 31
0.0
  0
ARC
  5
2F79
  8
1
 10
-1358.714210520136
 20
1169.845140746166
 30
0.0
 40
0.999898
 50
281.62991300000863
 51
0.0034970000000449
  0
ARC
  5
2F7A
  8
1
 10
-1356.2142715201351
 20
1171.530137746166
 30
0.0
 40
1.4999849999999999
 50
89.999419999993705
 51
180.0
  0
LINE
  5
2F7B
  8
1
 10
-1141.2142715201369
 20
1238.0301377461651
 30
0.0
 11
-1141.2142715201351
 21
835.33013774616438
 31
0.0
  0
LINE
  5
2F7C
  8
1
 10
-1129.914271520136
 20
891.03013774616693
 30
0.0
 11
-1129.914271520136
 21
1088.030137746166
 31
0.0
  0
LINE
  5
2F7D
  8
1
 10
-1130.914271520136
 20
1078.030137746166
 30
0.0
 11
-1130.914271520136
 21
938.03013774616704
 31
0.0
  0
LINE
  5
2F7E
  8
1
 10
-1138.914271520136
 20
1238.0301377461669
 30
0.0
 11
-1138.914271520136
 21
833.03013774616693
 31
0.0
  0
LINE
  5
2F7F
  8
1
 10
-1130.914271520136
 20
891.03013774616693
 30
0.0
 11
-1130.914271520136
 21
1088.030137746166
 31
0.0
  0
LINE
  5
2F80
  8
2
 10
-1039.914271520136
 20
1340.2415637339091
 30
0.0
 11
-1039.914271520136
 21
832.47319462932489
 31
0.0
  0
LINE
  5
2F81
  8
1
 10
-1138.914271520136
 20
835.33013774616438
 30
0.0
 11
-1108.914271520136
 21
835.3301377461662
 31
0.0
  0
ARC
  5
2F82
  8
1
 10
-1118.914271520136
 20
891.03013774616693
 30
0.0
 40
12.0
 50
180.0
 51
270.0
  0
LINE
  5
2F87
  8
1
 10
-1108.914271520136
 20
835.33013774616438
 30
0.0
 11
-1108.914271520136
 21
833.03013774616693
 31
0.0
  0
LINE
  5
2F88
  8
1
 10
-1130.914271520136
 20
938.03013774616704
 30
0.0
 11
-1130.914271520136
 21
891.03013774616693
 31
0.0
  0
ARC
  5
2F89
  8
1
 10
-1118.914271520136
 20
891.03013774616693
 30
0.0
 40
11.0
 50
180.0
 51
270.0
  0
LINE
  5
2F8E
  8
2
 10
-1258.7142715201351
 20
1168.314012746167
 30
0.0
 11
-1258.7142715201351
 21
1004.014024746167
 31
0.0
  0
LINE
  5
2F8F
  8
1
 10
-1258.7142715201351
 20
1031.1876087461669
 30
0.0
 11
-1235.761085520136
 21
1031.1876087461669
 31
0.0
  0
LINE
  5
2F90
  8
1
 10
-1258.7142715201351
 20
1031.1876087461669
 30
0.0
 11
-1281.6674575201359
 21
1031.1876087461669
 31
0.0
  0
LINE
  5
2F91
  8
1
 10
-1258.7142715201351
 20
1010.030137746166
 30
0.0
 11
-1292.7142715201351
 21
1010.030137746166
 31
0.0
  0
ARC
  5
2F92
  8
1
 10
-1281.667273520135
 20
1025.187486746167
 30
0.0
 40
6.0001220000000002
 50
90.001167000002894
 51
161.67526200000361
  0
ARC
  5
2F93
  8
1
 10
-1295.7909925201359
 20
1017.530137746166
 30
0.0
 40
5.0
 50
270.0
 51
341.67651400000278
  0
LINE
  5
2F94
  8
1
 10
-1288.7142715201351
 20
1010.030137746166
 30
0.0
 11
-1288.7142715201351
 21
1008.030137746166
 31
0.0
  0
LINE
  5
2F95
  8
1
 10
-1287.363257520135
 20
1027.073961746167
 30
0.0
 11
-1291.0444715201349
 21
1015.958238746166
 31
0.0
  0
ARC
  5
2F96
  8
1
 10
-1235.7611465201351
 20
1025.187486746167
 30
0.0
 40
6.0001939999999996
 50
18.324733999998731
 51
89.99883299999712
  0
LINE
  5
2F97
  8
1
 10
-1230.0652845201359
 20
1027.073961746167
 30
0.0
 11
-1229.4735243023979
 21
1025.287093972981
 31
0.0
  0
LINE
  5
2F98
  8
1
 10
-1196.2142715201351
 20
1163.530137746166
 30
0.0
 11
-1196.214271520133
 21
1083.015376952698
 31
0.0
  0
ARC
  5
2F99
  8
1
 10
-1175.7142715201351
 20
1161.5301377461669
 30
0.0
 40
2.0
 50
0.0
 51
90.0
  0
LINE
  5
2F9A
  8
1
 10
-1196.2142715201351
 20
1163.530137746166
 30
0.0
 11
-1175.7142715201351
 21
1163.530137746166
 31
0.0
  0
LINE
  5
2F9B
  8
1
 10
-1173.7142715201351
 20
1122.068760850015
 30
0.0
 11
-1173.7142715201351
 21
1161.5301377461669
 31
0.0
  0
LINE
  5
2F9C
  8
1
 10
-1173.7142715201351
 20
1160.845140746166
 30
0.0
 11
-1173.7142715201351
 21
1152.2151357461671
 31
0.0
  0
LINE
  5
2F9D
  8
1
 10
-1173.7142715201351
 20
1152.095933746167
 30
0.0
 11
-1173.7142715201351
 21
1161.095933746167
 31
0.0
  0
LINE
  5
2F9E
  8
1
 10
-1167.5142715201339
 20
1132.830137746166
 30
0.0
 11
-1141.2142715201369
 21
1154.130137746165
 31
0.0
  0
LINE
  5
2F9F
  8
1
 10
-1141.2142715201369
 20
1238.0301377461669
 30
0.0
 11
-1138.914271520136
 21
1238.0301377461669
 31
0.0
  0
LINE
  5
2FA5
  8
1
 10
-1150.914271520136
 20
1288.0301377461669
 30
0.0
 11
-1150.914271520134
 21
1287.0301377461669
 31
0.0
  0
LINE
  5
2FA6
  8
1
 10
-1129.914271520134
 20
1288.0301377461669
 30
0.0
 11
-1129.914271520134
 21
1088.030137746166
 31
0.0
  0
LINE
  5
2FA7
  8
1
 10
-1130.914271520136
 20
1288.0301377461669
 30
0.0
 11
-1130.914271520136
 21
1088.030137746166
 31
0.0
  0
LINE
  5
2FA8
  8
1
 10
-1109.9142715201349
 20
1268.0301377461681
 30
0.0
 11
-969.91427152013591
 21
1268.0301377461681
 31
0.0
  0
LINE
  5
2FA9
  8
1
 10
-1127.914271520134
 20
1286.030137746166
 30
0.0
 11
-1109.914271520134
 21
1268.030137746166
 31
0.0
  0
LINE
  5
2FAA
  8
1
 10
-1129.914271520134
 20
1286.030137746166
 30
0.0
 11
-1127.914271520134
 21
1286.030137746166
 31
0.0
  0
LINE
  5
2FAE
  8
1
 10
-949.91427152013785
 20
1088.030137746166
 30
0.0
 11
-949.91427152013603
 21
891.03013774616693
 31
0.0
  0
LINE
  5
2FB1
  8
1
 10
-948.91427152013785
 20
1088.030137746166
 30
0.0
 11
-948.91427152013603
 21
891.03013774616693
 31
0.0
  0
LINE
  5
2FB2
  8
1
 10
-940.91427152013421
 20
1232.0301377461669
 30
0.0
 11
-940.91427152013603
 21
944.03013774616682
 31
0.0
  0
LINE
  5
2FB5
  8
1
 10
-948.91427152013603
 20
938.03013774616704
 30
0.0
 11
-948.91427152013603
 21
891.03013774616693
 31
0.0
  0
ARC
  5
2FB6
  8
1
 10
-960.91427152013591
 20
891.03013774616693
 30
0.0
 40
11.0
 50
270.0
 51
0.0
  0
ARC
  5
2FB7
  8
1
 10
-960.91427152013591
 20
891.03013774616693
 30
0.0
 40
12.0
 50
270.0
 51
0.0
  0
ARC
  5
2FB8
  8
1
 10
-945.91427152013614
 20
938.03013774616704
 30
0.0
 40
3.0
 50
90.0
 51
180.0
  0
ARC
  5
2FBA
  8
1
 10
-943.91427152013591
 20
944.03013774616682
 30
0.0
 40
3.0
 50
270.0
 51
0.0
  0
LINE
  5
2FBB
  8
1
 10
-945.91427152013614
 20
941.03013774616693
 30
0.0
 11
-943.91427152013591
 21
941.03013774616693
 31
0.0
  0
LINE
  5
2FC6
  8
1
 10
-948.91427152013603
 20
1238.0301377461669
 30
0.0
 11
-948.91427152013421
 21
1088.030137746166
 31
0.0
  0
LINE
  5
2FC7
  8
1
 10
-949.91427152013603
 20
1288.0301377461669
 30
0.0
 11
-949.91427152013603
 21
1088.030137746166
 31
0.0
  0
LINE
  5
2FCA
  8
1
 10
-948.91427152013785
 20
1288.0301377461651
 30
0.0
 11
-948.91427152013603
 21
1238.0301377461681
 31
0.0
  0
ARC
  5
2FCB
  8
1
 10
-945.91427152013614
 20
1238.0301377461669
 30
0.0
 40
3.0
 50
180.0
 51
270.0
  0
ARC
  5
2FCD
  8
1
 10
-943.91427152013591
 20
1232.0301377461669
 30
0.0
 40
3.0
 50
0.0
 51
90.0
  0
LINE
  5
2FCE
  8
1
 10
-945.91427152013614
 20
1235.030137746166
 30
0.0
 11
-943.91427152013591
 21
1235.030137746166
 31
0.0
  0
LINE
  5
2FD0
  8
1
 10
-949.91427152013785
 20
1286.030137746166
 30
0.0
 11
-951.91427152013785
 21
1286.030137746166
 31
0.0
  0
LINE
  5
2FD2
  8
1
 10
-928.91427152013614
 20
1288.0301377461669
 30
0.0
 11
-928.91427152013614
 21
1287.0301377461669
 31
0.0
  0
LINE
  5
2FDA
  8
4
 10
-510.87320926160049
 20
3046.0924040610389
 30
0.0
 11
-510.87320926160049
 21
3046.0924040610389
 31
0.0
  0
DIMENSION
  5
4FBB
  8
SP
  2
*D2
 10
-949.91427152013557
 20
1358.0301377461651
 30
0.0
 11
-1039.914271520134
 21
1383.0301377461651
 31
0.0
 70
     0
 13
-1129.9142715201331
 23
1288.0301377461669
 33
0.0
 14
-949.91427152013557
 24
1288.0301377461669
 34
0.0
  0
ARC
  5
4FDE
  8
1
 10
-1133.914271520136
 20
1238.0301377461669
 30
0.0
 40
3.0
 50
270.0
 51
0.000000000000007
  0
ARC
  5
4FDF
  8
1
 10
-1135.914271520136
 20
1232.0301377461669
 30
0.0
 40
3.0
 50
90.0
 51
180.0
  0
LINE
  5
4FE0
  8
1
 10
-1133.914271520136
 20
1235.030137746166
 30
0.0
 11
-1135.914271520136
 21
1235.030137746166
 31
0.0
  0
ARC
  5
4FE1
  8
1
 10
-1135.914271520136
 20
944.03013774616682
 30
0.0
 40
3.0
 50
180.0
 51
270.0
  0
LINE
  5
4FE2
  8
1
 10
-1133.914271520136
 20
941.03013774616693
 30
0.0
 11
-1135.914271520136
 21
941.03013774616693
 31
0.0
  0
ARC
  5
4FE3
  8
1
 10
-1133.914271520136
 20
938.03013774616704
 30
0.0
 40
3.0
 50
0.000000000000007
 51
90.0
  0
LINE
  5
4FE4
  8
1
 10
-1138.9142715201369
 20
1232.0301377461669
 30
0.0
 11
-1138.914271520136
 21
944.03013774616682
 31
0.0
  0
LINE
  5
4FE7
  8
FUTO
 10
-949.91427152013603
 20
963.03013774616704
 30
0.0
 11
-940.91427152013603
 21
963.03013774616704
 31
0.0
  0
LINE
  5
4FE8
  8
FUTO
 10
-949.91427152013603
 20
1213.0301377461669
 30
0.0
 11
-940.91427152013421
 21
1213.0301377461669
 31
0.0
  0
DIMENSION
  5
4FE9
  8
SP
  2
*D3
 10
-869.91427152013375
 20
963.03013774616704
 30
0.0
 11
-894.91427152013375
 21
1088.030137746166
 31
0.0
 70
     0
 13
-940.91427152013387
 23
1213.0301377461669
 33
0.0
 14
-940.91427152013387
 24
963.03013774616704
 34
0.0
 50
90.0
1001
ACAD
1000
DSTYLE
1002
{
1070
     3
1000
φ<>
1002
}
  0
DIMENSION
  5
4FFF
  8
SP
  2
*D4
 10
-940.91427152013546
 20
1428.0301377461651
 30
0.0
 11
-990.41427152013557
 21
1453.0301377461651
 31
0.0
 70
     0
 13
-1039.9142715201349
 23
1398.0301377461651
 33
0.0
 14
-940.91427152013546
 24
1232.0301377461669
 34
0.0
  0
DIMENSION
  5
5015
  8
SP
  2
*D5
 10
-1391.7142715201339
 20
1428.0301377461651
 30
0.0
 11
-1215.814271520135
 21
1453.0301377461651
 31
0.0
 70
     0
  1
（400）
 13
-1039.9142715201349
 23
1398.0301377461651
 33
0.0
 14
-1391.7142715201339
 24
1160.807481746167
 34
0.0
  0
LINE
  5
507D
  8
FUTO
 10
-2022.614271520134
 20
983.03013774616784
 30
0.0
 11
-2047.6142715201349
 21
1008.030137746167
 31
0.0
  0
LINE
  5
507E
  8
FUTO
 10
-1757.2142715201351
 20
983.03013774616784
 30
0.0
 11
-1732.2142715201369
 21
1008.030137746167
 31
0.0
  0
DIMENSION
  5
529A
  8
SP
  2
*D6
 10
-1889.9142715201349
 20
1358.030137746166
 30
0.0
 11
-2014.9142715201349
 21
1383.0301377461669
 31
0.0
 70
     0
 13
-2139.9142715201351
 23
1288.0301377461669
 33
0.0
 14
-1889.9142715201349
 24
1297.8065568904931
 34
0.0
  0
LINE
  5
5343
  8
FUTO
 10
-2120.914271520136
 20
1268.0301377461669
 30
0.0
 11
-1908.914271520136
 21
1268.0301377461669
 31
0.0
  0
LINE
  5
5344
  8
FUTO
 10
-2140.914271520136
 20
1287.0301377461669
 30
0.0
 11
-1888.9142715201349
 21
1287.0301377461669
 31
0.0
  0
LINE
  5
5345
  8
FUTO
 10
-2160.914271520136
 20
1288.0301377461681
 30
0.0
 11
-1868.914271520136
 21
1288.0301377461681
 31
0.0
  0
LINE
  5
5346
  8
FUTO
 10
-2150.8033301608011
 20
1268.0301377461669
 30
0.0
 11
-2140.8031758410029
 21
1268.0301377461669
 31
0.0
  0
LINE
  5
5348
  8
FUTO
 10
-2140.914271520136
 20
1286.0301377461681
 30
0.0
 11
-2138.9142715201351
 21
1286.0301377461681
 31
0.0
  0
LINE
  5
5349
  8
FUTO
 10
-2138.9142715201351
 20
1286.0301377461681
 30
0.0
 11
-2120.914271520136
 21
1268.0301377461669
 31
0.0
  0
LINE
  5
534A
  8
FUTO
 10
-2141.914271520136
 20
1287.0301377461669
 30
0.0
 11
-2141.914271520136
 21
1268.0301377461669
 31
0.0
  0
LINE
  5
534B
  8
FUTO
 10
-2140.914271520136
 20
1288.0301377461681
 30
0.0
 11
-2140.914271520136
 21
1268.0301377461669
 31
0.0
  0
LINE
  5
534C
  8
FUTO
 10
-2160.914271520136
 20
1288.0301377461681
 30
0.0
 11
-2160.914271520136
 21
1287.0301377461669
 31
0.0
  0
LINE
  5
534D
  8
FUTO
 10
-2160.914271520136
 20
1287.0301377461669
 30
0.0
 11
-2141.914271520136
 21
1287.0301377461669
 31
0.0
  0
ARC
  5
535A
  8
FUTO
 10
-1883.9824281098929
 20
1258.0301377461681
 30
0.0
 40
10.0
 50
39.872968906145999
 51
90.0
  0
ARC
  5
535B
  8
FUTO
 10
-1830.385685420207
 20
1298.5501070683099
 30
0.0
 40
57.203726762688042
 50
216.60350367361551
 51
261.67207569821369
  0
LINE
  5
535C
  8
FUTO
 10
-1890.914271520136
 20
1286.0301377461681
 30
0.0
 11
-1908.914271520136
 21
1268.0301377461669
 31
0.0
  0
LINE
  5
535D
  8
FUTO
 10
-1887.914271520136
 20
1287.0301377461669
 30
0.0
 11
-1887.914271520136
 21
1268.0301377461669
 31
0.0
  0
LINE
  5
535E
  8
FUTO
 10
-1888.9142715201349
 20
1288.0301377461681
 30
0.0
 11
-1888.9142715201349
 21
1268.0301377461669
 31
0.0
  0
LINE
  5
535F
  8
FUTO
 10
-1889.914271520136
 20
1268.0301377461669
 30
0.0
 11
-1889.914271520136
 21
1288.0301377461681
 31
0.0
  0
LINE
  5
5360
  8
FUTO
 10
-1889.914271520136
 20
1268.0301377461669
 30
0.0
 11
-1888.9142715201349
 21
1268.0301377461669
 31
0.0
  0
LINE
  5
5361
  8
FUTO
 10
-1889.914271520136
 20
1268.0301377461669
 30
0.0
 11
-1883.9824281098929
 21
1268.0301377461669
 31
0.0
  0
LINE
  5
5362
  8
FUTO
 10
-1890.914271520136
 20
1286.0301377461681
 30
0.0
 11
-1888.9142715201349
 21
1286.0301377461681
 31
0.0
  0
LINE
  5
5363
  8
FUTO
 10
-1887.914271520136
 20
1287.0301377461669
 30
0.0
 11
-1868.914271520136
 21
1287.0301377461669
 31
0.0
  0
LINE
  5
5364
  8
FUTO
 10
-1868.914271520136
 20
1288.0301377461681
 30
0.0
 11
-1868.914271520136
 21
1287.0301377461669
 31
0.0
  0
DIMENSION
  5
5385
  8
SP
  2
*D7
 10
-1713.9142715201349
 20
1358.030137746166
 30
0.0
 11
-1801.9142715201349
 21
1383.0301377461669
 31
0.0
 70
     0
 13
-1889.9142715201349
 23
1297.8065568904931
 33
0.0
 14
-1713.9142715201349
 24
1071.0301377461669
 34
0.0
  0
LINE
  5
539B
  8
FUTO
 10
-2139.9142560883929
 20
1288.0245822763441
 30
0.0
 11
-2139.9142560883929
 21
1108.02458227634
 31
0.0
  0
ARC
  5
539C
  8
FUTO
 10
-1909.9142715201349
 20
1108.0301377461669
 30
0.0
 40
230.0
 50
180.0
 51
270.39182689926662
  0
ARC
  5
539D
  8
FUTO
 10
-1906.914271520136
 20
1071.0301377461669
 30
0.0
 40
193.0
 50
269.57208103221808
 51
0.4673217049916192
  0
ARC
  5
539E
  8
FUTO
 10
-1875.914271520136
 20
1074.0301377461669
 30
0.0
 40
162.0
 50
359.4896667551883
 51
78.450738176441575
  0
ARC
  5
539F
  8
FUTO
 10
-1828.914271520139
 20
1304.0301377461681
 30
0.0
 40
72.753061747871584
 50
214.19961945545691
 51
258.45073817644152
  0
LINE
  5
53A0
  8
FUTO
 10
-2150.8033301608011
 20
1268.0301377461669
 30
0.0
 11
-2149.914101770979
 21
1107.969027578104
 31
0.0
  0
ARC
  5
53A1
  8
FUTO
 10
-1909.9142715201349
 20
1108.0301377461669
 30
0.0
 40
240.0
 50
180.0
 51
270.39182689926662
  0
ARC
  5
53A2
  8
FUTO
 10
-1906.914271520136
 20
1071.0301377461669
 30
0.0
 40
203.0
 50
269.57208103221808
 51
0.4673217049916192
  0
ARC
  5
53A3
  8
FUTO
 10
-1875.914271520136
 20
1074.0301377461669
 30
0.0
 40
172.0
 50
359.4896667551883
 51
78.450738176441575
  0
DIMENSION
  5
53AD
  8
SP
  2
*D8
 10
-2239.3805561714089
 20
1288.0301377461681
 30
0.0
 11
-2264.3805561714089
 21
1188.0301377461669
 31
0.0
 70
     0
 13
-2174.1007564974352
 23
1088.0301377461669
 33
0.0
 14
-2160.9142715201351
 24
1288.0301377461681
 34
0.0
 50
90.0
  0
DIMENSION
  5
53BA
  8
SP
  2
*D9
 10
-2239.3805561714089
 20
833.03013774616625
 30
0.0
 11
-2264.3805561714089
 21
960.53013774616659
 31
0.0
 70
     0
 13
-2174.1007564974352
 23
1088.0301377461669
 33
0.0
 14
-2079.914271520136
 24
833.03013774616625
 34
0.0
 50
90.0
  0
TEXT
  5
53F8
  8
4
 10
-2319.1987029947582
 20
2544.4293549289091
 30
0.0
 40
53.999999999999993
  1
右回転上向
  0
TEXT
  5
53F9
  8
4
 10
-2151.2732092616002
 20
2695.5186316473701
 30
0.0
 40
72.0
  1
遠心式片吸込直動形多翼ファン
 72
     4
 11
-1560.8732092616001
 21
2731.5186316473701
 31
0.0
  0
LINE
  5
53FA
  8
4
 10
-2360.8732092616001
 20
2631.5186316473701
 30
0.0
 11
-760.87320926160055
 21
2631.5186316473701
 31
0.0
  0
LINE
  5
53FB
  8
4
 10
-2360.8732092616001
 20
2831.5186316473701
 30
0.0
 11
-760.87320926160055
 21
2831.5186316473701
 31
0.0
  0
LINE
  5
53FC
  8
4
 10
-2360.8732092616001
 20
2831.5186316473701
 30
0.0
 11
-2360.8732092616001
 21
2631.5186316473701
 31
0.0
  0
LINE
  5
53FD
  8
4
 10
-1170.255786901736
 20
2948.7621389323181
 30
0.0
 11
-760.87320926160055
 21
2948.7621389323181
 31
0.0
  0
LINE
  5
53FE
  8
4
 10
-760.87320926160055
 20
2843.3734605079671
 30
0.0
 11
-1170.255786901736
 21
2843.3734605079671
 31
0.0
  0
TEXT
  5
5400
  8
4
 10
-1199.577146661587
 20
2545.5387187150809
 30
0.0
 40
53.999999999999993
  1
縮尺：1/10
  0
LINE
  5
5401
  8
4
 10
-1170.255786901736
 20
2843.3734605079671
 30
0.0
 11
-1170.255786901736
 21
2948.7621389323181
 31
0.0
  0
TEXT
  5
5402
  8
4
 10
-1141.90365001231
 20
2868.170958877874
 30
0.0
 40
56.000000000000007
  1
No.
  0
LINE
  5
5403
  8
4
 10
-760.87320926160055
 20
2831.5186316473701
 30
0.0
 11
-760.87320926160055
 21
2631.5186316473701
 31
0.0
  0
LINE
  5
5404
  8
4
 10
-760.87320926160055
 20
2948.7621389323181
 30
0.0
 11
-760.87320926160055
 21
2843.3734605079671
 31
0.0
  0
TEXT
  5
5405
  8
4
 10
-2124.615103236803
 20
335.27468562959712
 30
0.0
 40
50.0
  1
機器型番
  0
TEXT
  5
5406
  8
4
 10
-2122.3711284146989
 20
445.17255476419911
 30
0.0
 40
50.0
  1
機器名称
  0
LINE
  5
5409
  8
4
 10
-2160.8732092616001
 20
513.62952889758606
 30
0.0
 11
-960.87320926160055
 21
513.62952889758606
 31
0.0
  0
LINE
  5
540A
  8
4
 10
-2160.8732092616001
 20
413.62952889758611
 30
0.0
 11
-960.87320926160055
 21
413.62952889758611
 31
0.0
  0
LINE
  5
540B
  8
4
 10
-2160.8732092616001
 20
313.62952889758611
 30
0.0
 11
-960.87320926160055
 21
313.62952889758611
 31
0.0
  0
LINE
  5
540C
  8
4
 10
-2160.8732092616001
 20
513.62952889758606
 30
0.0
 11
-2160.8732092616001
 21
313.62952889758611
 31
0.0
  0
LINE
  5
540D
  8
4
 10
-960.87320926160055
 20
513.62952889758606
 30
0.0
 11
-960.87320926160055
 21
313.62952889758611
 31
0.0
  0
LINE
  5
540E
  8
4
 10
-1660.8732092616001
 20
513.62952889758606
 30
0.0
 11
-1660.8732092616001
 21
313.62952889758611
 31
0.0
  0
TEXT
  5
5411
  8
4
 10
-1633.1944637739359
 20
436.20129785515468
 30
0.0
 40
50.0
  1
ミツヤ多翼送風機
  0
TEXT
  5
5660
  8
4
 10
-1624.218713676119
 20
330.78911317752949
 30
0.0
 40
50.0
  1
MF＃1 1/2-7
  0
DIMENSION
  5
6F28
  8
SP
  2
*D19
 10
-2239.3805561714089
 20
781.03013774616443
 30
0.0
 11
-2264.3805561714089
 21
694.97060953073219
 31
0.0
 70
     0
 13
-2139.9142715201342
 23
811.03013774616511
 33
0.0
 14
-2139.9142715201351
 24
781.03013774616443
 34
0.0
 50
90.0
1001
ACAD
1000
DSTYLE
1002
{
1070
     6
1000
DOT
1002
}
  0
DIMENSION
  5
6F42
  8
SP
  2
*D20
 10
-2239.3805561714089
 20
811.03013774616511
 30
0.0
 11
-2239.3805561714089
 21
822.03013774616522
 31
0.0
 70
   128
 13
-2079.914271520136
 23
833.03013774616602
 33
0.0
 14
-2139.9142715201342
 24
811.03013774616511
 34
0.0
 50
90.0
1001
ACAD
1000
DSTYLE
1002
{
1070
     3
1000
（<>）
1070
     7
1000
NONE
1070
     6
1000
NONE
1002
}
  0
LINE
  5
7805
  8
1
 10
-2139.9142715201342
 20
811.03013774616488
 30
0.0
 11
-1639.914271520136
 21
811.03013774616716
 31
0.0
  0
LINE
  5
7806
  8
FUTO
 10
-2139.914271520136
 20
781.03013774616443
 30
0.0
 11
-1639.914271520136
 21
781.03013774616716
 31
0.0
  0
LINE
  5
7807
  8
1
 10
-2139.9142715201342
 20
808.03013774616477
 30
0.0
 11
-1639.914271520136
 21
808.03013774616716
 31
0.0
  0
LINE
  5
7808
  8
FUTO
 10
-2139.914271520136
 20
781.03013774616443
 30
0.0
 11
-2139.9142715201342
 21
811.03013774616488
 31
0.0
  0
LINE
  5
7809
  8
FUTO
 10
-1639.914271520136
 20
781.03013774616716
 30
0.0
 11
-1639.914271520136
 21
811.03013774616716
 31
0.0
  0
LINE
  5
780A
  8
FUTO
 10
-1351.9142715201349
 20
781.03013774616443
 30
0.0
 11
-861.91427152013614
 21
781.03013774616761
 31
0.0
  0
LINE
  5
780B
  8
FUTO
 10
-1351.9142715201349
 20
811.03013774616466
 30
0.0
 11
-861.91427152013614
 21
811.03013774616738
 31
0.0
  0
INSERT
  5
780C
  8
FUTO
  2
L-30-3
 10
-1253.797301162683
 20
926.27897949540954
 30
0.0
 41
-1.0
 50
90.0
  0
INSERT
  5
780D
  8
FUTO
  2
L-30-3
 10
-960.03124187758829
 20
926.27897949541227
 30
0.0
 50
270.0
  0
LINE
  5
780E
  8
SL
 10
-844.91427152013591
 20
791.53473685746485
 30
0.0
 11
-844.91427152013591
 21
1164.9294023821831
 31
0.0
  0
LINE
  5
780F
  8
SL
 10
-1368.914271520136
 20
790.53473685746485
 30
0.0
 11
-1368.914271520136
 21
1163.9294023821819
 31
0.0
  0
DIMENSION
  5
7E9D
  8
SP
  2
*D23
 10
-1510.6811167034371
 20
1840.121728488441
 30
0.0
 11
-1535.6811167034371
 21
2115.121728488441
 31
0.0
 70
     0
 13
-1639.914271520136
 23
2390.1217284884419
 33
0.0
 14
-1639.914271520136
 24
1840.121728488441
 34
0.0
 50
90.0
  0
LINE
  5
7E9E
  8
FUTO
 10
-1699.914271520136
 20
1870.1217284884419
 30
0.0
 11
-1699.914271520134
 21
2360.121728488441
 31
0.0
  0
LINE
  5
7E9F
  8
1
 10
-1729.914271520136
 20
1870.1217284884419
 30
0.0
 11
-1729.914271520136
 21
2092.1217284884419
 31
0.0
  0
LINE
  5
7EA0
  8
1
 10
-2049.9142715201392
 20
1870.1217284884431
 30
0.0
 11
-2049.9142715201419
 21
2071.1217284884451
 31
0.0
  0
LINE
  5
7EA1
  8
1
 10
-2079.9142715201392
 20
1870.1217284884431
 30
0.0
 11
-2079.914271520141
 21
2071.1217284884442
 31
0.0
  0
LINE
  5
7EA2
  8
1
 10
-1856.4142715201369
 20
2048.321728488444
 30
0.0
 11
-1856.414271520136
 21
2057.321728488444
 31
0.0
  0
LINE
  5
7EA3
  8
1
 10
-1923.414271520136
 20
2057.321728488444
 30
0.0
 11
-1923.414271520136
 21
2048.321728488444
 31
0.0
  0
LINE
  5
7EA4
  8
2
 10
-1889.914271520136
 20
1814.033283860542
 30
0.0
 11
-1889.914271520136
 21
2318.3418936860121
 31
0.0
  0
DIMENSION
  5
7EA5
  8
SP
  2
*D24
 10
-2139.9142715201369
 20
1721.3733872148259
 30
0.0
 11
-1889.914271520136
 21
1746.3733872148259
 31
0.0
 70
     0
 13
-1639.914271520136
 23
1840.121728488441
 33
0.0
 14
-2139.9142715201369
 24
1840.1217284884431
 34
0.0
  0
LINE
  5
7EA6
  8
FUTO
 10
-2139.9142715201378
 20
1870.1217284884431
 30
0.0
 11
-1639.9142715201349
 21
1870.121728488441
 31
0.0
  0
LINE
  5
7EA7
  8
FUTO
 10
-2139.9142715201369
 20
1840.1217284884431
 30
0.0
 11
-1639.914271520136
 21
1840.121728488441
 31
0.0
  0
LINE
  5
7EA8
  8
1
 10
-2049.9142715201392
 20
1874.1217284884499
 30
0.0
 11
-1974.914271520134
 21
1874.1217284884469
 31
0.0
  0
LINE
  5
7EA9
  8
CT
 10
-2109.9142715201351
 20
1864.844073257226
 30
0.0
 11
-2109.9142715201351
 21
1841.399383719661
 31
0.0
  0
LINE
  5
7EAA
  8
FUTO
 10
-2139.9142715201369
 20
1840.1217284884431
 30
0.0
 11
-2139.9142715201369
 21
1870.1217284884431
 31
0.0
  0
CIRCLE
  5
7EAB
  8
FUTO
 10
-2109.9142715201351
 20
1853.121728488444
 30
0.0
 40
6.5
  0
LINE
  5
7EAC
  8
CT
 10
-2121.636616288918
 20
1853.121728488444
 30
0.0
 11
-2098.191926751354
 21
1853.121728488444
 31
0.0
  0
LINE
  5
7EAD
  8
1
 10
-2079.9142715201342
 20
1883.1217284884469
 30
0.0
 11
-2049.9142715201392
 21
1883.1217284884469
 31
0.0
  0
LINE
  5
7EAE
  8
1
 10
-1815.1142835201349
 20
1904.321728488444
 30
0.0
 11
-1815.1142835201349
 21
2025.821728488444
 31
0.0
  0
LINE
  5
7EAF
  8
1
 10
-1964.714259520136
 20
1904.321728488444
 30
0.0
 11
-1964.714259520136
 21
2025.821728488444
 31
0.0
  0
LINE
  5
7EB0
  8
1
 10
-1804.914271520136
 20
1874.1217284884449
 30
0.0
 11
-1729.914271520136
 21
1874.1217284884431
 31
0.0
  0
LINE
  5
7EB1
  8
1
 10
-1804.914271520136
 20
1865.821728488444
 30
0.0
 11
-1804.914271520136
 21
1904.321728488444
 31
0.0
  0
LINE
  5
7EB2
  8
1
 10
-1974.914271520136
 20
1865.821728488444
 30
0.0
 11
-1974.914271520136
 21
1904.321728488444
 31
0.0
  0
LINE
  5
7EB3
  8
1
 10
-1889.914271520134
 20
1864.321728488444
 30
0.0
 11
-1806.414271520136
 21
1864.321728488444
 31
0.0
  0
LINE
  5
7EB4
  8
1
 10
-1962.6916155201361
 20
1830.321728488444
 30
0.0
 11
-1817.2877465201359
 21
1830.321728488444
 31
0.0
  0
ARC
  5
7EB5
  8
1
 10
-1973.414271520136
 20
1865.821728488444
 30
0.0
 40
1.4999849999999999
 50
179.99941999999371
 51
270.0
  0
ARC
  5
7EB6
  8
1
 10
-1971.729274520136
 20
1863.3217894884431
 30
0.0
 40
0.999898
 50
11.6299130000048
 51
90.003497000004955
  0
LINE
  5
7EB7
  8
1
 10
-1964.160792520137
 20
1831.519238488444
 30
0.0
 11
-1970.7499045201359
 21
1863.5233894884429
 31
0.0
  0
LINE
  5
7EB8
  8
1
 10
-1889.9142715201381
 20
1864.321728488444
 30
0.0
 11
-1973.414271520136
 21
1864.321728488444
 31
0.0
  0
ARC
  5
7EB9
  8
1
 10
-1808.0992685201361
 20
1863.3217894884431
 30
0.0
 40
0.999898
 50
89.99650299999503
 51
168.3700869999951
  0
ARC
  5
7EBA
  8
1
 10
-1806.414271520136
 20
1865.821728488444
 30
0.0
 40
1.4999849999999999
 50
270.0
 51
0.0005800000062724
  0
LINE
  5
7EBB
  8
1
 10
-1815.6677505201351
 20
1831.519238488444
 30
0.0
 11
-1809.078638520135
 21
1863.5233894884429
 31
0.0
  0
LINE
  5
7EBC
  8
1
 10
-1804.914271520136
 20
1904.321728488444
 30
0.0
 11
-1974.914271520136
 21
1904.321728488444
 31
0.0
  0
LINE
  5
7EBD
  8
CT
 10
-1681.636616288918
 20
1853.121728488444
 30
0.0
 11
-1658.191926751354
 21
1853.121728488444
 31
0.0
  0
CIRCLE
  5
7EBE
  8
FUTO
 10
-1669.914271520136
 20
1853.121728488444
 30
0.0
 40
6.5
  0
LINE
  5
7EBF
  8
CT
 10
-1669.914271520136
 20
1864.844073257226
 30
0.0
 11
-1669.914271520136
 21
1841.399383719661
 31
0.0
  0
LINE
  5
7EC0
  8
FUTO
 10
-1639.914271520136
 20
1840.121728488441
 30
0.0
 11
-1639.9142715201349
 21
1870.121728488441
 31
0.0
  0
LINE
  5
7EC1
  8
1
 10
-1814.414271520136
 20
2025.821728488444
 30
0.0
 11
-1889.914271520134
 21
2025.821728488444
 31
0.0
  0
LINE
  5
7EC2
  8
1
 10
-1889.914271520136
 20
2048.321728488444
 30
0.0
 11
-1816.414271520136
 21
2048.321728488444
 31
0.0
  0
LINE
  5
7EC3
  8
1
 10
-1953.9800675201359
 20
2048.321728488444
 30
0.0
 11
-1962.9800675201359
 21
2048.321728488444
 31
0.0
  0
LINE
  5
7EC4
  8
1
 10
-1962.729274520135
 20
2048.321728488444
 30
0.0
 11
-1954.099269520136
 21
2048.321728488444
 31
0.0
  0
ARC
  5
7EC5
  8
1
 10
-1963.414271520136
 20
2046.321728488444
 30
0.0
 40
2.0
 50
90.0
 51
180.0
  0
LINE
  5
7EC6
  8
1
 10
-1965.414271520136
 20
2025.821728488444
 30
0.0
 11
-1965.414271520136
 21
2046.321728488444
 31
0.0
  0
LINE
  5
7EC7
  8
1
 10
-1889.914271520136
 20
2048.321728488444
 30
0.0
 11
-1963.414271520136
 21
2048.321728488444
 31
0.0
  0
LINE
  5
7EC8
  8
1
 10
-1965.414271520136
 20
2025.821728488444
 30
0.0
 11
-1889.9142715201381
 21
2025.821728488444
 31
0.0
  0
ARC
  5
7EC9
  8
1
 10
-1816.414271520136
 20
2046.321728488444
 30
0.0
 40
2.0
 50
0.0
 51
90.0
  0
LINE
  5
7ECA
  8
1
 10
-1817.0992685201361
 20
2048.321728488444
 30
0.0
 11
-1825.7292735201349
 21
2048.321728488444
 31
0.0
  0
LINE
  5
7ECB
  8
1
 10
-1825.848475520135
 20
2048.321728488444
 30
0.0
 11
-1816.848475520135
 21
2048.321728488444
 31
0.0
  0
LINE
  5
7ECC
  8
1
 10
-1814.414271520136
 20
2025.821728488444
 30
0.0
 11
-1814.414271520136
 21
2046.321728488444
 31
0.0
  0
LINE
  5
7ECD
  8
1
 10
-1729.914271520134
 20
2272.121728488441
 30
0.0
 11
-1729.914271520134
 21
2360.121728488441
 31
0.0
  0
ARC
  5
7ECE
  8
1
 10
-1880.914271520134
 20
2281.1217284884428
 30
0.0
 40
12.0
 50
0.0
 51
90.0
  0
ARC
  5
7ECF
  8
1
 10
-2148.9142715201319
 20
2281.1217284884401
 30
0.0
 40
12.0
 50
90.0
 51
180.0
  0
LINE
  5
7ED0
  8
2
 10
-2174.1007564974352
 20
2182.1217284884428
 30
0.0
 11
-1679.7666569467849
 21
2182.121728488441
 31
0.0
  0
LINE
  5
7ED1
  8
1
 10
-2148.9142715201342
 20
2071.1217284884442
 30
0.0
 11
-1880.9142715201369
 21
2071.1217284884469
 31
0.0
  0
LINE
  5
7ED2
  8
1
 10
-2139.9142715201319
 20
2272.1217284884442
 30
0.0
 11
-1889.914271520136
 21
2272.1217284884442
 31
0.0
  0
LINE
  5
7ED3
  8
1
 10
-2139.9142715201342
 20
2092.1217284884419
 30
0.0
 11
-1889.914271520136
 21
2092.1217284884428
 31
0.0
  0
LINE
  5
7ED4
  8
HOSO
 10
-2139.9142715201342
 20
2092.1217284884419
 30
0.0
 11
-1889.914271520136
 21
2272.1217284884442
 31
0.0
  0
LINE
  5
7ED5
  8
HOSO
 10
-2139.9142715201342
 20
2272.1217284884442
 30
0.0
 11
-1889.914271520136
 21
2092.1217284884428
 31
0.0
  0
LINE
  5
7ED6
  8
1
 10
-2140.9142715201342
 20
2091.1217284884428
 30
0.0
 11
-1888.9142715201349
 21
2091.1217284884428
 31
0.0
  0
LINE
  5
7ED7
  8
1
 10
-2140.9142715201319
 20
2273.1217284884451
 30
0.0
 11
-1888.9142715201349
 21
2273.1217284884401
 31
0.0
  0
LINE
  5
7ED8
  8
1
 10
-2049.914271520141
 20
2049.121728488451
 30
0.0
 11
-1923.414271520136
 21
2049.1217284884492
 31
0.0
  0
LINE
  5
7ED9
  8
1
 10
-2160.9142715201342
 20
2083.1217284884442
 30
0.0
 11
-2160.9142715201319
 21
2281.1217284884401
 31
0.0
  0
LINE
  5
7EDA
  8
1
 10
-2139.9142715201342
 20
2092.1217284884419
 30
0.0
 11
-2139.9142715201342
 21
2272.1217284884442
 31
0.0
  0
LINE
  5
7EDB
  8
1
 10
-2140.9142715201342
 20
2091.1217284884428
 30
0.0
 11
-2140.9142715201319
 21
2273.1217284884451
 31
0.0
  0
ARC
  5
7EDC
  8
1
 10
-2148.9142715201342
 20
2083.1217284884442
 30
0.0
 40
12.0
 50
180.0
 51
270.0
  0
LINE
  5
7EDD
  8
1
 10
-1868.9142715201369
 20
2083.1217284884469
 30
0.0
 11
-1868.914271520134
 21
2281.1217284884428
 31
0.0
  0
LINE
  5
7EDE
  8
1
 10
-1889.914271520136
 20
2272.1217284884442
 30
0.0
 11
-1889.914271520136
 21
2092.1217284884428
 31
0.0
  0
LINE
  5
7EDF
  8
1
 10
-1713.914271520136
 20
2104.1217284884419
 30
0.0
 11
-1713.914271520136
 21
2260.1217284884419
 31
0.0
  0
LINE
  5
7EE0
  8
1
 10
-1888.9142715201349
 20
2273.1217284884401
 30
0.0
 11
-1888.9142715201349
 21
2091.1217284884428
 31
0.0
  0
LINE
  5
7EE1
  8
1
 10
-1712.914271520136
 20
2104.1217284884419
 30
0.0
 11
-1712.914271520136
 21
2260.1217284884419
 31
0.0
  0
LINE
  5
7EE2
  8
FUTO
 10
-1699.914271520134
 20
2083.121728488441
 30
0.0
 11
-2033.9142715201319
 21
2083.121728488441
 31
0.0
  0
LINE
  5
7EE3
  8
1
 10
-1868.9142715201369
 20
2092.1217284884419
 30
0.0
 11
-1725.914271520136
 21
2092.1217284884419
 31
0.0
  0
LINE
  5
7EE4
  8
1
 10
-1868.9142715201369
 20
2091.121728488441
 30
0.0
 11
-1725.914271520136
 21
2091.121728488441
 31
0.0
  0
LINE
  5
7EE5
  8
1
 10
-1856.4142715201369
 20
2049.1217284884451
 30
0.0
 11
-1729.914271520134
 21
2049.1217284884451
 31
0.0
  0
LINE
  5
7EE6
  8
1
 10
-1857.414271520136
 20
2058.321728488444
 30
0.0
 11
-1922.4142715201349
 21
2058.321728488444
 31
0.0
  0
LINE
  5
7EE7
  8
1
 10
-1907.414271520136
 20
2063.3217284884422
 30
0.0
 11
-1872.414271520136
 21
2063.3217284884422
 31
0.0
  0
ARC
  5
7EE8
  8
1
 10
-2033.9142715201319
 20
2086.1217284884442
 30
0.0
 40
3.0
 50
180.0
 51
270.0
  0
LINE
  5
7EE9
  8
1
 10
-2036.9142715201319
 20
2088.1217284884428
 30
0.0
 11
-2036.9142715201319
 21
2086.1217284884442
 31
0.0
  0
LINE
  5
7EEA
  8
1
 10
-2036.9142715201319
 20
2088.1217284884428
 30
0.0
 11
-2036.9142715201319
 21
2086.1217284884442
 31
0.0
  0
ARC
  5
7EEB
  8
1
 10
-2039.9142715201319
 20
2088.1217284884428
 30
0.0
 40
3.0
 50
0.0
 51
90.0
  0
LINE
  5
7EEC
  8
1
 10
-1900.414271520136
 20
2063.321728488444
 30
0.0
 11
-1900.414271520136
 21
2058.321728488444
 31
0.0
  0
LINE
  5
7EED
  8
1
 10
-1907.414271520136
 20
2063.3217284884422
 30
0.0
 11
-1912.414271520136
 21
2068.3217284884422
 31
0.0
  0
ARC
  5
7EEE
  8
1
 10
-1922.4142715201349
 20
2057.321728488444
 30
0.0
 40
1.0
 50
90.0
 51
180.0
  0
LINE
  5
7EEF
  8
1
 10
-1912.414271520136
 20
2071.1217284884451
 30
0.0
 11
-1912.414271520136
 21
2068.3217284884422
 31
0.0
  0
LINE
  5
7EF0
  8
1
 10
-1742.914271520136
 20
2088.1217284884428
 30
0.0
 11
-1742.914271520136
 21
2086.1217284884442
 31
0.0
  0
LINE
  5
7EF1
  8
1
 10
-1742.914271520136
 20
2088.1217284884428
 30
0.0
 11
-1742.914271520136
 21
2086.1217284884442
 31
0.0
  0
ARC
  5
7EF2
  8
1
 10
-1739.914271520136
 20
2088.1217284884428
 30
0.0
 40
3.0
 50
90.0
 51
180.0
  0
ARC
  5
7EF3
  8
1
 10
-1745.914271520136
 20
2086.1217284884442
 30
0.0
 40
3.0
 50
270.0
 51
0.0
  0
ARC
  5
7EF4
  8
1
 10
-1857.414271520136
 20
2057.321728488444
 30
0.0
 40
1.0
 50
0.0
 51
90.0
  0
ARC
  5
7EF5
  8
1
 10
-1880.9142715201369
 20
2083.1217284884469
 30
0.0
 40
12.0
 50
270.0
 51
0.0
  0
LINE
  5
7EF6
  8
1
 10
-1867.414271520136
 20
2068.3217284884422
 30
0.0
 11
-1872.414271520136
 21
2063.3217284884422
 31
0.0
  0
LINE
  5
7EF7
  8
1
 10
-1879.414271520136
 20
2063.321728488444
 30
0.0
 11
-1879.414271520136
 21
2058.321728488444
 31
0.0
  0
LINE
  5
7EF8
  8
1
 10
-1867.414271520136
 20
2080.8217284884458
 30
0.0
 11
-1867.414271520136
 21
2068.3217284884422
 31
0.0
  0
ARC
  5
7EF9
  8
1
 10
-1725.914271520136
 20
2104.1217284884419
 30
0.0
 40
12.0
 50
270.0
 51
0.0
  0
ARC
  5
7EFA
  8
1
 10
-1725.914271520136
 20
2104.1217284884419
 30
0.0
 40
13.0
 50
270.0
 51
0.0
  0
LINE
  5
7EFB
  8
1
 10
-1868.914271520136
 20
2272.1217284884419
 30
0.0
 11
-1725.914271520136
 21
2272.1217284884419
 31
0.0
  0
LINE
  5
7EFC
  8
1
 10
-1868.914271520136
 20
2273.1217284884419
 30
0.0
 11
-1725.914271520136
 21
2273.1217284884419
 31
0.0
  0
LINE
  5
7EFD
  8
1
 10
-1742.914271520136
 20
2276.1217284884401
 30
0.0
 11
-1742.914271520136
 21
2278.1217284884401
 31
0.0
  0
LINE
  5
7EFE
  8
1
 10
-1742.914271520136
 20
2276.1217284884401
 30
0.0
 11
-1742.914271520136
 21
2278.1217284884401
 31
0.0
  0
ARC
  5
7EFF
  8
1
 10
-1745.914271520136
 20
2278.1217284884401
 30
0.0
 40
3.0
 50
0.0
 51
90.0
  0
ARC
  5
7F00
  8
1
 10
-1739.914271520136
 20
2276.1217284884401
 30
0.0
 40
3.0
 50
180.0
 51
270.0
  0
LINE
  5
7F01
  8
1
 10
-1868.914271520134
 20
2281.1217284884401
 30
0.0
 11
-1745.914271520136
 21
2281.1217284884401
 31
0.0
  0
ARC
  5
7F02
  8
1
 10
-1725.914271520136
 20
2260.1217284884419
 30
0.0
 40
12.0
 50
0.0
 51
90.0
  0
ARC
  5
7F03
  8
1
 10
-1725.914271520136
 20
2260.1217284884419
 30
0.0
 40
13.0
 50
0.0
 51
90.0
  0
LINE
  5
7F04
  8
FUTO
 10
-2139.9142715201369
 20
2360.1217284884428
 30
0.0
 11
-1639.914271520136
 21
2360.121728488441
 31
0.0
  0
LINE
  5
7F05
  8
FUTO
 10
-2139.914271520136
 20
2390.1217284884428
 30
0.0
 11
-1639.914271520136
 21
2390.1217284884419
 31
0.0
  0
LINE
  5
7F06
  8
1
 10
-2148.9142715201319
 20
2293.1217284884392
 30
0.0
 11
-1880.914271520134
 21
2293.1217284884428
 31
0.0
  0
LINE
  5
7F07
  8
1
 10
-2049.9142715201451
 20
2293.121728488441
 30
0.0
 11
-2049.9142715201451
 21
2360.1217284884419
 31
0.0
  0
LINE
  5
7F08
  8
1
 10
-2079.9142715201451
 20
2293.121728488441
 30
0.0
 11
-2079.9142715201451
 21
2360.1217284884428
 31
0.0
  0
LINE
  5
7F09
  8
CT
 10
-2109.9142715201351
 20
2365.3993837196599
 30
0.0
 11
-2109.9142715201351
 21
2388.8440732572258
 31
0.0
  0
LINE
  5
7F0A
  8
FUTO
 10
-2139.9142715201342
 20
2360.1217284884428
 30
0.0
 11
-2139.914271520136
 21
2390.1217284884428
 31
0.0
  0
LINE
  5
7F0B
  8
CT
 10
-2121.636616288918
 20
2377.1217284884428
 30
0.0
 11
-2098.191926751354
 21
2377.1217284884428
 31
0.0
  0
CIRCLE
  5
7F0C
  8
FUTO
 10
-2109.9142715201351
 20
2377.1217284884428
 30
0.0
 40
6.5
  0
LINE
  5
7F0D
  8
FUTO
 10
-1639.914271520136
 20
2360.121728488441
 30
0.0
 11
-1639.914271520136
 21
2390.1217284884419
 31
0.0
  0
LINE
  5
7F0E
  8
CT
 10
-1669.914271520136
 20
2365.3993837196599
 30
0.0
 11
-1669.914271520136
 21
2388.8440732572258
 31
0.0
  0
CIRCLE
  5
7F0F
  8
FUTO
 10
-1669.914271520136
 20
2377.1217284884428
 30
0.0
 40
6.5
  0
LINE
  5
7F10
  8
CT
 10
-1681.636616288918
 20
2377.1217284884428
 30
0.0
 11
-1658.191926751354
 21
2377.1217284884428
 31
0.0
  0
DIMENSION
  5
836C
  8
SP
  2
*D30
 10
-831.91427152013478
 20
711.03013774616716
 30
0.0
 11
-935.91427152013534
 21
736.03013774616716
 31
0.0
 70
     0
 13
-1039.914271520136
 23
837.00327254600597
 33
0.0
 14
-831.91427152013478
 24
811.0301377461675
 34
0.0
  0
DIMENSION
  5
836D
  8
SP
  2
*D28
 10
-831.91427152013478
 20
641.03013774616716
 30
0.0
 11
-1106.9142715201349
 21
666.03013774616716
 31
0.0
 70
     0
 13
-1381.9142715201369
 23
784.19882634040914
 33
0.0
 14
-831.91427152013478
 24
811.0301377461675
 34
0.0
  0
DIMENSION
  5
836E
  8
SP
  2
*D29
 10
-1381.9142715201369
 20
711.03013774616716
 30
0.0
 11
-1210.914271520136
 21
736.03013774616716
 31
0.0
 70
     0
 13
-1039.914271520136
 23
837.00327254600597
 33
0.0
 14
-1381.9142715201369
 24
811.03013774616466
 34
0.0
  0
DIMENSION
  5
836F
  8
SP
  2
*D26
 10
-1889.914271520136
 20
711.03013774616579
 30
0.0
 11
-2014.914271520136
 21
736.03013774616579
 31
0.0
 70
     0
 13
-2139.914271520136
 23
781.03013774616443
 33
0.0
 14
-1889.914271520136
 24
754.90508321591915
 34
0.0
  0
DIMENSION
  5
8370
  8
SP
  2
*D25
 10
-1639.914271520136
 20
641.03013774616716
 30
0.0
 11
-1889.914271520136
 21
666.03013774616716
 31
0.0
 70
     0
 13
-2139.914271520136
 23
754.19882634040891
 33
0.0
 14
-1639.914271520136
 24
754.19882634041164
 34
0.0
  0
DIMENSION
  5
8371
  8
SP
  2
*D27
 10
-1639.914271520136
 20
711.03013774616852
 30
0.0
 11
-1764.914271520136
 21
736.03013774616852
 31
0.0
 70
     0
 13
-1889.914271520136
 23
754.90508321591915
 33
0.0
 14
-1639.914271520136
 24
781.03013774616716
 34
0.0
  0
TEXT
  5
88B9
  8
4
 10
-1832.58104058084
 20
2545.5387187150809
 30
0.0
 40
53.999999999999993
  1
天井吊防振ベッド型
  0
ENDSEC
  0
EOF
