  0
SECTION
  2
HEADER
  9
$ACADVER
  1
AC1009
  9
$INSBASE
 10
0.0
 20
0.0
 30
0.0
  9
$EXTMIN
 10
5767.4991666319765
 20
96.09240406103936
 30
0.0
  9
$EXTMAX
 10
7867.4991666319765
 20
3046.0924040610389
 30
0.0
  9
$LIMMIN
 10
0.0
 20
0.0
  9
$LIMMAX
 10
297.0
 20
210.0
  9
$ORTHOMODE
 70
     0
  9
$REGENMODE
 70
     1
  9
$FILLMODE
 70
     1
  9
$QTEXTMODE
 70
     0
  9
$MIRRTEXT
 70
     0
  9
$DRAGMODE
 70
     2
  9
$LTSCALE
 40
50.0
  9
$OSMODE
 70
   545
  9
$ATTMODE
 70
     1
  9
$TEXTSIZE
 40
3.5
  9
$TRACEWID
 40
0.05
  9
$TEXTSTYLE
  7
STANDARD
  9
$CLAYER
  8
SP
  9
$CELTYPE
  6
BYLAYER
  9
$CECOLOR
 62
   256
  9
$DIMSCALE
 40
10.0
  9
$DIMASZ
 40
2.5
  9
$DIMEXO
 40
1.0
  9
$DIMDLI
 40
7.0
  9
$DIMRND
 40
0.0
  9
$DIMDLE
 40
0.0
  9
$DIMEXE
 40
1.0
  9
$DIMTP
 40
0.0
  9
$DIMTM
 40
0.0
  9
$DIMTXT
 40
3.0
  9
$DIMCEN
 40
0.0
  9
$DIMTSZ
 40
0.0
  9
$DIMTOL
 70
     0
  9
$DIMLIM
 70
     0
  9
$DIMTIH
 70
     0
  9
$DIMTOH
 70
     0
  9
$DIMSE1
 70
     0
  9
$DIMSE2
 70
     0
  9
$DIMTAD
 70
     1
  9
$DIMZIN
 70
     8
  9
$DIMBLK
  1

  9
$DIMASO
 70
     1
  9
$DIMSHO
 70
     1
  9
$DIMPOST
  1

  9
$DIMAPOST
  1

  9
$DIMALT
 70
     0
  9
$DIMALTD
 70
     2
  9
$DIMALTF
 40
0.03937
  9
$DIMLFAC
 40
1.0
  9
$DIMTOFL
 70
     1
  9
$DIMTVP
 40
0.0
  9
$DIMTIX
 70
     0
  9
$DIMSOXD
 70
     0
  9
$DIMSAH
 70
     1
  9
$DIMBLK1
  1
OPEN
  9
$DIMBLK2
  1
OPEN
  9
$DIMSTYLE
  2
GOD
  9
$DIMCLRD
 70
   256
  9
$DIMCLRE
 70
   256
  9
$DIMCLRT
 70
   256
  9
$DIMTFAC
 40
1.0
  9
$DIMGAP
 40
1.0
  9
$LUNITS
 70
     2
  9
$LUPREC
 70
     3
  9
$SKETCHINC
 40
0.1
  9
$FILLETRAD
 40
0.0
  9
$AUNITS
 70
     0
  9
$AUPREC
 70
     2
  9
$MENU
  1
acad
  9
$ELEVATION
 40
0.0
  9
$PELEVATION
 40
0.0
  9
$THICKNESS
 40
0.0
  9
$LIMCHECK
 70
     0
  9
$BLIPMODE
 70
     0
  9
$CHAMFERA
 40
0.0
  9
$CHAMFERB
 40
0.0
  9
$SKPOLY
 70
     0
  9
$TDCREATE
 40
2454940.4140922911
  9
$TDUPDATE
 40
2454953.8284369549
  9
$TDINDWG
 40
0.120968912
  9
$TDUSRTIMER
 40
0.120968912
  9
$USRTIMER
 70
     1
  9
$ANGBASE
 50
0.0
  9
$ANGDIR
 70
     0
  9
$PDMODE
 70
     0
  9
$PDSIZE
 40
1.0
  9
$PLINEWID
 40
0.0
  9
$COORDS
 70
     2
  9
$SPLFRAME
 70
     0
  9
$SPLINETYPE
 70
     6
  9
$SPLINESEGS
 70
     8
  9
$ATTDIA
 70
     0
  9
$ATTREQ
 70
     1
  9
$HANDLING
 70
 22529
  9
$HANDSEED
  5
8A51
  9
$SURFTAB1
 70
     6
  9
$SURFTAB2
 70
     6
  9
$SURFTYPE
 70
     6
  9
$SURFU
 70
     6
  9
$SURFV
 70
     6
  9
$UCSNAME
  2

  9
$UCSORG
 10
0.0
 20
0.0
 30
0.0
  9
$UCSXDIR
 10
1.0
 20
0.0
 30
0.0
  9
$UCSYDIR
 10
0.0
 20
1.0
 30
0.0
  9
$PUCSNAME
  2

  9
$PUCSORG
 10
0.0
 20
0.0
 30
0.0
  9
$PUCSXDIR
 10
1.0
 20
0.0
 30
0.0
  9
$PUCSYDIR
 10
0.0
 20
1.0
 30
0.0
  9
$USERI1
 70
     0
  9
$USERI2
 70
     0
  9
$USERI3
 70
     0
  9
$USERI4
 70
     0
  9
$USERI5
 70
     0
  9
$USERR1
 40
0.0
  9
$USERR2
 40
0.0
  9
$USERR3
 40
0.0
  9
$USERR4
 40
0.0
  9
$USERR5
 40
0.0
  9
$WORLDVIEW
 70
     1
  9
$SHADEDGE
 70
     3
  9
$SHADEDIF
 70
    70
  9
$TILEMODE
 70
     1
  9
$MAXACTVP
 70
    16
  9
$PLIMCHECK
 70
     0
  9
$PEXTMIN
 10
1.0000000000000000E+020
 20
1.0000000000000000E+020
 30
1.0000000000000000E+020
  9
$PEXTMAX
 10
-1.0000000000000000E+020
 20
-1.0000000000000000E+020
 30
-1.0000000000000000E+020
  9
$PLIMMIN
 10
0.0
 20
0.0
  9
$PLIMMAX
 10
12.0
 20
9.0
  9
$UNITMODE
 70
     0
  9
$VISRETAIN
 70
     0
  9
$PLINEGEN
 70
     0
  9
$PSLTSCALE
 70
     0
  0
ENDSEC
  0
SECTION
  2
TABLES
  0
TABLE
  2
VPORT
 70
     2
  0
VPORT
  2
*ACTIVE
 70
     0
 10
0.0
 20
0.0
 11
1.0
 21
1.0
 12
7004.1699882011544
 22
1571.0844409737331
 13
0.0
 23
0.0
 14
5.0
 24
5.0
 15
0.0
 25
0.0
 16
0.0
 26
0.0
 36
1.0
 17
0.0
 27
0.0
 37
0.0
 40
2973.7028619037119
 41
1.6307901907356941
 42
50.0
 43
0.0
 44
0.0
 50
0.0
 51
0.0
 71
     0
 72
   100
 73
     1
 74
     0
 75
     0
 76
     0
 77
     0
 78
     0
  0
ENDTAB
  0
TABLE
  2
LTYPE
 70
     4
  0
LTYPE
  2
CONTINUOUS
 70
     0
  3
Solid line
 72
    65
 73
     0
 40
0.0
  0
LTYPE
  2
CENTER
 70
     0
  3
____ _ ____ _ ____ _ ____ _ ____ _ ____ _ ____ 
 72
    65
 73
     4
 40
2.0
 49
1.25
 49
-0.25
 49
0.25
 49
-0.25
  0
LTYPE
  2
HIDDEN
 70
     0
  3
__ __ __ __ __ __ __ __ __ __ __ __ __ __ __ __
 72
    65
 73
     2
 40
0.375
 49
0.25
 49
-0.125
  0
LTYPE
  2
PHANTOM
 70
     0
  3
______  __  __  ______  __  __  ______  __  __ 
 72
    65
 73
     6
 40
2.5
 49
1.25
 49
-0.25
 49
0.25
 49
-0.25
 49
0.25
 49
-0.25
  0
ENDTAB
  0
TABLE
  2
LAYER
 70
    13
  0
LAYER
  2
0
 70
     0
 62
     7
  6
CONTINUOUS
  0
LAYER
  2
CT
 70
     0
 62
     3
  6
CENTER
  0
LAYER
  2
FUTO
 70
     0
 62
     4
  6
CONTINUOUS
  0
LAYER
  2
HOSO
 70
     0
 62
     7
  6
CONTINUOUS
  0
LAYER
  2
KL
 70
     0
 62
     7
  6
HIDDEN
  0
LAYER
  2
MOJI
 70
     0
 62
     3
  6
CONTINUOUS
  0
LAYER
  2
SL
 70
     0
 62
     1
  6
PHANTOM
  0
LAYER
  2
SP
 70
     0
 62
     2
  6
CONTINUOUS
  0
LAYER
  2
DEFPOINTS
 70
     0
 62
     7
  6
CONTINUOUS
  0
LAYER
  2
3
 70
     0
 62
     2
  6
CONTINUOUS
  0
LAYER
  2
2
 70
     0
 62
     3
  6
CENTER
  0
LAYER
  2
1
 70
     0
 62
     4
  6
CONTINUOUS
  0
LAYER
  2
4
 70
     0
 62
     7
  6
CONTINUOUS
  0
ENDTAB
  0
TABLE
  2
STYLE
 70
     2
  0
STYLE
  2
STANDARD
 70
     0
 40
0.0
 41
1.0
 50
15.0
 71
     0
 42
3.5
  3
C:\Program Files\AutoCAD LT\simplex.shx
  4
C:\Program Files\AutoCAD LT\extfont.shx
  0
STYLE
  2
SUNPOU
 70
     0
 40
0.0
 41
1.0
 50
15.0
 71
     0
 42
30.0
  3
simplex.shx
  4
extfont.shx
  0
ENDTAB
  0
TABLE
  2
VIEW
 70
     0
  0
ENDTAB
  0
TABLE
  2
UCS
 70
     0
  0
ENDTAB
  0
TABLE
  2
APPID
 70
     1
  0
APPID
  2
ACAD
 70
     0
  0
ENDTAB
  0
TABLE
  2
DIMSTYLE
 70
     4
  0
DIMSTYLE
  2
STANDARD
 70
     0
  3

  4

  5

  6

  7

 40
1.0
 41
0.18
 42
0.0625
 43
0.38
 44
0.18
 45
0.0
 46
0.0
 47
0.0
 48
0.0
140
0.18
141
0.09
142
0.0
143
25.399999999999999
144
1.0
145
0.0
146
1.0
147
0.09
 71
     0
 72
     0
 73
     1
 74
     1
 75
     0
 76
     0
 77
     0
 78
     0
170
     0
171
     2
172
     0
173
     0
174
     0
175
     0
176
     0
177
     0
178
     0
  0
DIMSTYLE
  2
GOD
 70
     0
  3

  4

  5

  6
OPEN
  7
OPEN
 40
10.0
 41
2.5
 42
1.0
 43
7.0
 44
1.0
 45
0.0
 46
0.0
 47
0.0
 48
0.0
140
3.0
141
0.0
142
0.0
143
0.03937
144
1.0
145
0.0
146
1.0
147
1.0
 71
     0
 72
     0
 73
     0
 74
     0
 75
     0
 76
     0
 77
     1
 78
     8
170
     0
171
     2
172
     1
173
     1
174
     0
175
     0
176
   256
177
   256
178
   256
  0
DIMSTYLE
  2
IGA
 70
     0
  3

  4

  5

  6
OPEN
  7
OPEN
 40
2.0
 41
2.0
 42
0.5
 43
10.0
 44
1.0
 45
0.0
 46
0.0
 47
1.0
 48
1.0
140
3.0
141
0.0
142
0.0
143
0.03937
144
1.0
145
0.0
146
10.0
147
1.0
 71
     0
 72
     0
 73
     0
 74
     0
 75
     0
 76
     0
 77
     1
 78
     8
170
     0
171
     2
172
     0
173
     1
174
     0
175
     0
176
     0
177
     0
178
     0
  0
DIMSTYLE
  2
MATSU
 70
     0
  3

  4

  5

  6
OPEN
  7
OPEN
 40
1.0
 41
2.0
 42
1.0
 43
10.0
 44
1.0
 45
0.0
 46
0.0
 47
0.0
 48
0.0
140
3.0
141
0.0
142
0.0
143
0.03937
144
1.0
145
0.0
146
1.0
147
0.5
 71
     0
 72
     0
 73
     0
 74
     0
 75
     0
 76
     0
 77
     1
 78
     8
170
     0
171
     2
172
     1
173
     1
174
     0
175
     0
176
   256
177
   256
178
   256
  0
ENDTAB
  0
ENDSEC
  0
SECTION
  2
BLOCKS
  0
BLOCK
  8
0
  2
$MODEL_SPACE
 70
     0
 10
0.0
 20
0.0
 30
0.0
  3
$MODEL_SPACE
  1

  0
ENDBLK
  5
1B
  8
0
  0
BLOCK
 67
     1
  8
0
  2
$PAPER_SPACE
 70
     0
 10
0.0
 20
0.0
 30
0.0
  3
$PAPER_SPACE
  1

  0
ENDBLK
  5
18
 67
     1
  8
0
  0
BLOCK
  8
0
  2
_OPEN
 70
     0
 10
0.0
 20
0.0
 30
0.0
  3
_OPEN
  1

  0
LINE
  5
1E81
  8
0
  6
BYBLOCK
 62
     0
 10
-1.0
 20
0.1666666666666666
 30
0.0
 11
0.0
 21
0.0
 31
0.0
  0
LINE
  5
1E82
  8
0
  6
BYBLOCK
 62
     0
 10
0.0
 20
0.0
 30
0.0
 11
-1.0
 21
-0.1666666666666666
 31
0.0
  0
LINE
  5
1E83
  8
0
  6
BYBLOCK
 62
     0
 10
0.0
 20
0.0
 30
0.0
 11
-1.0
 21
0.0
 31
0.0
  0
ENDBLK
  5
1E84
  8
0
  0
BLOCK
  8
0
  2
_DOT
 70
     0
 10
0.0
 20
0.0
 30
0.0
  3
_DOT
  1

  0
LINE
  5
1EC3
  8
0
  6
BYBLOCK
 62
     0
 10
0.0
 20
0.0
 30
0.0
 11
-1.0
 21
-0.0000000000000284
 31
0.0
  0
POLYLINE
  5
1EC4
  8
0
  6
BYBLOCK
 62
     0
 66
     1
 10
0.0
 20
0.0
 30
0.0
 70
     1
 40
0.1666666666666666
 41
0.1666666666666666
  0
VERTEX
  5
8A38
  8
0
  6
BYBLOCK
 62
     0
 10
-0.0833333333333286
 20
-0.0000000000000284
 30
0.0
 42
1.0
  0
VERTEX
  5
8A39
  8
0
  6
BYBLOCK
 62
     0
 10
0.0833333333333286
 20
-0.0000000000000284
 30
0.0
 42
1.0
  0
SEQEND
  5
8A3A
  8
0
  6
BYBLOCK
 62
     0
  0
ENDBLK
  5
1EB8
  8
0
  0
BLOCK
  8
0
  2
*D2
 70
     1
 10
0.0
 20
0.0
 30
0.0
  3
*D2
  1

  0
LINE
  5
5685
  8
SP
 10
-1699.9142715201349
 20
823.03013774616693
 30
0.0
 11
-1699.9142715201349
 21
683.03013774616704
 31
0.0
  0
LINE
  5
5686
  8
SP
 10
-2079.914271520136
 20
823.03013774616522
 30
0.0
 11
-2079.914271520136
 21
683.03013774616704
 31
0.0
  0
LINE
  5
5687
  8
SP
 10
-1724.9142715201349
 20
693.03013774616704
 30
0.0
 11
-2054.914271520136
 21
693.03013774616704
 31
0.0
  0
INSERT
  5
5688
  8
SP
  2
_OPEN
 10
-1699.9142715201349
 20
693.03013774616704
 30
0.0
 41
25.0
 42
25.0
 43
25.0
  0
INSERT
  5
5689
  8
SP
  2
_OPEN
 10
-2079.914271520136
 20
693.03013774616704
 30
0.0
 41
25.0
 42
25.0
 43
25.0
 50
180.0
  0
TEXT
  5
568A
  8
SP
 10
-1931.790652263745
 20
703.03013774616704
 30
0.0
 40
30.0
  1
380
 51
15.0
  0
POINT
  5
568B
  8
DEFPOINTS
 62
     0
 10
-1699.9142715201349
 20
833.03013774616716
 30
0.0
  0
POINT
  5
568C
  8
DEFPOINTS
 62
     0
 10
-2079.914271520136
 20
833.03013774616511
 30
0.0
  0
POINT
  5
568D
  8
DEFPOINTS
 62
     0
 10
-2079.914271520136
 20
693.03013774616704
 30
0.0
  0
ENDBLK
  5
568F
  8
0
  0
BLOCK
  8
0
  2
*D3
 70
     1
 10
0.0
 20
0.0
 30
0.0
  3
*D3
  1

  0
LINE
  5
5691
  8
SP
 10
-2079.914271520136
 20
823.03013774616522
 30
0.0
 11
-2079.914271520136
 21
753.03013774616522
 31
0.0
  0
LINE
  5
5692
  8
SP
 10
-1889.9142715201349
 20
797.34538072303258
 30
0.0
 11
-1889.9142715201349
 21
753.03013774616522
 31
0.0
  0
LINE
  5
5693
  8
SP
 10
-2054.914271520136
 20
763.03013774616522
 30
0.0
 11
-1914.9142715201349
 21
763.03013774616522
 31
0.0
  0
INSERT
  5
5694
  8
SP
  2
_OPEN
 10
-2079.914271520136
 20
763.03013774616522
 30
0.0
 41
25.0
 42
25.0
 43
25.0
 50
180.0
  0
INSERT
  5
5695
  8
SP
  2
_OPEN
 10
-1889.9142715201349
 20
763.03013774616522
 30
0.0
 41
25.0
 42
25.0
 43
25.0
  0
TEXT
  5
5696
  8
SP
 10
-2026.421609050605
 20
773.03013774616522
 30
0.0
 40
30.0
  1
190
 51
15.0
  0
POINT
  5
5697
  8
DEFPOINTS
 62
     0
 10
-2079.914271520136
 20
833.03013774616511
 30
0.0
  0
POINT
  5
5698
  8
DEFPOINTS
 62
     0
 10
-1889.9142715201349
 20
807.34538072303246
 30
0.0
  0
POINT
  5
5699
  8
DEFPOINTS
 62
     0
 10
-1889.9142715201349
 20
763.03013774616522
 30
0.0
  0
ENDBLK
  5
569B
  8
0
  0
BLOCK
  8
0
  2
*D4
 70
     1
 10
0.0
 20
0.0
 30
0.0
  3
*D4
  1

  0
LINE
  5
569D
  8
SP
 10
-1889.9142715201349
 20
797.34538072303258
 30
0.0
 11
-1889.9142715201349
 21
753.03013774616704
 31
0.0
  0
LINE
  5
569E
  8
SP
 10
-1699.9142715201349
 20
823.03013774616693
 30
0.0
 11
-1699.9142715201349
 21
753.03013774616704
 31
0.0
  0
LINE
  5
569F
  8
SP
 10
-1864.9142715201349
 20
763.03013774616704
 30
0.0
 11
-1724.9142715201349
 21
763.03013774616704
 31
0.0
  0
INSERT
  5
56A0
  8
SP
  2
_OPEN
 10
-1889.9142715201349
 20
763.03013774616704
 30
0.0
 41
25.0
 42
25.0
 43
25.0
 50
180.0
  0
INSERT
  5
56A1
  8
SP
  2
_OPEN
 10
-1699.9142715201349
 20
763.03013774616704
 30
0.0
 41
25.0
 42
25.0
 43
25.0
  0
TEXT
  5
56A2
  8
SP
 10
-1836.4216090506061
 20
773.03013774616704
 30
0.0
 40
30.0
  1
190
 51
15.0
  0
POINT
  5
56A3
  8
DEFPOINTS
 62
     0
 10
-1889.9142715201349
 20
807.34538072303246
 30
0.0
  0
POINT
  5
56A4
  8
DEFPOINTS
 62
     0
 10
-1699.9142715201349
 20
833.03013774616716
 30
0.0
  0
POINT
  5
56A5
  8
DEFPOINTS
 62
     0
 10
-1699.9142715201349
 20
763.03013774616704
 30
0.0
  0
ENDBLK
  5
56A7
  8
0
  0
BLOCK
  8
0
  2
*D5
 70
     1
 10
0.0
 20
0.0
 30
0.0
  3
*D5
  1

  0
LINE
  5
56A9
  8
SP
 10
-2139.9142715201351
 20
1298.030137746166
 30
0.0
 11
-2139.9142715201351
 21
1368.030137746166
 31
0.0
  0
LINE
  5
56AA
  8
SP
 10
-1889.9142715201349
 20
1307.8065568904919
 30
0.0
 11
-1889.9142715201349
 21
1368.030137746166
 31
0.0
  0
LINE
  5
56AB
  8
SP
 10
-2114.9142715201351
 20
1358.030137746166
 30
0.0
 11
-1914.9142715201349
 21
1358.030137746166
 31
0.0
  0
INSERT
  5
56AC
  8
SP
  2
_OPEN
 10
-2139.9142715201351
 20
1358.030137746166
 30
0.0
 41
25.0
 42
25.0
 43
25.0
 50
180.0
  0
INSERT
  5
56AD
  8
SP
  2
_OPEN
 10
-1889.9142715201349
 20
1358.030137746166
 30
0.0
 41
25.0
 42
25.0
 43
25.0
  0
TEXT
  5
56AE
  8
SP
 10
-2056.0250831425128
 20
1368.030137746166
 30
0.0
 40
30.0
  1
250
 51
15.0
  0
POINT
  5
56AF
  8
DEFPOINTS
 62
     0
 10
-2139.9142715201351
 20
1288.030137746166
 30
0.0
  0
POINT
  5
56B0
  8
DEFPOINTS
 62
     0
 10
-1889.9142715201349
 20
1297.8065568904919
 30
0.0
  0
POINT
  5
56B1
  8
DEFPOINTS
 62
     0
 10
-1889.9142715201349
 20
1358.030137746166
 30
0.0
  0
ENDBLK
  5
56B3
  8
0
  0
BLOCK
  8
0
  2
*D6
 70
     1
 10
0.0
 20
0.0
 30
0.0
  3
*D6
  1

  0
LINE
  5
56B5
  8
SP
 10
-1889.9142715201349
 20
1307.8065568904919
 30
0.0
 11
-1889.9142715201349
 21
1368.030137746166
 31
0.0
  0
LINE
  5
56B6
  8
SP
 10
-1713.9142715201349
 20
1081.0301377461669
 30
0.0
 11
-1713.9142715201349
 21
1368.030137746166
 31
0.0
  0
LINE
  5
56B7
  8
SP
 10
-1864.9142715201349
 20
1358.030137746166
 30
0.0
 11
-1738.9142715201349
 21
1358.030137746166
 31
0.0
  0
INSERT
  5
56B8
  8
SP
  2
_OPEN
 10
-1889.9142715201349
 20
1358.030137746166
 30
0.0
 41
25.0
 42
25.0
 43
25.0
 50
180.0
  0
INSERT
  5
56B9
  8
SP
  2
_OPEN
 10
-1713.9142715201349
 20
1358.030137746166
 30
0.0
 41
25.0
 42
25.0
 43
25.0
  0
TEXT
  5
56BA
  8
SP
 10
-1842.8987156166279
 20
1368.030137746166
 30
0.0
 40
30.0
  1
176
 51
15.0
  0
POINT
  5
56BB
  8
DEFPOINTS
 62
     0
 10
-1889.9142715201349
 20
1297.8065568904919
 30
0.0
  0
POINT
  5
56BC
  8
DEFPOINTS
 62
     0
 10
-1713.9142715201349
 20
1071.0301377461669
 30
0.0
  0
POINT
  5
56BD
  8
DEFPOINTS
 62
     0
 10
-1713.9142715201349
 20
1358.030137746166
 30
0.0
  0
ENDBLK
  5
56BF
  8
0
  0
BLOCK
  8
0
  2
*D7
 70
     1
 10
0.0
 20
0.0
 30
0.0
  3
*D7
  1

  0
LINE
  5
56C1
  8
SP
 10
-2184.1007564974338
 20
1088.030137746166
 30
0.0
 11
-2249.3805561714089
 21
1088.030137746166
 31
0.0
  0
LINE
  5
56C2
  8
SP
 10
-2170.9142715201351
 20
1288.0301377461669
 30
0.0
 11
-2249.3805561714089
 21
1288.0301377461669
 31
0.0
  0
LINE
  5
56C3
  8
SP
 10
-2239.3805561714089
 20
1113.0301377461669
 30
0.0
 11
-2239.3805561714089
 21
1263.0301377461669
 31
0.0
  0
INSERT
  5
56C4
  8
SP
  2
_OPEN
 10
-2239.3805561714089
 20
1088.030137746166
 30
0.0
 41
25.0
 42
25.0
 43
25.0
 50
270.0
  0
INSERT
  5
56C5
  8
SP
  2
_OPEN
 10
-2239.3805561714089
 20
1288.0301377461669
 30
0.0
 41
25.0
 42
25.0
 43
25.0
 50
90.0
  0
TEXT
  5
56C6
  8
SP
 10
-2249.3805561714089
 20
1146.9193261237881
 30
0.0
 40
30.0
  1
200
 50
90.0
 51
15.0
  0
POINT
  5
56C7
  8
DEFPOINTS
 62
     0
 10
-2174.1007564974352
 20
1088.030137746166
 30
0.0
  0
POINT
  5
56C8
  8
DEFPOINTS
 62
     0
 10
-2160.9142715201351
 20
1288.0301377461669
 30
0.0
  0
POINT
  5
56C9
  8
DEFPOINTS
 62
     0
 10
-2239.3805561714089
 20
1288.0301377461669
 30
0.0
  0
ENDBLK
  5
56CB
  8
0
  0
BLOCK
  8
0
  2
*D8
 70
     1
 10
0.0
 20
0.0
 30
0.0
  3
*D8
  1

  0
LINE
  5
56CD
  8
SP
 10
-2184.1007564974338
 20
1088.030137746166
 30
0.0
 11
-2249.3805561714089
 21
1088.030137746166
 31
0.0
  0
LINE
  5
56CE
  8
SP
 10
-2089.914271520136
 20
833.03013774616511
 30
0.0
 11
-2249.3805561714089
 21
833.03013774616511
 31
0.0
  0
LINE
  5
56CF
  8
SP
 10
-2239.3805561714089
 20
1063.0301377461669
 30
0.0
 11
-2239.3805561714089
 21
858.03013774616511
 31
0.0
  0
INSERT
  5
56D0
  8
SP
  2
_OPEN
 10
-2239.3805561714089
 20
1088.030137746166
 30
0.0
 41
25.0
 42
25.0
 43
25.0
 50
90.0
  0
INSERT
  5
56D1
  8
SP
  2
_OPEN
 10
-2239.3805561714089
 20
833.03013774616511
 30
0.0
 41
25.0
 42
25.0
 43
25.0
 50
270.0
  0
TEXT
  5
56D2
  8
SP
 10
-2249.3805561714089
 20
919.36804271684161
 30
0.0
 40
30.0
  1
255
 50
90.0
 51
15.0
  0
POINT
  5
56D3
  8
DEFPOINTS
 62
     0
 10
-2174.1007564974352
 20
1088.030137746166
 30
0.0
  0
POINT
  5
56D4
  8
DEFPOINTS
 62
     0
 10
-2079.914271520136
 20
833.03013774616511
 30
0.0
  0
POINT
  5
56D5
  8
DEFPOINTS
 62
     0
 10
-2239.3805561714089
 20
833.03013774616511
 30
0.0
  0
ENDBLK
  5
56D7
  8
0
  0
BLOCK
  8
0
  2
A$C44EA23BE
 70
     0
 10
0.0
 20
0.0
 30
0.0
  3
A$C44EA23BE
  1

  0
DIMENSION
  5
56D9
  8
SP
  2
*D8
 10
-349.46628465127378
 20
-255.00000000000171
 30
0.0
 11
-374.46628465127378
 21
-127.50000000000119
 31
0.0
 12
1889.9142715201349
 22
-1088.030137746166
 32
0.0
  3
GOD
 13
-284.18648497729919
 23
0.0
 33
0.0
 14
-190.00000000000091
 24
-255.00000000000171
 34
0.0
 50
90.0
  0
ARC
  5
56DA
  8
FUTO
 10
-17.0
 20
-17.0
 30
0.0
 40
203.0
 50
269.572081032222
 51
0.4673217049947748
  0
ARC
  5
56DB
  8
FUTO
 10
-20.0
 20
20.0
 30
0.0
 40
240.0
 50
180.0
 51
270.39182689926031
  0
ARC
  5
56DC
  8
FUTO
 10
-17.0
 20
-17.0
 30
0.0
 40
193.0
 50
269.572081032222
 51
0.4673217049947748
  0
ARC
  5
56DD
  8
FUTO
 10
-20.0
 20
20.0
 30
0.0
 40
230.0
 50
180.0
 51
270.39182689926031
  0
LINE
  5
56DE
  8
2
 10
0.0
 20
-280.6847570231343
 30
0.0
 11
0.0
 21
209.77641914432559
 31
0.0
  0
LINE
  5
56DF
  8
1
 10
157.69999999999891
 20
66.099999999998545
 30
0.0
 11
157.69999999999891
 21
-255.00000000000179
 31
0.0
  0
LINE
  5
56E0
  8
1
 10
160.0
 20
66.099999999998545
 30
0.0
 11
160.0
 21
-252.7000000000007
 31
0.0
  0
LINE
  5
56E1
  8
1
 10
-157.69999999999979
 20
66.099999999998545
 30
0.0
 11
-157.69999999999979
 21
-255.00000000000179
 31
0.0
  0
LINE
  5
56E2
  8
1
 10
-160.0
 20
66.099999999998545
 30
0.0
 11
-159.99999999999901
 21
-252.69999999999891
 31
0.0
  0
ARC
  5
56E3
  8
1
 10
0.0
 20
0.0
 30
0.0
 40
85.0
 50
0.0
 51
244.12446600000609
  0
CIRCLE
  5
56E4
  8
2
 10
0.0
 20
0.0
 30
0.0
 40
136.0
  0
ARC
  5
56E5
  8
1
 10
0.0
 20
0.0
 30
0.0
 40
85.000007999999994
 50
295.91772599999888
 51
0.0
  0
DIMENSION
  5
56E6
  8
SP
  2
*D2
 10
-190.00000000000091
 20
-394.99999999999977
 30
0.0
 11
-0.0000000000004547
 21
-369.99999999999977
 31
0.0
 12
1889.9142715201349
 22
-1088.030137746166
 32
0.0
  3
GOD
 13
190.0
 23
-254.9999999999998
 33
0.0
 14
-190.00000000000091
 24
-255.00000000000171
 34
0.0
  0
DIMENSION
  5
56E7
  8
SP
  2
*D4
 10
190.0
 20
-324.99999999999989
 30
0.0
 11
95.0
 21
-299.99999999999989
 31
0.0
 12
1889.9142715201349
 22
-1088.030137746166
 32
0.0
  3
GOD
 13
0.0
 23
-280.6847570231343
 33
0.0
 14
190.0
 24
-254.9999999999998
 34
0.0
  0
DIMENSION
  5
56E8
  8
SP
  2
*D3
 10
0.0
 20
-325.00000000000171
 30
0.0
 11
-95.000000000000455
 21
-300.00000000000171
 31
0.0
 12
1889.9142715201349
 22
-1088.030137746166
 32
0.0
  3
GOD
 13
-190.00000000000091
 23
-255.00000000000171
 33
0.0
 14
0.0
 24
-280.6847570231343
 34
0.0
  0
LINE
  5
56E9
  8
FUTO
 10
-132.69999999999979
 20
-105.0
 30
0.0
 11
-157.69999999999891
 21
-80.0
 31
0.0
  0
LINE
  5
56EA
  8
1
 10
-157.69999999999891
 20
-203.9999999999998
 30
0.0
 11
-132.7000000000007
 21
-203.9999999999998
 31
0.0
  0
LINE
  5
56EB
  8
1
 10
-190.00000000000091
 20
-255.00000000000179
 30
0.0
 11
190.0
 21
-255.0
 31
0.0
  0
LINE
  5
56EC
  8
1
 10
-157.69999999999891
 20
-80.0
 30
0.0
 11
157.69999999999891
 21
-80.0
 31
0.0
  0
LINE
  5
56ED
  8
2
 10
-176.99999999999901
 20
-268.98279906584588
 30
0.0
 11
-176.99999999999901
 21
-242.69999999999879
 31
0.0
  0
LINE
  5
56EE
  8
1
 10
-190.00000000000091
 20
-255.00000000000179
 30
0.0
 11
-190.00000000000179
 21
-252.7000000000007
 31
0.0
  0
LINE
  5
56EF
  8
1
 10
-190.00000000000091
 20
-252.7000000000007
 30
0.0
 11
-159.99999999999901
 21
-252.69999999999891
 31
0.0
  0
LINE
  5
56F0
  8
1
 10
132.699999999997
 20
-105.0
 30
0.0
 11
132.699999999997
 21
-203.9999999999998
 31
0.0
  0
LINE
  5
56F1
  8
1
 10
-132.69999999999979
 20
-105.0
 30
0.0
 11
-132.69999999999979
 21
-203.9999999999998
 31
0.0
  0
LINE
  5
56F2
  8
1
 10
132.699999999997
 20
-203.9999999999998
 30
0.0
 11
157.69999999999891
 21
-203.9999999999998
 31
0.0
  0
LINE
  5
56F3
  8
1
 10
190.0
 20
-255.0
 30
0.0
 11
190.0
 21
-252.69999999999891
 31
0.0
  0
LINE
  5
56F4
  8
2
 10
176.9999999999981
 20
-267.91032669659847
 30
0.0
 11
177.0
 21
-242.7000000000007
 31
0.0
  0
LINE
  5
56F5
  8
1
 10
160.0
 20
-252.69999999999891
 30
0.0
 11
190.0
 21
-252.7000000000007
 31
0.0
  0
LINE
  5
56F6
  8
FUTO
 10
132.69999999999979
 20
-105.0
 30
0.0
 11
157.69999999999891
 21
-80.0
 31
0.0
  0
LINE
  5
56F7
  8
1
 10
-132.69999999999979
 20
-105.0
 30
0.0
 11
132.69999999999891
 21
-105.0
 31
0.0
  0
LINE
  5
56F8
  8
CT
 10
-57.086121054688192
 20
-137.8180876735004
 30
0.0
 11
-46.574035520656253
 21
-112.43966820841879
 31
0.0
  0
CIRCLE
  5
56F9
  8
1
 10
-52.044946801652252
 20
-125.64761642153459
 30
0.0
 40
4.0
  0
LINE
  5
56FA
  8
CT
 10
57.086121054688192
 20
-137.8180876735004
 30
0.0
 11
46.574035520658072
 21
-112.43966820841879
 31
0.0
  0
CIRCLE
  5
56FB
  8
1
 10
52.044946801652252
 20
-125.64761642153459
 30
0.0
 40
4.0
  0
LINE
  5
56FC
  8
1
 10
-37.095498999999108
 20
-76.450928000000204
 30
0.0
 11
37.151808999999041
 21
-76.450928000000204
 31
0.0
  0
LINE
  5
56FD
  8
1
 10
-82.5
 20
-78.34088200000042
 30
0.0
 11
82.500029999999242
 21
-78.34088200000042
 31
0.0
  0
LINE
  5
56FE
  8
CT
 10
-62.5
 20
-82.218586000000869
 30
0.0
 11
-62.5
 21
-73.631579000000784
 31
0.0
  0
LINE
  5
56FF
  8
CT
 10
-137.8180876735004
 20
-57.086121054690011
 30
0.0
 11
-112.439668208417
 21
-46.574035520658072
 31
0.0
  0
ARC
  5
5700
  8
1
 10
-52.365203999999721
 20
-70.5
 30
0.0
 40
5.0
 50
270.0
 51
324.46176099999479
  0
LINE
  5
5701
  8
1
 10
-46.623938000000628
 20
-71.064478000000236
 30
0.0
 11
-48.296539999999368
 21
-73.40625
 31
0.0
  0
LINE
  5
5702
  8
1
 10
-77.833160999999564
 20
-75.505370999999286
 30
0.0
 11
-62.323167999999889
 21
-57.818504000000758
 31
0.0
  0
LINE
  5
5703
  8
1
 10
-82.5
 20
-75.5
 30
0.0
 11
-52.36517399999866
 21
-75.5
 31
0.0
  0
CIRCLE
  5
5704
  8
1
 10
-125.64761642153459
 20
-52.044946801652252
 30
0.0
 40
4.0
  0
ARC
  5
5705
  8
1
 10
0.0
 20
0.0
 30
0.0
 40
85.0
 50
236.73178133170779
 51
244.12446600000609
  0
LINE
  5
5706
  8
1
 10
-42.5
 20
-78.34088200000042
 30
0.0
 11
-42.5
 21
-80.0
 31
0.0
  0
LINE
  5
5707
  8
1
 10
-77.5
 20
-78.34088200000042
 30
0.0
 11
-77.5
 21
-80.0
 31
0.0
  0
LINE
  5
5708
  8
1
 10
-82.5
 20
-78.34088200000042
 30
0.0
 11
-82.5
 21
-75.5
 31
0.0
  0
LINE
  5
5709
  8
CT
 10
137.8180876735004
 20
-57.086121054688192
 30
0.0
 11
112.439668208417
 21
-46.574035520658072
 31
0.0
  0
LINE
  5
570A
  8
CT
 10
62.5
 20
-82.218586000000869
 30
0.0
 11
62.5
 21
-73.631579000000784
 31
0.0
  0
LINE
  5
570B
  8
1
 10
82.500029999999242
 20
-75.5
 30
0.0
 11
52.365203999999721
 21
-75.5
 31
0.0
  0
LINE
  5
570C
  8
1
 10
77.834367999999813
 20
-75.506824000000051
 30
0.0
 11
62.32130799999868
 21
-57.816361999999572
 31
0.0
  0
LINE
  5
570D
  8
1
 10
47.508270000000259
 20
-72.302612999999837
 30
0.0
 11
48.296538999999029
 21
-73.40625
 31
0.0
  0
LINE
  5
570E
  8
1
 10
46.631551000000393
 20
-71.075138000000152
 30
0.0
 11
48.296538999999029
 21
-73.40625
 31
0.0
  0
ARC
  5
570F
  8
1
 10
52.365203999999721
 20
-70.5
 30
0.0
 40
5.000032
 50
215.53825399999309
 51
270.0
  0
LINE
  5
5710
  8
1
 10
77.5
 20
-78.34088200000042
 30
0.0
 11
77.5
 21
-80.0
 31
0.0
  0
LINE
  5
5711
  8
1
 10
42.5
 20
-78.34088200000042
 30
0.0
 11
42.5
 21
-80.0
 31
0.0
  0
LINE
  5
5712
  8
1
 10
82.500029999999242
 20
-75.5
 30
0.0
 11
82.500029999999242
 21
-78.34088200000042
 31
0.0
  0
CIRCLE
  5
5713
  8
1
 10
125.64761642153459
 20
-52.044946801652252
 30
0.0
 40
4.0
  0
DIMENSION
  5
5714
  8
SP
  2
*D7
 10
-349.46628465127333
 20
200.0
 30
0.0
 11
-374.46628465127378
 21
99.999999999999787
 31
0.0
 12
1889.9142715201349
 22
-1088.030137746166
 32
0.0
  3
GOD
 13
-284.18648497729919
 23
0.0
 33
0.0
 14
-271.0
 24
200.0
 34
0.0
 50
90.0
  0
DIMENSION
  5
5715
  8
SP
  2
*D6
 10
176.0
 20
269.99999999999898
 30
0.0
 11
88.0
 21
294.99999999999898
 31
0.0
 12
1889.9142715201349
 22
-1088.030137746166
 32
0.0
  3
GOD
 13
0.0
 23
209.77641914432559
 33
0.0
 14
176.0
 24
-17.0
 34
0.0
  0
LINE
  5
5716
  8
FUTO
 10
-250.99998456825821
 20
199.99444453017639
 30
0.0
 11
-249.99998456825821
 21
19.99444453017281
 31
0.0
  0
LINE
  5
5717
  8
FUTO
 10
-251.0
 20
200.0
 30
0.0
 11
-251.0
 21
180.0
 31
0.0
  0
LINE
  5
5718
  8
FUTO
 10
-252.0
 20
199.0
 30
0.0
 11
-252.0
 21
180.0
 31
0.0
  0
LINE
  5
5719
  8
FUTO
 10
-249.0
 20
198.0
 30
0.0
 11
-231.0
 21
180.0
 31
0.0
  0
LINE
  5
571A
  8
FUTO
 10
0.0
 20
180.0
 30
0.0
 11
0.0
 21
200.0
 31
0.0
  0
LINE
  5
571B
  8
FUTO
 10
1.0
 20
200.0
 30
0.0
 11
1.0
 21
180.0
 31
0.0
  0
LINE
  5
571C
  8
FUTO
 10
2.0
 20
199.0
 30
0.0
 11
2.0
 21
180.0
 31
0.0
  0
LINE
  5
571D
  8
FUTO
 10
-1.0
 20
198.0
 30
0.0
 11
-19.0
 21
180.0
 31
0.0
  0
LINE
  5
571E
  8
FUTO
 10
-231.0
 20
180.0
 30
0.0
 11
-19.0
 21
180.0
 31
0.0
  0
LINE
  5
571F
  8
1
 10
-60.0
 20
150.0
 30
0.0
 11
-158.39999999999961
 21
66.099999999998545
 31
0.0
  0
LINE
  5
5720
  8
2
 10
-284.18648497729919
 20
0.0
 30
0.0
 11
210.14761457335041
 21
-0.000000000001819
 31
0.0
  0
LINE
  5
5721
  8
FUTO
 10
-260.8890586406655
 20
180.0
 30
0.0
 11
-259.99983025084288
 21
19.938889831936191
 31
0.0
  0
LINE
  5
5722
  8
1
 10
-160.0
 20
66.099999999998545
 30
0.0
 11
-158.39999999999961
 21
66.099999999998545
 31
0.0
  0
LINE
  5
5723
  8
FUTO
 10
-260.8890586406655
 20
180.0
 30
0.0
 11
-250.88890432086819
 21
180.0
 31
0.0
  0
ARC
  5
5724
  8
FUTO
 10
14.0
 20
-14.0
 30
0.0
 40
172.0
 50
359.4896667551933
 51
78.450738176447032
  0
ARC
  5
5725
  8
FUTO
 10
14.0
 20
-14.0
 30
0.0
 40
162.0
 50
359.4896667551933
 51
78.450738176447032
  0
LINE
  5
5726
  8
1
 10
60.0
 20
150.0
 30
0.0
 11
158.39999999999961
 21
66.099999999998545
 31
0.0
  0
LINE
  5
5727
  8
CT
 10
-137.8180876735004
 20
57.086121054686373
 30
0.0
 11
-112.439668208417
 21
46.574035520658072
 31
0.0
  0
CIRCLE
  5
5728
  8
1
 10
-125.64761642153459
 20
52.044946801652252
 30
0.0
 40
4.0
  0
LINE
  5
5729
  8
CT
 10
137.8180876735004
 20
57.086121054686373
 30
0.0
 11
112.439668208417
 21
46.574035520658072
 31
0.0
  0
CIRCLE
  5
572A
  8
1
 10
125.64761642153459
 20
52.044946801652252
 30
0.0
 40
4.0
  0
LINE
  5
572B
  8
1
 10
158.39999999999961
 20
66.099999999998545
 30
0.0
 11
160.0
 21
66.099999999998545
 31
0.0
  0
LINE
  5
572C
  8
CT
 10
57.086121054688192
 20
137.81808767349861
 30
0.0
 11
46.574035520656253
 21
112.439668208417
 31
0.0
  0
LINE
  5
572D
  8
CT
 10
-57.086121054688192
 20
137.81808767349861
 30
0.0
 11
-46.574035520658072
 21
112.4396682084152
 31
0.0
  0
CIRCLE
  5
572E
  8
1
 10
-52.044946801652252
 20
125.64761642153459
 30
0.0
 40
4.0
  0
CIRCLE
  5
572F
  8
1
 10
52.044946801652252
 20
125.64761642153459
 30
0.0
 40
4.0
  0
ARC
  5
5730
  8
FUTO
 10
60.999999999996362
 20
216.0
 30
0.0
 40
72.753061747871584
 50
214.1996194554568
 51
258.45073817644709
  0
LINE
  5
5731
  8
FUTO
 10
0.0
 20
180.0
 30
0.0
 11
5.9318434102424362
 21
180.0
 31
0.0
  0
LINE
  5
5732
  8
1
 10
-60.0
 20
150.0
 30
0.0
 11
60.0
 21
150.0
 31
0.0
  0
LINE
  5
5733
  8
FUTO
 10
0.0
 20
180.0
 30
0.0
 11
1.0
 21
180.0
 31
0.0
  0
ARC
  5
5734
  8
FUTO
 10
59.528586099928361
 20
210.519969322142
 30
0.0
 40
57.203726762688042
 50
216.60350367361539
 51
261.67207569821369
  0
ARC
  5
5735
  8
FUTO
 10
5.9318434102424362
 20
170.0
 30
0.0
 40
10.0
 50
39.872968906140997
 51
90.0
  0
LINE
  5
5736
  8
FUTO
 10
-271.0
 20
200.0
 30
0.0
 11
21.0
 21
200.0
 31
0.0
  0
LINE
  5
5737
  8
FUTO
 10
-251.0
 20
199.0
 30
0.0
 11
1.0
 21
199.0
 31
0.0
  0
DIMENSION
  5
5738
  8
SP
  2
*D5
 10
0.0
 20
269.99999999999898
 30
0.0
 11
-125.0
 21
294.99999999999898
 31
0.0
 12
1889.9142715201349
 22
-1088.030137746166
 32
0.0
  3
GOD
 13
-250.0
 23
199.99999999999901
 33
0.0
 14
0.0
 24
209.77641914432559
 34
0.0
  0
LINE
  5
5739
  8
FUTO
 10
-271.0
 20
199.0
 30
0.0
 11
-252.0
 21
199.0
 31
0.0
  0
LINE
  5
573A
  8
FUTO
 10
-271.0
 20
200.0
 30
0.0
 11
-271.0
 21
199.0
 31
0.0
  0
LINE
  5
573B
  8
FUTO
 10
-251.0
 20
198.0
 30
0.0
 11
-249.0
 21
198.0
 31
0.0
  0
LINE
  5
573C
  8
FUTO
 10
2.0
 20
199.0
 30
0.0
 11
21.0
 21
199.0
 31
0.0
  0
LINE
  5
573D
  8
FUTO
 10
-1.0
 20
198.0
 30
0.0
 11
1.0
 21
198.0
 31
0.0
  0
LINE
  5
573E
  8
FUTO
 10
21.0
 20
200.0
 30
0.0
 11
21.0
 21
199.0
 31
0.0
  0
ENDBLK
  5
5740
  8
0
  0
BLOCK
  8
0
  2
*D10
 70
     1
 10
0.0
 20
0.0
 30
0.0
  3
*D10
  1

  0
LINE
  5
8735
  8
SP
 10
6738.4581043734406
 20
1372.2528744141059
 30
0.0
 11
6738.4581043734406
 21
1442.2528744141059
 31
0.0
  0
LINE
  5
8736
  8
SP
 10
6488.4581043734406
 20
1382.0292935584321
 30
0.0
 11
6488.4581043734406
 21
1442.2528744141059
 31
0.0
  0
LINE
  5
8737
  8
SP
 10
6713.4581043734406
 20
1432.2528744141059
 30
0.0
 11
6513.4581043734406
 21
1432.2528744141059
 31
0.0
  0
INSERT
  5
8738
  8
SP
  2
_OPEN
 10
6738.4581043734406
 20
1432.2528744141059
 30
0.0
 41
25.0
 42
25.0
 43
25.0
  0
INSERT
  5
8739
  8
SP
  2
_OPEN
 10
6488.4581043734406
 20
1432.2528744141059
 30
0.0
 41
25.0
 42
25.0
 43
25.0
 50
180.0
  0
TEXT
  5
873A
  8
SP
 10
6572.3472927510638
 20
1442.2528744141059
 30
0.0
 40
30.0
  1
250
 51
15.0
  0
POINT
  5
873B
  8
DEFPOINTS
 62
     0
 10
6738.4581043734406
 20
1362.2528744141059
 30
0.0
  0
POINT
  5
873C
  8
DEFPOINTS
 62
     0
 10
6488.4581043734406
 20
1372.0292935584321
 30
0.0
  0
POINT
  5
873D
  8
DEFPOINTS
 62
     0
 10
6488.4581043734406
 20
1432.2528744141059
 30
0.0
  0
ENDBLK
  5
5EB0
  8
0
  0
BLOCK
  8
0
  2
*D11
 70
     1
 10
0.0
 20
0.0
 30
0.0
  3
*D11
  1

  0
LINE
  5
872C
  8
SP
 10
6488.4581043734406
 20
1382.0292935584321
 30
0.0
 11
6488.4581043734406
 21
1442.2528744141059
 31
0.0
  0
LINE
  5
872D
  8
SP
 10
6312.4581043734406
 20
1155.2528744141071
 30
0.0
 11
6312.4581043734406
 21
1442.2528744141059
 31
0.0
  0
LINE
  5
872E
  8
SP
 10
6463.4581043734406
 20
1432.2528744141059
 30
0.0
 11
6337.4581043734424
 21
1432.2528744141059
 31
0.0
  0
INSERT
  5
872F
  8
SP
  2
_OPEN
 10
6488.4581043734406
 20
1432.2528744141059
 30
0.0
 41
25.0
 42
25.0
 43
25.0
  0
INSERT
  5
8730
  8
SP
  2
_OPEN
 10
6312.4581043734406
 20
1432.2528744141059
 30
0.0
 41
25.0
 42
25.0
 43
25.0
 50
180.0
  0
TEXT
  5
8731
  8
SP
 10
6359.473660276949
 20
1442.2528744141059
 30
0.0
 40
30.0
  1
176
 51
15.0
  0
POINT
  5
8732
  8
DEFPOINTS
 62
     0
 10
6488.4581043734406
 20
1372.0292935584321
 30
0.0
  0
POINT
  5
8733
  8
DEFPOINTS
 62
     0
 10
6312.4581043734406
 20
1145.2528744141059
 30
0.0
  0
POINT
  5
8734
  8
DEFPOINTS
 62
     0
 10
6312.4581043734406
 20
1432.2528744141059
 30
0.0
  0
ENDBLK
  5
5EBC
  8
0
  0
BLOCK
  8
0
  2
*D12
 70
     1
 10
0.0
 20
0.0
 30
0.0
  3
*D12
  1

  0
LINE
  5
8723
  8
SP
 10
6782.6445893507407
 20
1162.2528744141059
 30
0.0
 11
6847.9243890247153
 21
1162.2528744141059
 31
0.0
  0
LINE
  5
8724
  8
SP
 10
6769.4581043734406
 20
1362.2528744141059
 30
0.0
 11
6847.9243890247153
 21
1362.2528744141059
 31
0.0
  0
LINE
  5
8725
  8
SP
 10
6837.9243890247126
 20
1187.2528744141059
 30
0.0
 11
6837.9243890247126
 21
1337.2528744141059
 31
0.0
  0
INSERT
  5
8726
  8
SP
  2
_OPEN
 10
6837.9243890247126
 20
1162.2528744141059
 30
0.0
 41
25.0
 42
25.0
 43
25.0
 50
270.0
  0
INSERT
  5
8727
  8
SP
  2
_OPEN
 10
6837.9243890247126
 20
1362.2528744141059
 30
0.0
 41
25.0
 42
25.0
 43
25.0
 50
90.0
  0
TEXT
  5
8728
  8
SP
 10
6827.9243890247144
 20
1221.14206279173
 30
0.0
 40
30.0
  1
200
 50
90.0
 51
15.0
  0
POINT
  5
8729
  8
DEFPOINTS
 62
     0
 10
6772.6445893507398
 20
1162.2528744141059
 30
0.0
  0
POINT
  5
872A
  8
DEFPOINTS
 62
     0
 10
6759.4581043734424
 20
1362.2528744141059
 30
0.0
  0
POINT
  5
872B
  8
DEFPOINTS
 62
     0
 10
6837.9243890247126
 20
1362.2528744141059
 30
0.0
  0
ENDBLK
  5
5EC8
  8
0
  0
BLOCK
  8
0
  2
*D13
 70
     1
 10
0.0
 20
0.0
 30
0.0
  3
*D13
  1

  0
LINE
  5
86EB
  8
SP
 10
6782.6445893507407
 20
1162.2528744141059
 30
0.0
 11
6847.9243890247153
 21
1162.2528744141059
 31
0.0
  0
LINE
  5
86EC
  8
SP
 10
6688.4581043734424
 20
907.25287441410512
 30
0.0
 11
6847.9243890247153
 21
907.25287441410512
 31
0.0
  0
LINE
  5
86ED
  8
SP
 10
6837.9243890247126
 20
1137.2528744141059
 30
0.0
 11
6837.9243890247126
 21
932.25287441410512
 31
0.0
  0
INSERT
  5
86EE
  8
SP
  2
_OPEN
 10
6837.9243890247126
 20
1162.2528744141059
 30
0.0
 41
25.0
 42
25.0
 43
25.0
 50
90.0
  0
INSERT
  5
86EF
  8
SP
  2
_OPEN
 10
6837.9243890247126
 20
907.25287441410512
 30
0.0
 41
25.0
 42
25.0
 43
25.0
 50
270.0
  0
TEXT
  5
86F0
  8
SP
 10
6827.9243890247144
 20
993.59077938478299
 30
0.0
 40
30.0
  1
255
 50
90.0
 51
15.0
  0
POINT
  5
86F1
  8
DEFPOINTS
 62
     0
 10
6772.6445893507398
 20
1162.2528744141059
 30
0.0
  0
POINT
  5
86F2
  8
DEFPOINTS
 62
     0
 10
6678.4581043734424
 20
907.25287441410512
 30
0.0
  0
POINT
  5
86F3
  8
DEFPOINTS
 62
     0
 10
6837.9243890247126
 20
907.25287441410512
 30
0.0
  0
ENDBLK
  5
5ED4
  8
0
  0
BLOCK
  8
0
  2
*D14
 70
     1
 10
0.0
 20
0.0
 30
0.0
  3
*D14
  1

  0
LINE
  5
86D9
  8
SP
 10
7248.4581043734443
 20
1372.2528744141059
 30
0.0
 11
7248.4581043734443
 21
1442.252874414105
 31
0.0
  0
LINE
  5
86DA
  8
SP
 10
7428.4581043734424
 20
1372.2528744141059
 30
0.0
 11
7428.4581043734424
 21
1442.252874414105
 31
0.0
  0
LINE
  5
86DB
  8
SP
 10
7273.4581043734433
 20
1432.252874414105
 30
0.0
 11
7403.4581043734406
 21
1432.252874414105
 31
0.0
  0
INSERT
  5
86DC
  8
SP
  2
_OPEN
 10
7248.4581043734443
 20
1432.252874414105
 30
0.0
 41
25.0
 42
25.0
 43
25.0
 50
180.0
  0
INSERT
  5
86DD
  8
SP
  2
_OPEN
 10
7428.4581043734424
 20
1432.252874414105
 30
0.0
 41
25.0
 42
25.0
 43
25.0
  0
TEXT
  5
86DE
  8
SP
 10
7296.9507668429724
 20
1442.252874414105
 30
0.0
 40
30.0
  1
180
 51
15.0
  0
POINT
  5
86DF
  8
DEFPOINTS
 62
     0
 10
7248.4581043734443
 20
1362.2528744141059
 30
0.0
  0
POINT
  5
86E0
  8
DEFPOINTS
 62
     0
 10
7428.4581043734424
 20
1362.2528744141059
 30
0.0
  0
POINT
  5
86E1
  8
DEFPOINTS
 62
     0
 10
7428.4581043734424
 20
1432.252874414105
 30
0.0
  0
ENDBLK
  5
6478
  8
0
  0
BLOCK
  8
0
  2
*D15
 70
     1
 10
0.0
 20
0.0
 30
0.0
  3
*D15
  1

  0
LINE
  5
873E
  8
SP
 10
7447.4581043734433
 20
1287.2528744141059
 30
0.0
 11
7518.4581043734433
 21
1287.2528744141059
 31
0.0
  0
LINE
  5
873F
  8
SP
 10
7447.4581043734433
 20
1037.2528744141059
 30
0.0
 11
7518.4581043734433
 21
1037.2528744141059
 31
0.0
  0
LINE
  5
8740
  8
SP
 10
7508.4581043734433
 20
1262.2528744141059
 30
0.0
 11
7508.4581043734433
 21
1062.2528744141059
 31
0.0
  0
INSERT
  5
8741
  8
SP
  2
_OPEN
 10
7508.4581043734433
 20
1287.2528744141059
 30
0.0
 41
25.0
 42
25.0
 43
25.0
 50
90.0
  0
INSERT
  5
8742
  8
SP
  2
_OPEN
 10
7508.4581043734433
 20
1037.2528744141059
 30
0.0
 41
25.0
 42
25.0
 43
25.0
 50
270.0
  0
TEXT
  5
8743
  8
SP
 10
7498.4581043734443
 20
1107.4818087538849
 30
0.0
 40
30.0
  1
φ250
 50
90.0
 51
15.0
  0
POINT
  5
8744
  8
DEFPOINTS
 62
     0
 10
7437.4581043734443
 20
1287.2528744141059
 30
0.0
  0
POINT
  5
8745
  8
DEFPOINTS
 62
     0
 10
7437.4581043734443
 20
1037.2528744141059
 30
0.0
  0
POINT
  5
8746
  8
DEFPOINTS
 62
     0
 10
7508.4581043734433
 20
1037.2528744141059
 30
0.0
  0
ENDBLK
  5
6484
  8
0
  0
BLOCK
  8
0
  2
*D16
 70
     1
 10
0.0
 20
0.0
 30
0.0
  3
*D16
  1

  0
LINE
  5
8747
  8
SP
 10
7338.4581043734406
 20
1482.252874414105
 30
0.0
 11
7338.4581043734406
 21
1512.252874414105
 31
0.0
  0
LINE
  5
8748
  8
SP
 10
7437.4581043734424
 20
1316.2528744141059
 30
0.0
 11
7437.4581043734424
 21
1512.252874414105
 31
0.0
  0
LINE
  5
8749
  8
SP
 10
7363.4581043734406
 20
1502.252874414105
 30
0.0
 11
7412.4581043734424
 21
1502.252874414105
 31
0.0
  0
INSERT
  5
874A
  8
SP
  2
_OPEN
 10
7338.4581043734406
 20
1502.252874414105
 30
0.0
 41
25.0
 42
25.0
 43
25.0
 50
180.0
  0
INSERT
  5
874B
  8
SP
  2
_OPEN
 10
7437.4581043734424
 20
1502.252874414105
 30
0.0
 41
25.0
 42
25.0
 43
25.0
  0
TEXT
  5
874C
  8
SP
 10
7360.3674379155455
 20
1512.252874414105
 30
0.0
 40
30.0
  1
99
 51
15.0
  0
POINT
  5
874D
  8
DEFPOINTS
 62
     0
 10
7338.4581043734406
 20
1472.2528744141041
 30
0.0
  0
POINT
  5
874E
  8
DEFPOINTS
 62
     0
 10
7437.4581043734424
 20
1306.2528744141071
 30
0.0
  0
POINT
  5
874F
  8
DEFPOINTS
 62
     0
 10
7437.4581043734424
 20
1502.252874414105
 30
0.0
  0
ENDBLK
  5
6490
  8
0
  0
BLOCK
  8
0
  2
*D17
 70
     1
 10
0.0
 20
0.0
 30
0.0
  3
*D17
  1

  0
LINE
  5
86E2
  8
SP
 10
7338.4581043734406
 20
1482.252874414105
 30
0.0
 11
7338.4581043734406
 21
1512.252874414105
 31
0.0
  0
LINE
  5
86E3
  8
SP
 10
6986.6581043734432
 20
1245.0302184141069
 30
0.0
 11
6986.6581043734432
 21
1512.252874414105
 31
0.0
  0
LINE
  5
86E4
  8
SP
 10
7313.4581043734424
 20
1502.252874414105
 30
0.0
 11
7011.6581043734423
 21
1502.252874414105
 31
0.0
  0
INSERT
  5
86E5
  8
SP
  2
_OPEN
 10
7338.4581043734406
 20
1502.252874414105
 30
0.0
 41
25.0
 42
25.0
 43
25.0
  0
INSERT
  5
86E6
  8
SP
  2
_OPEN
 10
6986.6581043734432
 20
1502.252874414105
 30
0.0
 41
25.0
 42
25.0
 43
25.0
 50
180.0
  0
TEXT
  5
86E7
  8
SP
 10
7095.6484026330418
 20
1512.252874414105
 30
0.0
 40
30.0
  1
（400）
 51
15.0
  0
POINT
  5
86E8
  8
DEFPOINTS
 62
     0
 10
7338.4581043734406
 20
1472.2528744141041
 30
0.0
  0
POINT
  5
86E9
  8
DEFPOINTS
 62
     0
 10
6986.6581043734432
 20
1235.0302184141069
 30
0.0
  0
POINT
  5
86EA
  8
DEFPOINTS
 62
     0
 10
6986.6581043734432
 20
1502.252874414105
 30
0.0
  0
ENDBLK
  5
649C
  8
0
  0
BLOCK
  8
0
  2
A$C40AB6E05
 70
     0
 10
0.0
 20
0.0
 30
0.0
  3
A$C40AB6E05
  1

  0
LINE
  5
6751
  8
1
 10
-160.00000000000361
 20
-307.99999999999181
 30
0.0
 11
-160.00000000000591
 21
-99.000000000001606
 31
0.0
  0
LINE
  5
6752
  8
1
 10
-190.00000000000361
 20
-298.9999999999954
 30
0.0
 11
-190.00000000000591
 21
-99.000000000001364
 31
0.0
  0
LINE
  5
6753
  8
1
 10
-33.5
 20
-124.79999999999831
 30
0.0
 11
-33.5
 21
-133.79999999999831
 31
0.0
  0
LINE
  5
6754
  8
1
 10
-75.5
 20
-156.29999999999831
 30
0.0
 11
-75.5
 21
-135.79999999999831
 31
0.0
  0
ARC
  5
6755
  8
1
 10
-73.5
 20
-135.79999999999831
 30
0.0
 40
2.0
 50
90.0
 51
180.0
  0
LINE
  5
6756
  8
1
 10
-72.815002999999706
 20
-133.79999999999831
 30
0.0
 11
-64.184998000000633
 21
-133.79999999999831
 31
0.0
  0
LINE
  5
6757
  8
1
 10
-64.065796000000773
 20
-133.79999999999831
 30
0.0
 11
-73.065796000000773
 21
-133.79999999999831
 31
0.0
  0
LINE
  5
6758
  8
1
 10
-160.0000000000054
 20
-132.9999999999915
 30
0.0
 11
-33.5
 21
-132.99999999999361
 31
0.0
  0
CIRCLE
  5
6759
  8
FUTO
 10
-177.000000000005
 20
-119.00000000000109
 30
0.0
 40
6.0
  0
LINE
  5
675A
  8
CT
 10
-164.8129139847405
 20
-119.00000000000109
 30
0.0
 11
-189.18708601526981
 21
-119.00000000000109
 31
0.0
  0
LINE
  5
675B
  8
CT
 10
-177.000000000005
 20
-131.18708601526569
 30
0.0
 11
-177.000000000005
 21
-106.8129139847364
 31
0.0
  0
ARC
  5
675C
  8
1
 10
-143.99999999999631
 20
-95.999999999999091
 30
0.0
 40
3.0
 50
180.0
 51
270.0
  0
LINE
  5
675D
  8
1
 10
-146.99999999999631
 20
-93.999999999999091
 30
0.0
 11
-146.99999999999631
 21
-95.999999999999091
 31
0.0
  0
LINE
  5
675E
  8
1
 10
-146.99999999999631
 20
-93.999999999999091
 30
0.0
 11
-146.99999999999631
 21
-95.999999999999091
 31
0.0
  0
ARC
  5
675F
  8
1
 10
-149.99999999999631
 20
-93.999999999999091
 30
0.0
 40
3.0
 50
0.0
 51
90.0
  0
LINE
  5
6760
  8
1
 10
-22.5
 20
-110.9999999999972
 30
0.0
 11
-22.5
 21
-113.8000000000001
 31
0.0
  0
ARC
  5
6761
  8
1
 10
-32.5
 20
-124.79999999999831
 30
0.0
 40
1.0
 50
90.0
 51
180.0
  0
LINE
  5
6762
  8
FUTO
 10
190.00000000000179
 20
-99.000000000001137
 30
0.0
 11
-189.9999999999981
 21
-99.000000000001137
 31
0.0
  0
ARC
  5
6763
  8
1
 10
150.0
 20
-93.999999999999091
 30
0.0
 40
3.0
 50
90.0
 51
180.0
  0
LINE
  5
6764
  8
1
 10
147.0
 20
-93.999999999999091
 30
0.0
 11
147.0
 21
-95.999999999999091
 31
0.0
  0
LINE
  5
6765
  8
1
 10
147.0
 20
-93.999999999999091
 30
0.0
 11
147.0
 21
-95.999999999999091
 31
0.0
  0
ARC
  5
6766
  8
1
 10
144.0
 20
-95.999999999999091
 30
0.0
 40
3.0
 50
270.0
 51
0.0
  0
LINE
  5
6767
  8
1
 10
160.0
 20
-307.99999999999932
 30
0.0
 11
160.00000000000179
 21
-99.000000000001137
 31
0.0
  0
LINE
  5
6768
  8
FUTO
 10
190.0
 20
-298.9999999999954
 30
0.0
 11
190.00000000000179
 21
-99.000000000001137
 31
0.0
  0
LINE
  5
6769
  8
1
 10
33.499999999998181
 20
-132.99999999999719
 30
0.0
 11
160.00000000000151
 21
-132.99999999999719
 31
0.0
  0
LINE
  5
676A
  8
CT
 10
177.00000000000159
 20
-131.18708601526569
 30
0.0
 11
177.00000000000159
 21
-106.8129139847364
 31
0.0
  0
CIRCLE
  5
676B
  8
FUTO
 10
177.00000000000159
 20
-119.00000000000109
 30
0.0
 40
6.0
  0
CIRCLE
  5
676C
  8
FUTO
 10
177.00000000000159
 20
-279.00000000000108
 30
0.0
 40
6.0
  0
LINE
  5
676D
  8
CT
 10
164.81291398473689
 20
-279.00000000000108
 30
0.0
 11
189.1870860152662
 21
-279.00000000000108
 31
0.0
  0
LINE
  5
676E
  8
CT
 10
177.00000000000159
 20
-291.18708601526572
 30
0.0
 11
177.00000000000159
 21
-266.8129139847365
 31
0.0
  0
LINE
  5
676F
  8
FUTO
 10
159.99999999999969
 20
-298.9999999999954
 30
0.0
 11
190.00000000000179
 21
-298.9999999999954
 31
0.0
  0
LINE
  5
6770
  8
FUTO
 10
190.0
 20
-299.00000000000108
 30
0.0
 11
160.0
 21
-299.00000000000108
 31
0.0
  0
LINE
  5
6771
  8
1
 10
74.799988000000667
 20
-277.79999999999831
 30
0.0
 11
74.799988000000667
 21
-156.29999999999831
 31
0.0
  0
LINE
  5
6772
  8
1
 10
85.0
 20
-307.99999999999721
 30
0.0
 11
160.0
 21
-307.99999999999932
 31
0.0
  0
LINE
  5
6773
  8
1
 10
85.0
 20
-316.29999999999831
 30
0.0
 11
85.0
 21
-277.79999999999831
 31
0.0
  0
LINE
  5
6774
  8
1
 10
0.000000000001819
 20
-317.79999999999831
 30
0.0
 11
83.499999999999986
 21
-317.79999999999831
 31
0.0
  0
LINE
  5
6775
  8
1
 10
-72.777344000000085
 20
-351.79999999999831
 30
0.0
 11
72.626524999999674
 21
-351.79999999999831
 31
0.0
  0
ARC
  5
6776
  8
1
 10
83.499999999999986
 20
-316.29999999999831
 30
0.0
 40
1.4999849999999999
 50
270.0
 51
0.0005800000062725
  0
ARC
  5
6777
  8
1
 10
81.815002999999706
 20
-318.79993899999948
 30
0.0
 40
0.999898
 50
89.99650299999503
 51
168.37008699999251
  0
LINE
  5
6778
  8
1
 10
74.246521000000939
 20
-350.60248999999828
 30
0.0
 11
80.835633000000598
 21
-318.59833899999921
 31
0.0
  0
LINE
  5
6779
  8
1
 10
85.0
 20
-277.79999999999831
 30
0.0
 11
-85.0
 21
-277.79999999999831
 31
0.0
  0
LINE
  5
677A
  8
1
 10
-160.00000000000361
 20
-307.99999999999181
 30
0.0
 11
-84.999999999999091
 21
-307.9999999999954
 31
0.0
  0
LINE
  5
677B
  8
1
 10
-74.799988000000667
 20
-277.79999999999831
 30
0.0
 11
-74.799988000000667
 21
-156.29999999999831
 31
0.0
  0
LINE
  5
677C
  8
1
 10
-85.0
 20
-316.29999999999831
 30
0.0
 11
-85.0
 21
-277.79999999999831
 31
0.0
  0
ARC
  5
677D
  8
1
 10
-81.815002999999706
 20
-318.79993899999948
 30
0.0
 40
0.999898
 50
11.629913000007431
 51
90.003497000004955
  0
LINE
  5
677E
  8
1
 10
-74.246521000000939
 20
-350.60248999999828
 30
0.0
 11
-80.835633000000598
 21
-318.59833899999921
 31
0.0
  0
ARC
  5
677F
  8
1
 10
-83.499999999999986
 20
-316.29999999999831
 30
0.0
 40
1.4999849999999999
 50
179.99941999999371
 51
270.0
  0
LINE
  5
6780
  8
1
 10
-0.000000000001819
 20
-317.79999999999831
 30
0.0
 11
-83.499999999999986
 21
-317.79999999999831
 31
0.0
  0
LINE
  5
6781
  8
CT
 10
-177.000000000005
 20
-291.18708601526572
 30
0.0
 11
-177.000000000005
 21
-266.8129139847365
 31
0.0
  0
LINE
  5
6782
  8
CT
 10
-164.8129139847405
 20
-279.00000000000108
 30
0.0
 11
-189.18708601526981
 21
-279.00000000000108
 31
0.0
  0
CIRCLE
  5
6783
  8
FUTO
 10
-177.000000000005
 20
-279.00000000000108
 30
0.0
 40
6.0
  0
LINE
  5
6784
  8
1
 10
-189.99999999999909
 20
-298.9999999999954
 30
0.0
 11
-160.00000000000361
 21
-298.9999999999954
 31
0.0
  0
LINE
  5
6785
  8
1
 10
33.499999999998181
 20
-133.79999999999831
 30
0.0
 11
33.5
 21
-124.79999999999831
 31
0.0
  0
LINE
  5
6786
  8
1
 10
0.0
 20
-133.79999999999831
 30
0.0
 11
73.5
 21
-133.79999999999831
 31
0.0
  0
LINE
  5
6787
  8
1
 10
75.5
 20
-156.29999999999831
 30
0.0
 11
0.000000000001819
 21
-156.29999999999831
 31
0.0
  0
LINE
  5
6788
  8
1
 10
-75.5
 20
-156.29999999999831
 30
0.0
 11
-0.000000000001819
 21
-156.29999999999831
 31
0.0
  0
LINE
  5
6789
  8
1
 10
0.0
 20
-133.79999999999831
 30
0.0
 11
-73.5
 21
-133.79999999999831
 31
0.0
  0
LINE
  5
678A
  8
1
 10
75.5
 20
-156.29999999999831
 30
0.0
 11
75.5
 21
-135.79999999999831
 31
0.0
  0
ARC
  5
678B
  8
1
 10
73.5
 20
-135.79999999999831
 30
0.0
 40
2.0
 50
0.0
 51
90.0
  0
LINE
  5
678C
  8
1
 10
64.065796000000773
 20
-133.79999999999831
 30
0.0
 11
73.065796000000773
 21
-133.79999999999831
 31
0.0
  0
LINE
  5
678D
  8
1
 10
72.815002999999706
 20
-133.79999999999831
 30
0.0
 11
64.184998000000633
 21
-133.79999999999831
 31
0.0
  0
LINE
  5
678E
  8
1
 10
-17.5
 20
-118.8000000000001
 30
0.0
 11
17.5
 21
-118.8000000000001
 31
0.0
  0
LINE
  5
678F
  8
1
 10
32.5
 20
-123.79999999999831
 30
0.0
 11
-32.5
 21
-123.79999999999831
 31
0.0
  0
LINE
  5
6790
  8
1
 10
-10.5
 20
-118.79999999999831
 30
0.0
 11
-10.5
 21
-123.79999999999831
 31
0.0
  0
ARC
  5
6791
  8
1
 10
32.5
 20
-124.79999999999831
 30
0.0
 40
1.0
 50
0.0
 51
90.0
  0
LINE
  5
6792
  8
1
 10
10.5
 20
-118.79999999999831
 30
0.0
 11
10.5
 21
-123.79999999999831
 31
0.0
  0
LINE
  5
6793
  8
1
 10
22.5
 20
-113.8000000000001
 30
0.0
 11
17.5
 21
-118.8000000000001
 31
0.0
  0
LINE
  5
6794
  8
1
 10
22.5
 20
-101.2999999999965
 30
0.0
 11
22.5
 21
-113.8000000000001
 31
0.0
  0
LINE
  5
6795
  8
1
 10
-17.5
 20
-118.8000000000001
 30
0.0
 11
-22.5
 21
-113.8000000000001
 31
0.0
  0
ENDBLK
  5
6797
  8
0
  0
BLOCK
  8
0
  2
_NONE
 70
     0
 10
0.0
 20
0.0
 30
0.0
  3
_NONE
  1

  0
ENDBLK
  5
6F53
  8
0
  0
BLOCK
  8
0
  2
*D20
 70
     1
 10
0.0
 20
0.0
 30
0.0
  3
*D20
  1

  0
LINE
  5
8A3B
  8
SP
 10
6688.4581043734433
 20
907.25287441410603
 30
0.0
 11
6847.9243890247153
 21
907.25287441410603
 31
0.0
  0
LINE
  5
8A3C
  8
SP
 10
6748.4581043734424
 20
885.25287441410774
 30
0.0
 11
6847.9243890247153
 21
885.25287441410774
 31
0.0
  0
LINE
  5
8A3D
  8
SP
 10
6837.9243890247126
 20
907.25287441410603
 30
0.0
 11
6837.9243890247126
 21
932.25287441410603
 31
0.0
  0
LINE
  5
8A3E
  8
SP
 10
6837.9243890247126
 20
885.25287441410774
 30
0.0
 11
6837.9243890247126
 21
860.25287441410774
 31
0.0
  0
TEXT
  8
0
  40
30
  5
8A4F
  72
0
  71
0
 10
6817.50
 20
829.954
 30
0.000000
  1
（22）
  0
LINE
  5
8A40
  8
SP
 10
6837.9243890247126
 20
907.25287441410603
 30
0.0
 11
6837.9243890247126
 21
885.25287441410774
 31
0.0
  0
POINT
  5
8A41
  8
DEFPOINTS
 62
     0
 10
6678.4581043734424
 20
907.25287441410603
 30
0.0
  0
POINT
  5
8A42
  8
DEFPOINTS
 62
     0
 10
6738.4581043734406
 20
885.25287441410774
 30
0.0
  0
POINT
  5
8A43
  8
DEFPOINTS
 62
     0
 10
6837.9243890247126
 20
885.25287441410774
 30
0.0
  0
ENDBLK
  5
724C
  8
0
  0
BLOCK
  8
0
  2
*D21
 70
     1
 10
0.0
 20
0.0
 30
0.0
  3
*D21
  1

  0
LINE
  5
8A44
  8
SP
 10
6748.4581043734424
 20
885.25287441410774
 30
0.0
 11
6847.9243890247153
 21
885.25287441410774
 31
0.0
  0
LINE
  5
8A45
  8
SP
 10
6748.4581043734424
 20
855.25287441410615
 30
0.0
 11
6847.9243890247153
 21
855.25287441410615
 31
0.0
  0
LINE
  5
8A46
  8
SP
 10
6837.9243890247126
 20
910.25287441410774
 30
0.0
 11
6837.9243890247126
 21
935.25287441410774
 31
0.0
  0
LINE
  5
8A47
  8
SP
 10
6837.9243890247126
 20
830.25287441410615
 30
0.0
 11
6837.9243890247126
 21
733.13381798324247
 31
0.0
  0
LINE
  5
8A48
  8
SP
 10
6837.9243890247126
 20
885.25287441410774
 30
0.0
 11
6837.9243890247126
 21
855.25287441410615
 31
0.0
  0
INSERT
  5
8A49
  8
SP
  2
_DOT
 10
6837.9243890247126
 20
885.25287441410774
 30
0.0
 41
25.0
 42
25.0
 43
25.0
 50
270.0
  0
INSERT
  5
8A4A
  8
SP
  2
_OPEN
 10
6837.9243890247126
 20
855.25287441410615
 30
0.0
 41
25.0
 42
25.0
 43
25.0
 50
90.0
  0
TEXT
  8
0
  40
30
  5
8A50
  72
0
  71
0
 10
6752.92
 20
716.093
 30
0.000000
  1
30
  0
POINT
  5
8A4C
  8
DEFPOINTS
 62
     0
 10
6738.4581043734406
 20
885.25287441410774
 30
0.0
  0
POINT
  5
8A4D
  8
DEFPOINTS
 62
     0
 10
6738.4581043734406
 20
855.25287441410615
 30
0.0
  0
POINT
  5
8A4E
  8
DEFPOINTS
 62
     0
 10
6837.9243890247126
 20
855.25287441410615
 30
0.0
  0
ENDBLK
  5
725A
  8
0
  0
BLOCK
  8
0
  2
L-30-3
 70
     0
 10
0.0
 20
0.0
 30
0.0
  3
L-30-3
  1

  0
LINE
  5
7501
  8
0
 10
115.2488417492448
 20
98.116970357453638
 30
0.0
 11
145.2488417492448
 21
98.116970357453638
 31
0.0
  0
LINE
  5
7502
  8
0
 10
115.2488417492448
 20
98.116970357453638
 30
0.0
 11
115.2488417492448
 21
128.1169703574536
 31
0.0
  0
LINE
  5
7503
  8
0
 10
145.2488417492448
 20
98.116970357453638
 30
0.0
 11
145.2488417492448
 21
99.116970357453638
 31
0.0
  0
LINE
  5
7504
  8
0
 10
115.2488417492448
 20
128.1169703574536
 30
0.0
 11
116.2488417492448
 21
128.1169703574536
 31
0.0
  0
LINE
  5
7505
  8
0
 10
122.2488417492448
 20
101.1169703574536
 30
0.0
 11
143.2488417492448
 21
101.1169703574536
 31
0.0
  0
LINE
  5
7506
  8
0
 10
118.2488417492448
 20
105.1169703574536
 30
0.0
 11
118.2488417492448
 21
126.1169703574536
 31
0.0
  0
ARC
  5
7507
  8
0
 10
143.2488417492448
 20
99.116970357453638
 30
0.0
 40
2.0
 50
0.0
 51
90.0
  0
ARC
  5
7508
  8
0
 10
116.2488417492448
 20
126.1169703574536
 30
0.0
 40
2.0
 50
0.0
 51
90.0
  0
ARC
  5
7509
  8
0
 10
122.2488417492448
 20
105.1169703574536
 30
0.0
 40
4.0
 50
180.0
 51
270.0
  0
ENDBLK
  5
750B
  8
0
  0
BLOCK
  8
0
  2
*D23
 70
     1
 10
0.0
 20
0.0
 30
0.0
  3
*D23
  1

  0
LINE
  5
80CF
  8
SP
 10
6228.4581043734424
 20
2390.1217284884451
 30
0.0
 11
6099.2249495567439
 21
2390.1217284884451
 31
0.0
  0
LINE
  5
80D0
  8
SP
 10
6228.4581043734424
 20
1840.1217284884449
 30
0.0
 11
6099.2249495567421
 21
1840.1217284884449
 31
0.0
  0
LINE
  5
80D1
  8
SP
 10
6109.2249495567439
 20
2365.1217284884451
 30
0.0
 11
6109.224949556743
 21
1865.1217284884449
 31
0.0
  0
INSERT
  5
80D2
  8
SP
  2
_OPEN
 10
6109.2249495567439
 20
2390.1217284884451
 30
0.0
 41
25.0
 42
25.0
 43
25.0
 50
90.0
  0
INSERT
  5
80D3
  8
SP
  2
_OPEN
 10
6109.224949556743
 20
1840.1217284884449
 30
0.0
 41
25.0
 42
25.0
 43
25.0
 50
270.0
  0
TEXT
  5
80D4
  8
SP
 10
6099.2249495567421
 20
2073.2453477448362
 30
0.0
 40
30.0
  1
550
 50
90.0
 51
15.0
  0
POINT
  5
80D5
  8
DEFPOINTS
 62
     0
 10
6238.4581043734406
 20
2390.1217284884451
 30
0.0
  0
POINT
  5
80D6
  8
DEFPOINTS
 62
     0
 10
6238.4581043734406
 20
1840.1217284884449
 30
0.0
  0
POINT
  5
80D7
  8
DEFPOINTS
 62
     0
 10
6109.224949556743
 20
1840.1217284884449
 30
0.0
  0
ENDBLK
  5
7F95
  8
0
  0
BLOCK
  8
0
  2
*D24
 70
     1
 10
0.0
 20
0.0
 30
0.0
  3
*D24
  1

  0
LINE
  5
80D8
  8
SP
 10
6238.4581043734406
 20
1830.1217284884449
 30
0.0
 11
6238.4581043734406
 21
1711.37338721483
 31
0.0
  0
LINE
  5
80D9
  8
SP
 10
6738.4581043734406
 20
1830.1217284884469
 30
0.0
 11
6738.4581043734406
 21
1711.37338721483
 31
0.0
  0
LINE
  5
80DA
  8
SP
 10
6263.4581043734406
 20
1721.37338721483
 30
0.0
 11
6713.4581043734406
 21
1721.37338721483
 31
0.0
  0
INSERT
  5
80DB
  8
SP
  2
_OPEN
 10
6238.4581043734406
 20
1721.37338721483
 30
0.0
 41
25.0
 42
25.0
 43
25.0
 50
180.0
  0
INSERT
  5
80DC
  8
SP
  2
_OPEN
 10
6738.4581043734406
 20
1721.37338721483
 30
0.0
 41
25.0
 42
25.0
 43
25.0
  0
TEXT
  5
80DD
  8
SP
 10
6446.5817236298317
 20
1731.37338721483
 30
0.0
 40
30.0
  1
500
 51
15.0
  0
POINT
  5
80DE
  8
DEFPOINTS
 62
     0
 10
6238.4581043734406
 20
1840.1217284884449
 30
0.0
  0
POINT
  5
80DF
  8
DEFPOINTS
 62
     0
 10
6738.4581043734406
 20
1840.1217284884469
 30
0.0
  0
POINT
  5
80E0
  8
DEFPOINTS
 62
     0
 10
6738.4581043734406
 20
1721.37338721483
 30
0.0
  0
ENDBLK
  5
7FA1
  8
0
  0
BLOCK
  8
0
  2
*D25
 70
     1
 10
0.0
 20
0.0
 30
0.0
  3
*D25
  1

  0
LINE
  5
8708
  8
SP
 10
6488.4581043734406
 20
812.75456559170834
 30
0.0
 11
6488.4581043734406
 21
775.25287441410569
 31
0.0
  0
LINE
  5
8709
  8
SP
 10
6738.4581043734406
 20
845.25287441410433
 30
0.0
 11
6738.4581043734406
 21
775.25287441410569
 31
0.0
  0
LINE
  5
870A
  8
SP
 10
6513.4581043734406
 20
785.25287441410558
 30
0.0
 11
6713.4581043734406
 21
785.25287441410558
 31
0.0
  0
INSERT
  5
870B
  8
SP
  2
_OPEN
 10
6488.4581043734406
 20
785.25287441410558
 30
0.0
 41
25.0
 42
25.0
 43
25.0
 50
180.0
  0
INSERT
  5
870C
  8
SP
  2
_OPEN
 10
6738.4581043734406
 20
785.25287441410558
 30
0.0
 41
25.0
 42
25.0
 43
25.0
  0
TEXT
  5
870D
  8
SP
 10
6572.3472927510638
 20
795.25287441410569
 30
0.0
 40
30.0
  1
250
 51
15.0
  0
POINT
  5
870E
  8
DEFPOINTS
 62
     0
 10
6488.4581043734406
 20
822.75456559170834
 30
0.0
  0
POINT
  5
870F
  8
DEFPOINTS
 62
     0
 10
6738.4581043734406
 20
855.25287441410421
 30
0.0
  0
POINT
  5
8710
  8
DEFPOINTS
 62
     0
 10
6738.4581043734406
 20
785.25287441410558
 30
0.0
  0
ENDBLK
  5
85AF
  8
0
  0
BLOCK
  8
0
  2
*D26
 70
     1
 10
0.0
 20
0.0
 30
0.0
  3
*D26
  1

  0
LINE
  5
8711
  8
SP
 10
6238.4581043734406
 20
818.42156300834597
 30
0.0
 11
6238.4581043734406
 21
705.25287441410433
 31
0.0
  0
LINE
  5
8712
  8
SP
 10
6738.4581043734406
 20
818.4215630083487
 30
0.0
 11
6738.4581043734406
 21
705.25287441410433
 31
0.0
  0
LINE
  5
8713
  8
SP
 10
6263.4581043734406
 20
715.25287441410433
 30
0.0
 11
6713.4581043734406
 21
715.25287441410433
 31
0.0
  0
INSERT
  5
8714
  8
SP
  2
_OPEN
 10
6238.4581043734406
 20
715.25287441410433
 30
0.0
 41
25.0
 42
25.0
 43
25.0
 50
180.0
  0
INSERT
  5
8715
  8
SP
  2
_OPEN
 10
6738.4581043734406
 20
715.25287441410433
 30
0.0
 41
25.0
 42
25.0
 43
25.0
  0
TEXT
  5
8716
  8
SP
 10
6446.5817236298317
 20
725.25287441410433
 30
0.0
 40
30.0
  1
500
 51
15.0
  0
POINT
  5
8717
  8
DEFPOINTS
 62
     0
 10
6238.4581043734406
 20
828.42156300834597
 30
0.0
  0
POINT
  5
8718
  8
DEFPOINTS
 62
     0
 10
6738.4581043734406
 20
828.42156300834893
 30
0.0
  0
POINT
  5
8719
  8
DEFPOINTS
 62
     0
 10
6738.4581043734406
 20
715.25287441410433
 30
0.0
  0
ENDBLK
  5
85BB
  8
0
  0
BLOCK
  8
0
  2
*D27
 70
     1
 10
0.0
 20
0.0
 30
0.0
  3
*D27
  1

  0
LINE
  5
871A
  8
SP
 10
6238.4581043734406
 20
845.2528744141016
 30
0.0
 11
6238.4581043734406
 21
775.25287441410285
 31
0.0
  0
LINE
  5
871B
  8
SP
 10
6488.4581043734406
 20
812.75456559170834
 30
0.0
 11
6488.4581043734406
 21
775.25287441410285
 31
0.0
  0
LINE
  5
871C
  8
SP
 10
6263.4581043734406
 20
785.25287441410296
 30
0.0
 11
6463.4581043734406
 21
785.25287441410296
 31
0.0
  0
INSERT
  5
871D
  8
SP
  2
_OPEN
 10
6238.4581043734406
 20
785.25287441410296
 30
0.0
 41
25.0
 42
25.0
 43
25.0
 50
180.0
  0
INSERT
  5
871E
  8
SP
  2
_OPEN
 10
6488.4581043734406
 20
785.25287441410296
 30
0.0
 41
25.0
 42
25.0
 43
25.0
  0
TEXT
  5
871F
  8
SP
 10
6322.3472927510638
 20
795.25287441410285
 30
0.0
 40
30.0
  1
250
 51
15.0
  0
POINT
  5
8720
  8
DEFPOINTS
 62
     0
 10
6238.4581043734406
 20
855.2528744141016
 30
0.0
  0
POINT
  5
8721
  8
DEFPOINTS
 62
     0
 10
6488.4581043734406
 20
822.75456559170834
 30
0.0
  0
POINT
  5
8722
  8
DEFPOINTS
 62
     0
 10
6488.4581043734406
 20
785.25287441410296
 30
0.0
  0
ENDBLK
  5
85C7
  8
0
  0
BLOCK
  8
0
  2
*D28
 70
     1
 10
0.0
 20
0.0
 30
0.0
  3
*D28
  1

  0
LINE
  5
8843
  8
SP
 10
7338.4581043734406
 20
896.69593129726491
 30
0.0
 11
7338.4581043734406
 21
775.25287441410615
 31
0.0
  0
LINE
  5
8844
  8
SP
 10
6996.4581043734406
 20
875.25287441410364
 30
0.0
 11
6996.4581043734406
 21
775.25287441410615
 31
0.0
  0
LINE
  5
8845
  8
SP
 10
7313.4581043734424
 20
785.25287441410615
 30
0.0
 11
7021.4581043734406
 21
785.25287441410615
 31
0.0
  0
INSERT
  5
8846
  8
SP
  2
_OPEN
 10
7338.4581043734406
 20
785.25287441410615
 30
0.0
 41
25.0
 42
25.0
 43
25.0
  0
INSERT
  5
8847
  8
SP
  2
_OPEN
 10
6996.4581043734406
 20
785.25287441410615
 30
0.0
 41
25.0
 42
25.0
 43
25.0
 50
180.0
  0
TEXT
  5
8848
  8
SP
 10
7125.5817236298308
 20
795.25287441410615
 30
0.0
 40
30.0
  1
342
 51
15.0
  0
POINT
  5
8849
  8
DEFPOINTS
 62
     0
 10
7338.4581043734406
 20
906.69593129726491
 30
0.0
  0
POINT
  5
884A
  8
DEFPOINTS
 62
     0
 10
6996.4581043734406
 20
885.25287441410364
 30
0.0
  0
POINT
  5
884B
  8
DEFPOINTS
 62
     0
 10
6996.4581043734406
 20
785.25287441410615
 30
0.0
  0
ENDBLK
  5
8806
  8
0
  0
BLOCK
  8
0
  2
*D29
 70
     1
 10
0.0
 20
0.0
 30
0.0
  3
*D29
  1

  0
LINE
  5
883A
  8
SP
 10
7338.4581043734406
 20
896.69593129726491
 30
0.0
 11
7338.4581043734406
 21
775.25287441410615
 31
0.0
  0
LINE
  5
883B
  8
SP
 10
7546.4581043734443
 20
875.25287441410649
 30
0.0
 11
7546.4581043734443
 21
775.25287441410615
 31
0.0
  0
LINE
  5
883C
  8
SP
 10
7363.4581043734406
 20
785.25287441410615
 30
0.0
 11
7521.4581043734443
 21
785.25287441410615
 31
0.0
  0
INSERT
  5
883D
  8
SP
  2
_OPEN
 10
7338.4581043734406
 20
785.25287441410615
 30
0.0
 41
25.0
 42
25.0
 43
25.0
 50
180.0
  0
INSERT
  5
883E
  8
SP
  2
_OPEN
 10
7546.4581043734443
 20
785.25287441410615
 30
0.0
 41
25.0
 42
25.0
 43
25.0
  0
TEXT
  5
883F
  8
SP
 10
7401.155900470756
 20
795.25287441410615
 30
0.0
 40
30.0
  1
208
 51
15.0
  0
POINT
  5
8840
  8
DEFPOINTS
 62
     0
 10
7338.4581043734406
 20
906.69593129726491
 30
0.0
  0
POINT
  5
8841
  8
DEFPOINTS
 62
     0
 10
7546.4581043734443
 20
885.25287441410637
 30
0.0
  0
POINT
  5
8842
  8
DEFPOINTS
 62
     0
 10
7546.4581043734443
 20
785.25287441410615
 30
0.0
  0
ENDBLK
  5
8812
  8
0
  0
BLOCK
  8
0
  2
*D30
 70
     1
 10
0.0
 20
0.0
 30
0.0
  3
*D30
  1

  0
LINE
  5
8831
  8
SP
 10
6996.4581043734406
 20
848.42156300834813
 30
0.0
 11
6996.4581043734406
 21
705.25287441410615
 31
0.0
  0
LINE
  5
8832
  8
SP
 10
7546.4581043734443
 20
875.25287441410649
 30
0.0
 11
7546.4581043734443
 21
705.25287441410615
 31
0.0
  0
LINE
  5
8833
  8
SP
 10
7021.4581043734406
 20
715.25287441410615
 30
0.0
 11
7521.4581043734443
 21
715.25287441410615
 31
0.0
  0
INSERT
  5
8834
  8
SP
  2
_OPEN
 10
6996.4581043734406
 20
715.25287441410615
 30
0.0
 41
25.0
 42
25.0
 43
25.0
 50
180.0
  0
INSERT
  5
8835
  8
SP
  2
_OPEN
 10
7546.4581043734443
 20
715.25287441410615
 30
0.0
 41
25.0
 42
25.0
 43
25.0
  0
TEXT
  5
8836
  8
SP
 10
7229.5817236298317
 20
725.25287441410615
 30
0.0
 40
30.0
  1
550
 51
15.0
  0
POINT
  5
8837
  8
DEFPOINTS
 62
     0
 10
6996.4581043734406
 20
858.42156300834802
 30
0.0
  0
POINT
  5
8838
  8
DEFPOINTS
 62
     0
 10
7546.4581043734443
 20
885.25287441410637
 30
0.0
  0
POINT
  5
8839
  8
DEFPOINTS
 62
     0
 10
7546.4581043734443
 20
715.25287441410615
 30
0.0
  0
ENDBLK
  5
881E
  8
0
  0
ENDSEC
  0
SECTION
  2
ENTITIES
  0
LINE
  5
3B88
  8
4
 10
7867.4991666319765
 20
96.09240406103936
 30
0.0
 11
5767.4991666319765
 21
96.09240406103936
 31
0.0
  0
LINE
  5
3B89
  8
4
 10
5767.4991666319765
 20
3046.0924040610389
 30
0.0
 11
7867.4991666319765
 21
3046.0924040610389
 31
0.0
  0
LINE
  5
3B95
  8
4
 10
5767.4991666319765
 20
96.09240406103936
 30
0.0
 11
5767.4991666319765
 21
3046.0924040610389
 31
0.0
  0
LINE
  5
3C9B
  8
4
 10
7867.4991666319765
 20
3046.0924040610389
 30
0.0
 11
7867.4991666319765
 21
96.09240406103936
 31
0.0
  0
LINE
  5
3D3A
  8
4
 10
7867.4991666319765
 20
3046.0924040610389
 30
0.0
 11
7867.4991666319765
 21
3046.0924040610389
 31
0.0
  0
TEXT
  5
54F2
  8
4
 10
6059.173672898818
 20
2544.4293549289091
 30
0.0
 40
53.999999999999993
  1
左回転上横向
  0
TEXT
  5
54F3
  8
4
 10
6227.0991666319769
 20
2695.5186316473701
 30
0.0
 40
72.0
  1
遠心式片吸込直動形多翼ファン
 72
     4
 11
6817.4991666319765
 21
2731.5186316473701
 31
0.0
  0
LINE
  5
54F4
  8
4
 10
6017.4991666319765
 20
2631.5186316473701
 30
0.0
 11
7617.4991666319765
 21
2631.5186316473701
 31
0.0
  0
LINE
  5
54F5
  8
4
 10
6017.4991666319765
 20
2831.5186316473701
 30
0.0
 11
7617.4991666319765
 21
2831.5186316473701
 31
0.0
  0
LINE
  5
54F6
  8
4
 10
6017.4991666319765
 20
2831.5186316473701
 30
0.0
 11
6017.4991666319765
 21
2631.5186316473701
 31
0.0
  0
LINE
  5
54F7
  8
4
 10
7208.1165889918411
 20
2948.7621389323181
 30
0.0
 11
7617.4991666319765
 21
2948.7621389323181
 31
0.0
  0
LINE
  5
54F8
  8
4
 10
7617.4991666319765
 20
2843.3734605079671
 30
0.0
 11
7208.1165889918411
 21
2843.3734605079671
 31
0.0
  0
TEXT
  5
54FA
  8
4
 10
7178.7952292319897
 20
2545.5387187150809
 30
0.0
 40
53.999999999999993
  1
縮尺：1/10
  0
LINE
  5
54FB
  8
4
 10
7208.1165889918411
 20
2843.3734605079671
 30
0.0
 11
7208.1165889918411
 21
2948.7621389323181
 31
0.0
  0
TEXT
  5
54FC
  8
4
 10
7236.4687258812664
 20
2868.170958877874
 30
0.0
 40
56.000000000000007
  1
No.
  0
LINE
  5
54FD
  8
4
 10
7617.4991666319765
 20
2831.5186316473701
 30
0.0
 11
7617.4991666319765
 21
2631.5186316473701
 31
0.0
  0
LINE
  5
54FE
  8
4
 10
7617.4991666319765
 20
2948.7621389323181
 30
0.0
 11
7617.4991666319765
 21
2843.3734605079671
 31
0.0
  0
TEXT
  5
5502
  8
4
 10
6253.7572726567741
 20
335.27468562959712
 30
0.0
 40
50.0
  1
機器型番
  0
TEXT
  5
5503
  8
4
 10
6256.0012474788782
 20
445.17255476419911
 30
0.0
 40
50.0
  1
機器名称
  0
LINE
  5
5506
  8
4
 10
6217.4991666319765
 20
513.62952889758606
 30
0.0
 11
7417.4991666319756
 21
513.62952889758606
 31
0.0
  0
LINE
  5
5507
  8
4
 10
6217.4991666319765
 20
413.62952889758611
 30
0.0
 11
7417.4991666319756
 21
413.62952889758611
 31
0.0
  0
LINE
  5
5508
  8
4
 10
6217.4991666319765
 20
313.62952889758611
 30
0.0
 11
7417.4991666319756
 21
313.62952889758611
 31
0.0
  0
LINE
  5
5509
  8
4
 10
6217.4991666319765
 20
513.62952889758606
 30
0.0
 11
6217.4991666319765
 21
313.62952889758611
 31
0.0
  0
LINE
  5
550A
  8
4
 10
7417.4991666319756
 20
513.62952889758606
 30
0.0
 11
7417.4991666319756
 21
313.62952889758611
 31
0.0
  0
LINE
  5
550B
  8
4
 10
6717.4991666319765
 20
513.62952889758606
 30
0.0
 11
6717.4991666319765
 21
313.62952889758611
 31
0.0
  0
TEXT
  5
550E
  8
4
 10
6745.1779121196414
 20
436.20129785515468
 30
0.0
 40
50.0
  1
ミツヤ多翼送風機
  0
TEXT
  5
5678
  8
4
 10
6754.1536622174581
 20
330.78911317752949
 30
0.0
 40
50.0
  1
MF＃1 1/2-7
  0
LINE
  5
5A35
  8
2
 10
6488.4581043734406
 20
822.75456559171096
 30
0.0
 11
6488.4581043734406
 21
1372.0292935584321
 31
0.0
  0
DIMENSION
  5
5DB5
  8
SP
  2
*D13
 10
6837.9243890247126
 20
907.25287441410512
 30
0.0
 11
6812.9243890247144
 21
1034.7528744141071
 31
0.0
 70
     0
 13
6772.6445893507398
 23
1162.2528744141059
 33
0.0
 14
6678.4581043734424
 24
907.25287441410512
 34
0.0
 50
90.0
  0
ARC
  5
5DB6
  8
FUTO
 10
6505.4581043734424
 20
1145.2528744141059
 30
0.0
 40
203.0
 50
179.5326782950084
 51
270.42791896778192
  0
ARC
  5
5DB7
  8
FUTO
 10
6508.4581043734424
 20
1182.2528744141059
 30
0.0
 40
240.0
 50
269.60817310073332
 51
0.000000000000007
  0
ARC
  5
5DB8
  8
FUTO
 10
6505.4581043734424
 20
1145.2528744141059
 30
0.0
 40
193.0
 50
179.5326782950084
 51
270.42791896778192
  0
ARC
  5
5DB9
  8
FUTO
 10
6508.4581043734424
 20
1182.2528744141059
 30
0.0
 40
230.0
 50
269.60817310073332
 51
0.000000000000007
  0
LINE
  5
5DBA
  8
2
 10
6488.4581043734406
 20
822.75456559171096
 30
0.0
 11
6488.4581043734406
 21
1372.0292935584321
 31
0.0
  0
LINE
  5
5DBB
  8
1
 10
6330.7581043734426
 20
1228.3528744141049
 30
0.0
 11
6330.7581043734426
 21
907.25287441410512
 31
0.0
  0
LINE
  5
5DBC
  8
1
 10
6328.4581043734424
 20
1228.3528744141049
 30
0.0
 11
6328.4581043734424
 21
909.5528744141061
 31
0.0
  0
LINE
  5
5DBD
  8
1
 10
6646.1581043734413
 20
1228.3528744141049
 30
0.0
 11
6646.1581043734413
 21
907.25287441410512
 31
0.0
  0
LINE
  5
5DBE
  8
1
 10
6648.4581043734424
 20
1228.3528744141049
 30
0.0
 11
6648.4581043734388
 21
909.55287441410792
 31
0.0
  0
ARC
  5
5DBF
  8
1
 10
6488.4581043734406
 20
1162.2528744141059
 30
0.0
 40
85.0
 50
295.87553399999689
 51
180.0
  0
CIRCLE
  5
5DC0
  8
2
 10
6488.4581043734406
 20
1162.2528744141059
 30
0.0
 40
136.0
  0
ARC
  5
5DC1
  8
1
 10
6488.4581043734406
 20
1162.2528744141059
 30
0.0
 40
85.000007999999994
 50
180.0
 51
244.0822739999997
  0
LINE
  5
5DC5
  8
FUTO
 10
6621.1581043734413
 20
1057.2528744141059
 30
0.0
 11
6646.1581043734413
 21
1082.2528744141059
 31
0.0
  0
LINE
  5
5DC6
  8
1
 10
6646.1581043734413
 20
958.25287441410683
 30
0.0
 11
6621.1581043734423
 21
958.25287441410683
 31
0.0
  0
LINE
  5
5DC7
  8
1
 10
6678.4581043734424
 20
907.25287441410512
 30
0.0
 11
6298.4581043734406
 21
907.25287441410683
 31
0.0
  0
LINE
  5
5DC8
  8
1
 10
6646.1581043734413
 20
1082.2528744141059
 30
0.0
 11
6330.7581043734426
 21
1082.2528744141059
 31
0.0
  0
LINE
  5
5DCA
  8
1
 10
6678.4581043734424
 20
907.25287441410512
 30
0.0
 11
6678.4581043734443
 21
909.5528744141061
 31
0.0
  0
LINE
  5
5DCB
  8
1
 10
6678.4581043734424
 20
909.5528744141061
 30
0.0
 11
6648.4581043734388
 21
909.55287441410792
 31
0.0
  0
LINE
  5
5DCC
  8
1
 10
6355.7581043734444
 20
1057.2528744141059
 30
0.0
 11
6355.7581043734444
 21
958.25287441410683
 31
0.0
  0
LINE
  5
5DCD
  8
1
 10
6621.1581043734413
 20
1057.2528744141059
 30
0.0
 11
6621.1581043734413
 21
958.25287441410683
 31
0.0
  0
LINE
  5
5DCE
  8
1
 10
6355.7581043734444
 20
958.25287441410683
 30
0.0
 11
6330.7581043734426
 21
958.25287441410683
 31
0.0
  0
LINE
  5
5DCF
  8
1
 10
6298.4581043734406
 20
907.25287441410683
 30
0.0
 11
6298.4581043734406
 21
909.55287441410792
 31
0.0
  0
LINE
  5
5DD1
  8
1
 10
6328.4581043734424
 20
909.55287441410792
 30
0.0
 11
6298.4581043734406
 21
909.5528744141061
 31
0.0
  0
LINE
  5
5DD2
  8
FUTO
 10
6355.7581043734408
 20
1057.2528744141059
 30
0.0
 11
6330.7581043734426
 21
1082.2528744141059
 31
0.0
  0
LINE
  5
5DD3
  8
1
 10
6621.1581043734413
 20
1057.2528744141059
 30
0.0
 11
6355.7581043734426
 21
1057.2528744141059
 31
0.0
  0
LINE
  5
5DD4
  8
CT
 10
6545.5442254281288
 20
1024.4347867406059
 30
0.0
 11
6535.0321398940978
 21
1049.8132062056879
 31
0.0
  0
CIRCLE
  5
5DD5
  8
1
 10
6540.5030511750929
 20
1036.605257992572
 30
0.0
 40
4.0
  0
LINE
  5
5DD6
  8
CT
 10
6431.3719833187533
 20
1024.4347867406059
 30
0.0
 11
6441.8840688527825
 21
1049.8132062056879
 31
0.0
  0
CIRCLE
  5
5DD7
  8
1
 10
6436.4131575717893
 20
1036.605257992572
 30
0.0
 40
4.0
  0
LINE
  5
5DD8
  8
1
 10
6525.5536033734397
 20
1085.8019464141059
 30
0.0
 11
6451.3062953734407
 21
1085.8019464141059
 31
0.0
  0
LINE
  5
5DD9
  8
1
 10
6570.9581043734424
 20
1083.911992414106
 30
0.0
 11
6405.9580743734432
 21
1083.911992414106
 31
0.0
  0
LINE
  5
5DDA
  8
CT
 10
6550.9581043734406
 20
1080.034288414106
 30
0.0
 11
6550.9581043734406
 21
1088.621295414106
 31
0.0
  0
LINE
  5
5DDB
  8
CT
 10
6626.2761920469411
 20
1105.1667533594159
 30
0.0
 11
6600.8977725818577
 21
1115.6788388934481
 31
0.0
  0
ARC
  5
5DDC
  8
1
 10
6540.8233083734413
 20
1091.7528744141059
 30
0.0
 40
5.0
 50
215.53823900000091
 51
270.0
  0
LINE
  5
5DDD
  8
1
 10
6535.0820423734422
 20
1091.1883964141059
 30
0.0
 11
6536.7546443734409
 21
1088.8466244141071
 31
0.0
  0
LINE
  5
5DDE
  8
1
 10
6566.2912653734411
 20
1086.7475034141071
 30
0.0
 11
6550.7812723734396
 21
1104.4343704141061
 31
0.0
  0
LINE
  5
5DDF
  8
1
 10
6570.9581043734424
 20
1086.7528744141059
 30
0.0
 11
6540.8232783734411
 21
1086.7528744141059
 31
0.0
  0
CIRCLE
  5
5DE0
  8
1
 10
6614.1057207949762
 20
1110.2079276124539
 30
0.0
 40
4.0
  0
ARC
  5
5DE1
  8
1
 10
6488.4581043734406
 20
1162.2528744141059
 30
0.0
 40
85.0
 50
295.87553399999689
 51
303.26821866828919
  0
LINE
  5
5DE2
  8
1
 10
6530.9581043734406
 20
1083.911992414106
 30
0.0
 11
6530.9581043734406
 21
1082.2528744141059
 31
0.0
  0
LINE
  5
5DE3
  8
1
 10
6565.9581043734424
 20
1083.911992414106
 30
0.0
 11
6565.9581043734424
 21
1082.2528744141059
 31
0.0
  0
LINE
  5
5DE4
  8
1
 10
6570.9581043734424
 20
1083.911992414106
 30
0.0
 11
6570.9581043734424
 21
1086.7528744141059
 31
0.0
  0
LINE
  5
5DE5
  8
CT
 10
6350.640016699941
 20
1105.166753359418
 30
0.0
 11
6376.0184361650254
 21
1115.6788388934481
 31
0.0
  0
LINE
  5
5DE6
  8
CT
 10
6425.9581043734406
 20
1080.034288414106
 30
0.0
 11
6425.9581043734406
 21
1088.621295414106
 31
0.0
  0
LINE
  5
5DE7
  8
1
 10
6405.9580743734432
 20
1086.7528744141059
 30
0.0
 11
6436.0929003734409
 21
1086.7528744141059
 31
0.0
  0
LINE
  5
5DE8
  8
1
 10
6410.6237363734417
 20
1086.7460504141061
 30
0.0
 11
6426.1367963734428
 21
1104.436512414107
 31
0.0
  0
LINE
  5
5DE9
  8
1
 10
6440.9498343734413
 20
1089.950261414107
 30
0.0
 11
6440.1615653734416
 21
1088.8466244141071
 31
0.0
  0
LINE
  5
5DEA
  8
1
 10
6441.826553373442
 20
1091.177736414106
 30
0.0
 11
6440.1615653734416
 21
1088.8466244141071
 31
0.0
  0
ARC
  5
5DEB
  8
1
 10
6436.0929003734409
 20
1091.7528744141059
 30
0.0
 40
5.000032
 50
270.0
 51
324.46174600000199
  0
LINE
  5
5DEC
  8
1
 10
6410.9581043734424
 20
1083.911992414106
 30
0.0
 11
6410.9581043734424
 21
1082.2528744141059
 31
0.0
  0
LINE
  5
5DED
  8
1
 10
6445.9581043734424
 20
1083.911992414106
 30
0.0
 11
6445.9581043734424
 21
1082.2528744141059
 31
0.0
  0
LINE
  5
5DEE
  8
1
 10
6405.9580743734432
 20
1086.7528744141059
 30
0.0
 11
6405.9580743734432
 21
1083.911992414106
 31
0.0
  0
CIRCLE
  5
5DEF
  8
1
 10
6362.8104879519069
 20
1110.2079276124539
 30
0.0
 40
4.0
  0
LINE
  5
5DF0
  8
FUTO
 10
6738.4580889416993
 20
1362.2473189442831
 30
0.0
 11
6738.4580889416993
 21
1182.247318944279
 31
0.0
  0
DIMENSION
  5
5DF1
  8
SP
  2
*D12
 10
6837.9243890247126
 20
1362.2528744141059
 30
0.0
 11
6812.9243890247144
 21
1262.252874414108
 31
0.0
 70
     0
 13
6772.6445893507398
 23
1162.2528744141059
 33
0.0
 14
6759.4581043734424
 24
1362.2528744141059
 34
0.0
 50
90.0
  0
DIMENSION
  5
5DF2
  8
SP
  2
*D11
 10
6312.4581043734406
 20
1432.2528744141059
 30
0.0
 11
6400.4581043734406
 21
1457.2528744141059
 31
0.0
 70
     0
 13
6488.4581043734406
 23
1372.0292935584321
 33
0.0
 14
6312.4581043734406
 24
1145.2528744141059
 34
0.0
 50
180.0
  0
LINE
  5
5DF3
  8
FUTO
 10
6739.4581043734424
 20
1362.2528744141059
 30
0.0
 11
6739.4581043734424
 21
1342.2528744141059
 31
0.0
  0
LINE
  5
5DF4
  8
FUTO
 10
6740.4581043734406
 20
1361.2528744141059
 30
0.0
 11
6740.4581043734406
 21
1342.2528744141059
 31
0.0
  0
LINE
  5
5DF5
  8
FUTO
 10
6737.4581043734424
 20
1360.2528744141059
 30
0.0
 11
6719.4581043734406
 21
1342.2528744141059
 31
0.0
  0
LINE
  5
5DF6
  8
FUTO
 10
6488.4581043734406
 20
1342.2528744141059
 30
0.0
 11
6488.4581043734406
 21
1362.2528744141059
 31
0.0
  0
LINE
  5
5DF7
  8
FUTO
 10
6487.4581043734424
 20
1362.2528744141059
 30
0.0
 11
6487.4581043734424
 21
1342.2528744141059
 31
0.0
  0
LINE
  5
5DF8
  8
FUTO
 10
6486.4581043734424
 20
1361.2528744141059
 30
0.0
 11
6486.4581043734424
 21
1342.2528744141059
 31
0.0
  0
LINE
  5
5DF9
  8
FUTO
 10
6489.4581043734424
 20
1360.2528744141059
 30
0.0
 11
6507.4581043734406
 21
1342.2528744141059
 31
0.0
  0
LINE
  5
5DFA
  8
FUTO
 10
6719.4581043734406
 20
1342.2528744141059
 30
0.0
 11
6507.4581043734406
 21
1342.2528744141059
 31
0.0
  0
LINE
  5
5DFB
  8
1
 10
6548.4581043734424
 20
1312.2528744141059
 30
0.0
 11
6646.8581043734421
 21
1228.3528744141049
 31
0.0
  0
LINE
  5
5DFC
  8
2
 10
6772.6445893507398
 20
1162.2528744141059
 30
0.0
 11
6278.3104898000911
 21
1162.2528744141041
 31
0.0
  0
LINE
  5
5DFD
  8
FUTO
 10
6749.3471630141066
 20
1342.2528744141059
 30
0.0
 11
6748.4579346242826
 21
1182.191764246043
 31
0.0
  0
LINE
  5
5DFE
  8
1
 10
6648.4581043734424
 20
1228.3528744141049
 30
0.0
 11
6646.8581043734421
 21
1228.3528744141049
 31
0.0
  0
LINE
  5
5DFF
  8
FUTO
 10
6749.3471630141066
 20
1342.2528744141059
 30
0.0
 11
6739.3470086943089
 21
1342.2528744141059
 31
0.0
  0
ARC
  5
5E00
  8
FUTO
 10
6474.4581043734406
 20
1148.2528744141059
 30
0.0
 40
172.0
 50
101.5492618235584
 51
180.51033324481159
  0
ARC
  5
5E01
  8
FUTO
 10
6474.4581043734406
 20
1148.2528744141059
 30
0.0
 40
162.0
 50
101.5492618235584
 51
180.51033324481159
  0
LINE
  5
5E02
  8
1
 10
6428.4581043734424
 20
1312.2528744141059
 30
0.0
 11
6330.0581043734419
 21
1228.3528744141049
 31
0.0
  0
LINE
  5
5E03
  8
CT
 10
6626.2761920469411
 20
1219.338995468793
 30
0.0
 11
6600.8977725818577
 21
1208.8269099347649
 31
0.0
  0
CIRCLE
  5
5E04
  8
1
 10
6614.1057207949762
 20
1214.2978212157591
 30
0.0
 40
4.0
  0
LINE
  5
5E05
  8
CT
 10
6350.640016699941
 20
1219.338995468793
 30
0.0
 11
6376.0184361650254
 21
1208.8269099347649
 31
0.0
  0
CIRCLE
  5
5E06
  8
1
 10
6362.8104879519069
 20
1214.2978212157591
 30
0.0
 40
4.0
  0
LINE
  5
5E07
  8
1
 10
6330.0581043734419
 20
1228.3528744141049
 30
0.0
 11
6328.4581043734424
 21
1228.3528744141049
 31
0.0
  0
LINE
  5
5E08
  8
CT
 10
6431.3719833187533
 20
1300.070962087605
 30
0.0
 11
6441.8840688527853
 21
1274.692542622523
 31
0.0
  0
LINE
  5
5E09
  8
CT
 10
6545.5442254281288
 20
1300.070962087605
 30
0.0
 11
6535.0321398940987
 21
1274.6925426225221
 31
0.0
  0
CIRCLE
  5
5E0A
  8
1
 10
6540.5030511750929
 20
1287.900490835641
 30
0.0
 40
4.0
  0
CIRCLE
  5
5E0B
  8
1
 10
6436.4131575717893
 20
1287.900490835641
 30
0.0
 40
4.0
  0
ARC
  5
5E0C
  8
FUTO
 10
6427.4581043734461
 20
1378.2528744141059
 30
0.0
 40
72.753061747871584
 50
281.54926182355842
 51
325.80038054454297
  0
LINE
  5
5E0D
  8
FUTO
 10
6488.4581043734406
 20
1342.2528744141059
 30
0.0
 11
6482.5262609631991
 21
1342.2528744141059
 31
0.0
  0
LINE
  5
5E0E
  8
1
 10
6548.4581043734424
 20
1312.2528744141059
 30
0.0
 11
6428.4581043734424
 21
1312.2528744141059
 31
0.0
  0
LINE
  5
5E0F
  8
FUTO
 10
6488.4581043734406
 20
1342.2528744141059
 30
0.0
 11
6487.4581043734424
 21
1342.2528744141059
 31
0.0
  0
ARC
  5
5E10
  8
FUTO
 10
6428.9295182735132
 20
1372.772843736248
 30
0.0
 40
57.203726762688042
 50
278.3279243017862
 51
323.39649632638441
  0
ARC
  5
5E11
  8
FUTO
 10
6482.5262609631991
 20
1332.2528744141059
 30
0.0
 40
10.0
 50
90.0
 51
140.1270310938539
  0
LINE
  5
5E12
  8
FUTO
 10
6759.4581043734424
 20
1362.2528744141059
 30
0.0
 11
6467.4581043734424
 21
1362.2528744141059
 31
0.0
  0
LINE
  5
5E13
  8
FUTO
 10
6739.4581043734424
 20
1361.2528744141059
 30
0.0
 11
6487.4581043734424
 21
1361.2528744141059
 31
0.0
  0
DIMENSION
  5
5E14
  8
SP
  2
*D10
 10
6488.4581043734406
 20
1432.2528744141059
 30
0.0
 11
6613.4581043734406
 21
1457.2528744141059
 31
0.0
 70
     0
 13
6738.4581043734406
 23
1362.2528744141059
 33
0.0
 14
6488.4581043734406
 24
1372.0292935584321
 34
0.0
 50
180.0
  0
LINE
  5
5E15
  8
FUTO
 10
6759.4581043734424
 20
1361.2528744141059
 30
0.0
 11
6740.4581043734406
 21
1361.2528744141059
 31
0.0
  0
LINE
  5
5E16
  8
FUTO
 10
6759.4581043734424
 20
1362.2528744141059
 30
0.0
 11
6759.4581043734424
 21
1361.2528744141059
 31
0.0
  0
LINE
  5
5E17
  8
FUTO
 10
6739.4581043734424
 20
1360.2528744141059
 30
0.0
 11
6737.4581043734424
 21
1360.2528744141059
 31
0.0
  0
LINE
  5
5E18
  8
FUTO
 10
6486.4581043734424
 20
1361.2528744141059
 30
0.0
 11
6467.4581043734424
 21
1361.2528744141059
 31
0.0
  0
LINE
  5
5E19
  8
FUTO
 10
6489.4581043734424
 20
1360.2528744141059
 30
0.0
 11
6487.4581043734424
 21
1360.2528744141059
 31
0.0
  0
LINE
  5
5E1A
  8
FUTO
 10
6467.4581043734424
 20
1362.2528744141059
 30
0.0
 11
6467.4581043734424
 21
1361.2528744141059
 31
0.0
  0
LINE
  5
63FE
  8
1
 10
7247.4581043734424
 20
1152.2528744141059
 30
0.0
 11
7247.4581043734424
 21
1012.252874414106
 31
0.0
  0
LINE
  5
63FF
  8
1
 10
6986.6581043734432
 20
1235.0302184141069
 30
0.0
 11
6986.6581043734432
 21
1089.6263494141069
 31
0.0
  0
LINE
  5
6400
  8
1
 10
7042.6009763734419
 20
1112.1694394141059
 30
0.0
 11
7060.6581363734422
 21
1121.5093374141061
 31
0.0
  0
LINE
  5
6401
  8
2
 10
7119.6581043734423
 20
1242.5367494141069
 30
0.0
 11
7119.6581043734423
 21
1078.2367614141069
 31
0.0
  0
LINE
  5
6402
  8
1
 10
7020.6581043734432
 20
1085.2528744141059
 30
0.0
 11
7020.6581043734432
 21
1245.7528744141059
 31
0.0
  0
LINE
  5
6403
  8
1
 10
7437.4581043734443
 20
1306.2528744141071
 30
0.0
 11
7437.4581043734424
 21
1018.252874414106
 31
0.0
  0
LINE
  5
6404
  8
1
 10
7239.4581043734397
 20
1306.2528744141071
 30
0.0
 11
7239.4581043734424
 21
1018.252874414106
 31
0.0
  0
DIMENSION
  5
6405
  8
SP
  2
*D15
 10
7508.4581043734433
 20
1037.2528744141059
 30
0.0
 11
7483.4581043734433
 21
1162.252874414108
 31
0.0
 70
     0
 13
7437.4581043734443
 23
1287.2528744141059
 33
0.0
 14
7437.4581043734443
 24
1037.2528744141059
 34
0.0
 50
90.0
1001
ACAD
1000
DSTYLE
1002
{
1070
     3
1000
φ<>
1002
}
  0
LINE
  5
6406
  8
1
 10
7039.4581043734433
 20
909.5528744141061
 30
0.0
 11
7210.858104373443
 21
1207.0528744141061
 31
0.0
  0
LINE
  5
6407
  8
1
 10
7247.4581043734424
 20
965.25287441410683
 30
0.0
 11
7247.4581043734424
 21
1162.2528744141059
 31
0.0
  0
LINE
  5
6408
  8
1
 10
7239.4581043734424
 20
1312.2528744141059
 30
0.0
 11
7239.4581043734424
 21
907.25287441410683
 31
0.0
  0
LINE
  5
6409
  8
1
 10
7248.4581043734424
 20
965.25287441410683
 30
0.0
 11
7248.4581043734424
 21
1162.2528744141059
 31
0.0
  0
LINE
  5
640A
  8
1
 10
7237.1581043734413
 20
1312.252874414105
 30
0.0
 11
7237.1581043734423
 21
909.55287441410428
 31
0.0
  0
LINE
  5
640B
  8
1
 10
7429.4581043734397
 20
1162.2528744141059
 30
0.0
 11
7429.4581043734406
 21
965.25287441410683
 31
0.0
  0
LINE
  5
640C
  8
1
 10
7428.4581043734397
 20
1162.2528744141059
 30
0.0
 11
7428.4581043734424
 21
965.25287441410683
 31
0.0
  0
LINE
  5
640D
  8
2
 10
7338.4581043734406
 20
1414.464300401849
 30
0.0
 11
7338.4581043734406
 21
906.69593129726491
 31
0.0
  0
LINE
  5
6410
  8
1
 10
7030.4581043734406
 20
1030.252874414108
 30
0.0
 11
7063.7581043734408
 21
958.25287441410501
 31
0.0
  0
LINE
  5
6411
  8
1
 10
7247.4581043734424
 20
1012.252874414106
 30
0.0
 11
7247.4581043734424
 21
965.25287441410683
 31
0.0
  0
LINE
  5
6412
  8
1
 10
7429.4581043734406
 20
1012.252874414106
 30
0.0
 11
7429.4581043734406
 21
965.25287441410683
 31
0.0
  0
LINE
  5
6413
  8
1
 10
7259.4581043734424
 20
953.25287441410671
 30
0.0
 11
7417.4581043734424
 21
953.25287441410671
 31
0.0
  0
LINE
  5
6414
  8
1
 10
7259.4581043734424
 20
954.25287441410671
 30
0.0
 11
7417.4581043734424
 21
954.25287441410671
 31
0.0
  0
LINE
  5
6415
  8
1
 10
7039.4581043734424
 20
907.25287441410683
 30
0.0
 11
7269.4581043734406
 21
907.25287441410683
 31
0.0
  0
LINE
  5
6416
  8
1
 10
7039.4581043734424
 20
909.5528744141061
 30
0.0
 11
7237.1581043734423
 21
909.55287441410428
 31
0.0
  0
LINE
  5
6418
  8
1
 10
7039.4581043734433
 20
909.5528744141061
 30
0.0
 11
7039.4581043734424
 21
907.25287441410683
 31
0.0
  0
LINE
  5
641A
  8
1
 10
7239.4581043734424
 20
909.55287441410428
 30
0.0
 11
7269.4581043734406
 21
909.5528744141061
 31
0.0
  0
LINE
  5
641B
  8
1
 10
7269.4581043734406
 20
909.55287441410428
 30
0.0
 11
7269.4581043734406
 21
907.25287441410683
 31
0.0
  0
LINE
  5
641C
  8
1
 10
7063.7581043734381
 20
958.25287441410865
 30
0.0
 11
7067.5158522726051
 21
958.25287441410865
 31
0.0
  0
ARC
  5
641D
  8
1
 10
7259.4581043734424
 20
965.25287441410683
 30
0.0
 40
11.0
 50
180.0
 51
270.0
  0
ARC
  5
641E
  8
1
 10
7259.4581043734424
 20
965.25287441410683
 30
0.0
 40
12.0
 50
180.0
 51
270.0
  0
ARC
  5
6420
  8
1
 10
7417.4581043734424
 20
965.25287441410683
 30
0.0
 40
12.0
 50
270.0
 51
0.0
  0
ARC
  5
6421
  8
1
 10
7417.4581043734424
 20
965.25287441410683
 30
0.0
 40
11.0
 50
270.0
 51
0.0
  0
LINE
  5
6424
  8
1
 10
7030.4581043734406
 20
1082.2528744141059
 30
0.0
 11
7030.4581043734406
 21
1030.25287441411
 31
0.0
  0
ARC
  5
6425
  8
1
 10
7242.4581043734424
 20
1018.252874414106
 30
0.0
 40
3.0
 50
180.0
 51
270.0
  0
LINE
  5
6426
  8
1
 10
7244.4581043734424
 20
1015.252874414106
 30
0.0
 11
7242.4581043734424
 21
1015.252874414106
 31
0.0
  0
ARC
  5
6427
  8
1
 10
7244.4581043734424
 20
1012.252874414106
 30
0.0
 40
3.0
 50
0.000000000000007
 51
90.0
  0
LINE
  5
6428
  8
1
 10
7140.1087934490752
 20
1084.2528744141059
 30
0.0
 11
7054.6581043734423
 21
1084.2528744141059
 31
0.0
  0
LINE
  5
6429
  8
1
 10
7141.5491295835282
 20
1086.7528744141059
 30
0.0
 11
7054.6581043734423
 21
1086.7528744141059
 31
0.0
  0
LINE
  5
642A
  8
1
 10
7119.6581043734423
 20
1084.2528744141059
 30
0.0
 11
7085.6581043734423
 21
1084.2528744141059
 31
0.0
  0
LINE
  5
642B
  8
1
 10
7119.6581043734423
 20
1105.410345414107
 30
0.0
 11
7096.7049183734416
 21
1105.410345414107
 31
0.0
  0
LINE
  5
642C
  8
1
 10
7030.4581043734406
 20
1082.252874414108
 30
0.0
 11
7138.9565245415124
 21
1082.25287441411
 31
0.0
  0
LINE
  5
642D
  8
1
 10
7088.7861563734423
 20
1094.5842954141069
 30
0.0
 11
7060.6581043734423
 21
1094.5842954141069
 31
0.0
  0
LINE
  5
642E
  8
1
 10
7054.6581043734423
 20
1084.2528744141059
 30
0.0
 11
7054.6581043734423
 21
1088.5842954141069
 31
0.0
  0
LINE
  5
642F
  8
1
 10
7059.6581043734423
 20
1084.2528744141059
 30
0.0
 11
7059.6581043734423
 21
1082.2528744141059
 31
0.0
  0
LINE
  5
6430
  8
1
 10
7057.1581043734423
 20
1119.698979414107
 30
0.0
 11
7057.1581043734423
 21
1093.457692414107
 31
0.0
  0
ARC
  5
6431
  8
1
 10
7060.6581043734423
 20
1088.5842954141069
 30
0.0
 40
6.0
 50
90.0
 51
180.0
  0
LINE
  5
6432
  8
1
 10
7054.334862373441
 20
1087.452826414107
 30
0.0
 11
7054.6451043734423
 21
1087.452826414107
 31
0.0
  0
LINE
  5
6433
  8
CT
 10
7069.6581043734423
 20
1090.4647884141059
 30
0.0
 11
7069.6581043734423
 21
1074.9528744141051
 31
0.0
  0
LINE
  5
6434
  8
1
 10
7089.6581043734432
 20
1084.2528744141059
 30
0.0
 11
7089.6581043734432
 21
1082.2528744141059
 31
0.0
  0
ARC
  5
6435
  8
1
 10
7096.705102373443
 20
1099.4102234141069
 30
0.0
 40
6.0001220000000002
 50
90.001167000002894
 51
161.67526200000361
  0
LINE
  5
6436
  8
1
 10
7091.0091183734421
 20
1101.2966984141069
 30
0.0
 11
7087.3279043734419
 21
1090.1809754141059
 31
0.0
  0
ARC
  5
6437
  8
1
 10
7082.581383373441
 20
1091.7528744141059
 30
0.0
 40
5.0
 50
270.0
 51
341.67651400000278
  0
ARC
  5
6438
  8
1
 10
7021.6581043734423
 20
1085.2528744141059
 30
0.0
 40
1.000030999999999
 50
180.0
 51
269.99826000000689
  0
LINE
  5
6439
  8
1
 10
7042.6009763734419
 20
1112.1694394141059
 30
0.0
 11
7042.6009763734419
 21
1084.249273414106
 31
0.0
  0
LINE
  5
643A
  8
1
 10
7042.6009763734419
 20
1084.2528744141059
 30
0.0
 11
7021.6581043734423
 21
1084.2528744141059
 31
0.0
  0
LINE
  5
643B
  8
1
 10
7020.6581043734432
 20
1085.2528744141059
 30
0.0
 11
6988.0262683734418
 21
1088.1321474141071
 31
0.0
  0
ARC
  5
643C
  8
1
 10
6988.1581043734432
 20
1089.6263494141069
 30
0.0
 40
1.4999849999999999
 50
180.0
 51
264.95834399999262
  0
LINE
  5
643D
  8
1
 10
7042.6009763734419
 20
1087.452887414106
 30
0.0
 11
7054.6451043734423
 21
1087.452887414106
 31
0.0
  0
LINE
  5
643E
  8
1
 10
7119.6581043734423
 20
1105.410345414107
 30
0.0
 11
7142.6112903734411
 21
1105.410345414107
 31
0.0
  0
LINE
  5
643F
  8
1
 10
7148.3070913734409
 20
1101.2966984141069
 30
0.0
 11
7148.8988515911778
 21
1099.5098306409211
 31
0.0
  0
ARC
  5
6440
  8
1
 10
7142.6112293734423
 20
1099.4102234141069
 30
0.0
 40
6.0001939999999996
 50
18.324733999998731
 51
89.99883299999712
  0
ARC
  5
6441
  8
1
 10
7432.4581043734406
 20
1012.252874414106
 30
0.0
 40
3.0
 50
90.0
 51
180.0
  0
LINE
  5
6442
  8
1
 10
7432.4581043734406
 20
1015.252874414106
 30
0.0
 11
7434.4581043734424
 21
1015.252874414106
 31
0.0
  0
ARC
  5
6443
  8
1
 10
7434.4581043734424
 20
1018.252874414106
 30
0.0
 40
3.0
 50
270.0
 51
0.0
  0
LINE
  5
6444
  8
FUTO
 10
7428.4581043734424
 20
1037.2528744141059
 30
0.0
 11
7437.4581043734443
 21
1037.2528744141059
 31
0.0
  0
LINE
  5
6445
  8
1
 10
7250.4581043734433
 20
1360.2528744141059
 30
0.0
 11
7268.4581043734433
 21
1342.2528744141059
 31
0.0
  0
LINE
  5
6446
  8
1
 10
7429.4581043734397
 20
1362.252874414105
 30
0.0
 11
7429.4581043734406
 21
1312.252874414108
 31
0.0
  0
LINE
  5
6447
  8
1
 10
7426.4581043734388
 20
1360.2528744141059
 30
0.0
 11
7408.4581043734397
 21
1342.2528744141059
 31
0.0
  0
LINE
  5
6448
  8
1
 10
7247.4581043734424
 20
1362.2528744141059
 30
0.0
 11
7247.4581043734424
 21
1162.2528744141059
 31
0.0
  0
LINE
  5
6449
  8
1
 10
7248.4581043734443
 20
1362.2528744141059
 30
0.0
 11
7248.4581043734443
 21
1162.2528744141059
 31
0.0
  0
LINE
  5
644A
  8
1
 10
7428.4581043734424
 20
1362.2528744141059
 30
0.0
 11
7428.4581043734424
 21
1162.2528744141059
 31
0.0
  0
DIMENSION
  5
644B
  8
SP
  2
*D16
 10
7437.4581043734424
 20
1502.252874414105
 30
0.0
 11
7387.9581043734424
 21
1527.252874414105
 31
0.0
 70
     0
 13
7338.4581043734406
 23
1472.2528744141041
 33
0.0
 14
7437.4581043734424
 24
1306.2528744141071
 34
0.0
  0
DIMENSION
  5
644C
  8
SP
  2
*D17
 10
6986.6581043734432
 20
1502.252874414105
 30
0.0
 11
7162.5581043734419
 21
1527.252874414105
 31
0.0
 70
     0
  1
（400）
 13
7338.4581043734406
 23
1472.2528744141041
 33
0.0
 14
6986.6581043734432
 24
1235.0302184141069
 34
0.0
  0
LINE
  5
644D
  8
1
 10
7060.6581043734423
 20
1121.509320862403
 30
0.0
 11
7060.6581043734423
 21
1247.2528744141059
 31
0.0
  0
LINE
  5
644E
  8
1
 10
7429.4581043734406
 20
1312.2528744141059
 30
0.0
 11
7429.4581043734443
 21
1162.2528744141059
 31
0.0
  0
LINE
  5
644F
  8
1
 10
6987.8556143734431
 20
1236.4993954141071
 30
0.0
 11
7019.8597653734414
 21
1243.088507414107
 31
0.0
  0
LINE
  5
6450
  8
2
 10
6970.36965974554
 20
1162.2528744141059
 30
0.0
 11
7451.9746930676874
 21
1162.2528744141059
 31
0.0
  0
LINE
  5
6451
  8
1
 10
7182.1581043734423
 20
1237.7528744141059
 30
0.0
 11
7182.1581043734441
 21
1157.2381136206379
 31
0.0
  0
LINE
  5
6452
  8
1
 10
7060.6581043734423
 20
1237.052862414107
 30
0.0
 11
7182.1581043734423
 21
1237.052862414107
 31
0.0
  0
ARC
  5
6453
  8
1
 10
6988.1581043734432
 20
1235.0302184141069
 30
0.0
 40
1.499994
 50
101.6341019999993
 51
180.0
  0
LINE
  5
6454
  8
1
 10
7210.858104373443
 20
1207.0528744141061
 30
0.0
 11
7237.1581043734413
 21
1228.3528744141049
 31
0.0
  0
LINE
  5
6455
  8
1
 10
7204.6581043734423
 20
1196.2914975179549
 30
0.0
 11
7204.6581043734423
 21
1235.7528744141071
 31
0.0
  0
ARC
  5
6456
  8
1
 10
7202.6581043734423
 20
1235.7528744141071
 30
0.0
 40
2.0
 50
0.0
 51
90.0
  0
LINE
  5
6457
  8
1
 10
7182.1581043734423
 20
1237.7528744141059
 30
0.0
 11
7202.6581043734423
 21
1237.7528744141059
 31
0.0
  0
LINE
  5
6458
  8
1
 10
7204.6581043734423
 20
1226.3186704141069
 30
0.0
 11
7204.6581043734423
 21
1235.3186704141069
 31
0.0
  0
LINE
  5
6459
  8
1
 10
7204.6581043734423
 20
1235.0678774141061
 30
0.0
 11
7204.6581043734423
 21
1226.437872414107
 31
0.0
  0
LINE
  5
645A
  8
1
 10
7268.4581043734406
 20
1342.252874414108
 30
0.0
 11
7408.4581043734406
 21
1342.252874414108
 31
0.0
  0
ARC
  5
645B
  8
1
 10
7022.1581043734423
 20
1245.7528744141059
 30
0.0
 40
1.4999849999999999
 50
89.999419999993705
 51
180.0
  0
ARC
  5
645C
  8
1
 10
7019.6581653734411
 20
1244.0678774141061
 30
0.0
 40
0.999898
 50
281.62991300000863
 51
0.0034970000000449
  0
LINE
  5
645D
  8
1
 10
7022.1581043734423
 20
1247.2528744141059
 30
0.0
 11
7060.6581043734423
 21
1247.2528744141059
 31
0.0
  0
LINE
  5
645E
  8
1
 10
7237.1581043734413
 20
1312.2528744141059
 30
0.0
 11
7239.4581043734424
 21
1312.2528744141059
 31
0.0
  0
ARC
  5
645F
  8
1
 10
7244.4581043734424
 20
1312.2528744141059
 30
0.0
 40
3.0
 50
270.0
 51
0.000000000000007
  0
ARC
  5
6460
  8
1
 10
7242.4581043734424
 20
1306.2528744141071
 30
0.0
 40
3.0
 50
90.0
 51
180.0
  0
LINE
  5
6461
  8
1
 10
7244.4581043734424
 20
1309.2528744141059
 30
0.0
 11
7242.4581043734424
 21
1309.2528744141059
 31
0.0
  0
LINE
  5
6462
  8
FUTO
 10
7428.4581043734424
 20
1287.2528744141059
 30
0.0
 11
7437.4581043734443
 21
1287.2528744141059
 31
0.0
  0
LINE
  5
6463
  8
1
 10
7432.4581043734406
 20
1309.2528744141059
 30
0.0
 11
7434.4581043734424
 21
1309.2528744141059
 31
0.0
  0
ARC
  5
6464
  8
1
 10
7434.4581043734424
 20
1306.2528744141071
 30
0.0
 40
3.0
 50
0.0
 51
90.0
  0
ARC
  5
6465
  8
1
 10
7432.4581043734406
 20
1312.2528744141059
 30
0.0
 40
3.0
 50
180.0
 51
270.0
  0
LINE
  5
6466
  8
1
 10
7227.4581043734433
 20
1362.2528744141059
 30
0.0
 11
7449.4581043734406
 21
1362.252874414105
 31
0.0
  0
LINE
  5
6467
  8
1
 10
7227.4581043734406
 20
1361.2528744141059
 30
0.0
 11
7449.4581043734406
 21
1361.2528744141059
 31
0.0
  0
DIMENSION
  5
6468
  8
SP
  2
*D14
 10
7428.4581043734424
 20
1432.252874414105
 30
0.0
 11
7338.4581043734433
 21
1457.252874414105
 31
0.0
 70
     0
 13
7248.4581043734443
 23
1362.2528744141059
 33
0.0
 14
7428.4581043734424
 24
1362.2528744141059
 34
0.0
  0
LINE
  5
6469
  8
1
 10
7227.4581043734406
 20
1362.2528744141059
 30
0.0
 11
7227.4581043734433
 21
1361.2528744141059
 31
0.0
  0
LINE
  5
646A
  8
1
 10
7248.4581043734443
 20
1360.2528744141059
 30
0.0
 11
7250.4581043734433
 21
1360.2528744141059
 31
0.0
  0
LINE
  5
646B
  8
1
 10
7428.4581043734397
 20
1360.2528744141059
 30
0.0
 11
7426.4581043734388
 21
1360.2528744141059
 31
0.0
  0
LINE
  5
646C
  8
1
 10
7449.4581043734406
 20
1362.2528744141059
 30
0.0
 11
7449.4581043734406
 21
1361.2528744141059
 31
0.0
  0
LINE
  5
720F
  8
2
 10
6311.4581043734433
 20
870.83191239222833
 30
0.0
 11
6311.4581043734424
 21
919.55287441410701
 31
0.0
  0
LINE
  5
7210
  8
2
 10
6665.4581043734388
 20
872.70849825411085
 30
0.0
 11
6665.4581043734388
 21
919.55287441410871
 31
0.0
  0
DIMENSION
  5
7211
  8
SP
  2
*D20
 10
6837.9243890247126
 20
885.25287441410774
 30
0.0
 11
6877.4979161688952
 21
883.05368193718175
 31
0.0
 70
   128
 13
6678.4581043734424
 23
907.25287441410603
 33
0.0
 14
6738.4581043734406
 24
885.25287441410774
 34
0.0
 50
90.0
1001
ACAD
1000
DSTYLE
1002
{
1070
   287
1070
     5
1070
   279
1070
     2
1070
     3
1000
（<>）
1070
     6
1000
NONE
1070
     7
1000
NONE
1002
}
  0
DIMENSION
  5
7212
  8
SP
  2
*D21
 10
6837.9243890247126
 20
855.25287441410615
 30
0.0
 11
6812.9243890247144
 21
769.19334619867516
 31
0.0
 70
     0
 13
6738.4581043734406
 23
885.25287441410774
 33
0.0
 14
6738.4581043734406
 24
855.25287441410615
 34
0.0
 50
90.0
1001
ACAD
1000
DSTYLE
1002
{
1070
     6
1000
DOT
1002
}
  0
LINE
  5
7839
  8
1
 10
6238.4581043734433
 20
885.25287441410376
 30
0.0
 11
6738.4581043734406
 21
885.25287441410615
 31
0.0
  0
LINE
  5
783A
  8
FUTO
 10
6238.4581043734406
 20
855.2528744141033
 30
0.0
 11
6738.4581043734406
 21
855.25287441410615
 31
0.0
  0
LINE
  5
783B
  8
1
 10
6238.4581043734433
 20
882.25287441410376
 30
0.0
 11
6738.4581043734406
 21
882.25287441410615
 31
0.0
  0
LINE
  5
783C
  8
FUTO
 10
6238.4581043734406
 20
855.2528744141033
 30
0.0
 11
6238.4581043734433
 21
885.25287441410376
 31
0.0
  0
LINE
  5
783D
  8
FUTO
 10
6738.4581043734406
 20
855.25287441410615
 30
0.0
 11
6738.4581043734406
 21
885.25287441410615
 31
0.0
  0
LINE
  5
783E
  8
FUTO
 10
7026.4581043734433
 20
855.2528744141033
 30
0.0
 11
7516.4581043734406
 21
855.25287441410649
 31
0.0
  0
LINE
  5
783F
  8
FUTO
 10
7026.4581043734433
 20
885.25287441410364
 30
0.0
 11
7516.4581043734406
 21
885.25287441410637
 31
0.0
  0
INSERT
  5
7840
  8
FUTO
  2
L-30-3
 10
7124.5750747308948
 20
1000.501716163348
 30
0.0
 41
-1.0
 50
90.0
  0
INSERT
  5
7841
  8
FUTO
  2
L-30-3
 10
7418.3411340159892
 20
1000.501716163351
 30
0.0
 50
270.0
  0
LINE
  5
7842
  8
SL
 10
7533.4581043734406
 20
865.75747352540395
 30
0.0
 11
7533.4581043734406
 21
1239.1521390501209
 31
0.0
  0
LINE
  5
7843
  8
SL
 10
7009.4581043734424
 20
864.75747352540373
 30
0.0
 11
7009.4581043734424
 21
1238.1521390501221
 31
0.0
  0
LINE
  5
7CBE
  8
1
 10
6454.9581043734424
 20
2048.3217284884472
 30
0.0
 11
6454.9581043734424
 21
2057.3217284884472
 31
0.0
  0
LINE
  5
7CBF
  8
1
 10
6521.9581043734424
 20
2057.3217284884472
 30
0.0
 11
6521.9581043734424
 21
2048.3217284884472
 31
0.0
  0
LINE
  5
7CC0
  8
2
 10
6488.4581043734406
 20
1814.033283860545
 30
0.0
 11
6488.4581043734406
 21
2318.3418936860148
 31
0.0
  0
LINE
  5
7CC1
  8
FUTO
 10
6298.4581043734406
 20
1870.1217284884449
 30
0.0
 11
6298.4581043734379
 21
2360.1217284884451
 31
0.0
  0
DIMENSION
  5
7CC2
  8
SP
  2
*D23
 10
6109.224949556743
 20
1840.1217284884449
 30
0.0
 11
6084.224949556743
 21
2115.121728488446
 31
0.0
 70
     0
 13
6238.4581043734406
 23
2390.1217284884451
 33
0.0
 14
6238.4581043734406
 24
1840.1217284884449
 34
0.0
 50
90.0
  0
LINE
  5
7CC3
  8
1
 10
6678.4581043734424
 20
1870.1217284884469
 30
0.0
 11
6678.4581043734452
 21
2071.1217284884469
 31
0.0
  0
LINE
  5
7CC4
  8
1
 10
6648.4581043734424
 20
1870.121728488446
 30
0.0
 11
6648.4581043734452
 21
2071.1217284884478
 31
0.0
  0
LINE
  5
7CC5
  8
1
 10
6328.4581043734424
 20
1870.1217284884449
 30
0.0
 11
6328.4581043734379
 21
2092.121728488446
 31
0.0
  0
DIMENSION
  5
7CC6
  8
SP
  2
*D24
 10
6738.4581043734406
 20
1721.37338721483
 30
0.0
 11
6488.4581043734406
 21
1746.37338721483
 31
0.0
 70
     0
 13
6238.4581043734406
 23
1840.1217284884449
 33
0.0
 14
6738.4581043734406
 24
1840.1217284884469
 34
0.0
 50
180.0
  0
LINE
  5
7CC7
  8
CT
 10
6720.1804491422208
 20
1853.1217284884469
 30
0.0
 11
6696.7357596046577
 21
1853.1217284884469
 31
0.0
  0
LINE
  5
7CC8
  8
FUTO
 10
6738.4581043734406
 20
1840.1217284884469
 30
0.0
 11
6238.4581043734406
 21
1840.121728488444
 31
0.0
  0
LINE
  5
7CC9
  8
FUTO
 10
6738.4581043734406
 20
1870.1217284884469
 30
0.0
 11
6238.4581043734379
 21
1870.1217284884449
 31
0.0
  0
LINE
  5
7CCA
  8
1
 10
6413.658116373439
 20
1904.3217284884479
 30
0.0
 11
6413.658116373439
 21
2025.8217284884479
 31
0.0
  0
LINE
  5
7CCB
  8
1
 10
6563.2580923734413
 20
1904.3217284884479
 30
0.0
 11
6563.2580923734413
 21
2025.8217284884479
 31
0.0
  0
LINE
  5
7CCC
  8
1
 10
6403.4581043734406
 20
1874.121728488449
 30
0.0
 11
6328.4581043734424
 21
1874.121728488446
 31
0.0
  0
LINE
  5
7CCD
  8
FUTO
 10
6238.4581043734406
 20
1840.121728488444
 30
0.0
 11
6238.4581043734379
 21
1870.1217284884449
 31
0.0
  0
LINE
  5
7CCE
  8
CT
 10
6268.4581043734424
 20
1864.8440732572301
 30
0.0
 11
6268.4581043734424
 21
1841.3993837196649
 31
0.0
  0
CIRCLE
  5
7CCF
  8
FUTO
 10
6268.4581043734424
 20
1853.1217284884469
 30
0.0
 40
6.5
  0
LINE
  5
7CD0
  8
CT
 10
6280.1804491422208
 20
1853.1217284884469
 30
0.0
 11
6256.7357596046586
 21
1853.1217284884469
 31
0.0
  0
LINE
  5
7CD1
  8
1
 10
6403.4581043734406
 20
1865.821728488447
 30
0.0
 11
6403.4581043734406
 21
1904.3217284884479
 31
0.0
  0
LINE
  5
7CD2
  8
1
 10
6573.4581043734424
 20
1865.821728488447
 30
0.0
 11
6573.4581043734424
 21
1904.3217284884479
 31
0.0
  0
LINE
  5
7CD3
  8
1
 10
6488.4581043734406
 20
1864.321728488447
 30
0.0
 11
6571.9581043734424
 21
1864.321728488447
 31
0.0
  0
LINE
  5
7CD4
  8
1
 10
6561.2354483734389
 20
1830.321728488447
 30
0.0
 11
6415.8315793734419
 21
1830.321728488447
 31
0.0
  0
LINE
  5
7CD5
  8
1
 10
6414.2115833734397
 20
1831.5192384884469
 30
0.0
 11
6407.6224713734391
 21
1863.523389488447
 31
0.0
  0
ARC
  5
7CD6
  8
1
 10
6406.6431013734391
 20
1863.321789488446
 30
0.0
 40
0.999898
 50
11.6299130000048
 51
90.003497000004955
  0
ARC
  5
7CD7
  8
1
 10
6404.9581043734424
 20
1865.821728488447
 30
0.0
 40
1.4999849999999999
 50
179.99941999999371
 51
270.0
  0
LINE
  5
7CD8
  8
1
 10
6488.4581043734388
 20
1864.321728488447
 30
0.0
 11
6404.9581043734424
 21
1864.321728488447
 31
0.0
  0
LINE
  5
7CD9
  8
1
 10
6562.7046253734416
 20
1831.5192384884469
 30
0.0
 11
6569.2937373734412
 21
1863.523389488447
 31
0.0
  0
ARC
  5
7CDA
  8
1
 10
6571.9581043734424
 20
1865.821728488447
 30
0.0
 40
1.4999849999999999
 50
270.0
 51
0.0005800000062724
  0
ARC
  5
7CDB
  8
1
 10
6570.2731073734376
 20
1863.321789488446
 30
0.0
 40
0.999898
 50
89.99650299999503
 51
168.3700869999951
  0
LINE
  5
7CDC
  8
1
 10
6403.4581043734406
 20
1904.3217284884479
 30
0.0
 11
6573.4581043734424
 21
1904.3217284884479
 31
0.0
  0
LINE
  5
7CDD
  8
1
 10
6678.458104373437
 20
1883.1217284884499
 30
0.0
 11
6648.4581043734424
 21
1883.1217284884499
 31
0.0
  0
LINE
  5
7CDE
  8
1
 10
6648.4581043734424
 20
1874.121728488454
 30
0.0
 11
6573.4581043734379
 21
1874.1217284884499
 31
0.0
  0
LINE
  5
7CDF
  8
1
 10
6488.4581043734406
 20
2048.3217284884472
 30
0.0
 11
6561.9581043734424
 21
2048.3217284884472
 31
0.0
  0
LINE
  5
7CE0
  8
1
 10
6563.9581043734397
 20
2025.8217284884479
 30
0.0
 11
6488.4581043734406
 21
2025.8217284884479
 31
0.0
  0
ARC
  5
7CE1
  8
1
 10
6414.9581043734406
 20
2046.3217284884479
 30
0.0
 40
2.0
 50
90.0
 51
180.0
  0
LINE
  5
7CE2
  8
1
 10
6415.6431013734373
 20
2048.3217284884472
 30
0.0
 11
6424.2731063734373
 21
2048.3217284884472
 31
0.0
  0
LINE
  5
7CE3
  8
1
 10
6424.392308373438
 20
2048.3217284884472
 30
0.0
 11
6415.392308373438
 21
2048.3217284884472
 31
0.0
  0
LINE
  5
7CE4
  8
1
 10
6412.9581043734424
 20
2025.8217284884479
 30
0.0
 11
6412.9581043734424
 21
2046.3217284884479
 31
0.0
  0
LINE
  5
7CE5
  8
1
 10
6412.9581043734424
 20
2025.8217284884479
 30
0.0
 11
6488.4581043734388
 21
2025.8217284884479
 31
0.0
  0
LINE
  5
7CE6
  8
1
 10
6488.4581043734406
 20
2048.3217284884472
 30
0.0
 11
6414.9581043734406
 21
2048.3217284884472
 31
0.0
  0
LINE
  5
7CE7
  8
1
 10
6552.5239003734414
 20
2048.3217284884472
 30
0.0
 11
6561.5239003734396
 21
2048.3217284884472
 31
0.0
  0
LINE
  5
7CE8
  8
1
 10
6561.2731073734376
 20
2048.3217284884472
 30
0.0
 11
6552.6431023734394
 21
2048.3217284884472
 31
0.0
  0
ARC
  5
7CE9
  8
1
 10
6561.9581043734424
 20
2046.3217284884479
 30
0.0
 40
2.0
 50
0.0
 51
90.0
  0
LINE
  5
7CEA
  8
1
 10
6563.9581043734397
 20
2025.8217284884479
 30
0.0
 11
6563.9581043734397
 21
2046.3217284884479
 31
0.0
  0
CIRCLE
  5
7CEB
  8
FUTO
 10
6708.4581043734406
 20
1853.1217284884469
 30
0.0
 40
6.5
  0
LINE
  5
7CEC
  8
FUTO
 10
6738.4581043734406
 20
1840.1217284884469
 30
0.0
 11
6738.4581043734406
 21
1870.1217284884469
 31
0.0
  0
LINE
  5
7CED
  8
CT
 10
6708.4581043734406
 20
1864.8440732572301
 30
0.0
 11
6708.4581043734406
 21
1841.3993837196649
 31
0.0
  0
ARC
  5
7CEE
  8
1
 10
6479.4581043734379
 20
2281.1217284884469
 30
0.0
 40
12.0
 50
90.0
 51
180.0
  0
ARC
  5
7CEF
  8
1
 10
6747.4581043734352
 20
2281.1217284884428
 30
0.0
 40
12.0
 50
0.0
 51
90.0
  0
LINE
  5
7CF0
  8
1
 10
6328.4581043734379
 20
2272.1217284884451
 30
0.0
 11
6328.4581043734379
 21
2360.1217284884451
 31
0.0
  0
LINE
  5
7CF1
  8
1
 10
6738.4581043734343
 20
2272.1217284884469
 30
0.0
 11
6488.4581043734406
 21
2272.1217284884469
 31
0.0
  0
LINE
  5
7CF2
  8
1
 10
6739.4581043734352
 20
2273.1217284884478
 30
0.0
 11
6487.4581043734424
 21
2273.1217284884428
 31
0.0
  0
LINE
  5
7CF3
  8
1
 10
6747.458104373437
 20
2071.1217284884469
 30
0.0
 11
6479.4581043734406
 21
2071.1217284884501
 31
0.0
  0
LINE
  5
7CF4
  8
1
 10
6738.4581043734388
 20
2092.1217284884451
 30
0.0
 11
6488.4581043734406
 21
2092.1217284884469
 31
0.0
  0
LINE
  5
7CF5
  8
1
 10
6739.458104373437
 20
2091.1217284884469
 30
0.0
 11
6487.4581043734424
 21
2091.1217284884469
 31
0.0
  0
LINE
  5
7CF6
  8
2
 10
6772.6445893507389
 20
2182.121728488446
 30
0.0
 11
6278.3104898000875
 21
2182.1217284884451
 31
0.0
  0
LINE
  5
7CF7
  8
HOSO
 10
6738.4581043734388
 20
2092.1217284884451
 30
0.0
 11
6488.4581043734406
 21
2272.1217284884469
 31
0.0
  0
LINE
  5
7CF8
  8
HOSO
 10
6738.4581043734388
 20
2272.1217284884469
 30
0.0
 11
6488.4581043734406
 21
2092.1217284884469
 31
0.0
  0
LINE
  5
7CF9
  8
1
 10
6467.4581043734424
 20
2083.1217284884501
 30
0.0
 11
6467.4581043734379
 21
2281.1217284884469
 31
0.0
  0
LINE
  5
7CFA
  8
1
 10
6488.4581043734406
 20
2272.1217284884469
 30
0.0
 11
6488.4581043734406
 21
2092.1217284884469
 31
0.0
  0
LINE
  5
7CFB
  8
1
 10
6312.4581043734406
 20
2104.1217284884451
 30
0.0
 11
6312.4581043734406
 21
2260.1217284884451
 31
0.0
  0
LINE
  5
7CFC
  8
1
 10
6487.4581043734424
 20
2273.1217284884428
 30
0.0
 11
6487.4581043734424
 21
2091.1217284884469
 31
0.0
  0
LINE
  5
7CFD
  8
1
 10
6311.4581043734424
 20
2104.1217284884451
 30
0.0
 11
6311.4581043734424
 21
2260.1217284884451
 31
0.0
  0
LINE
  5
7CFE
  8
1
 10
6467.4581043734424
 20
2092.1217284884451
 30
0.0
 11
6324.4581043734406
 21
2092.1217284884451
 31
0.0
  0
LINE
  5
7CFF
  8
1
 10
6467.4581043734424
 20
2091.1217284884451
 30
0.0
 11
6324.4581043734406
 21
2091.1217284884451
 31
0.0
  0
LINE
  5
7D00
  8
1
 10
6454.9581043734424
 20
2049.1217284884492
 30
0.0
 11
6328.4581043734379
 21
2049.1217284884492
 31
0.0
  0
LINE
  5
7D01
  8
FUTO
 10
6298.4581043734379
 20
2083.1217284884451
 30
0.0
 11
6632.4581043734343
 21
2083.1217284884451
 31
0.0
  0
ARC
  5
7D02
  8
1
 10
6324.4581043734406
 20
2104.1217284884451
 30
0.0
 40
12.0
 50
180.0
 51
270.0
  0
ARC
  5
7D03
  8
1
 10
6324.4581043734406
 20
2104.1217284884451
 30
0.0
 40
13.0
 50
180.0
 51
270.0
  0
LINE
  5
7D04
  8
1
 10
6341.4581043734406
 20
2088.1217284884469
 30
0.0
 11
6341.4581043734406
 21
2086.1217284884469
 31
0.0
  0
LINE
  5
7D05
  8
1
 10
6341.4581043734406
 20
2088.1217284884469
 30
0.0
 11
6341.4581043734406
 21
2086.1217284884469
 31
0.0
  0
ARC
  5
7D06
  8
1
 10
6338.4581043734406
 20
2088.1217284884469
 30
0.0
 40
3.0
 50
0.0
 51
90.0
  0
ARC
  5
7D07
  8
1
 10
6344.4581043734406
 20
2086.1217284884469
 30
0.0
 40
3.0
 50
180.0
 51
270.0
  0
LINE
  5
7D08
  8
1
 10
6648.4581043734452
 20
2049.1217284884551
 30
0.0
 11
6521.9581043734424
 21
2049.1217284884519
 31
0.0
  0
ARC
  5
7D09
  8
1
 10
6479.4581043734406
 20
2083.1217284884501
 30
0.0
 40
12.0
 50
180.0
 51
270.0
  0
LINE
  5
7D0A
  8
1
 10
6465.9581043734406
 20
2068.3217284884458
 30
0.0
 11
6470.9581043734406
 21
2063.3217284884458
 31
0.0
  0
LINE
  5
7D0B
  8
1
 10
6477.9581043734406
 20
2063.3217284884472
 30
0.0
 11
6477.9581043734406
 21
2058.3217284884472
 31
0.0
  0
LINE
  5
7D0C
  8
1
 10
6465.9581043734406
 20
2080.821728488449
 30
0.0
 11
6465.9581043734406
 21
2068.3217284884458
 31
0.0
  0
ARC
  5
7D0D
  8
1
 10
6455.9581043734406
 20
2057.3217284884472
 30
0.0
 40
1.0
 50
90.0
 51
180.0
  0
LINE
  5
7D0E
  8
1
 10
6510.9581043734424
 20
2071.1217284884478
 30
0.0
 11
6510.9581043734424
 21
2068.3217284884458
 31
0.0
  0
LINE
  5
7D0F
  8
1
 10
6498.9581043734424
 20
2063.3217284884472
 30
0.0
 11
6498.9581043734424
 21
2058.3217284884472
 31
0.0
  0
ARC
  5
7D10
  8
1
 10
6520.9581043734406
 20
2057.3217284884472
 30
0.0
 40
1.0
 50
0.0
 51
90.0
  0
LINE
  5
7D11
  8
1
 10
6505.9581043734406
 20
2063.3217284884458
 30
0.0
 11
6510.9581043734424
 21
2068.3217284884458
 31
0.0
  0
LINE
  5
7D12
  8
1
 10
6455.9581043734406
 20
2058.3217284884472
 30
0.0
 11
6520.9581043734406
 21
2058.3217284884472
 31
0.0
  0
LINE
  5
7D13
  8
1
 10
6505.9581043734406
 20
2063.3217284884458
 30
0.0
 11
6470.9581043734406
 21
2063.3217284884458
 31
0.0
  0
ARC
  5
7D14
  8
1
 10
6632.4581043734343
 20
2086.1217284884469
 30
0.0
 40
3.0
 50
270.0
 51
0.0
  0
LINE
  5
7D15
  8
1
 10
6635.4581043734343
 20
2088.1217284884469
 30
0.0
 11
6635.4581043734343
 21
2086.1217284884469
 31
0.0
  0
LINE
  5
7D16
  8
1
 10
6635.4581043734343
 20
2088.1217284884469
 30
0.0
 11
6635.4581043734343
 21
2086.1217284884469
 31
0.0
  0
ARC
  5
7D17
  8
1
 10
6638.4581043734343
 20
2088.1217284884469
 30
0.0
 40
3.0
 50
90.0
 51
180.0
  0
LINE
  5
7D18
  8
1
 10
6467.4581043734379
 20
2281.1217284884428
 30
0.0
 11
6344.4581043734406
 21
2281.1217284884428
 31
0.0
  0
LINE
  5
7D19
  8
1
 10
6467.4581043734424
 20
2272.1217284884451
 30
0.0
 11
6324.4581043734406
 21
2272.1217284884451
 31
0.0
  0
LINE
  5
7D1A
  8
1
 10
6467.4581043734424
 20
2273.1217284884451
 30
0.0
 11
6324.4581043734406
 21
2273.1217284884451
 31
0.0
  0
ARC
  5
7D1B
  8
1
 10
6324.4581043734406
 20
2260.1217284884451
 30
0.0
 40
12.0
 50
90.0
 51
180.0
  0
ARC
  5
7D1C
  8
1
 10
6324.4581043734406
 20
2260.1217284884451
 30
0.0
 40
13.0
 50
90.0
 51
180.0
  0
LINE
  5
7D1D
  8
1
 10
6341.4581043734406
 20
2276.1217284884428
 30
0.0
 11
6341.4581043734406
 21
2278.1217284884428
 31
0.0
  0
LINE
  5
7D1E
  8
1
 10
6341.4581043734406
 20
2276.1217284884428
 30
0.0
 11
6341.4581043734406
 21
2278.1217284884428
 31
0.0
  0
ARC
  5
7D1F
  8
1
 10
6344.4581043734406
 20
2278.1217284884428
 30
0.0
 40
3.0
 50
90.0
 51
180.0
  0
ARC
  5
7D20
  8
1
 10
6338.4581043734406
 20
2276.1217284884428
 30
0.0
 40
3.0
 50
270.0
 51
0.0
  0
LINE
  5
7D21
  8
1
 10
6759.4581043734379
 20
2083.1217284884469
 30
0.0
 11
6759.4581043734333
 21
2281.1217284884428
 31
0.0
  0
LINE
  5
7D22
  8
1
 10
6738.4581043734388
 20
2092.1217284884451
 30
0.0
 11
6738.4581043734388
 21
2272.1217284884469
 31
0.0
  0
LINE
  5
7D23
  8
1
 10
6739.458104373437
 20
2091.1217284884469
 30
0.0
 11
6739.4581043734352
 21
2273.1217284884478
 31
0.0
  0
ARC
  5
7D24
  8
1
 10
6747.458104373437
 20
2083.1217284884469
 30
0.0
 40
12.0
 50
270.0
 51
0.0
  0
LINE
  5
7D25
  8
CT
 10
6720.1804491422208
 20
2377.121728488446
 30
0.0
 11
6696.7357596046577
 21
2377.121728488446
 31
0.0
  0
LINE
  5
7D26
  8
1
 10
6747.4581043734352
 20
2293.1217284884428
 30
0.0
 11
6479.4581043734379
 21
2293.1217284884469
 31
0.0
  0
LINE
  5
7D27
  8
FUTO
 10
6738.4581043734406
 20
2390.1217284884469
 30
0.0
 11
6238.4581043734406
 21
2390.1217284884451
 31
0.0
  0
LINE
  5
7D28
  8
FUTO
 10
6738.4581043734406
 20
2360.1217284884469
 30
0.0
 11
6238.4581043734406
 21
2360.1217284884451
 31
0.0
  0
LINE
  5
7D29
  8
CT
 10
6280.1804491422208
 20
2377.121728488446
 30
0.0
 11
6256.7357596046586
 21
2377.121728488446
 31
0.0
  0
CIRCLE
  5
7D2A
  8
FUTO
 10
6268.4581043734424
 20
2377.121728488446
 30
0.0
 40
6.5
  0
LINE
  5
7D2B
  8
CT
 10
6268.4581043734424
 20
2365.399383719664
 30
0.0
 11
6268.4581043734424
 21
2388.844073257228
 31
0.0
  0
LINE
  5
7D2C
  8
FUTO
 10
6238.4581043734406
 20
2360.1217284884442
 30
0.0
 11
6238.4581043734406
 21
2390.1217284884451
 31
0.0
  0
LINE
  5
7D2D
  8
1
 10
6678.4581043734488
 20
2293.1217284884442
 30
0.0
 11
6678.4581043734488
 21
2360.1217284884469
 31
0.0
  0
LINE
  5
7D2E
  8
1
 10
6648.4581043734497
 20
2293.1217284884451
 30
0.0
 11
6648.4581043734497
 21
2360.1217284884451
 31
0.0
  0
CIRCLE
  5
7D2F
  8
FUTO
 10
6708.4581043734406
 20
2377.121728488446
 30
0.0
 40
6.5
  0
LINE
  5
7D30
  8
FUTO
 10
6738.4581043734388
 20
2360.1217284884469
 30
0.0
 11
6738.4581043734406
 21
2390.1217284884469
 31
0.0
  0
LINE
  5
7D31
  8
CT
 10
6708.4581043734406
 20
2365.399383719664
 30
0.0
 11
6708.4581043734406
 21
2388.844073257228
 31
0.0
  0
DIMENSION
  5
85A1
  8
SP
  2
*D26
 10
6738.4581043734406
 20
715.25287441410433
 30
0.0
 11
6488.4581043734406
 21
740.25287441410433
 31
0.0
 70
     0
 13
6238.4581043734406
 23
828.42156300834597
 33
0.0
 14
6738.4581043734406
 24
828.42156300834893
 34
0.0
  0
DIMENSION
  5
85A2
  8
SP
  2
*D25
 10
6738.4581043734406
 20
785.25287441410558
 30
0.0
 11
6613.4581043734406
 21
810.25287441410569
 31
0.0
 70
     0
 13
6488.4581043734406
 23
822.75456559170834
 33
0.0
 14
6738.4581043734406
 24
855.25287441410421
 34
0.0
  0
DIMENSION
  5
85A3
  8
SP
  2
*D27
 10
6488.4581043734406
 20
785.25287441410296
 30
0.0
 11
6363.4581043734406
 21
810.25287441410285
 31
0.0
 70
     0
 13
6238.4581043734406
 23
855.2528744141016
 33
0.0
 14
6488.4581043734406
 24
822.75456559170834
 34
0.0
  0
DIMENSION
  5
87F8
  8
SP
  2
*D28
 10
6996.4581043734406
 20
785.25287441410615
 30
0.0
 11
7167.4581043734424
 21
810.25287441410615
 31
0.0
 70
     0
 13
7338.4581043734406
 23
906.69593129726491
 33
0.0
 14
6996.4581043734406
 24
885.25287441410364
 34
0.0
  0
DIMENSION
  5
87F9
  8
SP
  2
*D29
 10
7546.4581043734443
 20
785.25287441410615
 30
0.0
 11
7442.4581043734424
 21
810.25287441410615
 31
0.0
 70
     0
 13
7338.4581043734406
 23
906.69593129726491
 33
0.0
 14
7546.4581043734443
 24
885.25287441410637
 34
0.0
  0
DIMENSION
  5
87FA
  8
SP
  2
*D30
 10
7546.4581043734443
 20
715.25287441410615
 30
0.0
 11
7271.4581043734406
 21
740.25287441410615
 31
0.0
 70
     0
 13
6996.4581043734406
 23
858.42156300834802
 33
0.0
 14
7546.4581043734443
 24
885.25287441410637
 34
0.0
  0
TEXT
  5
88A7
  8
4
 10
6545.7913353127369
 20
2545.5387187150809
 30
0.0
 40
53.999999999999993
  1
天井吊防振ベッド型
  0
ENDSEC
  0
EOF
