  0
SECTION
  2
HEADER
  9
$ACADVER
  1
AC1009
  9
$INSBASE
 10
0.0
 20
0.0
 30
0.0
  9
$EXTMIN
 10
11013.60959423641
 20
96.092404061039474
 30
0.0
  9
$EXTMAX
 10
13113.60959423641
 20
3046.0924040610389
 30
0.0
  9
$LIMMIN
 10
0.0
 20
0.0
  9
$LIMMAX
 10
297.0
 20
210.0
  9
$ORTHOMODE
 70
     0
  9
$REGENMODE
 70
     1
  9
$FILLMODE
 70
     1
  9
$QTEXTMODE
 70
     0
  9
$MIRRTEXT
 70
     0
  9
$DRAGMODE
 70
     2
  9
$LTSCALE
 40
50.0
  9
$OSMODE
 70
   545
  9
$ATTMODE
 70
     1
  9
$TEXTSIZE
 40
3.5
  9
$TRACEWID
 40
0.05
  9
$TEXTSTYLE
  7
STANDARD
  9
$CLAYER
  8
SP
  9
$CELTYPE
  6
BYLAYER
  9
$CECOLOR
 62
   256
  9
$DIMSCALE
 40
10.0
  9
$DIMASZ
 40
2.5
  9
$DIMEXO
 40
1.0
  9
$DIMDLI
 40
7.0
  9
$DIMRND
 40
0.0
  9
$DIMDLE
 40
0.0
  9
$DIMEXE
 40
1.0
  9
$DIMTP
 40
0.0
  9
$DIMTM
 40
0.0
  9
$DIMTXT
 40
3.0
  9
$DIMCEN
 40
0.0
  9
$DIMTSZ
 40
0.0
  9
$DIMTOL
 70
     0
  9
$DIMLIM
 70
     0
  9
$DIMTIH
 70
     0
  9
$DIMTOH
 70
     0
  9
$DIMSE1
 70
     0
  9
$DIMSE2
 70
     0
  9
$DIMTAD
 70
     1
  9
$DIMZIN
 70
     8
  9
$DIMBLK
  1

  9
$DIMASO
 70
     1
  9
$DIMSHO
 70
     1
  9
$DIMPOST
  1

  9
$DIMAPOST
  1

  9
$DIMALT
 70
     0
  9
$DIMALTD
 70
     2
  9
$DIMALTF
 40
0.03937
  9
$DIMLFAC
 40
1.0
  9
$DIMTOFL
 70
     1
  9
$DIMTVP
 40
0.0
  9
$DIMTIX
 70
     0
  9
$DIMSOXD
 70
     0
  9
$DIMSAH
 70
     1
  9
$DIMBLK1
  1
OPEN
  9
$DIMBLK2
  1
OPEN
  9
$DIMSTYLE
  2
GOD
  9
$DIMCLRD
 70
   256
  9
$DIMCLRE
 70
   256
  9
$DIMCLRT
 70
   256
  9
$DIMTFAC
 40
1.0
  9
$DIMGAP
 40
1.0
  9
$LUNITS
 70
     2
  9
$LUPREC
 70
     3
  9
$SKETCHINC
 40
0.1
  9
$FILLETRAD
 40
0.0
  9
$AUNITS
 70
     0
  9
$AUPREC
 70
     2
  9
$MENU
  1
acad
  9
$ELEVATION
 40
0.0
  9
$PELEVATION
 40
0.0
  9
$THICKNESS
 40
0.0
  9
$LIMCHECK
 70
     0
  9
$BLIPMODE
 70
     0
  9
$CHAMFERA
 40
0.0
  9
$CHAMFERB
 40
0.0
  9
$SKPOLY
 70
     0
  9
$TDCREATE
 40
2454940.4140922911
  9
$TDUPDATE
 40
2455012.408810393
  9
$TDINDWG
 40
0.1023207523
  9
$TDUSRTIMER
 40
0.1023207523
  9
$USRTIMER
 70
     1
  9
$ANGBASE
 50
0.0
  9
$ANGDIR
 70
     0
  9
$PDMODE
 70
     0
  9
$PDSIZE
 40
1.0
  9
$PLINEWID
 40
0.0
  9
$COORDS
 70
     2
  9
$SPLFRAME
 70
     0
  9
$SPLINETYPE
 70
     6
  9
$SPLINESEGS
 70
     8
  9
$ATTDIA
 70
     0
  9
$ATTREQ
 70
     1
  9
$HANDLING
 70
 22529
  9
$HANDSEED
  5
9122
  9
$SURFTAB1
 70
     6
  9
$SURFTAB2
 70
     6
  9
$SURFTYPE
 70
     6
  9
$SURFU
 70
     6
  9
$SURFV
 70
     6
  9
$UCSNAME
  2

  9
$UCSORG
 10
0.0
 20
0.0
 30
0.0
  9
$UCSXDIR
 10
1.0
 20
0.0
 30
0.0
  9
$UCSYDIR
 10
0.0
 20
1.0
 30
0.0
  9
$PUCSNAME
  2

  9
$PUCSORG
 10
0.0
 20
0.0
 30
0.0
  9
$PUCSXDIR
 10
1.0
 20
0.0
 30
0.0
  9
$PUCSYDIR
 10
0.0
 20
1.0
 30
0.0
  9
$USERI1
 70
     0
  9
$USERI2
 70
     0
  9
$USERI3
 70
     0
  9
$USERI4
 70
     0
  9
$USERI5
 70
     0
  9
$USERR1
 40
0.0
  9
$USERR2
 40
0.0
  9
$USERR3
 40
0.0
  9
$USERR4
 40
0.0
  9
$USERR5
 40
0.0
  9
$WORLDVIEW
 70
     1
  9
$SHADEDGE
 70
     3
  9
$SHADEDIF
 70
    70
  9
$TILEMODE
 70
     1
  9
$MAXACTVP
 70
    16
  9
$PLIMCHECK
 70
     0
  9
$PEXTMIN
 10
1.0000000000000000E+020
 20
1.0000000000000000E+020
 30
1.0000000000000000E+020
  9
$PEXTMAX
 10
-1.0000000000000000E+020
 20
-1.0000000000000000E+020
 30
-1.0000000000000000E+020
  9
$PLIMMIN
 10
0.0
 20
0.0
  9
$PLIMMAX
 10
12.0
 20
9.0
  9
$UNITMODE
 70
     0
  9
$VISRETAIN
 70
     0
  9
$PLINEGEN
 70
     0
  9
$PSLTSCALE
 70
     0
  0
ENDSEC
  0
SECTION
  2
TABLES
  0
TABLE
  2
VPORT
 70
     2
  0
VPORT
  2
*ACTIVE
 70
     0
 10
0.0
 20
0.0
 11
1.0
 21
1.0
 12
12063.49636289109
 22
1571.036480284474
 13
0.0
 23
0.0
 14
5.0
 24
5.0
 15
0.0
 25
0.0
 16
0.0
 26
0.0
 36
1.0
 17
0.0
 27
0.0
 37
0.0
 40
2974.381843977641
 41
1.6307901907356941
 42
50.0
 43
0.0
 44
0.0
 50
0.0
 51
0.0
 71
     0
 72
   100
 73
     1
 74
     0
 75
     0
 76
     0
 77
     0
 78
     0
  0
ENDTAB
  0
TABLE
  2
LTYPE
 70
     4
  0
LTYPE
  2
CONTINUOUS
 70
     0
  3
Solid line
 72
    65
 73
     0
 40
0.0
  0
LTYPE
  2
CENTER
 70
     0
  3
____ _ ____ _ ____ _ ____ _ ____ _ ____ _ ____ 
 72
    65
 73
     4
 40
2.0
 49
1.25
 49
-0.25
 49
0.25
 49
-0.25
  0
LTYPE
  2
HIDDEN
 70
     0
  3
__ __ __ __ __ __ __ __ __ __ __ __ __ __ __ __
 72
    65
 73
     2
 40
0.375
 49
0.25
 49
-0.125
  0
LTYPE
  2
PHANTOM
 70
     0
  3
______  __  __  ______  __  __  ______  __  __ 
 72
    65
 73
     6
 40
2.5
 49
1.25
 49
-0.25
 49
0.25
 49
-0.25
 49
0.25
 49
-0.25
  0
ENDTAB
  0
TABLE
  2
LAYER
 70
    13
  0
LAYER
  2
0
 70
     0
 62
     7
  6
CONTINUOUS
  0
LAYER
  2
CT
 70
     0
 62
     3
  6
CENTER
  0
LAYER
  2
FUTO
 70
     0
 62
     4
  6
CONTINUOUS
  0
LAYER
  2
HOSO
 70
     0
 62
     7
  6
CONTINUOUS
  0
LAYER
  2
KL
 70
     0
 62
     7
  6
HIDDEN
  0
LAYER
  2
MOJI
 70
     0
 62
     3
  6
CONTINUOUS
  0
LAYER
  2
SL
 70
     0
 62
     1
  6
PHANTOM
  0
LAYER
  2
SP
 70
     0
 62
     2
  6
CONTINUOUS
  0
LAYER
  2
DEFPOINTS
 70
     0
 62
     7
  6
CONTINUOUS
  0
LAYER
  2
3
 70
     0
 62
     2
  6
CONTINUOUS
  0
LAYER
  2
2
 70
     0
 62
     3
  6
CENTER
  0
LAYER
  2
1
 70
     0
 62
     4
  6
CONTINUOUS
  0
LAYER
  2
4
 70
     0
 62
     7
  6
CONTINUOUS
  0
ENDTAB
  0
TABLE
  2
STYLE
 70
     2
  0
STYLE
  2
STANDARD
 70
     0
 40
0.0
 41
1.0
 50
15.0
 71
     0
 42
3.5
  3
C:\Program Files\AutoCAD LT\simplex.shx
  4
C:\Program Files\AutoCAD LT\extfont.shx
  0
STYLE
  2
SUNPOU
 70
     0
 40
0.0
 41
1.0
 50
15.0
 71
     0
 42
30.0
  3
simplex.shx
  4
extfont.shx
  0
ENDTAB
  0
TABLE
  2
VIEW
 70
     0
  0
ENDTAB
  0
TABLE
  2
UCS
 70
     0
  0
ENDTAB
  0
TABLE
  2
APPID
 70
     1
  0
APPID
  2
ACAD
 70
     0
  0
ENDTAB
  0
TABLE
  2
DIMSTYLE
 70
     4
  0
DIMSTYLE
  2
STANDARD
 70
     0
  3

  4

  5

  6

  7

 40
1.0
 41
0.18
 42
0.0625
 43
0.38
 44
0.18
 45
0.0
 46
0.0
 47
0.0
 48
0.0
140
0.18
141
0.09
142
0.0
143
25.399999999999999
144
1.0
145
0.0
146
1.0
147
0.09
 71
     0
 72
     0
 73
     1
 74
     1
 75
     0
 76
     0
 77
     0
 78
     0
170
     0
171
     2
172
     0
173
     0
174
     0
175
     0
176
     0
177
     0
178
     0
  0
DIMSTYLE
  2
GOD
 70
     0
  3

  4

  5

  6
OPEN
  7
OPEN
 40
10.0
 41
2.5
 42
1.0
 43
7.0
 44
1.0
 45
0.0
 46
0.0
 47
0.0
 48
0.0
140
3.0
141
0.0
142
0.0
143
0.03937
144
1.0
145
0.0
146
1.0
147
1.0
 71
     0
 72
     0
 73
     0
 74
     0
 75
     0
 76
     0
 77
     1
 78
     8
170
     0
171
     2
172
     1
173
     1
174
     0
175
     0
176
   256
177
   256
178
   256
  0
DIMSTYLE
  2
IGA
 70
     0
  3

  4

  5

  6
OPEN
  7
OPEN
 40
2.0
 41
2.0
 42
0.5
 43
10.0
 44
1.0
 45
0.0
 46
0.0
 47
1.0
 48
1.0
140
3.0
141
0.0
142
0.0
143
0.03937
144
1.0
145
0.0
146
10.0
147
1.0
 71
     0
 72
     0
 73
     0
 74
     0
 75
     0
 76
     0
 77
     1
 78
     8
170
     0
171
     2
172
     0
173
     1
174
     0
175
     0
176
     0
177
     0
178
     0
  0
DIMSTYLE
  2
MATSU
 70
     0
  3

  4

  5

  6
OPEN
  7
OPEN
 40
1.0
 41
2.0
 42
1.0
 43
10.0
 44
1.0
 45
0.0
 46
0.0
 47
0.0
 48
0.0
140
3.0
141
0.0
142
0.0
143
0.03937
144
1.0
145
0.0
146
1.0
147
0.5
 71
     0
 72
     0
 73
     0
 74
     0
 75
     0
 76
     0
 77
     1
 78
     8
170
     0
171
     2
172
     1
173
     1
174
     0
175
     0
176
   256
177
   256
178
   256
  0
ENDTAB
  0
ENDSEC
  0
SECTION
  2
BLOCKS
  0
BLOCK
  8
0
  2
$MODEL_SPACE
 70
     0
 10
0.0
 20
0.0
 30
0.0
  3
$MODEL_SPACE
  1

  0
ENDBLK
  5
1B
  8
0
  0
BLOCK
 67
     1
  8
0
  2
$PAPER_SPACE
 70
     0
 10
0.0
 20
0.0
 30
0.0
  3
$PAPER_SPACE
  1

  0
ENDBLK
  5
18
 67
     1
  8
0
  0
BLOCK
  8
0
  2
_OPEN
 70
     0
 10
0.0
 20
0.0
 30
0.0
  3
_OPEN
  1

  0
LINE
  5
1E81
  8
0
  6
BYBLOCK
 62
     0
 10
-1.0
 20
0.1666666666666666
 30
0.0
 11
0.0
 21
0.0
 31
0.0
  0
LINE
  5
1E82
  8
0
  6
BYBLOCK
 62
     0
 10
0.0
 20
0.0
 30
0.0
 11
-1.0
 21
-0.1666666666666666
 31
0.0
  0
LINE
  5
1E83
  8
0
  6
BYBLOCK
 62
     0
 10
0.0
 20
0.0
 30
0.0
 11
-1.0
 21
0.0
 31
0.0
  0
ENDBLK
  5
1E84
  8
0
  0
BLOCK
  8
0
  2
_DOT
 70
     0
 10
0.0
 20
0.0
 30
0.0
  3
_DOT
  1

  0
LINE
  5
1EC3
  8
0
  6
BYBLOCK
 62
     0
 10
0.0
 20
0.0
 30
0.0
 11
-1.0
 21
-0.0000000000000284
 31
0.0
  0
POLYLINE
  5
1EC4
  8
0
  6
BYBLOCK
 62
     0
 66
     1
 10
0.0
 20
0.0
 30
0.0
 70
     1
 40
0.1666666666666666
 41
0.1666666666666666
  0
VERTEX
  5
911F
  8
0
  6
BYBLOCK
 62
     0
 10
-0.0833333333333286
 20
-0.0000000000000284
 30
0.0
 42
1.0
  0
VERTEX
  5
9120
  8
0
  6
BYBLOCK
 62
     0
 10
0.0833333333333286
 20
-0.0000000000000284
 30
0.0
 42
1.0
  0
SEQEND
  5
9121
  8
0
  6
BYBLOCK
 62
     0
  0
ENDBLK
  5
1EB8
  8
0
  0
BLOCK
  8
0
  2
*D2
 70
     1
 10
0.0
 20
0.0
 30
0.0
  3
*D2
  1

  0
LINE
  5
5685
  8
SP
 10
-1699.9142715201349
 20
823.03013774616693
 30
0.0
 11
-1699.9142715201349
 21
683.03013774616704
 31
0.0
  0
LINE
  5
5686
  8
SP
 10
-2079.914271520136
 20
823.03013774616522
 30
0.0
 11
-2079.914271520136
 21
683.03013774616704
 31
0.0
  0
LINE
  5
5687
  8
SP
 10
-1724.9142715201349
 20
693.03013774616704
 30
0.0
 11
-2054.914271520136
 21
693.03013774616704
 31
0.0
  0
INSERT
  5
5688
  8
SP
  2
_OPEN
 10
-1699.9142715201349
 20
693.03013774616704
 30
0.0
 41
25.0
 42
25.0
 43
25.0
  0
INSERT
  5
5689
  8
SP
  2
_OPEN
 10
-2079.914271520136
 20
693.03013774616704
 30
0.0
 41
25.0
 42
25.0
 43
25.0
 50
180.0
  0
TEXT
  5
568A
  8
SP
 10
-1931.790652263745
 20
703.03013774616704
 30
0.0
 40
30.0
  1
380
 51
15.0
  0
POINT
  5
568B
  8
DEFPOINTS
 62
     0
 10
-1699.9142715201349
 20
833.03013774616716
 30
0.0
  0
POINT
  5
568C
  8
DEFPOINTS
 62
     0
 10
-2079.914271520136
 20
833.03013774616511
 30
0.0
  0
POINT
  5
568D
  8
DEFPOINTS
 62
     0
 10
-2079.914271520136
 20
693.03013774616704
 30
0.0
  0
ENDBLK
  5
568F
  8
0
  0
BLOCK
  8
0
  2
*D3
 70
     1
 10
0.0
 20
0.0
 30
0.0
  3
*D3
  1

  0
LINE
  5
5691
  8
SP
 10
-2079.914271520136
 20
823.03013774616522
 30
0.0
 11
-2079.914271520136
 21
753.03013774616522
 31
0.0
  0
LINE
  5
5692
  8
SP
 10
-1889.9142715201349
 20
797.34538072303258
 30
0.0
 11
-1889.9142715201349
 21
753.03013774616522
 31
0.0
  0
LINE
  5
5693
  8
SP
 10
-2054.914271520136
 20
763.03013774616522
 30
0.0
 11
-1914.9142715201349
 21
763.03013774616522
 31
0.0
  0
INSERT
  5
5694
  8
SP
  2
_OPEN
 10
-2079.914271520136
 20
763.03013774616522
 30
0.0
 41
25.0
 42
25.0
 43
25.0
 50
180.0
  0
INSERT
  5
5695
  8
SP
  2
_OPEN
 10
-1889.9142715201349
 20
763.03013774616522
 30
0.0
 41
25.0
 42
25.0
 43
25.0
  0
TEXT
  5
5696
  8
SP
 10
-2026.421609050605
 20
773.03013774616522
 30
0.0
 40
30.0
  1
190
 51
15.0
  0
POINT
  5
5697
  8
DEFPOINTS
 62
     0
 10
-2079.914271520136
 20
833.03013774616511
 30
0.0
  0
POINT
  5
5698
  8
DEFPOINTS
 62
     0
 10
-1889.9142715201349
 20
807.34538072303246
 30
0.0
  0
POINT
  5
5699
  8
DEFPOINTS
 62
     0
 10
-1889.9142715201349
 20
763.03013774616522
 30
0.0
  0
ENDBLK
  5
569B
  8
0
  0
BLOCK
  8
0
  2
*D4
 70
     1
 10
0.0
 20
0.0
 30
0.0
  3
*D4
  1

  0
LINE
  5
569D
  8
SP
 10
-1889.9142715201349
 20
797.34538072303258
 30
0.0
 11
-1889.9142715201349
 21
753.03013774616704
 31
0.0
  0
LINE
  5
569E
  8
SP
 10
-1699.9142715201349
 20
823.03013774616693
 30
0.0
 11
-1699.9142715201349
 21
753.03013774616704
 31
0.0
  0
LINE
  5
569F
  8
SP
 10
-1864.9142715201349
 20
763.03013774616704
 30
0.0
 11
-1724.9142715201349
 21
763.03013774616704
 31
0.0
  0
INSERT
  5
56A0
  8
SP
  2
_OPEN
 10
-1889.9142715201349
 20
763.03013774616704
 30
0.0
 41
25.0
 42
25.0
 43
25.0
 50
180.0
  0
INSERT
  5
56A1
  8
SP
  2
_OPEN
 10
-1699.9142715201349
 20
763.03013774616704
 30
0.0
 41
25.0
 42
25.0
 43
25.0
  0
TEXT
  5
56A2
  8
SP
 10
-1836.4216090506061
 20
773.03013774616704
 30
0.0
 40
30.0
  1
190
 51
15.0
  0
POINT
  5
56A3
  8
DEFPOINTS
 62
     0
 10
-1889.9142715201349
 20
807.34538072303246
 30
0.0
  0
POINT
  5
56A4
  8
DEFPOINTS
 62
     0
 10
-1699.9142715201349
 20
833.03013774616716
 30
0.0
  0
POINT
  5
56A5
  8
DEFPOINTS
 62
     0
 10
-1699.9142715201349
 20
763.03013774616704
 30
0.0
  0
ENDBLK
  5
56A7
  8
0
  0
BLOCK
  8
0
  2
*D5
 70
     1
 10
0.0
 20
0.0
 30
0.0
  3
*D5
  1

  0
LINE
  5
56A9
  8
SP
 10
-2139.9142715201351
 20
1298.030137746166
 30
0.0
 11
-2139.9142715201351
 21
1368.030137746166
 31
0.0
  0
LINE
  5
56AA
  8
SP
 10
-1889.9142715201349
 20
1307.8065568904919
 30
0.0
 11
-1889.9142715201349
 21
1368.030137746166
 31
0.0
  0
LINE
  5
56AB
  8
SP
 10
-2114.9142715201351
 20
1358.030137746166
 30
0.0
 11
-1914.9142715201349
 21
1358.030137746166
 31
0.0
  0
INSERT
  5
56AC
  8
SP
  2
_OPEN
 10
-2139.9142715201351
 20
1358.030137746166
 30
0.0
 41
25.0
 42
25.0
 43
25.0
 50
180.0
  0
INSERT
  5
56AD
  8
SP
  2
_OPEN
 10
-1889.9142715201349
 20
1358.030137746166
 30
0.0
 41
25.0
 42
25.0
 43
25.0
  0
TEXT
  5
56AE
  8
SP
 10
-2056.0250831425128
 20
1368.030137746166
 30
0.0
 40
30.0
  1
250
 51
15.0
  0
POINT
  5
56AF
  8
DEFPOINTS
 62
     0
 10
-2139.9142715201351
 20
1288.030137746166
 30
0.0
  0
POINT
  5
56B0
  8
DEFPOINTS
 62
     0
 10
-1889.9142715201349
 20
1297.8065568904919
 30
0.0
  0
POINT
  5
56B1
  8
DEFPOINTS
 62
     0
 10
-1889.9142715201349
 20
1358.030137746166
 30
0.0
  0
ENDBLK
  5
56B3
  8
0
  0
BLOCK
  8
0
  2
*D6
 70
     1
 10
0.0
 20
0.0
 30
0.0
  3
*D6
  1

  0
LINE
  5
56B5
  8
SP
 10
-1889.9142715201349
 20
1307.8065568904919
 30
0.0
 11
-1889.9142715201349
 21
1368.030137746166
 31
0.0
  0
LINE
  5
56B6
  8
SP
 10
-1713.9142715201349
 20
1081.0301377461669
 30
0.0
 11
-1713.9142715201349
 21
1368.030137746166
 31
0.0
  0
LINE
  5
56B7
  8
SP
 10
-1864.9142715201349
 20
1358.030137746166
 30
0.0
 11
-1738.9142715201349
 21
1358.030137746166
 31
0.0
  0
INSERT
  5
56B8
  8
SP
  2
_OPEN
 10
-1889.9142715201349
 20
1358.030137746166
 30
0.0
 41
25.0
 42
25.0
 43
25.0
 50
180.0
  0
INSERT
  5
56B9
  8
SP
  2
_OPEN
 10
-1713.9142715201349
 20
1358.030137746166
 30
0.0
 41
25.0
 42
25.0
 43
25.0
  0
TEXT
  5
56BA
  8
SP
 10
-1842.8987156166279
 20
1368.030137746166
 30
0.0
 40
30.0
  1
176
 51
15.0
  0
POINT
  5
56BB
  8
DEFPOINTS
 62
     0
 10
-1889.9142715201349
 20
1297.8065568904919
 30
0.0
  0
POINT
  5
56BC
  8
DEFPOINTS
 62
     0
 10
-1713.9142715201349
 20
1071.0301377461669
 30
0.0
  0
POINT
  5
56BD
  8
DEFPOINTS
 62
     0
 10
-1713.9142715201349
 20
1358.030137746166
 30
0.0
  0
ENDBLK
  5
56BF
  8
0
  0
BLOCK
  8
0
  2
*D7
 70
     1
 10
0.0
 20
0.0
 30
0.0
  3
*D7
  1

  0
LINE
  5
56C1
  8
SP
 10
-2184.1007564974338
 20
1088.030137746166
 30
0.0
 11
-2249.3805561714089
 21
1088.030137746166
 31
0.0
  0
LINE
  5
56C2
  8
SP
 10
-2170.9142715201351
 20
1288.0301377461669
 30
0.0
 11
-2249.3805561714089
 21
1288.0301377461669
 31
0.0
  0
LINE
  5
56C3
  8
SP
 10
-2239.3805561714089
 20
1113.0301377461669
 30
0.0
 11
-2239.3805561714089
 21
1263.0301377461669
 31
0.0
  0
INSERT
  5
56C4
  8
SP
  2
_OPEN
 10
-2239.3805561714089
 20
1088.030137746166
 30
0.0
 41
25.0
 42
25.0
 43
25.0
 50
270.0
  0
INSERT
  5
56C5
  8
SP
  2
_OPEN
 10
-2239.3805561714089
 20
1288.0301377461669
 30
0.0
 41
25.0
 42
25.0
 43
25.0
 50
90.0
  0
TEXT
  5
56C6
  8
SP
 10
-2249.3805561714089
 20
1146.9193261237881
 30
0.0
 40
30.0
  1
200
 50
90.0
 51
15.0
  0
POINT
  5
56C7
  8
DEFPOINTS
 62
     0
 10
-2174.1007564974352
 20
1088.030137746166
 30
0.0
  0
POINT
  5
56C8
  8
DEFPOINTS
 62
     0
 10
-2160.9142715201351
 20
1288.0301377461669
 30
0.0
  0
POINT
  5
56C9
  8
DEFPOINTS
 62
     0
 10
-2239.3805561714089
 20
1288.0301377461669
 30
0.0
  0
ENDBLK
  5
56CB
  8
0
  0
BLOCK
  8
0
  2
*D8
 70
     1
 10
0.0
 20
0.0
 30
0.0
  3
*D8
  1

  0
LINE
  5
56CD
  8
SP
 10
-2184.1007564974338
 20
1088.030137746166
 30
0.0
 11
-2249.3805561714089
 21
1088.030137746166
 31
0.0
  0
LINE
  5
56CE
  8
SP
 10
-2089.914271520136
 20
833.03013774616511
 30
0.0
 11
-2249.3805561714089
 21
833.03013774616511
 31
0.0
  0
LINE
  5
56CF
  8
SP
 10
-2239.3805561714089
 20
1063.0301377461669
 30
0.0
 11
-2239.3805561714089
 21
858.03013774616511
 31
0.0
  0
INSERT
  5
56D0
  8
SP
  2
_OPEN
 10
-2239.3805561714089
 20
1088.030137746166
 30
0.0
 41
25.0
 42
25.0
 43
25.0
 50
90.0
  0
INSERT
  5
56D1
  8
SP
  2
_OPEN
 10
-2239.3805561714089
 20
833.03013774616511
 30
0.0
 41
25.0
 42
25.0
 43
25.0
 50
270.0
  0
TEXT
  5
56D2
  8
SP
 10
-2249.3805561714089
 20
919.36804271684161
 30
0.0
 40
30.0
  1
255
 50
90.0
 51
15.0
  0
POINT
  5
56D3
  8
DEFPOINTS
 62
     0
 10
-2174.1007564974352
 20
1088.030137746166
 30
0.0
  0
POINT
  5
56D4
  8
DEFPOINTS
 62
     0
 10
-2079.914271520136
 20
833.03013774616511
 30
0.0
  0
POINT
  5
56D5
  8
DEFPOINTS
 62
     0
 10
-2239.3805561714089
 20
833.03013774616511
 30
0.0
  0
ENDBLK
  5
56D7
  8
0
  0
BLOCK
  8
0
  2
A$C44EA23BE
 70
     0
 10
0.0
 20
0.0
 30
0.0
  3
A$C44EA23BE
  1

  0
DIMENSION
  5
56D9
  8
SP
  2
*D8
 10
-349.46628465127378
 20
-255.00000000000171
 30
0.0
 11
-374.46628465127378
 21
-127.50000000000119
 31
0.0
 12
1889.9142715201349
 22
-1088.030137746166
 32
0.0
  3
GOD
 13
-284.18648497729919
 23
0.0
 33
0.0
 14
-190.00000000000091
 24
-255.00000000000171
 34
0.0
 50
90.0
  0
ARC
  5
56DA
  8
FUTO
 10
-17.0
 20
-17.0
 30
0.0
 40
203.0
 50
269.572081032222
 51
0.4673217049947748
  0
ARC
  5
56DB
  8
FUTO
 10
-20.0
 20
20.0
 30
0.0
 40
240.0
 50
180.0
 51
270.39182689926031
  0
ARC
  5
56DC
  8
FUTO
 10
-17.0
 20
-17.0
 30
0.0
 40
193.0
 50
269.572081032222
 51
0.4673217049947748
  0
ARC
  5
56DD
  8
FUTO
 10
-20.0
 20
20.0
 30
0.0
 40
230.0
 50
180.0
 51
270.39182689926031
  0
LINE
  5
56DE
  8
2
 10
0.0
 20
-280.6847570231343
 30
0.0
 11
0.0
 21
209.77641914432559
 31
0.0
  0
LINE
  5
56DF
  8
1
 10
157.69999999999891
 20
66.099999999998545
 30
0.0
 11
157.69999999999891
 21
-255.00000000000179
 31
0.0
  0
LINE
  5
56E0
  8
1
 10
160.0
 20
66.099999999998545
 30
0.0
 11
160.0
 21
-252.7000000000007
 31
0.0
  0
LINE
  5
56E1
  8
1
 10
-157.69999999999979
 20
66.099999999998545
 30
0.0
 11
-157.69999999999979
 21
-255.00000000000179
 31
0.0
  0
LINE
  5
56E2
  8
1
 10
-160.0
 20
66.099999999998545
 30
0.0
 11
-159.99999999999901
 21
-252.69999999999891
 31
0.0
  0
ARC
  5
56E3
  8
1
 10
0.0
 20
0.0
 30
0.0
 40
85.0
 50
0.0
 51
244.12446600000609
  0
CIRCLE
  5
56E4
  8
2
 10
0.0
 20
0.0
 30
0.0
 40
136.0
  0
ARC
  5
56E5
  8
1
 10
0.0
 20
0.0
 30
0.0
 40
85.000007999999994
 50
295.91772599999888
 51
0.0
  0
DIMENSION
  5
56E6
  8
SP
  2
*D2
 10
-190.00000000000091
 20
-394.99999999999977
 30
0.0
 11
-0.0000000000004547
 21
-369.99999999999977
 31
0.0
 12
1889.9142715201349
 22
-1088.030137746166
 32
0.0
  3
GOD
 13
190.0
 23
-254.9999999999998
 33
0.0
 14
-190.00000000000091
 24
-255.00000000000171
 34
0.0
  0
DIMENSION
  5
56E7
  8
SP
  2
*D4
 10
190.0
 20
-324.99999999999989
 30
0.0
 11
95.0
 21
-299.99999999999989
 31
0.0
 12
1889.9142715201349
 22
-1088.030137746166
 32
0.0
  3
GOD
 13
0.0
 23
-280.6847570231343
 33
0.0
 14
190.0
 24
-254.9999999999998
 34
0.0
  0
DIMENSION
  5
56E8
  8
SP
  2
*D3
 10
0.0
 20
-325.00000000000171
 30
0.0
 11
-95.000000000000455
 21
-300.00000000000171
 31
0.0
 12
1889.9142715201349
 22
-1088.030137746166
 32
0.0
  3
GOD
 13
-190.00000000000091
 23
-255.00000000000171
 33
0.0
 14
0.0
 24
-280.6847570231343
 34
0.0
  0
LINE
  5
56E9
  8
FUTO
 10
-132.69999999999979
 20
-105.0
 30
0.0
 11
-157.69999999999891
 21
-80.0
 31
0.0
  0
LINE
  5
56EA
  8
1
 10
-157.69999999999891
 20
-203.9999999999998
 30
0.0
 11
-132.7000000000007
 21
-203.9999999999998
 31
0.0
  0
LINE
  5
56EB
  8
1
 10
-190.00000000000091
 20
-255.00000000000179
 30
0.0
 11
190.0
 21
-255.0
 31
0.0
  0
LINE
  5
56EC
  8
1
 10
-157.69999999999891
 20
-80.0
 30
0.0
 11
157.69999999999891
 21
-80.0
 31
0.0
  0
LINE
  5
56ED
  8
2
 10
-176.99999999999901
 20
-268.98279906584588
 30
0.0
 11
-176.99999999999901
 21
-242.69999999999879
 31
0.0
  0
LINE
  5
56EE
  8
1
 10
-190.00000000000091
 20
-255.00000000000179
 30
0.0
 11
-190.00000000000179
 21
-252.7000000000007
 31
0.0
  0
LINE
  5
56EF
  8
1
 10
-190.00000000000091
 20
-252.7000000000007
 30
0.0
 11
-159.99999999999901
 21
-252.69999999999891
 31
0.0
  0
LINE
  5
56F0
  8
1
 10
132.699999999997
 20
-105.0
 30
0.0
 11
132.699999999997
 21
-203.9999999999998
 31
0.0
  0
LINE
  5
56F1
  8
1
 10
-132.69999999999979
 20
-105.0
 30
0.0
 11
-132.69999999999979
 21
-203.9999999999998
 31
0.0
  0
LINE
  5
56F2
  8
1
 10
132.699999999997
 20
-203.9999999999998
 30
0.0
 11
157.69999999999891
 21
-203.9999999999998
 31
0.0
  0
LINE
  5
56F3
  8
1
 10
190.0
 20
-255.0
 30
0.0
 11
190.0
 21
-252.69999999999891
 31
0.0
  0
LINE
  5
56F4
  8
2
 10
176.9999999999981
 20
-267.91032669659847
 30
0.0
 11
177.0
 21
-242.7000000000007
 31
0.0
  0
LINE
  5
56F5
  8
1
 10
160.0
 20
-252.69999999999891
 30
0.0
 11
190.0
 21
-252.7000000000007
 31
0.0
  0
LINE
  5
56F6
  8
FUTO
 10
132.69999999999979
 20
-105.0
 30
0.0
 11
157.69999999999891
 21
-80.0
 31
0.0
  0
LINE
  5
56F7
  8
1
 10
-132.69999999999979
 20
-105.0
 30
0.0
 11
132.69999999999891
 21
-105.0
 31
0.0
  0
LINE
  5
56F8
  8
CT
 10
-57.086121054688192
 20
-137.8180876735004
 30
0.0
 11
-46.574035520656253
 21
-112.43966820841879
 31
0.0
  0
CIRCLE
  5
56F9
  8
1
 10
-52.044946801652252
 20
-125.64761642153459
 30
0.0
 40
4.0
  0
LINE
  5
56FA
  8
CT
 10
57.086121054688192
 20
-137.8180876735004
 30
0.0
 11
46.574035520658072
 21
-112.43966820841879
 31
0.0
  0
CIRCLE
  5
56FB
  8
1
 10
52.044946801652252
 20
-125.64761642153459
 30
0.0
 40
4.0
  0
LINE
  5
56FC
  8
1
 10
-37.095498999999108
 20
-76.450928000000204
 30
0.0
 11
37.151808999999041
 21
-76.450928000000204
 31
0.0
  0
LINE
  5
56FD
  8
1
 10
-82.5
 20
-78.34088200000042
 30
0.0
 11
82.500029999999242
 21
-78.34088200000042
 31
0.0
  0
LINE
  5
56FE
  8
CT
 10
-62.5
 20
-82.218586000000869
 30
0.0
 11
-62.5
 21
-73.631579000000784
 31
0.0
  0
LINE
  5
56FF
  8
CT
 10
-137.8180876735004
 20
-57.086121054690011
 30
0.0
 11
-112.439668208417
 21
-46.574035520658072
 31
0.0
  0
ARC
  5
5700
  8
1
 10
-52.365203999999721
 20
-70.5
 30
0.0
 40
5.0
 50
270.0
 51
324.46176099999479
  0
LINE
  5
5701
  8
1
 10
-46.623938000000628
 20
-71.064478000000236
 30
0.0
 11
-48.296539999999368
 21
-73.40625
 31
0.0
  0
LINE
  5
5702
  8
1
 10
-77.833160999999564
 20
-75.505370999999286
 30
0.0
 11
-62.323167999999889
 21
-57.818504000000758
 31
0.0
  0
LINE
  5
5703
  8
1
 10
-82.5
 20
-75.5
 30
0.0
 11
-52.36517399999866
 21
-75.5
 31
0.0
  0
CIRCLE
  5
5704
  8
1
 10
-125.64761642153459
 20
-52.044946801652252
 30
0.0
 40
4.0
  0
ARC
  5
5705
  8
1
 10
0.0
 20
0.0
 30
0.0
 40
85.0
 50
236.73178133170779
 51
244.12446600000609
  0
LINE
  5
5706
  8
1
 10
-42.5
 20
-78.34088200000042
 30
0.0
 11
-42.5
 21
-80.0
 31
0.0
  0
LINE
  5
5707
  8
1
 10
-77.5
 20
-78.34088200000042
 30
0.0
 11
-77.5
 21
-80.0
 31
0.0
  0
LINE
  5
5708
  8
1
 10
-82.5
 20
-78.34088200000042
 30
0.0
 11
-82.5
 21
-75.5
 31
0.0
  0
LINE
  5
5709
  8
CT
 10
137.8180876735004
 20
-57.086121054688192
 30
0.0
 11
112.439668208417
 21
-46.574035520658072
 31
0.0
  0
LINE
  5
570A
  8
CT
 10
62.5
 20
-82.218586000000869
 30
0.0
 11
62.5
 21
-73.631579000000784
 31
0.0
  0
LINE
  5
570B
  8
1
 10
82.500029999999242
 20
-75.5
 30
0.0
 11
52.365203999999721
 21
-75.5
 31
0.0
  0
LINE
  5
570C
  8
1
 10
77.834367999999813
 20
-75.506824000000051
 30
0.0
 11
62.32130799999868
 21
-57.816361999999572
 31
0.0
  0
LINE
  5
570D
  8
1
 10
47.508270000000259
 20
-72.302612999999837
 30
0.0
 11
48.296538999999029
 21
-73.40625
 31
0.0
  0
LINE
  5
570E
  8
1
 10
46.631551000000393
 20
-71.075138000000152
 30
0.0
 11
48.296538999999029
 21
-73.40625
 31
0.0
  0
ARC
  5
570F
  8
1
 10
52.365203999999721
 20
-70.5
 30
0.0
 40
5.000032
 50
215.53825399999309
 51
270.0
  0
LINE
  5
5710
  8
1
 10
77.5
 20
-78.34088200000042
 30
0.0
 11
77.5
 21
-80.0
 31
0.0
  0
LINE
  5
5711
  8
1
 10
42.5
 20
-78.34088200000042
 30
0.0
 11
42.5
 21
-80.0
 31
0.0
  0
LINE
  5
5712
  8
1
 10
82.500029999999242
 20
-75.5
 30
0.0
 11
82.500029999999242
 21
-78.34088200000042
 31
0.0
  0
CIRCLE
  5
5713
  8
1
 10
125.64761642153459
 20
-52.044946801652252
 30
0.0
 40
4.0
  0
DIMENSION
  5
5714
  8
SP
  2
*D7
 10
-349.46628465127333
 20
200.0
 30
0.0
 11
-374.46628465127378
 21
99.999999999999787
 31
0.0
 12
1889.9142715201349
 22
-1088.030137746166
 32
0.0
  3
GOD
 13
-284.18648497729919
 23
0.0
 33
0.0
 14
-271.0
 24
200.0
 34
0.0
 50
90.0
  0
DIMENSION
  5
5715
  8
SP
  2
*D6
 10
176.0
 20
269.99999999999898
 30
0.0
 11
88.0
 21
294.99999999999898
 31
0.0
 12
1889.9142715201349
 22
-1088.030137746166
 32
0.0
  3
GOD
 13
0.0
 23
209.77641914432559
 33
0.0
 14
176.0
 24
-17.0
 34
0.0
  0
LINE
  5
5716
  8
FUTO
 10
-250.99998456825821
 20
199.99444453017639
 30
0.0
 11
-249.99998456825821
 21
19.99444453017281
 31
0.0
  0
LINE
  5
5717
  8
FUTO
 10
-251.0
 20
200.0
 30
0.0
 11
-251.0
 21
180.0
 31
0.0
  0
LINE
  5
5718
  8
FUTO
 10
-252.0
 20
199.0
 30
0.0
 11
-252.0
 21
180.0
 31
0.0
  0
LINE
  5
5719
  8
FUTO
 10
-249.0
 20
198.0
 30
0.0
 11
-231.0
 21
180.0
 31
0.0
  0
LINE
  5
571A
  8
FUTO
 10
0.0
 20
180.0
 30
0.0
 11
0.0
 21
200.0
 31
0.0
  0
LINE
  5
571B
  8
FUTO
 10
1.0
 20
200.0
 30
0.0
 11
1.0
 21
180.0
 31
0.0
  0
LINE
  5
571C
  8
FUTO
 10
2.0
 20
199.0
 30
0.0
 11
2.0
 21
180.0
 31
0.0
  0
LINE
  5
571D
  8
FUTO
 10
-1.0
 20
198.0
 30
0.0
 11
-19.0
 21
180.0
 31
0.0
  0
LINE
  5
571E
  8
FUTO
 10
-231.0
 20
180.0
 30
0.0
 11
-19.0
 21
180.0
 31
0.0
  0
LINE
  5
571F
  8
1
 10
-60.0
 20
150.0
 30
0.0
 11
-158.39999999999961
 21
66.099999999998545
 31
0.0
  0
LINE
  5
5720
  8
2
 10
-284.18648497729919
 20
0.0
 30
0.0
 11
210.14761457335041
 21
-0.000000000001819
 31
0.0
  0
LINE
  5
5721
  8
FUTO
 10
-260.8890586406655
 20
180.0
 30
0.0
 11
-259.99983025084288
 21
19.938889831936191
 31
0.0
  0
LINE
  5
5722
  8
1
 10
-160.0
 20
66.099999999998545
 30
0.0
 11
-158.39999999999961
 21
66.099999999998545
 31
0.0
  0
LINE
  5
5723
  8
FUTO
 10
-260.8890586406655
 20
180.0
 30
0.0
 11
-250.88890432086819
 21
180.0
 31
0.0
  0
ARC
  5
5724
  8
FUTO
 10
14.0
 20
-14.0
 30
0.0
 40
172.0
 50
359.4896667551933
 51
78.450738176447032
  0
ARC
  5
5725
  8
FUTO
 10
14.0
 20
-14.0
 30
0.0
 40
162.0
 50
359.4896667551933
 51
78.450738176447032
  0
LINE
  5
5726
  8
1
 10
60.0
 20
150.0
 30
0.0
 11
158.39999999999961
 21
66.099999999998545
 31
0.0
  0
LINE
  5
5727
  8
CT
 10
-137.8180876735004
 20
57.086121054686373
 30
0.0
 11
-112.439668208417
 21
46.574035520658072
 31
0.0
  0
CIRCLE
  5
5728
  8
1
 10
-125.64761642153459
 20
52.044946801652252
 30
0.0
 40
4.0
  0
LINE
  5
5729
  8
CT
 10
137.8180876735004
 20
57.086121054686373
 30
0.0
 11
112.439668208417
 21
46.574035520658072
 31
0.0
  0
CIRCLE
  5
572A
  8
1
 10
125.64761642153459
 20
52.044946801652252
 30
0.0
 40
4.0
  0
LINE
  5
572B
  8
1
 10
158.39999999999961
 20
66.099999999998545
 30
0.0
 11
160.0
 21
66.099999999998545
 31
0.0
  0
LINE
  5
572C
  8
CT
 10
57.086121054688192
 20
137.81808767349861
 30
0.0
 11
46.574035520656253
 21
112.439668208417
 31
0.0
  0
LINE
  5
572D
  8
CT
 10
-57.086121054688192
 20
137.81808767349861
 30
0.0
 11
-46.574035520658072
 21
112.4396682084152
 31
0.0
  0
CIRCLE
  5
572E
  8
1
 10
-52.044946801652252
 20
125.64761642153459
 30
0.0
 40
4.0
  0
CIRCLE
  5
572F
  8
1
 10
52.044946801652252
 20
125.64761642153459
 30
0.0
 40
4.0
  0
ARC
  5
5730
  8
FUTO
 10
60.999999999996362
 20
216.0
 30
0.0
 40
72.753061747871584
 50
214.1996194554568
 51
258.45073817644709
  0
LINE
  5
5731
  8
FUTO
 10
0.0
 20
180.0
 30
0.0
 11
5.9318434102424362
 21
180.0
 31
0.0
  0
LINE
  5
5732
  8
1
 10
-60.0
 20
150.0
 30
0.0
 11
60.0
 21
150.0
 31
0.0
  0
LINE
  5
5733
  8
FUTO
 10
0.0
 20
180.0
 30
0.0
 11
1.0
 21
180.0
 31
0.0
  0
ARC
  5
5734
  8
FUTO
 10
59.528586099928361
 20
210.519969322142
 30
0.0
 40
57.203726762688042
 50
216.60350367361539
 51
261.67207569821369
  0
ARC
  5
5735
  8
FUTO
 10
5.9318434102424362
 20
170.0
 30
0.0
 40
10.0
 50
39.872968906140997
 51
90.0
  0
LINE
  5
5736
  8
FUTO
 10
-271.0
 20
200.0
 30
0.0
 11
21.0
 21
200.0
 31
0.0
  0
LINE
  5
5737
  8
FUTO
 10
-251.0
 20
199.0
 30
0.0
 11
1.0
 21
199.0
 31
0.0
  0
DIMENSION
  5
5738
  8
SP
  2
*D5
 10
0.0
 20
269.99999999999898
 30
0.0
 11
-125.0
 21
294.99999999999898
 31
0.0
 12
1889.9142715201349
 22
-1088.030137746166
 32
0.0
  3
GOD
 13
-250.0
 23
199.99999999999901
 33
0.0
 14
0.0
 24
209.77641914432559
 34
0.0
  0
LINE
  5
5739
  8
FUTO
 10
-271.0
 20
199.0
 30
0.0
 11
-252.0
 21
199.0
 31
0.0
  0
LINE
  5
573A
  8
FUTO
 10
-271.0
 20
200.0
 30
0.0
 11
-271.0
 21
199.0
 31
0.0
  0
LINE
  5
573B
  8
FUTO
 10
-251.0
 20
198.0
 30
0.0
 11
-249.0
 21
198.0
 31
0.0
  0
LINE
  5
573C
  8
FUTO
 10
2.0
 20
199.0
 30
0.0
 11
21.0
 21
199.0
 31
0.0
  0
LINE
  5
573D
  8
FUTO
 10
-1.0
 20
198.0
 30
0.0
 11
1.0
 21
198.0
 31
0.0
  0
LINE
  5
573E
  8
FUTO
 10
21.0
 20
200.0
 30
0.0
 11
21.0
 21
199.0
 31
0.0
  0
ENDBLK
  5
5740
  8
0
  0
BLOCK
  8
0
  2
A$C40AB6E05
 70
     0
 10
0.0
 20
0.0
 30
0.0
  3
A$C40AB6E05
  1

  0
LINE
  5
6751
  8
1
 10
-160.00000000000361
 20
-307.99999999999181
 30
0.0
 11
-160.00000000000591
 21
-99.000000000001606
 31
0.0
  0
LINE
  5
6752
  8
1
 10
-190.00000000000361
 20
-298.9999999999954
 30
0.0
 11
-190.00000000000591
 21
-99.000000000001364
 31
0.0
  0
LINE
  5
6753
  8
1
 10
-33.5
 20
-124.79999999999831
 30
0.0
 11
-33.5
 21
-133.79999999999831
 31
0.0
  0
LINE
  5
6754
  8
1
 10
-75.5
 20
-156.29999999999831
 30
0.0
 11
-75.5
 21
-135.79999999999831
 31
0.0
  0
ARC
  5
6755
  8
1
 10
-73.5
 20
-135.79999999999831
 30
0.0
 40
2.0
 50
90.0
 51
180.0
  0
LINE
  5
6756
  8
1
 10
-72.815002999999706
 20
-133.79999999999831
 30
0.0
 11
-64.184998000000633
 21
-133.79999999999831
 31
0.0
  0
LINE
  5
6757
  8
1
 10
-64.065796000000773
 20
-133.79999999999831
 30
0.0
 11
-73.065796000000773
 21
-133.79999999999831
 31
0.0
  0
LINE
  5
6758
  8
1
 10
-160.0000000000054
 20
-132.9999999999915
 30
0.0
 11
-33.5
 21
-132.99999999999361
 31
0.0
  0
CIRCLE
  5
6759
  8
FUTO
 10
-177.000000000005
 20
-119.00000000000109
 30
0.0
 40
6.0
  0
LINE
  5
675A
  8
CT
 10
-164.8129139847405
 20
-119.00000000000109
 30
0.0
 11
-189.18708601526981
 21
-119.00000000000109
 31
0.0
  0
LINE
  5
675B
  8
CT
 10
-177.000000000005
 20
-131.18708601526569
 30
0.0
 11
-177.000000000005
 21
-106.8129139847364
 31
0.0
  0
ARC
  5
675C
  8
1
 10
-143.99999999999631
 20
-95.999999999999091
 30
0.0
 40
3.0
 50
180.0
 51
270.0
  0
LINE
  5
675D
  8
1
 10
-146.99999999999631
 20
-93.999999999999091
 30
0.0
 11
-146.99999999999631
 21
-95.999999999999091
 31
0.0
  0
LINE
  5
675E
  8
1
 10
-146.99999999999631
 20
-93.999999999999091
 30
0.0
 11
-146.99999999999631
 21
-95.999999999999091
 31
0.0
  0
ARC
  5
675F
  8
1
 10
-149.99999999999631
 20
-93.999999999999091
 30
0.0
 40
3.0
 50
0.0
 51
90.0
  0
LINE
  5
6760
  8
1
 10
-22.5
 20
-110.9999999999972
 30
0.0
 11
-22.5
 21
-113.8000000000001
 31
0.0
  0
ARC
  5
6761
  8
1
 10
-32.5
 20
-124.79999999999831
 30
0.0
 40
1.0
 50
90.0
 51
180.0
  0
LINE
  5
6762
  8
FUTO
 10
190.00000000000179
 20
-99.000000000001137
 30
0.0
 11
-189.9999999999981
 21
-99.000000000001137
 31
0.0
  0
ARC
  5
6763
  8
1
 10
150.0
 20
-93.999999999999091
 30
0.0
 40
3.0
 50
90.0
 51
180.0
  0
LINE
  5
6764
  8
1
 10
147.0
 20
-93.999999999999091
 30
0.0
 11
147.0
 21
-95.999999999999091
 31
0.0
  0
LINE
  5
6765
  8
1
 10
147.0
 20
-93.999999999999091
 30
0.0
 11
147.0
 21
-95.999999999999091
 31
0.0
  0
ARC
  5
6766
  8
1
 10
144.0
 20
-95.999999999999091
 30
0.0
 40
3.0
 50
270.0
 51
0.0
  0
LINE
  5
6767
  8
1
 10
160.0
 20
-307.99999999999932
 30
0.0
 11
160.00000000000179
 21
-99.000000000001137
 31
0.0
  0
LINE
  5
6768
  8
FUTO
 10
190.0
 20
-298.9999999999954
 30
0.0
 11
190.00000000000179
 21
-99.000000000001137
 31
0.0
  0
LINE
  5
6769
  8
1
 10
33.499999999998181
 20
-132.99999999999719
 30
0.0
 11
160.00000000000151
 21
-132.99999999999719
 31
0.0
  0
LINE
  5
676A
  8
CT
 10
177.00000000000159
 20
-131.18708601526569
 30
0.0
 11
177.00000000000159
 21
-106.8129139847364
 31
0.0
  0
CIRCLE
  5
676B
  8
FUTO
 10
177.00000000000159
 20
-119.00000000000109
 30
0.0
 40
6.0
  0
CIRCLE
  5
676C
  8
FUTO
 10
177.00000000000159
 20
-279.00000000000108
 30
0.0
 40
6.0
  0
LINE
  5
676D
  8
CT
 10
164.81291398473689
 20
-279.00000000000108
 30
0.0
 11
189.1870860152662
 21
-279.00000000000108
 31
0.0
  0
LINE
  5
676E
  8
CT
 10
177.00000000000159
 20
-291.18708601526572
 30
0.0
 11
177.00000000000159
 21
-266.8129139847365
 31
0.0
  0
LINE
  5
676F
  8
FUTO
 10
159.99999999999969
 20
-298.9999999999954
 30
0.0
 11
190.00000000000179
 21
-298.9999999999954
 31
0.0
  0
LINE
  5
6770
  8
FUTO
 10
190.0
 20
-299.00000000000108
 30
0.0
 11
160.0
 21
-299.00000000000108
 31
0.0
  0
LINE
  5
6771
  8
1
 10
74.799988000000667
 20
-277.79999999999831
 30
0.0
 11
74.799988000000667
 21
-156.29999999999831
 31
0.0
  0
LINE
  5
6772
  8
1
 10
85.0
 20
-307.99999999999721
 30
0.0
 11
160.0
 21
-307.99999999999932
 31
0.0
  0
LINE
  5
6773
  8
1
 10
85.0
 20
-316.29999999999831
 30
0.0
 11
85.0
 21
-277.79999999999831
 31
0.0
  0
LINE
  5
6774
  8
1
 10
0.000000000001819
 20
-317.79999999999831
 30
0.0
 11
83.499999999999986
 21
-317.79999999999831
 31
0.0
  0
LINE
  5
6775
  8
1
 10
-72.777344000000085
 20
-351.79999999999831
 30
0.0
 11
72.626524999999674
 21
-351.79999999999831
 31
0.0
  0
ARC
  5
6776
  8
1
 10
83.499999999999986
 20
-316.29999999999831
 30
0.0
 40
1.4999849999999999
 50
270.0
 51
0.0005800000062725
  0
ARC
  5
6777
  8
1
 10
81.815002999999706
 20
-318.79993899999948
 30
0.0
 40
0.999898
 50
89.99650299999503
 51
168.37008699999251
  0
LINE
  5
6778
  8
1
 10
74.246521000000939
 20
-350.60248999999828
 30
0.0
 11
80.835633000000598
 21
-318.59833899999921
 31
0.0
  0
LINE
  5
6779
  8
1
 10
85.0
 20
-277.79999999999831
 30
0.0
 11
-85.0
 21
-277.79999999999831
 31
0.0
  0
LINE
  5
677A
  8
1
 10
-160.00000000000361
 20
-307.99999999999181
 30
0.0
 11
-84.999999999999091
 21
-307.9999999999954
 31
0.0
  0
LINE
  5
677B
  8
1
 10
-74.799988000000667
 20
-277.79999999999831
 30
0.0
 11
-74.799988000000667
 21
-156.29999999999831
 31
0.0
  0
LINE
  5
677C
  8
1
 10
-85.0
 20
-316.29999999999831
 30
0.0
 11
-85.0
 21
-277.79999999999831
 31
0.0
  0
ARC
  5
677D
  8
1
 10
-81.815002999999706
 20
-318.79993899999948
 30
0.0
 40
0.999898
 50
11.629913000007431
 51
90.003497000004955
  0
LINE
  5
677E
  8
1
 10
-74.246521000000939
 20
-350.60248999999828
 30
0.0
 11
-80.835633000000598
 21
-318.59833899999921
 31
0.0
  0
ARC
  5
677F
  8
1
 10
-83.499999999999986
 20
-316.29999999999831
 30
0.0
 40
1.4999849999999999
 50
179.99941999999371
 51
270.0
  0
LINE
  5
6780
  8
1
 10
-0.000000000001819
 20
-317.79999999999831
 30
0.0
 11
-83.499999999999986
 21
-317.79999999999831
 31
0.0
  0
LINE
  5
6781
  8
CT
 10
-177.000000000005
 20
-291.18708601526572
 30
0.0
 11
-177.000000000005
 21
-266.8129139847365
 31
0.0
  0
LINE
  5
6782
  8
CT
 10
-164.8129139847405
 20
-279.00000000000108
 30
0.0
 11
-189.18708601526981
 21
-279.00000000000108
 31
0.0
  0
CIRCLE
  5
6783
  8
FUTO
 10
-177.000000000005
 20
-279.00000000000108
 30
0.0
 40
6.0
  0
LINE
  5
6784
  8
1
 10
-189.99999999999909
 20
-298.9999999999954
 30
0.0
 11
-160.00000000000361
 21
-298.9999999999954
 31
0.0
  0
LINE
  5
6785
  8
1
 10
33.499999999998181
 20
-133.79999999999831
 30
0.0
 11
33.5
 21
-124.79999999999831
 31
0.0
  0
LINE
  5
6786
  8
1
 10
0.0
 20
-133.79999999999831
 30
0.0
 11
73.5
 21
-133.79999999999831
 31
0.0
  0
LINE
  5
6787
  8
1
 10
75.5
 20
-156.29999999999831
 30
0.0
 11
0.000000000001819
 21
-156.29999999999831
 31
0.0
  0
LINE
  5
6788
  8
1
 10
-75.5
 20
-156.29999999999831
 30
0.0
 11
-0.000000000001819
 21
-156.29999999999831
 31
0.0
  0
LINE
  5
6789
  8
1
 10
0.0
 20
-133.79999999999831
 30
0.0
 11
-73.5
 21
-133.79999999999831
 31
0.0
  0
LINE
  5
678A
  8
1
 10
75.5
 20
-156.29999999999831
 30
0.0
 11
75.5
 21
-135.79999999999831
 31
0.0
  0
ARC
  5
678B
  8
1
 10
73.5
 20
-135.79999999999831
 30
0.0
 40
2.0
 50
0.0
 51
90.0
  0
LINE
  5
678C
  8
1
 10
64.065796000000773
 20
-133.79999999999831
 30
0.0
 11
73.065796000000773
 21
-133.79999999999831
 31
0.0
  0
LINE
  5
678D
  8
1
 10
72.815002999999706
 20
-133.79999999999831
 30
0.0
 11
64.184998000000633
 21
-133.79999999999831
 31
0.0
  0
LINE
  5
678E
  8
1
 10
-17.5
 20
-118.8000000000001
 30
0.0
 11
17.5
 21
-118.8000000000001
 31
0.0
  0
LINE
  5
678F
  8
1
 10
32.5
 20
-123.79999999999831
 30
0.0
 11
-32.5
 21
-123.79999999999831
 31
0.0
  0
LINE
  5
6790
  8
1
 10
-10.5
 20
-118.79999999999831
 30
0.0
 11
-10.5
 21
-123.79999999999831
 31
0.0
  0
ARC
  5
6791
  8
1
 10
32.5
 20
-124.79999999999831
 30
0.0
 40
1.0
 50
0.0
 51
90.0
  0
LINE
  5
6792
  8
1
 10
10.5
 20
-118.79999999999831
 30
0.0
 11
10.5
 21
-123.79999999999831
 31
0.0
  0
LINE
  5
6793
  8
1
 10
22.5
 20
-113.8000000000001
 30
0.0
 11
17.5
 21
-118.8000000000001
 31
0.0
  0
LINE
  5
6794
  8
1
 10
22.5
 20
-101.2999999999965
 30
0.0
 11
22.5
 21
-113.8000000000001
 31
0.0
  0
LINE
  5
6795
  8
1
 10
-17.5
 20
-118.8000000000001
 30
0.0
 11
-22.5
 21
-113.8000000000001
 31
0.0
  0
ENDBLK
  5
6797
  8
0
  0
BLOCK
  8
0
  2
_NONE
 70
     0
 10
0.0
 20
0.0
 30
0.0
  3
_NONE
  1

  0
ENDBLK
  5
6F53
  8
0
  0
BLOCK
  8
0
  2
L-30-3
 70
     0
 10
0.0
 20
0.0
 30
0.0
  3
L-30-3
  1

  0
LINE
  5
7AE8
  8
0
 10
115.2488417492448
 20
98.116970357453638
 30
0.0
 11
145.2488417492448
 21
98.116970357453638
 31
0.0
  0
LINE
  5
7AE9
  8
0
 10
115.2488417492448
 20
98.116970357453638
 30
0.0
 11
115.2488417492448
 21
128.1169703574536
 31
0.0
  0
LINE
  5
7AEA
  8
0
 10
145.2488417492448
 20
98.116970357453638
 30
0.0
 11
145.2488417492448
 21
99.116970357453638
 31
0.0
  0
LINE
  5
7AEB
  8
0
 10
115.2488417492448
 20
128.1169703574536
 30
0.0
 11
116.2488417492448
 21
128.1169703574536
 31
0.0
  0
LINE
  5
7AEC
  8
0
 10
122.2488417492448
 20
101.1169703574536
 30
0.0
 11
143.2488417492448
 21
101.1169703574536
 31
0.0
  0
LINE
  5
7AED
  8
0
 10
118.2488417492448
 20
105.1169703574536
 30
0.0
 11
118.2488417492448
 21
126.1169703574536
 31
0.0
  0
ARC
  5
7AEE
  8
0
 10
143.2488417492448
 20
99.116970357453638
 30
0.0
 40
2.0
 50
0.0
 51
90.0
  0
ARC
  5
7AEF
  8
0
 10
116.2488417492448
 20
126.1169703574536
 30
0.0
 40
2.0
 50
0.0
 51
90.0
  0
ARC
  5
7AF0
  8
0
 10
122.2488417492448
 20
105.1169703574536
 30
0.0
 40
4.0
 50
180.0
 51
270.0
  0
ENDBLK
  5
7AF2
  8
0
  0
BLOCK
  8
0
  2
*D27
 70
     1
 10
0.0
 20
0.0
 30
0.0
  3
*D27
  1

  0
LINE
  5
86C3
  8
SP
 10
-1381.9142715201369
 20
823.03013774616477
 30
0.0
 11
-1381.9142715201369
 21
653.03013774616466
 31
0.0
  0
LINE
  5
86C4
  8
SP
 10
-831.91427152013478
 20
823.03013774616761
 30
0.0
 11
-831.91427152013478
 21
653.03013774616466
 31
0.0
  0
LINE
  5
86C5
  8
SP
 10
-1356.9142715201369
 20
663.03013774616466
 30
0.0
 11
-856.91427152013478
 21
663.03013774616466
 31
0.0
  0
INSERT
  5
86C6
  8
SP
  2
_OPEN
 10
-1381.9142715201369
 20
663.03013774616466
 30
0.0
 41
25.0
 42
25.0
 43
25.0
 50
180.0
  0
INSERT
  5
86C7
  8
SP
  2
_OPEN
 10
-831.91427152013478
 20
663.03013774616466
 30
0.0
 41
25.0
 42
25.0
 43
25.0
  0
TEXT
  5
86C8
  8
SP
 10
-1148.790652263745
 20
673.03013774616466
 30
0.0
 40
30.0
  1
550
 51
15.0
  0
POINT
  5
86C9
  8
DEFPOINTS
 62
     0
 10
-1381.9142715201369
 20
833.03013774616477
 30
0.0
  0
POINT
  5
86CA
  8
DEFPOINTS
 62
     0
 10
-831.91427152013478
 20
833.03013774616761
 30
0.0
  0
POINT
  5
86CB
  8
DEFPOINTS
 62
     0
 10
-831.91427152013478
 20
663.03013774616466
 30
0.0
  0
ENDBLK
  5
86CD
  8
0
  0
BLOCK
  8
0
  2
*D28
 70
     1
 10
0.0
 20
0.0
 30
0.0
  3
*D28
  1

  0
LINE
  5
86CF
  8
SP
 10
-1381.9142715201369
 20
823.03013774616477
 30
0.0
 11
-1381.9142715201369
 21
723.03013774616738
 31
0.0
  0
LINE
  5
86D0
  8
SP
 10
-1039.914271520136
 20
846.17141374125629
 30
0.0
 11
-1039.914271520136
 21
723.03013774616738
 31
0.0
  0
LINE
  5
86D1
  8
SP
 10
-1356.9142715201369
 20
733.03013774616727
 30
0.0
 11
-1064.914271520136
 21
733.03013774616727
 31
0.0
  0
INSERT
  5
86D2
  8
SP
  2
_OPEN
 10
-1381.9142715201369
 20
733.03013774616727
 30
0.0
 41
25.0
 42
25.0
 43
25.0
 50
180.0
  0
INSERT
  5
86D3
  8
SP
  2
_OPEN
 10
-1039.914271520136
 20
733.03013774616727
 30
0.0
 41
25.0
 42
25.0
 43
25.0
  0
TEXT
  5
86D4
  8
SP
 10
-1252.7906522637461
 20
743.03013774616738
 30
0.0
 40
30.0
  1
342
 51
15.0
  0
POINT
  5
86D5
  8
DEFPOINTS
 62
     0
 10
-1381.9142715201369
 20
833.03013774616477
 30
0.0
  0
POINT
  5
86D6
  8
DEFPOINTS
 62
     0
 10
-1039.914271520136
 20
856.17141374125629
 30
0.0
  0
POINT
  5
86D7
  8
DEFPOINTS
 62
     0
 10
-1039.914271520136
 20
733.03013774616727
 30
0.0
  0
ENDBLK
  5
86D9
  8
0
  0
BLOCK
  8
0
  2
*D29
 70
     1
 10
0.0
 20
0.0
 30
0.0
  3
*D29
  1

  0
LINE
  5
86DB
  8
SP
 10
-1039.914271520136
 20
846.17141374125629
 30
0.0
 11
-1039.914271520136
 21
723.03013774616738
 31
0.0
  0
LINE
  5
86DC
  8
SP
 10
-831.91427152013478
 20
823.03013774616761
 30
0.0
 11
-831.91427152013478
 21
723.03013774616738
 31
0.0
  0
LINE
  5
86DD
  8
SP
 10
-1014.914271520136
 20
733.03013774616727
 30
0.0
 11
-856.91427152013478
 21
733.03013774616727
 31
0.0
  0
INSERT
  5
86DE
  8
SP
  2
_OPEN
 10
-1039.914271520136
 20
733.03013774616727
 30
0.0
 41
25.0
 42
25.0
 43
25.0
 50
180.0
  0
INSERT
  5
86DF
  8
SP
  2
_OPEN
 10
-831.91427152013478
 20
733.03013774616727
 30
0.0
 41
25.0
 42
25.0
 43
25.0
  0
TEXT
  5
86E0
  8
SP
 10
-977.21647542282119
 20
743.03013774616738
 30
0.0
 40
30.0
  1
208
 51
15.0
  0
POINT
  5
86E1
  8
DEFPOINTS
 62
     0
 10
-1039.914271520136
 20
856.17141374125629
 30
0.0
  0
POINT
  5
86E2
  8
DEFPOINTS
 62
     0
 10
-831.91427152013478
 20
833.03013774616761
 30
0.0
  0
POINT
  5
86E3
  8
DEFPOINTS
 62
     0
 10
-831.91427152013478
 20
733.03013774616727
 30
0.0
  0
ENDBLK
  5
86E5
  8
0
  0
BLOCK
  8
0
  2
A$C2B876C76
 70
     0
 10
0.0
 20
0.0
 30
0.0
  3
A$C2B876C76
  1

  0
DIMENSION
  5
86E7
  8
SP
  2
*D29
 10
208.00000000000119
 20
-354.99999999999858
 30
0.0
 11
104.0000000000006
 21
-329.99999999999858
 31
0.0
 12
1039.914271520136
 22
-1088.030137746166
 32
0.0
  3
GOD
 13
0.0
 23
-231.85872400490959
 33
0.0
 14
208.00000000000119
 24
-254.99999999999821
 34
0.0
  0
DIMENSION
  5
86E8
  8
SP
  2
*D28
 10
0.0
 20
-354.99999999999858
 30
0.0
 11
-171.0000000000006
 21
-329.99999999999858
 31
0.0
 12
1039.914271520136
 22
-1088.030137746166
 32
0.0
  3
GOD
 13
-342.00000000000131
 23
-255.00000000000111
 33
0.0
 14
0.0
 24
-231.85872400490959
 34
0.0
  0
DIMENSION
  5
86E9
  8
SP
  2
*D27
 10
208.00000000000119
 20
-425.00000000000131
 30
0.0
 11
-67.0
 21
-400.00000000000131
 31
0.0
 12
1039.914271520136
 22
-1088.030137746166
 32
0.0
  3
GOD
 13
-342.00000000000131
 23
-255.00000000000111
 33
0.0
 14
208.00000000000119
 24
-254.99999999999821
 34
0.0
  0
ENDBLK
  5
86EB
  8
0
  0
BLOCK
  8
0
  2
A$C6C4A0FF6
 70
     0
 10
0.0
 20
0.0
 30
0.0
  3
A$C6C4A0FF6
  1

  0
TEXT
  5
896F
  8
4
 10
-1279.9131182430349
 20
-500.553685345958
 30
0.0
 40
53.999999999999993
  1
天井吊ベッド型
  0
ENDBLK
  5
8971
  8
0
  0
BLOCK
  8
0
  2
*D52
 70
     1
 10
0.0
 20
0.0
 30
0.0
  3
*D52
  1

  0
LINE
  5
90A3
  8
SP
 10
11490.308678840031
 20
1106.1129045495859
 30
0.0
 11
11382.66505832927
 21
1106.1129045495859
 31
0.0
  0
LINE
  5
90A4
  8
SP
 10
11739.66505832927
 20
1282.1129045495859
 30
0.0
 11
11382.66505832927
 21
1282.1129045495859
 31
0.0
  0
LINE
  5
90A5
  8
SP
 10
11392.66505832927
 20
1131.1129045495859
 30
0.0
 11
11392.66505832927
 21
1257.1129045495859
 31
0.0
  0
INSERT
  5
90A6
  8
SP
  2
_OPEN
 10
11392.66505832927
 20
1106.1129045495859
 30
0.0
 41
25.0
 42
25.0
 43
25.0
 50
270.0
  0
INSERT
  5
90A7
  8
SP
  2
_OPEN
 10
11392.66505832927
 20
1282.1129045495859
 30
0.0
 41
25.0
 42
25.0
 43
25.0
 50
90.0
  0
TEXT
  5
90A8
  8
SP
 10
11382.66505832927
 20
1153.1284604530961
 30
0.0
 40
30.0
  1
176
 50
90.0
 51
15.0
  0
POINT
  5
90A9
  8
DEFPOINTS
 62
     0
 10
11500.308678840031
 20
1106.1129045495859
 30
0.0
  0
POINT
  5
90AA
  8
DEFPOINTS
 62
     0
 10
11749.66505832927
 20
1282.1129045495859
 30
0.0
  0
POINT
  5
90AB
  8
DEFPOINTS
 62
     0
 10
11392.66505832927
 20
1282.1129045495859
 30
0.0
  0
ENDBLK
  5
8EE6
  8
0
  0
BLOCK
  8
0
  2
*D53
 70
     1
 10
0.0
 20
0.0
 30
0.0
  3
*D53
  1

  0
LINE
  5
9064
  8
SP
 10
11472.66505832927
 20
761.11290454958703
 30
0.0
 11
11382.66505832927
 21
761.11290454958703
 31
0.0
  0
LINE
  5
9065
  8
SP
 10
11490.308678840031
 20
1106.1129045495859
 30
0.0
 11
11382.66505832927
 21
1106.1129045495859
 31
0.0
  0
LINE
  5
9066
  8
SP
 10
11392.66505832927
 20
786.11290454958703
 30
0.0
 11
11392.66505832927
 21
1081.1129045495859
 31
0.0
  0
INSERT
  5
9067
  8
SP
  2
_OPEN
 10
11392.66505832927
 20
761.11290454958703
 30
0.0
 41
25.0
 42
25.0
 43
25.0
 50
270.0
  0
INSERT
  5
9068
  8
SP
  2
_OPEN
 10
11392.66505832927
 20
1106.1129045495859
 30
0.0
 41
25.0
 42
25.0
 43
25.0
 50
90.0
  0
TEXT
  5
9069
  8
SP
 10
11382.66505832927
 20
891.68524039903275
 30
0.0
 40
30.0
  1
345
 50
90.0
 51
15.0
  0
POINT
  5
906A
  8
DEFPOINTS
 62
     0
 10
11482.66505832927
 20
761.11290454958703
 30
0.0
  0
POINT
  5
906B
  8
DEFPOINTS
 62
     0
 10
11500.308678840031
 20
1106.1129045495859
 30
0.0
  0
POINT
  5
906C
  8
DEFPOINTS
 62
     0
 10
11392.66505832927
 20
1106.1129045495859
 30
0.0
  0
ENDBLK
  5
8EF2
  8
0
  0
BLOCK
  8
0
  2
*D54
 70
     1
 10
0.0
 20
0.0
 30
0.0
  3
*D54
  1

  0
LINE
  5
9076
  8
SP
 10
11732.66505832927
 20
729.20938032224035
 30
0.0
 11
11732.66505832927
 21
681.11290454958612
 31
0.0
  0
LINE
  5
9077
  8
SP
 10
11982.66505832927
 20
751.11290454958612
 30
0.0
 11
11982.66505832927
 21
681.11290454958612
 31
0.0
  0
LINE
  5
9078
  8
SP
 10
11757.66505832927
 20
691.11290454958612
 30
0.0
 11
11957.66505832927
 21
691.11290454958612
 31
0.0
  0
INSERT
  5
9079
  8
SP
  2
_OPEN
 10
11732.66505832927
 20
691.11290454958612
 30
0.0
 41
25.0
 42
25.0
 43
25.0
 50
180.0
  0
INSERT
  5
907A
  8
SP
  2
_OPEN
 10
11982.66505832927
 20
691.11290454958612
 30
0.0
 41
25.0
 42
25.0
 43
25.0
  0
TEXT
  5
907B
  8
SP
 10
11816.55424670689
 20
701.11290454958612
 30
0.0
 40
30.0
  1
250
 51
15.0
  0
POINT
  5
907C
  8
DEFPOINTS
 62
     0
 10
11732.66505832927
 20
739.20938032224035
 30
0.0
  0
POINT
  5
907D
  8
DEFPOINTS
 62
     0
 10
11982.66505832927
 20
761.11290454958612
 30
0.0
  0
POINT
  5
907E
  8
DEFPOINTS
 62
     0
 10
11982.66505832927
 20
691.11290454958612
 30
0.0
  0
ENDBLK
  5
8EFE
  8
0
  0
BLOCK
  8
0
  2
*D55
 70
     1
 10
0.0
 20
0.0
 30
0.0
  3
*D55
  1

  0
LINE
  5
906D
  8
SP
 10
11482.66505832927
 20
751.11290454958339
 30
0.0
 11
11482.66505832927
 21
611.11290454958328
 31
0.0
  0
LINE
  5
906E
  8
SP
 10
11982.66505832927
 20
751.11290454958612
 30
0.0
 11
11982.66505832927
 21
611.11290454958328
 31
0.0
  0
LINE
  5
906F
  8
SP
 10
11507.66505832927
 20
621.11290454958339
 30
0.0
 11
11957.66505832927
 21
621.11290454958339
 31
0.0
  0
INSERT
  5
9070
  8
SP
  2
_OPEN
 10
11482.66505832927
 20
621.11290454958339
 30
0.0
 41
25.0
 42
25.0
 43
25.0
 50
180.0
  0
INSERT
  5
9071
  8
SP
  2
_OPEN
 10
11982.66505832927
 20
621.11290454958339
 30
0.0
 41
25.0
 42
25.0
 43
25.0
  0
TEXT
  5
9072
  8
SP
 10
11690.78867758566
 20
631.11290454958328
 30
0.0
 40
30.0
  1
500
 51
15.0
  0
POINT
  5
9073
  8
DEFPOINTS
 62
     0
 10
11482.66505832927
 20
761.11290454958328
 30
0.0
  0
POINT
  5
9074
  8
DEFPOINTS
 62
     0
 10
11982.66505832927
 20
761.11290454958612
 30
0.0
  0
POINT
  5
9075
  8
DEFPOINTS
 62
     0
 10
11982.66505832927
 20
621.11290454958339
 30
0.0
  0
ENDBLK
  5
8F0A
  8
0
  0
BLOCK
  8
0
  2
*D56
 70
     1
 10
0.0
 20
0.0
 30
0.0
  3
*D56
  1

  0
LINE
  5
9091
  8
SP
 10
11732.66505832927
 20
1325.889323693912
 30
0.0
 11
11732.66505832927
 21
1363.1129045495859
 31
0.0
  0
LINE
  5
9092
  8
SP
 10
11942.66505832927
 20
1096.1129045495859
 30
0.0
 11
11942.66505832927
 21
1363.1129045495859
 31
0.0
  0
LINE
  5
9093
  8
SP
 10
11757.66505832927
 20
1353.1129045495859
 30
0.0
 11
11917.66505832927
 21
1353.1129045495859
 31
0.0
  0
INSERT
  5
9094
  8
SP
  2
_OPEN
 10
11732.66505832927
 20
1353.1129045495859
 30
0.0
 41
25.0
 42
25.0
 43
25.0
 50
180.0
  0
INSERT
  5
9095
  8
SP
  2
_OPEN
 10
11942.66505832927
 20
1353.1129045495859
 30
0.0
 41
25.0
 42
25.0
 43
25.0
  0
TEXT
  5
9096
  8
SP
 10
11799.411389564029
 20
1363.1129045495859
 30
0.0
 40
30.0
  1
210
 51
15.0
  0
POINT
  5
9097
  8
DEFPOINTS
 62
     0
 10
11732.66505832927
 20
1315.889323693912
 30
0.0
  0
POINT
  5
9098
  8
DEFPOINTS
 62
     0
 10
11942.66505832927
 20
1086.1129045495859
 30
0.0
  0
POINT
  5
9099
  8
DEFPOINTS
 62
     0
 10
11942.66505832927
 20
1353.1129045495859
 30
0.0
  0
ENDBLK
  5
8F16
  8
0
  0
BLOCK
  8
0
  2
*D57
 70
     1
 10
0.0
 20
0.0
 30
0.0
  3
*D57
  1

  0
LINE
  5
905B
  8
SP
 10
11490.308678840031
 20
1106.1129045495859
 30
0.0
 11
11452.66505832927
 21
1106.1129045495859
 31
0.0
  0
LINE
  5
905C
  8
SP
 10
11522.67061379909
 20
856.11291998132833
 30
0.0
 11
11452.66505832927
 21
856.11291998132845
 31
0.0
  0
LINE
  5
905D
  8
SP
 10
11462.66505832927
 20
1081.1129045495859
 30
0.0
 11
11462.66505832927
 21
881.11291998132845
 31
0.0
  0
INSERT
  5
905E
  8
SP
  2
_OPEN
 10
11462.66505832927
 20
1106.1129045495859
 30
0.0
 41
25.0
 42
25.0
 43
25.0
 50
90.0
  0
INSERT
  5
905F
  8
SP
  2
_OPEN
 10
11462.66505832927
 20
856.11291998132845
 30
0.0
 41
25.0
 42
25.0
 43
25.0
 50
270.0
  0
TEXT
  5
9060
  8
SP
 10
11452.66505832927
 20
940.00210064308135
 30
0.0
 40
30.0
  1
250
 50
90.0
 51
15.0
  0
POINT
  5
9061
  8
DEFPOINTS
 62
     0
 10
11500.308678840031
 20
1106.1129045495859
 30
0.0
  0
POINT
  5
9062
  8
DEFPOINTS
 62
     0
 10
11532.67061379909
 20
856.11291998132833
 30
0.0
  0
POINT
  5
9063
  8
DEFPOINTS
 62
     0
 10
11462.66505832927
 20
856.11291998132845
 30
0.0
  0
ENDBLK
  5
8F22
  8
0
  0
BLOCK
  8
0
  2
*D58
 70
     1
 10
0.0
 20
0.0
 30
0.0
  3
*D58
  1

  0
LINE
  5
907F
  8
SP
 10
11732.66505832927
 20
729.20938032224035
 30
0.0
 11
11732.66505832927
 21
681.11290454958328
 31
0.0
  0
LINE
  5
9080
  8
SP
 10
11482.66505832927
 20
751.11290454958339
 30
0.0
 11
11482.66505832927
 21
681.11290454958328
 31
0.0
  0
LINE
  5
9081
  8
SP
 10
11707.66505832927
 20
691.11290454958328
 30
0.0
 11
11507.66505832927
 21
691.11290454958328
 31
0.0
  0
INSERT
  5
9082
  8
SP
  2
_OPEN
 10
11732.66505832927
 20
691.11290454958328
 30
0.0
 41
25.0
 42
25.0
 43
25.0
  0
INSERT
  5
9083
  8
SP
  2
_OPEN
 10
11482.66505832927
 20
691.11290454958328
 30
0.0
 41
25.0
 42
25.0
 43
25.0
 50
180.0
  0
TEXT
  5
9084
  8
SP
 10
11566.55424670689
 20
701.11290454958339
 30
0.0
 40
30.0
  1
250
 51
15.0
  0
POINT
  5
9085
  8
DEFPOINTS
 62
     0
 10
11732.66505832927
 20
739.20938032224035
 30
0.0
  0
POINT
  5
9086
  8
DEFPOINTS
 62
     0
 10
11482.66505832927
 20
761.11290454958328
 30
0.0
  0
POINT
  5
9087
  8
DEFPOINTS
 62
     0
 10
11482.66505832927
 20
691.11290454958328
 30
0.0
  0
ENDBLK
  5
8F2E
  8
0
  0
BLOCK
  8
0
  2
*D59
 70
     1
 10
0.0
 20
0.0
 30
0.0
  3
*D59
  1

  0
LINE
  5
909A
  8
SP
 10
11732.66505832927
 20
1325.889323693912
 30
0.0
 11
11732.66505832927
 21
1363.1129045495859
 31
0.0
  0
LINE
  5
909B
  8
SP
 10
11532.66505832927
 20
1137.1129045495859
 30
0.0
 11
11532.66505832927
 21
1363.1129045495859
 31
0.0
  0
LINE
  5
909C
  8
SP
 10
11707.66505832927
 20
1353.1129045495859
 30
0.0
 11
11557.66505832927
 21
1353.1129045495859
 31
0.0
  0
INSERT
  5
909D
  8
SP
  2
_OPEN
 10
11732.66505832927
 20
1353.1129045495859
 30
0.0
 41
25.0
 42
25.0
 43
25.0
  0
INSERT
  5
909E
  8
SP
  2
_OPEN
 10
11532.66505832927
 20
1353.1129045495859
 30
0.0
 41
25.0
 42
25.0
 43
25.0
 50
180.0
  0
TEXT
  5
909F
  8
SP
 10
11591.55424670689
 20
1363.1129045495859
 30
0.0
 40
30.0
  1
200
 51
15.0
  0
POINT
  5
90A0
  8
DEFPOINTS
 62
     0
 10
11732.66505832927
 20
1315.889323693912
 30
0.0
  0
POINT
  5
90A1
  8
DEFPOINTS
 62
     0
 10
11532.66505832927
 20
1127.1129045495859
 30
0.0
  0
POINT
  5
90A2
  8
DEFPOINTS
 62
     0
 10
11532.66505832927
 20
1353.1129045495859
 30
0.0
  0
ENDBLK
  5
8F3A
  8
0
  0
BLOCK
  8
0
  2
*D60
 70
     1
 10
0.0
 20
0.0
 30
0.0
  3
*D60
  1

  0
LINE
  5
90C7
  8
SP
 10
11472.66505832927
 20
2358.2044952918609
 30
0.0
 11
11343.43190351257
 21
2358.2044952918609
 31
0.0
  0
LINE
  5
90C8
  8
SP
 10
11472.66505832927
 20
1808.2044952918609
 30
0.0
 11
11343.43190351257
 21
1808.2044952918609
 31
0.0
  0
LINE
  5
90C9
  8
SP
 10
11353.43190351257
 20
2333.2044952918609
 30
0.0
 11
11353.43190351257
 21
1833.2044952918609
 31
0.0
  0
INSERT
  5
90CA
  8
SP
  2
_OPEN
 10
11353.43190351257
 20
2358.2044952918609
 30
0.0
 41
25.0
 42
25.0
 43
25.0
 50
90.0
  0
INSERT
  5
90CB
  8
SP
  2
_OPEN
 10
11353.43190351257
 20
1808.2044952918609
 30
0.0
 41
25.0
 42
25.0
 43
25.0
 50
270.0
  0
TEXT
  5
90CC
  8
SP
 10
11343.43190351257
 20
2041.3281145482531
 30
0.0
 40
30.0
  1
550
 50
90.0
 51
15.0
  0
POINT
  5
90CD
  8
DEFPOINTS
 62
     0
 10
11482.66505832927
 20
2358.2044952918609
 30
0.0
  0
POINT
  5
90CE
  8
DEFPOINTS
 62
     0
 10
11482.66505832927
 20
1808.2044952918609
 30
0.0
  0
POINT
  5
90CF
  8
DEFPOINTS
 62
     0
 10
11353.43190351257
 20
1808.2044952918609
 30
0.0
  0
ENDBLK
  5
8F46
  8
0
  0
BLOCK
  8
0
  2
*D61
 70
     1
 10
0.0
 20
0.0
 30
0.0
  3
*D61
  1

  0
LINE
  5
90D0
  8
SP
 10
11482.66505832927
 20
1798.2044952918609
 30
0.0
 11
11482.66505832927
 21
1679.456154018246
 31
0.0
  0
LINE
  5
90D1
  8
SP
 10
11982.66505832927
 20
1798.2044952918629
 30
0.0
 11
11982.66505832927
 21
1679.456154018246
 31
0.0
  0
LINE
  5
90D2
  8
SP
 10
11507.66505832927
 20
1689.456154018246
 30
0.0
 11
11957.66505832927
 21
1689.456154018246
 31
0.0
  0
INSERT
  5
90D3
  8
SP
  2
_OPEN
 10
11482.66505832927
 20
1689.456154018246
 30
0.0
 41
25.0
 42
25.0
 43
25.0
 50
180.0
  0
INSERT
  5
90D4
  8
SP
  2
_OPEN
 10
11982.66505832927
 20
1689.456154018246
 30
0.0
 41
25.0
 42
25.0
 43
25.0
  0
TEXT
  5
90D5
  8
SP
 10
11690.78867758566
 20
1699.456154018246
 30
0.0
 40
30.0
  1
500
 51
15.0
  0
POINT
  5
90D6
  8
DEFPOINTS
 62
     0
 10
11482.66505832927
 20
1808.2044952918609
 30
0.0
  0
POINT
  5
90D7
  8
DEFPOINTS
 62
     0
 10
11982.66505832927
 20
1808.2044952918629
 30
0.0
  0
POINT
  5
90D8
  8
DEFPOINTS
 62
     0
 10
11982.66505832927
 20
1689.456154018246
 30
0.0
  0
ENDBLK
  5
8F52
  8
0
  0
BLOCK
  8
0
  2
*D62
 70
     1
 10
0.0
 20
0.0
 30
0.0
  3
*D62
  1

  0
LINE
  5
9052
  8
SP
 10
12592.071658751771
 20
812.88425054061099
 30
0.0
 11
12592.071658751771
 21
681.11290454958635
 31
0.0
  0
LINE
  5
9053
  8
SP
 10
12800.071658751771
 20
781.11290454958657
 30
0.0
 11
12800.071658751771
 21
681.11290454958635
 31
0.0
  0
LINE
  5
9054
  8
SP
 10
12617.071658751771
 20
691.11290454958635
 30
0.0
 11
12775.071658751771
 21
691.11290454958635
 31
0.0
  0
INSERT
  5
9055
  8
SP
  2
_OPEN
 10
12592.071658751771
 20
691.11290454958635
 30
0.0
 41
25.0
 42
25.0
 43
25.0
 50
180.0
  0
INSERT
  5
9056
  8
SP
  2
_OPEN
 10
12800.071658751771
 20
691.11290454958635
 30
0.0
 41
25.0
 42
25.0
 43
25.0
  0
TEXT
  5
9057
  8
SP
 10
12654.76945484908
 20
701.11290454958635
 30
0.0
 40
30.0
  1
208
 51
15.0
  0
POINT
  5
9058
  8
DEFPOINTS
 62
     0
 10
12592.071658751771
 20
822.88425054061099
 30
0.0
  0
POINT
  5
9059
  8
DEFPOINTS
 62
     0
 10
12800.071658751771
 20
791.11290454958669
 30
0.0
  0
POINT
  5
905A
  8
DEFPOINTS
 62
     0
 10
12800.071658751771
 20
691.11290454958635
 30
0.0
  0
ENDBLK
  5
8F5E
  8
0
  0
BLOCK
  8
0
  2
*D63
 70
     1
 10
0.0
 20
0.0
 30
0.0
  3
*D63
  1

  0
LINE
  5
9049
  8
SP
 10
12250.071658751771
 20
781.11290454958385
 30
0.0
 11
12250.071658751771
 21
611.11290454958362
 31
0.0
  0
LINE
  5
904A
  8
SP
 10
12800.071658751771
 20
781.11290454958657
 30
0.0
 11
12800.071658751771
 21
611.11290454958362
 31
0.0
  0
LINE
  5
904B
  8
SP
 10
12275.071658751771
 20
621.11290454958362
 30
0.0
 11
12775.071658751771
 21
621.11290454958362
 31
0.0
  0
INSERT
  5
904C
  8
SP
  2
_OPEN
 10
12250.071658751771
 20
621.11290454958362
 30
0.0
 41
25.0
 42
25.0
 43
25.0
 50
180.0
  0
INSERT
  5
904D
  8
SP
  2
_OPEN
 10
12800.071658751771
 20
621.11290454958362
 30
0.0
 41
25.0
 42
25.0
 43
25.0
  0
TEXT
  5
904E
  8
SP
 10
12483.195278008159
 20
631.11290454958362
 30
0.0
 40
30.0
  1
550
 51
15.0
  0
POINT
  5
904F
  8
DEFPOINTS
 62
     0
 10
12250.071658751771
 20
791.11290454958385
 30
0.0
  0
POINT
  5
9050
  8
DEFPOINTS
 62
     0
 10
12800.071658751771
 20
791.11290454958669
 30
0.0
  0
POINT
  5
9051
  8
DEFPOINTS
 62
     0
 10
12800.071658751771
 20
621.11290454958362
 30
0.0
  0
ENDBLK
  5
8F6A
  8
0
  0
BLOCK
  8
0
  2
*D64
 70
     1
 10
0.0
 20
0.0
 30
0.0
  3
*D64
  1

  0
LINE
  5
9040
  8
SP
 10
12701.071658751771
 20
1231.1129045495841
 30
0.0
 11
12853.36248281288
 21
1231.1129045495841
 31
0.0
  0
LINE
  5
9041
  8
SP
 10
12701.071658751771
 20
981.11290454958487
 30
0.0
 11
12853.36248281288
 21
981.11290454958487
 31
0.0
  0
LINE
  5
9042
  8
SP
 10
12843.36248281288
 20
1206.1129045495841
 30
0.0
 11
12843.36248281288
 21
1006.112904549585
 31
0.0
  0
INSERT
  5
9043
  8
SP
  2
_OPEN
 10
12843.36248281288
 20
1231.1129045495841
 30
0.0
 41
25.0
 42
25.0
 43
25.0
 50
90.0
  0
INSERT
  5
9044
  8
SP
  2
_OPEN
 10
12843.36248281288
 20
981.11290454958487
 30
0.0
 41
25.0
 42
25.0
 43
25.0
 50
270.0
  0
TEXT
  5
9045
  8
SP
 10
12833.36248281288
 20
1051.341838889364
 30
0.0
 40
30.0
  1
φ250
 50
90.0
 51
15.0
  0
POINT
  5
9046
  8
DEFPOINTS
 62
     0
 10
12691.071658751771
 20
1231.1129045495841
 30
0.0
  0
POINT
  5
9047
  8
DEFPOINTS
 62
     0
 10
12691.071658751771
 20
981.11290454958487
 30
0.0
  0
POINT
  5
9048
  8
DEFPOINTS
 62
     0
 10
12843.36248281288
 20
981.11290454958487
 30
0.0
  0
ENDBLK
  5
8F76
  8
0
  0
BLOCK
  8
0
  2
*D65
 70
     1
 10
0.0
 20
0.0
 30
0.0
  3
*D65
  1

  0
LINE
  5
9088
  8
SP
 10
12250.071658751771
 20
781.11290454958385
 30
0.0
 11
12250.071658751771
 21
681.11290454958635
 31
0.0
  0
LINE
  5
9089
  8
SP
 10
12592.071658751771
 20
812.88425054061099
 30
0.0
 11
12592.071658751771
 21
681.11290454958635
 31
0.0
  0
LINE
  5
908A
  8
SP
 10
12275.071658751771
 20
691.11290454958635
 30
0.0
 11
12567.071658751771
 21
691.11290454958635
 31
0.0
  0
INSERT
  5
908B
  8
SP
  2
_OPEN
 10
12250.071658751771
 20
691.11290454958635
 30
0.0
 41
25.0
 42
25.0
 43
25.0
 50
180.0
  0
INSERT
  5
908C
  8
SP
  2
_OPEN
 10
12592.071658751771
 20
691.11290454958635
 30
0.0
 41
25.0
 42
25.0
 43
25.0
  0
TEXT
  5
908D
  8
SP
 10
12379.195278008159
 20
701.11290454958635
 30
0.0
 40
30.0
  1
342
 51
15.0
  0
POINT
  5
908E
  8
DEFPOINTS
 62
     0
 10
12250.071658751771
 20
791.11290454958385
 30
0.0
  0
POINT
  5
908F
  8
DEFPOINTS
 62
     0
 10
12592.071658751771
 20
822.88425054061099
 30
0.0
  0
POINT
  5
9090
  8
DEFPOINTS
 62
     0
 10
12592.071658751771
 20
691.11290454958635
 30
0.0
  0
ENDBLK
  5
8F82
  8
0
  0
BLOCK
  8
0
  2
*D66
 70
     1
 10
0.0
 20
0.0
 30
0.0
  3
*D66
  1

  0
LINE
  5
90BE
  8
SP
 10
12592.071658751771
 20
1412.112904549585
 30
0.0
 11
12592.071658751771
 21
1451.2126342437921
 31
0.0
  0
LINE
  5
90BF
  8
SP
 10
12240.27165875177
 20
1188.8902485495851
 30
0.0
 11
12240.27165875177
 21
1451.2126342437921
 31
0.0
  0
LINE
  5
90C0
  8
SP
 10
12567.071658751771
 20
1441.2126342437921
 30
0.0
 11
12265.27165875177
 21
1441.2126342437921
 31
0.0
  0
INSERT
  5
90C1
  8
SP
  2
_OPEN
 10
12592.071658751771
 20
1441.2126342437921
 30
0.0
 41
25.0
 42
25.0
 43
25.0
  0
INSERT
  5
90C2
  8
SP
  2
_OPEN
 10
12240.27165875177
 20
1441.2126342437921
 30
0.0
 41
25.0
 42
25.0
 43
25.0
 50
180.0
  0
TEXT
  5
90C3
  8
SP
 10
12349.261957011369
 20
1451.2126342437921
 30
0.0
 40
30.0
  1
（400）
 51
15.0
  0
POINT
  5
90C4
  8
DEFPOINTS
 62
     0
 10
12592.071658751771
 20
1402.112904549585
 30
0.0
  0
POINT
  5
90C5
  8
DEFPOINTS
 62
     0
 10
12240.27165875177
 20
1178.8902485495851
 30
0.0
  0
POINT
  5
90C6
  8
DEFPOINTS
 62
     0
 10
12240.27165875177
 20
1441.2126342437921
 30
0.0
  0
ENDBLK
  5
8F8E
  8
0
  0
BLOCK
  8
0
  2
*D67
 70
     1
 10
0.0
 20
0.0
 30
0.0
  3
*D67
  1

  0
LINE
  5
90B5
  8
SP
 10
12502.071658751771
 20
1281.112904549585
 30
0.0
 11
12502.071658751771
 21
1372.112904549585
 31
0.0
  0
LINE
  5
90B6
  8
SP
 10
12682.071658751771
 20
1281.112904549585
 30
0.0
 11
12682.071658751771
 21
1372.112904549585
 31
0.0
  0
LINE
  5
90B7
  8
SP
 10
12527.071658751771
 20
1362.112904549585
 30
0.0
 11
12657.071658751771
 21
1362.112904549585
 31
0.0
  0
INSERT
  5
90B8
  8
SP
  2
_OPEN
 10
12502.071658751771
 20
1362.112904549585
 30
0.0
 41
25.0
 42
25.0
 43
25.0
 50
180.0
  0
INSERT
  5
90B9
  8
SP
  2
_OPEN
 10
12682.071658751771
 20
1362.112904549585
 30
0.0
 41
25.0
 42
25.0
 43
25.0
  0
TEXT
  5
90BA
  8
SP
 10
12550.5643212213
 20
1372.112904549585
 30
0.0
 40
30.0
  1
180
 51
15.0
  0
POINT
  5
90BB
  8
DEFPOINTS
 62
     0
 10
12502.071658751771
 20
1271.112904549585
 30
0.0
  0
POINT
  5
90BC
  8
DEFPOINTS
 62
     0
 10
12682.071658751771
 20
1271.112904549585
 30
0.0
  0
POINT
  5
90BD
  8
DEFPOINTS
 62
     0
 10
12682.071658751771
 20
1362.112904549585
 30
0.0
  0
ENDBLK
  5
8F9A
  8
0
  0
BLOCK
  8
0
  2
*D68
 70
     1
 10
0.0
 20
0.0
 30
0.0
  3
*D68
  1

  0
LINE
  5
90AC
  8
SP
 10
12592.071658751771
 20
1412.112904549585
 30
0.0
 11
12592.071658751771
 21
1451.2126342437921
 31
0.0
  0
LINE
  5
90AD
  8
SP
 10
12691.071658751771
 20
1260.112904549585
 30
0.0
 11
12691.071658751771
 21
1451.2126342437921
 31
0.0
  0
LINE
  5
90AE
  8
SP
 10
12617.071658751771
 20
1441.2126342437921
 30
0.0
 11
12666.071658751771
 21
1441.2126342437921
 31
0.0
  0
INSERT
  5
90AF
  8
SP
  2
_OPEN
 10
12592.071658751771
 20
1441.2126342437921
 30
0.0
 41
25.0
 42
25.0
 43
25.0
 50
180.0
  0
INSERT
  5
90B0
  8
SP
  2
_OPEN
 10
12691.071658751771
 20
1441.2126342437921
 30
0.0
 41
25.0
 42
25.0
 43
25.0
  0
TEXT
  5
90B1
  8
SP
 10
12613.980992293869
 20
1451.2126342437921
 30
0.0
 40
30.0
  1
99
 51
15.0
  0
POINT
  5
90B2
  8
DEFPOINTS
 62
     0
 10
12592.071658751771
 20
1402.112904549585
 30
0.0
  0
POINT
  5
90B3
  8
DEFPOINTS
 62
     0
 10
12691.071658751771
 20
1250.112904549585
 30
0.0
  0
POINT
  5
90B4
  8
DEFPOINTS
 62
     0
 10
12691.071658751771
 20
1441.2126342437921
 30
0.0
  0
ENDBLK
  5
8FA6
  8
0
  0
ENDSEC
  0
SECTION
  2
ENTITIES
  0
LINE
  5
21A1
  8
4
 10
13113.60959423641
 20
96.092404061039474
 30
0.0
 11
11013.60959423641
 21
96.092404061039474
 31
0.0
  0
LINE
  5
21A2
  8
4
 10
11013.60959423641
 20
3046.0924040610389
 30
0.0
 11
13113.60959423641
 21
3046.0924040610389
 31
0.0
  0
LINE
  5
21AC
  8
4
 10
11013.60959423641
 20
96.092404061039474
 30
0.0
 11
11013.60959423641
 21
3046.0924040610389
 31
0.0
  0
LINE
  5
22D0
  8
4
 10
13113.60959423641
 20
3046.0924040610389
 30
0.0
 11
13113.60959423641
 21
96.092404061039474
 31
0.0
  0
LINE
  5
236E
  8
4
 10
13113.60959423641
 20
3046.0924040610389
 30
0.0
 11
13113.60959423641
 21
3046.0924040610389
 31
0.0
  0
TEXT
  5
54B4
  8
4
 10
11305.284100503261
 20
2544.4293549289091
 30
0.0
 40
53.999999999999993
  1
右回転左横向
  0
TEXT
  5
54B5
  8
4
 10
11473.20959423641
 20
2695.5186316473701
 30
0.0
 40
72.0
  1
遠心式片吸込直動形多翼ファン
 72
     4
 11
12063.60959423641
 21
2731.5186316473701
 31
0.0
  0
LINE
  5
54B6
  8
4
 10
11263.60959423641
 20
2631.5186316473701
 30
0.0
 11
12863.609594236421
 21
2631.5186316473701
 31
0.0
  0
LINE
  5
54B7
  8
4
 10
11263.60959423641
 20
2831.5186316473701
 30
0.0
 11
12863.609594236421
 21
2831.5186316473701
 31
0.0
  0
LINE
  5
54B8
  8
4
 10
11263.60959423641
 20
2831.5186316473701
 30
0.0
 11
11263.60959423641
 21
2631.5186316473701
 31
0.0
  0
LINE
  5
54B9
  8
4
 10
12454.22701659628
 20
2948.7621389323181
 30
0.0
 11
12863.609594236421
 21
2948.7621389323181
 31
0.0
  0
LINE
  5
54BA
  8
4
 10
12863.609594236421
 20
2843.3734605079671
 30
0.0
 11
12454.22701659628
 21
2843.3734605079671
 31
0.0
  0
TEXT
  5
54BC
  8
4
 10
12424.90565683643
 20
2545.5387187150809
 30
0.0
 40
53.999999999999993
  1
縮尺：1/10
  0
LINE
  5
54BD
  8
4
 10
12454.22701659628
 20
2843.3734605079671
 30
0.0
 11
12454.22701659628
 21
2948.7621389323181
 31
0.0
  0
TEXT
  5
54BE
  8
4
 10
12482.5791534857
 20
2868.170958877874
 30
0.0
 40
56.000000000000007
  1
No.
  0
LINE
  5
54BF
  8
4
 10
12863.609594236421
 20
2831.5186316473701
 30
0.0
 11
12863.609594236421
 21
2631.5186316473701
 31
0.0
  0
LINE
  5
54C0
  8
4
 10
12863.609594236421
 20
2948.7621389323181
 30
0.0
 11
12863.609594236421
 21
2843.3734605079671
 31
0.0
  0
TEXT
  5
54C4
  8
4
 10
11507.965519373791
 20
250.2923502184403
 30
0.0
 40
50.0
  1
機器型番
  0
TEXT
  5
54C5
  8
4
 10
11510.209494195889
 20
360.19021935304221
 30
0.0
 40
50.0
  1
機器名称
  0
LINE
  5
54C8
  8
4
 10
11471.70741334899
 20
428.64719348642939
 30
0.0
 11
12671.70741334899
 21
428.64719348642939
 31
0.0
  0
LINE
  5
54C9
  8
4
 10
11471.70741334899
 20
328.64719348642939
 30
0.0
 11
12671.70741334899
 21
328.64719348642939
 31
0.0
  0
LINE
  5
54CA
  8
4
 10
11471.70741334899
 20
228.64719348642939
 30
0.0
 11
12671.70741334899
 21
228.64719348642939
 31
0.0
  0
LINE
  5
54CB
  8
4
 10
11471.70741334899
 20
428.64719348642939
 30
0.0
 11
11471.707413349
 21
228.64719348642939
 31
0.0
  0
LINE
  5
54CC
  8
4
 10
12671.70741334899
 20
428.64719348642939
 30
0.0
 11
12671.70741334899
 21
228.64719348642939
 31
0.0
  0
LINE
  5
54CD
  8
4
 10
11971.70741334899
 20
428.64719348642939
 30
0.0
 11
11971.70741334899
 21
228.64719348642939
 31
0.0
  0
TEXT
  5
54D0
  8
4
 10
11999.38615883666
 20
351.2189624439979
 30
0.0
 40
50.0
  1
ミツヤ多翼送風機
  0
TEXT
  5
5668
  8
4
 10
12008.36190893447
 20
245.8067777663727
 30
0.0
 40
50.0
  1
MF＃1 1/2-7
  0
TEXT
  5
895B
  8
4
 10
11833.69647599338
 20
2545.5387187150809
 30
0.0
 40
53.999999999999993
  1
天井吊ベッド型
  0
DIMENSION
  5
8D7A
  8
SP
  2
*D52
 10
11392.66505832927
 20
1282.1129045495859
 30
0.0
 11
11367.66505832927
 21
1194.1129045495879
 31
0.0
 70
     0
 13
11500.308678840031
 23
1106.1129045495859
 33
0.0
 14
11749.66505832927
 24
1282.1129045495859
 34
0.0
 50
90.0
  0
DIMENSION
  5
8D7B
  8
SP
  2
*D53
 10
11392.66505832927
 20
1106.1129045495859
 30
0.0
 11
11367.66505832927
 21
933.61290454958851
 31
0.0
 70
     0
 13
11482.66505832927
 23
761.11290454958703
 33
0.0
 14
11500.308678840031
 24
1106.1129045495859
 34
0.0
 50
90.0
  0
DIMENSION
  5
8D7C
  8
SP
  2
*D54
 10
11982.66505832927
 20
691.11290454958612
 30
0.0
 11
11857.66505832927
 21
716.11290454958612
 31
0.0
 70
     0
 13
11732.66505832927
 23
739.20938032224035
 33
0.0
 14
11982.66505832927
 24
761.11290454958612
 34
0.0
  0
DIMENSION
  5
8D7D
  8
SP
  2
*D55
 10
11982.66505832927
 20
621.11290454958339
 30
0.0
 11
11732.66505832927
 21
646.11290454958339
 31
0.0
 70
     0
 13
11482.66505832927
 23
761.11290454958328
 33
0.0
 14
11982.66505832927
 24
761.11290454958612
 34
0.0
  0
LINE
  5
8D7E
  8
1
 10
11672.66505832927
 20
1256.1129045495859
 30
0.0
 11
11792.66505832927
 21
1256.1129045495859
 31
0.0
  0
DIMENSION
  5
8D7F
  8
SP
  2
*D56
 10
11942.66505832927
 20
1353.1129045495859
 30
0.0
 11
11837.66505832927
 21
1378.1129045495859
 31
0.0
 70
     0
 13
11732.66505832927
 23
1315.889323693912
 33
0.0
 14
11942.66505832927
 24
1086.1129045495859
 34
0.0
 50
180.0
  0
ARC
  5
8D80
  8
FUTO
 10
11746.66505832927
 20
1120.1129045495859
 30
0.0
 40
162.0
 50
89.489666755206386
 51
168.45073817644439
  0
ARC
  5
8D81
  8
FUTO
 10
11746.66505832927
 20
1120.1129045495859
 30
0.0
 40
172.0
 50
89.489666755206386
 51
168.45073817644439
  0
LINE
  5
8D82
  8
2
 10
11500.308678840031
 20
1106.1129045495859
 30
0.0
 11
11994.64277839068
 21
1106.1129045495841
 31
0.0
  0
LINE
  5
8D83
  8
1
 10
11650.16505832927
 20
1027.7720225495859
 30
0.0
 11
11815.16508832927
 21
1027.7720225495859
 31
0.0
  0
LINE
  5
8D84
  8
1
 10
11695.569559329269
 20
1029.6619765495859
 30
0.0
 11
11769.816867329269
 21
1029.6619765495859
 31
0.0
  0
LINE
  5
8D85
  8
1
 10
11599.96505832927
 20
1001.112904549586
 30
0.0
 11
11865.365058329269
 21
1001.112904549586
 31
0.0
  0
LINE
  5
8D86
  8
1
 10
11574.96505832927
 20
1026.1129045495859
 30
0.0
 11
11890.365058329269
 21
1026.1129045495859
 31
0.0
  0
LINE
  5
8D87
  8
1
 10
11542.66505832927
 20
851.11290454958475
 30
0.0
 11
11922.66505832927
 21
851.11290454958646
 31
0.0
  0
LINE
  5
8D88
  8
1
 10
11982.66505832927
 20
788.11290454958475
 30
0.0
 11
11482.66505832927
 21
788.11290454958703
 31
0.0
  0
LINE
  5
8D89
  8
1
 10
11982.66505832927
 20
791.11290454958475
 30
0.0
 11
11482.66505832927
 21
791.11290454958703
 31
0.0
  0
LINE
  5
8D8A
  8
FUTO
 10
11982.66505832927
 20
761.1129045495843
 30
0.0
 11
11482.66505832927
 21
761.11290454958703
 31
0.0
  0
ARC
  5
8D8B
  8
FUTO
 10
11712.66505832927
 20
1086.1129045495859
 30
0.0
 40
230.0
 50
270.0
 51
0.39182689926034
  0
ARC
  5
8D8C
  8
FUTO
 10
11712.66505832927
 20
1086.1129045495859
 30
0.0
 40
240.0
 50
270.0
 51
0.39182689926034
  0
CIRCLE
  5
8D8D
  8
2
 10
11732.66505832927
 20
1106.1129045495859
 30
0.0
 40
136.0
  0
ARC
  5
8D8E
  8
1
 10
11732.66505832927
 20
1106.1129045495859
 30
0.0
 40
85.0
 50
0.0
 51
244.1244660000032
  0
DIMENSION
  5
8D8F
  8
SP
  2
*D57
 10
11462.66505832927
 20
856.11291998132845
 30
0.0
 11
11437.66505832927
 21
981.11291226545927
 31
0.0
 70
     0
 13
11500.308678840031
 23
1106.1129045495859
 33
0.0
 14
11532.67061379909
 24
856.11291998132833
 34
0.0
 50
90.0
  0
LINE
  5
8D90
  8
FUTO
 10
11533.66505832927
 20
855.11290454958657
 30
0.0
 11
11533.66505832927
 21
1107.1129045495859
 31
0.0
  0
LINE
  5
8D91
  8
FUTO
 10
11532.66505832927
 20
835.11290454958646
 30
0.0
 11
11532.66505832927
 21
1127.1129045495859
 31
0.0
  0
LINE
  5
8D92
  8
FUTO
 10
11552.66505832927
 20
875.11290454958646
 30
0.0
 11
11552.66505832927
 21
1087.1129045495859
 31
0.0
  0
LINE
  5
8D93
  8
1
 10
11572.66505832927
 20
1172.2129045495849
 30
0.0
 11
11572.66505832927
 21
853.41290454958767
 31
0.0
  0
LINE
  5
8D94
  8
1
 10
11574.96505832927
 20
1172.2129045495849
 30
0.0
 11
11574.96505832927
 21
851.11290454958475
 31
0.0
  0
LINE
  5
8D95
  8
2
 10
11732.66505832927
 20
739.20938032224035
 30
0.0
 11
11732.66505832927
 21
1315.889323693912
 31
0.0
  0
DIMENSION
  5
8D96
  8
SP
  2
*D58
 10
11482.66505832927
 20
691.11290454958328
 30
0.0
 11
11607.66505832927
 21
716.11290454958328
 31
0.0
 70
     0
 13
11732.66505832927
 23
739.20938032224035
 33
0.0
 14
11482.66505832927
 24
761.11290454958328
 34
0.0
  0
LINE
  5
8D97
  8
FUTO
 10
11599.96505832927
 20
1001.112904549586
 30
0.0
 11
11574.96505832927
 21
1026.1129045495859
 31
0.0
  0
LINE
  5
8D98
  8
1
 10
11574.96505832927
 20
902.11290454958657
 30
0.0
 11
11599.96505832927
 21
902.11290454958657
 31
0.0
  0
LINE
  5
8D99
  8
FUTO
 10
11552.66505832927
 20
845.22384590892102
 30
0.0
 11
11712.726168497329
 21
846.11307429874353
 31
0.0
  0
LINE
  5
8D9A
  8
FUTO
 10
11532.67061379909
 20
856.11291998132833
 30
0.0
 11
11712.6706137991
 21
856.11291998132833
 31
0.0
  0
LINE
  5
8D9B
  8
FUTO
 10
11570.365058329269
 20
848.81290454958457
 30
0.0
 11
11570.365058329269
 21
793.41290454958437
 31
0.0
  0
LINE
  5
8D9C
  8
FUTO
 10
11572.66505832927
 20
851.11290454958475
 30
0.0
 11
11572.66505832927
 21
791.11290454958453
 31
0.0
  0
LINE
  5
8D9D
  8
FUTO
 10
11482.66505832927
 20
761.11290454958703
 30
0.0
 11
11482.66505832927
 21
791.11290454958703
 31
0.0
  0
LINE
  5
8D9E
  8
1
 10
11572.66505832927
 20
791.11290454958475
 30
0.0
 11
11542.66505832927
 21
791.11290454958475
 31
0.0
  0
LINE
  5
8D9F
  8
1
 10
11570.365058329269
 20
793.41290454958437
 30
0.0
 11
11542.66505832927
 21
793.41290454958471
 31
0.0
  0
LINE
  5
8DA0
  8
CT
 10
11555.66505832927
 20
799.58779346627807
 30
0.0
 11
11555.66505832927
 21
782.63801563289144
 31
0.0
  0
LINE
  5
8DA1
  8
FUTO
 10
11542.66505832927
 20
793.41290454958437
 30
0.0
 11
11542.66505832927
 21
791.11290454958475
 31
0.0
  0
LINE
  5
8DA2
  8
FUTO
 10
11533.66505832927
 20
854.11290454958657
 30
0.0
 11
11552.66505832927
 21
854.11290454958657
 31
0.0
  0
LINE
  5
8DA3
  8
FUTO
 10
11532.66505832927
 20
855.11290454958657
 30
0.0
 11
11552.66505832927
 21
855.11290454958657
 31
0.0
  0
LINE
  5
8DA4
  8
FUTO
 10
11534.66505832927
 20
857.11290454958646
 30
0.0
 11
11552.66505832927
 21
875.11290454958646
 31
0.0
  0
LINE
  5
8DA5
  8
FUTO
 10
11534.66505832927
 20
855.11290454958657
 30
0.0
 11
11534.66505832927
 21
857.11290454958646
 31
0.0
  0
LINE
  5
8DA6
  8
FUTO
 10
11532.66505832927
 20
835.11290454958646
 30
0.0
 11
11533.66505832927
 21
835.11290454958646
 31
0.0
  0
LINE
  5
8DA7
  8
FUTO
 10
11533.66505832927
 20
835.11290454958646
 30
0.0
 11
11533.66505832927
 21
854.11290454958657
 31
0.0
  0
LINE
  5
8DA8
  8
1
 10
11542.66505832927
 20
853.41290454958573
 30
0.0
 11
11572.66505832927
 21
853.41290454958767
 31
0.0
  0
LINE
  5
8DA9
  8
1
 10
11572.66505832927
 20
851.11290454958453
 30
0.0
 11
11542.66505832927
 21
851.11290454958475
 31
0.0
  0
LINE
  5
8DAA
  8
FUTO
 10
11552.66505832927
 20
845.22384590892102
 30
0.0
 11
11552.66505832927
 21
855.2240002287183
 31
0.0
  0
LINE
  5
8DAB
  8
CT
 10
11555.66505832927
 20
859.58779346627955
 30
0.0
 11
11555.66505832927
 21
842.63801563289303
 31
0.0
  0
LINE
  5
8DAC
  8
FUTO
 10
11542.66505832927
 20
853.41290454958573
 30
0.0
 11
11542.66505832927
 21
848.81290454958469
 31
0.0
  0
LINE
  5
8DAD
  8
1
 10
11654.83189732927
 20
1030.6075335495871
 30
0.0
 11
11670.34189032927
 21
1048.2944005495849
 31
0.0
  0
LINE
  5
8DAE
  8
1
 10
11650.16505832927
 20
1030.6129045495859
 30
0.0
 11
11680.29988432927
 21
1030.6129045495859
 31
0.0
  0
LINE
  5
8DAF
  8
1
 10
11599.96505832927
 20
1001.112904549586
 30
0.0
 11
11599.96505832927
 21
902.11290454958657
 31
0.0
  0
LINE
  5
8DB0
  8
CT
 10
11594.84697065577
 20
1049.0267834948961
 30
0.0
 11
11620.22539012085
 21
1059.538869028928
 31
0.0
  0
CIRCLE
  5
8DB1
  8
1
 10
11607.017441907739
 20
1054.0679577479341
 30
0.0
 40
4.0
  0
LINE
  5
8DB2
  8
1
 10
11650.16505832927
 20
1027.7720225495859
 30
0.0
 11
11650.16505832927
 21
1030.6129045495859
 31
0.0
  0
LINE
  5
8DB3
  8
1
 10
11655.16505832927
 20
1027.7720225495859
 30
0.0
 11
11655.16505832927
 21
1026.1129045495859
 31
0.0
  0
LINE
  5
8DB4
  8
CT
 10
11675.57893727458
 20
968.29481687608597
 30
0.0
 11
11686.09102280861
 21
993.67323634116758
 31
0.0
  0
CIRCLE
  5
8DB5
  8
1
 10
11680.62011152762
 20
980.46528812805195
 30
0.0
 40
4.0
  0
ARC
  5
8DB6
  8
1
 10
11680.299854329271
 20
1035.6129045495859
 30
0.0
 40
5.0
 50
270.0
 51
324.4617609999645
  0
LINE
  5
8DB7
  8
CT
 10
11670.16505832927
 20
1023.894318549585
 30
0.0
 11
11670.16505832927
 21
1032.4813255495851
 31
0.0
  0
ARC
  5
8DB8
  8
1
 10
11732.66505832927
 20
1106.1129045495859
 30
0.0
 40
85.0
 50
236.73178133168611
 51
244.1244660000032
  0
LINE
  5
8DB9
  8
1
 10
11686.04112032927
 20
1035.0484265495861
 30
0.0
 11
11684.368518329269
 21
1032.7066545495859
 31
0.0
  0
LINE
  5
8DBA
  8
1
 10
11690.16505832927
 20
1027.7720225495859
 30
0.0
 11
11690.16505832927
 21
1026.1129045495859
 31
0.0
  0
LINE
  5
8DBB
  8
1
 10
11672.66505832927
 20
1256.1129045495859
 30
0.0
 11
11574.265058329271
 21
1172.2129045495849
 31
0.0
  0
DIMENSION
  5
8DBC
  8
SP
  2
*D59
 10
11532.66505832927
 20
1353.1129045495859
 30
0.0
 11
11632.66505832927
 21
1378.1129045495859
 31
0.0
 70
     0
 13
11732.66505832927
 23
1315.889323693912
 33
0.0
 14
11532.66505832927
 24
1127.1129045495859
 34
0.0
 50
180.0
  0
ARC
  5
8DBD
  8
FUTO
 10
11522.145089007119
 20
1165.641490649514
 30
0.0
 40
57.203726762688042
 50
306.60350367362201
 51
351.67207569821181
  0
ARC
  5
8DBE
  8
FUTO
 10
11516.66505832927
 20
1167.112904549582
 30
0.0
 40
72.753061747871584
 50
304.1996194554676
 51
348.45073817644442
  0
LINE
  5
8DBF
  8
FUTO
 10
11534.66505832927
 20
1105.1129045495859
 30
0.0
 11
11552.66505832927
 21
1087.1129045495859
 31
0.0
  0
LINE
  5
8DC0
  8
FUTO
 10
11533.66505832927
 20
1108.1129045495859
 30
0.0
 11
11552.66505832927
 21
1108.1129045495859
 31
0.0
  0
LINE
  5
8DC1
  8
FUTO
 10
11532.66505832927
 20
1107.1129045495859
 30
0.0
 11
11552.66505832927
 21
1107.1129045495859
 31
0.0
  0
LINE
  5
8DC2
  8
FUTO
 10
11552.66505832927
 20
1106.1129045495859
 30
0.0
 11
11532.66505832927
 21
1106.1129045495859
 31
0.0
  0
LINE
  5
8DC3
  8
FUTO
 10
11533.66505832927
 20
1108.1129045495859
 30
0.0
 11
11533.66505832927
 21
1127.1129045495859
 31
0.0
  0
LINE
  5
8DC4
  8
FUTO
 10
11534.66505832927
 20
1105.1129045495859
 30
0.0
 11
11534.66505832927
 21
1107.1129045495859
 31
0.0
  0
LINE
  5
8DC5
  8
FUTO
 10
11532.66505832927
 20
1127.1129045495859
 30
0.0
 11
11533.66505832927
 21
1127.1129045495859
 31
0.0
  0
ARC
  5
8DC6
  8
FUTO
 10
11562.66505832927
 20
1112.0447479598281
 30
0.0
 40
10.0
 50
129.87296890617091
 51
180.0
  0
LINE
  5
8DC7
  8
FUTO
 10
11552.66505832927
 20
1106.1129045495859
 30
0.0
 11
11552.66505832927
 21
1107.1129045495859
 31
0.0
  0
LINE
  5
8DC8
  8
FUTO
 10
11552.66505832927
 20
1106.1129045495859
 30
0.0
 11
11552.66505832927
 21
1112.0447479598281
 31
0.0
  0
LINE
  5
8DC9
  8
1
 10
11572.66505832927
 20
1172.2129045495849
 30
0.0
 11
11574.265058329271
 21
1172.2129045495849
 31
0.0
  0
LINE
  5
8DCA
  8
CT
 10
11594.84697065577
 20
1163.1990256042729
 30
0.0
 11
11620.22539012085
 21
1152.686940070244
 31
0.0
  0
CIRCLE
  5
8DCB
  8
1
 10
11607.017441907739
 20
1158.1578513512379
 30
0.0
 40
4.0
  0
LINE
  5
8DCC
  8
CT
 10
11675.57893727458
 20
1243.930992223085
 30
0.0
 11
11686.09102280861
 21
1218.5525727580009
 31
0.0
  0
CIRCLE
  5
8DCD
  8
1
 10
11680.62011152762
 20
1231.760520971121
 30
0.0
 40
4.0
  0
LINE
  5
8DCE
  8
1
 10
11892.66505832927
 20
1172.2129045495849
 30
0.0
 11
11892.66505832927
 21
853.41290454958573
 31
0.0
  0
LINE
  5
8DCF
  8
1
 10
11890.365058329269
 20
1172.2129045495849
 30
0.0
 11
11890.365058329269
 21
851.11290454958475
 31
0.0
  0
ARC
  5
8DD0
  8
1
 10
11732.66505832927
 20
1106.1129045495859
 30
0.0
 40
85.000007999999994
 50
295.91772600002218
 51
0.0
  0
LINE
  5
8DD1
  8
1
 10
11892.66505832927
 20
853.41290454958767
 30
0.0
 11
11922.66505832927
 21
853.41290454958573
 31
0.0
  0
LINE
  5
8DD2
  8
1
 10
11894.96505832927
 20
848.81290454958457
 30
0.0
 11
11922.66505832927
 21
848.81290454958469
 31
0.0
  0
LINE
  5
8DD3
  8
1
 10
11894.965058329261
 20
793.41290454958437
 30
0.0
 11
11922.66505832927
 21
793.41290454958471
 31
0.0
  0
LINE
  5
8DD4
  8
1
 10
11892.66505832927
 20
791.11290454958475
 30
0.0
 11
11922.66505832927
 21
791.11290454958475
 31
0.0
  0
LINE
  5
8DD5
  8
FUTO
 10
11892.66505832927
 20
851.11290454958475
 30
0.0
 11
11892.66505832927
 21
791.11290454958453
 31
0.0
  0
LINE
  5
8DD6
  8
FUTO
 10
11894.96505832927
 20
848.81290454958457
 30
0.0
 11
11894.965058329261
 21
793.41290454958437
 31
0.0
  0
ARC
  5
8DD7
  8
1
 10
11785.03026232927
 20
1035.6129045495859
 30
0.0
 40
5.000032
 50
215.53825400000829
 51
270.0
  0
LINE
  5
8DD8
  8
CT
 10
11789.75117938396
 20
968.29481687608597
 30
0.0
 11
11779.23909384993
 21
993.67323634116758
 31
0.0
  0
CIRCLE
  5
8DD9
  8
1
 10
11784.710005130921
 20
980.46528812805195
 30
0.0
 40
4.0
  0
LINE
  5
8DDA
  8
1
 10
11779.296609329271
 20
1035.037766549586
 30
0.0
 11
11780.961597329269
 21
1032.7066545495859
 31
0.0
  0
LINE
  5
8DDB
  8
1
 10
11775.16505832927
 20
1027.7720225495859
 30
0.0
 11
11775.16505832927
 21
1026.1129045495859
 31
0.0
  0
LINE
  5
8DDC
  8
1
 10
11780.173328329271
 20
1033.8102915495861
 30
0.0
 11
11780.961597329269
 21
1032.7066545495859
 31
0.0
  0
LINE
  5
8DDD
  8
1
 10
11810.49942632927
 20
1030.6060805495861
 30
0.0
 11
11794.986366329271
 21
1048.2965425495861
 31
0.0
  0
LINE
  5
8DDE
  8
1
 10
11815.16508832927
 20
1030.6129045495859
 30
0.0
 11
11785.03026232927
 21
1030.6129045495859
 31
0.0
  0
LINE
  5
8DDF
  8
CT
 10
11795.16505832927
 20
1023.894318549585
 30
0.0
 11
11795.16505832927
 21
1032.4813255495851
 31
0.0
  0
LINE
  5
8DE0
  8
1
 10
11815.16508832927
 20
1030.6129045495859
 30
0.0
 11
11815.16508832927
 21
1027.7720225495859
 31
0.0
  0
LINE
  5
8DE1
  8
1
 10
11810.16505832927
 20
1027.7720225495859
 30
0.0
 11
11810.16505832927
 21
1026.1129045495859
 31
0.0
  0
LINE
  5
8DE2
  8
1
 10
11865.365058329269
 20
1001.112904549586
 30
0.0
 11
11865.365058329269
 21
902.11290454958657
 31
0.0
  0
LINE
  5
8DE3
  8
1
 10
11865.365058329269
 20
902.11290454958657
 30
0.0
 11
11890.365058329269
 21
902.11290454958657
 31
0.0
  0
LINE
  5
8DE4
  8
CT
 10
11870.483146002771
 20
1049.0267834948979
 30
0.0
 11
11845.10472653768
 21
1059.538869028928
 31
0.0
  0
LINE
  5
8DE5
  8
FUTO
 10
11865.365058329269
 20
1001.112904549586
 30
0.0
 11
11890.365058329269
 21
1026.1129045495859
 31
0.0
  0
CIRCLE
  5
8DE6
  8
1
 10
11858.312674750799
 20
1054.0679577479341
 30
0.0
 40
4.0
  0
LINE
  5
8DE7
  8
FUTO
 10
11922.66505832927
 20
793.41290454958437
 30
0.0
 11
11922.66505832927
 21
791.11290454958475
 31
0.0
  0
LINE
  5
8DE8
  8
CT
 10
11909.66505832927
 20
799.58779346627807
 30
0.0
 11
11909.66505832927
 21
782.63801563289144
 31
0.0
  0
LINE
  5
8DE9
  8
FUTO
 10
11982.66505832927
 20
761.1129045495843
 30
0.0
 11
11982.66505832927
 21
791.11290454958475
 31
0.0
  0
LINE
  5
8DEA
  8
FUTO
 10
11922.66505832927
 20
853.41290454958573
 30
0.0
 11
11922.66505832927
 21
848.81290454958469
 31
0.0
  0
LINE
  5
8DEB
  8
CT
 10
11909.66505832927
 20
859.58779346627955
 30
0.0
 11
11909.66505832927
 21
842.63801563289303
 31
0.0
  0
ARC
  5
8DEC
  8
FUTO
 10
11749.66505832927
 20
1089.1129045495859
 30
0.0
 40
193.0
 50
359.57208103222172
 51
90.467321704981742
  0
ARC
  5
8DED
  8
FUTO
 10
11749.66505832927
 20
1089.1129045495859
 30
0.0
 40
203.0
 50
359.57208103222172
 51
90.467321704981742
  0
LINE
  5
8DEE
  8
1
 10
11792.66505832927
 20
1256.1129045495859
 30
0.0
 11
11891.06505832927
 21
1172.2129045495849
 31
0.0
  0
CIRCLE
  5
8DEF
  8
1
 10
11784.710005130921
 20
1231.760520971121
 30
0.0
 40
4.0
  0
LINE
  5
8DF0
  8
CT
 10
11789.75117938396
 20
1243.930992223085
 30
0.0
 11
11779.239093849919
 21
1218.552572758003
 31
0.0
  0
LINE
  5
8DF1
  8
CT
 10
11870.483146002771
 20
1163.1990256042729
 30
0.0
 11
11845.10472653768
 21
1152.686940070244
 31
0.0
  0
CIRCLE
  5
8DF2
  8
1
 10
11858.312674750799
 20
1158.1578513512379
 30
0.0
 40
4.0
  0
LINE
  5
8DF3
  8
1
 10
11891.06505832927
 20
1172.2129045495849
 30
0.0
 11
11892.66505832927
 21
1172.2129045495849
 31
0.0
  0
DIMENSION
  5
8DF4
  8
SP
  2
*D60
 10
11353.43190351257
 20
1808.2044952918609
 30
0.0
 11
11328.43190351257
 21
2083.2044952918632
 31
0.0
 70
     0
 13
11482.66505832927
 23
2358.2044952918609
 33
0.0
 14
11482.66505832927
 24
1808.2044952918609
 34
0.0
 50
90.0
  0
LINE
  5
8DF5
  8
FUTO
 10
11588.66505832927
 20
2249.2044952918641
 30
0.0
 11
11876.665058329259
 21
2249.2044952918641
 31
0.0
  0
LINE
  5
8DF6
  8
1
 10
11700.16505832927
 20
2026.4044952918639
 30
0.0
 11
11765.16505832927
 21
2026.4044952918639
 31
0.0
  0
LINE
  5
8DF7
  8
1
 10
11750.16505832927
 20
2031.4044952918621
 30
0.0
 11
11715.16505832927
 21
2031.4044952918621
 31
0.0
  0
LINE
  5
8DF8
  8
2
 10
11975.874770821831
 20
2150.2044952918632
 30
0.0
 11
11522.51744375592
 21
2150.2044952918609
 31
0.0
  0
LINE
  5
8DF9
  8
FUTO
 10
11982.66505832927
 20
2358.2044952918632
 30
0.0
 11
11482.66505832927
 21
2358.2044952918609
 31
0.0
  0
LINE
  5
8DFA
  8
FUTO
 10
11982.66505832927
 20
2328.2044952918632
 30
0.0
 11
11482.66505832927
 21
2328.2044952918609
 31
0.0
  0
LINE
  5
8DFB
  8
1
 10
11930.66505832927
 20
2059.2044952918618
 30
0.0
 11
11552.66505832927
 21
2059.2044952918609
 31
0.0
  0
LINE
  5
8DFC
  8
FUTO
 10
11542.66505832927
 20
2051.2044952918609
 30
0.0
 11
11922.66505832927
 21
2051.2044952918609
 31
0.0
  0
LINE
  5
8DFD
  8
1
 10
11930.66505832927
 20
2060.2044952918618
 30
0.0
 11
11552.66505832927
 21
2060.2044952918609
 31
0.0
  0
LINE
  5
8DFE
  8
1
 10
11930.66505832927
 20
2241.2044952918618
 30
0.0
 11
11552.66505832927
 21
2241.2044952918609
 31
0.0
  0
LINE
  5
8DFF
  8
1
 10
11930.66505832927
 20
2240.2044952918618
 30
0.0
 11
11552.66505832927
 21
2240.2044952918609
 31
0.0
  0
LINE
  5
8E00
  8
1
 10
11732.66505832927
 20
2016.4044952918639
 30
0.0
 11
11806.16505832927
 21
2016.4044952918639
 31
0.0
  0
LINE
  5
8E01
  8
1
 10
11808.16505832927
 20
1993.9044952918639
 30
0.0
 11
11732.66505832927
 21
1993.9044952918639
 31
0.0
  0
LINE
  5
8E02
  8
1
 10
11647.66505832927
 20
1872.4044952918639
 30
0.0
 11
11817.66505832927
 21
1872.4044952918639
 31
0.0
  0
LINE
  5
8E03
  8
1
 10
11732.66505832927
 20
1832.4044952918639
 30
0.0
 11
11816.16505832927
 21
1832.4044952918639
 31
0.0
  0
LINE
  5
8E04
  8
1
 10
11805.44240232927
 20
1798.4044952918639
 30
0.0
 11
11660.038533329271
 21
1798.4044952918639
 31
0.0
  0
LINE
  5
8E05
  8
FUTO
 10
11982.66505832927
 20
1808.2044952918641
 30
0.0
 11
11482.66505832927
 21
1808.2044952918609
 31
0.0
  0
LINE
  5
8E06
  8
FUTO
 10
11982.66505832927
 20
1838.2044952918629
 30
0.0
 11
11482.66505832927
 21
1838.2044952918609
 31
0.0
  0
DIMENSION
  5
8E07
  8
SP
  2
*D61
 10
11982.66505832927
 20
1689.456154018246
 30
0.0
 11
11732.66505832927
 21
1714.456154018246
 31
0.0
 70
     0
 13
11482.66505832927
 23
1808.2044952918609
 33
0.0
 14
11982.66505832927
 24
1808.2044952918629
 34
0.0
 50
180.0
  0
LINE
  5
8E08
  8
1
 10
11699.16505832927
 20
2016.4044952918639
 30
0.0
 11
11699.16505832927
 21
2025.404495291863
 31
0.0
  0
LINE
  5
8E09
  8
2
 10
11732.66505832927
 20
1754.719601196686
 30
0.0
 11
11732.66505832927
 21
2270.4518707331908
 31
0.0
  0
LINE
  5
8E0A
  8
1
 10
11572.66505832927
 20
1838.2044952918609
 30
0.0
 11
11572.66505832927
 21
2060.2044952918609
 31
0.0
  0
LINE
  5
8E0B
  8
FUTO
 10
11542.66505832927
 20
1838.2044952918609
 30
0.0
 11
11542.66505832927
 21
2060.2044952918609
 31
0.0
  0
LINE
  5
8E0C
  8
1
 10
11647.66505832927
 20
1842.204495291865
 30
0.0
 11
11572.66505832927
 21
1842.2044952918629
 31
0.0
  0
LINE
  5
8E0D
  8
FUTO
 10
11482.66505832927
 20
1808.2044952918609
 30
0.0
 11
11482.66505832927
 21
1838.2044952918609
 31
0.0
  0
CIRCLE
  5
8E0E
  8
FUTO
 10
11512.66505832927
 20
1821.2044952918641
 30
0.0
 40
6.5
  0
LINE
  5
8E0F
  8
CT
 10
11524.38740309805
 20
1821.2044952918641
 30
0.0
 11
11500.942713560489
 21
1821.2044952918641
 31
0.0
  0
LINE
  5
8E10
  8
CT
 10
11512.66505832927
 20
1832.9268400606461
 30
0.0
 11
11512.66505832927
 21
1809.4821505230809
 31
0.0
  0
LINE
  5
8E11
  8
FUTO
 10
11542.66505832927
 20
1851.2044952918609
 30
0.0
 11
11572.66505832927
 21
1851.2044952918609
 31
0.0
  0
LINE
  5
8E12
  8
FUTO
 10
11572.66505832927
 20
1851.204495291867
 30
0.0
 11
11542.66505832927
 21
1851.204495291867
 31
0.0
  0
LINE
  5
8E13
  8
1
 10
11659.850055329271
 20
2016.4044952918639
 30
0.0
 11
11668.48006032927
 21
2016.4044952918639
 31
0.0
  0
LINE
  5
8E14
  8
1
 10
11668.59926232927
 20
2016.4044952918639
 30
0.0
 11
11659.59926232927
 21
2016.4044952918639
 31
0.0
  0
LINE
  5
8E15
  8
1
 10
11657.16505832927
 20
1993.9044952918639
 30
0.0
 11
11732.66505832927
 21
1993.9044952918639
 31
0.0
  0
LINE
  5
8E16
  8
1
 10
11732.66505832927
 20
2016.4044952918639
 30
0.0
 11
11659.16505832927
 21
2016.4044952918639
 31
0.0
  0
LINE
  5
8E17
  8
1
 10
11732.66505832927
 20
1832.4044952918639
 30
0.0
 11
11649.16505832927
 21
1832.4044952918639
 31
0.0
  0
LINE
  5
8E18
  8
1
 10
11657.86507032927
 20
1872.4044952918639
 30
0.0
 11
11657.86507032927
 21
1993.9044952918639
 31
0.0
  0
LINE
  5
8E19
  8
1
 10
11647.66505832927
 20
1833.9044952918639
 30
0.0
 11
11647.66505832927
 21
1872.4044952918639
 31
0.0
  0
LINE
  5
8E1A
  8
1
 10
11658.418537329269
 20
1799.6020052918641
 30
0.0
 11
11651.82942532927
 21
1831.606156291863
 31
0.0
  0
ARC
  5
8E1B
  8
1
 10
11650.850055329271
 20
1831.4045562918629
 30
0.0
 40
0.999898
 50
11.62991300000893
 51
90.003496999952887
  0
ARC
  5
8E1C
  8
1
 10
11649.16505832927
 20
1833.9044952918639
 30
0.0
 40
1.4999849999999999
 50
179.99941999999371
 51
270.0
  0
ARC
  5
8E1D
  8
1
 10
11659.16505832927
 20
2014.4044952918639
 30
0.0
 40
2.0
 50
90.0
 51
180.0
  0
LINE
  5
8E1E
  8
1
 10
11657.16505832927
 20
1993.9044952918639
 30
0.0
 11
11657.16505832927
 21
2014.4044952918639
 31
0.0
  0
LINE
  5
8E1F
  8
1
 10
11699.16505832927
 20
2017.204495291865
 30
0.0
 11
11572.66505832927
 21
2017.204495291865
 31
0.0
  0
LINE
  5
8E20
  8
FUTO
 10
11542.66505832927
 20
2240.2044952918609
 30
0.0
 11
11542.66505832927
 21
2328.2044952918609
 31
0.0
  0
LINE
  5
8E21
  8
1
 10
11572.66505832927
 20
2240.2044952918618
 30
0.0
 11
11572.66505832927
 21
2328.2044952918609
 31
0.0
  0
LINE
  5
8E22
  8
1
 10
11533.665058329259
 20
2260.2044952918609
 30
0.0
 11
11533.665058329259
 21
2241.2044952918609
 31
0.0
  0
LINE
  5
8E23
  8
1
 10
11532.66505832927
 20
2260.2044952918609
 30
0.0
 11
11532.66505832927
 21
2040.2044952918629
 31
0.0
  0
LINE
  5
8E24
  8
1
 10
11533.665058329259
 20
2240.2044952918609
 30
0.0
 11
11533.665058329259
 21
2060.2044952918609
 31
0.0
  0
LINE
  5
8E25
  8
1
 10
11552.66505832927
 20
2220.2044952918632
 30
0.0
 11
11552.66505832927
 21
2080.2044952918609
 31
0.0
  0
LINE
  5
8E26
  8
1
 10
11532.66505832927
 20
2060.2044952918609
 30
0.0
 11
11552.66505832927
 21
2060.2044952918609
 31
0.0
  0
LINE
  5
8E27
  8
1
 10
11533.665058329259
 20
2059.2044952918609
 30
0.0
 11
11552.66505832927
 21
2059.2044952918609
 31
0.0
  0
LINE
  5
8E28
  8
1
 10
11534.665058329259
 20
2062.2044952918609
 30
0.0
 11
11552.66505832927
 21
2080.2044952918609
 31
0.0
  0
LINE
  5
8E29
  8
1
 10
11533.665058329259
 20
2059.2044952918609
 30
0.0
 11
11533.665058329259
 21
2040.2044952918629
 31
0.0
  0
LINE
  5
8E2A
  8
1
 10
11532.66505832927
 20
2040.2044952918629
 30
0.0
 11
11533.665058329259
 21
2040.2044952918629
 31
0.0
  0
LINE
  5
8E2B
  8
1
 10
11534.665058329259
 20
2062.2044952918609
 30
0.0
 11
11534.665058329259
 21
2060.2044952918609
 31
0.0
  0
LINE
  5
8E2C
  8
1
 10
11534.665058329259
 20
2238.2044952918609
 30
0.0
 11
11552.66505832927
 21
2220.2044952918609
 31
0.0
  0
LINE
  5
8E2D
  8
1
 10
11532.66505832927
 20
2240.2044952918609
 30
0.0
 11
11552.66505832927
 21
2240.2044952918609
 31
0.0
  0
LINE
  5
8E2E
  8
1
 10
11533.665058329259
 20
2241.2044952918609
 30
0.0
 11
11552.66505832927
 21
2241.2044952918609
 31
0.0
  0
LINE
  5
8E2F
  8
1
 10
11534.665058329259
 20
2240.2044952918609
 30
0.0
 11
11534.665058329259
 21
2238.2044952918609
 31
0.0
  0
LINE
  5
8E30
  8
FUTO
 10
11482.66505832927
 20
2328.20449529186
 30
0.0
 11
11482.66505832927
 21
2358.2044952918609
 31
0.0
  0
LINE
  5
8E31
  8
1
 10
11532.66505832927
 20
2260.2044952918609
 30
0.0
 11
11533.665058329259
 21
2260.2044952918609
 31
0.0
  0
LINE
  5
8E32
  8
CT
 10
11524.38740309805
 20
2345.2044952918632
 30
0.0
 11
11500.942713560489
 21
2345.2044952918632
 31
0.0
  0
CIRCLE
  5
8E33
  8
FUTO
 10
11512.66505832927
 20
2345.2044952918632
 30
0.0
 40
6.5
  0
LINE
  5
8E34
  8
CT
 10
11512.66505832927
 20
2333.4821505230798
 30
0.0
 11
11512.66505832927
 21
2356.9268400606452
 31
0.0
  0
ARC
  5
8E35
  8
1
 10
11588.66505832927
 20
2054.2044952918632
 30
0.0
 40
3.0
 50
180.0
 51
270.0
  0
LINE
  5
8E36
  8
1
 10
11585.66505832927
 20
2056.2044952918632
 30
0.0
 11
11585.66505832927
 21
2054.2044952918632
 31
0.0
  0
LINE
  5
8E37
  8
1
 10
11585.66505832927
 20
2056.2044952918632
 30
0.0
 11
11585.66505832927
 21
2054.2044952918632
 31
0.0
  0
ARC
  5
8E38
  8
1
 10
11582.66505832927
 20
2056.2044952918632
 30
0.0
 40
3.0
 50
0.0
 51
90.0
  0
ARC
  5
8E39
  8
1
 10
11582.66505832927
 20
2244.2044952918609
 30
0.0
 40
3.0
 50
270.0
 51
0.0
  0
LINE
  5
8E3A
  8
1
 10
11585.66505832927
 20
2244.2044952918609
 30
0.0
 11
11585.66505832927
 21
2246.2044952918609
 31
0.0
  0
LINE
  5
8E3B
  8
1
 10
11585.66505832927
 20
2244.2044952918609
 30
0.0
 11
11585.66505832927
 21
2246.2044952918609
 31
0.0
  0
ARC
  5
8E3C
  8
1
 10
11588.66505832927
 20
2246.2044952918609
 30
0.0
 40
3.0
 50
90.0
 51
180.0
  0
ARC
  5
8E3D
  8
1
 10
11700.16505832927
 20
2025.404495291863
 30
0.0
 40
1.0
 50
90.0
 51
180.0
  0
LINE
  5
8E3E
  8
1
 10
11710.16505832927
 20
2051.2044952918609
 30
0.0
 11
11710.16505832927
 21
2036.4044952918621
 31
0.0
  0
LINE
  5
8E3F
  8
1
 10
11710.16505832927
 20
2036.4044952918621
 30
0.0
 11
11715.16505832927
 21
2031.4044952918621
 31
0.0
  0
LINE
  5
8E40
  8
1
 10
11722.16505832927
 20
2031.4044952918639
 30
0.0
 11
11722.16505832927
 21
2026.4044952918639
 31
0.0
  0
LINE
  5
8E41
  8
1
 10
11766.16505832927
 20
2025.404495291863
 30
0.0
 11
11766.16505832927
 21
2016.4044952918639
 31
0.0
  0
LINE
  5
8E42
  8
1
 10
11922.66505832927
 20
1838.2044952918641
 30
0.0
 11
11922.665058329279
 21
2060.2044952918609
 31
0.0
  0
LINE
  5
8E43
  8
1
 10
11892.66505832927
 20
1838.204495291862
 30
0.0
 11
11892.665058329279
 21
2060.2044952918618
 31
0.0
  0
LINE
  5
8E44
  8
1
 10
11922.66505832927
 20
1851.204495291867
 30
0.0
 11
11892.66505832927
 21
1851.204495291867
 31
0.0
  0
LINE
  5
8E45
  8
1
 10
11892.66505832927
 20
1842.20449529187
 30
0.0
 11
11817.66505832927
 21
1842.204495291867
 31
0.0
  0
LINE
  5
8E46
  8
1
 10
11807.465046329269
 20
1872.4044952918639
 30
0.0
 11
11807.465046329269
 21
1993.9044952918639
 31
0.0
  0
LINE
  5
8E47
  8
1
 10
11817.66505832927
 20
1833.9044952918639
 30
0.0
 11
11817.66505832927
 21
1872.4044952918639
 31
0.0
  0
LINE
  5
8E48
  8
1
 10
11806.911579329269
 20
1799.6020052918641
 30
0.0
 11
11813.500691329269
 21
1831.606156291863
 31
0.0
  0
ARC
  5
8E49
  8
1
 10
11816.16505832927
 20
1833.9044952918639
 30
0.0
 40
1.4999849999999999
 50
270.0
 51
0.0005800000062724
  0
ARC
  5
8E4A
  8
1
 10
11814.48006132927
 20
1831.4045562918629
 30
0.0
 40
0.999898
 50
89.996503000047156
 51
168.370086999991
  0
LINE
  5
8E4B
  8
1
 10
11796.730854329269
 20
2016.4044952918639
 30
0.0
 11
11805.730854329269
 21
2016.4044952918639
 31
0.0
  0
LINE
  5
8E4C
  8
1
 10
11805.48006132927
 20
2016.4044952918639
 30
0.0
 11
11796.850056329269
 21
2016.4044952918639
 31
0.0
  0
ARC
  5
8E4D
  8
1
 10
11806.16505832927
 20
2014.4044952918639
 30
0.0
 40
2.0
 50
0.0
 51
90.0
  0
LINE
  5
8E4E
  8
1
 10
11808.16505832927
 20
1993.9044952918639
 30
0.0
 11
11808.16505832927
 21
2014.4044952918639
 31
0.0
  0
LINE
  5
8E4F
  8
CT
 10
11964.38740309805
 20
1821.2044952918641
 30
0.0
 11
11940.942713560489
 21
1821.2044952918641
 31
0.0
  0
CIRCLE
  5
8E50
  8
FUTO
 10
11952.66505832927
 20
1821.2044952918641
 30
0.0
 40
6.5
  0
LINE
  5
8E51
  8
CT
 10
11952.66505832927
 20
1832.9268400606461
 30
0.0
 11
11952.66505832927
 21
1809.4821505230809
 31
0.0
  0
LINE
  5
8E52
  8
FUTO
 10
11982.66505832927
 20
1808.2044952918641
 30
0.0
 11
11982.66505832927
 21
1838.2044952918641
 31
0.0
  0
LINE
  5
8E53
  8
1
 10
11892.66505832927
 20
2240.2044952918618
 30
0.0
 11
11892.665058329279
 21
2328.2044952918618
 31
0.0
  0
LINE
  5
8E54
  8
1
 10
11892.66505832927
 20
2017.2044952918709
 30
0.0
 11
11766.16505832927
 21
2017.2044952918679
 31
0.0
  0
LINE
  5
8E55
  8
1
 10
11755.16505832927
 20
2051.2044952918609
 30
0.0
 11
11755.16505832927
 21
2036.4044952918621
 31
0.0
  0
LINE
  5
8E56
  8
1
 10
11755.16505832927
 20
2039.204495291865
 30
0.0
 11
11755.16505832927
 21
2036.4044952918621
 31
0.0
  0
LINE
  5
8E57
  8
1
 10
11743.16505832927
 20
2031.4044952918639
 30
0.0
 11
11743.16505832927
 21
2026.4044952918639
 31
0.0
  0
LINE
  5
8E58
  8
1
 10
11750.16505832927
 20
2031.4044952918621
 30
0.0
 11
11755.16505832927
 21
2036.4044952918621
 31
0.0
  0
ARC
  5
8E59
  8
1
 10
11765.16505832927
 20
2025.404495291863
 30
0.0
 40
1.0
 50
0.0
 51
90.0
  0
ARC
  5
8E5A
  8
1
 10
11882.66505832927
 20
2056.2044952918632
 30
0.0
 40
3.0
 50
90.0
 51
180.0
  0
LINE
  5
8E5B
  8
1
 10
11879.66505832927
 20
2056.2044952918632
 30
0.0
 11
11879.66505832927
 21
2054.2044952918632
 31
0.0
  0
LINE
  5
8E5C
  8
1
 10
11879.66505832927
 20
2056.2044952918632
 30
0.0
 11
11879.66505832927
 21
2054.2044952918632
 31
0.0
  0
ARC
  5
8E5D
  8
1
 10
11876.665058329259
 20
2054.2044952918632
 30
0.0
 40
3.0
 50
270.0
 51
0.0
  0
ARC
  5
8E5E
  8
1
 10
11876.665058329259
 20
2246.2044952918609
 30
0.0
 40
3.0
 50
0.0
 51
90.0
  0
LINE
  5
8E5F
  8
1
 10
11879.66505832927
 20
2244.2044952918609
 30
0.0
 11
11879.66505832927
 21
2246.2044952918609
 31
0.0
  0
LINE
  5
8E60
  8
1
 10
11879.66505832927
 20
2244.2044952918609
 30
0.0
 11
11879.66505832927
 21
2246.2044952918609
 31
0.0
  0
ARC
  5
8E61
  8
1
 10
11882.66505832927
 20
2244.2044952918609
 30
0.0
 40
3.0
 50
180.0
 51
270.0
  0
LINE
  5
8E62
  8
1
 10
11922.665058329279
 20
2240.2044952918618
 30
0.0
 11
11922.665058329279
 21
2328.2044952918632
 31
0.0
  0
LINE
  5
8E63
  8
FUTO
 10
11942.66505832927
 20
2071.2044952918618
 30
0.0
 11
11942.66505832927
 21
2229.2044952918618
 31
0.0
  0
LINE
  5
8E64
  8
FUTO
 10
11941.66505832927
 20
2071.2044952918618
 30
0.0
 11
11941.66505832927
 21
2229.2044952918618
 31
0.0
  0
ARC
  5
8E65
  8
FUTO
 10
11930.66505832927
 20
2071.2044952918618
 30
0.0
 40
12.0
 50
270.0
 51
0.0
  0
ARC
  5
8E66
  8
FUTO
 10
11930.66505832927
 20
2071.2044952918618
 30
0.0
 40
11.0
 50
270.0
 51
0.0
  0
ARC
  5
8E67
  8
FUTO
 10
11930.66505832927
 20
2229.2044952918618
 30
0.0
 40
12.0
 50
0.0
 51
90.0
  0
ARC
  5
8E68
  8
FUTO
 10
11930.66505832927
 20
2229.2044952918618
 30
0.0
 40
11.0
 50
0.0
 51
90.0
  0
CIRCLE
  5
8E69
  8
FUTO
 10
11952.66505832927
 20
2345.2044952918632
 30
0.0
 40
6.5
  0
LINE
  5
8E6A
  8
CT
 10
11964.38740309805
 20
2345.2044952918632
 30
0.0
 11
11940.942713560489
 21
2345.2044952918632
 31
0.0
  0
LINE
  5
8E6B
  8
CT
 10
11952.66505832927
 20
2333.4821505230798
 30
0.0
 11
11952.66505832927
 21
2356.9268400606452
 31
0.0
  0
LINE
  5
8E6C
  8
FUTO
 10
11982.66505832927
 20
2328.2044952918632
 30
0.0
 11
11982.66505832927
 21
2358.2044952918632
 31
0.0
  0
DIMENSION
  5
8E6D
  8
SP
  2
*D62
 10
12800.071658751771
 20
691.11290454958635
 30
0.0
 11
12696.071658751771
 21
716.11290454958635
 31
0.0
 70
     0
 13
12592.071658751771
 23
822.88425054061099
 33
0.0
 14
12800.071658751771
 24
791.11290454958669
 34
0.0
  0
DIMENSION
  5
8E6E
  8
SP
  2
*D63
 10
12800.071658751771
 20
621.11290454958362
 30
0.0
 11
12525.071658751771
 21
646.11290454958362
 31
0.0
 70
     0
 13
12250.071658751771
 23
791.11290454958385
 33
0.0
 14
12800.071658751771
 24
791.11290454958669
 34
0.0
  0
LINE
  5
8E6F
  8
FUTO
 10
12280.071658751771
 20
761.11290454958271
 30
0.0
 11
12770.071658751771
 21
761.11290454958578
 31
0.0
  0
LINE
  5
8E70
  8
FUTO
 10
12280.071658751771
 20
791.11290454958294
 30
0.0
 11
12770.071658751771
 21
791.11290454958555
 31
0.0
  0
DIMENSION
  5
8E71
  8
SP
  2
*D64
 10
12843.36248281288
 20
981.11290454958487
 30
0.0
 11
12818.36248281288
 21
1106.112904549587
 31
0.0
 70
     0
 13
12691.071658751771
 23
1231.1129045495841
 33
0.0
 14
12691.071658751771
 24
981.11290454958487
 34
0.0
 50
90.0
1001
ACAD
1000
DSTYLE
1002
{
1070
     3
1000
φ<>
1002
}
  0
LINE
  5
8E72
  8
2
 10
12223.983214123869
 20
1106.1129045495841
 30
0.0
 11
12731.51578119493
 21
1106.1129045495841
 31
0.0
  0
DIMENSION
  5
8E73
  8
SP
  2
*D65
 10
12592.071658751771
 20
691.11290454958635
 30
0.0
 11
12421.071658751771
 21
716.11290454958635
 31
0.0
 70
     0
 13
12250.071658751771
 23
791.11290454958385
 33
0.0
 14
12592.071658751771
 24
822.88425054061099
 34
0.0
  0
LINE
  5
8E74
  8
1
 10
12293.071658751771
 20
848.81290454958491
 30
0.0
 11
12493.071658751771
 21
848.81290454958491
 31
0.0
  0
LINE
  5
8E75
  8
FUTO
 10
12293.071658751771
 20
793.41290454958278
 30
0.0
 11
12493.071658751771
 21
793.41290454958403
 31
0.0
  0
DIMENSION
  5
8E76
  8
SP
  2
*D66
 10
12240.27165875177
 20
1441.2126342437921
 30
0.0
 11
12416.171658751769
 21
1466.2126342437921
 31
0.0
 70
     0
  1
（400）
 13
12592.071658751771
 23
1402.112904549585
 33
0.0
 14
12240.27165875177
 24
1178.8902485495851
 34
0.0
  0
LINE
  5
8E77
  8
1
 10
12314.27165875177
 20
1180.912892549585
 30
0.0
 11
12435.77165875177
 21
1180.912892549585
 31
0.0
  0
ARC
  5
8E78
  8
1
 10
12396.22478375177
 20
1043.270253549586
 30
0.0
 40
6.0001939999999996
 50
18.32473400001258
 51
89.998833000023154
  0
LINE
  5
8E79
  8
1
 10
12293.071658751771
 20
853.41290454958425
 30
0.0
 11
12464.471658751771
 21
1150.912904549584
 31
0.0
  0
LINE
  5
8E7A
  8
1
 10
12293.071658751771
 20
853.41290454958425
 30
0.0
 11
12490.77165875177
 21
853.41290454958244
 31
0.0
  0
LINE
  5
8E7B
  8
1
 10
12293.071658751771
 20
851.11290454958487
 30
0.0
 11
12523.071658751771
 21
851.11290454958487
 31
0.0
  0
LINE
  5
8E7C
  8
SL
 10
12263.071658751771
 20
771.61750366088313
 30
0.0
 11
12263.071658751771
 21
1145.0121691856009
 31
0.0
  0
LINE
  5
8E7D
  8
1
 10
12296.214530751769
 20
1056.0294695495841
 30
0.0
 11
12314.27169075177
 21
1065.369367549584
 31
0.0
  0
LINE
  5
8E7E
  8
1
 10
12240.27165875177
 20
1178.8902485495851
 30
0.0
 11
12240.27165875177
 21
1033.4863795495851
 31
0.0
  0
LINE
  5
8E7F
  8
1
 10
12274.27165875177
 20
1029.112904549585
 30
0.0
 11
12274.27165875177
 21
1189.612904549585
 31
0.0
  0
LINE
  5
8E80
  8
2
 10
12373.27165875177
 20
1186.396779549586
 30
0.0
 11
12373.27165875177
 21
1022.096791549585
 31
0.0
  0
LINE
  5
8E81
  8
1
 10
12293.071658751771
 20
853.41290454958425
 30
0.0
 11
12293.071658751771
 21
791.11290454958294
 31
0.0
  0
INSERT
  5
8E82
  8
FUTO
  2
L-30-3
 10
12378.18862910922
 20
906.36174629882771
 30
0.0
 41
-1.0
 50
90.0
  0
LINE
  5
8E83
  8
1
 10
12342.39971075177
 20
1038.4443255495851
 30
0.0
 11
12314.27165875177
 21
1038.4443255495851
 31
0.0
  0
LINE
  5
8E84
  8
1
 10
12284.071658751771
 20
1026.1129045495859
 30
0.0
 11
12392.57007891984
 21
1026.1129045495879
 31
0.0
  0
LINE
  5
8E85
  8
1
 10
12395.16268396186
 20
1030.6129045495841
 30
0.0
 11
12308.27165875177
 21
1030.6129045495841
 31
0.0
  0
LINE
  5
8E86
  8
1
 10
12393.722347827401
 20
1028.112904549585
 30
0.0
 11
12308.27165875177
 21
1028.112904549585
 31
0.0
  0
LINE
  5
8E87
  8
1
 10
12284.071658751771
 20
974.11290454958669
 30
0.0
 11
12317.37165875177
 21
902.11290454958305
 31
0.0
  0
LINE
  5
8E88
  8
1
 10
12293.071658751771
 20
853.41290454958425
 30
0.0
 11
12293.071658751771
 21
851.11290454958487
 31
0.0
  0
LINE
  5
8E89
  8
1
 10
12296.214530751769
 20
1028.112904549585
 30
0.0
 11
12275.27165875177
 21
1028.112904549585
 31
0.0
  0
LINE
  5
8E8A
  8
1
 10
12274.27165875177
 20
1029.112904549585
 30
0.0
 11
12241.639822751769
 21
1031.992177549585
 31
0.0
  0
ARC
  5
8E8B
  8
1
 10
12241.77165875177
 20
1033.4863795495851
 30
0.0
 40
1.4999849999999999
 50
180.0
 51
264.95834400001871
  0
ARC
  5
8E8C
  8
1
 10
12275.27165875177
 20
1029.112904549585
 30
0.0
 40
1.000030999999999
 50
180.0
 51
269.99826000003299
  0
LINE
  5
8E8D
  8
1
 10
12284.071658751771
 20
1026.1129045495841
 30
0.0
 11
12284.071658751771
 21
974.11290454958862
 31
0.0
  0
LINE
  5
8E8E
  8
1
 10
12296.214530751769
 20
1031.312917549584
 30
0.0
 11
12308.258658751771
 21
1031.312917549584
 31
0.0
  0
LINE
  5
8E8F
  8
1
 10
12296.214530751769
 20
1056.0294695495841
 30
0.0
 11
12296.214530751769
 21
1028.109303549584
 31
0.0
  0
LINE
  5
8E90
  8
1
 10
12307.948416751769
 20
1031.3128565495849
 30
0.0
 11
12308.258658751771
 21
1031.3128565495849
 31
0.0
  0
ARC
  5
8E91
  8
1
 10
12314.27165875177
 20
1032.4443255495851
 30
0.0
 40
6.0
 50
90.0
 51
180.0
  0
LINE
  5
8E92
  8
1
 10
12310.77165875177
 20
1063.559009549585
 30
0.0
 11
12310.77165875177
 21
1037.3177225495849
 31
0.0
  0
LINE
  5
8E93
  8
1
 10
12313.27165875177
 20
1028.112904549585
 30
0.0
 11
12313.27165875177
 21
1026.1129045495841
 31
0.0
  0
LINE
  5
8E94
  8
1
 10
12308.27165875177
 20
1028.112904549585
 30
0.0
 11
12308.27165875177
 21
1032.4443255495851
 31
0.0
  0
LINE
  5
8E95
  8
1
 10
12373.27165875177
 20
1049.270375549585
 30
0.0
 11
12350.318472751769
 21
1049.270375549585
 31
0.0
  0
LINE
  5
8E96
  8
1
 10
12373.27165875177
 20
1028.112904549585
 30
0.0
 11
12339.27165875177
 21
1028.112904549585
 31
0.0
  0
ARC
  5
8E97
  8
1
 10
12336.19493775177
 20
1035.6129045495841
 30
0.0
 40
5.0
 50
270.0
 51
341.67651400002268
  0
LINE
  5
8E98
  8
CT
 10
12323.27165875177
 20
1034.3248185495841
 30
0.0
 11
12323.27165875177
 21
1018.812904549583
 31
0.0
  0
LINE
  5
8E99
  8
1
 10
12344.62267275177
 20
1045.1567285495851
 30
0.0
 11
12340.941458751769
 21
1034.041005549584
 31
0.0
  0
ARC
  5
8E9A
  8
1
 10
12350.31865675177
 20
1043.270253549586
 30
0.0
 40
6.0001220000000002
 50
90.001166999976832
 51
161.67526199998079
  0
LINE
  5
8E9B
  8
1
 10
12343.27165875177
 20
1028.112904549585
 30
0.0
 11
12343.27165875177
 21
1026.1129045495841
 31
0.0
  0
LINE
  5
8E9C
  8
1
 10
12373.27165875177
 20
1049.270375549585
 30
0.0
 11
12396.22484475177
 21
1049.270375549585
 31
0.0
  0
LINE
  5
8E9D
  8
1
 10
12241.46916875177
 20
1180.359425549585
 30
0.0
 11
12273.473319751771
 21
1186.9485375495849
 31
0.0
  0
LINE
  5
8E9E
  8
1
 10
12314.27165875177
 20
1065.3693509978809
 30
0.0
 11
12314.27165875177
 21
1191.1129045495841
 31
0.0
  0
ARC
  5
8E9F
  8
1
 10
12241.77165875177
 20
1178.8902485495851
 30
0.0
 40
1.499994
 50
101.6341020000517
 51
180.0
  0
LINE
  5
8EA0
  8
1
 10
12275.77165875177
 20
1191.1129045495841
 30
0.0
 11
12314.27165875177
 21
1191.1129045495841
 31
0.0
  0
ARC
  5
8EA1
  8
1
 10
12273.27171975177
 20
1187.927907549584
 30
0.0
 40
0.999898
 50
281.62991300003551
 51
0.0034970000049811
  0
ARC
  5
8EA2
  8
1
 10
12275.77165875177
 20
1189.612904549585
 30
0.0
 40
1.4999849999999999
 50
89.999420000045831
 51
180.0
  0
LINE
  5
8EA3
  8
1
 10
12691.071658751771
 20
1250.112904549585
 30
0.0
 11
12691.071658751771
 21
962.11290454958498
 31
0.0
  0
LINE
  5
8EA4
  8
1
 10
12490.77165875177
 20
1256.1129045495829
 30
0.0
 11
12490.77165875177
 21
853.41290454958244
 31
0.0
  0
LINE
  5
8EA5
  8
1
 10
12493.071658751771
 20
1256.112904549585
 30
0.0
 11
12493.071658751771
 21
791.1129045495843
 31
0.0
  0
LINE
  5
8EA6
  8
1
 10
12683.071658751771
 20
855.11290454958817
 30
0.0
 11
12683.071658751771
 21
1106.1129045495841
 31
0.0
  0
LINE
  5
8EA7
  8
1
 10
12682.071658751771
 20
856.11290454958805
 30
0.0
 11
12682.071658751771
 21
1106.1129045495841
 31
0.0
  0
LINE
  5
8EA8
  8
1
 10
12703.071658751771
 20
847.11290454958896
 30
0.0
 11
12703.071658751771
 21
1102.1129045495841
 31
0.0
  0
LINE
  5
8EA9
  8
2
 10
12592.071658751771
 20
1345.375030349602
 30
0.0
 11
12592.071658751771
 21
822.88425054061099
 31
0.0
  0
LINE
  5
8EAA
  8
1
 10
12501.071658751771
 20
855.11290454958726
 30
0.0
 11
12501.071658751771
 21
1107.112904549585
 31
0.0
  0
LINE
  5
8EAB
  8
1
 10
12502.071658751771
 20
856.11290454958726
 30
0.0
 11
12502.071658751771
 21
1106.1129045495841
 31
0.0
  0
LINE
  5
8EAC
  8
1
 10
12501.071658751771
 20
855.11290454958726
 30
0.0
 11
12683.071658751771
 21
855.11290454958817
 31
0.0
  0
LINE
  5
8EAD
  8
1
 10
12502.071658751771
 20
856.11290454958726
 30
0.0
 11
12682.071658751771
 21
856.11290454958726
 31
0.0
  0
LINE
  5
8EAE
  8
1
 10
12493.071658751771
 20
835.11290454958635
 30
0.0
 11
12691.071658751771
 21
835.11290454958908
 31
0.0
  0
LINE
  5
8EAF
  8
1
 10
12401.92064575177
 20
1045.1567285495851
 30
0.0
 11
12402.51240596951
 21
1043.369860776399
 31
0.0
  0
LINE
  5
8EB0
  8
1
 10
12493.071658751771
 20
853.41290454958244
 30
0.0
 11
12523.071658751771
 21
853.41290454958425
 31
0.0
  0
LINE
  5
8EB1
  8
1
 10
12523.071658751771
 20
853.41290454958244
 30
0.0
 11
12523.071658751771
 21
851.11290454958487
 31
0.0
  0
ARC
  5
8EB2
  8
1
 10
12498.071658751771
 20
956.11290454958487
 30
0.0
 40
3.0
 50
0.0
 51
90.0
  0
LINE
  5
8EB3
  8
1
 10
12498.071658751771
 20
959.11290454958487
 30
0.0
 11
12496.071658751771
 21
959.11290454958487
 31
0.0
  0
ARC
  5
8EB4
  8
1
 10
12496.071658751771
 20
962.11290454958498
 30
0.0
 40
3.0
 50
180.0
 51
270.0
  0
ARC
  5
8EB5
  8
1
 10
12691.071658751771
 20
847.11290454958851
 30
0.0
 40
12.0
 50
270.0
 51
0.0
  0
LINE
  5
8EB6
  8
FUTO
 10
12682.071658751771
 20
981.11290454958487
 30
0.0
 11
12691.071658751771
 21
981.11290454958487
 31
0.0
  0
LINE
  5
8EB7
  8
1
 10
12686.071658751771
 20
959.11290454958487
 30
0.0
 11
12688.071658751771
 21
959.11290454958487
 31
0.0
  0
ARC
  5
8EB8
  8
1
 10
12686.071658751771
 20
956.11290454958487
 30
0.0
 40
3.0
 50
90.0
 51
180.0
  0
ARC
  5
8EB9
  8
1
 10
12688.071658751771
 20
962.11290454958498
 30
0.0
 40
3.0
 50
270.0
 51
0.0
  0
DIMENSION
  5
8EBA
  8
SP
  2
*D67
 10
12682.071658751771
 20
1362.112904549585
 30
0.0
 11
12592.071658751771
 21
1387.112904549585
 31
0.0
 70
     0
 13
12502.071658751771
 23
1271.112904549585
 33
0.0
 14
12682.071658751771
 24
1271.112904549585
 34
0.0
  0
LINE
  5
8EBB
  8
1
 10
12513.071658751771
 20
1283.112904549585
 30
0.0
 11
12671.071658751771
 21
1283.112904549585
 31
0.0
  0
LINE
  5
8EBC
  8
1
 10
12513.071658751771
 20
1282.112904549585
 30
0.0
 11
12671.071658751771
 21
1282.112904549585
 31
0.0
  0
LINE
  5
8EBD
  8
1
 10
12464.471658751771
 20
1150.912904549584
 30
0.0
 11
12490.77165875177
 21
1172.2129045495831
 31
0.0
  0
LINE
  5
8EBE
  8
1
 10
12435.77165875177
 20
1181.612904549585
 30
0.0
 11
12456.27165875177
 21
1181.612904549585
 31
0.0
  0
LINE
  5
8EBF
  8
1
 10
12435.77165875177
 20
1181.612904549585
 30
0.0
 11
12435.77165875177
 21
1101.0981437561161
 31
0.0
  0
LINE
  5
8EC0
  8
1
 10
12458.27165875177
 20
1178.927907549584
 30
0.0
 11
12458.27165875177
 21
1170.2979025495849
 31
0.0
  0
LINE
  5
8EC1
  8
1
 10
12458.27165875177
 20
1170.1787005495851
 30
0.0
 11
12458.27165875177
 21
1179.1787005495851
 31
0.0
  0
ARC
  5
8EC2
  8
1
 10
12456.27165875177
 20
1179.6129045495841
 30
0.0
 40
2.0
 50
0.0
 51
90.0
  0
LINE
  5
8EC3
  8
1
 10
12458.27165875177
 20
1140.151527653433
 30
0.0
 11
12458.27165875177
 21
1179.6129045495841
 31
0.0
  0
LINE
  5
8EC4
  8
1
 10
12501.071658751771
 20
1271.112904549585
 30
0.0
 11
12501.071658751771
 21
1106.1129045495841
 31
0.0
  0
LINE
  5
8EC5
  8
1
 10
12502.071658751771
 20
1271.112904549585
 30
0.0
 11
12502.071658751771
 21
1106.1129045495841
 31
0.0
  0
ARC
  5
8EC6
  8
1
 10
12513.071658751771
 20
1271.112904549585
 30
0.0
 40
11.0
 50
90.0
 51
180.0
  0
ARC
  5
8EC7
  8
1
 10
12513.071658751771
 20
1271.112904549585
 30
0.0
 40
12.0
 50
90.0
 51
180.0
  0
LINE
  5
8EC8
  8
1
 10
12498.071658751771
 20
1253.112904549585
 30
0.0
 11
12496.071658751771
 21
1253.112904549585
 31
0.0
  0
ARC
  5
8EC9
  8
1
 10
12496.071658751771
 20
1250.112904549585
 30
0.0
 40
3.0
 50
90.0
 51
180.0
  0
ARC
  5
8ECA
  8
1
 10
12498.071658751771
 20
1256.112904549585
 30
0.0
 40
3.0
 50
270.0
 51
0.0
  0
LINE
  5
8ECB
  8
1
 10
12490.77165875177
 20
1256.112904549585
 30
0.0
 11
12493.071658751771
 21
1256.112904549585
 31
0.0
  0
LINE
  5
8ECC
  8
1
 10
12501.071658751771
 20
1256.112904549585
 30
0.0
 11
12501.071658751771
 21
1271.112904549585
 31
0.0
  0
DIMENSION
  5
8ECD
  8
SP
  2
*D68
 10
12691.071658751771
 20
1441.2126342437921
 30
0.0
 11
12641.571658751771
 21
1466.2126342437921
 31
0.0
 70
     0
 13
12592.071658751771
 23
1402.112904549585
 33
0.0
 14
12691.071658751771
 24
1250.112904549585
 34
0.0
  0
LINE
  5
8ECE
  8
1
 10
12683.071658751771
 20
1256.112904549585
 30
0.0
 11
12683.071658751771
 21
1106.1129045495841
 31
0.0
  0
LINE
  5
8ECF
  8
1
 10
12683.071658751771
 20
1106.1129045495841
 30
0.0
 11
12683.071658751771
 21
1271.112904549585
 31
0.0
  0
LINE
  5
8ED0
  8
1
 10
12682.071658751771
 20
1106.1129045495841
 30
0.0
 11
12682.071658751771
 21
1271.112904549585
 31
0.0
  0
ARC
  5
8ED1
  8
FUTO
 10
12678.071658751771
 20
1102.1129045495841
 30
0.0
 40
25.0
 50
0.0
 51
58.667748502384669
  0
LINE
  5
8ED2
  8
1
 10
12686.071658751771
 20
1253.112904549585
 30
0.0
 11
12688.071658751771
 21
1253.112904549585
 31
0.0
  0
LINE
  5
8ED3
  8
FUTO
 10
12682.071658751771
 20
1231.1129045495841
 30
0.0
 11
12691.071658751771
 21
1231.1129045495841
 31
0.0
  0
ARC
  5
8ED4
  8
1
 10
12686.071658751771
 20
1256.112904549585
 30
0.0
 40
3.0
 50
180.0
 51
270.0
  0
ARC
  5
8ED5
  8
1
 10
12671.071658751771
 20
1271.112904549585
 30
0.0
 40
12.0
 50
0.0
 51
90.0
  0
ARC
  5
8ED6
  8
1
 10
12671.071658751771
 20
1271.112904549585
 30
0.0
 40
11.0
 50
0.0
 51
90.0
  0
LINE
  5
8ED7
  8
1
 10
12683.071658751771
 20
1256.112904549585
 30
0.0
 11
12683.071658751771
 21
1271.112904549585
 31
0.0
  0
ARC
  5
8ED8
  8
1
 10
12688.071658751771
 20
1250.112904549585
 30
0.0
 40
3.0
 50
0.0
 51
90.0
  0
LINE
  5
8ED9
  8
SL
 10
12787.071658751771
 20
771.61750366088313
 30
0.0
 11
12787.071658751771
 21
1145.0121691856009
 31
0.0
  0
INSERT
  5
8EDA
  8
FUTO
  2
L-30-3
 10
12671.95468839432
 20
906.36174629883055
 30
0.0
 50
270.0
  0
ENDSEC
  0
EOF
