  0
SECTION
  2
HEADER
  9
$ACADVER
  1
AC1009
  9
$INSBASE
 10
0.0
 20
0.0
 30
0.0
  9
$EXTMIN
 10
-5665.2949403355578
 20
96.092404061039815
 30
0.0
  9
$EXTMAX
 10
-3565.2949403355578
 20
3046.0924040610389
 30
0.0
  9
$LIMMIN
 10
0.0
 20
0.0
  9
$LIMMAX
 10
297.0
 20
210.0
  9
$ORTHOMODE
 70
     0
  9
$REGENMODE
 70
     1
  9
$FILLMODE
 70
     1
  9
$QTEXTMODE
 70
     0
  9
$MIRRTEXT
 70
     0
  9
$DRAGMODE
 70
     2
  9
$LTSCALE
 40
50.0
  9
$OSMODE
 70
   545
  9
$ATTMODE
 70
     1
  9
$TEXTSIZE
 40
3.5
  9
$TRACEWID
 40
0.05
  9
$TEXTSTYLE
  7
STANDARD
  9
$CLAYER
  8
SP
  9
$CELTYPE
  6
BYLAYER
  9
$CECOLOR
 62
   256
  9
$DIMSCALE
 40
10.0
  9
$DIMASZ
 40
2.5
  9
$DIMEXO
 40
1.0
  9
$DIMDLI
 40
7.0
  9
$DIMRND
 40
0.0
  9
$DIMDLE
 40
0.0
  9
$DIMEXE
 40
1.0
  9
$DIMTP
 40
0.0
  9
$DIMTM
 40
0.0
  9
$DIMTXT
 40
3.0
  9
$DIMCEN
 40
0.0
  9
$DIMTSZ
 40
0.0
  9
$DIMTOL
 70
     0
  9
$DIMLIM
 70
     0
  9
$DIMTIH
 70
     0
  9
$DIMTOH
 70
     0
  9
$DIMSE1
 70
     0
  9
$DIMSE2
 70
     0
  9
$DIMTAD
 70
     1
  9
$DIMZIN
 70
     8
  9
$DIMBLK
  1

  9
$DIMASO
 70
     1
  9
$DIMSHO
 70
     1
  9
$DIMPOST
  1

  9
$DIMAPOST
  1

  9
$DIMALT
 70
     0
  9
$DIMALTD
 70
     2
  9
$DIMALTF
 40
0.03937
  9
$DIMLFAC
 40
1.0
  9
$DIMTOFL
 70
     1
  9
$DIMTVP
 40
0.0
  9
$DIMTIX
 70
     0
  9
$DIMSOXD
 70
     0
  9
$DIMSAH
 70
     1
  9
$DIMBLK1
  1
OPEN
  9
$DIMBLK2
  1
OPEN
  9
$DIMSTYLE
  2
GOD
  9
$DIMCLRD
 70
   256
  9
$DIMCLRE
 70
   256
  9
$DIMCLRT
 70
   256
  9
$DIMTFAC
 40
1.0
  9
$DIMGAP
 40
1.0
  9
$LUNITS
 70
     2
  9
$LUPREC
 70
     3
  9
$SKETCHINC
 40
0.1
  9
$FILLETRAD
 40
0.0
  9
$AUNITS
 70
     0
  9
$AUPREC
 70
     2
  9
$MENU
  1
acad
  9
$ELEVATION
 40
0.0
  9
$PELEVATION
 40
0.0
  9
$THICKNESS
 40
0.0
  9
$LIMCHECK
 70
     0
  9
$BLIPMODE
 70
     0
  9
$CHAMFERA
 40
0.0
  9
$CHAMFERB
 40
0.0
  9
$SKPOLY
 70
     0
  9
$TDCREATE
 40
2454940.4140922911
  9
$TDUPDATE
 40
2454953.8286575801
  9
$TDINDWG
 40
0.1018359954
  9
$TDUSRTIMER
 40
0.1018359954
  9
$USRTIMER
 70
     1
  9
$ANGBASE
 50
0.0
  9
$ANGDIR
 70
     0
  9
$PDMODE
 70
     0
  9
$PDSIZE
 40
1.0
  9
$PLINEWID
 40
0.0
  9
$COORDS
 70
     2
  9
$SPLFRAME
 70
     0
  9
$SPLINETYPE
 70
     6
  9
$SPLINESEGS
 70
     8
  9
$ATTDIA
 70
     0
  9
$ATTREQ
 70
     1
  9
$HANDLING
 70
 22529
  9
$HANDSEED
  5
8AE0
  9
$SURFTAB1
 70
     6
  9
$SURFTAB2
 70
     6
  9
$SURFTYPE
 70
     6
  9
$SURFU
 70
     6
  9
$SURFV
 70
     6
  9
$UCSNAME
  2

  9
$UCSORG
 10
0.0
 20
0.0
 30
0.0
  9
$UCSXDIR
 10
1.0
 20
0.0
 30
0.0
  9
$UCSYDIR
 10
0.0
 20
1.0
 30
0.0
  9
$PUCSNAME
  2

  9
$PUCSORG
 10
0.0
 20
0.0
 30
0.0
  9
$PUCSXDIR
 10
1.0
 20
0.0
 30
0.0
  9
$PUCSYDIR
 10
0.0
 20
1.0
 30
0.0
  9
$USERI1
 70
     0
  9
$USERI2
 70
     0
  9
$USERI3
 70
     0
  9
$USERI4
 70
     0
  9
$USERI5
 70
     0
  9
$USERR1
 40
0.0
  9
$USERR2
 40
0.0
  9
$USERR3
 40
0.0
  9
$USERR4
 40
0.0
  9
$USERR5
 40
0.0
  9
$WORLDVIEW
 70
     1
  9
$SHADEDGE
 70
     3
  9
$SHADEDIF
 70
    70
  9
$TILEMODE
 70
     1
  9
$MAXACTVP
 70
    16
  9
$PLIMCHECK
 70
     0
  9
$PEXTMIN
 10
1.0000000000000000E+020
 20
1.0000000000000000E+020
 30
1.0000000000000000E+020
  9
$PEXTMAX
 10
-1.0000000000000000E+020
 20
-1.0000000000000000E+020
 30
-1.0000000000000000E+020
  9
$PLIMMIN
 10
0.0
 20
0.0
  9
$PLIMMAX
 10
12.0
 20
9.0
  9
$UNITMODE
 70
     0
  9
$VISRETAIN
 70
     0
  9
$PLINEGEN
 70
     0
  9
$PSLTSCALE
 70
     0
  0
ENDSEC
  0
SECTION
  2
TABLES
  0
TABLE
  2
VPORT
 70
     2
  0
VPORT
  2
*ACTIVE
 70
     0
 10
0.0
 20
0.0
 11
1.0
 21
1.0
 12
-4428.3709915112631
 22
1570.9922173425889
 13
0.0
 23
0.0
 14
5.0
 24
5.0
 15
0.0
 25
0.0
 16
0.0
 26
0.0
 36
1.0
 17
0.0
 27
0.0
 37
0.0
 40
2973.5140066120161
 41
1.6307901907356941
 42
50.0
 43
0.0
 44
0.0
 50
0.0
 51
0.0
 71
     0
 72
   100
 73
     1
 74
     0
 75
     0
 76
     0
 77
     0
 78
     0
  0
ENDTAB
  0
TABLE
  2
LTYPE
 70
     4
  0
LTYPE
  2
CONTINUOUS
 70
     0
  3
Solid line
 72
    65
 73
     0
 40
0.0
  0
LTYPE
  2
CENTER
 70
     0
  3
____ _ ____ _ ____ _ ____ _ ____ _ ____ _ ____ 
 72
    65
 73
     4
 40
2.0
 49
1.25
 49
-0.25
 49
0.25
 49
-0.25
  0
LTYPE
  2
HIDDEN
 70
     0
  3
__ __ __ __ __ __ __ __ __ __ __ __ __ __ __ __
 72
    65
 73
     2
 40
0.375
 49
0.25
 49
-0.125
  0
LTYPE
  2
PHANTOM
 70
     0
  3
______  __  __  ______  __  __  ______  __  __ 
 72
    65
 73
     6
 40
2.5
 49
1.25
 49
-0.25
 49
0.25
 49
-0.25
 49
0.25
 49
-0.25
  0
ENDTAB
  0
TABLE
  2
LAYER
 70
    13
  0
LAYER
  2
0
 70
     0
 62
     7
  6
CONTINUOUS
  0
LAYER
  2
CT
 70
     0
 62
     3
  6
CENTER
  0
LAYER
  2
FUTO
 70
     0
 62
     4
  6
CONTINUOUS
  0
LAYER
  2
HOSO
 70
     0
 62
     7
  6
CONTINUOUS
  0
LAYER
  2
KL
 70
     0
 62
     7
  6
HIDDEN
  0
LAYER
  2
MOJI
 70
     0
 62
     3
  6
CONTINUOUS
  0
LAYER
  2
SL
 70
     0
 62
     1
  6
PHANTOM
  0
LAYER
  2
SP
 70
     0
 62
     2
  6
CONTINUOUS
  0
LAYER
  2
DEFPOINTS
 70
     0
 62
     7
  6
CONTINUOUS
  0
LAYER
  2
3
 70
     0
 62
     2
  6
CONTINUOUS
  0
LAYER
  2
2
 70
     0
 62
     3
  6
CENTER
  0
LAYER
  2
1
 70
     0
 62
     4
  6
CONTINUOUS
  0
LAYER
  2
4
 70
     0
 62
     7
  6
CONTINUOUS
  0
ENDTAB
  0
TABLE
  2
STYLE
 70
     2
  0
STYLE
  2
STANDARD
 70
     0
 40
0.0
 41
1.0
 50
15.0
 71
     0
 42
3.5
  3
C:\Program Files\AutoCAD LT\simplex.shx
  4
C:\Program Files\AutoCAD LT\extfont.shx
  0
STYLE
  2
SUNPOU
 70
     0
 40
0.0
 41
1.0
 50
15.0
 71
     0
 42
30.0
  3
simplex.shx
  4
extfont.shx
  0
ENDTAB
  0
TABLE
  2
VIEW
 70
     0
  0
ENDTAB
  0
TABLE
  2
UCS
 70
     0
  0
ENDTAB
  0
TABLE
  2
APPID
 70
     1
  0
APPID
  2
ACAD
 70
     0
  0
ENDTAB
  0
TABLE
  2
DIMSTYLE
 70
     4
  0
DIMSTYLE
  2
STANDARD
 70
     0
  3

  4

  5

  6

  7

 40
1.0
 41
0.18
 42
0.0625
 43
0.38
 44
0.18
 45
0.0
 46
0.0
 47
0.0
 48
0.0
140
0.18
141
0.09
142
0.0
143
25.399999999999999
144
1.0
145
0.0
146
1.0
147
0.09
 71
     0
 72
     0
 73
     1
 74
     1
 75
     0
 76
     0
 77
     0
 78
     0
170
     0
171
     2
172
     0
173
     0
174
     0
175
     0
176
     0
177
     0
178
     0
  0
DIMSTYLE
  2
GOD
 70
     0
  3

  4

  5

  6
OPEN
  7
OPEN
 40
10.0
 41
2.5
 42
1.0
 43
7.0
 44
1.0
 45
0.0
 46
0.0
 47
0.0
 48
0.0
140
3.0
141
0.0
142
0.0
143
0.03937
144
1.0
145
0.0
146
1.0
147
1.0
 71
     0
 72
     0
 73
     0
 74
     0
 75
     0
 76
     0
 77
     1
 78
     8
170
     0
171
     2
172
     1
173
     1
174
     0
175
     0
176
   256
177
   256
178
   256
  0
DIMSTYLE
  2
IGA
 70
     0
  3

  4

  5

  6
OPEN
  7
OPEN
 40
2.0
 41
2.0
 42
0.5
 43
10.0
 44
1.0
 45
0.0
 46
0.0
 47
1.0
 48
1.0
140
3.0
141
0.0
142
0.0
143
0.03937
144
1.0
145
0.0
146
10.0
147
1.0
 71
     0
 72
     0
 73
     0
 74
     0
 75
     0
 76
     0
 77
     1
 78
     8
170
     0
171
     2
172
     0
173
     1
174
     0
175
     0
176
     0
177
     0
178
     0
  0
DIMSTYLE
  2
MATSU
 70
     0
  3

  4

  5

  6
OPEN
  7
OPEN
 40
1.0
 41
2.0
 42
1.0
 43
10.0
 44
1.0
 45
0.0
 46
0.0
 47
0.0
 48
0.0
140
3.0
141
0.0
142
0.0
143
0.03937
144
1.0
145
0.0
146
1.0
147
0.5
 71
     0
 72
     0
 73
     0
 74
     0
 75
     0
 76
     0
 77
     1
 78
     8
170
     0
171
     2
172
     1
173
     1
174
     0
175
     0
176
   256
177
   256
178
   256
  0
ENDTAB
  0
ENDSEC
  0
SECTION
  2
BLOCKS
  0
BLOCK
  8
0
  2
$MODEL_SPACE
 70
     0
 10
0.0
 20
0.0
 30
0.0
  3
$MODEL_SPACE
  1

  0
ENDBLK
  5
1B
  8
0
  0
BLOCK
 67
     1
  8
0
  2
$PAPER_SPACE
 70
     0
 10
0.0
 20
0.0
 30
0.0
  3
$PAPER_SPACE
  1

  0
ENDBLK
  5
18
 67
     1
  8
0
  0
BLOCK
  8
0
  2
_OPEN
 70
     0
 10
0.0
 20
0.0
 30
0.0
  3
_OPEN
  1

  0
LINE
  5
1E81
  8
0
  6
BYBLOCK
 62
     0
 10
-1.0
 20
0.1666666666666666
 30
0.0
 11
0.0
 21
0.0
 31
0.0
  0
LINE
  5
1E82
  8
0
  6
BYBLOCK
 62
     0
 10
0.0
 20
0.0
 30
0.0
 11
-1.0
 21
-0.1666666666666666
 31
0.0
  0
LINE
  5
1E83
  8
0
  6
BYBLOCK
 62
     0
 10
0.0
 20
0.0
 30
0.0
 11
-1.0
 21
0.0
 31
0.0
  0
ENDBLK
  5
1E84
  8
0
  0
BLOCK
  8
0
  2
_DOT
 70
     0
 10
0.0
 20
0.0
 30
0.0
  3
_DOT
  1

  0
LINE
  5
1EC3
  8
0
  6
BYBLOCK
 62
     0
 10
0.0
 20
0.0
 30
0.0
 11
-1.0
 21
-0.0000000000000284
 31
0.0
  0
POLYLINE
  5
1EC4
  8
0
  6
BYBLOCK
 62
     0
 66
     1
 10
0.0
 20
0.0
 30
0.0
 70
     1
 40
0.1666666666666666
 41
0.1666666666666666
  0
VERTEX
  5
8ADD
  8
0
  6
BYBLOCK
 62
     0
 10
-0.0833333333333286
 20
-0.0000000000000284
 30
0.0
 42
1.0
  0
VERTEX
  5
8ADE
  8
0
  6
BYBLOCK
 62
     0
 10
0.0833333333333286
 20
-0.0000000000000284
 30
0.0
 42
1.0
  0
SEQEND
  5
8ADF
  8
0
  6
BYBLOCK
 62
     0
  0
ENDBLK
  5
1EB8
  8
0
  0
BLOCK
  8
0
  2
*D2
 70
     1
 10
0.0
 20
0.0
 30
0.0
  3
*D2
  1

  0
LINE
  5
5685
  8
SP
 10
-1699.9142715201349
 20
823.03013774616693
 30
0.0
 11
-1699.9142715201349
 21
683.03013774616704
 31
0.0
  0
LINE
  5
5686
  8
SP
 10
-2079.914271520136
 20
823.03013774616522
 30
0.0
 11
-2079.914271520136
 21
683.03013774616704
 31
0.0
  0
LINE
  5
5687
  8
SP
 10
-1724.9142715201349
 20
693.03013774616704
 30
0.0
 11
-2054.914271520136
 21
693.03013774616704
 31
0.0
  0
INSERT
  5
5688
  8
SP
  2
_OPEN
 10
-1699.9142715201349
 20
693.03013774616704
 30
0.0
 41
25.0
 42
25.0
 43
25.0
  0
INSERT
  5
5689
  8
SP
  2
_OPEN
 10
-2079.914271520136
 20
693.03013774616704
 30
0.0
 41
25.0
 42
25.0
 43
25.0
 50
180.0
  0
TEXT
  5
568A
  8
SP
 10
-1931.790652263745
 20
703.03013774616704
 30
0.0
 40
30.0
  1
380
 51
15.0
  0
POINT
  5
568B
  8
DEFPOINTS
 62
     0
 10
-1699.9142715201349
 20
833.03013774616716
 30
0.0
  0
POINT
  5
568C
  8
DEFPOINTS
 62
     0
 10
-2079.914271520136
 20
833.03013774616511
 30
0.0
  0
POINT
  5
568D
  8
DEFPOINTS
 62
     0
 10
-2079.914271520136
 20
693.03013774616704
 30
0.0
  0
ENDBLK
  5
568F
  8
0
  0
BLOCK
  8
0
  2
*D3
 70
     1
 10
0.0
 20
0.0
 30
0.0
  3
*D3
  1

  0
LINE
  5
5691
  8
SP
 10
-2079.914271520136
 20
823.03013774616522
 30
0.0
 11
-2079.914271520136
 21
753.03013774616522
 31
0.0
  0
LINE
  5
5692
  8
SP
 10
-1889.9142715201349
 20
797.34538072303258
 30
0.0
 11
-1889.9142715201349
 21
753.03013774616522
 31
0.0
  0
LINE
  5
5693
  8
SP
 10
-2054.914271520136
 20
763.03013774616522
 30
0.0
 11
-1914.9142715201349
 21
763.03013774616522
 31
0.0
  0
INSERT
  5
5694
  8
SP
  2
_OPEN
 10
-2079.914271520136
 20
763.03013774616522
 30
0.0
 41
25.0
 42
25.0
 43
25.0
 50
180.0
  0
INSERT
  5
5695
  8
SP
  2
_OPEN
 10
-1889.9142715201349
 20
763.03013774616522
 30
0.0
 41
25.0
 42
25.0
 43
25.0
  0
TEXT
  5
5696
  8
SP
 10
-2026.421609050605
 20
773.03013774616522
 30
0.0
 40
30.0
  1
190
 51
15.0
  0
POINT
  5
5697
  8
DEFPOINTS
 62
     0
 10
-2079.914271520136
 20
833.03013774616511
 30
0.0
  0
POINT
  5
5698
  8
DEFPOINTS
 62
     0
 10
-1889.9142715201349
 20
807.34538072303246
 30
0.0
  0
POINT
  5
5699
  8
DEFPOINTS
 62
     0
 10
-1889.9142715201349
 20
763.03013774616522
 30
0.0
  0
ENDBLK
  5
569B
  8
0
  0
BLOCK
  8
0
  2
*D4
 70
     1
 10
0.0
 20
0.0
 30
0.0
  3
*D4
  1

  0
LINE
  5
569D
  8
SP
 10
-1889.9142715201349
 20
797.34538072303258
 30
0.0
 11
-1889.9142715201349
 21
753.03013774616704
 31
0.0
  0
LINE
  5
569E
  8
SP
 10
-1699.9142715201349
 20
823.03013774616693
 30
0.0
 11
-1699.9142715201349
 21
753.03013774616704
 31
0.0
  0
LINE
  5
569F
  8
SP
 10
-1864.9142715201349
 20
763.03013774616704
 30
0.0
 11
-1724.9142715201349
 21
763.03013774616704
 31
0.0
  0
INSERT
  5
56A0
  8
SP
  2
_OPEN
 10
-1889.9142715201349
 20
763.03013774616704
 30
0.0
 41
25.0
 42
25.0
 43
25.0
 50
180.0
  0
INSERT
  5
56A1
  8
SP
  2
_OPEN
 10
-1699.9142715201349
 20
763.03013774616704
 30
0.0
 41
25.0
 42
25.0
 43
25.0
  0
TEXT
  5
56A2
  8
SP
 10
-1836.4216090506061
 20
773.03013774616704
 30
0.0
 40
30.0
  1
190
 51
15.0
  0
POINT
  5
56A3
  8
DEFPOINTS
 62
     0
 10
-1889.9142715201349
 20
807.34538072303246
 30
0.0
  0
POINT
  5
56A4
  8
DEFPOINTS
 62
     0
 10
-1699.9142715201349
 20
833.03013774616716
 30
0.0
  0
POINT
  5
56A5
  8
DEFPOINTS
 62
     0
 10
-1699.9142715201349
 20
763.03013774616704
 30
0.0
  0
ENDBLK
  5
56A7
  8
0
  0
BLOCK
  8
0
  2
*D5
 70
     1
 10
0.0
 20
0.0
 30
0.0
  3
*D5
  1

  0
LINE
  5
56A9
  8
SP
 10
-2139.9142715201351
 20
1298.030137746166
 30
0.0
 11
-2139.9142715201351
 21
1368.030137746166
 31
0.0
  0
LINE
  5
56AA
  8
SP
 10
-1889.9142715201349
 20
1307.8065568904919
 30
0.0
 11
-1889.9142715201349
 21
1368.030137746166
 31
0.0
  0
LINE
  5
56AB
  8
SP
 10
-2114.9142715201351
 20
1358.030137746166
 30
0.0
 11
-1914.9142715201349
 21
1358.030137746166
 31
0.0
  0
INSERT
  5
56AC
  8
SP
  2
_OPEN
 10
-2139.9142715201351
 20
1358.030137746166
 30
0.0
 41
25.0
 42
25.0
 43
25.0
 50
180.0
  0
INSERT
  5
56AD
  8
SP
  2
_OPEN
 10
-1889.9142715201349
 20
1358.030137746166
 30
0.0
 41
25.0
 42
25.0
 43
25.0
  0
TEXT
  5
56AE
  8
SP
 10
-2056.0250831425128
 20
1368.030137746166
 30
0.0
 40
30.0
  1
250
 51
15.0
  0
POINT
  5
56AF
  8
DEFPOINTS
 62
     0
 10
-2139.9142715201351
 20
1288.030137746166
 30
0.0
  0
POINT
  5
56B0
  8
DEFPOINTS
 62
     0
 10
-1889.9142715201349
 20
1297.8065568904919
 30
0.0
  0
POINT
  5
56B1
  8
DEFPOINTS
 62
     0
 10
-1889.9142715201349
 20
1358.030137746166
 30
0.0
  0
ENDBLK
  5
56B3
  8
0
  0
BLOCK
  8
0
  2
*D6
 70
     1
 10
0.0
 20
0.0
 30
0.0
  3
*D6
  1

  0
LINE
  5
56B5
  8
SP
 10
-1889.9142715201349
 20
1307.8065568904919
 30
0.0
 11
-1889.9142715201349
 21
1368.030137746166
 31
0.0
  0
LINE
  5
56B6
  8
SP
 10
-1713.9142715201349
 20
1081.0301377461669
 30
0.0
 11
-1713.9142715201349
 21
1368.030137746166
 31
0.0
  0
LINE
  5
56B7
  8
SP
 10
-1864.9142715201349
 20
1358.030137746166
 30
0.0
 11
-1738.9142715201349
 21
1358.030137746166
 31
0.0
  0
INSERT
  5
56B8
  8
SP
  2
_OPEN
 10
-1889.9142715201349
 20
1358.030137746166
 30
0.0
 41
25.0
 42
25.0
 43
25.0
 50
180.0
  0
INSERT
  5
56B9
  8
SP
  2
_OPEN
 10
-1713.9142715201349
 20
1358.030137746166
 30
0.0
 41
25.0
 42
25.0
 43
25.0
  0
TEXT
  5
56BA
  8
SP
 10
-1842.8987156166279
 20
1368.030137746166
 30
0.0
 40
30.0
  1
176
 51
15.0
  0
POINT
  5
56BB
  8
DEFPOINTS
 62
     0
 10
-1889.9142715201349
 20
1297.8065568904919
 30
0.0
  0
POINT
  5
56BC
  8
DEFPOINTS
 62
     0
 10
-1713.9142715201349
 20
1071.0301377461669
 30
0.0
  0
POINT
  5
56BD
  8
DEFPOINTS
 62
     0
 10
-1713.9142715201349
 20
1358.030137746166
 30
0.0
  0
ENDBLK
  5
56BF
  8
0
  0
BLOCK
  8
0
  2
*D7
 70
     1
 10
0.0
 20
0.0
 30
0.0
  3
*D7
  1

  0
LINE
  5
56C1
  8
SP
 10
-2184.1007564974338
 20
1088.030137746166
 30
0.0
 11
-2249.3805561714089
 21
1088.030137746166
 31
0.0
  0
LINE
  5
56C2
  8
SP
 10
-2170.9142715201351
 20
1288.0301377461669
 30
0.0
 11
-2249.3805561714089
 21
1288.0301377461669
 31
0.0
  0
LINE
  5
56C3
  8
SP
 10
-2239.3805561714089
 20
1113.0301377461669
 30
0.0
 11
-2239.3805561714089
 21
1263.0301377461669
 31
0.0
  0
INSERT
  5
56C4
  8
SP
  2
_OPEN
 10
-2239.3805561714089
 20
1088.030137746166
 30
0.0
 41
25.0
 42
25.0
 43
25.0
 50
270.0
  0
INSERT
  5
56C5
  8
SP
  2
_OPEN
 10
-2239.3805561714089
 20
1288.0301377461669
 30
0.0
 41
25.0
 42
25.0
 43
25.0
 50
90.0
  0
TEXT
  5
56C6
  8
SP
 10
-2249.3805561714089
 20
1146.9193261237881
 30
0.0
 40
30.0
  1
200
 50
90.0
 51
15.0
  0
POINT
  5
56C7
  8
DEFPOINTS
 62
     0
 10
-2174.1007564974352
 20
1088.030137746166
 30
0.0
  0
POINT
  5
56C8
  8
DEFPOINTS
 62
     0
 10
-2160.9142715201351
 20
1288.0301377461669
 30
0.0
  0
POINT
  5
56C9
  8
DEFPOINTS
 62
     0
 10
-2239.3805561714089
 20
1288.0301377461669
 30
0.0
  0
ENDBLK
  5
56CB
  8
0
  0
BLOCK
  8
0
  2
*D8
 70
     1
 10
0.0
 20
0.0
 30
0.0
  3
*D8
  1

  0
LINE
  5
56CD
  8
SP
 10
-2184.1007564974338
 20
1088.030137746166
 30
0.0
 11
-2249.3805561714089
 21
1088.030137746166
 31
0.0
  0
LINE
  5
56CE
  8
SP
 10
-2089.914271520136
 20
833.03013774616511
 30
0.0
 11
-2249.3805561714089
 21
833.03013774616511
 31
0.0
  0
LINE
  5
56CF
  8
SP
 10
-2239.3805561714089
 20
1063.0301377461669
 30
0.0
 11
-2239.3805561714089
 21
858.03013774616511
 31
0.0
  0
INSERT
  5
56D0
  8
SP
  2
_OPEN
 10
-2239.3805561714089
 20
1088.030137746166
 30
0.0
 41
25.0
 42
25.0
 43
25.0
 50
90.0
  0
INSERT
  5
56D1
  8
SP
  2
_OPEN
 10
-2239.3805561714089
 20
833.03013774616511
 30
0.0
 41
25.0
 42
25.0
 43
25.0
 50
270.0
  0
TEXT
  5
56D2
  8
SP
 10
-2249.3805561714089
 20
919.36804271684161
 30
0.0
 40
30.0
  1
255
 50
90.0
 51
15.0
  0
POINT
  5
56D3
  8
DEFPOINTS
 62
     0
 10
-2174.1007564974352
 20
1088.030137746166
 30
0.0
  0
POINT
  5
56D4
  8
DEFPOINTS
 62
     0
 10
-2079.914271520136
 20
833.03013774616511
 30
0.0
  0
POINT
  5
56D5
  8
DEFPOINTS
 62
     0
 10
-2239.3805561714089
 20
833.03013774616511
 30
0.0
  0
ENDBLK
  5
56D7
  8
0
  0
BLOCK
  8
0
  2
A$C44EA23BE
 70
     0
 10
0.0
 20
0.0
 30
0.0
  3
A$C44EA23BE
  1

  0
DIMENSION
  5
56D9
  8
SP
  2
*D8
 10
-349.46628465127378
 20
-255.00000000000171
 30
0.0
 11
-374.46628465127378
 21
-127.50000000000119
 31
0.0
 12
1889.9142715201349
 22
-1088.030137746166
 32
0.0
  3
GOD
 13
-284.18648497729919
 23
0.0
 33
0.0
 14
-190.00000000000091
 24
-255.00000000000171
 34
0.0
 50
90.0
  0
ARC
  5
56DA
  8
FUTO
 10
-17.0
 20
-17.0
 30
0.0
 40
203.0
 50
269.572081032222
 51
0.4673217049947748
  0
ARC
  5
56DB
  8
FUTO
 10
-20.0
 20
20.0
 30
0.0
 40
240.0
 50
180.0
 51
270.39182689926031
  0
ARC
  5
56DC
  8
FUTO
 10
-17.0
 20
-17.0
 30
0.0
 40
193.0
 50
269.572081032222
 51
0.4673217049947748
  0
ARC
  5
56DD
  8
FUTO
 10
-20.0
 20
20.0
 30
0.0
 40
230.0
 50
180.0
 51
270.39182689926031
  0
LINE
  5
56DE
  8
2
 10
0.0
 20
-280.6847570231343
 30
0.0
 11
0.0
 21
209.77641914432559
 31
0.0
  0
LINE
  5
56DF
  8
1
 10
157.69999999999891
 20
66.099999999998545
 30
0.0
 11
157.69999999999891
 21
-255.00000000000179
 31
0.0
  0
LINE
  5
56E0
  8
1
 10
160.0
 20
66.099999999998545
 30
0.0
 11
160.0
 21
-252.7000000000007
 31
0.0
  0
LINE
  5
56E1
  8
1
 10
-157.69999999999979
 20
66.099999999998545
 30
0.0
 11
-157.69999999999979
 21
-255.00000000000179
 31
0.0
  0
LINE
  5
56E2
  8
1
 10
-160.0
 20
66.099999999998545
 30
0.0
 11
-159.99999999999901
 21
-252.69999999999891
 31
0.0
  0
ARC
  5
56E3
  8
1
 10
0.0
 20
0.0
 30
0.0
 40
85.0
 50
0.0
 51
244.12446600000609
  0
CIRCLE
  5
56E4
  8
2
 10
0.0
 20
0.0
 30
0.0
 40
136.0
  0
ARC
  5
56E5
  8
1
 10
0.0
 20
0.0
 30
0.0
 40
85.000007999999994
 50
295.91772599999888
 51
0.0
  0
DIMENSION
  5
56E6
  8
SP
  2
*D2
 10
-190.00000000000091
 20
-394.99999999999977
 30
0.0
 11
-0.0000000000004547
 21
-369.99999999999977
 31
0.0
 12
1889.9142715201349
 22
-1088.030137746166
 32
0.0
  3
GOD
 13
190.0
 23
-254.9999999999998
 33
0.0
 14
-190.00000000000091
 24
-255.00000000000171
 34
0.0
  0
DIMENSION
  5
56E7
  8
SP
  2
*D4
 10
190.0
 20
-324.99999999999989
 30
0.0
 11
95.0
 21
-299.99999999999989
 31
0.0
 12
1889.9142715201349
 22
-1088.030137746166
 32
0.0
  3
GOD
 13
0.0
 23
-280.6847570231343
 33
0.0
 14
190.0
 24
-254.9999999999998
 34
0.0
  0
DIMENSION
  5
56E8
  8
SP
  2
*D3
 10
0.0
 20
-325.00000000000171
 30
0.0
 11
-95.000000000000455
 21
-300.00000000000171
 31
0.0
 12
1889.9142715201349
 22
-1088.030137746166
 32
0.0
  3
GOD
 13
-190.00000000000091
 23
-255.00000000000171
 33
0.0
 14
0.0
 24
-280.6847570231343
 34
0.0
  0
LINE
  5
56E9
  8
FUTO
 10
-132.69999999999979
 20
-105.0
 30
0.0
 11
-157.69999999999891
 21
-80.0
 31
0.0
  0
LINE
  5
56EA
  8
1
 10
-157.69999999999891
 20
-203.9999999999998
 30
0.0
 11
-132.7000000000007
 21
-203.9999999999998
 31
0.0
  0
LINE
  5
56EB
  8
1
 10
-190.00000000000091
 20
-255.00000000000179
 30
0.0
 11
190.0
 21
-255.0
 31
0.0
  0
LINE
  5
56EC
  8
1
 10
-157.69999999999891
 20
-80.0
 30
0.0
 11
157.69999999999891
 21
-80.0
 31
0.0
  0
LINE
  5
56ED
  8
2
 10
-176.99999999999901
 20
-268.98279906584588
 30
0.0
 11
-176.99999999999901
 21
-242.69999999999879
 31
0.0
  0
LINE
  5
56EE
  8
1
 10
-190.00000000000091
 20
-255.00000000000179
 30
0.0
 11
-190.00000000000179
 21
-252.7000000000007
 31
0.0
  0
LINE
  5
56EF
  8
1
 10
-190.00000000000091
 20
-252.7000000000007
 30
0.0
 11
-159.99999999999901
 21
-252.69999999999891
 31
0.0
  0
LINE
  5
56F0
  8
1
 10
132.699999999997
 20
-105.0
 30
0.0
 11
132.699999999997
 21
-203.9999999999998
 31
0.0
  0
LINE
  5
56F1
  8
1
 10
-132.69999999999979
 20
-105.0
 30
0.0
 11
-132.69999999999979
 21
-203.9999999999998
 31
0.0
  0
LINE
  5
56F2
  8
1
 10
132.699999999997
 20
-203.9999999999998
 30
0.0
 11
157.69999999999891
 21
-203.9999999999998
 31
0.0
  0
LINE
  5
56F3
  8
1
 10
190.0
 20
-255.0
 30
0.0
 11
190.0
 21
-252.69999999999891
 31
0.0
  0
LINE
  5
56F4
  8
2
 10
176.9999999999981
 20
-267.91032669659847
 30
0.0
 11
177.0
 21
-242.7000000000007
 31
0.0
  0
LINE
  5
56F5
  8
1
 10
160.0
 20
-252.69999999999891
 30
0.0
 11
190.0
 21
-252.7000000000007
 31
0.0
  0
LINE
  5
56F6
  8
FUTO
 10
132.69999999999979
 20
-105.0
 30
0.0
 11
157.69999999999891
 21
-80.0
 31
0.0
  0
LINE
  5
56F7
  8
1
 10
-132.69999999999979
 20
-105.0
 30
0.0
 11
132.69999999999891
 21
-105.0
 31
0.0
  0
LINE
  5
56F8
  8
CT
 10
-57.086121054688192
 20
-137.8180876735004
 30
0.0
 11
-46.574035520656253
 21
-112.43966820841879
 31
0.0
  0
CIRCLE
  5
56F9
  8
1
 10
-52.044946801652252
 20
-125.64761642153459
 30
0.0
 40
4.0
  0
LINE
  5
56FA
  8
CT
 10
57.086121054688192
 20
-137.8180876735004
 30
0.0
 11
46.574035520658072
 21
-112.43966820841879
 31
0.0
  0
CIRCLE
  5
56FB
  8
1
 10
52.044946801652252
 20
-125.64761642153459
 30
0.0
 40
4.0
  0
LINE
  5
56FC
  8
1
 10
-37.095498999999108
 20
-76.450928000000204
 30
0.0
 11
37.151808999999041
 21
-76.450928000000204
 31
0.0
  0
LINE
  5
56FD
  8
1
 10
-82.5
 20
-78.34088200000042
 30
0.0
 11
82.500029999999242
 21
-78.34088200000042
 31
0.0
  0
LINE
  5
56FE
  8
CT
 10
-62.5
 20
-82.218586000000869
 30
0.0
 11
-62.5
 21
-73.631579000000784
 31
0.0
  0
LINE
  5
56FF
  8
CT
 10
-137.8180876735004
 20
-57.086121054690011
 30
0.0
 11
-112.439668208417
 21
-46.574035520658072
 31
0.0
  0
ARC
  5
5700
  8
1
 10
-52.365203999999721
 20
-70.5
 30
0.0
 40
5.0
 50
270.0
 51
324.46176099999479
  0
LINE
  5
5701
  8
1
 10
-46.623938000000628
 20
-71.064478000000236
 30
0.0
 11
-48.296539999999368
 21
-73.40625
 31
0.0
  0
LINE
  5
5702
  8
1
 10
-77.833160999999564
 20
-75.505370999999286
 30
0.0
 11
-62.323167999999889
 21
-57.818504000000758
 31
0.0
  0
LINE
  5
5703
  8
1
 10
-82.5
 20
-75.5
 30
0.0
 11
-52.36517399999866
 21
-75.5
 31
0.0
  0
CIRCLE
  5
5704
  8
1
 10
-125.64761642153459
 20
-52.044946801652252
 30
0.0
 40
4.0
  0
ARC
  5
5705
  8
1
 10
0.0
 20
0.0
 30
0.0
 40
85.0
 50
236.73178133170779
 51
244.12446600000609
  0
LINE
  5
5706
  8
1
 10
-42.5
 20
-78.34088200000042
 30
0.0
 11
-42.5
 21
-80.0
 31
0.0
  0
LINE
  5
5707
  8
1
 10
-77.5
 20
-78.34088200000042
 30
0.0
 11
-77.5
 21
-80.0
 31
0.0
  0
LINE
  5
5708
  8
1
 10
-82.5
 20
-78.34088200000042
 30
0.0
 11
-82.5
 21
-75.5
 31
0.0
  0
LINE
  5
5709
  8
CT
 10
137.8180876735004
 20
-57.086121054688192
 30
0.0
 11
112.439668208417
 21
-46.574035520658072
 31
0.0
  0
LINE
  5
570A
  8
CT
 10
62.5
 20
-82.218586000000869
 30
0.0
 11
62.5
 21
-73.631579000000784
 31
0.0
  0
LINE
  5
570B
  8
1
 10
82.500029999999242
 20
-75.5
 30
0.0
 11
52.365203999999721
 21
-75.5
 31
0.0
  0
LINE
  5
570C
  8
1
 10
77.834367999999813
 20
-75.506824000000051
 30
0.0
 11
62.32130799999868
 21
-57.816361999999572
 31
0.0
  0
LINE
  5
570D
  8
1
 10
47.508270000000259
 20
-72.302612999999837
 30
0.0
 11
48.296538999999029
 21
-73.40625
 31
0.0
  0
LINE
  5
570E
  8
1
 10
46.631551000000393
 20
-71.075138000000152
 30
0.0
 11
48.296538999999029
 21
-73.40625
 31
0.0
  0
ARC
  5
570F
  8
1
 10
52.365203999999721
 20
-70.5
 30
0.0
 40
5.000032
 50
215.53825399999309
 51
270.0
  0
LINE
  5
5710
  8
1
 10
77.5
 20
-78.34088200000042
 30
0.0
 11
77.5
 21
-80.0
 31
0.0
  0
LINE
  5
5711
  8
1
 10
42.5
 20
-78.34088200000042
 30
0.0
 11
42.5
 21
-80.0
 31
0.0
  0
LINE
  5
5712
  8
1
 10
82.500029999999242
 20
-75.5
 30
0.0
 11
82.500029999999242
 21
-78.34088200000042
 31
0.0
  0
CIRCLE
  5
5713
  8
1
 10
125.64761642153459
 20
-52.044946801652252
 30
0.0
 40
4.0
  0
DIMENSION
  5
5714
  8
SP
  2
*D7
 10
-349.46628465127333
 20
200.0
 30
0.0
 11
-374.46628465127378
 21
99.999999999999787
 31
0.0
 12
1889.9142715201349
 22
-1088.030137746166
 32
0.0
  3
GOD
 13
-284.18648497729919
 23
0.0
 33
0.0
 14
-271.0
 24
200.0
 34
0.0
 50
90.0
  0
DIMENSION
  5
5715
  8
SP
  2
*D6
 10
176.0
 20
269.99999999999898
 30
0.0
 11
88.0
 21
294.99999999999898
 31
0.0
 12
1889.9142715201349
 22
-1088.030137746166
 32
0.0
  3
GOD
 13
0.0
 23
209.77641914432559
 33
0.0
 14
176.0
 24
-17.0
 34
0.0
  0
LINE
  5
5716
  8
FUTO
 10
-250.99998456825821
 20
199.99444453017639
 30
0.0
 11
-249.99998456825821
 21
19.99444453017281
 31
0.0
  0
LINE
  5
5717
  8
FUTO
 10
-251.0
 20
200.0
 30
0.0
 11
-251.0
 21
180.0
 31
0.0
  0
LINE
  5
5718
  8
FUTO
 10
-252.0
 20
199.0
 30
0.0
 11
-252.0
 21
180.0
 31
0.0
  0
LINE
  5
5719
  8
FUTO
 10
-249.0
 20
198.0
 30
0.0
 11
-231.0
 21
180.0
 31
0.0
  0
LINE
  5
571A
  8
FUTO
 10
0.0
 20
180.0
 30
0.0
 11
0.0
 21
200.0
 31
0.0
  0
LINE
  5
571B
  8
FUTO
 10
1.0
 20
200.0
 30
0.0
 11
1.0
 21
180.0
 31
0.0
  0
LINE
  5
571C
  8
FUTO
 10
2.0
 20
199.0
 30
0.0
 11
2.0
 21
180.0
 31
0.0
  0
LINE
  5
571D
  8
FUTO
 10
-1.0
 20
198.0
 30
0.0
 11
-19.0
 21
180.0
 31
0.0
  0
LINE
  5
571E
  8
FUTO
 10
-231.0
 20
180.0
 30
0.0
 11
-19.0
 21
180.0
 31
0.0
  0
LINE
  5
571F
  8
1
 10
-60.0
 20
150.0
 30
0.0
 11
-158.39999999999961
 21
66.099999999998545
 31
0.0
  0
LINE
  5
5720
  8
2
 10
-284.18648497729919
 20
0.0
 30
0.0
 11
210.14761457335041
 21
-0.000000000001819
 31
0.0
  0
LINE
  5
5721
  8
FUTO
 10
-260.8890586406655
 20
180.0
 30
0.0
 11
-259.99983025084288
 21
19.938889831936191
 31
0.0
  0
LINE
  5
5722
  8
1
 10
-160.0
 20
66.099999999998545
 30
0.0
 11
-158.39999999999961
 21
66.099999999998545
 31
0.0
  0
LINE
  5
5723
  8
FUTO
 10
-260.8890586406655
 20
180.0
 30
0.0
 11
-250.88890432086819
 21
180.0
 31
0.0
  0
ARC
  5
5724
  8
FUTO
 10
14.0
 20
-14.0
 30
0.0
 40
172.0
 50
359.4896667551933
 51
78.450738176447032
  0
ARC
  5
5725
  8
FUTO
 10
14.0
 20
-14.0
 30
0.0
 40
162.0
 50
359.4896667551933
 51
78.450738176447032
  0
LINE
  5
5726
  8
1
 10
60.0
 20
150.0
 30
0.0
 11
158.39999999999961
 21
66.099999999998545
 31
0.0
  0
LINE
  5
5727
  8
CT
 10
-137.8180876735004
 20
57.086121054686373
 30
0.0
 11
-112.439668208417
 21
46.574035520658072
 31
0.0
  0
CIRCLE
  5
5728
  8
1
 10
-125.64761642153459
 20
52.044946801652252
 30
0.0
 40
4.0
  0
LINE
  5
5729
  8
CT
 10
137.8180876735004
 20
57.086121054686373
 30
0.0
 11
112.439668208417
 21
46.574035520658072
 31
0.0
  0
CIRCLE
  5
572A
  8
1
 10
125.64761642153459
 20
52.044946801652252
 30
0.0
 40
4.0
  0
LINE
  5
572B
  8
1
 10
158.39999999999961
 20
66.099999999998545
 30
0.0
 11
160.0
 21
66.099999999998545
 31
0.0
  0
LINE
  5
572C
  8
CT
 10
57.086121054688192
 20
137.81808767349861
 30
0.0
 11
46.574035520656253
 21
112.439668208417
 31
0.0
  0
LINE
  5
572D
  8
CT
 10
-57.086121054688192
 20
137.81808767349861
 30
0.0
 11
-46.574035520658072
 21
112.4396682084152
 31
0.0
  0
CIRCLE
  5
572E
  8
1
 10
-52.044946801652252
 20
125.64761642153459
 30
0.0
 40
4.0
  0
CIRCLE
  5
572F
  8
1
 10
52.044946801652252
 20
125.64761642153459
 30
0.0
 40
4.0
  0
ARC
  5
5730
  8
FUTO
 10
60.999999999996362
 20
216.0
 30
0.0
 40
72.753061747871584
 50
214.1996194554568
 51
258.45073817644709
  0
LINE
  5
5731
  8
FUTO
 10
0.0
 20
180.0
 30
0.0
 11
5.9318434102424362
 21
180.0
 31
0.0
  0
LINE
  5
5732
  8
1
 10
-60.0
 20
150.0
 30
0.0
 11
60.0
 21
150.0
 31
0.0
  0
LINE
  5
5733
  8
FUTO
 10
0.0
 20
180.0
 30
0.0
 11
1.0
 21
180.0
 31
0.0
  0
ARC
  5
5734
  8
FUTO
 10
59.528586099928361
 20
210.519969322142
 30
0.0
 40
57.203726762688042
 50
216.60350367361539
 51
261.67207569821369
  0
ARC
  5
5735
  8
FUTO
 10
5.9318434102424362
 20
170.0
 30
0.0
 40
10.0
 50
39.872968906140997
 51
90.0
  0
LINE
  5
5736
  8
FUTO
 10
-271.0
 20
200.0
 30
0.0
 11
21.0
 21
200.0
 31
0.0
  0
LINE
  5
5737
  8
FUTO
 10
-251.0
 20
199.0
 30
0.0
 11
1.0
 21
199.0
 31
0.0
  0
DIMENSION
  5
5738
  8
SP
  2
*D5
 10
0.0
 20
269.99999999999898
 30
0.0
 11
-125.0
 21
294.99999999999898
 31
0.0
 12
1889.9142715201349
 22
-1088.030137746166
 32
0.0
  3
GOD
 13
-250.0
 23
199.99999999999901
 33
0.0
 14
0.0
 24
209.77641914432559
 34
0.0
  0
LINE
  5
5739
  8
FUTO
 10
-271.0
 20
199.0
 30
0.0
 11
-252.0
 21
199.0
 31
0.0
  0
LINE
  5
573A
  8
FUTO
 10
-271.0
 20
200.0
 30
0.0
 11
-271.0
 21
199.0
 31
0.0
  0
LINE
  5
573B
  8
FUTO
 10
-251.0
 20
198.0
 30
0.0
 11
-249.0
 21
198.0
 31
0.0
  0
LINE
  5
573C
  8
FUTO
 10
2.0
 20
199.0
 30
0.0
 11
21.0
 21
199.0
 31
0.0
  0
LINE
  5
573D
  8
FUTO
 10
-1.0
 20
198.0
 30
0.0
 11
1.0
 21
198.0
 31
0.0
  0
LINE
  5
573E
  8
FUTO
 10
21.0
 20
200.0
 30
0.0
 11
21.0
 21
199.0
 31
0.0
  0
ENDBLK
  5
5740
  8
0
  0
BLOCK
  8
0
  2
*D10
 70
     1
 10
0.0
 20
0.0
 30
0.0
  3
*D10
  1

  0
LINE
  5
7DD4
  8
SP
 10
-4734.3415580639139
 20
1338.030122314422
 30
0.0
 11
-4601.7929315417341
 21
1338.030122314422
 31
0.0
  0
LINE
  5
7DD5
  8
SP
 10
-4724.1883880207424
 20
1088.030137746164
 30
0.0
 11
-4601.7929315417341
 21
1088.030137746164
 31
0.0
  0
LINE
  5
7DD6
  8
SP
 10
-4611.7929315417341
 20
1313.030122314422
 30
0.0
 11
-4611.7929315417341
 21
1113.030137746164
 31
0.0
  0
INSERT
  5
7DD7
  8
SP
  2
_OPEN
 10
-4611.7929315417341
 20
1338.030122314422
 30
0.0
 41
25.0
 42
25.0
 43
25.0
 50
90.0
  0
INSERT
  5
7DD8
  8
SP
  2
_OPEN
 10
-4611.7929315417341
 20
1088.030137746164
 30
0.0
 41
25.0
 42
25.0
 43
25.0
 50
270.0
  0
TEXT
  5
7DD9
  8
SP
 10
-4621.792931541735
 20
1171.919318407914
 30
0.0
 40
30.0
  1
250
 50
90.0
 51
15.0
  0
POINT
  5
7DDA
  8
DEFPOINTS
 62
     0
 10
-4744.3415580639139
 20
1338.030122314422
 30
0.0
  0
POINT
  5
7DDB
  8
DEFPOINTS
 62
     0
 10
-4734.1883880207433
 20
1088.030137746164
 30
0.0
  0
POINT
  5
7DDC
  8
DEFPOINTS
 62
     0
 10
-4611.7929315417341
 20
1088.030137746164
 30
0.0
  0
ENDBLK
  5
5D03
  8
0
  0
BLOCK
  8
0
  2
*D11
 70
     1
 10
0.0
 20
0.0
 30
0.0
  3
*D11
  1

  0
LINE
  5
7D9E
  8
SP
 10
-4724.1883880207424
 20
1088.030137746164
 30
0.0
 11
-4601.7929315417341
 21
1088.030137746164
 31
0.0
  0
LINE
  5
7D9F
  8
SP
 10
-4684.3360025940929
 20
803.03013774616647
 30
0.0
 11
-4601.7929315417341
 21
803.03013774616647
 31
0.0
  0
LINE
  5
7DA0
  8
SP
 10
-4611.7929315417341
 20
1063.030137746164
 30
0.0
 11
-4611.7929315417341
 21
828.03013774616647
 31
0.0
  0
INSERT
  5
7DA1
  8
SP
  2
_OPEN
 10
-4611.7929315417341
 20
1088.030137746164
 30
0.0
 41
25.0
 42
25.0
 43
25.0
 50
90.0
  0
INSERT
  5
7DA2
  8
SP
  2
_OPEN
 10
-4611.7929315417341
 20
803.03013774616647
 30
0.0
 41
25.0
 42
25.0
 43
25.0
 50
270.0
  0
TEXT
  5
7DA3
  8
SP
 10
-4621.792931541735
 20
904.36804271684048
 30
0.0
 40
30.0
  1
285
 50
90.0
 51
15.0
  0
POINT
  5
7DA4
  8
DEFPOINTS
 62
     0
 10
-4734.1883880207433
 20
1088.030137746164
 30
0.0
  0
POINT
  5
7DA5
  8
DEFPOINTS
 62
     0
 10
-4694.3360025940938
 20
803.03013774616647
 30
0.0
  0
POINT
  5
7DA6
  8
DEFPOINTS
 62
     0
 10
-4611.7929315417341
 20
803.03013774616647
 30
0.0
  0
ENDBLK
  5
5D10
  8
0
  0
BLOCK
  8
0
  2
*D12
 70
     1
 10
0.0
 20
0.0
 30
0.0
  3
*D12
  1

  0
LINE
  5
7D83
  8
SP
 10
-4944.3360025940929
 20
1394.8458668319649
 30
0.0
 11
-4944.3360025940929
 21
1428.0288877750991
 31
0.0
  0
LINE
  5
7D84
  8
SP
 10
-4744.336002594091
 20
1369.030137746164
 30
0.0
 11
-4744.336002594091
 21
1428.0288877750991
 31
0.0
  0
LINE
  5
7D85
  8
SP
 10
-4919.3360025940929
 20
1418.0288877750991
 30
0.0
 11
-4769.336002594091
 21
1418.0288877750991
 31
0.0
  0
INSERT
  5
7D86
  8
SP
  2
_OPEN
 10
-4944.3360025940929
 20
1418.0288877750991
 30
0.0
 41
25.0
 42
25.0
 43
25.0
 50
180.0
  0
INSERT
  5
7D87
  8
SP
  2
_OPEN
 10
-4744.336002594091
 20
1418.0288877750991
 30
0.0
 41
25.0
 42
25.0
 43
25.0
  0
TEXT
  5
7D88
  8
SP
 10
-4885.4468142164696
 20
1428.0288877750991
 30
0.0
 40
30.0
  1
200
 51
15.0
  0
POINT
  5
7D89
  8
DEFPOINTS
 62
     0
 10
-4944.3360025940929
 20
1384.8458668319649
 30
0.0
  0
POINT
  5
7D8A
  8
DEFPOINTS
 62
     0
 10
-4744.336002594091
 20
1359.030137746164
 30
0.0
  0
POINT
  5
7D8B
  8
DEFPOINTS
 62
     0
 10
-4744.336002594091
 20
1418.0288877750991
 30
0.0
  0
ENDBLK
  5
5D1E
  8
0
  0
BLOCK
  8
0
  2
*D13
 70
     1
 10
0.0
 20
0.0
 30
0.0
  3
*D13
  1

  0
LINE
  5
7D7A
  8
SP
 10
-4944.3360025940929
 20
1394.8458668319649
 30
0.0
 11
-4944.3360025940929
 21
1428.0288877750991
 31
0.0
  0
LINE
  5
7D7B
  8
SP
 10
-5154.336002594091
 20
1115.030137746164
 30
0.0
 11
-5154.336002594091
 21
1428.0288877750991
 31
0.0
  0
LINE
  5
7D7C
  8
SP
 10
-4969.3360025940938
 20
1418.0288877750991
 30
0.0
 11
-5129.336002594091
 21
1418.0288877750991
 31
0.0
  0
INSERT
  5
7D7D
  8
SP
  2
_OPEN
 10
-4944.3360025940929
 20
1418.0288877750991
 30
0.0
 41
25.0
 42
25.0
 43
25.0
  0
INSERT
  5
7D7E
  8
SP
  2
_OPEN
 10
-5154.336002594091
 20
1418.0288877750991
 30
0.0
 41
25.0
 42
25.0
 43
25.0
 50
180.0
  0
TEXT
  5
7D7F
  8
SP
 10
-5087.5896713593283
 20
1428.0288877750991
 30
0.0
 40
30.0
  1
210
 51
15.0
  0
POINT
  5
7D80
  8
DEFPOINTS
 62
     0
 10
-4944.3360025940929
 20
1384.8458668319649
 30
0.0
  0
POINT
  5
7D81
  8
DEFPOINTS
 62
     0
 10
-5154.336002594091
 20
1105.030137746164
 30
0.0
  0
POINT
  5
7D82
  8
DEFPOINTS
 62
     0
 10
-5154.336002594091
 20
1418.0288877750991
 30
0.0
  0
ENDBLK
  5
5D3D
  8
0
  0
BLOCK
  8
0
  2
*D14
 70
     1
 10
0.0
 20
0.0
 30
0.0
  3
*D14
  1

  0
LINE
  5
7DCB
  8
SP
 10
-3985.336002594091
 20
1213.0301377461681
 30
0.0
 11
-3907.5002155446809
 21
1213.0301377461681
 31
0.0
  0
LINE
  5
7DCC
  8
SP
 10
-3985.3360025940929
 20
963.03013774616795
 30
0.0
 11
-3907.5002155446809
 21
963.03013774616795
 31
0.0
  0
LINE
  5
7DCD
  8
SP
 10
-3917.5002155446809
 20
1188.0301377461669
 30
0.0
 11
-3917.5002155446809
 21
988.03013774616795
 31
0.0
  0
INSERT
  5
7DCE
  8
SP
  2
_OPEN
 10
-3917.5002155446809
 20
1213.0301377461681
 30
0.0
 41
25.0
 42
25.0
 43
25.0
 50
90.0
  0
INSERT
  5
7DCF
  8
SP
  2
_OPEN
 10
-3917.5002155446809
 20
963.03013774616795
 30
0.0
 41
25.0
 42
25.0
 43
25.0
 50
270.0
  0
TEXT
  5
7DD0
  8
SP
 10
-3927.5002155446809
 20
1033.2590720859439
 30
0.0
 40
30.0
  1
φ250
 50
90.0
 51
15.0
  0
POINT
  5
7DD1
  8
DEFPOINTS
 62
     0
 10
-3995.336002594092
 20
1213.0301377461681
 30
0.0
  0
POINT
  5
7DD2
  8
DEFPOINTS
 62
     0
 10
-3995.3360025940929
 20
963.03013774616795
 30
0.0
  0
POINT
  5
7DD3
  8
DEFPOINTS
 62
     0
 10
-3917.5002155446809
 20
963.03013774616795
 30
0.0
  0
ENDBLK
  5
65E4
  8
0
  0
BLOCK
  8
0
  2
*D15
 70
     1
 10
0.0
 20
0.0
 30
0.0
  3
*D15
  1

  0
LINE
  5
7D71
  8
SP
 10
-4184.3360025940929
 20
1348.0301377461651
 30
0.0
 11
-4184.3360025940929
 21
1439.030137746164
 31
0.0
  0
LINE
  5
7D72
  8
SP
 10
-4004.336002594092
 20
1348.030137746164
 30
0.0
 11
-4004.336002594092
 21
1439.030137746164
 31
0.0
  0
LINE
  5
7D73
  8
SP
 10
-4159.3360025940938
 20
1429.030137746164
 30
0.0
 11
-4029.336002594091
 21
1429.030137746164
 31
0.0
  0
INSERT
  5
7D74
  8
SP
  2
_OPEN
 10
-4184.3360025940929
 20
1429.030137746164
 30
0.0
 41
25.0
 42
25.0
 43
25.0
 50
180.0
  0
INSERT
  5
7D75
  8
SP
  2
_OPEN
 10
-4004.336002594092
 20
1429.030137746164
 30
0.0
 41
25.0
 42
25.0
 43
25.0
  0
TEXT
  5
7D76
  8
SP
 10
-4135.843340124562
 20
1439.030137746164
 30
0.0
 40
30.0
  1
180
 51
15.0
  0
POINT
  5
7D77
  8
DEFPOINTS
 62
     0
 10
-4184.3360025940929
 20
1338.0301377461651
 30
0.0
  0
POINT
  5
7D78
  8
DEFPOINTS
 62
     0
 10
-4004.336002594092
 20
1338.030137746164
 30
0.0
  0
POINT
  5
7D79
  8
DEFPOINTS
 62
     0
 10
-4004.336002594092
 20
1429.030137746164
 30
0.0
  0
ENDBLK
  5
65FA
  8
0
  0
BLOCK
  8
0
  2
*D16
 70
     1
 10
0.0
 20
0.0
 30
0.0
  3
*D16
  1

  0
LINE
  5
7D68
  8
SP
 10
-4094.3360025940929
 20
1479.030137746164
 30
0.0
 11
-4094.3360025940929
 21
1509.0301377461631
 31
0.0
  0
LINE
  5
7D69
  8
SP
 10
-3995.336002594091
 20
1242.0301377461669
 30
0.0
 11
-3995.336002594091
 21
1509.0301377461631
 31
0.0
  0
LINE
  5
7D6A
  8
SP
 10
-4069.336002594092
 20
1499.0301377461631
 30
0.0
 11
-4020.336002594091
 21
1499.0301377461631
 31
0.0
  0
INSERT
  5
7D6B
  8
SP
  2
_OPEN
 10
-4094.3360025940929
 20
1499.0301377461631
 30
0.0
 41
25.0
 42
25.0
 43
25.0
 50
180.0
  0
INSERT
  5
7D6C
  8
SP
  2
_OPEN
 10
-3995.336002594091
 20
1499.0301377461631
 30
0.0
 41
25.0
 42
25.0
 43
25.0
  0
TEXT
  5
7D6D
  8
SP
 10
-4072.426669051988
 20
1509.0301377461631
 30
0.0
 40
30.0
  1
99
 51
15.0
  0
POINT
  5
7D6E
  8
DEFPOINTS
 62
     0
 10
-4094.3360025940929
 20
1469.030137746164
 30
0.0
  0
POINT
  5
7D6F
  8
DEFPOINTS
 62
     0
 10
-3995.336002594091
 20
1232.0301377461669
 30
0.0
  0
POINT
  5
7D70
  8
DEFPOINTS
 62
     0
 10
-3995.336002594091
 20
1499.0301377461631
 30
0.0
  0
ENDBLK
  5
6612
  8
0
  0
BLOCK
  8
0
  2
*D17
 70
     1
 10
0.0
 20
0.0
 30
0.0
  3
*D17
  1

  0
LINE
  5
7D5F
  8
SP
 10
-4094.3360025940929
 20
1479.030137746164
 30
0.0
 11
-4094.3360025940929
 21
1509.0301377461651
 31
0.0
  0
LINE
  5
7D60
  8
SP
 10
-4446.1360025940921
 20
1170.807481746167
 30
0.0
 11
-4446.1360025940921
 21
1509.0301377461651
 31
0.0
  0
LINE
  5
7D61
  8
SP
 10
-4119.336002594092
 20
1499.0301377461651
 30
0.0
 11
-4421.1360025940912
 21
1499.0301377461651
 31
0.0
  0
INSERT
  5
7D62
  8
SP
  2
_OPEN
 10
-4094.3360025940929
 20
1499.0301377461651
 30
0.0
 41
25.0
 42
25.0
 43
25.0
  0
INSERT
  5
7D63
  8
SP
  2
_OPEN
 10
-4446.1360025940921
 20
1499.0301377461651
 30
0.0
 41
25.0
 42
25.0
 43
25.0
 50
180.0
  0
TEXT
  5
7D64
  8
SP
 10
-4337.1457043344917
 20
1509.0301377461651
 30
0.0
 40
30.0
  1
（400）
 51
15.0
  0
POINT
  5
7D65
  8
DEFPOINTS
 62
     0
 10
-4094.3360025940929
 20
1469.030137746164
 30
0.0
  0
POINT
  5
7D66
  8
DEFPOINTS
 62
     0
 10
-4446.1360025940921
 20
1160.807481746167
 30
0.0
  0
POINT
  5
7D67
  8
DEFPOINTS
 62
     0
 10
-4446.1360025940921
 20
1499.0301377461651
 30
0.0
  0
ENDBLK
  5
6628
  8
0
  0
BLOCK
  8
0
  2
A$C40AB6E05
 70
     0
 10
0.0
 20
0.0
 30
0.0
  3
A$C40AB6E05
  1

  0
LINE
  5
6751
  8
1
 10
-160.00000000000361
 20
-307.99999999999181
 30
0.0
 11
-160.00000000000591
 21
-99.000000000001606
 31
0.0
  0
LINE
  5
6752
  8
1
 10
-190.00000000000361
 20
-298.9999999999954
 30
0.0
 11
-190.00000000000591
 21
-99.000000000001364
 31
0.0
  0
LINE
  5
6753
  8
1
 10
-33.5
 20
-124.79999999999831
 30
0.0
 11
-33.5
 21
-133.79999999999831
 31
0.0
  0
LINE
  5
6754
  8
1
 10
-75.5
 20
-156.29999999999831
 30
0.0
 11
-75.5
 21
-135.79999999999831
 31
0.0
  0
ARC
  5
6755
  8
1
 10
-73.5
 20
-135.79999999999831
 30
0.0
 40
2.0
 50
90.0
 51
180.0
  0
LINE
  5
6756
  8
1
 10
-72.815002999999706
 20
-133.79999999999831
 30
0.0
 11
-64.184998000000633
 21
-133.79999999999831
 31
0.0
  0
LINE
  5
6757
  8
1
 10
-64.065796000000773
 20
-133.79999999999831
 30
0.0
 11
-73.065796000000773
 21
-133.79999999999831
 31
0.0
  0
LINE
  5
6758
  8
1
 10
-160.0000000000054
 20
-132.9999999999915
 30
0.0
 11
-33.5
 21
-132.99999999999361
 31
0.0
  0
CIRCLE
  5
6759
  8
FUTO
 10
-177.000000000005
 20
-119.00000000000109
 30
0.0
 40
6.0
  0
LINE
  5
675A
  8
CT
 10
-164.8129139847405
 20
-119.00000000000109
 30
0.0
 11
-189.18708601526981
 21
-119.00000000000109
 31
0.0
  0
LINE
  5
675B
  8
CT
 10
-177.000000000005
 20
-131.18708601526569
 30
0.0
 11
-177.000000000005
 21
-106.8129139847364
 31
0.0
  0
ARC
  5
675C
  8
1
 10
-143.99999999999631
 20
-95.999999999999091
 30
0.0
 40
3.0
 50
180.0
 51
270.0
  0
LINE
  5
675D
  8
1
 10
-146.99999999999631
 20
-93.999999999999091
 30
0.0
 11
-146.99999999999631
 21
-95.999999999999091
 31
0.0
  0
LINE
  5
675E
  8
1
 10
-146.99999999999631
 20
-93.999999999999091
 30
0.0
 11
-146.99999999999631
 21
-95.999999999999091
 31
0.0
  0
ARC
  5
675F
  8
1
 10
-149.99999999999631
 20
-93.999999999999091
 30
0.0
 40
3.0
 50
0.0
 51
90.0
  0
LINE
  5
6760
  8
1
 10
-22.5
 20
-110.9999999999972
 30
0.0
 11
-22.5
 21
-113.8000000000001
 31
0.0
  0
ARC
  5
6761
  8
1
 10
-32.5
 20
-124.79999999999831
 30
0.0
 40
1.0
 50
90.0
 51
180.0
  0
LINE
  5
6762
  8
FUTO
 10
190.00000000000179
 20
-99.000000000001137
 30
0.0
 11
-189.9999999999981
 21
-99.000000000001137
 31
0.0
  0
ARC
  5
6763
  8
1
 10
150.0
 20
-93.999999999999091
 30
0.0
 40
3.0
 50
90.0
 51
180.0
  0
LINE
  5
6764
  8
1
 10
147.0
 20
-93.999999999999091
 30
0.0
 11
147.0
 21
-95.999999999999091
 31
0.0
  0
LINE
  5
6765
  8
1
 10
147.0
 20
-93.999999999999091
 30
0.0
 11
147.0
 21
-95.999999999999091
 31
0.0
  0
ARC
  5
6766
  8
1
 10
144.0
 20
-95.999999999999091
 30
0.0
 40
3.0
 50
270.0
 51
0.0
  0
LINE
  5
6767
  8
1
 10
160.0
 20
-307.99999999999932
 30
0.0
 11
160.00000000000179
 21
-99.000000000001137
 31
0.0
  0
LINE
  5
6768
  8
FUTO
 10
190.0
 20
-298.9999999999954
 30
0.0
 11
190.00000000000179
 21
-99.000000000001137
 31
0.0
  0
LINE
  5
6769
  8
1
 10
33.499999999998181
 20
-132.99999999999719
 30
0.0
 11
160.00000000000151
 21
-132.99999999999719
 31
0.0
  0
LINE
  5
676A
  8
CT
 10
177.00000000000159
 20
-131.18708601526569
 30
0.0
 11
177.00000000000159
 21
-106.8129139847364
 31
0.0
  0
CIRCLE
  5
676B
  8
FUTO
 10
177.00000000000159
 20
-119.00000000000109
 30
0.0
 40
6.0
  0
CIRCLE
  5
676C
  8
FUTO
 10
177.00000000000159
 20
-279.00000000000108
 30
0.0
 40
6.0
  0
LINE
  5
676D
  8
CT
 10
164.81291398473689
 20
-279.00000000000108
 30
0.0
 11
189.1870860152662
 21
-279.00000000000108
 31
0.0
  0
LINE
  5
676E
  8
CT
 10
177.00000000000159
 20
-291.18708601526572
 30
0.0
 11
177.00000000000159
 21
-266.8129139847365
 31
0.0
  0
LINE
  5
676F
  8
FUTO
 10
159.99999999999969
 20
-298.9999999999954
 30
0.0
 11
190.00000000000179
 21
-298.9999999999954
 31
0.0
  0
LINE
  5
6770
  8
FUTO
 10
190.0
 20
-299.00000000000108
 30
0.0
 11
160.0
 21
-299.00000000000108
 31
0.0
  0
LINE
  5
6771
  8
1
 10
74.799988000000667
 20
-277.79999999999831
 30
0.0
 11
74.799988000000667
 21
-156.29999999999831
 31
0.0
  0
LINE
  5
6772
  8
1
 10
85.0
 20
-307.99999999999721
 30
0.0
 11
160.0
 21
-307.99999999999932
 31
0.0
  0
LINE
  5
6773
  8
1
 10
85.0
 20
-316.29999999999831
 30
0.0
 11
85.0
 21
-277.79999999999831
 31
0.0
  0
LINE
  5
6774
  8
1
 10
0.000000000001819
 20
-317.79999999999831
 30
0.0
 11
83.499999999999986
 21
-317.79999999999831
 31
0.0
  0
LINE
  5
6775
  8
1
 10
-72.777344000000085
 20
-351.79999999999831
 30
0.0
 11
72.626524999999674
 21
-351.79999999999831
 31
0.0
  0
ARC
  5
6776
  8
1
 10
83.499999999999986
 20
-316.29999999999831
 30
0.0
 40
1.4999849999999999
 50
270.0
 51
0.0005800000062725
  0
ARC
  5
6777
  8
1
 10
81.815002999999706
 20
-318.79993899999948
 30
0.0
 40
0.999898
 50
89.99650299999503
 51
168.37008699999251
  0
LINE
  5
6778
  8
1
 10
74.246521000000939
 20
-350.60248999999828
 30
0.0
 11
80.835633000000598
 21
-318.59833899999921
 31
0.0
  0
LINE
  5
6779
  8
1
 10
85.0
 20
-277.79999999999831
 30
0.0
 11
-85.0
 21
-277.79999999999831
 31
0.0
  0
LINE
  5
677A
  8
1
 10
-160.00000000000361
 20
-307.99999999999181
 30
0.0
 11
-84.999999999999091
 21
-307.9999999999954
 31
0.0
  0
LINE
  5
677B
  8
1
 10
-74.799988000000667
 20
-277.79999999999831
 30
0.0
 11
-74.799988000000667
 21
-156.29999999999831
 31
0.0
  0
LINE
  5
677C
  8
1
 10
-85.0
 20
-316.29999999999831
 30
0.0
 11
-85.0
 21
-277.79999999999831
 31
0.0
  0
ARC
  5
677D
  8
1
 10
-81.815002999999706
 20
-318.79993899999948
 30
0.0
 40
0.999898
 50
11.629913000007431
 51
90.003497000004955
  0
LINE
  5
677E
  8
1
 10
-74.246521000000939
 20
-350.60248999999828
 30
0.0
 11
-80.835633000000598
 21
-318.59833899999921
 31
0.0
  0
ARC
  5
677F
  8
1
 10
-83.499999999999986
 20
-316.29999999999831
 30
0.0
 40
1.4999849999999999
 50
179.99941999999371
 51
270.0
  0
LINE
  5
6780
  8
1
 10
-0.000000000001819
 20
-317.79999999999831
 30
0.0
 11
-83.499999999999986
 21
-317.79999999999831
 31
0.0
  0
LINE
  5
6781
  8
CT
 10
-177.000000000005
 20
-291.18708601526572
 30
0.0
 11
-177.000000000005
 21
-266.8129139847365
 31
0.0
  0
LINE
  5
6782
  8
CT
 10
-164.8129139847405
 20
-279.00000000000108
 30
0.0
 11
-189.18708601526981
 21
-279.00000000000108
 31
0.0
  0
CIRCLE
  5
6783
  8
FUTO
 10
-177.000000000005
 20
-279.00000000000108
 30
0.0
 40
6.0
  0
LINE
  5
6784
  8
1
 10
-189.99999999999909
 20
-298.9999999999954
 30
0.0
 11
-160.00000000000361
 21
-298.9999999999954
 31
0.0
  0
LINE
  5
6785
  8
1
 10
33.499999999998181
 20
-133.79999999999831
 30
0.0
 11
33.5
 21
-124.79999999999831
 31
0.0
  0
LINE
  5
6786
  8
1
 10
0.0
 20
-133.79999999999831
 30
0.0
 11
73.5
 21
-133.79999999999831
 31
0.0
  0
LINE
  5
6787
  8
1
 10
75.5
 20
-156.29999999999831
 30
0.0
 11
0.000000000001819
 21
-156.29999999999831
 31
0.0
  0
LINE
  5
6788
  8
1
 10
-75.5
 20
-156.29999999999831
 30
0.0
 11
-0.000000000001819
 21
-156.29999999999831
 31
0.0
  0
LINE
  5
6789
  8
1
 10
0.0
 20
-133.79999999999831
 30
0.0
 11
-73.5
 21
-133.79999999999831
 31
0.0
  0
LINE
  5
678A
  8
1
 10
75.5
 20
-156.29999999999831
 30
0.0
 11
75.5
 21
-135.79999999999831
 31
0.0
  0
ARC
  5
678B
  8
1
 10
73.5
 20
-135.79999999999831
 30
0.0
 40
2.0
 50
0.0
 51
90.0
  0
LINE
  5
678C
  8
1
 10
64.065796000000773
 20
-133.79999999999831
 30
0.0
 11
73.065796000000773
 21
-133.79999999999831
 31
0.0
  0
LINE
  5
678D
  8
1
 10
72.815002999999706
 20
-133.79999999999831
 30
0.0
 11
64.184998000000633
 21
-133.79999999999831
 31
0.0
  0
LINE
  5
678E
  8
1
 10
-17.5
 20
-118.8000000000001
 30
0.0
 11
17.5
 21
-118.8000000000001
 31
0.0
  0
LINE
  5
678F
  8
1
 10
32.5
 20
-123.79999999999831
 30
0.0
 11
-32.5
 21
-123.79999999999831
 31
0.0
  0
LINE
  5
6790
  8
1
 10
-10.5
 20
-118.79999999999831
 30
0.0
 11
-10.5
 21
-123.79999999999831
 31
0.0
  0
ARC
  5
6791
  8
1
 10
32.5
 20
-124.79999999999831
 30
0.0
 40
1.0
 50
0.0
 51
90.0
  0
LINE
  5
6792
  8
1
 10
10.5
 20
-118.79999999999831
 30
0.0
 11
10.5
 21
-123.79999999999831
 31
0.0
  0
LINE
  5
6793
  8
1
 10
22.5
 20
-113.8000000000001
 30
0.0
 11
17.5
 21
-118.8000000000001
 31
0.0
  0
LINE
  5
6794
  8
1
 10
22.5
 20
-101.2999999999965
 30
0.0
 11
22.5
 21
-113.8000000000001
 31
0.0
  0
LINE
  5
6795
  8
1
 10
-17.5
 20
-118.8000000000001
 30
0.0
 11
-22.5
 21
-113.8000000000001
 31
0.0
  0
ENDBLK
  5
6797
  8
0
  0
BLOCK
  8
0
  2
_NONE
 70
     0
 10
0.0
 20
0.0
 30
0.0
  3
_NONE
  1

  0
ENDBLK
  5
6F53
  8
0
  0
BLOCK
  8
0
  2
*D20
 70
     1
 10
0.0
 20
0.0
 30
0.0
  3
*D20
  1

  0
LINE
  5
7D95
  8
SP
 10
-5194.336002594091
 20
793.03013774616375
 30
0.0
 11
-5194.336002594091
 21
653.03013774616375
 31
0.0
  0
LINE
  5
7D96
  8
SP
 10
-4694.3360025940938
 20
793.03013774616636
 30
0.0
 11
-4694.3360025940938
 21
653.03013774616375
 31
0.0
  0
LINE
  5
7D97
  8
SP
 10
-5169.336002594092
 20
663.03013774616386
 30
0.0
 11
-4719.3360025940938
 21
663.03013774616386
 31
0.0
  0
INSERT
  5
7D98
  8
SP
  2
_OPEN
 10
-5194.336002594091
 20
663.03013774616386
 30
0.0
 41
25.0
 42
25.0
 43
25.0
 50
180.0
  0
INSERT
  5
7D99
  8
SP
  2
_OPEN
 10
-4694.3360025940938
 20
663.03013774616386
 30
0.0
 41
25.0
 42
25.0
 43
25.0
  0
TEXT
  5
7D9A
  8
SP
 10
-4986.2123833377027
 20
673.03013774616375
 30
0.0
 40
30.0
  1
500
 51
15.0
  0
POINT
  5
7D9B
  8
DEFPOINTS
 62
     0
 10
-5194.336002594091
 20
803.03013774616375
 30
0.0
  0
POINT
  5
7D9C
  8
DEFPOINTS
 62
     0
 10
-4694.3360025940938
 20
803.03013774616647
 30
0.0
  0
POINT
  5
7D9D
  8
DEFPOINTS
 62
     0
 10
-4694.3360025940938
 20
663.03013774616386
 30
0.0
  0
ENDBLK
  5
7AC7
  8
0
  0
BLOCK
  8
0
  2
*D21
 70
     1
 10
0.0
 20
0.0
 30
0.0
  3
*D21
  1

  0
LINE
  5
7D8C
  8
SP
 10
-4944.3360025940929
 20
757.16437955908975
 30
0.0
 11
-4944.3360025940929
 21
723.03013774616375
 31
0.0
  0
LINE
  5
7D8D
  8
SP
 10
-5194.336002594091
 20
793.03013774616375
 30
0.0
 11
-5194.336002594091
 21
723.03013774616375
 31
0.0
  0
LINE
  5
7D8E
  8
SP
 10
-4969.3360025940938
 20
733.03013774616375
 30
0.0
 11
-5169.336002594092
 21
733.03013774616375
 31
0.0
  0
INSERT
  5
7D8F
  8
SP
  2
_OPEN
 10
-4944.3360025940929
 20
733.03013774616375
 30
0.0
 41
25.0
 42
25.0
 43
25.0
  0
INSERT
  5
7D90
  8
SP
  2
_OPEN
 10
-5194.336002594091
 20
733.03013774616375
 30
0.0
 41
25.0
 42
25.0
 43
25.0
 50
180.0
  0
TEXT
  5
7D91
  8
SP
 10
-5110.4468142164696
 20
743.03013774616375
 30
0.0
 40
30.0
  1
250
 51
15.0
  0
POINT
  5
7D92
  8
DEFPOINTS
 62
     0
 10
-4944.3360025940929
 20
767.16437955908975
 30
0.0
  0
POINT
  5
7D93
  8
DEFPOINTS
 62
     0
 10
-5194.336002594091
 20
803.03013774616375
 30
0.0
  0
POINT
  5
7D94
  8
DEFPOINTS
 62
     0
 10
-5194.336002594091
 20
733.03013774616375
 30
0.0
  0
ENDBLK
  5
7AD4
  8
0
  0
BLOCK
  8
0
  2
*D22
 70
     1
 10
0.0
 20
0.0
 30
0.0
  3
*D22
  1

  0
LINE
  5
7DB9
  8
SP
 10
-4944.3360025940929
 20
757.16437955908975
 30
0.0
 11
-4944.3360025940929
 21
723.03013774616636
 31
0.0
  0
LINE
  5
7DBA
  8
SP
 10
-4694.3360025940938
 20
793.03013774616636
 30
0.0
 11
-4694.3360025940938
 21
723.03013774616636
 31
0.0
  0
LINE
  5
7DBB
  8
SP
 10
-4919.3360025940929
 20
733.03013774616636
 30
0.0
 11
-4719.3360025940938
 21
733.03013774616636
 31
0.0
  0
INSERT
  5
7DBC
  8
SP
  2
_OPEN
 10
-4944.3360025940929
 20
733.03013774616636
 30
0.0
 41
25.0
 42
25.0
 43
25.0
 50
180.0
  0
INSERT
  5
7DBD
  8
SP
  2
_OPEN
 10
-4694.3360025940938
 20
733.03013774616636
 30
0.0
 41
25.0
 42
25.0
 43
25.0
  0
TEXT
  5
7DBE
  8
SP
 10
-4860.4468142164696
 20
743.03013774616636
 30
0.0
 40
30.0
  1
250
 51
15.0
  0
POINT
  5
7DBF
  8
DEFPOINTS
 62
     0
 10
-4944.3360025940929
 20
767.16437955908975
 30
0.0
  0
POINT
  5
7DC0
  8
DEFPOINTS
 62
     0
 10
-4694.3360025940938
 20
803.03013774616647
 30
0.0
  0
POINT
  5
7DC1
  8
DEFPOINTS
 62
     0
 10
-4694.3360025940938
 20
733.03013774616636
 30
0.0
  0
ENDBLK
  5
7AE1
  8
0
  0
BLOCK
  8
0
  2
L-30-3
 70
     0
 10
0.0
 20
0.0
 30
0.0
  3
L-30-3
  1

  0
LINE
  5
7AE8
  8
0
 10
115.2488417492448
 20
98.116970357453638
 30
0.0
 11
145.2488417492448
 21
98.116970357453638
 31
0.0
  0
LINE
  5
7AE9
  8
0
 10
115.2488417492448
 20
98.116970357453638
 30
0.0
 11
115.2488417492448
 21
128.1169703574536
 31
0.0
  0
LINE
  5
7AEA
  8
0
 10
145.2488417492448
 20
98.116970357453638
 30
0.0
 11
145.2488417492448
 21
99.116970357453638
 31
0.0
  0
LINE
  5
7AEB
  8
0
 10
115.2488417492448
 20
128.1169703574536
 30
0.0
 11
116.2488417492448
 21
128.1169703574536
 31
0.0
  0
LINE
  5
7AEC
  8
0
 10
122.2488417492448
 20
101.1169703574536
 30
0.0
 11
143.2488417492448
 21
101.1169703574536
 31
0.0
  0
LINE
  5
7AED
  8
0
 10
118.2488417492448
 20
105.1169703574536
 30
0.0
 11
118.2488417492448
 21
126.1169703574536
 31
0.0
  0
ARC
  5
7AEE
  8
0
 10
143.2488417492448
 20
99.116970357453638
 30
0.0
 40
2.0
 50
0.0
 51
90.0
  0
ARC
  5
7AEF
  8
0
 10
116.2488417492448
 20
126.1169703574536
 30
0.0
 40
2.0
 50
0.0
 51
90.0
  0
ARC
  5
7AF0
  8
0
 10
122.2488417492448
 20
105.1169703574536
 30
0.0
 40
4.0
 50
180.0
 51
270.0
  0
ENDBLK
  5
7AF2
  8
0
  0
BLOCK
  8
0
  2
*D24
 70
     1
 10
0.0
 20
0.0
 30
0.0
  3
*D24
  1

  0
LINE
  5
7DA7
  8
SP
 10
-4436.336002594092
 20
823.03013774616386
 30
0.0
 11
-4436.336002594092
 21
653.03013774616375
 31
0.0
  0
LINE
  5
7DA8
  8
SP
 10
-3886.336002594092
 20
823.03013774616682
 30
0.0
 11
-3886.336002594092
 21
653.03013774616375
 31
0.0
  0
LINE
  5
7DA9
  8
SP
 10
-4411.3360025940929
 20
663.03013774616386
 30
0.0
 11
-3911.336002594092
 21
663.03013774616386
 31
0.0
  0
INSERT
  5
7DAA
  8
SP
  2
_OPEN
 10
-4436.336002594092
 20
663.03013774616386
 30
0.0
 41
25.0
 42
25.0
 43
25.0
 50
180.0
  0
INSERT
  5
7DAB
  8
SP
  2
_OPEN
 10
-3886.336002594092
 20
663.03013774616386
 30
0.0
 41
25.0
 42
25.0
 43
25.0
  0
TEXT
  5
7DAC
  8
SP
 10
-4203.2123833377018
 20
673.03013774616375
 30
0.0
 40
30.0
  1
550
 51
15.0
  0
POINT
  5
7DAD
  8
DEFPOINTS
 62
     0
 10
-4436.336002594092
 20
833.03013774616386
 30
0.0
  0
POINT
  5
7DAE
  8
DEFPOINTS
 62
     0
 10
-3886.336002594092
 20
833.0301377461667
 30
0.0
  0
POINT
  5
7DAF
  8
DEFPOINTS
 62
     0
 10
-3886.336002594092
 20
663.03013774616386
 30
0.0
  0
ENDBLK
  5
7B0C
  8
0
  0
BLOCK
  8
0
  2
*D25
 70
     1
 10
0.0
 20
0.0
 30
0.0
  3
*D25
  1

  0
LINE
  5
7DC2
  8
SP
 10
-4094.3360025940929
 20
853.83458395176046
 30
0.0
 11
-4094.3360025940929
 21
723.03013774616636
 31
0.0
  0
LINE
  5
7DC3
  8
SP
 10
-4436.336002594092
 20
823.03013774616386
 30
0.0
 11
-4436.336002594092
 21
723.03013774616636
 31
0.0
  0
LINE
  5
7DC4
  8
SP
 10
-4119.336002594092
 20
733.03013774616636
 30
0.0
 11
-4411.3360025940929
 21
733.03013774616636
 31
0.0
  0
INSERT
  5
7DC5
  8
SP
  2
_OPEN
 10
-4094.3360025940929
 20
733.03013774616636
 30
0.0
 41
25.0
 42
25.0
 43
25.0
  0
INSERT
  5
7DC6
  8
SP
  2
_OPEN
 10
-4436.336002594092
 20
733.03013774616636
 30
0.0
 41
25.0
 42
25.0
 43
25.0
 50
180.0
  0
TEXT
  5
7DC7
  8
SP
 10
-4307.2123833377018
 20
743.03013774616636
 30
0.0
 40
30.0
  1
342
 51
15.0
  0
POINT
  5
7DC8
  8
DEFPOINTS
 62
     0
 10
-4094.3360025940929
 20
863.83458395176058
 30
0.0
  0
POINT
  5
7DC9
  8
DEFPOINTS
 62
     0
 10
-4436.336002594092
 20
833.03013774616386
 30
0.0
  0
POINT
  5
7DCA
  8
DEFPOINTS
 62
     0
 10
-4436.336002594092
 20
733.03013774616636
 30
0.0
  0
ENDBLK
  5
7B19
  8
0
  0
BLOCK
  8
0
  2
*D26
 70
     1
 10
0.0
 20
0.0
 30
0.0
  3
*D26
  1

  0
LINE
  5
7DB0
  8
SP
 10
-4094.3360025940929
 20
853.83458395176046
 30
0.0
 11
-4094.3360025940929
 21
723.03013774616636
 31
0.0
  0
LINE
  5
7DB1
  8
SP
 10
-3886.336002594092
 20
823.03013774616682
 30
0.0
 11
-3886.336002594092
 21
723.03013774616636
 31
0.0
  0
LINE
  5
7DB2
  8
SP
 10
-4069.336002594092
 20
733.03013774616636
 30
0.0
 11
-3911.336002594092
 21
733.03013774616636
 31
0.0
  0
INSERT
  5
7DB3
  8
SP
  2
_OPEN
 10
-4094.3360025940929
 20
733.03013774616636
 30
0.0
 41
25.0
 42
25.0
 43
25.0
 50
180.0
  0
INSERT
  5
7DB4
  8
SP
  2
_OPEN
 10
-3886.336002594092
 20
733.03013774616636
 30
0.0
 41
25.0
 42
25.0
 43
25.0
  0
TEXT
  5
7DB5
  8
SP
 10
-4031.6382064967779
 20
743.03013774616636
 30
0.0
 40
30.0
  1
208
 51
15.0
  0
POINT
  5
7DB6
  8
DEFPOINTS
 62
     0
 10
-4094.3360025940929
 20
863.83458395176058
 30
0.0
  0
POINT
  5
7DB7
  8
DEFPOINTS
 62
     0
 10
-3886.336002594092
 20
833.0301377461667
 30
0.0
  0
POINT
  5
7DB8
  8
DEFPOINTS
 62
     0
 10
-3886.336002594092
 20
733.03013774616636
 30
0.0
  0
ENDBLK
  5
7B26
  8
0
  0
BLOCK
  8
0
  2
*D27
 70
     1
 10
0.0
 20
0.0
 30
0.0
  3
*D27
  1

  0
LINE
  5
8028
  8
SP
 10
-4684.336002594092
 20
2340.121728488441
 30
0.0
 11
-4555.1028477773934
 21
2340.121728488441
 31
0.0
  0
LINE
  5
8029
  8
SP
 10
-4684.336002594092
 20
1790.1217284884401
 30
0.0
 11
-4555.1028477773943
 21
1790.1217284884401
 31
0.0
  0
LINE
  5
802A
  8
SP
 10
-4565.1028477773934
 20
2315.121728488441
 30
0.0
 11
-4565.1028477773943
 21
1815.1217284884401
 31
0.0
  0
INSERT
  5
802B
  8
SP
  2
_OPEN
 10
-4565.1028477773934
 20
2340.121728488441
 30
0.0
 41
25.0
 42
25.0
 43
25.0
 50
90.0
  0
INSERT
  5
802C
  8
SP
  2
_OPEN
 10
-4565.1028477773943
 20
1790.1217284884401
 30
0.0
 41
25.0
 42
25.0
 43
25.0
 50
270.0
  0
TEXT
  5
802D
  8
SP
 10
-4575.1028477773943
 20
2023.24534774483
 30
0.0
 40
30.0
  1
550
 50
90.0
 51
15.0
  0
POINT
  5
802E
  8
DEFPOINTS
 62
     0
 10
-4694.336002594092
 20
2340.121728488441
 30
0.0
  0
POINT
  5
802F
  8
DEFPOINTS
 62
     0
 10
-4694.336002594092
 20
1790.1217284884401
 30
0.0
  0
POINT
  5
8030
  8
DEFPOINTS
 62
     0
 10
-4565.1028477773943
 20
1790.1217284884401
 30
0.0
  0
ENDBLK
  5
8011
  8
0
  0
BLOCK
  8
0
  2
*D28
 70
     1
 10
0.0
 20
0.0
 30
0.0
  3
*D28
  1

  0
LINE
  5
801F
  8
SP
 10
-4694.336002594092
 20
1780.1217284884401
 30
0.0
 11
-4694.336002594092
 21
1661.373387214825
 31
0.0
  0
LINE
  5
8020
  8
SP
 10
-5194.3360025940938
 20
1780.1217284884431
 30
0.0
 11
-5194.3360025940938
 21
1661.373387214825
 31
0.0
  0
LINE
  5
8021
  8
SP
 10
-4719.3360025940929
 20
1671.3733872148259
 30
0.0
 11
-5169.3360025940938
 21
1671.3733872148259
 31
0.0
  0
INSERT
  5
8022
  8
SP
  2
_OPEN
 10
-4694.336002594092
 20
1671.3733872148259
 30
0.0
 41
25.0
 42
25.0
 43
25.0
  0
INSERT
  5
8023
  8
SP
  2
_OPEN
 10
-5194.3360025940938
 20
1671.3733872148259
 30
0.0
 41
25.0
 42
25.0
 43
25.0
 50
180.0
  0
TEXT
  5
8024
  8
SP
 10
-4986.2123833377027
 20
1681.3733872148259
 30
0.0
 40
30.0
  1
500
 51
15.0
  0
POINT
  5
8025
  8
DEFPOINTS
 62
     0
 10
-4694.336002594092
 20
1790.1217284884401
 30
0.0
  0
POINT
  5
8026
  8
DEFPOINTS
 62
     0
 10
-5194.3360025940938
 20
1790.1217284884431
 30
0.0
  0
POINT
  5
8027
  8
DEFPOINTS
 62
     0
 10
-5194.3360025940938
 20
1671.3733872148259
 30
0.0
  0
ENDBLK
  5
801E
  8
0
  0
BLOCK
  8
0
  2
*D29
 70
     1
 10
0.0
 20
0.0
 30
0.0
  3
*D29
  1

  0
LINE
  5
86C3
  8
SP
 10
-1381.9142715201369
 20
823.03013774616477
 30
0.0
 11
-1381.9142715201369
 21
653.03013774616466
 31
0.0
  0
LINE
  5
86C4
  8
SP
 10
-831.91427152013478
 20
823.03013774616761
 30
0.0
 11
-831.91427152013478
 21
653.03013774616466
 31
0.0
  0
LINE
  5
86C5
  8
SP
 10
-1356.9142715201369
 20
663.03013774616466
 30
0.0
 11
-856.91427152013478
 21
663.03013774616466
 31
0.0
  0
INSERT
  5
86C6
  8
SP
  2
_OPEN
 10
-1381.9142715201369
 20
663.03013774616466
 30
0.0
 41
25.0
 42
25.0
 43
25.0
 50
180.0
  0
INSERT
  5
86C7
  8
SP
  2
_OPEN
 10
-831.91427152013478
 20
663.03013774616466
 30
0.0
 41
25.0
 42
25.0
 43
25.0
  0
TEXT
  5
86C8
  8
SP
 10
-1148.790652263745
 20
673.03013774616466
 30
0.0
 40
30.0
  1
550
 51
15.0
  0
POINT
  5
86C9
  8
DEFPOINTS
 62
     0
 10
-1381.9142715201369
 20
833.03013774616477
 30
0.0
  0
POINT
  5
86CA
  8
DEFPOINTS
 62
     0
 10
-831.91427152013478
 20
833.03013774616761
 30
0.0
  0
POINT
  5
86CB
  8
DEFPOINTS
 62
     0
 10
-831.91427152013478
 20
663.03013774616466
 30
0.0
  0
ENDBLK
  5
86CD
  8
0
  0
BLOCK
  8
0
  2
*D30
 70
     1
 10
0.0
 20
0.0
 30
0.0
  3
*D30
  1

  0
LINE
  5
86CF
  8
SP
 10
-1381.9142715201369
 20
823.03013774616477
 30
0.0
 11
-1381.9142715201369
 21
723.03013774616738
 31
0.0
  0
LINE
  5
86D0
  8
SP
 10
-1039.914271520136
 20
846.17141374125629
 30
0.0
 11
-1039.914271520136
 21
723.03013774616738
 31
0.0
  0
LINE
  5
86D1
  8
SP
 10
-1356.9142715201369
 20
733.03013774616727
 30
0.0
 11
-1064.914271520136
 21
733.03013774616727
 31
0.0
  0
INSERT
  5
86D2
  8
SP
  2
_OPEN
 10
-1381.9142715201369
 20
733.03013774616727
 30
0.0
 41
25.0
 42
25.0
 43
25.0
 50
180.0
  0
INSERT
  5
86D3
  8
SP
  2
_OPEN
 10
-1039.914271520136
 20
733.03013774616727
 30
0.0
 41
25.0
 42
25.0
 43
25.0
  0
TEXT
  5
86D4
  8
SP
 10
-1252.7906522637461
 20
743.03013774616738
 30
0.0
 40
30.0
  1
342
 51
15.0
  0
POINT
  5
86D5
  8
DEFPOINTS
 62
     0
 10
-1381.9142715201369
 20
833.03013774616477
 30
0.0
  0
POINT
  5
86D6
  8
DEFPOINTS
 62
     0
 10
-1039.914271520136
 20
856.17141374125629
 30
0.0
  0
POINT
  5
86D7
  8
DEFPOINTS
 62
     0
 10
-1039.914271520136
 20
733.03013774616727
 30
0.0
  0
ENDBLK
  5
86D9
  8
0
  0
BLOCK
  8
0
  2
*D31
 70
     1
 10
0.0
 20
0.0
 30
0.0
  3
*D31
  1

  0
LINE
  5
86DB
  8
SP
 10
-1039.914271520136
 20
846.17141374125629
 30
0.0
 11
-1039.914271520136
 21
723.03013774616738
 31
0.0
  0
LINE
  5
86DC
  8
SP
 10
-831.91427152013478
 20
823.03013774616761
 30
0.0
 11
-831.91427152013478
 21
723.03013774616738
 31
0.0
  0
LINE
  5
86DD
  8
SP
 10
-1014.914271520136
 20
733.03013774616727
 30
0.0
 11
-856.91427152013478
 21
733.03013774616727
 31
0.0
  0
INSERT
  5
86DE
  8
SP
  2
_OPEN
 10
-1039.914271520136
 20
733.03013774616727
 30
0.0
 41
25.0
 42
25.0
 43
25.0
 50
180.0
  0
INSERT
  5
86DF
  8
SP
  2
_OPEN
 10
-831.91427152013478
 20
733.03013774616727
 30
0.0
 41
25.0
 42
25.0
 43
25.0
  0
TEXT
  5
86E0
  8
SP
 10
-977.21647542282119
 20
743.03013774616738
 30
0.0
 40
30.0
  1
208
 51
15.0
  0
POINT
  5
86E1
  8
DEFPOINTS
 62
     0
 10
-1039.914271520136
 20
856.17141374125629
 30
0.0
  0
POINT
  5
86E2
  8
DEFPOINTS
 62
     0
 10
-831.91427152013478
 20
833.03013774616761
 30
0.0
  0
POINT
  5
86E3
  8
DEFPOINTS
 62
     0
 10
-831.91427152013478
 20
733.03013774616727
 30
0.0
  0
ENDBLK
  5
86E5
  8
0
  0
BLOCK
  8
0
  2
A$C2B876C76
 70
     0
 10
0.0
 20
0.0
 30
0.0
  3
A$C2B876C76
  1

  0
DIMENSION
  5
86E7
  8
SP
  2
*D31
 10
208.00000000000119
 20
-354.99999999999858
 30
0.0
 11
104.0000000000006
 21
-329.99999999999858
 31
0.0
 12
1039.914271520136
 22
-1088.030137746166
 32
0.0
  3
GOD
 13
0.0
 23
-231.85872400490959
 33
0.0
 14
208.00000000000119
 24
-254.99999999999821
 34
0.0
  0
DIMENSION
  5
86E8
  8
SP
  2
*D30
 10
0.0
 20
-354.99999999999858
 30
0.0
 11
-171.0000000000006
 21
-329.99999999999858
 31
0.0
 12
1039.914271520136
 22
-1088.030137746166
 32
0.0
  3
GOD
 13
-342.00000000000131
 23
-255.00000000000111
 33
0.0
 14
0.0
 24
-231.85872400490959
 34
0.0
  0
DIMENSION
  5
86E9
  8
SP
  2
*D29
 10
208.00000000000119
 20
-425.00000000000131
 30
0.0
 11
-67.0
 21
-400.00000000000131
 31
0.0
 12
1039.914271520136
 22
-1088.030137746166
 32
0.0
  3
GOD
 13
-342.00000000000131
 23
-255.00000000000111
 33
0.0
 14
208.00000000000119
 24
-254.99999999999821
 34
0.0
  0
ENDBLK
  5
86EB
  8
0
  0
BLOCK
  8
0
  2
A$C6C4A0FF6
 70
     0
 10
0.0
 20
0.0
 30
0.0
  3
A$C6C4A0FF6
  1

  0
TEXT
  5
896F
  8
4
 10
-1279.9131182430349
 20
-500.553685345958
 30
0.0
 40
53.999999999999993
  1
天井吊ベッド型
  0
ENDBLK
  5
8971
  8
0
  0
ENDSEC
  0
SECTION
  2
ENTITIES
  0
LINE
  5
276D
  8
4
 10
-3565.2949403355578
 20
96.092404061039815
 30
0.0
 11
-5665.2949403355578
 21
96.092404061039815
 31
0.0
  0
LINE
  5
276E
  8
4
 10
-5665.2949403355578
 20
3046.0924040610389
 30
0.0
 11
-3565.2949403355578
 21
3046.0924040610389
 31
0.0
  0
LINE
  5
276F
  8
4
 10
-5215.2949403355569
 20
513.62952889758606
 30
0.0
 11
-4015.2949403355569
 21
513.62952889758606
 31
0.0
  0
LINE
  5
2770
  8
4
 10
-5415.2949403355578
 20
2831.5186316473701
 30
0.0
 11
-3815.2949403355578
 21
2831.5186316473701
 31
0.0
  0
LINE
  5
2771
  8
4
 10
-5415.2949403355578
 20
2631.5186316473701
 30
0.0
 11
-3815.2949403355578
 21
2631.5186316473701
 31
0.0
  0
TEXT
  5
2772
  8
4
 10
-5205.6949403355584
 20
2695.5186316473701
 30
0.0
 40
72.0
  1
遠心式片吸込直動形多翼ファン
 72
     4
 11
-4615.2949403355578
 21
2731.5186316473701
 31
0.0
  0
TEXT
  5
2773
  8
4
 10
-4845.2080585785934
 20
2545.5387187150809
 30
0.0
 40
53.999999999999993
  1
天井吊ベッド型
  0
LINE
  5
2774
  8
4
 10
-5215.2949403355569
 20
413.62952889758611
 30
0.0
 11
-4015.2949403355569
 21
413.62952889758611
 31
0.0
  0
LINE
  5
2775
  8
4
 10
-5215.2949403355569
 20
313.62952889758611
 30
0.0
 11
-4015.2949403355569
 21
313.62952889758611
 31
0.0
  0
LINE
  5
2777
  8
4
 10
-5665.2949403355578
 20
96.092404061039815
 30
0.0
 11
-5665.2949403355578
 21
3046.0924040610389
 31
0.0
  0
TEXT
  5
277B
  8
4
 10
-5179.0368343107602
 20
335.27468562959712
 30
0.0
 40
50.0
  1
機器型番
  0
TEXT
  5
277C
  8
4
 10
-5176.7928594886562
 20
445.17255476419911
 30
0.0
 40
50.0
  1
機器名称
  0
LINE
  5
277E
  8
4
 10
-5215.2949403355569
 20
513.62952889758606
 30
0.0
 11
-5215.2949403355569
 21
313.62952889758611
 31
0.0
  0
TEXT
  5
27EF
  8
4
 10
-5385.5321462678094
 20
2544.4293549289091
 30
0.0
 40
53.999999999999993
  1
右回転右横向
  0
LINE
  5
27F0
  8
4
 10
-5415.2949403355578
 20
2831.5186316473701
 30
0.0
 11
-5415.2949403355578
 21
2631.5186316473701
 31
0.0
  0
LINE
  5
27FE
  8
1
 10
-5142.3360025940929
 20
2222.1217284884419
 30
0.0
 11
-4764.3360025940892
 21
2222.121728488441
 31
0.0
  0
LINE
  5
27FF
  8
1
 10
-5142.3360025940929
 20
2042.121728488441
 30
0.0
 11
-4764.3360025940892
 21
2042.1217284884401
 31
0.0
  0
LINE
  5
2800
  8
2
 10
-5187.5457150866587
 20
2132.1217284884428
 30
0.0
 11
-4734.1883880207433
 21
2132.121728488441
 31
0.0
  0
LINE
  5
2809
  8
2
 10
-4944.3360025940929
 20
1736.6368343932661
 30
0.0
 11
-4944.3360025940929
 21
2252.3691039297701
 31
0.0
  0
LINE
  5
284B
  8
1
 10
-4745.3360025940892
 20
2041.121728488441
 30
0.0
 11
-4745.3360025940892
 21
2022.1217284884419
 31
0.0
  0
LINE
  5
284C
  8
1
 10
-4744.3360025940892
 20
2242.121728488441
 30
0.0
 11
-4744.3360025940892
 21
2022.1217284884419
 31
0.0
  0
LINE
  5
2868
  8
1
 10
-4744.3360025940892
 20
2022.1217284884419
 30
0.0
 11
-4745.3360025940892
 21
2022.1217284884419
 31
0.0
  0
LINE
  5
286F
  8
1
 10
-4764.3360025940892
 20
2202.1217284884419
 30
0.0
 11
-4764.3360025940892
 21
2062.1217284884401
 31
0.0
  0
LINE
  5
2870
  8
1
 10
-4745.3360025940892
 20
2222.121728488441
 30
0.0
 11
-4745.3360025940892
 21
2042.1217284884401
 31
0.0
  0
LINE
  5
2877
  8
1
 10
-4745.3360025940892
 20
2041.121728488441
 30
0.0
 11
-4764.3360025940892
 21
2041.121728488441
 31
0.0
  0
LINE
  5
2878
  8
1
 10
-4744.3360025940892
 20
2042.1217284884401
 30
0.0
 11
-4764.3360025940892
 21
2042.1217284884401
 31
0.0
  0
LINE
  5
2879
  8
1
 10
-4746.3360025940892
 20
2044.121728488441
 30
0.0
 11
-4764.3360025940892
 21
2062.1217284884401
 31
0.0
  0
LINE
  5
287A
  8
1
 10
-4746.3360025940892
 20
2044.121728488441
 30
0.0
 11
-4746.3360025940892
 21
2042.1217284884401
 31
0.0
  0
LINE
  5
2880
  8
1
 10
-4746.3360025940892
 20
2220.121728488441
 30
0.0
 11
-4764.3360025940892
 21
2202.121728488441
 31
0.0
  0
LINE
  5
2882
  8
1
 10
-4745.3360025940892
 20
2223.121728488441
 30
0.0
 11
-4764.3360025940892
 21
2223.121728488441
 31
0.0
  0
LINE
  5
2883
  8
1
 10
-4744.3360025940892
 20
2222.121728488441
 30
0.0
 11
-4764.3360025940892
 21
2222.121728488441
 31
0.0
  0
LINE
  5
2884
  8
1
 10
-4744.3360025940892
 20
2242.121728488441
 30
0.0
 11
-4745.3360025940892
 21
2242.121728488441
 31
0.0
  0
LINE
  5
2885
  8
1
 10
-4746.3360025940892
 20
2222.121728488441
 30
0.0
 11
-4746.3360025940892
 21
2220.121728488441
 31
0.0
  0
LINE
  5
2886
  8
1
 10
-4745.3360025940892
 20
2242.121728488441
 30
0.0
 11
-4745.3360025940892
 21
2223.121728488441
 31
0.0
  0
LINE
  5
2889
  8
4
 10
-3565.2949403355578
 20
3046.0924040610389
 30
0.0
 11
-3565.2949403355578
 21
96.092404061039815
 31
0.0
  0
LINE
  5
288F
  8
1
 10
-4193.3360025940892
 20
1067.030137746169
 30
0.0
 11
-3995.3360025940929
 21
1067.0301377461651
 31
0.0
  0
LINE
  5
2890
  8
1
 10
-4004.3360025940929
 20
1088.0301377461669
 30
0.0
 11
-4184.336002594092
 21
1088.0301377461669
 31
0.0
  0
LINE
  5
2891
  8
1
 10
-4003.336002594096
 20
1087.0301377461669
 30
0.0
 11
-4185.3360025940929
 21
1087.0301377461669
 31
0.0
  0
LINE
  5
2892
  8
1
 10
-4193.3360025940929
 20
1359.030137746166
 30
0.0
 11
-3995.336002594097
 21
1359.0301377461631
 31
0.0
  0
LINE
  5
2893
  8
1
 10
-4184.336002594092
 20
1338.0301377461651
 30
0.0
 11
-4004.3360025940929
 21
1338.0301377461651
 31
0.0
  0
LINE
  5
2894
  8
1
 10
-4185.3360025940929
 20
1339.0301377461651
 30
0.0
 11
-4003.3360025940892
 21
1339.030137746164
 31
0.0
  0
LINE
  5
2895
  8
HOSO
 10
-4184.336002594092
 20
1338.0301377461651
 30
0.0
 11
-4004.3360025940929
 21
1088.0301377461669
 31
0.0
  0
LINE
  5
2896
  8
HOSO
 10
-4004.3360025940929
 20
1338.0301377461651
 30
0.0
 11
-4184.336002594092
 21
1088.0301377461669
 31
0.0
  0
LINE
  5
2899
  8
1
 10
-4173.3360025940929
 20
912.03013774616727
 30
0.0
 11
-4015.336002594092
 21
912.03013774616727
 31
0.0
  0
LINE
  5
289A
  8
1
 10
-4173.3360025940929
 20
911.03013774616738
 30
0.0
 11
-4015.336002594092
 21
911.03013774616738
 31
0.0
  0
LINE
  5
289B
  8
2
 10
-4470.0932271021284
 20
1088.0301377461669
 30
0.0
 11
-3973.5428976476392
 21
1088.0301377461669
 31
0.0
  0
TEXT
  5
289D
  8
4
 10
-4678.6404447500772
 20
330.78911317752949
 30
0.0
 40
50.0
  1
MF＃1 1/2-7
  0
TEXT
  5
289E
  8
4
 10
-4687.616194847893
 20
436.20129785515468
 30
0.0
 40
50.0
  1
ミツヤ多翼送風機
  0
LINE
  5
289F
  8
4
 10
-4715.2949403355569
 20
513.62952889758606
 30
0.0
 11
-4715.2949403355569
 21
313.62952889758611
 31
0.0
  0
LINE
  5
28CE
  8
1
 10
-4205.3360025940929
 20
1347.030137746166
 30
0.0
 11
-4205.3360025940892
 21
1079.030137746169
 31
0.0
  0
LINE
  5
28CF
  8
1
 10
-4184.336002594092
 20
1338.0301377461651
 30
0.0
 11
-4184.336002594092
 21
1088.0301377461669
 31
0.0
  0
LINE
  5
28D0
  8
1
 10
-4185.3360025940929
 20
1339.0301377461651
 30
0.0
 11
-4185.3360025940929
 21
1087.0301377461669
 31
0.0
  0
LINE
  5
28D3
  8
2
 10
-4094.3360025940929
 20
1415.453374938111
 30
0.0
 11
-4094.3360025940929
 21
863.83458395176058
 31
0.0
  0
ARC
  5
28D5
  8
1
 10
-4173.3360025940929
 20
923.03013774616727
 30
0.0
 40
12.0
 50
180.0
 51
270.0
  0
ARC
  5
28E5
  8
1
 10
-4193.3360025940892
 20
1079.030137746169
 30
0.0
 40
12.0
 50
180.0
 51
270.0
  0
LINE
  5
28E7
  8
1
 10
-4184.336002594092
 20
923.03013774616727
 30
0.0
 11
-4184.336002594092
 21
1067.030137746169
 31
0.0
  0
LINE
  5
28E8
  8
1
 10
-4185.3360025940929
 20
923.03013774616727
 30
0.0
 11
-4185.3360025940929
 21
1067.030137746169
 31
0.0
  0
LINE
  5
28E9
  8
1
 10
-4185.3360025940929
 20
938.03013774616727
 30
0.0
 11
-4185.3360025940929
 21
923.03013774616727
 31
0.0
  0
ARC
  5
28EA
  8
1
 10
-4173.3360025940929
 20
923.03013774616727
 30
0.0
 40
11.0
 50
180.0
 51
270.0
  0
ARC
  5
28F4
  8
1
 10
-4193.3360025940929
 20
1347.030137746166
 30
0.0
 40
12.0
 50
90.0
 51
180.0
  0
LINE
  5
28F5
  8
4
 10
-4015.2949403355569
 20
513.62952889758606
 30
0.0
 11
-4015.2949403355569
 21
313.62952889758611
 31
0.0
  0
LINE
  5
28F7
  8
1
 10
-3983.336002594096
 20
1347.0301377461631
 30
0.0
 11
-3983.3360025940929
 21
1079.0301377461651
 31
0.0
  0
LINE
  5
28F8
  8
1
 10
-4004.3360025940929
 20
1338.030137746164
 30
0.0
 11
-4004.3360025940929
 21
1088.0301377461669
 31
0.0
  0
LINE
  5
28F9
  8
1
 10
-4003.3360025940892
 20
1339.030137746164
 30
0.0
 11
-4003.336002594096
 21
1087.0301377461669
 31
0.0
  0
LINE
  5
28FB
  8
1
 10
-4003.336002594092
 20
1238.0301377461669
 30
0.0
 11
-4003.336002594091
 21
1088.0301377461669
 31
0.0
  0
LINE
  5
2906
  8
1
 10
-4004.3360025940951
 20
1067.0301377461651
 30
0.0
 11
-4004.3360025940929
 21
923.03013774616727
 31
0.0
  0
LINE
  5
2908
  8
1
 10
-4003.3360025940951
 20
1067.0301377461651
 30
0.0
 11
-4003.336002594092
 21
923.03013774616727
 31
0.0
  0
LINE
  5
290C
  8
1
 10
-4003.336002594092
 20
938.03013774616727
 30
0.0
 11
-4003.336002594092
 21
923.03013774616727
 31
0.0
  0
ARC
  5
290D
  8
1
 10
-4015.336002594092
 20
923.03013774616727
 30
0.0
 40
11.0
 50
270.0
 51
0.0
  0
ARC
  5
290E
  8
1
 10
-4015.336002594092
 20
923.03013774616727
 30
0.0
 40
12.0
 50
270.0
 51
0.0
  0
ARC
  5
290F
  8
1
 10
-4000.336002594092
 20
938.03013774616727
 30
0.0
 40
3.0
 50
90.0
 51
180.0
  0
ARC
  5
2914
  8
1
 10
-3995.3360025940929
 20
1079.0301377461651
 30
0.0
 40
12.0
 50
270.0
 51
0.0
  0
ARC
  5
2917
  8
1
 10
-3995.336002594097
 20
1347.0301377461631
 30
0.0
 40
12.0
 50
0.0
 51
90.0
  0
LINE
  5
2918
  8
4
 10
-3815.2949403355578
 20
2843.3734605079671
 30
0.0
 11
-4224.6775179756933
 21
2843.3734605079671
 31
0.0
  0
LINE
  5
2919
  8
4
 10
-4224.6775179756933
 20
2948.7621389323181
 30
0.0
 11
-3815.2949403355578
 21
2948.7621389323181
 31
0.0
  0
TEXT
  5
291A
  8
4
 10
-4224.1813230104945
 20
2545.5387187150809
 30
0.0
 40
53.999999999999993
  1
縮尺：1/10
  0
TEXT
  5
291B
  8
4
 10
-4196.325381086268
 20
2868.170958877874
 30
0.0
 40
56.000000000000007
  1
No.
  0
LINE
  5
291C
  8
4
 10
-4224.6775179756933
 20
2843.3734605079671
 30
0.0
 11
-4224.6775179756933
 21
2948.7621389323181
 31
0.0
  0
LINE
  5
291D
  8
4
 10
-3815.2949403355578
 20
2831.5186316473701
 30
0.0
 11
-3815.2949403355578
 21
2631.5186316473701
 31
0.0
  0
LINE
  5
291E
  8
4
 10
-3815.2949403355578
 20
2948.7621389323181
 30
0.0
 11
-3815.2949403355578
 21
2843.3734605079671
 31
0.0
  0
LINE
  5
291F
  8
4
 10
-3565.2949403355578
 20
3046.0924040610389
 30
0.0
 11
-3565.2949403355578
 21
3046.0924040610389
 31
0.0
  0
ARC
  5
5743
  8
FUTO
 10
-4961.336002594091
 20
1105.030137746164
 30
0.0
 40
203.0
 50
179.572081032222
 51
270.46732170499479
  0
ARC
  5
5744
  8
FUTO
 10
-4924.336002594091
 20
1108.030137746164
 30
0.0
 40
240.0
 50
89.999999999999986
 51
180.39182689926031
  0
ARC
  5
5745
  8
FUTO
 10
-4961.336002594091
 20
1105.030137746164
 30
0.0
 40
193.0
 50
179.572081032222
 51
270.46732170499479
  0
ARC
  5
5746
  8
FUTO
 10
-4924.336002594091
 20
1108.030137746164
 30
0.0
 40
230.0
 50
89.999999999999986
 51
180.39182689926031
  0
LINE
  5
5747
  8
2
 10
-4944.3360025940929
 20
767.16437955908975
 30
0.0
 11
-4944.3360025940929
 21
1384.8458668319649
 31
0.0
  0
LINE
  5
5748
  8
1
 10
-4786.636002594094
 20
1154.1301377461641
 30
0.0
 11
-4786.636002594094
 21
833.0301377461642
 31
0.0
  0
LINE
  5
5749
  8
1
 10
-4784.3360025940929
 20
1154.1301377461641
 30
0.0
 11
-4784.3360025940929
 21
835.33013774616529
 31
0.0
  0
LINE
  5
574A
  8
1
 10
-5102.0360025940927
 20
1154.1301377461641
 30
0.0
 11
-5102.0360025940927
 21
833.0301377461642
 31
0.0
  0
LINE
  5
574B
  8
1
 10
-5104.336002594092
 20
1154.1301377461641
 30
0.0
 11
-5104.336002594092
 21
835.330137746167
 31
0.0
  0
ARC
  5
574C
  8
1
 10
-4944.3360025940929
 20
1088.030137746166
 30
0.0
 40
85.0
 50
0.0
 51
244.12446600000609
  0
CIRCLE
  5
574D
  8
2
 10
-4944.3360025940929
 20
1088.030137746166
 30
0.0
 40
136.0
  0
ARC
  5
574E
  8
1
 10
-4944.3360025940929
 20
1088.030137746166
 30
0.0
 40
85.000007999999994
 50
295.9177259999754
 51
0.0
  0
LINE
  5
5752
  8
FUTO
 10
-5077.0360025940936
 20
983.03013774616602
 30
0.0
 11
-5102.0360025940918
 21
1008.030137746166
 31
0.0
  0
LINE
  5
5753
  8
1
 10
-5102.0360025940918
 20
884.03013774616602
 30
0.0
 11
-5077.0360025940936
 21
884.03013774616602
 31
0.0
  0
LINE
  5
5754
  8
1
 10
-5194.336002594091
 20
833.0301377461642
 30
0.0
 11
-4694.336002594092
 21
833.03013774616636
 31
0.0
  0
LINE
  5
5755
  8
1
 10
-5102.0360025940918
 20
1008.030137746166
 30
0.0
 11
-4786.636002594094
 21
1008.030137746166
 31
0.0
  0
LINE
  5
5757
  8
1
 10
-5134.3360025940929
 20
833.0301377461642
 30
0.0
 11
-5134.3360025940938
 21
835.33013774616529
 31
0.0
  0
LINE
  5
5758
  8
1
 10
-5134.3360025940929
 20
835.33013774616529
 30
0.0
 11
-5104.336002594092
 21
835.330137746167
 31
0.0
  0
LINE
  5
5759
  8
1
 10
-4811.6360025940949
 20
983.03013774616602
 30
0.0
 11
-4811.6360025940949
 21
884.03013774616602
 31
0.0
  0
LINE
  5
575A
  8
1
 10
-5077.0360025940936
 20
983.03013774616602
 30
0.0
 11
-5077.0360025940936
 21
884.03013774616602
 31
0.0
  0
LINE
  5
575B
  8
1
 10
-4811.6360025940949
 20
884.03013774616602
 30
0.0
 11
-4786.636002594094
 21
884.03013774616602
 31
0.0
  0
LINE
  5
575C
  8
1
 10
-4754.3360025940929
 20
833.03013774616602
 30
0.0
 11
-4754.3360025940929
 21
835.330137746167
 31
0.0
  0
LINE
  5
575E
  8
1
 10
-4784.3360025940929
 20
835.330137746167
 30
0.0
 11
-4754.3360025940929
 21
835.33013774616529
 31
0.0
  0
LINE
  5
575F
  8
FUTO
 10
-4811.6360025940921
 20
983.03013774616602
 30
0.0
 11
-4786.636002594094
 21
1008.030137746166
 31
0.0
  0
LINE
  5
5760
  8
1
 10
-5077.0360025940936
 20
983.03013774616602
 30
0.0
 11
-4811.636002594094
 21
983.03013774616602
 31
0.0
  0
LINE
  5
5761
  8
CT
 10
-5001.4221236487811
 20
950.21205007266565
 30
0.0
 11
-4990.9100381147491
 21
975.59046953774725
 31
0.0
  0
CIRCLE
  5
5762
  8
1
 10
-4996.380949395746
 20
962.3825213246314
 30
0.0
 40
4.0
  0
LINE
  5
5763
  8
CT
 10
-4887.2498815394038
 20
950.21205007266565
 30
0.0
 11
-4897.7619670734348
 21
975.59046953774725
 31
0.0
  0
CIRCLE
  5
5764
  8
1
 10
-4892.2910557924406
 20
962.3825213246314
 30
0.0
 40
4.0
  0
LINE
  5
5765
  8
1
 10
-4981.431501594092
 20
1011.579209746165
 30
0.0
 11
-4907.1841935940938
 21
1011.579209746165
 31
0.0
  0
LINE
  5
5766
  8
1
 10
-5026.8360025940929
 20
1009.689255746165
 30
0.0
 11
-4861.8359725940927
 21
1009.689255746165
 31
0.0
  0
LINE
  5
5767
  8
CT
 10
-5006.8360025940929
 20
1005.811551746165
 30
0.0
 11
-5006.8360025940929
 21
1014.398558746165
 31
0.0
  0
LINE
  5
5768
  8
CT
 10
-5082.1540902675933
 20
1030.944016691476
 30
0.0
 11
-5056.7756708025099
 21
1041.456102225507
 31
0.0
  0
ARC
  5
5769
  8
1
 10
-4996.7012065940917
 20
1017.530137746166
 30
0.0
 40
5.0
 50
270.0
 51
324.46176099999479
  0
LINE
  5
576A
  8
1
 10
-4990.9599405940944
 20
1016.965659746165
 30
0.0
 11
-4992.6325425940922
 21
1014.623887746166
 31
0.0
  0
LINE
  5
576B
  8
1
 10
-5022.1691635940906
 20
1012.5247667461661
 30
0.0
 11
-5006.6591705940918
 21
1030.211633746165
 31
0.0
  0
LINE
  5
576C
  8
1
 10
-5026.8360025940929
 20
1012.530137746166
 30
0.0
 11
-4996.7011765940924
 21
1012.530137746166
 31
0.0
  0
CIRCLE
  5
576D
  8
1
 10
-5069.9836190156266
 20
1035.9851909445131
 30
0.0
 40
4.0
  0
ARC
  5
576E
  8
1
 10
-4944.3360025940929
 20
1088.030137746166
 30
0.0
 40
85.0
 50
236.73178133168611
 51
244.12446600000609
  0
LINE
  5
576F
  8
1
 10
-4986.8360025940929
 20
1009.689255746165
 30
0.0
 11
-4986.8360025940929
 21
1008.030137746166
 31
0.0
  0
LINE
  5
5770
  8
1
 10
-5021.8360025940929
 20
1009.689255746165
 30
0.0
 11
-5021.8360025940929
 21
1008.030137746166
 31
0.0
  0
LINE
  5
5771
  8
1
 10
-5026.8360025940929
 20
1009.689255746165
 30
0.0
 11
-5026.8360025940929
 21
1012.530137746166
 31
0.0
  0
LINE
  5
5772
  8
CT
 10
-4806.5179149205924
 20
1030.9440166914781
 30
0.0
 11
-4831.8963343856758
 21
1041.456102225507
 31
0.0
  0
LINE
  5
5773
  8
CT
 10
-4881.8360025940929
 20
1005.811551746165
 30
0.0
 11
-4881.8360025940929
 21
1014.398558746165
 31
0.0
  0
LINE
  5
5774
  8
1
 10
-4861.8359725940927
 20
1012.530137746166
 30
0.0
 11
-4891.9707985940931
 21
1012.530137746166
 31
0.0
  0
LINE
  5
5775
  8
1
 10
-4866.501634594094
 20
1012.5233137461649
 30
0.0
 11
-4882.0146945940942
 21
1030.213775746166
 31
0.0
  0
LINE
  5
5776
  8
1
 10
-4896.8277325940917
 20
1015.727524746166
 30
0.0
 11
-4896.0394635940929
 21
1014.623887746166
 31
0.0
  0
LINE
  5
5777
  8
1
 10
-4897.7044515940916
 20
1016.954999746165
 30
0.0
 11
-4896.0394635940929
 21
1014.623887746166
 31
0.0
  0
ARC
  5
5778
  8
1
 10
-4891.9707985940931
 20
1017.530137746166
 30
0.0
 40
5.000032
 50
215.53825399997791
 51
270.0
  0
LINE
  5
5779
  8
1
 10
-4866.8360025940929
 20
1009.689255746165
 30
0.0
 11
-4866.8360025940929
 21
1008.030137746166
 31
0.0
  0
LINE
  5
577A
  8
1
 10
-4901.8360025940929
 20
1009.689255746165
 30
0.0
 11
-4901.8360025940929
 21
1008.030137746166
 31
0.0
  0
LINE
  5
577B
  8
1
 10
-4861.8359725940927
 20
1012.530137746166
 30
0.0
 11
-4861.8359725940927
 21
1009.689255746165
 31
0.0
  0
CIRCLE
  5
577C
  8
1
 10
-4818.6883861725582
 20
1035.9851909445131
 30
0.0
 40
4.0
  0
LINE
  5
577F
  8
FUTO
 10
-4744.3415580639157
 20
1338.030122314422
 30
0.0
 11
-4924.3415580639194
 21
1338.030122314422
 31
0.0
  0
LINE
  5
5780
  8
FUTO
 10
-4744.336002594091
 20
1339.030137746164
 30
0.0
 11
-4764.336002594091
 21
1339.030137746164
 31
0.0
  0
LINE
  5
5781
  8
FUTO
 10
-4745.336002594091
 20
1340.030137746164
 30
0.0
 11
-4764.336002594091
 21
1340.030137746164
 31
0.0
  0
LINE
  5
5782
  8
FUTO
 10
-4746.3360025940901
 20
1337.030137746164
 30
0.0
 11
-4764.336002594091
 21
1319.030137746164
 31
0.0
  0
LINE
  5
5783
  8
FUTO
 10
-4764.336002594091
 20
1088.030137746164
 30
0.0
 11
-4744.336002594091
 21
1088.030137746164
 31
0.0
  0
LINE
  5
5784
  8
FUTO
 10
-4744.336002594091
 20
1087.030137746164
 30
0.0
 11
-4764.336002594091
 21
1087.030137746164
 31
0.0
  0
LINE
  5
5785
  8
FUTO
 10
-4745.336002594091
 20
1086.030137746164
 30
0.0
 11
-4764.336002594091
 21
1086.030137746164
 31
0.0
  0
LINE
  5
5786
  8
FUTO
 10
-4746.3360025940901
 20
1089.030137746164
 30
0.0
 11
-4764.336002594091
 21
1107.030137746164
 31
0.0
  0
LINE
  5
5787
  8
FUTO
 10
-4764.336002594091
 20
1319.030137746164
 30
0.0
 11
-4764.336002594091
 21
1107.030137746164
 31
0.0
  0
LINE
  5
5788
  8
1
 10
-5004.3360025940929
 20
1238.030137746166
 30
0.0
 11
-5102.7360025940934
 21
1154.1301377461641
 31
0.0
  0
LINE
  5
5789
  8
2
 10
-5188.4838857074537
 20
1088.030137746166
 30
0.0
 11
-4734.1883880207433
 21
1088.030137746164
 31
0.0
  0
LINE
  5
578A
  8
FUTO
 10
-4764.336002594091
 20
1348.9191963868291
 30
0.0
 11
-4924.3971127621553
 21
1348.0299679970069
 31
0.0
  0
LINE
  5
578B
  8
1
 10
-5104.336002594092
 20
1154.1301377461641
 30
0.0
 11
-5102.7360025940934
 21
1154.1301377461641
 31
0.0
  0
LINE
  5
578C
  8
FUTO
 10
-4764.336002594091
 20
1348.9191963868291
 30
0.0
 11
-4764.336002594091
 21
1338.9190420670329
 31
0.0
  0
ARC
  5
578D
  8
FUTO
 10
-4958.336002594091
 20
1074.030137746164
 30
0.0
 40
172.0
 50
269.48966675519341
 51
348.4507381764214
  0
ARC
  5
578E
  8
FUTO
 10
-4958.336002594091
 20
1074.030137746164
 30
0.0
 40
162.0
 50
269.48966675519341
 51
348.4507381764214
  0
LINE
  5
578F
  8
1
 10
-4884.3360025940929
 20
1238.030137746166
 30
0.0
 11
-4785.9360025940932
 21
1154.1301377461641
 31
0.0
  0
LINE
  5
5790
  8
CT
 10
-5082.1540902675933
 20
1145.1162588008519
 30
0.0
 11
-5056.7756708025099
 21
1134.6041732668241
 31
0.0
  0
CIRCLE
  5
5791
  8
1
 10
-5069.9836190156266
 20
1140.0750845478181
 30
0.0
 40
4.0
  0
LINE
  5
5792
  8
CT
 10
-4806.5179149205924
 20
1145.1162588008519
 30
0.0
 11
-4831.8963343856758
 21
1134.6041732668241
 31
0.0
  0
CIRCLE
  5
5793
  8
1
 10
-4818.6883861725582
 20
1140.0750845478181
 30
0.0
 40
4.0
  0
LINE
  5
5794
  8
1
 10
-4785.9360025940932
 20
1154.1301377461641
 30
0.0
 11
-4784.3360025940929
 21
1154.1301377461641
 31
0.0
  0
LINE
  5
5795
  8
CT
 10
-4887.2498815394038
 20
1225.848225419664
 30
0.0
 11
-4897.7619670734366
 21
1200.4698059545831
 31
0.0
  0
LINE
  5
5796
  8
CT
 10
-5001.4221236487811
 20
1225.848225419664
 30
0.0
 11
-4990.9100381147509
 21
1200.469805954581
 31
0.0
  0
CIRCLE
  5
5797
  8
1
 10
-4996.380949395746
 20
1213.6777541677
 30
0.0
 40
4.0
  0
CIRCLE
  5
5798
  8
1
 10
-4892.2910557924406
 20
1213.6777541677
 30
0.0
 40
4.0
  0
ARC
  5
5799
  8
FUTO
 10
-4728.3360025940901
 20
1027.0301377461681
 30
0.0
 40
72.753061747871584
 50
124.1996194554422
 51
168.45073817642151
  0
LINE
  5
579A
  8
FUTO
 10
-4764.336002594091
 20
1088.030137746164
 30
0.0
 11
-4764.336002594091
 21
1082.098294335922
 31
0.0
  0
LINE
  5
579B
  8
1
 10
-5004.3360025940929
 20
1238.030137746166
 30
0.0
 11
-4884.3360025940929
 21
1238.030137746166
 31
0.0
  0
LINE
  5
579C
  8
FUTO
 10
-4764.336002594091
 20
1088.030137746164
 30
0.0
 11
-4764.336002594091
 21
1087.030137746164
 31
0.0
  0
ARC
  5
579D
  8
FUTO
 10
-4733.8160332719481
 20
1028.5015516462361
 30
0.0
 40
57.203726762688042
 50
126.6035036735999
 51
171.67207569821369
  0
ARC
  5
579E
  8
FUTO
 10
-4774.336002594091
 20
1082.098294335922
 30
0.0
 40
10.0
 50
309.87296890615761
 51
0.0
  0
LINE
  5
579F
  8
FUTO
 10
-4744.336002594091
 20
1359.030137746164
 30
0.0
 11
-4744.336002594091
 21
1067.030137746164
 31
0.0
  0
LINE
  5
57A0
  8
FUTO
 10
-4745.336002594091
 20
1339.030137746164
 30
0.0
 11
-4745.336002594091
 21
1087.030137746164
 31
0.0
  0
LINE
  5
57A2
  8
FUTO
 10
-4745.336002594091
 20
1359.030137746164
 30
0.0
 11
-4745.336002594091
 21
1340.030137746164
 31
0.0
  0
LINE
  5
57A3
  8
FUTO
 10
-4744.336002594091
 20
1359.030137746164
 30
0.0
 11
-4745.336002594091
 21
1359.030137746164
 31
0.0
  0
LINE
  5
57A4
  8
FUTO
 10
-4746.3360025940901
 20
1339.030137746164
 30
0.0
 11
-4746.3360025940901
 21
1337.030137746164
 31
0.0
  0
LINE
  5
57A5
  8
FUTO
 10
-4745.336002594091
 20
1086.030137746164
 30
0.0
 11
-4745.336002594091
 21
1067.030137746164
 31
0.0
  0
LINE
  5
57A6
  8
FUTO
 10
-4746.3360025940901
 20
1089.030137746164
 30
0.0
 11
-4746.3360025940901
 21
1087.030137746164
 31
0.0
  0
LINE
  5
57A7
  8
FUTO
 10
-4744.336002594091
 20
1067.030137746164
 30
0.0
 11
-4745.336002594091
 21
1067.030137746164
 31
0.0
  0
DIMENSION
  5
5CF7
  8
SP
  2
*D10
 10
-4611.7929315417341
 20
1088.030137746164
 30
0.0
 11
-4636.792931541735
 21
1213.030130030292
 31
0.0
 70
     0
 13
-4744.3415580639139
 23
1338.030122314422
 33
0.0
 14
-4734.1883880207433
 24
1088.030137746164
 34
0.0
 50
90.0
  0
DIMENSION
  5
5D04
  8
SP
  2
*D11
 10
-4611.7929315417341
 20
803.03013774616647
 30
0.0
 11
-4636.792931541735
 21
945.53013774616443
 31
0.0
 70
     0
 13
-4734.1883880207433
 23
1088.030137746164
 33
0.0
 14
-4694.3360025940938
 24
803.03013774616647
 34
0.0
 50
90.0
  0
DIMENSION
  5
5D12
  8
SP
  2
*D12
 10
-4744.336002594091
 20
1418.0288877750991
 30
0.0
 11
-4844.336002594092
 21
1443.0288877750991
 31
0.0
 70
     0
 13
-4944.3360025940929
 23
1384.8458668319649
 33
0.0
 14
-4744.336002594091
 24
1359.030137746164
 34
0.0
  0
DIMENSION
  5
5D31
  8
SP
  2
*D13
 10
-5154.336002594091
 20
1418.0288877750991
 30
0.0
 11
-5049.336002594092
 21
1443.0288877750991
 31
0.0
 70
     0
 13
-4944.3360025940929
 23
1384.8458668319649
 33
0.0
 14
-5154.336002594091
 24
1105.030137746164
 34
0.0
  0
LINE
  5
6163
  8
1
 10
-4393.336002594092
 20
833.03013774616784
 30
0.0
 11
-4163.3360025940929
 21
833.03013774616784
 31
0.0
  0
LINE
  5
6164
  8
1
 10
-4393.336002594092
 20
835.330137746167
 30
0.0
 11
-4195.6360025940921
 21
835.33013774616529
 31
0.0
  0
LINE
  5
6166
  8
1
 10
-4393.336002594091
 20
835.330137746167
 30
0.0
 11
-4393.336002594092
 21
833.03013774616784
 31
0.0
  0
LINE
  5
6168
  8
1
 10
-4193.3360025940929
 20
835.33013774616529
 30
0.0
 11
-4163.3360025940929
 21
835.330137746167
 31
0.0
  0
LINE
  5
6169
  8
1
 10
-4163.3360025940929
 20
835.33013774616529
 30
0.0
 11
-4163.3360025940929
 21
833.03013774616784
 31
0.0
  0
LINE
  5
616A
  8
1
 10
-4193.3360025940929
 20
1238.0301377461669
 30
0.0
 11
-4193.3360025940929
 21
833.03013774616784
 31
0.0
  0
LINE
  5
616B
  8
1
 10
-4195.636002594094
 20
1238.030137746166
 30
0.0
 11
-4195.6360025940921
 21
835.33013774616529
 31
0.0
  0
LINE
  5
616C
  8
2
 10
-4313.1360025940921
 20
1168.3140127461679
 30
0.0
 11
-4313.1360025940921
 21
1004.014024746168
 31
0.0
  0
LINE
  5
616D
  8
1
 10
-4412.1360025940921
 20
1011.030137746167
 30
0.0
 11
-4412.1360025940921
 21
1171.5301377461669
 31
0.0
  0
LINE
  5
616E
  8
1
 10
-4393.336002594091
 20
835.330137746167
 30
0.0
 11
-4221.9360025940914
 21
1132.8301377461671
 31
0.0
  0
LINE
  5
616F
  8
1
 10
-4402.336002594092
 20
956.03013774616954
 30
0.0
 11
-4369.0360025940936
 21
884.03013774616602
 31
0.0
  0
LINE
  5
6170
  8
1
 10
-4402.336002594092
 20
1008.030137746167
 30
0.0
 11
-4402.336002594092
 21
956.03013774617136
 31
0.0
  0
LINE
  5
6171
  8
1
 10
-4292.6853135184592
 20
1010.030137746167
 30
0.0
 11
-4378.1360025940921
 21
1010.030137746167
 31
0.0
  0
LINE
  5
6172
  8
1
 10
-4291.2449773840071
 20
1012.530137746167
 30
0.0
 11
-4378.1360025940921
 21
1012.530137746167
 31
0.0
  0
LINE
  5
6173
  8
1
 10
-4313.1360025940921
 20
1010.030137746167
 30
0.0
 11
-4347.1360025940921
 21
1010.030137746167
 31
0.0
  0
LINE
  5
6174
  8
1
 10
-4402.336002594092
 20
1008.030137746169
 30
0.0
 11
-4293.8375824260211
 21
1008.030137746171
 31
0.0
  0
LINE
  5
6175
  8
1
 10
-4344.0079505940921
 20
1020.361558746168
 30
0.0
 11
-4372.1360025940921
 21
1020.361558746168
 31
0.0
  0
LINE
  5
6176
  8
1
 10
-4378.1360025940921
 20
1010.030137746167
 30
0.0
 11
-4378.1360025940921
 21
1014.361558746168
 31
0.0
  0
LINE
  5
6177
  8
1
 10
-4373.1360025940921
 20
1010.030137746167
 30
0.0
 11
-4373.1360025940921
 21
1008.030137746167
 31
0.0
  0
LINE
  5
6178
  8
1
 10
-4375.6360025940921
 20
1045.4762427461681
 30
0.0
 11
-4375.6360025940921
 21
1019.234955746168
 31
0.0
  0
ARC
  5
6179
  8
1
 10
-4372.1360025940921
 20
1014.361558746168
 30
0.0
 40
6.0
 50
90.0
 51
180.0
  0
LINE
  5
617A
  8
1
 10
-4378.4592445940916
 20
1013.230089746168
 30
0.0
 11
-4378.149002594093
 21
1013.230089746168
 31
0.0
  0
LINE
  5
617B
  8
CT
 10
-4363.1360025940912
 20
1016.242051746167
 30
0.0
 11
-4363.1360025940912
 21
1000.730137746166
 31
0.0
  0
LINE
  5
617C
  8
1
 10
-4343.1360025940921
 20
1010.030137746167
 30
0.0
 11
-4343.1360025940921
 21
1008.030137746167
 31
0.0
  0
ARC
  5
617D
  8
1
 10
-4336.0890045940923
 20
1025.1874867461679
 30
0.0
 40
6.0001220000000002
 50
90.001167000002894
 51
161.67526200000961
  0
LINE
  5
617E
  8
1
 10
-4341.7849885940923
 20
1027.0739617461679
 30
0.0
 11
-4345.4662025940916
 21
1015.958238746167
 31
0.0
  0
ARC
  5
617F
  8
1
 10
-4350.2127235940934
 20
1017.530137746167
 30
0.0
 40
5.0
 50
270.0
 51
341.6765140000021
  0
ARC
  5
6180
  8
1
 10
-4411.1360025940921
 20
1011.030137746167
 30
0.0
 40
1.000030999999999
 50
180.0
 51
269.99826000000689
  0
LINE
  5
6181
  8
1
 10
-4390.1931305940916
 20
1037.9467027461669
 30
0.0
 11
-4390.1931305940916
 21
1010.026536746167
 31
0.0
  0
LINE
  5
6182
  8
1
 10
-4390.1931305940916
 20
1010.030137746167
 30
0.0
 11
-4411.1360025940921
 21
1010.030137746167
 31
0.0
  0
LINE
  5
6183
  8
1
 10
-4412.1360025940921
 20
1011.030137746167
 30
0.0
 11
-4444.7678385940917
 21
1013.909410746168
 31
0.0
  0
LINE
  5
6184
  8
1
 10
-4390.1931305940916
 20
1013.2301507461671
 30
0.0
 11
-4378.149002594093
 21
1013.2301507461671
 31
0.0
  0
LINE
  5
6185
  8
1
 10
-4446.1360025940921
 20
1160.807481746167
 30
0.0
 11
-4446.1360025940921
 21
1015.4036127461681
 31
0.0
  0
LINE
  5
6186
  8
1
 10
-4390.1931305940916
 20
1037.9467027461669
 30
0.0
 11
-4372.1359705940922
 21
1047.2866007461671
 31
0.0
  0
LINE
  5
6187
  8
1
 10
-4313.1360025940921
 20
1031.1876087461681
 30
0.0
 11
-4336.0891885940928
 21
1031.1876087461681
 31
0.0
  0
ARC
  5
6188
  8
1
 10
-4444.6360025940921
 20
1015.4036127461681
 30
0.0
 40
1.4999849999999999
 50
180.0
 51
264.95834399999211
  0
LINE
  5
6189
  8
1
 10
-4313.1360025940921
 20
1031.1876087461681
 30
0.0
 11
-4290.1828165940933
 21
1031.1876087461681
 31
0.0
  0
LINE
  5
618A
  8
1
 10
-4284.4870155940944
 20
1027.0739617461679
 30
0.0
 11
-4283.8952553763547
 21
1025.2870939729819
 31
0.0
  0
ARC
  5
618B
  8
1
 10
-4290.1828775940921
 20
1025.1874867461679
 30
0.0
 40
6.0001939999999996
 50
18.324733999998202
 51
89.99883299999712
  0
LINE
  5
618C
  8
1
 10
-4372.1360025940921
 20
1047.286584194464
 30
0.0
 11
-4372.1360025940921
 21
1173.0301377461669
 31
0.0
  0
LINE
  5
618D
  8
1
 10
-4444.9384925940931
 20
1162.2766587461681
 30
0.0
 11
-4412.934341594093
 21
1168.865770746168
 31
0.0
  0
LINE
  5
618E
  8
1
 10
-4250.6360025940921
 20
1163.5301377461669
 30
0.0
 11
-4250.6360025940912
 21
1083.0153769526989
 31
0.0
  0
LINE
  5
618F
  8
1
 10
-4372.1360025940921
 20
1162.8301257461681
 30
0.0
 11
-4250.6360025940921
 21
1162.8301257461681
 31
0.0
  0
ARC
  5
6190
  8
1
 10
-4444.6360025940921
 20
1160.807481746167
 30
0.0
 40
1.499994
 50
101.6341019999994
 51
180.0
  0
LINE
  5
6191
  8
1
 10
-4221.9360025940914
 20
1132.8301377461671
 30
0.0
 11
-4195.636002594094
 21
1154.1301377461659
 31
0.0
  0
LINE
  5
6192
  8
1
 10
-4228.1360025940921
 20
1122.0687608500159
 30
0.0
 11
-4228.1360025940921
 21
1161.5301377461669
 31
0.0
  0
ARC
  5
6193
  8
1
 10
-4230.1360025940921
 20
1161.5301377461669
 30
0.0
 40
2.0
 50
0.0
 51
90.0
  0
LINE
  5
6194
  8
1
 10
-4250.6360025940921
 20
1163.5301377461669
 30
0.0
 11
-4230.1360025940921
 21
1163.5301377461669
 31
0.0
  0
LINE
  5
6195
  8
1
 10
-4228.1360025940921
 20
1152.0959337461679
 30
0.0
 11
-4228.1360025940921
 21
1161.0959337461679
 31
0.0
  0
LINE
  5
6196
  8
1
 10
-4228.1360025940921
 20
1160.8451407461671
 30
0.0
 11
-4228.1360025940921
 21
1152.215135746168
 31
0.0
  0
ARC
  5
6197
  8
1
 10
-4410.6360025940921
 20
1171.5301377461669
 30
0.0
 40
1.4999849999999999
 50
89.999419999993734
 51
180.0
  0
ARC
  5
6198
  8
1
 10
-4413.1359415940933
 20
1169.8451407461671
 30
0.0
 40
0.999898
 50
281.62991300000999
 51
0.0034970000049811
  0
LINE
  5
6199
  8
1
 10
-4410.6360025940921
 20
1173.0301377461669
 30
0.0
 11
-4372.1360025940921
 21
1173.0301377461669
 31
0.0
  0
LINE
  5
619A
  8
1
 10
-4195.636002594094
 20
1238.0301377461669
 30
0.0
 11
-4193.3360025940929
 21
1238.0301377461669
 31
0.0
  0
ARC
  5
619B
  8
1
 10
-4188.3360025940929
 20
1238.0301377461669
 30
0.0
 40
3.0
 50
270.0
 51
0.0
  0
ARC
  5
619C
  8
1
 10
-4190.3360025940929
 20
1232.0301377461669
 30
0.0
 40
3.0
 50
90.0
 51
180.0
  0
LINE
  5
619D
  8
1
 10
-4188.3360025940929
 20
1235.0301377461669
 30
0.0
 11
-4190.3360025940929
 21
1235.0301377461669
 31
0.0
  0
ARC
  5
619E
  8
1
 10
-4190.3360025940929
 20
944.03013774616772
 30
0.0
 40
3.0
 50
180.0
 51
270.0
  0
LINE
  5
619F
  8
1
 10
-4188.3360025940929
 20
941.03013774616784
 30
0.0
 11
-4190.3360025940929
 21
941.03013774616784
 31
0.0
  0
ARC
  5
61A0
  8
1
 10
-4188.3360025940929
 20
938.03013774616795
 30
0.0
 40
3.0
 50
0.0
 51
90.0
  0
LINE
  5
61A1
  8
1
 10
-3995.336002594091
 20
1232.0301377461669
 30
0.0
 11
-3995.3360025940929
 21
944.03013774616772
 31
0.0
  0
ARC
  5
61A2
  8
1
 10
-4000.336002594092
 20
938.03013774616795
 30
0.0
 40
3.0
 50
90.0
 51
180.0
  0
LINE
  5
61A3
  8
1
 10
-4000.336002594092
 20
941.03013774616784
 30
0.0
 11
-3998.3360025940929
 21
941.03013774616784
 31
0.0
  0
ARC
  5
61A4
  8
1
 10
-3998.3360025940929
 20
944.03013774616772
 30
0.0
 40
3.0
 50
270.0
 51
0.0
  0
LINE
  5
61A5
  8
FUTO
 10
-4004.3360025940929
 20
963.03013774616795
 30
0.0
 11
-3995.3360025940929
 21
963.03013774616795
 31
0.0
  0
LINE
  5
61A6
  8
1
 10
-4003.336002594092
 20
1238.0301377461669
 30
0.0
 11
-4003.336002594091
 21
1088.0301377461669
 31
0.0
  0
LINE
  5
61A7
  8
FUTO
 10
-4004.3360025940929
 20
1213.0301377461681
 30
0.0
 11
-3995.336002594091
 21
1213.0301377461681
 31
0.0
  0
LINE
  5
61A8
  8
1
 10
-4000.336002594092
 20
1235.0301377461669
 30
0.0
 11
-3998.3360025940929
 21
1235.0301377461669
 31
0.0
  0
ARC
  5
61A9
  8
1
 10
-3998.3360025940929
 20
1232.0301377461669
 30
0.0
 40
3.0
 50
0.0
 51
90.0
  0
ARC
  5
61AA
  8
1
 10
-4000.336002594092
 20
1238.0301377461669
 30
0.0
 40
3.0
 50
180.0
 51
270.0
  0
DIMENSION
  5
65D8
  8
SP
  2
*D14
 10
-3917.5002155446809
 20
963.03013774616795
 30
0.0
 11
-3942.5002155446809
 21
1088.0301377461669
 31
0.0
 70
     0
 13
-3995.336002594092
 23
1213.0301377461681
 33
0.0
 14
-3995.3360025940929
 24
963.03013774616795
 34
0.0
 50
90.0
1001
ACAD
1000
DSTYLE
1002
{
1070
     3
1000
φ<>
1002
}
  0
DIMENSION
  5
65EE
  8
SP
  2
*D15
 10
-4004.336002594092
 20
1429.030137746164
 30
0.0
 11
-4094.3360025940929
 21
1454.030137746164
 31
0.0
 70
     0
 13
-4184.3360025940929
 23
1338.0301377461651
 33
0.0
 14
-4004.336002594092
 24
1338.030137746164
 34
0.0
  0
DIMENSION
  5
6606
  8
SP
  2
*D16
 10
-3995.336002594091
 20
1499.0301377461631
 30
0.0
 11
-4044.836002594092
 21
1524.0301377461631
 31
0.0
 70
     0
 13
-4094.3360025940929
 23
1469.030137746164
 33
0.0
 14
-3995.336002594091
 24
1232.0301377461669
 34
0.0
  0
DIMENSION
  5
661C
  8
SP
  2
*D17
 10
-4446.1360025940921
 20
1499.0301377461651
 30
0.0
 11
-4270.2360025940916
 21
1524.0301377461651
 31
0.0
 70
     0
  1
（400）
 13
-4094.3360025940929
 23
1469.030137746164
 33
0.0
 14
-4446.1360025940921
 24
1160.807481746167
 34
0.0
  0
LINE
  5
6799
  8
1
 10
-5104.3360025940956
 20
1820.1217284884419
 30
0.0
 11
-5104.3360025941001
 21
2042.121728488441
 31
0.0
  0
LINE
  5
679A
  8
1
 10
-5134.3360025940956
 20
1820.1217284884431
 30
0.0
 11
-5134.3360025941001
 21
2042.121728488441
 31
0.0
  0
LINE
  5
679B
  8
1
 10
-4977.836002594092
 20
2007.3217284884429
 30
0.0
 11
-4977.836002594092
 21
1998.3217284884429
 31
0.0
  0
LINE
  5
679C
  8
1
 10
-5019.8360025940929
 20
1975.8217284884429
 30
0.0
 11
-5019.8360025940929
 21
1996.3217284884429
 31
0.0
  0
ARC
  5
679D
  8
1
 10
-5017.8360025940929
 20
1996.3217284884429
 30
0.0
 40
2.0
 50
90.0
 51
180.0
  0
LINE
  5
679E
  8
1
 10
-5017.1510055940926
 20
1998.3217284884429
 30
0.0
 11
-5008.5210005940926
 21
1998.3217284884429
 31
0.0
  0
LINE
  5
679F
  8
1
 10
-5008.4017985940936
 20
1998.3217284884429
 30
0.0
 11
-5017.4017985940927
 21
1998.3217284884429
 31
0.0
  0
LINE
  5
67A0
  8
1
 10
-5104.3360025940992
 20
1999.1217284884499
 30
0.0
 11
-4977.836002594092
 21
1999.1217284884481
 31
0.0
  0
ARC
  5
67A4
  8
1
 10
-5088.3360025940901
 20
2036.1217284884419
 30
0.0
 40
3.0
 50
180.0
 51
270.0
  0
LINE
  5
67A5
  8
1
 10
-5091.3360025940901
 20
2038.1217284884419
 30
0.0
 11
-5091.3360025940901
 21
2036.1217284884419
 31
0.0
  0
LINE
  5
67A6
  8
1
 10
-5091.3360025940901
 20
2038.1217284884419
 30
0.0
 11
-5091.3360025940901
 21
2036.1217284884419
 31
0.0
  0
ARC
  5
67A7
  8
1
 10
-5094.3360025940892
 20
2038.1217284884419
 30
0.0
 40
3.0
 50
0.0
 51
90.0
  0
LINE
  5
67A8
  8
1
 10
-4966.836002594092
 20
2021.1217284884449
 30
0.0
 11
-4966.836002594092
 21
2018.3217284884411
 31
0.0
  0
ARC
  5
67A9
  8
1
 10
-4976.8360025940929
 20
2007.3217284884429
 30
0.0
 40
1.0
 50
90.0
 51
180.0
  0
LINE
  5
67AA
  8
FUTO
 10
-4754.336002594091
 20
2033.1217284884401
 30
0.0
 11
-5134.336002594091
 21
2033.1217284884401
 31
0.0
  0
ARC
  5
67AB
  8
1
 10
-4794.3360025940929
 20
2038.1217284884419
 30
0.0
 40
3.0
 50
90.0
 51
180.0
  0
LINE
  5
67AC
  8
1
 10
-4797.336002594092
 20
2038.1217284884419
 30
0.0
 11
-4797.336002594092
 21
2036.1217284884419
 31
0.0
  0
LINE
  5
67AD
  8
1
 10
-4797.336002594092
 20
2038.1217284884419
 30
0.0
 11
-4797.336002594092
 21
2036.1217284884419
 31
0.0
  0
ARC
  5
67AE
  8
1
 10
-4800.3360025940929
 20
2036.1217284884419
 30
0.0
 40
3.0
 50
270.0
 51
0.0
  0
LINE
  5
67AF
  8
1
 10
-4784.3360025940929
 20
1820.121728488441
 30
0.0
 11
-4784.3360025940901
 21
2042.121728488441
 31
0.0
  0
LINE
  5
67B0
  8
FUTO
 10
-4754.3360025940938
 20
1820.121728488441
 30
0.0
 11
-4754.3360025940947
 21
2042.1217284884401
 31
0.0
  0
LINE
  5
67B1
  8
1
 10
-4910.8360025940947
 20
1999.121728488444
 30
0.0
 11
-4784.3360025940901
 21
1999.121728488444
 31
0.0
  0
LINE
  5
67B7
  8
FUTO
 10
-4784.3360025940929
 20
1833.121728488446
 30
0.0
 11
-4754.336002594091
 21
1833.121728488446
 31
0.0
  0
LINE
  5
67B8
  8
FUTO
 10
-4754.3360025940929
 20
1833.1217284884401
 30
0.0
 11
-4784.3360025940929
 21
1833.1217284884401
 31
0.0
  0
LINE
  5
67B9
  8
1
 10
-4869.5360145940931
 20
1854.3217284884429
 30
0.0
 11
-4869.5360145940931
 21
1975.8217284884429
 31
0.0
  0
LINE
  5
67BA
  8
1
 10
-4859.3360025940929
 20
1824.121728488444
 30
0.0
 11
-4784.3360025940929
 21
1824.1217284884419
 31
0.0
  0
LINE
  5
67BB
  8
1
 10
-4859.3360025940929
 20
1815.8217284884429
 30
0.0
 11
-4859.3360025940929
 21
1854.3217284884429
 31
0.0
  0
LINE
  5
67BC
  8
1
 10
-4944.336002594091
 20
1814.3217284884429
 30
0.0
 11
-4860.8360025940929
 21
1814.3217284884429
 31
0.0
  0
LINE
  5
67BD
  8
1
 10
-5017.1133465940939
 20
1780.3217284884429
 30
0.0
 11
-4871.7094775940941
 21
1780.3217284884429
 31
0.0
  0
ARC
  5
67BE
  8
1
 10
-4860.8360025940929
 20
1815.8217284884429
 30
0.0
 40
1.4999849999999999
 50
270.0
 51
0.0005800000062724
  0
ARC
  5
67BF
  8
1
 10
-4862.5209995940932
 20
1813.3217894884419
 30
0.0
 40
0.999898
 50
89.99650299999503
 51
168.3700869999951
  0
LINE
  5
67C0
  8
1
 10
-4870.0894815940919
 20
1781.5192384884431
 30
0.0
 11
-4863.5003695940923
 21
1813.5233894884429
 31
0.0
  0
LINE
  5
67C1
  8
1
 10
-4859.3360025940929
 20
1854.3217284884429
 30
0.0
 11
-5029.336002594092
 21
1854.3217284884429
 31
0.0
  0
LINE
  5
67C2
  8
1
 10
-5104.3360025940956
 20
1824.1217284884499
 30
0.0
 11
-5029.336002594092
 21
1824.121728488446
 31
0.0
  0
LINE
  5
67C3
  8
1
 10
-5019.1359905940944
 20
1854.3217284884429
 30
0.0
 11
-5019.1359905940944
 21
1975.8217284884429
 31
0.0
  0
LINE
  5
67C4
  8
1
 10
-5029.336002594092
 20
1815.8217284884429
 30
0.0
 11
-5029.336002594092
 21
1854.3217284884429
 31
0.0
  0
ARC
  5
67C5
  8
1
 10
-5026.1510055940917
 20
1813.3217894884419
 30
0.0
 40
0.999898
 50
11.6299130000048
 51
90.003497000004955
  0
LINE
  5
67C6
  8
1
 10
-5018.5825235940938
 20
1781.5192384884431
 30
0.0
 11
-5025.1716355940944
 21
1813.5233894884429
 31
0.0
  0
ARC
  5
67C7
  8
1
 10
-5027.836002594092
 20
1815.8217284884429
 30
0.0
 40
1.4999849999999999
 50
179.99941999999371
 51
270.0
  0
LINE
  5
67C8
  8
1
 10
-4944.3360025940947
 20
1814.3217284884429
 30
0.0
 11
-5027.836002594092
 21
1814.3217284884429
 31
0.0
  0
LINE
  5
67CC
  8
1
 10
-5134.3360025940929
 20
1833.121728488446
 30
0.0
 11
-5104.3360025940956
 21
1833.121728488446
 31
0.0
  0
LINE
  5
67CD
  8
1
 10
-4910.8360025940947
 20
1998.3217284884429
 30
0.0
 11
-4910.8360025940929
 21
2007.3217284884429
 31
0.0
  0
LINE
  5
67CE
  8
1
 10
-4944.3360025940929
 20
1998.3217284884429
 30
0.0
 11
-4870.836002594092
 21
1998.3217284884429
 31
0.0
  0
LINE
  5
67CF
  8
1
 10
-4868.8360025940929
 20
1975.8217284884429
 30
0.0
 11
-4944.336002594091
 21
1975.8217284884429
 31
0.0
  0
LINE
  5
67D0
  8
1
 10
-5019.8360025940929
 20
1975.8217284884429
 30
0.0
 11
-4944.3360025940947
 21
1975.8217284884429
 31
0.0
  0
LINE
  5
67D1
  8
1
 10
-4944.3360025940929
 20
1998.3217284884429
 30
0.0
 11
-5017.8360025940929
 21
1998.3217284884429
 31
0.0
  0
LINE
  5
67D2
  8
1
 10
-4868.8360025940929
 20
1975.8217284884429
 30
0.0
 11
-4868.8360025940929
 21
1996.3217284884429
 31
0.0
  0
ARC
  5
67D3
  8
1
 10
-4870.836002594092
 20
1996.3217284884429
 30
0.0
 40
2.0
 50
0.0
 51
90.0
  0
LINE
  5
67D4
  8
1
 10
-4880.2702065940921
 20
1998.3217284884429
 30
0.0
 11
-4871.2702065940921
 21
1998.3217284884429
 31
0.0
  0
LINE
  5
67D5
  8
1
 10
-4871.5209995940932
 20
1998.3217284884429
 30
0.0
 11
-4880.1510045940922
 21
1998.3217284884429
 31
0.0
  0
LINE
  5
67D6
  8
1
 10
-4961.8360025940929
 20
2013.3217284884411
 30
0.0
 11
-4926.8360025940929
 21
2013.3217284884411
 31
0.0
  0
LINE
  5
67D7
  8
1
 10
-4911.8360025940929
 20
2008.3217284884429
 30
0.0
 11
-4976.8360025940929
 21
2008.3217284884429
 31
0.0
  0
LINE
  5
67D8
  8
1
 10
-4954.8360025940929
 20
2013.3217284884429
 30
0.0
 11
-4954.8360025940929
 21
2008.3217284884429
 31
0.0
  0
ARC
  5
67D9
  8
1
 10
-4911.8360025940929
 20
2007.3217284884429
 30
0.0
 40
1.0
 50
0.0
 51
90.0
  0
LINE
  5
67DA
  8
1
 10
-4933.8360025940929
 20
2013.3217284884429
 30
0.0
 11
-4933.8360025940929
 21
2008.3217284884429
 31
0.0
  0
LINE
  5
67DB
  8
1
 10
-4921.8360025940929
 20
2018.3217284884411
 30
0.0
 11
-4926.8360025940929
 21
2013.3217284884411
 31
0.0
  0
LINE
  5
67DC
  8
1
 10
-4921.8360025940929
 20
2033.121728488441
 30
0.0
 11
-4921.8360025940929
 21
2018.3217284884411
 31
0.0
  0
LINE
  5
67DD
  8
1
 10
-4961.8360025940929
 20
2013.3217284884411
 30
0.0
 11
-4966.836002594092
 21
2018.3217284884411
 31
0.0
  0
LINE
  5
67DE
  8
1
 10
-4966.836002594092
 20
2033.121728488441
 30
0.0
 11
-4966.836002594092
 21
2018.3217284884411
 31
0.0
  0
ARC
  5
67E0
  8
1
 10
-5094.3360025940892
 20
2226.121728488441
 30
0.0
 40
3.0
 50
270.0
 51
0.0
  0
LINE
  5
67E1
  8
1
 10
-5091.3360025940901
 20
2226.121728488441
 30
0.0
 11
-5091.3360025940901
 21
2228.1217284884401
 31
0.0
  0
LINE
  5
67E2
  8
1
 10
-5091.3360025940901
 20
2226.121728488441
 30
0.0
 11
-5091.3360025940901
 21
2228.1217284884401
 31
0.0
  0
ARC
  5
67E3
  8
1
 10
-5088.3360025940901
 20
2228.1217284884401
 30
0.0
 40
3.0
 50
90.000000000000028
 51
180.0
  0
ARC
  5
67E4
  8
1
 10
-4800.3360025940929
 20
2228.1217284884401
 30
0.0
 40
3.0
 50
0.0
 51
90.000000000000028
  0
LINE
  5
67E5
  8
1
 10
-4797.336002594092
 20
2226.121728488441
 30
0.0
 11
-4797.336002594092
 21
2228.1217284884401
 31
0.0
  0
LINE
  5
67E6
  8
1
 10
-4797.336002594092
 20
2226.121728488441
 30
0.0
 11
-4797.336002594092
 21
2228.1217284884401
 31
0.0
  0
ARC
  5
67E7
  8
1
 10
-4794.3360025940929
 20
2226.121728488441
 30
0.0
 40
3.0
 50
180.0
 51
270.0
  0
LINE
  5
67E8
  8
FUTO
 10
-4800.3360025940929
 20
2231.1217284884428
 30
0.0
 11
-5088.3360025940901
 21
2231.1217284884428
 31
0.0
  0
LINE
  5
6A4D
  8
FUTO
 10
-5153.3360025940929
 20
2053.121728488441
 30
0.0
 11
-5153.3360025940929
 21
2211.121728488441
 31
0.0
  0
ARC
  5
6A50
  8
FUTO
 10
-5142.3360025940929
 20
2053.121728488441
 30
0.0
 40
11.0
 50
180.0
 51
269.99999999999977
  0
ARC
  5
6A51
  8
FUTO
 10
-5142.3360025940929
 20
2211.121728488441
 30
0.0
 40
11.0
 50
89.999999999999844
 51
180.0
  0
LINE
  5
6A52
  8
1
 10
-5142.3360025940929
 20
2223.121728488441
 30
0.0
 11
-4764.3360025940892
 21
2223.121728488441
 31
0.0
  0
LINE
  5
6A53
  8
FUTO
 10
-5154.336002594092
 20
2053.121728488441
 30
0.0
 11
-5154.336002594092
 21
2211.121728488441
 31
0.0
  0
ARC
  5
6A54
  8
FUTO
 10
-5142.3360025940929
 20
2211.121728488441
 30
0.0
 40
12.0
 50
89.999999999999844
 51
180.0
  0
ARC
  5
6A55
  8
FUTO
 10
-5142.3360025940929
 20
2053.121728488441
 30
0.0
 40
12.0
 50
180.0
 51
269.99999999999977
  0
LINE
  5
6A56
  8
1
 10
-5142.3360025940929
 20
2041.121728488441
 30
0.0
 11
-4764.3360025940892
 21
2041.121728488441
 31
0.0
  0
LINE
  5
7AAC
  8
FUTO
 10
-5194.3360025940929
 20
803.03013774616363
 30
0.0
 11
-5194.336002594091
 21
833.0301377461642
 31
0.0
  0
LINE
  5
7AAD
  8
FUTO
 10
-4694.336002594092
 20
803.03013774616647
 30
0.0
 11
-4694.336002594092
 21
833.03013774616636
 31
0.0
  0
LINE
  5
7AAE
  8
FUTO
 10
-5194.3360025940929
 20
803.03013774616363
 30
0.0
 11
-4694.336002594092
 21
803.03013774616647
 31
0.0
  0
LINE
  5
7AB8
  8
1
 10
-5194.336002594091
 20
830.03013774616409
 30
0.0
 11
-4694.336002594092
 21
830.03013774616636
 31
0.0
  0
DIMENSION
  5
7ABB
  8
SP
  2
*D20
 10
-4694.3360025940938
 20
663.03013774616386
 30
0.0
 11
-4944.3360025940929
 21
688.03013774616386
 31
0.0
 70
     0
 13
-5194.336002594091
 23
803.03013774616375
 33
0.0
 14
-4694.3360025940938
 24
803.03013774616647
 34
0.0
  0
DIMENSION
  5
7AC8
  8
SP
  2
*D21
 10
-5194.336002594091
 20
733.03013774616375
 30
0.0
 11
-5069.3360025940929
 21
758.03013774616375
 31
0.0
 70
     0
 13
-4944.3360025940929
 23
767.16437955908975
 33
0.0
 14
-5194.336002594091
 24
803.03013774616375
 34
0.0
  0
DIMENSION
  5
7AD5
  8
SP
  2
*D22
 10
-4694.3360025940938
 20
733.03013774616636
 30
0.0
 11
-4819.3360025940929
 21
758.03013774616636
 31
0.0
 70
     0
 13
-4944.3360025940929
 23
767.16437955908975
 33
0.0
 14
-4694.3360025940938
 24
803.03013774616647
 34
0.0
  0
LINE
  5
7AE2
  8
FUTO
 10
-4406.3360025940929
 20
803.03013774616363
 30
0.0
 11
-3916.3360025940929
 21
803.03013774616682
 31
0.0
  0
LINE
  5
7AE4
  8
FUTO
 10
-4406.3360025940929
 20
833.03013774616386
 30
0.0
 11
-3916.3360025940929
 21
833.0301377461667
 31
0.0
  0
INSERT
  5
7AF3
  8
FUTO
  2
L-30-3
 10
-4014.4529729515448
 20
948.2789794954117
 30
0.0
 50
270.0
  0
INSERT
  5
7AF4
  8
FUTO
  2
L-30-3
 10
-4308.2190322366414
 20
948.27897949540863
 30
0.0
 41
-1.0
 50
90.0
  0
LINE
  5
7AF5
  8
SL
 10
-4423.3360025940929
 20
812.53473685746417
 30
0.0
 11
-4423.3360025940929
 21
1185.9294023821819
 31
0.0
  0
LINE
  5
7AF6
  8
SL
 10
-3899.3360025940929
 20
813.53473685746417
 30
0.0
 11
-3899.3360025940929
 21
1186.9294023821819
 31
0.0
  0
DIMENSION
  5
7B00
  8
SP
  2
*D24
 10
-3886.336002594092
 20
663.03013774616386
 30
0.0
 11
-4161.3360025940929
 21
688.03013774616386
 31
0.0
 70
     0
 13
-4436.336002594092
 23
833.03013774616386
 33
0.0
 14
-3886.336002594092
 24
833.0301377461667
 34
0.0
  0
DIMENSION
  5
7B0D
  8
SP
  2
*D25
 10
-4436.336002594092
 20
733.03013774616636
 30
0.0
 11
-4265.336002594092
 21
758.03013774616636
 31
0.0
 70
     0
 13
-4094.3360025940929
 23
863.83458395176058
 33
0.0
 14
-4436.336002594092
 24
833.03013774616386
 34
0.0
  0
DIMENSION
  5
7B1A
  8
SP
  2
*D26
 10
-3886.336002594092
 20
733.03013774616636
 30
0.0
 11
-3990.3360025940929
 21
758.03013774616636
 31
0.0
 70
     0
 13
-4094.3360025940929
 23
863.83458395176058
 33
0.0
 14
-3886.336002594092
 24
833.0301377461667
 34
0.0
  0
LINE
  5
7FF0
  8
FUTO
 10
-5194.3360025940929
 20
2340.1217284884419
 30
0.0
 11
-4694.336002594092
 21
2340.121728488441
 31
0.0
  0
LINE
  5
7FF1
  8
FUTO
 10
-5194.3360025940938
 20
1790.1217284884431
 30
0.0
 11
-4694.336002594092
 21
1790.1217284884401
 31
0.0
  0
LINE
  5
7FF2
  8
FUTO
 10
-5194.3360025940938
 20
1790.1217284884431
 30
0.0
 11
-5194.3360025940938
 21
1820.1217284884431
 31
0.0
  0
LINE
  5
7FF3
  8
FUTO
 10
-4694.336002594092
 20
1790.1217284884401
 30
0.0
 11
-4694.336002594091
 21
1820.121728488441
 31
0.0
  0
LINE
  5
7FF4
  8
FUTO
 10
-5194.3360025940938
 20
2310.1217284884419
 30
0.0
 11
-4694.336002594092
 21
2310.1217284884401
 31
0.0
  0
LINE
  5
7FF5
  8
FUTO
 10
-5194.3360025940947
 20
1820.1217284884431
 30
0.0
 11
-4694.336002594091
 21
1820.1217284884401
 31
0.0
  0
LINE
  5
7FF6
  8
FUTO
 10
-5194.336002594091
 20
2310.1217284884419
 30
0.0
 11
-5194.3360025940929
 21
2340.1217284884419
 31
0.0
  0
LINE
  5
7FF7
  8
FUTO
 10
-4694.336002594092
 20
2310.1217284884401
 30
0.0
 11
-4694.336002594092
 21
2340.121728488441
 31
0.0
  0
LINE
  5
7FF8
  8
CT
 10
-5164.3360025940929
 20
2315.399383719659
 30
0.0
 11
-5164.3360025940929
 21
2338.8440732572249
 31
0.0
  0
LINE
  5
7FF9
  8
CT
 10
-5176.0583473628749
 20
2327.1217284884419
 30
0.0
 11
-5152.6136578253108
 21
2327.1217284884419
 31
0.0
  0
CIRCLE
  5
7FFA
  8
FUTO
 10
-5164.3360025940929
 20
2327.1217284884419
 30
0.0
 40
6.5
  0
LINE
  5
7FFC
  8
CT
 10
-4736.0583473628749
 20
2327.1217284884419
 30
0.0
 11
-4712.6136578253099
 21
2327.1217284884419
 31
0.0
  0
CIRCLE
  5
7FFD
  8
FUTO
 10
-4724.3360025940929
 20
2327.1217284884419
 30
0.0
 40
6.5
  0
LINE
  5
7FFE
  8
CT
 10
-4724.3360025940929
 20
2315.399383719659
 30
0.0
 11
-4724.3360025940929
 21
2338.8440732572249
 31
0.0
  0
LINE
  5
7FFF
  8
CT
 10
-5176.0583473628749
 20
1803.1217284884431
 30
0.0
 11
-5152.6136578253108
 21
1803.1217284884431
 31
0.0
  0
CIRCLE
  5
8000
  8
FUTO
 10
-5164.3360025940929
 20
1803.1217284884431
 30
0.0
 40
6.5
  0
LINE
  5
8001
  8
CT
 10
-5164.3360025940929
 20
1814.8440732572251
 30
0.0
 11
-5164.3360025940929
 21
1791.399383719661
 31
0.0
  0
LINE
  5
8002
  8
CT
 10
-4724.3360025940929
 20
1814.8440732572251
 30
0.0
 11
-4724.3360025940929
 21
1791.399383719661
 31
0.0
  0
CIRCLE
  5
8003
  8
FUTO
 10
-4724.3360025940929
 20
1803.1217284884431
 30
0.0
 40
6.5
  0
LINE
  5
8004
  8
CT
 10
-4736.0583473628749
 20
1803.1217284884431
 30
0.0
 11
-4712.6136578253099
 21
1803.1217284884431
 31
0.0
  0
DIMENSION
  5
8005
  8
SP
  2
*D27
 10
-4565.1028477773943
 20
1790.1217284884401
 30
0.0
 11
-4590.1028477773934
 21
2065.1217284884401
 31
0.0
 70
     0
 13
-4694.336002594092
 23
2340.121728488441
 33
0.0
 14
-4694.336002594092
 24
1790.1217284884401
 34
0.0
 50
90.0
  0
DIMENSION
  5
8012
  8
SP
  2
*D28
 10
-5194.3360025940938
 20
1671.3733872148259
 30
0.0
 11
-4944.3360025940929
 21
1696.3733872148259
 31
0.0
 70
     0
 13
-4694.336002594092
 23
1790.1217284884401
 33
0.0
 14
-5194.3360025940938
 24
1790.1217284884431
 34
0.0
  0
LINE
  5
87D3
  8
1
 10
-5134.336002594101
 20
2222.1217284884419
 30
0.0
 11
-5134.336002594102
 21
2310.1217284884419
 31
0.0
  0
LINE
  5
87D4
  8
1
 10
-5104.336002594101
 20
2222.1217284884419
 30
0.0
 11
-5104.336002594102
 21
2310.1217284884419
 31
0.0
  0
LINE
  5
87D5
  8
1
 10
-4784.3360025940901
 20
2222.121728488441
 30
0.0
 11
-4784.3360025940901
 21
2310.121728488441
 31
0.0
  0
LINE
  5
87D6
  8
FUTO
 10
-4754.336002594092
 20
2222.1217284884401
 30
0.0
 11
-4754.336002594091
 21
2310.1217284884401
 31
0.0
  0
ENDSEC
  0
EOF
