  0
SECTION
  2
HEADER
  9
$ACADVER
  1
AC1027
  9
$ACADMAINTVER
 70
    81
  9
$DWGCODEPAGE
  3
ANSI_932
  9
$LASTSAVEDBY
  1
reiko.miyawaki
  9
$REQUIREDVERSIONS
160
                 0
  9
$INSBASE
 10
0.0
 20
0.0
 30
0.0
  9
$EXTMIN
 10
0.0
 20
0.0
 30
0.0
  9
$EXTMAX
 10
3150.0
 20
4425.0
 30
0.0
  9
$LIMMIN
 10
0.0
 20
0.0
  9
$LIMMAX
 10
297.0
 20
210.0
  9
$ORTHOMODE
 70
     0
  9
$REGENMODE
 70
     1
  9
$FILLMODE
 70
     0
  9
$QTEXTMODE
 70
     0
  9
$MIRRTEXT
 70
     1
  9
$LTSCALE
 40
100.0
  9
$ATTMODE
 70
     1
  9
$TEXTSIZE
 40
180.0
  9
$TRACEWID
 40
0.05
  9
$TEXTSTYLE
  7
STANDARD
  9
$CLAYER
  8
3
  9
$CELTYPE
  6
BYLAYER
  9
$CECOLOR
 62
   256
  9
$CELTSCALE
 40
1.0
  9
$DISPSILH
 70
     0
  9
$DIMSCALE
 40
15.0
  9
$DIMASZ
 40
2.0
  9
$DIMEXO
 40
0.5
  9
$DIMDLI
 40
10.0
  9
$DIMRND
 40
0.0
  9
$DIMDLE
 40
0.0
  9
$DIMEXE
 40
1.0
  9
$DIMTP
 40
1.0
  9
$DIMTM
 40
1.0
  9
$DIMTXT
 40
3.0
  9
$DIMCEN
 40
0.0
  9
$DIMTSZ
 40
0.0
  9
$DIMTOL
 70
     0
  9
$DIMLIM
 70
     0
  9
$DIMTIH
 70
     0
  9
$DIMTOH
 70
     0
  9
$DIMSE1
 70
     0
  9
$DIMSE2
 70
     0
  9
$DIMTAD
 70
     1
  9
$DIMZIN
 70
     8
  9
$DIMBLK
  1

  9
$DIMASO
 70
     1
  9
$DIMSHO
 70
     1
  9
$DIMPOST
  1
(<>)
  9
$DIMAPOST
  1

  9
$DIMALT
 70
     0
  9
$DIMALTD
 70
     2
  9
$DIMALTF
 40
0.039
  9
$DIMLFAC
 40
1.0
  9
$DIMTOFL
 70
     1
  9
$DIMTVP
 40
0.0
  9
$DIMTIX
 70
     0
  9
$DIMSOXD
 70
     0
  9
$DIMSAH
 70
     1
  9
$DIMBLK1
  1
OPEN
  9
$DIMBLK2
  1
OPEN
  9
$DIMSTYLE
  2
IGA
  9
$DIMCLRD
 70
     0
  9
$DIMCLRE
 70
     0
  9
$DIMCLRT
 70
     0
  9
$DIMTFAC
 40
10.0
  9
$DIMGAP
 40
1.0
  9
$DIMJUST
 70
     0
  9
$DIMSD1
 70
     0
  9
$DIMSD2
 70
     0
  9
$DIMTOLJ
 70
     1
  9
$DIMTZIN
 70
     8
  9
$DIMALTZ
 70
     0
  9
$DIMALTTZ
 70
     0
  9
$DIMUPT
 70
     0
  9
$DIMDEC
 70
     0
  9
$DIMTDEC
 70
     0
  9
$DIMALTU
 70
     2
  9
$DIMALTTD
 70
     2
  9
$DIMTXSTY
  7
STANDARD
  9
$DIMAUNIT
 70
     0
  9
$DIMADEC
 70
     0
  9
$DIMALTRND
 40
0.0
  9
$DIMAZIN
 70
     0
  9
$DIMDSEP
 70
    46
  9
$DIMATFIT
 70
     3
  9
$DIMFRAC
 70
     0
  9
$DIMLDRBLK
  1
OPEN
  9
$DIMLUNIT
 70
     2
  9
$DIMLWD
 70
    -2
  9
$DIMLWE
 70
    -2
  9
$DIMTMOVE
 70
     2
  9
$DIMFXL
 40
1.0
  9
$DIMFXLON
 70
     0
  9
$DIMJOGANG
 40
0.7853981633974483
  9
$DIMTFILL
 70
     0
  9
$DIMTFILLCLR
 70
     0
  9
$DIMARCSYM
 70
     0
  9
$DIMLTYPE
  6

  9
$DIMLTEX1
  6

  9
$DIMLTEX2
  6

  9
$DIMTXTDIRECTION
 70
     0
  9
$LUNITS
 70
     2
  9
$LUPREC
 70
     3
  9
$SKETCHINC
 40
0.1
  9
$FILLETRAD
 40
50.0
  9
$AUNITS
 70
     0
  9
$AUPREC
 70
     0
  9
$MENU
  1
acad
  9
$ELEVATION
 40
0.0
  9
$PELEVATION
 40
0.0
  9
$THICKNESS
 40
0.0
  9
$LIMCHECK
 70
     0
  9
$CHAMFERA
 40
0.5
  9
$CHAMFERB
 40
0.5
  9
$CHAMFERC
 40
20.0
  9
$CHAMFERD
 40
0.0
  9
$SKPOLY
 70
     0
  9
$TDCREATE
 40
2451936.495068056
  9
$TDUCREATE
 40
2451936.120068056
  9
$TDUPDATE
 40
2459024.491799375
  9
$TDUUPDATE
 40
2459024.116799375
  9
$TDINDWG
 40
0.1977064815
  9
$TDUSRTIMER
 40
0.1977064815
  9
$USRTIMER
 70
     1
  9
$ANGBASE
 50
0.0
  9
$ANGDIR
 70
     0
  9
$PDMODE
 70
     0
  9
$PDSIZE
 40
0.0
  9
$PLINEWID
 40
0.0
  9
$SPLFRAME
 70
     0
  9
$SPLINETYPE
 70
     6
  9
$SPLINESEGS
 70
     8
  9
$HANDSEED
  5
888A
  9
$SURFTAB1
 70
     6
  9
$SURFTAB2
 70
     6
  9
$SURFTYPE
 70
     6
  9
$SURFU
 70
     6
  9
$SURFV
 70
     6
  9
$UCSBASE
  2

  9
$UCSNAME
  2

  9
$UCSORG
 10
0.0
 20
0.0
 30
0.0
  9
$UCSXDIR
 10
1.0
 20
0.0
 30
0.0
  9
$UCSYDIR
 10
0.0
 20
1.0
 30
0.0
  9
$UCSORTHOREF
  2

  9
$UCSORTHOVIEW
 70
     0
  9
$UCSORGTOP
 10
0.0
 20
0.0
 30
0.0
  9
$UCSORGBOTTOM
 10
0.0
 20
0.0
 30
0.0
  9
$UCSORGLEFT
 10
0.0
 20
0.0
 30
0.0
  9
$UCSORGRIGHT
 10
0.0
 20
0.0
 30
0.0
  9
$UCSORGFRONT
 10
0.0
 20
0.0
 30
0.0
  9
$UCSORGBACK
 10
0.0
 20
0.0
 30
0.0
  9
$PUCSBASE
  2

  9
$PUCSNAME
  2

  9
$PUCSORG
 10
0.0
 20
0.0
 30
0.0
  9
$PUCSXDIR
 10
1.0
 20
0.0
 30
0.0
  9
$PUCSYDIR
 10
0.0
 20
1.0
 30
0.0
  9
$PUCSORTHOREF
  2

  9
$PUCSORTHOVIEW
 70
     0
  9
$PUCSORGTOP
 10
0.0
 20
0.0
 30
0.0
  9
$PUCSORGBOTTOM
 10
0.0
 20
0.0
 30
0.0
  9
$PUCSORGLEFT
 10
0.0
 20
0.0
 30
0.0
  9
$PUCSORGRIGHT
 10
0.0
 20
0.0
 30
0.0
  9
$PUCSORGFRONT
 10
0.0
 20
0.0
 30
0.0
  9
$PUCSORGBACK
 10
0.0
 20
0.0
 30
0.0
  9
$USERI1
 70
     0
  9
$USERI2
 70
     0
  9
$USERI3
 70
     0
  9
$USERI4
 70
     0
  9
$USERI5
 70
     0
  9
$USERR1
 40
0.0
  9
$USERR2
 40
0.0
  9
$USERR3
 40
0.0
  9
$USERR4
 40
0.0
  9
$USERR5
 40
0.0
  9
$WORLDVIEW
 70
     1
  9
$SHADEDGE
 70
     3
  9
$SHADEDIF
 70
    70
  9
$TILEMODE
 70
     1
  9
$MAXACTVP
 70
    16
  9
$PINSBASE
 10
0.0
 20
0.0
 30
0.0
  9
$PLIMCHECK
 70
     0
  9
$PEXTMIN
 10
1.000000000000000E+20
 20
1.000000000000000E+20
 30
1.000000000000000E+20
  9
$PEXTMAX
 10
-1.000000000000000E+20
 20
-1.000000000000000E+20
 30
-1.000000000000000E+20
  9
$PLIMMIN
 10
0.0
 20
0.0
  9
$PLIMMAX
 10
12.0
 20
9.0
  9
$UNITMODE
 70
     0
  9
$VISRETAIN
 70
     0
  9
$PLINEGEN
 70
     0
  9
$PSLTSCALE
 70
     1
  9
$TREEDEPTH
 70
  3020
  9
$CMLSTYLE
  2
STANDARD
  9
$CMLJUST
 70
     0
  9
$CMLSCALE
 40
20.0
  9
$PROXYGRAPHICS
 70
     1
  9
$MEASUREMENT
 70
     1
  9
$CELWEIGHT
370
    -1
  9
$ENDCAPS
280
     0
  9
$JOINSTYLE
280
     0
  9
$LWDISPLAY
290
     0
  9
$INSUNITS
 70
     0
  9
$HYPERLINKBASE
  1

  9
$STYLESHEET
  1

  9
$XEDIT
290
     1
  9
$CEPSNTYPE
380
     0
  9
$PSTYLEMODE
290
     1
  9
$FINGERPRINTGUID
  2
{9D100473-009A-4613-8DF5-150C69B7D4E0}
  9
$VERSIONGUID
  2
{5ADAAC08-5BD5-44CE-B3B7-8FD91B8F8628}
  9
$EXTNAMES
290
     1
  9
$PSVPSCALE
 40
0.0
  9
$OLESTARTUP
290
     0
  9
$SORTENTS
280
   127
  9
$INDEXCTL
280
     0
  9
$HIDETEXT
280
     0
  9
$XCLIPFRAME
280
     2
  9
$HALOGAP
280
     0
  9
$OBSCOLOR
 70
   257
  9
$OBSLTYPE
280
     0
  9
$INTERSECTIONDISPLAY
280
     0
  9
$INTERSECTIONCOLOR
 70
   257
  9
$DIMASSOC
280
     1
  9
$PROJECTNAME
  1

  9
$CAMERADISPLAY
290
     0
  9
$LENSLENGTH
 40
50.0
  9
$CAMERAHEIGHT
 40
0.0
  9
$STEPSPERSEC
 40
2.0
  9
$STEPSIZE
 40
6.0
  9
$3DDWFPREC
 40
2.0
  9
$PSOLWIDTH
 40
0.25
  9
$PSOLHEIGHT
 40
4.0
  9
$LOFTANG1
 40
1.570796326794896
  9
$LOFTANG2
 40
1.570796326794896
  9
$LOFTMAG1
 40
0.0
  9
$LOFTMAG2
 40
0.0
  9
$LOFTPARAM
 70
     7
  9
$LOFTNORMALS
280
     1
  9
$LATITUDE
 40
37.795
  9
$LONGITUDE
 40
-122.394
  9
$NORTHDIRECTION
 40
0.0
  9
$TIMEZONE
 70
 -8000
  9
$LIGHTGLYPHDISPLAY
280
     1
  9
$TILEMODELIGHTSYNCH
280
     1
  9
$CMATERIAL
347
869B
  9
$SOLIDHIST
280
     0
  9
$SHOWHIST
280
     1
  9
$DWFFRAME
280
     2
  9
$DGNFRAME
280
     0
  9
$REALWORLDSCALE
290
     1
  9
$INTERFERECOLOR
 62
     1
  9
$INTERFEREOBJVS
345
86BD
  9
$INTERFEREVPVS
346
86BA
  9
$CSHADOW
280
     0
  9
$SHADOWPLANELOCATION
 40
0.0
  0
ENDSEC
  0
SECTION
  2
CLASSES
  0
CLASS
  1
ACDBDICTIONARYWDFLT
  2
AcDbDictionaryWithDefault
  3
ObjectDBX Classes
 90
        0
 91
        1
280
     0
281
     0
  0
CLASS
  1
MATERIAL
  2
AcDbMaterial
  3
ObjectDBX Classes
 90
     1153
 91
        3
280
     0
281
     0
  0
CLASS
  1
VISUALSTYLE
  2
AcDbVisualStyle
  3
ObjectDBX Classes
 90
     4095
 91
       24
280
     0
281
     0
  0
CLASS
  1
TABLESTYLE
  2
AcDbTableStyle
  3
ObjectDBX Classes
 90
     4095
 91
        1
280
     0
281
     0
  0
CLASS
  1
SCALE
  2
AcDbScale
  3
ObjectDBX Classes
 90
     1153
 91
       17
280
     0
281
     0
  0
CLASS
  1
MLEADERSTYLE
  2
AcDbMLeaderStyle
  3
ACDB_MLEADERSTYLE_CLASS
 90
     4095
 91
        1
280
     0
281
     0
  0
CLASS
  1
ACDBSECTIONVIEWSTYLE
  2
AcDbSectionViewStyle
  3
ObjectDBX Classes
 90
     1025
 91
        2
280
     0
281
     0
  0
CLASS
  1
ACDBDETAILVIEWSTYLE
  2
AcDbDetailViewStyle
  3
ObjectDBX Classes
 90
     1025
 91
        2
280
     0
281
     0
  0
CLASS
  1
SORTENTSTABLE
  2
AcDbSortentsTable
  3
ObjectDBX Classes
 90
        0
 91
        1
280
     0
281
     0
  0
CLASS
  1
DICTIONARYVAR
  2
AcDbDictionaryVar
  3
ObjectDBX Classes
 90
        0
 91
        9
280
     0
281
     0
  0
CLASS
  1
CELLSTYLEMAP
  2
AcDbCellStyleMap
  3
ObjectDBX Classes
 90
     1152
 91
        1
280
     0
281
     0
  0
ENDSEC
  0
SECTION
  2
TABLES
  0
TABLE
  2
VPORT
  5
8
330
0
100
AcDbSymbolTable
 70
     1
  0
VPORT
  5
8698
330
8
100
AcDbSymbolTableRecord
100
AcDbViewportTableRecord
  2
*Active
 70
     0
 10
0.0
 20
0.0
 11
1.0
 21
1.0
 12
1576.848386639417
 22
2329.490207133039
 13
0.0
 23
0.0
 14
10.0
 24
10.0
 15
10.0
 25
10.0
 16
0.0
 26
0.0
 36
1.0
 17
0.0
 27
0.0
 37
0.0
 40
4683.402720523633
 41
1.957107843137254
 42
50.0
 43
0.0
 44
0.0
 50
0.0
 51
0.0
 71
     0
 72
   100
 73
     1
 74
     0
 75
     0
 76
     0
 77
     0
 78
     0
281
     0
 65
     1
110
0.0
120
0.0
130
0.0
111
1.0
121
0.0
131
0.0
112
0.0
122
1.0
132
0.0
 79
     0
146
0.0
348
86B9
 60
     3
 61
     5
292
     1
282
     1
141
0.0
142
0.0
 63
   250
421
  3355443
1001
ACAD_NAV_VCDISPLAY
1070
     3
  0
ENDTAB
  0
TABLE
  2
LTYPE
  5
5
330
0
100
AcDbSymbolTable
 70
     2
  0
LTYPE
  5
13
330
5
100
AcDbSymbolTableRecord
100
AcDbLinetypeTableRecord
  2
BYBLOCK
 70
     0
  3

 72
    65
 73
     0
 40
0.0
  0
LTYPE
  5
14
330
5
100
AcDbSymbolTableRecord
100
AcDbLinetypeTableRecord
  2
BYLAYER
 70
     0
  3

 72
    65
 73
     0
 40
0.0
  0
LTYPE
  5
15
330
5
100
AcDbSymbolTableRecord
100
AcDbLinetypeTableRecord
  2
CONTINUOUS
 70
     0
  3
Solid line
 72
    65
 73
     0
 40
0.0
  0
LTYPE
  5
1F
330
5
100
AcDbSymbolTableRecord
100
AcDbLinetypeTableRecord
  2
CENTER
 70
     0
  3
____ _ ____ _ ____ _ ____ _ ____ _ ____ _ ____ 
 72
    65
 73
     4
 40
2.0
 49
1.25
 74
     0
 49
-0.25
 74
     0
 49
0.25
 74
     0
 49
-0.25
 74
     0
  0
ENDTAB
  0
TABLE
  2
LAYER
  5
2
102
{ACAD_XDICTIONARY
360
873F
102
}
330
0
100
AcDbSymbolTable
 70
     6
  0
LAYER
  5
F
102
{ACAD_XDICTIONARY
360
8732
102
}
330
2
100
AcDbSymbolTableRecord
100
AcDbLayerTableRecord
  2
0
 70
     0
 62
     7
  6
CONTINUOUS
370
    -3
390
868B
347
86AB
348
0
  0
LAYER
  5
31
102
{ACAD_XDICTIONARY
360
8734
102
}
330
2
100
AcDbSymbolTableRecord
100
AcDbLayerTableRecord
  2
3
 70
     0
 62
     2
  6
CONTINUOUS
370
    -3
390
868B
347
86AB
348
0
  0
LAYER
  5
76D0
102
{ACAD_XDICTIONARY
360
8736
102
}
330
2
100
AcDbSymbolTableRecord
100
AcDbLayerTableRecord
  2
2
 70
     0
 62
     3
  6
CENTER
370
    -3
390
868B
347
86AB
348
0
  0
LAYER
  5
76D1
102
{ACAD_XDICTIONARY
360
8738
102
}
330
2
100
AcDbSymbolTableRecord
100
AcDbLayerTableRecord
  2
1
 70
     0
 62
     4
  6
CONTINUOUS
370
    -3
390
868B
347
86AB
348
0
  0
LAYER
  5
76D2
102
{ACAD_XDICTIONARY
360
873A
102
}
330
2
100
AcDbSymbolTableRecord
100
AcDbLayerTableRecord
  2
4
 70
     0
 62
     7
  6
CONTINUOUS
370
    -3
390
868B
347
86AB
348
0
  0
LAYER
  5
7D34
330
2
100
AcDbSymbolTableRecord
100
AcDbLayerTableRecord
  2
DEFPOINTS
 70
     0
 62
     7
  6
CONTINUOUS
290
     0
370
    -3
390
868B
347
86AB
348
0
  0
ENDTAB
  0
TABLE
  2
STYLE
  5
3
330
0
100
AcDbSymbolTable
 70
     1
  0
STYLE
  5
10
330
3
100
AcDbSymbolTableRecord
100
AcDbTextStyleTableRecord
  2
STANDARD
 70
     0
 40
0.0
 41
1.0
 50
0.0
 71
     0
 42
180.0
  3
simplex.shx
  4
extfont.shx
  0
ENDTAB
  0
TABLE
  2
VIEW
  5
6
330
0
100
AcDbSymbolTable
 70
     0
  0
ENDTAB
  0
TABLE
  2
UCS
  5
7
330
0
100
AcDbSymbolTable
 70
     0
  0
ENDTAB
  0
TABLE
  2
APPID
  5
9
330
0
100
AcDbSymbolTable
 70
     4
  0
APPID
  5
11
330
9
100
AcDbSymbolTableRecord
100
AcDbRegAppTableRecord
  2
ACAD
 70
     0
  0
APPID
  5
8745
330
9
100
AcDbSymbolTableRecord
100
AcDbRegAppTableRecord
  2
ACAD_NAV_VCDISPLAY
 70
     0
  0
APPID
  5
8841
330
9
100
AcDbSymbolTableRecord
100
AcDbRegAppTableRecord
  2
AcadAnnoMonitorAlertIconDisabled
 70
     0
  0
APPID
  5
8842
330
9
100
AcDbSymbolTableRecord
100
AcDbRegAppTableRecord
  2
ACAD_EXEMPT_FROM_CAD_STANDARDS
 70
     0
  0
ENDTAB
  0
TABLE
  2
DIMSTYLE
  5
A
330
0
100
AcDbSymbolTable
 70
     1
100
AcDbDimStyleTable
 71
     1
340
1D
  0
DIMSTYLE
105
1D
102
{ACAD_REACTORS
330
7E88
330
7EE7
330
7EE8
330
7EE9
330
7EEA
330
7F30
330
7F4D
330
7F4E
330
7F4F
330
7F50
330
7F54
330
8573
330
858B
330
85FA
330
8607
330
8614
330
8623
330
864D
330
867A
330
8813
102
}
330
A
100
AcDbSymbolTableRecord
100
AcDbDimStyleTableRecord
  2
IGA
 70
     0
 40
2.0
 41
2.0
 42
0.5
 43
10.0
 44
1.0
 47
1.0
 48
1.0
 73
     0
 74
     0
 77
     1
 78
     8
140
3.0
141
0.0
143
0.03937
146
10.0
147
1.0
173
     1
271
     1
272
     0
279
     2
284
     8
340
10
341
7C24
343
7C24
344
7C24
  0
ENDTAB
  0
TABLE
  2
BLOCK_RECORD
  5
1
330
0
100
AcDbSymbolTable
 70
    23
  0
BLOCK_RECORD
  5
19
102
{ACAD_XDICTIONARY
360
86EB
102
}
330
1
100
AcDbSymbolTableRecord
100
AcDbBlockTableRecord
  2
*MODEL_SPACE
340
868E
 70
     0
280
     1
281
     0
  0
BLOCK_RECORD
  5
16
330
1
100
AcDbSymbolTableRecord
100
AcDbBlockTableRecord
  2
*PAPER_SPACE
340
868F
 70
     0
280
     1
281
     0
  0
BLOCK_RECORD
  5
7C24
330
1
100
AcDbSymbolTableRecord
100
AcDbBlockTableRecord
  2
_OPEN
340
0
102
{BLKREFS
331
81E9
331
81EA
331
8281
331
8282
331
82A3
331
82A4
331
82AE
331
82AF
331
831A
331
831B
331
834B
331
834C
331
8355
331
8356
331
83F3
331
83F4
331
86F0
331
86F1
331
86F9
331
86FA
331
8702
331
8703
331
870D
331
870E
331
87F1
331
87FD
331
8823
331
8824
331
8850
331
8851
331
84E6
331
84E7
331
84F1
331
84F2
331
8578
331
8579
331
8592
331
8593
102
}
 70
     0
280
     1
281
     0
  0
BLOCK_RECORD
  5
7F60
330
1
100
AcDbSymbolTableRecord
100
AcDbBlockTableRecord
  2
*D1
340
0
 70
     0
280
     1
281
     0
  0
BLOCK_RECORD
  5
7FCA
330
1
100
AcDbSymbolTableRecord
100
AcDbBlockTableRecord
  2
*D2
340
0
 70
     0
280
     1
281
     0
  0
BLOCK_RECORD
  5
7FD6
330
1
100
AcDbSymbolTableRecord
100
AcDbBlockTableRecord
  2
*D3
340
0
 70
     0
280
     1
281
     0
  0
BLOCK_RECORD
  5
7FE2
330
1
100
AcDbSymbolTableRecord
100
AcDbBlockTableRecord
  2
*D4
340
0
 70
     0
280
     1
281
     0
  0
BLOCK_RECORD
  5
7FEE
330
1
100
AcDbSymbolTableRecord
100
AcDbBlockTableRecord
  2
*D5
340
0
 70
     0
280
     1
281
     0
  0
BLOCK_RECORD
  5
7FF9
330
1
100
AcDbSymbolTableRecord
100
AcDbBlockTableRecord
  2
*D6
340
0
 70
     0
280
     1
281
     0
  0
BLOCK_RECORD
  5
8005
330
1
100
AcDbSymbolTableRecord
100
AcDbBlockTableRecord
  2
*D7
340
0
 70
     0
280
     1
281
     0
  0
BLOCK_RECORD
  5
8011
330
1
100
AcDbSymbolTableRecord
100
AcDbBlockTableRecord
  2
*D8
340
0
 70
     0
280
     1
281
     0
  0
BLOCK_RECORD
  5
801C
330
1
100
AcDbSymbolTableRecord
100
AcDbBlockTableRecord
  2
*D9
340
0
 70
     0
280
     1
281
     0
  0
BLOCK_RECORD
  5
8028
330
1
100
AcDbSymbolTableRecord
100
AcDbBlockTableRecord
  2
*D10
340
0
 70
     0
280
     1
281
     0
  0
BLOCK_RECORD
  5
805A
330
1
100
AcDbSymbolTableRecord
100
AcDbBlockTableRecord
  2
*D11
340
0
 70
     0
280
     1
281
     0
  0
BLOCK_RECORD
  5
838A
330
1
100
AcDbSymbolTableRecord
100
AcDbBlockTableRecord
  2
_DOT
340
0
102
{BLKREFS
331
87F0
331
87FC
102
}
 70
     0
280
     1
281
     0
  0
BLOCK_RECORD
  5
8567
330
1
100
AcDbSymbolTableRecord
100
AcDbBlockTableRecord
  2
*D13
340
0
 70
     0
280
     1
281
     0
  0
BLOCK_RECORD
  5
857F
330
1
100
AcDbSymbolTableRecord
100
AcDbBlockTableRecord
  2
*D14
340
0
 70
     0
280
     1
281
     0
  0
BLOCK_RECORD
  5
85EC
330
1
100
AcDbSymbolTableRecord
100
AcDbBlockTableRecord
  2
*D15
340
0
 70
     0
280
     1
281
     0
  0
BLOCK_RECORD
  5
85FB
330
1
100
AcDbSymbolTableRecord
100
AcDbBlockTableRecord
  2
*D16
340
0
 70
     0
280
     1
281
     0
  0
BLOCK_RECORD
  5
8608
330
1
100
AcDbSymbolTableRecord
100
AcDbBlockTableRecord
  2
*D17
340
0
 70
     0
280
     1
281
     0
  0
BLOCK_RECORD
  5
8615
330
1
100
AcDbSymbolTableRecord
100
AcDbBlockTableRecord
  2
*D18
340
0
 70
     0
280
     1
281
     0
  0
BLOCK_RECORD
  5
863F
330
1
100
AcDbSymbolTableRecord
100
AcDbBlockTableRecord
  2
*D19
340
0
 70
     0
280
     1
281
     0
  0
BLOCK_RECORD
  5
866C
330
1
100
AcDbSymbolTableRecord
100
AcDbBlockTableRecord
  2
*D20
340
0
 70
     0
280
     1
281
     0
  0
BLOCK_RECORD
  5
8814
330
1
100
AcDbSymbolTableRecord
100
AcDbBlockTableRecord
  2
*D22
340
0
 70
     0
280
     1
281
     0
  0
ENDTAB
  0
ENDSEC
  0
SECTION
  2
BLOCKS
  0
BLOCK
  5
1A
330
19
100
AcDbEntity
  8
0
100
AcDbBlockBegin
  2
*MODEL_SPACE
 70
     0
 10
0.0
 20
0.0
 30
0.0
  3
*MODEL_SPACE
  1

  0
ENDBLK
  5
1B
330
19
100
AcDbEntity
  8
0
100
AcDbBlockEnd
  0
BLOCK
  5
17
330
16
100
AcDbEntity
 67
     1
  8
0
100
AcDbBlockBegin
  2
*PAPER_SPACE
 70
     0
 10
0.0
 20
0.0
 30
0.0
  3
*PAPER_SPACE
  1

  0
ENDBLK
  5
18
330
16
100
AcDbEntity
 67
     1
  8
0
100
AcDbBlockEnd
  0
BLOCK
  5
7C28
330
7C24
100
AcDbEntity
  8
0
100
AcDbBlockBegin
  2
_OPEN
 70
     0
 10
0.0
 20
0.0
 30
0.0
  3
_OPEN
  1

  0
LINE
  5
7C25
330
7C24
100
AcDbEntity
  8
0
  6
ByBlock
 62
     0
100
AcDbLine
 10
-1.0
 20
0.1666666666666666
 30
0.0
 11
0.0
 21
0.0
 31
0.0
  0
LINE
  5
7C26
330
7C24
100
AcDbEntity
  8
0
  6
ByBlock
 62
     0
100
AcDbLine
 10
0.0
 20
0.0
 30
0.0
 11
-1.0
 21
-0.1666666666666666
 31
0.0
  0
LINE
  5
7C27
330
7C24
100
AcDbEntity
  8
0
  6
ByBlock
 62
     0
100
AcDbLine
 10
0.0
 20
0.0
 30
0.0
 11
-1.0
 21
0.0
 31
0.0
  0
ENDBLK
  5
7C29
330
7C24
100
AcDbEntity
  8
0
100
AcDbBlockEnd
  0
BLOCK
  5
83EE
330
7F60
100
AcDbEntity
  8
0
100
AcDbBlockBegin
  2
*D1
 70
     1
 10
0.0
 20
0.0
 30
0.0
  3
*D1
  1

  0
LINE
  5
83EF
330
7F60
100
AcDbEntity
  8
0
  6
ByBlock
 62
     0
440
 16777216
100
AcDbLine
 10
2387.568861078769
 20
1735.922690128551
 30
0.0
 11
2387.568861078769
 21
1819.479542741687
 31
0.0
  0
LINE
  5
83F0
330
7F60
100
AcDbEntity
  8
0
  6
ByBlock
 62
     0
440
 16777216
100
AcDbLine
 10
2567.568861078769
 20
1737.586507619099
 30
0.0
 11
2567.568861078769
 21
1819.479542741687
 31
0.0
  0
LINE
  5
83F1
330
7F60
100
AcDbEntity
  8
0
  6
ByBlock
 62
     0
440
 16777216
100
AcDbLine
 10
2417.568861078768
 20
1804.479542741686
 30
0.0
 11
2537.568861078769
 21
1804.479542741686
 31
0.0
  0
MTEXT
  5
83F2
330
7F60
100
AcDbEntity
  8
0
  6
ByBlock
 62
     0
440
 16777216
100
AcDbMText
 10
2482.086881646901
 20
1836.273625846972
 30
0.0
 40
45.0
 41
0.0
 46
0.0
 71
     5
 72
     5
  1
\A1;180
 73
     1
 44
1.0
  0
INSERT
  5
83F3
330
7F60
100
AcDbEntity
  8
0
  6
ByBlock
 62
     0
440
 16777216
100
AcDbBlockReference
  2
_OPEN
 10
2387.568861078769
 20
1804.479542741686
 30
0.0
 41
30.0
 42
30.0
 43
30.0
 50
180.0
  0
INSERT
  5
83F4
330
7F60
100
AcDbEntity
  8
0
  6
ByBlock
 62
     0
440
 16777216
100
AcDbBlockReference
  2
_OPEN
 10
2567.568861078769
 20
1804.479542741686
 30
0.0
 41
30.0
 42
30.0
 43
30.0
  0
POINT
  5
83F5
330
7F60
100
AcDbEntity
  8
DEFPOINTS
  6
ByBlock
 62
     0
440
 16777216
100
AcDbPoint
 10
2387.568861078769
 20
1728.422690128551
 30
0.0
  0
POINT
  5
83F6
330
7F60
100
AcDbEntity
  8
DEFPOINTS
  6
ByBlock
 62
     0
440
 16777216
100
AcDbPoint
 10
2567.568861078769
 20
1730.086507619099
 30
0.0
  0
POINT
  5
83F7
330
7F60
100
AcDbEntity
  8
DEFPOINTS
  6
ByBlock
 62
     0
440
 16777216
100
AcDbPoint
 10
2567.568861078769
 20
1804.479542741686
 30
0.0
  0
ENDBLK
  5
83F8
330
7F60
100
AcDbEntity
  8
0
100
AcDbBlockEnd
  0
BLOCK
  5
81E5
330
7FCA
100
AcDbEntity
  8
0
100
AcDbBlockBegin
  2
*D2
 70
     1
 10
0.0
 20
0.0
 30
0.0
  3
*D2
  1

  0
LINE
  5
81E6
330
7FCA
100
AcDbEntity
  8
0
  6
ByBlock
 62
     0
440
 16777216
100
AcDbLine
 10
603.7809184741099
 20
1323.340664214482
 30
0.0
 11
548.6832027701275
 21
1323.340664214482
 31
0.0
  0
LINE
  5
81E7
330
7FCA
100
AcDbEntity
  8
0
  6
ByBlock
 62
     0
440
 16777216
100
AcDbLine
 10
603.7809184741099
 20
1563.340664214482
 30
0.0
 11
548.6832027701275
 21
1563.340664214482
 31
0.0
  0
LINE
  5
81E8
330
7FCA
100
AcDbEntity
  8
0
  6
ByBlock
 62
     0
440
 16777216
100
AcDbLine
 10
563.6832027701275
 20
1353.340664214482
 30
0.0
 11
563.6832027701275
 21
1533.340664214482
 31
0.0
  0
INSERT
  5
81E9
330
7FCA
100
AcDbEntity
  8
0
  6
ByBlock
 62
     0
440
 16777216
100
AcDbBlockReference
  2
_OPEN
 10
563.6832027701275
 20
1323.340664214482
 30
0.0
 41
30.0
 42
30.0
 43
30.0
 50
270.0
  0
INSERT
  5
81EA
330
7FCA
100
AcDbEntity
  8
0
  6
ByBlock
 62
     0
440
 16777216
100
AcDbBlockReference
  2
_OPEN
 10
563.6832027701275
 20
1563.340664214482
 30
0.0
 41
30.0
 42
30.0
 43
30.0
 50
90.0
  0
MTEXT
  5
81EB
330
7FCA
100
AcDbEntity
  8
0
  6
ByBlock
 62
     0
440
 16777216
100
AcDbMText
 10
526.1832027701275
 20
1443.340664214482
 30
0.0
 40
45.0
 41
0.0
 46
0.0
 71
     5
 72
     5
  1
\A1;240
 11
0.0
 21
1.0
 31
0.0
 73
     1
 44
1.0
  0
POINT
  5
81EC
330
7FCA
100
AcDbEntity
  8
DEFPOINTS
  6
ByBlock
 62
     0
440
 16777216
100
AcDbPoint
 10
611.28091847411
 20
1323.340664214482
 30
0.0
  0
POINT
  5
81ED
330
7FCA
100
AcDbEntity
  8
DEFPOINTS
  6
ByBlock
 62
     0
440
 16777216
100
AcDbPoint
 10
611.28091847411
 20
1563.340664214482
 30
0.0
  0
POINT
  5
81EE
330
7FCA
100
AcDbEntity
  8
DEFPOINTS
  6
ByBlock
 62
     0
440
 16777216
100
AcDbPoint
 10
563.6832027701275
 20
1563.340664214482
 30
0.0
  0
ENDBLK
  5
81EF
330
7FCA
100
AcDbEntity
  8
0
100
AcDbBlockEnd
  0
BLOCK
  5
8351
330
7FD6
100
AcDbEntity
  8
0
100
AcDbBlockBegin
  2
*D3
 70
     1
 10
0.0
 20
0.0
 30
0.0
  3
*D3
  1

  0
LINE
  5
8352
330
7FD6
100
AcDbEntity
  8
0
  6
ByBlock
 62
     0
440
 16777216
100
AcDbLine
 10
603.7809184741099
 20
1323.340664214482
 30
0.0
 11
465.0459026981279
 21
1323.340664214482
 31
0.0
  0
LINE
  5
8353
330
7FD6
100
AcDbEntity
  8
0
  6
ByBlock
 62
     0
440
 16777216
100
AcDbLine
 10
553.1379383988896
 20
1561.340664214482
 30
0.0
 11
465.0459026981279
 21
1561.340664214482
 31
0.0
  0
LINE
  5
8354
330
7FD6
100
AcDbEntity
  8
0
  6
ByBlock
 62
     0
440
 16777216
100
AcDbLine
 10
480.0459026981279
 20
1353.340664214482
 30
0.0
 11
480.0459026981279
 21
1531.340664214482
 31
0.0
  0
INSERT
  5
8355
330
7FD6
100
AcDbEntity
  8
0
  6
ByBlock
 62
     0
440
 16777216
100
AcDbBlockReference
  2
_OPEN
 10
480.0459026981279
 20
1323.340664214482
 30
0.0
 41
30.0
 42
30.0
 43
30.0
 50
270.0
  0
INSERT
  5
8356
330
7FD6
100
AcDbEntity
  8
0
  6
ByBlock
 62
     0
440
 16777216
100
AcDbBlockReference
  2
_OPEN
 10
480.0459026981279
 20
1561.340664214482
 30
0.0
 41
30.0
 42
30.0
 43
30.0
 50
90.0
  0
MTEXT
  5
8357
330
7FD6
100
AcDbEntity
  8
0
  6
ByBlock
 62
     0
440
 16777216
100
AcDbMText
 10
442.5459026981279
 20
1442.340664214482
 30
0.0
 40
45.0
 41
0.0
 46
0.0
 71
     5
 72
     5
  1
\A1;238
 11
0.0
 21
1.0
 31
0.0
 73
     1
 44
1.0
  0
POINT
  5
8358
330
7FD6
100
AcDbEntity
  8
DEFPOINTS
  6
ByBlock
 62
     0
440
 16777216
100
AcDbPoint
 10
611.28091847411
 20
1323.340664214482
 30
0.0
  0
POINT
  5
8359
330
7FD6
100
AcDbEntity
  8
DEFPOINTS
  6
ByBlock
 62
     0
440
 16777216
100
AcDbPoint
 10
560.6379383988897
 20
1561.340664214482
 30
0.0
  0
POINT
  5
835A
330
7FD6
100
AcDbEntity
  8
DEFPOINTS
  6
ByBlock
 62
     0
440
 16777216
100
AcDbPoint
 10
480.0459026981279
 20
1561.340664214482
 30
0.0
  0
ENDBLK
  5
835B
330
7FD6
100
AcDbEntity
  8
0
100
AcDbBlockEnd
  0
BLOCK
  5
84EC
330
7FE2
100
AcDbEntity
  8
0
100
AcDbBlockBegin
  2
*D4
 70
     1
 10
0.0
 20
0.0
 30
0.0
  3
*D4
  1

  0
LINE
  5
84ED
330
7FE2
100
AcDbEntity
  8
0
  6
ByBlock
 62
     0
440
 16777216
100
AcDbLine
 10
2570.568861078769
 20
1724.79445307147
 30
0.0
 11
2570.568861078769
 21
1944.913201006897
 31
0.0
  0
LINE
  5
84EE
330
7FE2
100
AcDbEntity
  8
0
  6
ByBlock
 62
     0
440
 16777216
100
AcDbLine
 10
2477.568861078768
 20
1877.69976680302
 30
0.0
 11
2477.568861078768
 21
1944.913201006897
 31
0.0
  0
LINE
  5
84EF
330
7FE2
100
AcDbEntity
  8
0
  6
ByBlock
 62
     0
440
 16777216
100
AcDbLine
 10
2540.568861078769
 20
1929.913201006897
 30
0.0
 11
2507.568861078768
 21
1929.913201006897
 31
0.0
  0
MTEXT
  5
84F0
330
7FE2
100
AcDbEntity
  8
0
  6
ByBlock
 62
     0
440
 16777216
100
AcDbMText
 10
2525.271889762429
 20
1975.87546469376
 30
0.0
 40
45.0
 41
0.0
 46
0.0
 71
     5
 72
     5
  1
\A1;94
 73
     1
 44
1.0
  0
INSERT
  5
84F1
330
7FE2
100
AcDbEntity
  8
0
  6
ByBlock
 62
     0
440
 16777216
100
AcDbBlockReference
  2
_OPEN
 10
2570.568861078769
 20
1929.913201006897
 30
0.0
 41
30.0
 42
30.0
 43
30.0
  0
INSERT
  5
84F2
330
7FE2
100
AcDbEntity
  8
0
  6
ByBlock
 62
     0
440
 16777216
100
AcDbBlockReference
  2
_OPEN
 10
2477.568861078768
 20
1929.913201006897
 30
0.0
 41
30.0
 42
30.0
 43
30.0
 50
180.0
  0
POINT
  5
84F3
330
7FE2
100
AcDbEntity
  8
DEFPOINTS
  6
ByBlock
 62
     0
440
 16777216
100
AcDbPoint
 10
2570.568861078769
 20
1717.29445307147
 30
0.0
  0
POINT
  5
84F4
330
7FE2
100
AcDbEntity
  8
DEFPOINTS
  6
ByBlock
 62
     0
440
 16777216
100
AcDbPoint
 10
2477.568861078768
 20
1870.19976680302
 30
0.0
  0
POINT
  5
84F5
330
7FE2
100
AcDbEntity
  8
DEFPOINTS
  6
ByBlock
 62
     0
440
 16777216
100
AcDbPoint
 10
2477.568861078768
 20
1929.913201006897
 30
0.0
  0
ENDBLK
  5
84F6
330
7FE2
100
AcDbEntity
  8
0
100
AcDbBlockEnd
  0
BLOCK
  5
84BE
330
7FEE
100
AcDbEntity
  8
0
100
AcDbBlockBegin
  2
*D5
 70
     1
 10
0.0
 20
0.0
 30
0.0
  3
*D5
  1

  0
LINE
  5
884D
330
7FEE
100
AcDbEntity
  8
3
 62
     0
440
 16777216
370
    -2
100
AcDbLine
 10
2477.568861078768
 20
1875.918862155511
 30
0.0
 11
2477.568861078768
 21
1944.913201006897
 31
0.0
  0
LINE
  5
884E
330
7FEE
100
AcDbEntity
  8
3
 62
     0
440
 16777216
370
    -2
100
AcDbLine
 10
1949.807795890862
 20
1661.386294518269
 30
0.0
 11
1949.807795890862
 21
1944.913201006897
 31
0.0
  0
LINE
  5
884F
330
7FEE
100
AcDbEntity
  8
3
 62
     0
440
 16777216
370
    -2
100
AcDbLine
 10
2447.568861078769
 20
1929.913201006897
 30
0.0
 11
1979.807795890862
 21
1929.913201006897
 31
0.0
  0
INSERT
  5
8850
330
7FEE
100
AcDbEntity
  8
3
 62
     0
440
 16777216
370
    -2
100
AcDbBlockReference
  2
_OPEN
 10
2477.568861078768
 20
1929.913201006897
 30
0.0
 41
30.0
 42
30.0
 43
30.0
  0
INSERT
  5
8851
330
7FEE
100
AcDbEntity
  8
3
 62
     0
440
 16777216
370
    -2
100
AcDbBlockReference
  2
_OPEN
 10
1949.807795890862
 20
1929.913201006897
 30
0.0
 41
30.0
 42
30.0
 43
30.0
 50
180.0
  0
MTEXT
  5
8852
330
7FEE
100
AcDbEntity
  8
3
 62
     0
440
 16777216
100
AcDbMText
 10
2213.688328484815
 20
2016.698915292611
 30
0.0
 40
45.0
 41
0.0
 46
0.0
 71
     5
 72
     1
  1
\A1;\P(600)
 73
     1
 44
1.0
  0
POINT
  5
8853
330
7FEE
100
AcDbEntity
  8
DEFPOINTS
 62
     0
440
 16777216
100
AcDbPoint
 10
2477.568861078768
 20
1868.418862155511
 30
0.0
  0
POINT
  5
8854
330
7FEE
100
AcDbEntity
  8
DEFPOINTS
 62
     0
440
 16777216
100
AcDbPoint
 10
1949.807795890862
 20
1653.886294518269
 30
0.0
  0
POINT
  5
8855
330
7FEE
100
AcDbEntity
  8
DEFPOINTS
 62
     0
440
 16777216
100
AcDbPoint
 10
1949.807795890862
 20
1929.913201006897
 30
0.0
  0
ENDBLK
  5
84C8
330
7FEE
100
AcDbEntity
  8
0
100
AcDbBlockEnd
  0
BLOCK
  5
84E1
330
7FF9
100
AcDbEntity
  8
0
100
AcDbBlockBegin
  2
*D6
 70
     1
 10
0.0
 20
0.0
 30
0.0
  3
*D6
  1

  0
LINE
  5
84E2
330
7FF9
100
AcDbEntity
  8
0
  6
ByBlock
 62
     0
440
 16777216
100
AcDbLine
 10
2604.068861078769
 20
1688.317589315024
 30
0.0
 11
2711.271135304714
 21
1688.317589315024
 31
0.0
  0
LINE
  5
84E3
330
7FF9
100
AcDbEntity
  8
0
  6
ByBlock
 62
     0
440
 16777216
100
AcDbLine
 10
2604.068861078769
 20
1434.317589315023
 30
0.0
 11
2711.271135304714
 21
1434.317589315023
 31
0.0
  0
LINE
  5
84E4
330
7FF9
100
AcDbEntity
  8
0
  6
ByBlock
 62
     0
440
 16777216
100
AcDbLine
 10
2696.271135304714
 20
1658.317589315023
 30
0.0
 11
2696.271135304714
 21
1464.317589315023
 31
0.0
  0
MTEXT
  5
84E5
330
7FF9
100
AcDbEntity
  8
0
  6
ByBlock
 62
     0
440
 16777216
100
AcDbMText
 10
2657.907837213978
 20
1561.317589315024
 30
0.0
 40
45.0
 41
0.0
 46
0.0
 71
     5
 72
     5
  1
\A1;φ254
 11
0.0
 21
1.0
 31
0.0
 73
     1
 44
1.0
  0
INSERT
  5
84E6
330
7FF9
100
AcDbEntity
  8
0
  6
ByBlock
 62
     0
440
 16777216
100
AcDbBlockReference
  2
_OPEN
 10
2696.271135304714
 20
1688.317589315024
 30
0.0
 41
30.0
 42
30.0
 43
30.0
 50
90.0
  0
INSERT
  5
84E7
330
7FF9
100
AcDbEntity
  8
0
  6
ByBlock
 62
     0
440
 16777216
100
AcDbBlockReference
  2
_OPEN
 10
2696.271135304714
 20
1434.317589315023
 30
0.0
 41
30.0
 42
30.0
 43
30.0
 50
270.0
  0
POINT
  5
84E8
330
7FF9
100
AcDbEntity
  8
DEFPOINTS
  6
ByBlock
 62
     0
440
 16777216
100
AcDbPoint
 10
2596.56886107877
 20
1688.317589315024
 30
0.0
  0
POINT
  5
84E9
330
7FF9
100
AcDbEntity
  8
DEFPOINTS
  6
ByBlock
 62
     0
440
 16777216
100
AcDbPoint
 10
2596.56886107877
 20
1434.317589315023
 30
0.0
  0
POINT
  5
84EA
330
7FF9
100
AcDbEntity
  8
DEFPOINTS
  6
ByBlock
 62
     0
440
 16777216
100
AcDbPoint
 10
2696.271135304714
 20
1434.317589315023
 30
0.0
  0
ENDBLK
  5
84EB
330
7FF9
100
AcDbEntity
  8
0
100
AcDbBlockEnd
  0
BLOCK
  5
82A9
330
8005
100
AcDbEntity
  8
0
100
AcDbBlockBegin
  2
*D7
 70
     1
 10
0.0
 20
0.0
 30
0.0
  3
*D7
  1

  0
LINE
  5
82AA
330
8005
100
AcDbEntity
  8
0
  6
ByBlock
 62
     0
440
 16777216
100
AcDbLine
 10
611.28091847411
 20
1597.840664214483
 30
0.0
 11
611.28091847411
 21
1848.436349098726
 31
0.0
  0
LINE
  5
82AB
330
8005
100
AcDbEntity
  8
0
  6
ByBlock
 62
     0
440
 16777216
100
AcDbLine
 10
811.2809184741099
 20
1808.047034575551
 30
0.0
 11
811.2809184741099
 21
1848.436349098726
 31
0.0
  0
LINE
  5
82AC
330
8005
100
AcDbEntity
  8
0
  6
ByBlock
 62
     0
440
 16777216
100
AcDbLine
 10
641.2809184741099
 20
1833.436349098726
 30
0.0
 11
781.2809184741099
 21
1833.436349098726
 31
0.0
  0
MTEXT
  5
82AD
330
8005
100
AcDbEntity
  8
0
  6
ByBlock
 62
     0
440
 16777216
100
AcDbMText
 10
711.5619789025186
 20
1872.099553796786
 30
0.0
 40
45.0
 41
0.0
 46
0.0
 71
     5
 72
     5
  1
\A1;200
 73
     1
 44
1.0
  0
INSERT
  5
82AE
330
8005
100
AcDbEntity
  8
0
  6
ByBlock
 62
     0
440
 16777216
100
AcDbBlockReference
  2
_OPEN
 10
611.28091847411
 20
1833.436349098726
 30
0.0
 41
30.0
 42
30.0
 43
30.0
 50
180.0
  0
INSERT
  5
82AF
330
8005
100
AcDbEntity
  8
0
  6
ByBlock
 62
     0
440
 16777216
100
AcDbBlockReference
  2
_OPEN
 10
811.2809184741099
 20
1833.436349098726
 30
0.0
 41
30.0
 42
30.0
 43
30.0
  0
POINT
  5
82B0
330
8005
100
AcDbEntity
  8
DEFPOINTS
  6
ByBlock
 62
     0
440
 16777216
100
AcDbPoint
 10
611.28091847411
 20
1590.340664214483
 30
0.0
  0
POINT
  5
82B1
330
8005
100
AcDbEntity
  8
DEFPOINTS
  6
ByBlock
 62
     0
440
 16777216
100
AcDbPoint
 10
811.2809184741099
 20
1800.547034575551
 30
0.0
  0
POINT
  5
82B2
330
8005
100
AcDbEntity
  8
DEFPOINTS
  6
ByBlock
 62
     0
440
 16777216
100
AcDbPoint
 10
811.2809184741099
 20
1833.436349098726
 30
0.0
  0
ENDBLK
  5
82B3
330
8005
100
AcDbEntity
  8
0
100
AcDbBlockEnd
  0
BLOCK
  5
829E
330
8011
100
AcDbEntity
  8
0
100
AcDbBlockBegin
  2
*D8
 70
     1
 10
0.0
 20
0.0
 30
0.0
  3
*D8
  1

  0
LINE
  5
829F
330
8011
100
AcDbEntity
  8
0
  6
ByBlock
 62
     0
440
 16777216
100
AcDbLine
 10
811.2809184741099
 20
1808.047034575551
 30
0.0
 11
811.2809184741099
 21
1848.436349098726
 31
0.0
  0
LINE
  5
82A0
330
8011
100
AcDbEntity
  8
0
  6
ByBlock
 62
     0
440
 16777216
100
AcDbLine
 10
1016.280918474111
 20
1554.840664214483
 30
0.0
 11
1016.280918474111
 21
1848.436349098726
 31
0.0
  0
LINE
  5
82A1
330
8011
100
AcDbEntity
  8
0
  6
ByBlock
 62
     0
440
 16777216
100
AcDbLine
 10
841.2809184741099
 20
1833.436349098726
 30
0.0
 11
986.2809184741108
 21
1833.436349098726
 31
0.0
  0
MTEXT
  5
82A2
330
8011
100
AcDbEntity
  8
0
  6
ByBlock
 62
     0
440
 16777216
100
AcDbMText
 10
914.7477385916737
 20
1874.637297744292
 30
0.0
 40
45.0
 41
0.0
 46
0.0
 71
     5
 72
     5
  1
\A1;205
 73
     1
 44
1.0
  0
INSERT
  5
82A3
330
8011
100
AcDbEntity
  8
0
  6
ByBlock
 62
     0
440
 16777216
100
AcDbBlockReference
  2
_OPEN
 10
811.2809184741099
 20
1833.436349098726
 30
0.0
 41
30.0
 42
30.0
 43
30.0
 50
180.0
  0
INSERT
  5
82A4
330
8011
100
AcDbEntity
  8
0
  6
ByBlock
 62
     0
440
 16777216
100
AcDbBlockReference
  2
_OPEN
 10
1016.280918474111
 20
1833.436349098726
 30
0.0
 41
30.0
 42
30.0
 43
30.0
  0
POINT
  5
82A5
330
8011
100
AcDbEntity
  8
DEFPOINTS
  6
ByBlock
 62
     0
440
 16777216
100
AcDbPoint
 10
811.2809184741099
 20
1800.547034575551
 30
0.0
  0
POINT
  5
82A6
330
8011
100
AcDbEntity
  8
DEFPOINTS
  6
ByBlock
 62
     0
440
 16777216
100
AcDbPoint
 10
1016.280918474111
 20
1547.340664214483
 30
0.0
  0
POINT
  5
82A7
330
8011
100
AcDbEntity
  8
DEFPOINTS
  6
ByBlock
 62
     0
440
 16777216
100
AcDbPoint
 10
1016.280918474111
 20
1833.436349098726
 30
0.0
  0
ENDBLK
  5
82A8
330
8011
100
AcDbEntity
  8
0
100
AcDbBlockEnd
  0
BLOCK
  5
8346
330
801C
100
AcDbEntity
  8
0
100
AcDbBlockBegin
  2
*D9
 70
     1
 10
0.0
 20
0.0
 30
0.0
  3
*D9
  1

  0
LINE
  5
8347
330
801C
100
AcDbEntity
  8
0
  6
ByBlock
 62
     0
440
 16777216
100
AcDbLine
 10
817.7809184741109
 20
1738.340664214482
 30
0.0
 11
377.2247331889825
 21
1738.340664214482
 31
0.0
  0
LINE
  5
8348
330
801C
100
AcDbEntity
  8
0
  6
ByBlock
 62
     0
440
 16777216
100
AcDbLine
 10
553.1379383988896
 20
1561.340664214482
 30
0.0
 11
377.2247331889825
 21
1561.340664214482
 31
0.0
  0
LINE
  5
8349
330
801C
100
AcDbEntity
  8
0
  6
ByBlock
 62
     0
440
 16777216
100
AcDbLine
 10
392.2247331889825
 20
1708.340664214483
 30
0.0
 11
392.2247331889825
 21
1591.340664214482
 31
0.0
  0
MTEXT
  5
834A
330
801C
100
AcDbEntity
  8
0
  6
ByBlock
 62
     0
440
 16777216
100
AcDbMText
 10
332.2247331889826
 20
1649.840664214482
 30
0.0
 40
45.0
 41
0.0
 46
0.0
 71
     5
 72
     5
  1
\A1;177
 11
0.0
 21
1.0
 31
0.0
 73
     1
 44
1.0
  0
INSERT
  5
834B
330
801C
100
AcDbEntity
  8
0
  6
ByBlock
 62
     0
440
 16777216
100
AcDbBlockReference
  2
_OPEN
 10
392.2247331889825
 20
1738.340664214482
 30
0.0
 41
30.0
 42
30.0
 43
30.0
 50
90.0
  0
INSERT
  5
834C
330
801C
100
AcDbEntity
  8
0
  6
ByBlock
 62
     0
440
 16777216
100
AcDbBlockReference
  2
_OPEN
 10
392.2247331889825
 20
1561.340664214482
 30
0.0
 41
30.0
 42
30.0
 43
30.0
 50
270.0
  0
POINT
  5
834D
330
801C
100
AcDbEntity
  8
DEFPOINTS
  6
ByBlock
 62
     0
440
 16777216
100
AcDbPoint
 10
825.2809184741108
 20
1738.340664214482
 30
0.0
  0
POINT
  5
834E
330
801C
100
AcDbEntity
  8
DEFPOINTS
  6
ByBlock
 62
     0
440
 16777216
100
AcDbPoint
 10
560.6379383988897
 20
1561.340664214482
 30
0.0
  0
POINT
  5
834F
330
801C
100
AcDbEntity
  8
DEFPOINTS
  6
ByBlock
 62
     0
440
 16777216
100
AcDbPoint
 10
392.2247331889825
 20
1561.340664214482
 30
0.0
  0
ENDBLK
  5
8350
330
801C
100
AcDbEntity
  8
0
100
AcDbBlockEnd
  0
BLOCK
  5
8316
330
8028
100
AcDbEntity
  8
0
100
AcDbBlockBegin
  2
*D10
 70
     1
 10
0.0
 20
0.0
 30
0.0
  3
*D10
  1

  0
LINE
  5
8317
330
8028
100
AcDbEntity
  8
0
  6
ByBlock
 62
     0
440
 16777216
100
AcDbLine
 10
553.1379383988896
 20
1561.340664214482
 30
0.0
 11
377.2247331889825
 21
1561.340664214482
 31
0.0
  0
LINE
  5
8318
330
8028
100
AcDbEntity
  8
0
  6
ByBlock
 62
     0
440
 16777216
100
AcDbLine
 10
603.7809184741099
 20
1241.340664214481
 30
0.0
 11
377.2247331889825
 21
1241.340664214481
 31
0.0
  0
LINE
  5
8319
330
8028
100
AcDbEntity
  8
0
  6
ByBlock
 62
     0
440
 16777216
100
AcDbLine
 10
392.2247331889825
 20
1531.340664214482
 30
0.0
 11
392.2247331889825
 21
1271.340664214481
 31
0.0
  0
INSERT
  5
831A
330
8028
100
AcDbEntity
  8
0
  6
ByBlock
 62
     0
440
 16777216
100
AcDbBlockReference
  2
_OPEN
 10
392.2247331889825
 20
1561.340664214482
 30
0.0
 41
30.0
 42
30.0
 43
30.0
 50
90.0
  0
INSERT
  5
831B
330
8028
100
AcDbEntity
  8
0
  6
ByBlock
 62
     0
440
 16777216
100
AcDbBlockReference
  2
_OPEN
 10
392.2247331889825
 20
1241.340664214481
 30
0.0
 41
30.0
 42
30.0
 43
30.0
 50
270.0
  0
MTEXT
  5
831C
330
8028
100
AcDbEntity
  8
0
  6
ByBlock
 62
     0
440
 16777216
100
AcDbMText
 10
354.7247331889825
 20
1401.340664214481
 30
0.0
 40
45.0
 41
0.0
 46
0.0
 71
     5
 72
     5
  1
\A1;320
 11
0.0
 21
1.0
 31
0.0
 73
     1
 44
1.0
  0
POINT
  5
831D
330
8028
100
AcDbEntity
  8
DEFPOINTS
  6
ByBlock
 62
     0
440
 16777216
100
AcDbPoint
 10
560.6379383988897
 20
1561.340664214482
 30
0.0
  0
POINT
  5
831E
330
8028
100
AcDbEntity
  8
DEFPOINTS
  6
ByBlock
 62
     0
440
 16777216
100
AcDbPoint
 10
611.28091847411
 20
1241.340664214481
 30
0.0
  0
POINT
  5
831F
330
8028
100
AcDbEntity
  8
DEFPOINTS
  6
ByBlock
 62
     0
440
 16777216
100
AcDbPoint
 10
392.2247331889825
 20
1241.340664214481
 30
0.0
  0
ENDBLK
  5
8320
330
8028
100
AcDbEntity
  8
0
100
AcDbBlockEnd
  0
BLOCK
  5
827D
330
805A
100
AcDbEntity
  8
0
100
AcDbBlockBegin
  2
*D11
 70
     1
 10
0.0
 20
0.0
 30
0.0
  3
*D11
  1

  0
LINE
  5
827E
330
805A
100
AcDbEntity
  8
0
  6
ByBlock
 62
     0
440
 16777216
100
AcDbLine
 10
611.28091847411
 20
1597.840664214483
 30
0.0
 11
611.28091847411
 21
1953.450504493255
 31
0.0
  0
LINE
  5
827F
330
805A
100
AcDbEntity
  8
0
  6
ByBlock
 62
     0
440
 16777216
100
AcDbLine
 10
1311.280918474111
 20
1288.840664214481
 30
0.0
 11
1311.280918474111
 21
1953.450504493255
 31
0.0
  0
LINE
  5
8280
330
805A
100
AcDbEntity
  8
0
  6
ByBlock
 62
     0
440
 16777216
100
AcDbLine
 10
641.2809184741099
 20
1938.450504493255
 30
0.0
 11
1281.280918474111
 21
1938.450504493255
 31
0.0
  0
INSERT
  5
8281
330
805A
100
AcDbEntity
  8
0
  6
ByBlock
 62
     0
440
 16777216
100
AcDbBlockReference
  2
_OPEN
 10
611.28091847411
 20
1938.450504493255
 30
0.0
 41
30.0
 42
30.0
 43
30.0
 50
180.0
  0
INSERT
  5
8282
330
805A
100
AcDbEntity
  8
0
  6
ByBlock
 62
     0
440
 16777216
100
AcDbBlockReference
  2
_OPEN
 10
1311.280918474111
 20
1938.450504493255
 30
0.0
 41
30.0
 42
30.0
 43
30.0
  0
MTEXT
  5
8283
330
805A
100
AcDbEntity
  8
0
  6
ByBlock
 62
     0
440
 16777216
100
AcDbMText
 10
961.2809184741104
 20
1975.950504493255
 30
0.0
 40
45.0
 41
0.0
 46
0.0
 71
     5
 72
     5
  1
\A1;700
 73
     1
 44
1.0
  0
POINT
  5
8284
330
805A
100
AcDbEntity
  8
DEFPOINTS
  6
ByBlock
 62
     0
440
 16777216
100
AcDbPoint
 10
611.28091847411
 20
1590.340664214483
 30
0.0
  0
POINT
  5
8285
330
805A
100
AcDbEntity
  8
DEFPOINTS
  6
ByBlock
 62
     0
440
 16777216
100
AcDbPoint
 10
1311.280918474111
 20
1281.340664214481
 30
0.0
  0
POINT
  5
8286
330
805A
100
AcDbEntity
  8
DEFPOINTS
  6
ByBlock
 62
     0
440
 16777216
100
AcDbPoint
 10
1311.280918474111
 20
1938.450504493255
 30
0.0
  0
ENDBLK
  5
8287
330
805A
100
AcDbEntity
  8
0
100
AcDbBlockEnd
  0
BLOCK
  5
838B
330
838A
100
AcDbEntity
  8
0
100
AcDbBlockBegin
  2
_DOT
 70
     0
 10
0.0
 20
0.0
 30
0.0
  3
_DOT
  1

  0
LINE
  5
84B9
330
838A
100
AcDbEntity
  8
0
  6
ByBlock
 62
     0
100
AcDbLine
 10
0.0
 20
0.0
 30
0.0
 11
-1.0
 21
-0.0000000000000284
 31
0.0
  0
LWPOLYLINE
  5
84BA
330
838A
100
AcDbEntity
  8
0
  6
ByBlock
 62
     0
100
AcDbPolyline
 90
        2
 70
     1
 43
0.1666666666666666
 10
-0.0833333333333286
 20
-0.0000000000000284
 42
1.0
 10
0.0833333333333286
 20
-0.0000000000000284
 42
1.0
  0
ENDBLK
  5
8391
330
838A
100
AcDbEntity
  8
0
100
AcDbBlockEnd
  0
BLOCK
  5
8574
330
8567
100
AcDbEntity
  8
0
100
AcDbBlockBegin
  2
*D13
 70
     1
 10
0.0
 20
0.0
 30
0.0
  3
*D13
  1

  0
LINE
  5
8575
330
8567
100
AcDbEntity
  8
0
  6
ByBlock
 62
     0
440
 16777216
100
AcDbLine
 10
1318.78091847411
 20
3019.717442849296
 30
0.0
 11
1421.91848434482
 21
3019.717442849296
 31
0.0
  0
LINE
  5
8576
330
8567
100
AcDbEntity
  8
0
  6
ByBlock
 62
     0
440
 16777216
100
AcDbLine
 10
1318.780918474109
 20
2574.717442849296
 30
0.0
 11
1421.91848434482
 21
2574.717442849296
 31
0.0
  0
LINE
  5
8577
330
8567
100
AcDbEntity
  8
0
  6
ByBlock
 62
     0
440
 16777216
100
AcDbLine
 10
1406.91848434482
 20
2989.717442849296
 30
0.0
 11
1406.91848434482
 21
2604.717442849296
 31
0.0
  0
INSERT
  5
8578
330
8567
100
AcDbEntity
  8
0
  6
ByBlock
 62
     0
440
 16777216
100
AcDbBlockReference
  2
_OPEN
 10
1406.91848434482
 20
3019.717442849296
 30
0.0
 41
30.0
 42
30.0
 43
30.0
 50
90.0
  0
INSERT
  5
8579
330
8567
100
AcDbEntity
  8
0
  6
ByBlock
 62
     0
440
 16777216
100
AcDbBlockReference
  2
_OPEN
 10
1406.91848434482
 20
2574.717442849296
 30
0.0
 41
30.0
 42
30.0
 43
30.0
 50
270.0
  0
MTEXT
  5
857A
330
8567
100
AcDbEntity
  8
0
  6
ByBlock
 62
     0
440
 16777216
100
AcDbMText
 10
1369.41848434482
 20
2789.289383236823
 30
0.0
 40
45.0
 41
0.0
 46
0.0
 71
     5
 72
     5
  1
\A1;445
 11
0.0
 21
1.0
 31
0.0
 73
     1
 44
1.0
  0
POINT
  5
857B
330
8567
100
AcDbEntity
  8
DEFPOINTS
  6
ByBlock
 62
     0
440
 16777216
100
AcDbPoint
 10
1311.28091847411
 20
3019.717442849296
 30
0.0
  0
POINT
  5
857C
330
8567
100
AcDbEntity
  8
DEFPOINTS
  6
ByBlock
 62
     0
440
 16777216
100
AcDbPoint
 10
1311.280918474109
 20
2574.717442849296
 30
0.0
  0
POINT
  5
857D
330
8567
100
AcDbEntity
  8
DEFPOINTS
  6
ByBlock
 62
     0
440
 16777216
100
AcDbPoint
 10
1406.91848434482
 20
2574.717442849296
 30
0.0
  0
ENDBLK
  5
857E
330
8567
100
AcDbEntity
  8
0
100
AcDbBlockEnd
  0
BLOCK
  5
858E
330
857F
100
AcDbEntity
  8
0
100
AcDbBlockBegin
  2
*D14
 70
     1
 10
0.0
 20
0.0
 30
0.0
  3
*D14
  1

  0
LINE
  5
858F
330
857F
100
AcDbEntity
  8
0
  6
ByBlock
 62
     0
440
 16777216
100
AcDbLine
 10
611.28091847411
 20
2567.217442849296
 30
0.0
 11
611.28091847411
 21
2423.076972478841
 31
0.0
  0
LINE
  5
8590
330
857F
100
AcDbEntity
  8
0
  6
ByBlock
 62
     0
440
 16777216
100
AcDbLine
 10
1311.280918474109
 20
2567.217442849296
 30
0.0
 11
1311.280918474109
 21
2423.076972478841
 31
0.0
  0
LINE
  5
8591
330
857F
100
AcDbEntity
  8
0
  6
ByBlock
 62
     0
440
 16777216
100
AcDbLine
 10
641.2809184741099
 20
2438.076972478841
 30
0.0
 11
1281.280918474109
 21
2438.076972478841
 31
0.0
  0
INSERT
  5
8592
330
857F
100
AcDbEntity
  8
0
  6
ByBlock
 62
     0
440
 16777216
100
AcDbBlockReference
  2
_OPEN
 10
611.28091847411
 20
2438.076972478841
 30
0.0
 41
30.0
 42
30.0
 43
30.0
 50
180.0
  0
INSERT
  5
8593
330
857F
100
AcDbEntity
  8
0
  6
ByBlock
 62
     0
440
 16777216
100
AcDbBlockReference
  2
_OPEN
 10
1311.280918474109
 20
2438.076972478841
 30
0.0
 41
30.0
 42
30.0
 43
30.0
  0
MTEXT
  5
8594
330
857F
100
AcDbEntity
  8
0
  6
ByBlock
 62
     0
440
 16777216
100
AcDbMText
 10
954.2988563293874
 20
2475.576972478841
 30
0.0
 40
45.0
 41
0.0
 46
0.0
 71
     5
 72
     5
  1
\A1;700
 73
     1
 44
1.0
  0
POINT
  5
8595
330
857F
100
AcDbEntity
  8
DEFPOINTS
  6
ByBlock
 62
     0
440
 16777216
100
AcDbPoint
 10
611.28091847411
 20
2574.717442849296
 30
0.0
  0
POINT
  5
8596
330
857F
100
AcDbEntity
  8
DEFPOINTS
  6
ByBlock
 62
     0
440
 16777216
100
AcDbPoint
 10
1311.280918474109
 20
2574.717442849296
 30
0.0
  0
POINT
  5
8597
330
857F
100
AcDbEntity
  8
DEFPOINTS
  6
ByBlock
 62
     0
440
 16777216
100
AcDbPoint
 10
1311.280918474109
 20
2438.076972478841
 30
0.0
  0
ENDBLK
  5
8598
330
857F
100
AcDbEntity
  8
0
100
AcDbBlockEnd
  0
BLOCK
  5
85ED
330
85EC
100
AcDbEntity
  8
0
100
AcDbBlockBegin
  2
*D15
 70
     1
 10
0.0
 20
0.0
 30
0.0
  3
*D15
  1

  0
LINE
  5
86ED
330
85EC
100
AcDbEntity
  8
3
 62
     0
440
 16777216
370
    -2
100
AcDbLine
 10
768.5112611644626
 20
1123.840664214481
 30
0.0
 11
768.5112611644626
 21
1001.765123843692
 31
0.0
  0
LINE
  5
86EE
330
85EC
100
AcDbEntity
  8
3
 62
     0
440
 16777216
370
    -2
100
AcDbLine
 10
968.5112611644626
 20
1123.840664214481
 30
0.0
 11
968.5112611644626
 21
1001.765123843692
 31
0.0
  0
LINE
  5
86EF
330
85EC
100
AcDbEntity
  8
3
 62
     0
440
 16777216
370
    -2
100
AcDbLine
 10
798.5112611644626
 20
1016.765123843692
 30
0.0
 11
938.5112611644627
 21
1016.765123843692
 31
0.0
  0
INSERT
  5
86F0
330
85EC
100
AcDbEntity
  8
3
 62
     0
440
 16777216
370
    -2
100
AcDbBlockReference
  2
_OPEN
 10
768.5112611644626
 20
1016.765123843692
 30
0.0
 41
30.0
 42
30.0
 43
30.0
 50
180.0
  0
INSERT
  5
86F1
330
85EC
100
AcDbEntity
  8
3
 62
     0
440
 16777216
370
    -2
100
AcDbBlockReference
  2
_OPEN
 10
968.5112611644626
 20
1016.765123843692
 30
0.0
 41
30.0
 42
30.0
 43
30.0
  0
MTEXT
  5
86F2
330
85EC
100
AcDbEntity
  8
3
 62
     0
440
 16777216
100
AcDbMText
 10
868.5112611644626
 20
1054.265123843692
 30
0.0
 40
45.0
 41
0.0
 46
0.0
 71
     5
 72
     1
  1
\A1;200
 73
     1
 44
1.0
  0
POINT
  5
86F3
330
85EC
100
AcDbEntity
  8
DEFPOINTS
 62
     0
440
 16777216
100
AcDbPoint
 10
768.5112611644626
 20
1131.340664214481
 30
0.0
  0
POINT
  5
86F4
330
85EC
100
AcDbEntity
  8
DEFPOINTS
 62
     0
440
 16777216
100
AcDbPoint
 10
968.5112611644626
 20
1131.340664214481
 30
0.0
  0
POINT
  5
86F5
330
85EC
100
AcDbEntity
  8
DEFPOINTS
 62
     0
440
 16777216
100
AcDbPoint
 10
968.5112611644626
 20
1016.765123843692
 30
0.0
  0
ENDBLK
  5
85F9
330
85EC
100
AcDbEntity
  8
0
100
AcDbBlockEnd
  0
BLOCK
  5
85FC
330
85FB
100
AcDbEntity
  8
0
100
AcDbBlockBegin
  2
*D16
 70
     1
 10
0.0
 20
0.0
 30
0.0
  3
*D16
  1

  0
LINE
  5
86F6
330
85FB
100
AcDbEntity
  8
3
 62
     0
440
 16777216
370
    -2
100
AcDbLine
 10
968.5112611644626
 20
1123.840664214481
 30
0.0
 11
968.5112611644626
 21
1001.765123843692
 31
0.0
  0
LINE
  5
86F7
330
85FB
100
AcDbEntity
  8
3
 62
     0
440
 16777216
370
    -2
100
AcDbLine
 10
1468.511261164463
 20
1123.840664214481
 30
0.0
 11
1468.511261164463
 21
1001.765123843692
 31
0.0
  0
LINE
  5
86F8
330
85FB
100
AcDbEntity
  8
3
 62
     0
440
 16777216
370
    -2
100
AcDbLine
 10
998.5112611644627
 20
1016.765123843692
 30
0.0
 11
1438.511261164463
 21
1016.765123843692
 31
0.0
  0
INSERT
  5
86F9
330
85FB
100
AcDbEntity
  8
3
 62
     0
440
 16777216
370
    -2
100
AcDbBlockReference
  2
_OPEN
 10
968.5112611644626
 20
1016.765123843692
 30
0.0
 41
30.0
 42
30.0
 43
30.0
 50
180.0
  0
INSERT
  5
86FA
330
85FB
100
AcDbEntity
  8
3
 62
     0
440
 16777216
370
    -2
100
AcDbBlockReference
  2
_OPEN
 10
1468.511261164463
 20
1016.765123843692
 30
0.0
 41
30.0
 42
30.0
 43
30.0
  0
MTEXT
  5
86FB
330
85FB
100
AcDbEntity
  8
3
 62
     0
440
 16777216
100
AcDbMText
 10
1218.511261164463
 20
1054.265123843692
 30
0.0
 40
45.0
 41
0.0
 46
0.0
 71
     5
 72
     1
  1
\A1;500
 73
     1
 44
1.0
  0
POINT
  5
86FC
330
85FB
100
AcDbEntity
  8
DEFPOINTS
 62
     0
440
 16777216
100
AcDbPoint
 10
968.5112611644626
 20
1131.340664214481
 30
0.0
  0
POINT
  5
86FD
330
85FB
100
AcDbEntity
  8
DEFPOINTS
 62
     0
440
 16777216
100
AcDbPoint
 10
1468.511261164463
 20
1131.340664214481
 30
0.0
  0
POINT
  5
86FE
330
85FB
100
AcDbEntity
  8
DEFPOINTS
 62
     0
440
 16777216
100
AcDbPoint
 10
1468.511261164463
 20
1016.765123843692
 30
0.0
  0
ENDBLK
  5
8606
330
85FB
100
AcDbEntity
  8
0
100
AcDbBlockEnd
  0
BLOCK
  5
8609
330
8608
100
AcDbEntity
  8
0
100
AcDbBlockBegin
  2
*D17
 70
     1
 10
0.0
 20
0.0
 30
0.0
  3
*D17
  1

  0
LINE
  5
86FF
330
8608
100
AcDbEntity
  8
3
 62
     0
440
 16777216
370
    -2
100
AcDbLine
 10
1976.568861078768
 20
1123.817589315024
 30
0.0
 11
1976.568861078768
 21
1001.765123843692
 31
0.0
  0
LINE
  5
8700
330
8608
100
AcDbEntity
  8
3
 62
     0
440
 16777216
370
    -2
100
AcDbLine
 10
2421.568861078768
 20
1123.817589315024
 30
0.0
 11
2421.568861078768
 21
1001.765123843692
 31
0.0
  0
LINE
  5
8701
330
8608
100
AcDbEntity
  8
3
 62
     0
440
 16777216
370
    -2
100
AcDbLine
 10
2006.568861078768
 20
1016.765123843692
 30
0.0
 11
2391.568861078768
 21
1016.765123843692
 31
0.0
  0
INSERT
  5
8702
330
8608
100
AcDbEntity
  8
3
 62
     0
440
 16777216
370
    -2
100
AcDbBlockReference
  2
_OPEN
 10
1976.568861078768
 20
1016.765123843692
 30
0.0
 41
30.0
 42
30.0
 43
30.0
 50
180.0
  0
INSERT
  5
8703
330
8608
100
AcDbEntity
  8
3
 62
     0
440
 16777216
370
    -2
100
AcDbBlockReference
  2
_OPEN
 10
2421.568861078768
 20
1016.765123843692
 30
0.0
 41
30.0
 42
30.0
 43
30.0
  0
MTEXT
  5
8704
330
8608
100
AcDbEntity
  8
3
 62
     0
440
 16777216
100
AcDbMText
 10
2199.068861078768
 20
1054.265123843692
 30
0.0
 40
45.0
 41
0.0
 46
0.0
 71
     5
 72
     1
  1
\A1;445
 73
     1
 44
1.0
  0
POINT
  5
8705
330
8608
100
AcDbEntity
  8
DEFPOINTS
 62
     0
440
 16777216
100
AcDbPoint
 10
1976.568861078768
 20
1131.317589315024
 30
0.0
  0
POINT
  5
8706
330
8608
100
AcDbEntity
  8
DEFPOINTS
 62
     0
440
 16777216
100
AcDbPoint
 10
2421.568861078768
 20
1131.317589315024
 30
0.0
  0
POINT
  5
8707
330
8608
100
AcDbEntity
  8
DEFPOINTS
 62
     0
440
 16777216
100
AcDbPoint
 10
2421.568861078768
 20
1016.765123843692
 30
0.0
  0
ENDBLK
  5
8613
330
8608
100
AcDbEntity
  8
0
100
AcDbBlockEnd
  0
BLOCK
  5
8616
330
8615
100
AcDbEntity
  8
0
100
AcDbBlockBegin
  2
*D18
 70
     1
 10
0.0
 20
0.0
 30
0.0
  3
*D18
  1

  0
LINE
  5
8708
330
8615
100
AcDbEntity
  8
3
 62
     0
440
 16777216
370
    -2
100
AcDbLine
 10
2421.568861078768
 20
1123.817589315024
 30
0.0
 11
2421.568861078768
 21
1001.765123843692
 31
0.0
  0
LINE
  5
8709
330
8615
100
AcDbEntity
  8
3
 62
     0
440
 16777216
370
    -2
100
AcDbLine
 10
2477.568861078768
 20
1123.817589315024
 30
0.0
 11
2477.568861078768
 21
1001.765123843692
 31
0.0
  0
LINE
  5
870A
330
8615
100
AcDbEntity
  8
3
 62
     0
440
 16777216
370
    -2
100
AcDbLine
 10
2391.568861078768
 20
1016.765123843692
 30
0.0
 11
2361.568861078768
 21
1016.765123843692
 31
0.0
  0
LINE
  5
870B
330
8615
100
AcDbEntity
  8
3
 62
     0
440
 16777216
370
    -2
100
AcDbLine
 10
2507.568861078768
 20
1016.765123843692
 30
0.0
 11
2638.283146793054
 21
1016.765123843692
 31
0.0
  0
LINE
  5
870C
330
8615
100
AcDbEntity
  8
3
 62
     0
440
 16777216
370
    -2
100
AcDbLine
 10
2421.568861078768
 20
1016.765123843692
 30
0.0
 11
2477.568861078768
 21
1016.765123843692
 31
0.0
  0
INSERT
  5
870D
330
8615
100
AcDbEntity
  8
3
 62
     0
440
 16777216
370
    -2
100
AcDbBlockReference
  2
_OPEN
 10
2421.568861078768
 20
1016.765123843692
 30
0.0
 41
30.0
 42
30.0
 43
30.0
  0
INSERT
  5
870E
330
8615
100
AcDbEntity
  8
3
 62
     0
440
 16777216
370
    -2
100
AcDbBlockReference
  2
_OPEN
 10
2477.568861078768
 20
1016.765123843692
 30
0.0
 41
30.0
 42
30.0
 43
30.0
 50
180.0
  0
MTEXT
  5
870F
330
8615
100
AcDbEntity
  8
3
 62
     0
440
 16777216
100
AcDbMText
 10
2587.926003935911
 20
1054.265123843692
 30
0.0
 40
45.0
 41
0.0
 46
0.0
 71
     5
 72
     1
  1
\A1;56
 73
     1
 44
1.0
  0
POINT
  5
8710
330
8615
100
AcDbEntity
  8
DEFPOINTS
 62
     0
440
 16777216
100
AcDbPoint
 10
2421.568861078768
 20
1131.317589315024
 30
0.0
  0
POINT
  5
8711
330
8615
100
AcDbEntity
  8
DEFPOINTS
 62
     0
440
 16777216
100
AcDbPoint
 10
2477.568861078768
 20
1131.317589315024
 30
0.0
  0
POINT
  5
8712
330
8615
100
AcDbEntity
  8
DEFPOINTS
 62
     0
440
 16777216
100
AcDbPoint
 10
2477.568861078768
 20
1016.765123843692
 30
0.0
  0
ENDBLK
  5
8622
330
8615
100
AcDbEntity
  8
0
100
AcDbBlockEnd
  0
BLOCK
  5
8640
330
863F
100
AcDbEntity
  8
0
100
AcDbBlockBegin
  2
*D19
 70
     1
 10
0.0
 20
0.0
 30
0.0
  3
*D19
  1

  0
LINE
  5
87EB
330
863F
100
AcDbEntity
  8
3
 62
     0
440
 16777216
370
    -2
100
AcDbLine
 10
761.0112611644626
 20
1171.340664214481
 30
0.0
 11
534.4550758793363
 21
1171.340664214481
 31
0.0
  0
LINE
  5
87EC
330
863F
100
AcDbEntity
  8
3
 62
     0
440
 16777216
370
    -2
100
AcDbLine
 10
761.0112611644626
 20
1131.340664214481
 30
0.0
 11
534.4550758793363
 21
1131.340664214481
 31
0.0
  0
LINE
  5
87ED
330
863F
100
AcDbEntity
  8
3
 62
     0
440
 16777216
370
    -2
100
AcDbLine
 10
549.4550758793362
 20
1201.340664214481
 30
0.0
 11
549.4550758793362
 21
1231.340664214481
 31
0.0
  0
LINE
  5
87EE
330
863F
100
AcDbEntity
  8
3
 62
     0
440
 16777216
370
    -2
100
AcDbLine
 10
549.4550758793362
 20
1101.340664214481
 30
0.0
 11
549.4550758793362
 21
968.4835213573382
 31
0.0
  0
LINE
  5
87EF
330
863F
100
AcDbEntity
  8
3
 62
     0
440
 16777216
370
    -2
100
AcDbLine
 10
549.4550758793362
 20
1171.340664214481
 30
0.0
 11
549.4550758793362
 21
1131.340664214481
 31
0.0
  0
INSERT
  5
87F0
330
863F
100
AcDbEntity
  8
3
 62
     0
440
 16777216
370
    -2
100
AcDbBlockReference
  2
_DOT
 10
549.4550758793362
 20
1171.340664214481
 30
0.0
 41
30.0
 42
30.0
 43
30.0
 50
270.0
  0
INSERT
  5
87F1
330
863F
100
AcDbEntity
  8
3
 62
     0
440
 16777216
370
    -2
100
AcDbBlockReference
  2
_OPEN
 10
549.4550758793362
 20
1131.340664214481
 30
0.0
 41
30.0
 42
30.0
 43
30.0
 50
90.0
  0
MTEXT
  5
87F2
330
863F
100
AcDbEntity
  8
3
 62
     0
440
 16777216
100
AcDbMText
 10
511.955075879336
 20
1019.912092785909
 30
0.0
 40
45.0
 41
0.0
 46
0.0
 71
     5
 72
     1
  1
\A1;40
 11
0.0000000000000001
 21
1.0
 31
0.0
 73
     1
 44
1.0
  0
POINT
  5
87F3
330
863F
100
AcDbEntity
  8
DEFPOINTS
 62
     0
440
 16777216
100
AcDbPoint
 10
768.5112611644626
 20
1171.340664214481
 30
0.0
  0
POINT
  5
87F4
330
863F
100
AcDbEntity
  8
DEFPOINTS
 62
     0
440
 16777216
100
AcDbPoint
 10
768.5112611644626
 20
1131.340664214481
 30
0.0
  0
POINT
  5
87F5
330
863F
100
AcDbEntity
  8
DEFPOINTS
 62
     0
440
 16777216
100
AcDbPoint
 10
549.4550758793362
 20
1131.340664214481
 30
0.0
  0
ENDBLK
  5
864C
330
863F
100
AcDbEntity
  8
0
100
AcDbBlockEnd
  0
BLOCK
  5
866D
330
866C
100
AcDbEntity
  8
0
100
AcDbBlockBegin
  2
*D20
 70
     1
 10
0.0
 20
0.0
 30
0.0
  3
*D20
  1

  0
LINE
  5
87F6
330
866C
100
AcDbEntity
  8
3
 62
     0
440
 16777216
370
    -2
100
AcDbLine
 10
761.0112611644626
 20
1171.340664214481
 30
0.0
 11
534.4550758793352
 21
1171.340664214481
 31
0.0
  0
LINE
  5
87F7
330
866C
100
AcDbEntity
  8
3
 62
     0
440
 16777216
370
    -2
100
AcDbLine
 10
761.0112611644626
 20
1241.340664214481
 30
0.0
 11
534.4550758793352
 21
1241.340664214481
 31
0.0
  0
LINE
  5
87F8
330
866C
100
AcDbEntity
  8
3
 62
     0
440
 16777216
370
    -2
100
AcDbLine
 10
549.4550758793352
 20
1141.340664214481
 30
0.0
 11
549.4550758793352
 21
1111.340664214481
 31
0.0
  0
LINE
  5
87F9
330
866C
100
AcDbEntity
  8
3
 62
     0
440
 16777216
370
    -2
100
AcDbLine
 10
549.4550758793352
 20
1271.340664214481
 30
0.0
 11
549.4550758793353
 21
1301.340664214481
 31
0.0
  0
MTEXT
  5
87FA
330
866C
100
AcDbEntity
  8
3
 62
     0
440
 16777216
100
AcDbMText
 10
505.2332733985058
 20
1203.580193916354
 30
0.0
 40
45.0
 41
0.0
 46
0.0
 71
     5
 72
     1
  1
\A1;(70)
 11
0.0000000000000001
 21
1.0
 31
0.0
 73
     1
 44
1.0
  0
LINE
  5
87FB
330
866C
100
AcDbEntity
  8
3
 62
     0
440
 16777216
370
    -2
100
AcDbLine
 10
549.4550758793352
 20
1171.340664214481
 30
0.0
 11
549.4550758793352
 21
1241.340664214481
 31
0.0
  0
INSERT
  5
87FC
330
866C
100
AcDbEntity
  8
3
 62
     0
440
 16777216
370
    -2
100
AcDbBlockReference
  2
_DOT
 10
549.4550758793352
 20
1171.340664214481
 30
0.0
 41
30.0
 42
30.0
 43
30.0
 50
90.0
  0
INSERT
  5
87FD
330
866C
100
AcDbEntity
  8
3
 62
     0
440
 16777216
370
    -2
100
AcDbBlockReference
  2
_OPEN
 10
549.4550758793352
 20
1241.340664214481
 30
0.0
 41
30.0
 42
30.0
 43
30.0
 50
270.0
  0
POINT
  5
87FE
330
866C
100
AcDbEntity
  8
DEFPOINTS
 62
     0
440
 16777216
100
AcDbPoint
 10
768.5112611644626
 20
1171.340664214481
 30
0.0
  0
POINT
  5
87FF
330
866C
100
AcDbEntity
  8
DEFPOINTS
 62
     0
440
 16777216
100
AcDbPoint
 10
768.5112611644626
 20
1241.340664214481
 30
0.0
  0
POINT
  5
8800
330
866C
100
AcDbEntity
  8
DEFPOINTS
 62
     0
440
 16777216
100
AcDbPoint
 10
549.4550758793352
 20
1241.340664214481
 30
0.0
  0
ENDBLK
  5
8679
330
866C
100
AcDbEntity
  8
0
100
AcDbBlockEnd
  0
BLOCK
  5
8815
330
8814
100
AcDbEntity
  8
0
100
AcDbBlockBegin
  2
*D22
 70
     1
 10
0.0
 20
0.0
 30
0.0
  3
*D22
  1

  0
LINE
  5
8820
330
8814
100
AcDbEntity
  8
3
 62
     0
440
 16777216
370
    -2
100
AcDbLine
 10
761.0112611644626
 20
1131.340664214481
 30
0.0
 11
398.2670691125566
 21
1131.340664214481
 31
0.0
  0
LINE
  5
8821
330
8814
100
AcDbEntity
  8
3
 62
     0
440
 16777216
370
    -2
100
AcDbLine
 10
975.0112611644636
 20
1738.340664214482
 30
0.0
 11
398.2670691125568
 21
1738.340664214483
 31
0.0
  0
LINE
  5
8822
330
8814
100
AcDbEntity
  8
3
 62
     0
440
 16777216
370
    -2
100
AcDbLine
 10
413.2670691125566
 20
1161.340664214481
 30
0.0
 11
413.2670691125567
 21
1708.340664214483
 31
0.0
  0
INSERT
  5
8823
330
8814
100
AcDbEntity
  8
3
 62
     0
440
 16777216
370
    -2
100
AcDbBlockReference
  2
_OPEN
 10
413.2670691125566
 20
1131.340664214481
 30
0.0
 41
30.0
 42
30.0
 43
30.0
 50
270.0
  0
INSERT
  5
8824
330
8814
100
AcDbEntity
  8
3
 62
     0
440
 16777216
370
    -2
100
AcDbBlockReference
  2
_OPEN
 10
413.2670691125567
 20
1738.340664214483
 30
0.0
 41
30.0
 42
30.0
 43
30.0
 50
90.0
  0
MTEXT
  5
8825
330
8814
100
AcDbEntity
  8
3
 62
     0
440
 16777216
100
AcDbMText
 10
363.9813548268422
 20
1434.840664214482
 30
0.0
 40
45.0
 41
0.0
 46
0.0
 71
     5
 72
     1
  1
\A1;(607)
 11
0.0000000000000001
 21
1.0
 31
0.0
 73
     1
 44
1.0
  0
POINT
  5
8826
330
8814
100
AcDbEntity
  8
DEFPOINTS
 62
     0
440
 16777216
100
AcDbPoint
 10
768.5112611644626
 20
1131.340664214481
 30
0.0
  0
POINT
  5
8827
330
8814
100
AcDbEntity
  8
DEFPOINTS
 62
     0
440
 16777216
100
AcDbPoint
 10
982.5112611644636
 20
1738.340664214482
 30
0.0
  0
POINT
  5
8828
330
8814
100
AcDbEntity
  8
DEFPOINTS
 62
     0
440
 16777216
100
AcDbPoint
 10
413.2670691125567
 20
1738.340664214483
 30
0.0
  0
ENDBLK
  5
8816
330
8814
100
AcDbEntity
  8
0
100
AcDbBlockEnd
  0
ENDSEC
  0
SECTION
  2
ENTITIES
  0
LINE
  5
7E4D
330
19
100
AcDbEntity
  8
2
100
AcDbLine
 10
1251.805529613474
 20
1561.340664214482
 30
0.0
 11
717.8682810892423
 21
1561.340664214482
 31
0.0
  0
LINE
  5
7E4E
330
19
100
AcDbEntity
  8
2
100
AcDbLine
 10
968.5112611644626
 20
1805.547034575551
 30
0.0
 11
968.5112611644628
 21
1131.340664214481
 31
0.0
  0
LINE
  5
7E4F
330
19
100
AcDbEntity
  8
1
100
AcDbLine
 10
1347.349065695612
 20
1460.333364495149
 30
0.0
 11
1004.210411676679
 21
1646.74871907883
 31
0.0
  0
ARC
  5
7E50
330
19
100
AcDbEntity
  8
1
100
AcDbCircle
 10
968.5112611644626
 20
1561.340664214482
 30
0.0
 40
92.56870520324515
100
AcDbArc
 50
67.31588132660307
 51
252.037845014071
  0
LINE
  5
7E51
330
19
100
AcDbEntity
  8
1
100
AcDbLine
 10
793.5112611644626
 20
1296.340664214482
 30
0.0
 11
793.5112611644626
 21
1590.340664214483
 31
0.0
  0
LINE
  5
7E52
330
19
100
AcDbEntity
  8
1
100
AcDbLine
 10
768.5112611644626
 20
1296.340664214482
 30
0.0
 11
768.5112611644626
 21
1590.340664214483
 31
0.0
  0
ARC
  5
7E53
330
19
100
AcDbEntity
  8
1
100
AcDbCircle
 10
952.5112611644635
 20
1545.340664214483
 30
0.0
 40
221.0
100
AcDbArc
 50
270.3103773356435
 51
0.2687094722478278
  0
LINE
  5
7E54
330
19
100
AcDbEntity
  8
1
100
AcDbLine
 10
940.7195470226596
 20
1497.253198950987
 30
0.0
 11
1297.370588529085
 21
1342.59044620872
 31
0.0
  0
LINE
  5
7E55
330
19
100
AcDbEntity
  8
1
100
AcDbLine
 10
1295.450852115648
 20
1320.208187829245
 30
0.0
 11
939.9641152602836
 21
1473.283718754564
 31
0.0
  0
LINE
  5
7E56
330
19
100
AcDbEntity
  8
1
100
AcDbLine
 10
1338.88133978364
 20
1440.417865562297
 30
0.0
 11
995.2899456365384
 21
1625.857984654689
 31
0.0
  0
LINE
  5
7E59
330
19
100
AcDbEntity
  8
1
100
AcDbLine
 10
1468.511261164463
 20
1241.340664214481
 30
0.0
 11
768.5112611644626
 21
1241.340664214481
 31
0.0
  0
LINE
  5
7E5A
330
19
100
AcDbEntity
  8
1
100
AcDbLine
 10
1468.511261164463
 20
1281.340664214481
 30
0.0
 11
768.5112611644626
 21
1281.340664214481
 31
0.0
  0
ARC
  5
7E5B
330
19
100
AcDbEntity
  8
1
100
AcDbCircle
 10
982.5112611644636
 20
1547.340664214483
 30
0.0
 40
191.0
100
AcDbArc
 50
359.7109569763444
 51
103.2198000567214
  0
LINE
  5
7E5C
330
19
100
AcDbEntity
  8
2
100
AcDbLine
 10
1318.511261164462
 20
1497.010598839149
 30
0.0
 11
1318.511261164462
 21
1264.901153424825
 31
0.0
  0
ARC
  5
7E5D
330
19
100
AcDbEntity
  8
1
100
AcDbCircle
 10
1318.511261164462
 20
1391.340664214481
 30
0.0
 40
74.77707979183754
100
AcDbArc
 50
252.037845014071
 51
67.3158813266031
  0
CIRCLE
  5
7E5E
330
19
100
AcDbEntity
  8
1
100
AcDbCircle
 10
1318.511261164462
 20
1391.340664214481
 30
0.0
 40
53.13672736521761
  0
ARC
  5
7E5F
330
19
100
AcDbEntity
  8
1
100
AcDbCircle
 10
1318.511261164462
 20
1391.340664214481
 30
0.0
 40
85.0
100
AcDbArc
 50
298.8779990926557
 51
241.1220009073442
  0
LINE
  5
7E60
330
19
100
AcDbEntity
  8
2
100
AcDbLine
 10
1439.511261164463
 20
1391.340664214481
 30
0.0
 11
1197.511261164462
 21
1391.340664214481
 31
0.0
  0
LINE
  5
7E61
330
19
100
AcDbEntity
  8
1
100
AcDbLine
 10
1221.011261164463
 20
1311.340664214481
 30
0.0
 11
1416.011261164462
 21
1311.340664214481
 31
0.0
  0
LINE
  5
7E62
330
19
100
AcDbEntity
  8
1
100
AcDbLine
 10
1426.011261164464
 20
1281.340664214481
 30
0.0
 11
1211.011261164463
 21
1281.340664214481
 31
0.0
  0
LINE
  5
7E63
330
19
100
AcDbEntity
  8
1
100
AcDbLine
 10
1468.511261164463
 20
1281.340664214481
 30
0.0
 11
1468.511261164463
 21
1241.340664214481
 31
0.0
  0
LINE
  5
7E64
330
19
100
AcDbEntity
  8
1
100
AcDbLine
 10
1416.011261164462
 20
1311.340664214481
 30
0.0
 11
1426.011261164464
 21
1281.340664214481
 31
0.0
  0
LINE
  5
7E69
330
19
100
AcDbEntity
  8
1
100
AcDbLine
 10
1359.561686423952
 20
1316.910411050771
 30
0.0
 11
1277.460835904966
 21
1316.910411050772
 31
0.0
  0
LINE
  5
7E6A
330
19
100
AcDbEntity
  8
1
100
AcDbLine
 10
1398.872097390731
 20
1311.340664214481
 30
0.0
 11
1387.846776654227
 21
1342.171707628347
 31
0.0
  0
LINE
  5
7E6B
330
19
100
AcDbEntity
  8
1
100
AcDbLine
 10
1396.011261164463
 20
1311.340664214481
 30
0.0
 11
1361.011261164463
 21
1311.340664214481
 31
0.0
  0
LINE
  5
7E6C
330
19
100
AcDbEntity
  8
1
100
AcDbLine
 10
1238.150424938195
 20
1311.340664214481
 30
0.0
 11
1249.175745674698
 21
1342.171707628347
 31
0.0
  0
LINE
  5
7E6D
330
19
100
AcDbEntity
  8
1
100
AcDbLine
 10
1241.011261164463
 20
1311.340664214481
 30
0.0
 11
1276.011261164463
 21
1311.340664214481
 31
0.0
  0
LINE
  5
7E6E
330
19
100
AcDbEntity
  8
1
100
AcDbLine
 10
1211.011261164463
 20
1281.340664214481
 30
0.0
 11
1221.011261164463
 21
1311.340664214481
 31
0.0
  0
LINE
  5
7E6F
330
19
100
AcDbEntity
  8
1
100
AcDbLine
 10
803.3112611644629
 20
1505.040664214481
 30
0.0
 11
803.3112611644629
 21
1281.340664214482
 31
0.0
  0
LINE
  5
7E70
330
19
100
AcDbEntity
  8
1
100
AcDbLine
 10
1133.711261164462
 20
1505.040664214481
 30
0.0
 11
1133.711261164462
 21
1281.340664214482
 31
0.0
  0
ARC
  5
7E71
330
19
100
AcDbEntity
  8
1
100
AcDbCircle
 10
979.5112611644626
 20
1572.340664214483
 30
0.0
 40
166.0
100
AcDbArc
 50
104.1851355981358
 51
197.4117837704787
  0
LINE
  5
7E72
330
19
100
AcDbEntity
  8
1
100
AcDbLine
 10
768.5112611644626
 20
1281.340664214481
 30
0.0
 11
768.5112611644626
 21
1241.340664214481
 31
0.0
  0
LINE
  5
7E76
330
19
100
AcDbEntity
  8
1
100
AcDbLine
 10
1138.711261164462
 20
1505.040664214481
 30
0.0
 11
798.3112611644628
 21
1505.040664214481
 31
0.0
  0
LINE
  5
7E77
330
19
100
AcDbEntity
  8
1
100
AcDbLine
 10
1138.711261164462
 20
1507.340664214482
 30
0.0
 11
798.3112611644628
 21
1507.340664214481
 31
0.0
  0
CIRCLE
  5
7E78
330
19
100
AcDbEntity
  8
1
100
AcDbCircle
 10
968.5112611644626
 20
1561.340664214482
 30
0.0
 40
69.85400903913341
  0
LINE
  5
7E79
330
19
100
AcDbEntity
  8
1
100
AcDbLine
 10
1068.511261164462
 20
1507.740664214481
 30
0.0
 11
868.5112611644635
 21
1507.740664214481
 31
0.0
  0
LINE
  5
7E7A
330
19
100
AcDbEntity
  8
1
100
AcDbLine
 10
1122.711261164462
 20
1612.340664214481
 30
0.0
 11
1122.711261164462
 21
1507.340664214482
 31
0.0
  0
LINE
  5
7E7B
330
19
100
AcDbEntity
  8
1
100
AcDbLine
 10
1128.711261164462
 20
1612.340664214481
 30
0.0
 11
1128.711261164462
 21
1507.340664214482
 31
0.0
  0
LINE
  5
7E7C
330
19
100
AcDbEntity
  8
1
100
AcDbLine
 10
1138.711261164462
 20
1507.340664214482
 30
0.0
 11
1138.711261164462
 21
1505.040664214481
 31
0.0
  0
LINE
  5
7E7D
330
19
100
AcDbEntity
  8
1
100
AcDbLine
 10
1122.711261164462
 20
1612.340664214482
 30
0.0
 11
1128.711261164462
 21
1612.340664214482
 31
0.0
  0
LINE
  5
7E7E
330
19
100
AcDbEntity
  8
1
100
AcDbLine
 10
814.3112611644628
 20
1612.340664214482
 30
0.0
 11
814.3112611644628
 21
1507.340664214481
 31
0.0
  0
LINE
  5
7E7F
330
19
100
AcDbEntity
  8
1
100
AcDbLine
 10
808.3112611644628
 20
1612.340664214481
 30
0.0
 11
808.3112611644628
 21
1507.340664214481
 31
0.0
  0
LINE
  5
7E80
330
19
100
AcDbEntity
  8
1
100
AcDbLine
 10
798.3112611644628
 20
1507.340664214481
 30
0.0
 11
798.3112611644628
 21
1505.040664214481
 31
0.0
  0
LINE
  5
7E81
330
19
100
AcDbEntity
  8
1
100
AcDbLine
 10
813.7554166219551
 20
1563.340664214482
 30
0.0
 11
768.5112611644626
 21
1563.340664214482
 31
0.0
  0
LINE
  5
7E82
330
19
100
AcDbEntity
  8
1
100
AcDbLine
 10
793.5112611644626
 20
1590.340664214483
 30
0.0
 11
768.5112611644626
 21
1590.340664214483
 31
0.0
  0
LINE
  5
7E83
330
19
100
AcDbEntity
  8
1
100
AcDbLine
 10
814.3112611644628
 20
1612.340664214482
 30
0.0
 11
808.3112611644628
 21
1612.340664214481
 31
0.0
  0
CIRCLE
  5
7E84
330
19
100
AcDbEntity
  8
1
100
AcDbCircle
 10
823.7779440833646
 20
1496.340664214483
 30
0.0
 40
8.0
  0
ARC
  5
7E85
330
19
100
AcDbEntity
  8
1
100
AcDbCircle
 10
960.5112611644626
 20
1569.340664214483
 30
0.0
 40
147.0
100
AcDbArc
 50
198.5121515118292
 51
208.0971331097658
  0
LINE
  5
7E86
330
19
100
AcDbEntity
  8
1
100
AcDbLine
 10
953.7084358304037
 20
1324.343906833702
 30
0.0
 11
768.5112611644626
 21
1323.340664214482
 31
0.0
  0
LINE
  5
7E87
330
19
100
AcDbEntity
  8
1
100
AcDbLine
 10
793.5112611644626
 20
1296.340664214482
 30
0.0
 11
768.5112611644626
 21
1296.340664214482
 31
0.0
  0
DIMENSION
  5
7E88
330
19
100
AcDbEntity
  8
3
100
AcDbDimension
280
     0
  2
*D1
 10
2567.568861078769
 20
1804.479542741686
 30
0.0
 11
2482.086881646901
 21
1836.273625846972
 31
0.0
 70
   160
 71
     5
 42
-1.0
 73
     0
 74
     0
 75
     0
  3
IGA
100
AcDbAlignedDimension
 13
2387.568861078769
 23
1728.422690128551
 33
0.0
 14
2567.568861078769
 24
1730.086507619099
 34
0.0
100
AcDbRotatedDimension
1001
ACAD
1000
DSTYLE
1002
{
1070
   288
1070
     1
1070
   172
1070
     1
1070
    40
1040
15.0
1070
   271
1070
     0
1070
   143
1040
0.039
1002
}
  0
LINE
  5
7E89
330
19
100
AcDbEntity
  8
2
100
AcDbLine
 10
1935.296321931418
 20
1561.317589315024
 30
0.0
 11
2628.70462214102
 21
1561.317589315024
 31
0.0
  0
LINE
  5
7E8B
330
19
100
AcDbEntity
  8
2
100
AcDbLine
 10
2477.568861078768
 20
1804.139436743376
 30
0.0
 11
2477.568861078768
 21
1131.317589315024
 31
0.0
  0
LINE
  5
7E8C
330
19
100
AcDbEntity
  8
1
100
AcDbLine
 10
2019.486661151043
 20
1606.899316527509
 30
0.0
 11
2019.486661151043
 21
1653.886294518269
 31
0.0
  0
LINE
  5
7E8D
330
19
100
AcDbEntity
  8
1
100
AcDbLine
 10
1949.807795890862
 20
1316.563584422644
 30
0.0
 11
1949.807795890862
 21
1653.886294518269
 31
0.0
  0
LINE
  5
7E8E
330
19
100
AcDbEntity
  8
1
100
AcDbLine
 10
2046.568861078768
 20
1505.040664214481
 30
0.0
 11
2359.568861078768
 21
1505.040664214481
 31
0.0
  0
LINE
  5
7E91
330
19
100
AcDbEntity
  8
1
100
AcDbLine
 10
1976.568861078768
 20
1241.317589315024
 30
0.0
 11
2421.568861078768
 21
1241.317589315024
 31
0.0
  0
LINE
  5
7E92
330
19
100
AcDbEntity
  8
1
100
AcDbLine
 10
1976.568861078767
 20
1281.317589315024
 30
0.0
 11
2421.568861078768
 21
1281.317589315024
 31
0.0
  0
LINE
  5
7E93
330
19
100
AcDbEntity
  8
1
100
AcDbLine
 10
2046.568861078768
 20
1507.317589315024
 30
0.0
 11
2359.568861078768
 21
1507.317589315024
 31
0.0
  0
LINE
  5
7E94
330
19
100
AcDbEntity
  8
1
100
AcDbLine
 10
1967.61120639787
 20
1338.203936849264
 30
0.0
 11
1967.611206397869
 21
1491.46358027589
 31
0.0
  0
LINE
  5
7E95
330
19
100
AcDbEntity
  8
1
100
AcDbLine
 10
2003.218027411882
 20
1338.203936849264
 30
0.0
 11
2003.218027411882
 21
1491.46358027589
 31
0.0
  0
LINE
  5
7E96
330
19
100
AcDbEntity
  8
1
100
AcDbLine
 10
2051.568861078769
 20
1505.040664214481
 30
0.0
 11
2051.568861078768
 21
1466.140652214481
 31
0.0
  0
LINE
  5
7E97
330
19
100
AcDbEntity
  8
1
100
AcDbLine
 10
1949.807795890862
 20
1316.563584422644
 30
0.0
 11
2019.486661151043
 21
1316.563584422644
 31
0.0
  0
LINE
  5
7E98
330
19
100
AcDbEntity
  8
1
100
AcDbLine
 10
1967.611206397869
 20
1338.203936849264
 30
0.0
 11
2003.218027411882
 21
1338.203936849264
 31
0.0
  0
LINE
  5
7E99
330
19
100
AcDbEntity
  8
1
100
AcDbLine
 10
2019.486661151043
 20
1316.563584422644
 30
0.0
 11
2019.486661151043
 21
1381.664765029484
 31
0.0
  0
LINE
  5
7E9A
330
19
100
AcDbEntity
  8
1
100
AcDbLine
 10
2003.218027411882
 20
1491.46358027589
 30
0.0
 11
2003.218027411882
 21
1631.171598354157
 31
0.0
  0
LINE
  5
7E9B
330
19
100
AcDbEntity
  8
1
100
AcDbLine
 10
1967.611206397869
 20
1491.46358027589
 30
0.0
 11
1967.611206397869
 21
1631.171598354157
 31
0.0
  0
LINE
  5
7E9C
330
19
100
AcDbEntity
  8
2
100
AcDbLine
 10
2267.244987136299
 20
1391.340664214481
 30
0.0
 11
1936.001572968629
 21
1391.340664214481
 31
0.0
  0
LINE
  5
7E9D
330
19
100
AcDbEntity
  8
1
100
AcDbLine
 10
1967.611206397869
 20
1444.477391579699
 30
0.0
 11
2003.218027411882
 21
1444.477391579699
 31
0.0
  0
LINE
  5
7E9E
330
19
100
AcDbEntity
  8
1
100
AcDbLine
 10
1967.611206397869
 20
1491.46358027589
 30
0.0
 11
2003.218027411882
 21
1491.46358027589
 31
0.0
  0
LINE
  5
7E9F
330
19
100
AcDbEntity
  8
1
100
AcDbLine
 10
2046.568861078768
 20
1507.317589315024
 30
0.0
 11
2046.568861078769
 21
1505.040664214481
 31
0.0
  0
LINE
  5
7EA0
330
19
100
AcDbEntity
  8
1
100
AcDbLine
 10
1967.611206397869
 20
1631.171598354157
 30
0.0
 11
2003.218027411882
 21
1631.171598354157
 31
0.0
  0
LINE
  5
7EA1
330
19
100
AcDbEntity
  8
1
100
AcDbLine
 10
2003.218027411882
 20
1549.317589315024
 30
0.0
 11
2017.568861078769
 21
1549.317589315023
 31
0.0
  0
LINE
  5
7EA2
330
19
100
AcDbEntity
  8
1
100
AcDbLine
 10
2003.218027411882
 20
1573.317589315023
 30
0.0
 11
2017.568861078768
 21
1573.317589315023
 31
0.0
  0
LINE
  5
7EA3
330
19
100
AcDbEntity
  8
1
100
AcDbLine
 10
2019.568861078768
 20
1578.817589315024
 30
0.0
 11
2359.568861078768
 21
1578.817589315024
 31
0.0
  0
LINE
  5
7EA4
330
19
100
AcDbEntity
  8
1
100
AcDbLine
 10
2019.568861078768
 20
1543.817589315024
 30
0.0
 11
2359.568861078769
 21
1543.817589315024
 31
0.0
  0
LINE
  5
7EA5
330
19
100
AcDbEntity
  8
1
100
AcDbLine
 10
2019.568861078768
 20
1547.317589315024
 30
0.0
 11
2019.568861078768
 21
1543.817589315024
 31
0.0
  0
ARC
  5
7EA6
330
19
100
AcDbEntity
  8
1
100
AcDbCircle
 10
2017.568861078769
 20
1547.317589315024
 30
0.0
 40
2.0
100
AcDbArc
 50
0.0000000000002036
 51
90.0
  0
ARC
  5
7EA7
330
19
100
AcDbEntity
  8
1
100
AcDbCircle
 10
2017.568861078768
 20
1575.317589315023
 30
0.0
 40
2.0
100
AcDbArc
 50
270.0
 51
0.0
  0
LINE
  5
7EA8
330
19
100
AcDbEntity
  8
1
100
AcDbLine
 10
2019.56886107877
 20
1578.817589315024
 30
0.0
 11
2019.568861078768
 21
1575.317589315023
 31
0.0
  0
LINE
  5
7EAD
330
19
100
AcDbEntity
  8
1
100
AcDbLine
 10
2359.568861078768
 20
1612.340664214481
 30
0.0
 11
2387.568861078769
 21
1612.340664214481
 31
0.0
  0
LINE
  5
7EAE
330
19
100
AcDbEntity
  8
1
100
AcDbLine
 10
1949.807795890862
 20
1653.886294518269
 30
0.0
 11
2019.486661151043
 21
1653.886294518269
 31
0.0
  0
LINE
  5
7EAF
330
19
100
AcDbEntity
  8
1
100
AcDbLine
 10
2596.56886107877
 20
1434.317589315023
 30
0.0
 11
2596.56886107877
 21
1688.317589315024
 31
0.0
  0
LINE
  5
7EB0
330
19
100
AcDbEntity
  8
1
100
AcDbLine
 10
2567.568861078769
 20
1717.317589315024
 30
0.0
 11
2567.568861078769
 21
1561.317589315024
 31
0.0
  0
LINE
  5
7EB2
330
19
100
AcDbEntity
  8
1
100
AcDbLine
 10
2567.568861078769
 20
1738.317589315023
 30
0.0
 11
2567.568861078769
 21
1559.317589315024
 31
0.0
  0
LINE
  5
7EB3
330
19
100
AcDbEntity
  8
1
100
AcDbLine
 10
2567.568861078767
 20
1559.317589315024
 30
0.0
 11
2567.568861078767
 21
1323.317589315023
 31
0.0
  0
LINE
  5
7EB5
330
19
100
AcDbEntity
  8
1
100
AcDbLine
 10
2571.56886107877
 20
1561.317589315024
 30
0.0
 11
2571.56886107877
 21
1405.317589315024
 31
0.0
  0
LWPOLYLINE
  5
7EB6
330
19
100
AcDbEntity
  8
1
100
AcDbPolyline
 90
        9
 70
     1
 43
0.0
 10
2571.56886107877
 20
1434.317589315023
 10
2571.56886107877
 20
1409.317589315024
 10
2572.56886107877
 20
1409.317589315024
 42
0.4142135623730951
 10
2574.568861078769
 20
1411.317589315024
 10
2574.568861078769
 20
1427.317589315024
 42
-0.4142135623730951
 10
2578.56886107877
 20
1431.317589315024
 10
2594.56886107877
 20
1431.317589315024
 42
0.4142135623730951
 10
2596.56886107877
 20
1433.317589315024
 10
2596.56886107877
 20
1434.317589315023
  0
LINE
  5
7EC1
330
19
100
AcDbEntity
  8
1
100
AcDbLine
 10
2572.568861078769
 20
1434.317589315023
 30
0.0
 11
2594.56886107877
 21
1434.317589315023
 31
0.0
  0
LINE
  5
7EC2
330
19
100
AcDbEntity
  8
1
100
AcDbLine
 10
2567.568861078767
 20
1405.317589315024
 30
0.0
 11
2571.56886107877
 21
1405.317589315024
 31
0.0
  0
LINE
  5
7EC4
330
19
100
AcDbEntity
  8
2
100
AcDbLine
 10
968.5112611644626
 20
3182.241420083955
 30
0.0
 11
968.5112611644626
 21
2537.411210288237
 31
0.0
  0
LINE
  5
7EC6
330
19
100
AcDbEntity
  8
1
100
AcDbLine
 10
1428.511261164462
 20
3019.717442849296
 30
0.0
 11
1428.511261164462
 21
2574.717442849296
 31
0.0
  0
LINE
  5
7EC7
330
19
100
AcDbEntity
  8
1
100
AcDbLine
 10
768.5112611644626
 20
3190.717442849297
 30
0.0
 11
768.5112611644626
 21
2574.717442849296
 31
0.0
  0
LINE
  5
7EC8
330
19
100
AcDbEntity
  8
1
100
AcDbLine
 10
1468.511261164463
 20
3019.717442849296
 30
0.0
 11
1468.511261164462
 21
2574.717442849296
 31
0.0
  0
LINE
  5
7ED0
330
19
100
AcDbEntity
  8
1
100
AcDbLine
 10
1976.568861078768
 20
1241.317589315024
 30
0.0
 11
1976.568861078767
 21
1281.317589315024
 31
0.0
  0
LINE
  5
7ED1
330
19
100
AcDbEntity
  8
1
100
AcDbLine
 10
2421.568861078768
 20
1241.317589315024
 30
0.0
 11
2421.568861078768
 21
1281.317589315024
 31
0.0
  0
LINE
  5
7ED8
330
19
100
AcDbEntity
  8
1
100
AcDbLine
 10
1173.511261164462
 20
3019.717442849297
 30
0.0
 11
1468.511261164462
 21
3019.717442849296
 31
0.0
  0
LINE
  5
7EDB
330
19
100
AcDbEntity
  8
1
100
AcDbLine
 10
768.5112611644625
 20
2574.717442849296
 30
0.0
 11
1468.511261164463
 21
2574.717442849296
 31
0.0
  0
LINE
  5
7EDE
330
19
100
AcDbEntity
  8
2
100
AcDbLine
 10
756.4590667507454
 20
3075.717442849296
 30
0.0
 11
1186.542455545321
 21
3075.717442849296
 31
0.0
  0
LINE
  5
7EDF
330
19
100
AcDbEntity
  8
1
100
AcDbLine
 10
2359.568861078768
 20
1362.340664214481
 30
0.0
 11
2387.568861078768
 21
1362.340664214481
 31
0.0
  0
LWPOLYLINE
  5
7EE0
330
19
100
AcDbEntity
  8
1
100
AcDbPolyline
 90
        2
 70
     0
 43
0.0
 10
2359.568861078768
 20
1612.340664214481
 10
2359.568861078768
 20
1362.340664214481
  0
ARC
  5
7EE4
330
19
100
AcDbEntity
  8
1
100
AcDbCircle
 10
2594.56886107877
 20
1689.317589315023
 30
0.0
 40
2.0
100
AcDbArc
 50
0.0
 51
60.00000000002852
  0
LINE
  5
7EE5
330
19
100
AcDbEntity
  8
1
100
AcDbLine
 10
2596.56886107877
 20
1689.317589315023
 30
0.0
 11
2596.56886107877
 21
1688.317589315024
 31
0.0
  0
LINE
  5
7EE6
330
19
100
AcDbEntity
  8
1
100
AcDbLine
 10
2596.56886107877
 20
1688.317589315024
 30
0.0
 11
2595.568861078769
 21
1688.317589315024
 31
0.0
  0
DIMENSION
  5
7EE7
330
19
100
AcDbEntity
  8
3
100
AcDbDimension
280
     0
  2
*D2
 10
720.9135454604802
 20
1563.340664214482
 30
0.0
 11
683.4135454604802
 21
1443.340664214482
 31
0.0
 12
157.2303426903527
 22
0.0
 32
0.0
 70
    32
 71
     5
 42
-1.0
 73
     0
 74
     0
 75
     0
  3
IGA
100
AcDbAlignedDimension
 13
768.5112611644626
 23
1323.340664214482
 33
0.0
 14
768.5112611644626
 24
1563.340664214482
 34
0.0
 50
270.0
100
AcDbRotatedDimension
1001
ACAD
1000
DSTYLE
1002
{
1070
    40
1040
15.0
1070
   143
1040
0.039
1070
   172
1070
     1
1070
   271
1070
     0
1070
   279
1070
     0
1070
   288
1070
     1
1002
}
  0
DIMENSION
  5
7EE8
330
19
100
AcDbEntity
  8
3
100
AcDbDimension
280
     0
  2
*D3
 10
637.2762453884806
 20
1561.340664214482
 30
0.0
 11
599.7762453884806
 21
1442.340664214482
 31
0.0
 12
157.2303426903527
 22
0.0
 32
0.0
 70
    32
 71
     5
 42
-1.0
 73
     0
 74
     0
 75
     0
  3
IGA
100
AcDbAlignedDimension
 13
768.5112611644626
 23
1323.340664214482
 33
0.0
 14
717.8682810892423
 24
1561.340664214482
 34
0.0
 50
270.0
100
AcDbRotatedDimension
1001
ACAD
1000
DSTYLE
1002
{
1070
    40
1040
15.0
1070
   143
1040
0.039
1070
   172
1070
     1
1070
   271
1070
     0
1070
   279
1070
     0
1070
   288
1070
     1
1002
}
  0
DIMENSION
  5
7EE9
330
19
100
AcDbEntity
  8
3
100
AcDbDimension
280
     0
  2
*D4
 10
2477.568861078768
 20
1929.913201006897
 30
0.0
 11
2525.271889762429
 21
1975.87546469376
 31
0.0
 70
   160
  1
94
 71
     5
 42
-1.0
 73
     0
 74
     0
 75
     0
  3
IGA
100
AcDbAlignedDimension
 13
2570.568861078769
 23
1717.29445307147
 33
0.0
 14
2477.568861078768
 24
1870.19976680302
 34
0.0
100
AcDbRotatedDimension
1001
ACAD
1000
DSTYLE
1002
{
1070
   288
1070
     1
1070
   172
1070
     1
1070
    40
1040
15.0
1070
   271
1070
     0
1070
   143
1040
0.039
1002
}
  0
DIMENSION
  5
7EEA
330
19
100
AcDbEntity
  8
3
100
AcDbDimension
280
     0
  2
*D5
 10
1949.807795890862
 20
1929.913201006897
 30
0.0
 11
2213.688328484815
 21
2016.698915292611
 31
0.0
 70
    32
  1
\P(600)
 71
     5
 42
527.7610651879058
 73
     0
 74
     0
 75
     0
  3
IGA
100
AcDbAlignedDimension
 13
2477.568861078768
 23
1868.418862155511
 33
0.0
 14
1949.807795890862
 24
1653.886294518269
 34
0.0
100
AcDbRotatedDimension
1001
ACAD
1000
DSTYLE
1002
{
1070
    40
1040
15.0
1070
   143
1040
0.039
1070
   172
1070
     1
1070
   271
1070
     0
1070
   279
1070
     0
1070
   288
1070
     1
1002
}
  0
LINE
  5
7EEB
330
19
100
AcDbEntity
  8
1
100
AcDbLine
 10
793.5112611644626
 20
3165.717442849298
 30
0.0
 11
1173.511261164462
 21
3165.717442849296
 31
0.0
  0
LINE
  5
7EEC
330
19
100
AcDbEntity
  8
1
100
AcDbLine
 10
793.5112611644626
 20
2985.717442849296
 30
0.0
 11
1173.511261164462
 21
2985.717442849296
 31
0.0
  0
LINE
  5
7EED
330
19
100
AcDbEntity
  8
1
100
AcDbLine
 10
808.5112611644627
 20
2623.217442849296
 30
0.0
 11
808.5112611644627
 21
2574.717442849296
 31
0.0
  0
LINE
  5
7EEE
330
19
100
AcDbEntity
  8
1
100
AcDbLine
 10
2258.414616904875
 20
1466.140652214481
 30
0.0
 11
2040.414616904875
 21
1466.140652214481
 31
0.0
  0
LINE
  5
7EEF
330
19
100
AcDbEntity
  8
1
100
AcDbLine
 10
2040.414616904875
 20
1313.340664214481
 30
0.0
 11
2258.414616904875
 21
1313.340664214481
 31
0.0
  0
LINE
  5
7EF0
330
19
100
AcDbEntity
  8
1
100
AcDbLine
 10
2258.414616904875
 20
1466.140652214481
 30
0.0
 11
2258.414616904875
 21
1313.340664214481
 31
0.0
  0
LINE
  5
7EF1
330
19
100
AcDbEntity
  8
1
100
AcDbLine
 10
2030.414616904876
 20
1357.840664214481
 30
0.0
 11
2030.414616904876
 21
1424.840664214481
 31
0.0
  0
LINE
  5
7EF2
330
19
100
AcDbEntity
  8
1
100
AcDbLine
 10
2040.414616904875
 20
1313.340664214481
 30
0.0
 11
2040.414616904875
 21
1466.140652214481
 31
0.0
  0
LINE
  5
7EF3
330
19
100
AcDbEntity
  8
1
100
AcDbLine
 10
2185.414616904875
 20
1313.340664214481
 30
0.0
 11
2185.414616904875
 21
1281.317589315024
 31
0.0
  0
LINE
  5
7EF4
330
19
100
AcDbEntity
  8
1
100
AcDbLine
 10
2065.414616904876
 20
1313.340664214481
 30
0.0
 11
2065.414616904876
 21
1281.317589315024
 31
0.0
  0
LINE
  5
7EF5
330
19
100
AcDbEntity
  8
1
100
AcDbLine
 10
2025.414616904876
 20
1401.840664214481
 30
0.0
 11
2030.414616904876
 21
1401.840664214481
 31
0.0
  0
LINE
  5
7EF6
330
19
100
AcDbEntity
  8
1
100
AcDbLine
 10
2025.414616904876
 20
1380.840664214481
 30
0.0
 11
2030.414616904876
 21
1380.840664214481
 31
0.0
  0
LINE
  5
7EF7
330
19
100
AcDbEntity
  8
1
100
AcDbLine
 10
2040.414616904875
 20
1357.840664214481
 30
0.0
 11
2030.414616904876
 21
1357.840664214481
 31
0.0
  0
LINE
  5
7EF8
330
19
100
AcDbEntity
  8
1
100
AcDbLine
 10
2040.414616904875
 20
1361.405667214481
 30
0.0
 11
2040.414616904875
 21
1352.775662214481
 31
0.0
  0
LINE
  5
7EF9
330
19
100
AcDbEntity
  8
1
100
AcDbLine
 10
2040.414616904875
 20
1363.590725214481
 30
0.0
 11
2040.414616904875
 21
1351.326791214481
 31
0.0
  0
LINE
  5
7EFA
330
19
100
AcDbEntity
  8
1
100
AcDbLine
 10
2040.414616904875
 20
1352.656460214481
 30
0.0
 11
2040.414616904875
 21
1361.656460214481
 31
0.0
  0
LINE
  5
7EFB
330
19
100
AcDbEntity
  8
1
100
AcDbLine
 10
2025.414616904876
 20
1400.840664214481
 30
0.0
 11
2003.218027411882
 21
1400.840664214481
 31
0.0
  0
LINE
  5
7EFC
330
19
100
AcDbEntity
  8
1
100
AcDbLine
 10
2003.218027411882
 20
1381.840664214481
 30
0.0
 11
2025.414616904876
 21
1381.840664214481
 31
0.0
  0
LINE
  5
7EFD
330
19
100
AcDbEntity
  8
1
100
AcDbLine
 10
2025.414616904876
 20
1380.840664214481
 30
0.0
 11
2025.414616904876
 21
1401.840664214481
 31
0.0
  0
LINE
  5
7EFE
330
19
100
AcDbEntity
  8
1
100
AcDbLine
 10
2030.414616904876
 20
1424.840664214481
 30
0.0
 11
2040.414616904875
 21
1424.840664214481
 31
0.0
  0
LINE
  5
7EFF
330
19
100
AcDbEntity
  8
1
100
AcDbLine
 10
2040.414616904875
 20
1464.155667214481
 30
0.0
 11
2040.414616904875
 21
1455.525662214481
 31
0.0
  0
LINE
  5
7F00
330
19
100
AcDbEntity
  8
1
100
AcDbLine
 10
2040.414616904875
 20
1455.406460214482
 30
0.0
 11
2040.414616904875
 21
1464.406460214482
 31
0.0
  0
LINE
  5
7F01
330
19
100
AcDbEntity
  8
1
100
AcDbLine
 10
1243.711273164462
 20
2856.217442849296
 30
0.0
 11
1396.511261164462
 21
2856.217442849296
 31
0.0
  0
LINE
  5
7F02
330
19
100
AcDbEntity
  8
1
100
AcDbLine
 10
1396.511261164462
 20
2638.563198675404
 30
0.0
 11
1396.511261164462
 21
2856.217442849296
 31
0.0
  0
LINE
  5
7F03
330
19
100
AcDbEntity
  8
1
100
AcDbLine
 10
1243.711273164462
 20
2856.217442849296
 30
0.0
 11
1243.711273164463
 21
2638.563198675404
 31
0.0
  0
LINE
  5
7F04
330
19
100
AcDbEntity
  8
1
100
AcDbLine
 10
1328.011261164462
 20
2601.36660918241
 30
0.0
 11
1328.011261164462
 21
2623.217442849295
 31
0.0
  0
LINE
  5
7F05
330
19
100
AcDbEntity
  8
1
100
AcDbLine
 10
1309.011261164463
 20
2623.217442849295
 30
0.0
 11
1309.011261164463
 21
2601.36660918241
 31
0.0
  0
LINE
  5
7F06
330
19
100
AcDbEntity
  8
1
100
AcDbLine
 10
1329.011261164463
 20
2623.217442849295
 30
0.0
 11
1328.011261164462
 21
2623.217442849295
 31
0.0
  0
LINE
  5
7F07
330
19
100
AcDbEntity
  8
1
100
AcDbLine
 10
1352.011261164463
 20
2638.217442849296
 30
0.0
 11
1352.011261164463
 21
2628.563198675404
 31
0.0
  0
LINE
  5
7F08
330
19
100
AcDbEntity
  8
1
100
AcDbLine
 10
1329.011261164463
 20
2623.217442849295
 30
0.0
 11
1329.011261164463
 21
2628.217442849296
 31
0.0
  0
LINE
  5
7F09
330
19
100
AcDbEntity
  8
1
100
AcDbLine
 10
1308.011261164462
 20
2623.217442849295
 30
0.0
 11
1308.011261164462
 21
2628.217442849296
 31
0.0
  0
LINE
  5
7F0A
330
19
100
AcDbEntity
  8
1
100
AcDbLine
 10
1285.011261164463
 20
2628.563198675404
 30
0.0
 11
1285.011261164463
 21
2638.217442849296
 31
0.0
  0
LINE
  5
7F0B
330
19
100
AcDbEntity
  8
1
100
AcDbLine
 10
1393.2883409563
 20
2547.956377661391
 30
0.0
 11
875.9425559612173
 21
2547.956377661391
 31
0.0
  0
LINE
  5
7F0C
330
19
100
AcDbEntity
  8
1
100
AcDbLine
 10
1328.011261164462
 20
2601.36660918241
 30
0.0
 11
1328.011261164462
 21
2623.563198675403
 31
0.0
  0
LINE
  5
7F0D
330
19
100
AcDbEntity
  8
1
100
AcDbLine
 10
1309.011261164463
 20
2623.563198675403
 30
0.0
 11
1309.011261164461
 21
2601.36660918241
 31
0.0
  0
LINE
  5
7F0E
330
19
100
AcDbEntity
  8
2
100
AcDbLine
 10
1318.511261164462
 20
2872.356052663615
 30
0.0
 11
1318.511261164462
 21
2541.118787541173
 31
0.0
  0
LINE
  5
7F0F
330
19
100
AcDbEntity
  8
1
100
AcDbLine
 10
1393.2883409563
 20
2547.956377661391
 30
0.0
 11
1393.288340956299
 21
2617.635242921571
 31
0.0
  0
LINE
  5
7F10
330
19
100
AcDbEntity
  8
1
100
AcDbLine
 10
1371.647988529679
 20
2601.36660918241
 30
0.0
 11
1265.374533799246
 21
2601.36660918241
 31
0.0
  0
LINE
  5
7F11
330
19
100
AcDbEntity
  8
1
100
AcDbLine
 10
1371.647988529679
 20
2565.759788168398
 30
0.0
 11
1265.374533799246
 21
2565.759788168398
 31
0.0
  0
LINE
  5
7F12
330
19
100
AcDbEntity
  8
1
100
AcDbLine
 10
1371.64798852968
 20
2565.759788168397
 30
0.0
 11
1371.64798852968
 21
2601.36660918241
 31
0.0
  0
LINE
  5
7F13
330
19
100
AcDbEntity
  8
1
100
AcDbLine
 10
1265.374533799245
 20
2565.759788168397
 30
0.0
 11
1265.374533799245
 21
2601.36660918241
 31
0.0
  0
LINE
  5
7F14
330
19
100
AcDbEntity
  8
1
100
AcDbLine
 10
1329.011261164463
 20
2623.563198675403
 30
0.0
 11
1308.011261164462
 21
2623.563198675403
 31
0.0
  0
LINE
  5
7F15
330
19
100
AcDbEntity
  8
1
100
AcDbLine
 10
1396.511261164462
 20
2638.563198675404
 30
0.0
 11
1243.711273164462
 21
2638.563198675404
 31
0.0
  0
LINE
  5
7F16
330
19
100
AcDbEntity
  8
1
100
AcDbLine
 10
1352.011261164463
 20
2628.563198675403
 30
0.0
 11
1285.011261164463
 21
2628.563198675403
 31
0.0
  0
LINE
  5
7F17
330
19
100
AcDbEntity
  8
1
100
AcDbLine
 10
1393.288340956299
 20
2617.635242921571
 30
0.0
 11
875.9425559612168
 21
2617.635242921571
 31
0.0
  0
LINE
  5
7F18
330
19
100
AcDbEntity
  8
1
100
AcDbLine
 10
1396.511261164462
 20
2638.563198675404
 30
0.0
 11
1396.511261164462
 21
2649.717442849297
 31
0.0
  0
LINE
  5
7F19
330
19
100
AcDbEntity
  8
1
100
AcDbLine
 10
1329.011261164463
 20
2623.563198675403
 30
0.0
 11
1329.011261164463
 21
2628.563198675403
 31
0.0
  0
LINE
  5
7F1A
330
19
100
AcDbEntity
  8
1
100
AcDbLine
 10
1357.195465164462
 20
2638.563198675404
 30
0.0
 11
1348.195465164462
 21
2638.563198675404
 31
0.0
  0
LINE
  5
7F1B
330
19
100
AcDbEntity
  8
1
100
AcDbLine
 10
1346.261200164462
 20
2638.563198675404
 30
0.0
 11
1358.525134164462
 21
2638.563198675404
 31
0.0
  0
LINE
  5
7F1C
330
19
100
AcDbEntity
  8
1
100
AcDbLine
 10
1348.446258164462
 20
2638.563198675404
 30
0.0
 11
1357.076263164462
 21
2638.563198675404
 31
0.0
  0
LINE
  5
7F1D
330
19
100
AcDbEntity
  8
1
100
AcDbLine
 10
1352.011261164463
 20
2638.563198675404
 30
0.0
 11
1352.011261164463
 21
2628.563198675403
 31
0.0
  0
LINE
  5
7F1E
330
19
100
AcDbEntity
  8
1
100
AcDbLine
 10
1285.011261164463
 20
2628.563198675403
 30
0.0
 11
1285.011261164463
 21
2638.563198675404
 31
0.0
  0
LINE
  5
7F1F
330
19
100
AcDbEntity
  8
1
100
AcDbLine
 10
1308.011261164462
 20
2623.563198675403
 30
0.0
 11
1308.011261164462
 21
2628.563198675403
 31
0.0
  0
LINE
  5
7F20
330
19
100
AcDbEntity
  8
1
100
AcDbLine
 10
1254.445465164462
 20
2638.563198675404
 30
0.0
 11
1245.445465164462
 21
2638.563198675404
 31
0.0
  0
LINE
  5
7F21
330
19
100
AcDbEntity
  8
1
100
AcDbLine
 10
1245.696258164462
 20
2638.563198675404
 30
0.0
 11
1254.326263164462
 21
2638.563198675404
 31
0.0
  0
LINE
  5
7F22
330
19
100
AcDbEntity
  8
1
100
AcDbLine
 10
1243.711273164462
 20
2649.717442849297
 30
0.0
 11
1243.711273164462
 21
2638.563198675404
 31
0.0
  0
LINE
  5
7F23
330
19
100
AcDbEntity
  8
1
100
AcDbLine
 10
875.9425559612173
 20
2547.956377661391
 30
0.0
 11
875.9425559612173
 21
2617.635242921571
 31
0.0
  0
LINE
  5
7F24
330
19
100
AcDbEntity
  8
1
100
AcDbLine
 10
1038.365270203595
 20
2565.759788168397
 30
0.0
 11
898.6572521253291
 21
2565.759788168397
 31
0.0
  0
LINE
  5
7F25
330
19
100
AcDbEntity
  8
1
100
AcDbLine
 10
1038.365270203595
 20
2601.36660918241
 30
0.0
 11
898.6572521253291
 21
2601.36660918241
 31
0.0
  0
LINE
  5
7F26
330
19
100
AcDbEntity
  8
1
100
AcDbLine
 10
898.6572521253291
 20
2565.759788168397
 30
0.0
 11
898.6572521253291
 21
2601.36660918241
 31
0.0
  0
LINE
  5
7F28
330
19
100
AcDbEntity
  8
1
100
AcDbLine
 10
1038.365270203596
 20
2565.759788168397
 30
0.0
 11
1038.365270203596
 21
2601.36660918241
 31
0.0
  0
LINE
  5
7F29
330
19
100
AcDbEntity
  8
1
100
AcDbLine
 10
1138.511261164462
 20
2623.217442849297
 30
0.0
 11
798.5112611644626
 21
2623.217442849297
 31
0.0
  0
LINE
  5
7F2A
330
19
100
AcDbEntity
  8
1
100
AcDbLine
 10
1309.011261164463
 20
2623.217442849295
 30
0.0
 11
1308.011261164462
 21
2623.217442849295
 31
0.0
  0
LINE
  5
7F2B
330
19
100
AcDbEntity
  8
1
100
AcDbLine
 10
798.5112611644617
 20
2985.717442849296
 30
0.0
 11
798.5112611644617
 21
2623.217442849297
 31
0.0
  0
LINE
  5
7F2C
330
19
100
AcDbEntity
  8
1
100
AcDbLine
 10
1138.511261164462
 20
2985.717442849296
 30
0.0
 11
1138.511261164462
 21
2623.217442849297
 31
0.0
  0
LINE
  5
7F2E
330
19
100
AcDbEntity
  8
1
100
AcDbLine
 10
951.0112611644627
 20
2985.717442849296
 30
0.0
 11
951.0112611644627
 21
2623.217442849297
 31
0.0
  0
LINE
  5
7F2F
330
19
100
AcDbEntity
  8
1
100
AcDbLine
 10
986.0112611644645
 20
2985.717442849296
 30
0.0
 11
986.0112611644627
 21
2623.217442849297
 31
0.0
  0
DIMENSION
  5
7F30
330
19
100
AcDbEntity
  8
3
100
AcDbDimension
280
     0
  2
*D6
 10
2696.271135304714
 20
1434.317589315023
 30
0.0
 11
2657.907837213978
 21
1561.317589315024
 31
0.0
 70
   160
 71
     5
 42
-1.0
 73
     0
 74
     0
 75
     0
  3
IGA
100
AcDbAlignedDimension
 13
2596.56886107877
 23
1688.317589315024
 33
0.0
 14
2596.56886107877
 24
1434.317589315023
 34
0.0
 50
90.0
100
AcDbRotatedDimension
1001
ACAD
1000
DSTYLE
1002
{
1070
   288
1070
     1
1070
   172
1070
     1
1070
    40
1040
15.0
1070
     3
1000
φ<>
1070
   271
1070
     0
1070
   143
1040
0.039
1002
}
  0
LWPOLYLINE
  5
7F31
330
19
100
AcDbEntity
  8
1
100
AcDbPolyline
 90
        2
 70
     0
 43
0.0
 10
2387.568861078769
 20
1559.317589315024
 10
2387.568861078767
 20
1281.317589315023
  0
LINE
  5
7F35
330
19
100
AcDbEntity
  8
1
100
AcDbLine
 10
2571.56886107877
 20
1561.317589315024
 30
0.0
 11
2571.56886107877
 21
1717.317589315024
 31
0.0
  0
LINE
  5
7F36
330
19
100
AcDbEntity
  8
1
100
AcDbLine
 10
2596.56886107877
 20
1688.317589315024
 30
0.0
 11
2596.56886107877
 21
1434.317589315024
 31
0.0
  0
LINE
  5
7F38
330
19
100
AcDbEntity
  8
1
100
AcDbLine
 10
2567.568861078769
 20
1717.317589315024
 30
0.0
 11
2571.56886107877
 21
1717.317589315024
 31
0.0
  0
LINE
  5
7F39
330
19
100
AcDbEntity
  8
1
100
AcDbLine
 10
2572.568861078769
 20
1688.317589315024
 30
0.0
 11
2594.56886107877
 21
1688.317589315024
 31
0.0
  0
LWPOLYLINE
  5
7F3A
330
19
100
AcDbEntity
  8
1
100
AcDbPolyline
 90
        9
 70
     1
 43
0.0
 10
2571.56886107877
 20
1688.317589315024
 10
2571.56886107877
 20
1713.317589315024
 10
2572.56886107877
 20
1713.317589315024
 42
-0.4142135623730951
 10
2574.568861078769
 20
1711.317589315024
 10
2574.568861078769
 20
1695.317589315024
 42
0.4142135623730951
 10
2578.56886107877
 20
1691.317589315024
 10
2594.56886107877
 20
1691.317589315024
 42
-0.4142135623730951
 10
2596.56886107877
 20
1689.317589315024
 10
2596.56886107877
 20
1688.317589315024
  0
LWPOLYLINE
  5
7F45
330
19
100
AcDbEntity
  8
1
100
AcDbPolyline
 90
        2
 70
     0
 43
0.0
 10
2387.568861078769
 20
1738.317589315023
 10
2387.568861078769
 20
1559.317589315023
  0
DIMENSION
  5
7F4D
330
19
100
AcDbEntity
  8
3
100
AcDbDimension
280
     0
  2
*D7
 10
968.5112611644626
 20
1833.436349098726
 30
0.0
 11
868.7923215928712
 21
1872.099553796786
 31
0.0
 12
157.2303426903527
 22
0.0
 32
0.0
 70
   160
 71
     5
 42
-1.0
 73
     0
 74
     0
 75
     0
  3
IGA
100
AcDbAlignedDimension
 13
768.5112611644626
 23
1590.340664214483
 33
0.0
 14
968.5112611644626
 24
1800.547034575551
 34
0.0
100
AcDbRotatedDimension
1001
ACAD
1000
DSTYLE
1002
{
1070
   288
1070
     1
1070
   172
1070
     1
1070
    40
1040
15.0
1070
   271
1070
     0
1070
   143
1040
0.039
1002
}
  0
DIMENSION
  5
7F4E
330
19
100
AcDbEntity
  8
3
100
AcDbDimension
280
     0
  2
*D8
 10
1173.511261164463
 20
1833.436349098726
 30
0.0
 11
1071.978081282026
 21
1874.637297744292
 31
0.0
 12
157.2303426903527
 22
0.0
 32
0.0
 70
   160
 71
     5
 42
-1.0
 73
     0
 74
     0
 75
     0
  3
IGA
100
AcDbAlignedDimension
 13
968.5112611644626
 23
1800.547034575551
 33
0.0
 14
1173.511261164463
 24
1547.340664214483
 34
0.0
100
AcDbRotatedDimension
1001
ACAD
1000
DSTYLE
1002
{
1070
   288
1070
     1
1070
   172
1070
     1
1070
    40
1040
15.0
1070
   271
1070
     0
1070
   143
1040
0.039
1002
}
  0
DIMENSION
  5
7F4F
330
19
100
AcDbEntity
  8
3
100
AcDbDimension
280
     0
  2
*D9
 10
549.4550758793352
 20
1561.340664214482
 30
0.0
 11
489.4550758793352
 21
1649.840664214482
 31
0.0
 12
157.2303426903527
 22
0.0
 32
0.0
 70
    32
 71
     5
 42
-1.0
 73
     0
 74
     0
 75
     0
  3
IGA
100
AcDbAlignedDimension
 13
982.5112611644636
 23
1738.340664214482
 33
0.0
 14
717.8682810892423
 24
1561.340664214482
 34
0.0
 50
90.0
100
AcDbRotatedDimension
1001
ACAD
1000
DSTYLE
1002
{
1070
   288
1070
     1
1070
   172
1070
     1
1070
    40
1040
15.0
1070
   271
1070
     0
1070
   143
1040
0.039
1002
}
  0
DIMENSION
  5
7F50
330
19
100
AcDbEntity
  8
3
100
AcDbDimension
280
     0
  2
*D10
 10
549.4550758793352
 20
1241.340664214481
 30
0.0
 11
511.9550758793352
 21
1401.340664214481
 31
0.0
 12
157.2303426903527
 22
0.0
 32
0.0
 70
    32
 71
     5
 42
-1.0
 73
     0
 74
     0
 75
     0
  3
IGA
100
AcDbAlignedDimension
 13
717.8682810892423
 23
1561.340664214482
 33
0.0
 14
768.5112611644626
 24
1241.340664214481
 34
0.0
 50
90.0
100
AcDbRotatedDimension
1001
ACAD
1000
DSTYLE
1002
{
1070
    40
1040
15.0
1070
   143
1040
0.039
1070
   172
1070
     1
1070
   271
1070
     0
1070
   279
1070
     0
1070
   288
1070
     1
1002
}
  0
DIMENSION
  5
7F54
330
19
100
AcDbEntity
  8
3
100
AcDbDimension
280
     0
  2
*D11
 10
1468.511261164463
 20
1938.450504493255
 30
0.0
 11
1118.511261164463
 21
1975.950504493255
 31
0.0
 12
157.2303426903527
 22
0.0
 32
0.0
 70
    32
 71
     5
 42
-1.0
 73
     0
 74
     0
 75
     0
  3
IGA
100
AcDbAlignedDimension
 13
768.5112611644626
 23
1590.340664214483
 33
0.0
 14
1468.511261164463
 24
1281.340664214481
 34
0.0
100
AcDbRotatedDimension
1001
ACAD
1000
DSTYLE
1002
{
1070
    40
1040
15.0
1070
   143
1040
0.039
1070
   172
1070
     1
1070
   271
1070
     0
1070
   279
1070
     0
1070
   288
1070
     1
1002
}
  0
LINE
  5
7F55
330
19
100
AcDbEntity
  8
1
100
AcDbLine
 10
1173.511261164462
 20
3165.717442849296
 30
0.0
 11
1173.511261164462
 21
2985.717442849296
 31
0.0
  0
LINE
  5
7F56
330
19
100
AcDbEntity
  8
1
100
AcDbLine
 10
793.5112611644631
 20
3190.717442849297
 30
0.0
 11
793.5112611644626
 21
2960.717442849296
 31
0.0
  0
LINE
  5
7F57
330
19
100
AcDbEntity
  8
1
100
AcDbLine
 10
768.5112611644626
 20
3190.717442849297
 30
0.0
 11
793.5112611644626
 21
3190.717442849297
 31
0.0
  0
LINE
  5
7F58
330
19
100
AcDbEntity
  8
1
100
AcDbLine
 10
768.5112611644626
 20
2960.717442849296
 30
0.0
 11
793.5112611644626
 21
2960.717442849296
 31
0.0
  0
LINE
  5
7F59
330
19
100
AcDbEntity
  8
1
100
AcDbLine
 10
2051.568861078767
 20
1313.340664214481
 30
0.0
 11
2051.568861078768
 21
1281.317589315024
 31
0.0
  0
LINE
  5
7F5A
330
19
100
AcDbEntity
  8
1
100
AcDbLine
 10
2384.568861078769
 20
1738.317589315023
 30
0.0
 11
2570.568861078769
 21
1738.317589315023
 31
0.0
  0
LINE
  5
7F5B
330
19
100
AcDbEntity
  8
1
100
AcDbLine
 10
2387.568861078768
 20
1323.317589315023
 30
0.0
 11
2567.568861078767
 21
1323.317589315023
 31
0.0
  0
LINE
  5
7F5C
330
19
100
AcDbEntity
  8
1
100
AcDbLine
 10
2387.568861078768
 20
1298.317589315024
 30
0.0
 11
2595.568861078769
 21
1298.317589315024
 31
0.0
  0
LINE
  5
7F5D
330
19
100
AcDbEntity
  8
1
100
AcDbLine
 10
2595.568861078769
 20
1431.585538507454
 30
0.0
 11
2595.568861078769
 21
1298.317589315024
 31
0.0
  0
LINE
  5
845D
330
19
100
AcDbEntity
  8
4
100
AcDbLine
 10
2775.0
 20
750.0
 30
0.0
 11
2775.0
 21
450.0
 31
0.0
  0
LINE
  5
845E
330
19
100
AcDbEntity
  8
4
100
AcDbLine
 10
1725.0
 20
750.0
 30
0.0
 11
1725.0
 21
450.0
 31
0.0
  0
LINE
  5
845F
330
19
100
AcDbEntity
  8
4
100
AcDbLine
 10
975.0
 20
750.0
 30
0.0
 11
975.0
 21
450.0
 31
0.0
  0
LINE
  5
8462
330
19
100
AcDbEntity
  8
4
100
AcDbLine
 10
975.0
 20
450.0
 30
0.0
 11
2775.0
 21
450.0
 31
0.0
  0
LINE
  5
8463
330
19
100
AcDbEntity
  8
4
100
AcDbLine
 10
975.0
 20
600.0
 30
0.0
 11
2775.0
 21
600.0
 31
0.0
  0
TEXT
  5
8464
330
19
100
AcDbEntity
  8
4
100
AcDbText
 10
1032.753121270352
 20
647.3145387999193
 30
0.0
 40
75.0
  1
機器名称
100
AcDbText
  0
TEXT
  5
8465
330
19
100
AcDbEntity
  8
4
100
AcDbText
 10
1029.387159037196
 20
482.4677350980164
 30
0.0
 40
75.0
  1
機器型番
100
AcDbText
  0
TEXT
  5
8466
330
19
100
AcDbEntity
  8
4
100
AcDbText
 10
1766.518118231497
 20
633.8576534363528
 30
0.0
 40
75.0
  1
ミツヤ多翼送風機
100
AcDbText
  0
TEXT
  5
8467
330
19
100
AcDbEntity
  8
4
100
AcDbText
 10
1779.981743378221
 20
475.739376419915
 30
0.0
 40
75.0
  1
MF#1 1/2-1
100
AcDbText
  0
TEXT
  5
8469
330
19
100
AcDbEntity
  8
4
100
AcDbText
 10
1113.081166393502
 20
3575.143261998774
 30
0.0
 40
80.99999999999999
  1
床置防振ベット
100
AcDbText
  0
TEXT
  5
846A
330
19
100
AcDbEntity
  8
4
100
AcDbText
 10
474.2513899941696
 20
3800.821464298947
 30
0.0
 40
108.0
  1
遠心式片吸込片持多翼ファン
100
AcDbText
  0
LINE
  5
846B
330
19
100
AcDbEntity
  8
4
100
AcDbLine
 10
375.0
 20
3704.113131397207
 30
0.0
 11
2775.0
 21
3704.113131397207
 31
0.0
  0
LINE
  5
846C
330
19
100
AcDbEntity
  8
4
100
AcDbLine
 10
375.0
 20
4004.113131397207
 30
0.0
 11
2775.0
 21
4004.113131397207
 31
0.0
  0
LINE
  5
846D
330
19
100
AcDbEntity
  8
4
100
AcDbLine
 10
975.0
 20
750.0
 30
0.0
 11
2775.0
 21
750.0
 31
0.0
  0
LINE
  5
846E
330
19
100
AcDbEntity
  8
4
100
AcDbLine
 10
375.0
 20
4004.113131397207
 30
0.0
 11
375.0
 21
3704.113131397207
 31
0.0
  0
TEXT
  5
846F
330
19
100
AcDbEntity
  8
4
100
AcDbText
 10
459.2929180294486
 20
3573.479216319515
 30
0.0
 40
80.99999999999999
  1
右回転左横向
100
AcDbText
  0
TEXT
  5
8470
330
19
100
AcDbEntity
  8
4
100
AcDbText
 10
2203.454338873935
 20
4059.091622242963
 30
0.0
 40
84.00000000000002
  1
No.
100
AcDbText
  0
TEXT
  5
8471
330
19
100
AcDbEntity
  8
4
100
AcDbText
 10
1966.94409390002
 20
3575.143261998774
 30
0.0
 40
80.99999999999999
  1
縮尺：1/15
100
AcDbText
  0
LINE
  5
8472
330
19
100
AcDbEntity
  8
4
100
AcDbLine
 10
2775.0
 20
4004.113131397207
 30
0.0
 11
2775.0
 21
3704.113131397207
 31
0.0
  0
LINE
  5
8473
330
19
100
AcDbEntity
  8
4
100
AcDbLine
 10
3150.0
 20
4425.0
 30
0.0
 11
3150.0
 21
4425.0
 31
0.0
  0
LINE
  5
8474
330
19
100
AcDbEntity
  8
4
100
AcDbLine
 10
2160.926133539797
 20
4021.895374688102
 30
0.0
 11
2160.926133539797
 21
4179.978392324628
 31
0.0
  0
LINE
  5
8475
330
19
100
AcDbEntity
  8
4
100
AcDbLine
 10
2160.926133539797
 20
4179.978392324628
 30
0.0
 11
2775.0
 21
4179.978392324628
 31
0.0
  0
LINE
  5
8476
330
19
100
AcDbEntity
  8
4
100
AcDbLine
 10
2775.0
 20
4179.978392324628
 30
0.0
 11
2775.0
 21
4021.895374688102
 31
0.0
  0
LINE
  5
8477
330
19
100
AcDbEntity
  8
4
100
AcDbLine
 10
2775.0
 20
4021.895374688102
 30
0.0
 11
2160.926133539797
 21
4021.895374688102
 31
0.0
  0
LINE
  5
8478
330
19
100
AcDbEntity
  8
4
100
AcDbLine
 10
0.0
 20
0.0
 30
0.0
 11
0.0
 21
4425.0
 31
0.0
  0
LINE
  5
8479
330
19
100
AcDbEntity
  8
4
100
AcDbLine
 10
0.0
 20
4425.0
 30
0.0
 11
3150.0
 21
4425.0
 31
0.0
  0
LINE
  5
847A
330
19
100
AcDbEntity
  8
4
100
AcDbLine
 10
3150.0
 20
4425.0
 30
0.0
 11
3150.0
 21
0.0
 31
0.0
  0
LINE
  5
847B
330
19
100
AcDbEntity
  8
4
100
AcDbLine
 10
3150.0
 20
0.0
 30
0.0
 11
0.0
 21
0.0
 31
0.0
  0
LINE
  5
8565
330
19
100
AcDbEntity
  8
1
100
AcDbLine
 10
1138.511261164462
 20
2979.717442849296
 30
0.0
 11
1428.511261164462
 21
2979.717442849296
 31
0.0
  0
LINE
  5
8566
330
19
100
AcDbEntity
  8
1
100
AcDbLine
 10
808.5112611644625
 20
2614.717442849296
 30
0.0
 11
1428.511261164462
 21
2614.717442849296
 31
0.0
  0
DIMENSION
  5
8573
330
19
100
AcDbEntity
  8
3
100
AcDbDimension
280
     0
  2
*D13
 10
1564.148827035173
 20
2574.717442849296
 30
0.0
 11
1564.148827035173
 21
2789.289383236823
 31
0.0
 12
157.2303426903527
 22
0.0
 32
0.0
 70
   160
 71
     5
 42
-1.0
 73
     0
 74
     0
 75
     0
  3
IGA
100
AcDbAlignedDimension
 13
1468.511261164463
 23
3019.717442849296
 33
0.0
 14
1468.511261164462
 24
2574.717442849296
 34
0.0
 50
90.0
100
AcDbRotatedDimension
1001
ACAD
1000
DSTYLE
1002
{
1070
    40
1040
15.0
1070
   143
1040
0.039
1070
   172
1070
     1
1070
   271
1070
     0
1070
   279
1070
     0
1070
   288
1070
     1
1002
}
  0
DIMENSION
  5
858B
330
19
100
AcDbEntity
  8
3
100
AcDbDimension
280
     0
  2
*D14
 10
1468.511261164462
 20
2438.076972478841
 30
0.0
 11
1111.52919901974
 21
2438.076972478841
 31
0.0
 12
157.2303426903527
 22
0.0
 32
0.0
 70
   160
 71
     5
 42
-1.0
 73
     0
 74
     0
 75
     0
  3
IGA
100
AcDbAlignedDimension
 13
768.5112611644626
 23
2574.717442849296
 33
0.0
 14
1468.511261164462
 24
2574.717442849296
 34
0.0
100
AcDbRotatedDimension
1001
ACAD
1000
DSTYLE
1002
{
1070
    40
1040
15.0
1070
   143
1040
0.039
1070
   172
1070
     1
1070
   271
1070
     0
1070
   279
1070
     0
1070
   288
1070
     1
1002
}
  0
DIMENSION
  5
85FA
330
19
100
AcDbEntity
  8
3
100
AcDbDimension
280
     0
  2
*D15
 10
968.5112611644626
 20
1016.765123843692
 30
0.0
 11
868.5112611644626
 21
1054.265123843692
 31
0.0
 70
    32
 71
     5
 42
200.0
 73
     0
 74
     0
 75
     0
  3
IGA
100
AcDbAlignedDimension
 13
768.5112611644626
 23
1131.340664214481
 33
0.0
 14
968.5112611644626
 24
1131.340664214481
 34
0.0
100
AcDbRotatedDimension
1001
ACAD
1000
DSTYLE
1002
{
1070
    40
1040
15.0
1070
   143
1040
0.039
1070
   172
1070
     1
1070
   271
1070
     0
1070
   279
1070
     0
1002
}
  0
DIMENSION
  5
8607
330
19
100
AcDbEntity
  8
3
100
AcDbDimension
280
     0
  2
*D16
 10
1468.511261164463
 20
1016.765123843692
 30
0.0
 11
1218.511261164463
 21
1054.265123843692
 31
0.0
 70
    32
 71
     5
 42
500.0000000000008
 73
     0
 74
     0
 75
     0
  3
IGA
100
AcDbAlignedDimension
 13
968.5112611644626
 23
1131.340664214481
 33
0.0
 14
1468.511261164463
 24
1131.340664214481
 34
0.0
100
AcDbRotatedDimension
1001
ACAD
1000
DSTYLE
1002
{
1070
    40
1040
15.0
1070
   143
1040
0.039
1070
   172
1070
     1
1070
   271
1070
     0
1070
   279
1070
     0
1002
}
  0
DIMENSION
  5
8614
330
19
100
AcDbEntity
  8
3
100
AcDbDimension
280
     0
  2
*D17
 10
2421.568861078768
 20
1016.765123843692
 30
0.0
 11
2199.068861078768
 21
1054.265123843692
 31
0.0
 70
    32
 71
     5
 42
445.0
 73
     0
 74
     0
 75
     0
  3
IGA
100
AcDbAlignedDimension
 13
1976.568861078768
 23
1131.317589315024
 33
0.0
 14
2421.568861078768
 24
1131.317589315024
 34
0.0
100
AcDbRotatedDimension
1001
ACAD
1000
DSTYLE
1002
{
1070
    40
1040
15.0
1070
   143
1040
0.039
1070
   172
1070
     1
1070
   271
1070
     0
1070
   279
1070
     0
1002
}
  0
DIMENSION
  5
8623
330
19
100
AcDbEntity
  8
3
100
AcDbDimension
280
     0
  2
*D18
 10
2477.568861078768
 20
1016.765123843692
 30
0.0
 11
2587.926003935911
 21
1054.265123843692
 31
0.0
 70
    32
 71
     5
 42
56.0
 73
     0
 74
     0
 75
     0
  3
IGA
100
AcDbAlignedDimension
 13
2421.568861078768
 23
1131.317589315024
 33
0.0
 14
2477.568861078768
 24
1131.317589315024
 34
0.0
100
AcDbRotatedDimension
1001
ACAD
1000
DSTYLE
1002
{
1070
    40
1040
15.0
1070
   143
1040
0.039
1070
   172
1070
     1
1070
   271
1070
     0
1070
   279
1070
     0
1002
}
  0
LINE
  5
8636
330
19
100
AcDbEntity
  8
1
100
AcDbLine
 10
1976.568861078767
 20
1171.317589315024
 30
0.0
 11
2421.568861078768
 21
1171.317589315024
 31
0.0
  0
LINE
  5
8637
330
19
100
AcDbEntity
  8
1
100
AcDbLine
 10
1976.568861078768
 20
1131.317589315024
 30
0.0
 11
2421.568861078768
 21
1131.317589315024
 31
0.0
  0
LINE
  5
8638
330
19
100
AcDbEntity
  8
1
100
AcDbLine
 10
2421.568861078768
 20
1131.317589315024
 30
0.0
 11
2421.568861078768
 21
1171.317589315024
 31
0.0
  0
LINE
  5
8639
330
19
100
AcDbEntity
  8
1
100
AcDbLine
 10
1976.568861078768
 20
1131.317589315024
 30
0.0
 11
1976.568861078767
 21
1171.317589315024
 31
0.0
  0
LINE
  5
863A
330
19
100
AcDbEntity
  8
1
100
AcDbLine
 10
1468.511261164463
 20
1131.340664214481
 30
0.0
 11
768.5112611644626
 21
1131.340664214481
 31
0.0
  0
LINE
  5
863B
330
19
100
AcDbEntity
  8
1
100
AcDbLine
 10
1468.511261164463
 20
1171.340664214481
 30
0.0
 11
1468.511261164463
 21
1131.340664214481
 31
0.0
  0
LINE
  5
863C
330
19
100
AcDbEntity
  8
1
100
AcDbLine
 10
1468.511261164463
 20
1171.340664214481
 30
0.0
 11
768.5112611644626
 21
1171.340664214481
 31
0.0
  0
LINE
  5
863D
330
19
100
AcDbEntity
  8
1
100
AcDbLine
 10
768.5112611644626
 20
1171.340664214481
 30
0.0
 11
768.5112611644626
 21
1131.340664214481
 31
0.0
  0
DIMENSION
  5
864D
330
19
100
AcDbEntity
  8
3
100
AcDbDimension
280
     0
  2
*D19
 10
549.4550758793362
 20
1131.340664214481
 30
0.0
 11
511.955075879336
 21
1019.912092785909
 31
0.0
 70
    32
 71
     5
 42
40.00000000000045
 73
     0
 74
     0
 75
     0
  3
IGA
100
AcDbAlignedDimension
 13
768.5112611644626
 23
1171.340664214481
 33
0.0
 14
768.5112611644626
 24
1131.340664214481
 34
0.0
 50
90.0
100
AcDbRotatedDimension
1001
ACAD
1000
DSTYLE
1002
{
1070
    40
1040
15.0
1070
   143
1040
0.039
1070
   172
1070
     1
1070
   271
1070
     0
1070
   279
1070
     0
1070
   343
1005
838A
1002
}
  0
DIMENSION
  5
867A
330
19
100
AcDbEntity
  8
3
100
AcDbDimension
280
     0
  2
*D20
 10
549.4550758793352
 20
1241.340664214481
 30
0.0
 11
505.2332733985058
 21
1203.580193916354
 31
0.0
 70
   160
 71
     5
 42
69.99999999999954
 73
     0
 74
     0
 75
     0
  3
IGA
100
AcDbAlignedDimension
 13
768.5112611644626
 23
1171.340664214481
 33
0.0
 14
768.5112611644626
 24
1241.340664214481
 34
0.0
 50
90.0
100
AcDbRotatedDimension
1001
ACAD
1000
DSTYLE
1002
{
1070
     3
1000
(<>)
1070
    40
1040
15.0
1070
   143
1040
0.039
1070
   172
1070
     1
1070
   271
1070
     0
1070
   343
1005
838A
1002
}
  0
DIMENSION
  5
8813
330
19
100
AcDbEntity
  8
3
100
AcDbDimension
280
     0
  2
*D22
 10
413.2670691125567
 20
1738.340664214483
 30
0.0
 11
363.9813548268422
 21
1434.840664214482
 31
0.0
 70
    32
 71
     5
 42
607.0000000000018
 73
     0
 74
     0
 75
     0
  3
IGA
100
AcDbAlignedDimension
 13
768.5112611644626
 23
1131.340664214481
 33
0.0
 14
982.5112611644636
 24
1738.340664214482
 34
0.0
 50
90.0
100
AcDbRotatedDimension
1001
ACAD
1000
DSTYLE
1002
{
1070
     3
1000
(<>)
1070
    40
1040
15.0
1070
   143
1040
0.039
1070
   172
1070
     1
1070
   271
1070
     0
1002
}
  0
ENDSEC
  0
SECTION
  2
OBJECTS
  0
DICTIONARY
  5
C
330
0
100
AcDbDictionary
281
     1
  3
ACAD_CIP_PREVIOUS_PRODUCT_INFO
350
86E9
  3
ACAD_COLOR
350
86CC
  3
ACAD_DETAILVIEWSTYLE
350
86E5
  3
ACAD_GROUP
350
D
  3
ACAD_LAYOUT
350
868C
  3
ACAD_MATERIAL
350
869A
  3
ACAD_MLEADERSTYLE
350
86E1
  3
ACAD_MLINESTYLE
350
E
  3
ACAD_PLOTSETTINGS
350
868D
  3
ACAD_PLOTSTYLENAME
350
868A
  3
ACAD_SCALELIST
350
86CF
  3
ACAD_SECTIONVIEWSTYLE
350
86E3
  3
ACAD_TABLESTYLE
350
86CD
  3
ACAD_VISUALSTYLE
350
86B3
  3
ACDB_RECOMPOSE_DATA
350
8889
  3
AcDbVariableDictionary
350
874B
  0
DICTIONARY
  5
873F
330
2
100
AcDbDictionary
280
     1
281
     1
  3
ACAD_LAYERSTATES
360
8740
  0
DICTIONARY
  5
8732
330
F
100
AcDbDictionary
280
     1
281
     1
  3
ADSK_XREC_LAYER_RECONCILED
360
8733
  0
DICTIONARY
  5
8734
330
31
100
AcDbDictionary
280
     1
281
     1
  3
ADSK_XREC_LAYER_RECONCILED
360
8735
  0
DICTIONARY
  5
8736
330
76D0
100
AcDbDictionary
280
     1
281
     1
  3
ADSK_XREC_LAYER_RECONCILED
360
8737
  0
DICTIONARY
  5
8738
330
76D1
100
AcDbDictionary
280
     1
281
     1
  3
ADSK_XREC_LAYER_RECONCILED
360
8739
  0
DICTIONARY
  5
873A
330
76D2
100
AcDbDictionary
280
     1
281
     1
  3
ADSK_XREC_LAYER_RECONCILED
360
873B
  0
DICTIONARY
  5
86EB
330
19
100
AcDbDictionary
280
     1
281
     1
  3
ACAD_SORTENTS
360
86EC
  0
XRECORD
  5
86E9
102
{ACAD_REACTORS
330
C
102
}
330
C
100
AcDbXrecord
280
     1
300
ACDLT
300
2015
300
INVLTS_F_S
  0
DICTIONARY
  5
86CC
102
{ACAD_REACTORS
330
C
102
}
330
C
100
AcDbDictionary
281
     1
  0
DICTIONARY
  5
86E5
102
{ACAD_REACTORS
330
C
102
}
330
C
100
AcDbDictionary
281
     1
  3
Imperial24
350
875A
  3
Metric50
350
86E6
  0
DICTIONARY
  5
D
102
{ACAD_REACTORS
330
C
102
}
330
C
100
AcDbDictionary
281
     1
  0
DICTIONARY
  5
868C
102
{ACAD_REACTORS
330
C
102
}
330
C
100
AcDbDictionary
281
     1
  3
Model
350
868E
  3
ﾚｲｱｳﾄ1
350
868F
  0
DICTIONARY
  5
869A
102
{ACAD_REACTORS
330
C
102
}
330
C
100
AcDbDictionary
281
     1
  3
ByBlock
350
86A3
  3
ByLayer
350
869B
  3
Global
350
86AB
  0
DICTIONARY
  5
86E1
102
{ACAD_REACTORS
330
C
102
}
330
C
100
AcDbDictionary
281
     1
  3
Standard
350
86E2
  0
DICTIONARY
  5
E
102
{ACAD_REACTORS
330
C
102
}
330
C
100
AcDbDictionary
281
     1
  3
STANDARD
350
1C
  0
DICTIONARY
  5
868D
102
{ACAD_REACTORS
330
C
102
}
330
C
100
AcDbDictionary
281
     1
  0
ACDBDICTIONARYWDFLT
  5
868A
102
{ACAD_REACTORS
330
C
102
}
330
C
100
AcDbDictionary
281
     1
  3
Normal
350
868B
100
AcDbDictionaryWithDefault
340
868B
  0
DICTIONARY
  5
86CF
102
{ACAD_REACTORS
330
C
102
}
330
C
100
AcDbDictionary
281
     1
  3
A0
350
86D0
  3
A1
350
86D1
  3
A2
350
86D2
  3
A3
350
86D3
  3
A4
350
86D4
  3
A5
350
86D5
  3
A6
350
86D6
  3
A7
350
86D7
  3
A8
350
86D8
  3
A9
350
86D9
  3
B0
350
86DA
  3
B1
350
86DB
  3
B2
350
86DC
  3
B3
350
86DD
  3
B4
350
86DE
  3
B5
350
86DF
  3
B6
350
86E0
  0
DICTIONARY
  5
86E3
102
{ACAD_REACTORS
330
C
102
}
330
C
100
AcDbDictionary
281
     1
  3
Imperial24
350
8759
  3
Metric50
350
86E4
  0
DICTIONARY
  5
86CD
102
{ACAD_REACTORS
330
C
102
}
330
C
100
AcDbDictionary
281
     1
  3
Standard
350
86CE
  0
DICTIONARY
  5
86B3
102
{ACAD_REACTORS
330
C
102
}
330
C
100
AcDbDictionary
281
     1
  3
2dWireframe
350
86B9
  3
Basic
350
86B8
  3
Brighten
350
86BF
  3
ColorChange
350
86C3
  3
Conceptual
350
86BC
  3
Dim
350
86BE
  3
EdgeColorOff
350
86CB
  3
Facepattern
350
86C2
  3
Flat
350
86B4
  3
FlatWithEdges
350
86B5
  3
Gouraud
350
86B6
  3
GouraudWithEdges
350
86B7
  3
Hidden
350
86BB
  3
JitterOff
350
86C9
  3
Linepattern
350
86C1
  3
OverhangOff
350
86CA
  3
Realistic
350
86BD
  3
Shaded
350
86C8
  3
Shaded with edges
350
86C7
  3
Shades of Gray
350
86C4
  3
Sketchy
350
86C5
  3
Thicken
350
86C0
  3
Wireframe
350
86BA
  3
X-Ray
350
86C6
  0
XRECORD
  5
8889
102
{ACAD_REACTORS
330
C
102
}
330
C
100
AcDbXrecord
280
     1
 90
        1
330
86CE
330
86E4
330
86E6
330
8759
330
875A
  0
DICTIONARY
  5
874B
102
{ACAD_REACTORS
330
C
102
}
330
C
100
AcDbDictionary
281
     1
  3
CANNOSCALE
350
8751
  3
CMLEADERSTYLE
350
874D
  3
CTABLESTYLE
350
874C
  3
CVIEWDETAILSTYLE
350
874E
  3
CVIEWSECTIONSTYLE
350
874F
  3
LAYEREVAL
350
8753
  3
LAYERNOTIFY
350
8754
  3
LIGHTINGUNITS
350
8752
  3
MSLTSCALE
350
8750
  0
DICTIONARY
  5
8740
102
{ACAD_REACTORS
330
873F
102
}
330
873F
100
AcDbDictionary
281
     1
  0
XRECORD
  5
8733
102
{ACAD_REACTORS
330
8732
102
}
330
8732
100
AcDbXrecord
280
     1
290
     1
  0
XRECORD
  5
8735
102
{ACAD_REACTORS
330
8734
102
}
330
8734
100
AcDbXrecord
280
     1
290
     1
  0
XRECORD
  5
8737
102
{ACAD_REACTORS
330
8736
102
}
330
8736
100
AcDbXrecord
280
     1
290
     1
  0
XRECORD
  5
8739
102
{ACAD_REACTORS
330
8738
102
}
330
8738
100
AcDbXrecord
280
     1
290
     1
  0
XRECORD
  5
873B
102
{ACAD_REACTORS
330
873A
102
}
330
873A
100
AcDbXrecord
280
     1
290
     1
  0
SORTENTSTABLE
  5
86EC
102
{ACAD_REACTORS
330
86EB
102
}
330
86EB
100
AcDbSortentsTable
330
19
331
863C
  5
863D
331
7EB6
  5
7EC1
331
8638
  5
8639
331
7F30
  5
7F31
331
7EB2
  5
7EB3
331
7EF5
  5
7EF6
331
7EAE
  5
7EAF
331
7F2C
  5
7F2E
331
7E71
  5
7E72
331
7EF1
  5
7EF2
331
7F28
  5
7F29
331
845F
  5
8462
331
7E6D
  5
7E6E
331
7EA6
  5
7EA7
331
7EED
  5
7EEE
331
7F24
  5
7F25
331
7E69
  5
7E6A
331
7F20
  5
7F21
331
7EA2
  5
7EA3
331
7EE9
  5
7EEA
331
8614
  5
8623
331
7F1C
  5
7F1D
331
7E9E
  5
7E9F
331
7EE5
  5
7EE6
331
7F5B
  5
7F5C
331
7E61
  5
7E62
331
7F18
  5
7F19
331
7E9A
  5
7E9B
331
7F57
  5
7F58
331
7E5D
  5
7E5E
331
7E96
  5
7E97
331
7F14
  5
7F15
331
847A
  5
847B
331
7E59
  5
7E59
331
7F4F
  5
7F50
331
7E92
  5
7E93
331
7F10
  5
7F11
331
8476
  5
8477
331
7E55
  5
7E55
331
7F0C
  5
7F0D
331
7E8E
  5
7E91
331
8472
  5
8473
331
7E51
  5
7E51
331
7ED1
  5
7ED8
331
7F08
  5
7F09
331
846E
  5
846F
331
8565
  5
8566
331
7E4D
  5
7E4D
331
7E86
  5
7E87
331
7F04
  5
7F05
331
846A
  5
846B
331
7E82
  5
7E83
331
7F00
  5
7F01
331
8466
  5
8467
331
7EFC
  5
7EFD
331
7E7E
  5
7E7F
331
8462
  5
8463
331
7EC1
  5
7EC2
331
7E7A
  5
7E7B
331
7EF8
  5
7EF9
331
863B
  5
863C
331
7EB5
  5
7EB6
331
8637
  5
8638
331
7F2F
  5
7F30
331
7EF4
  5
7EF5
331
7EAD
  5
7EAE
331
7F2B
  5
7F2C
331
7E70
  5
7E71
331
7EF0
  5
7EF1
331
845E
  5
845F
331
8623
  5
8636
331
7E6C
  5
7E6D
331
7EA5
  5
7EA6
331
7EEC
  5
7EED
331
7F23
  5
7F24
331
7F1F
  5
7F20
331
7EA1
  5
7EA2
331
7EE8
  5
7EE9
331
7E64
  5
7E69
331
7EE4
  5
7EE5
331
7E9D
  5
7E9E
331
7F1B
  5
7F1C
331
7F5A
  5
7F5B
331
7E60
  5
7E61
331
7EE0
  5
7EE4
331
7E99
  5
7E9A
331
867A
  5
8687
331
7E5C
  5
7E5D
331
7F17
  5
7F18
331
7F56
  5
7F57
331
7E95
  5
7E96
331
7F13
  5
7F14
331
8479
  5
847A
331
8607
  5
8614
331
7E54
  5
7E54
331
7F0F
  5
7F10
331
7E91
  5
7E92
331
7ED8
  5
7EDB
331
7F4E
  5
7F4F
331
8475
  5
8476
331
7E50
  5
7E50
331
7F0B
  5
7F0C
331
7E8D
  5
7E8E
331
8471
  5
8472
331
7ED0
  5
7ED1
331
7E89
  5
7E8A
331
7F07
  5
7F08
331
846D
  5
846E
331
7E85
  5
7E86
331
7F03
  5
7F04
331
8469
  5
846A
331
7E81
  5
7E82
331
7EC8
  5
7ED0
331
7EFF
  5
7F00
331
8465
  5
8466
331
7EFB
  5
7EFC
331
7E7D
  5
7E7E
331
7EC4
  5
7EC6
331
7F3A
  5
7F45
331
7E79
  5
7E7A
331
7F36
  5
7F38
331
863A
  5
863B
331
7E77
  5
7E78
331
8636
  5
8637
331
7F2E
  5
7F2F
331
7EB0
  5
7EB2
331
7EF7
  5
7EF8
331
7EF3
  5
7EF4
331
7F2A
  5
7F2B
331
7EA8
  5
7EAD
331
845D
  5
845E
331
7E6F
  5
7E70
331
7E6B
  5
7E6C
331
7EEF
  5
7EF0
331
7F26
  5
7F28
331
7EA4
  5
7EA5
331
7EEB
  5
7EEC
331
7F22
  5
7F23
331
7E63
  5
7E64
331
7F1E
  5
7F1F
331
7EA0
  5
7EA1
331
7EE7
  5
7EE8
331
7F5D
  5
7F5E
331
858B
  5
85FA
331
7F1A
  5
7F1B
331
7E9C
  5
7E9D
331
7F59
  5
7F5A
331
7E98
  5
7E99
331
7E5F
  5
7E60
331
7E5B
  5
7E5C
331
7EDF
  5
7EE0
331
7F16
  5
7F17
331
7F55
  5
7F56
331
7E94
  5
7E95
331
7EDB
  5
7EDE
331
7F12
  5
7F13
331
8478
  5
8479
331
7E53
  5
7E53
331
7F0E
  5
7F0F
331
7F4D
  5
7F4E
331
8474
  5
8475
331
8573
  5
858B
331
7F0A
  5
7F0B
331
7E8C
  5
7E8D
331
8470
  5
8471
331
7E88
  5
7E89
331
7E4F
  5
7E4F
331
864D
  5
867A
331
7F06
  5
7F07
331
7F45
  5
7F4D
331
846C
  5
846D
331
85FA
  5
8607
331
7E84
  5
7E85
331
7F02
  5
7F03
331
7EFE
  5
7EFF
331
7E80
  5
7E81
331
7EC7
  5
7EC8
331
8464
  5
8465
331
7EFA
  5
7EFB
331
7E7C
  5
7E7D
331
7F39
  5
7F3A
331
7E78
  5
7E79
331
863D
  5
864D
331
7F35
  5
7F36
331
8639
  5
863A
331
7E76
  5
7E77
331
7F31
  5
7F35
331
7EB3
  5
7EB5
331
7E72
  5
7E76
331
7EAF
  5
7EB0
331
7EF6
  5
7EF7
331
7EF2
  5
7EF3
331
7F29
  5
7F2A
331
7E6E
  5
7E6F
331
7E6A
  5
7E6B
331
7EA7
  5
7EA8
331
7EEE
  5
7EEF
331
7F25
  5
7F26
331
7EA3
  5
7EA4
331
7EEA
  5
7EEB
331
7F21
  5
7F22
331
7E62
  5
7E63
331
7F1D
  5
7F1E
331
7E9F
  5
7EA0
331
7EE6
  5
7EE7
331
7F5C
  5
7F5D
331
7F19
  5
7F1A
331
7E9B
  5
7E9C
331
7F58
  5
7F59
331
7E5E
  5
7E5F
331
7E97
  5
7E98
331
7EDE
  5
7EDF
331
7F15
  5
7F16
331
7F54
  5
7F55
331
847B
  5
8565
331
7E5A
  5
7E5B
331
7F50
  5
7F54
331
7E93
  5
7E94
331
7F11
  5
7F12
331
8477
  5
8478
331
7E56
  5
7E56
331
7F0D
  5
7F0E
331
8473
  5
8474
331
7E52
  5
7E52
331
7F09
  5
7F0A
331
7E8B
  5
7E8C
331
846F
  5
8470
331
8566
  5
8573
331
7E4E
  5
7E4E
331
7E87
  5
7E88
331
7F05
  5
7F06
331
846B
  5
846C
331
7E83
  5
7E84
331
7F01
  5
7F02
331
8467
  5
8469
331
7EFD
  5
7EFE
331
7E7F
  5
7E80
331
7EC6
  5
7EC7
331
8463
  5
8464
331
7EC2
  5
7EC4
331
7E7B
  5
7E7C
331
7EF9
  5
7EFA
331
7F38
  5
7F39
  0
ACDBDETAILVIEWSTYLE
  5
875A
102
{ACAD_XDICTIONARY
360
880C
102
}
102
{ACAD_REACTORS
330
86E5
102
}
330
86E5
100
AcDbModelDocViewStyle
 70
     0
  3
Imperial24
290
     0
100
AcDbDetailViewStyle
 70
     0
 71
     0
 90
        3
 71
     1
340
10
 62
   256
 40
0.24
340
0
 62
   256
 40
0.24
300

 40
0.36
280
     3
 71
     2
340
15
 90
       25
 62
   256
 71
     3
340
10
 62
   256
 40
0.24
 90
        1
 40
0.75
 90
        1
300
%<\AcVar ViewType \f "%tc1">% %<\AcVar ViewDetailId>%\PSCALE %<\AcVar ViewScale \f "%sn">%
 71
     4
340
15
 90
       25
 62
   256
340
15
 90
       25
 62
   256
280
     0
  0
ACDBDETAILVIEWSTYLE
  5
86E6
102
{ACAD_XDICTIONARY
360
8748
102
}
102
{ACAD_REACTORS
330
86E5
102
}
330
86E5
100
AcDbModelDocViewStyle
 70
     0
  3
Metric50
290
     0
100
AcDbDetailViewStyle
 70
     0
 71
     0
 90
        3
 71
     1
340
10
 62
   256
 40
5.0
340
0
 62
   256
 40
5.0
300

 40
0.0
280
     1
 71
     2
340
15
 90
       25
 62
   256
 71
     3
340
10
 62
   256
 40
5.0
 90
        0
 40
15.0
 90
        1
300
%<\AcVar ViewDetailId>% (%<\AcVar ViewScale \f "%sn">%)
 71
     4
340
15
 90
       25
 62
   256
340
15
 90
       25
 62
   256
280
     0
  0
LAYOUT
  5
868E
102
{ACAD_REACTORS
330
868C
102
}
330
868C
100
AcDbPlotSettings
  1

  2
EPSON LP-9300
  4

  6

 40
0.0
 41
0.0
 42
0.0
 43
0.0
 44
0.0
 45
0.0
 46
0.0
 47
0.0
 48
0.0
 49
0.0
140
0.0
141
0.0
142
1.0
143
1.0
 70
  1712
 72
     0
 73
     0
 74
     0
  7

 75
     0
147
1.0
 76
     0
 77
     2
 78
   300
148
0.0
149
0.0
100
AcDbLayout
  1
Model
 70
     1
 71
     0
 10
0.0
 20
0.0
 11
12.0
 21
9.0
 12
0.0
 22
0.0
 32
0.0
 14
0.0
 24
0.0
 34
0.0
 15
0.0
 25
0.0
 35
0.0
146
0.0
 13
0.0
 23
0.0
 33
0.0
 16
1.0
 26
0.0
 36
0.0
 17
0.0
 27
1.0
 37
0.0
 76
     0
330
19
331
8698
  0
LAYOUT
  5
868F
102
{ACAD_REACTORS
330
868C
102
}
330
868C
100
AcDbPlotSettings
  1

  2
EPSON LP-9300
  4

  6

 40
0.0
 41
0.0
 42
0.0
 43
0.0
 44
0.0
 45
0.0
 46
0.0
 47
0.0
 48
0.0
 49
0.0
140
0.0
141
0.0
142
1.0
143
1.0
 70
   688
 72
     0
 73
     0
 74
     5
  7

 75
    16
147
1.0
 76
     0
 77
     2
 78
   300
148
0.0
149
0.0
100
AcDbLayout
  1
ﾚｲｱｳﾄ1
 70
     1
 71
     1
 10
0.0
 20
0.0
 11
12.0
 21
9.0
 12
0.0
 22
0.0
 32
0.0
 14
1.000000000000000E+20
 24
1.000000000000000E+20
 34
1.000000000000000E+20
 15
-1.000000000000000E+20
 25
-1.000000000000000E+20
 35
-1.000000000000000E+20
146
0.0
 13
0.0
 23
0.0
 33
0.0
 16
1.0
 26
0.0
 36
0.0
 17
0.0
 27
1.0
 37
0.0
 76
     0
330
16
  0
MATERIAL
  5
86A3
102
{ACAD_XDICTIONARY
360
86A4
102
}
102
{ACAD_REACTORS
330
869A
102
}
330
869A
100
AcDbMaterial
  1
ByBlock
 72
     0
 43
0.0208333333333333
 43
0.0
 43
0.0
 43
0.0
 43
0.0
 43
0.0208333333333333
 43
0.0
 43
0.0
 43
0.0
 43
0.0
 43
1.0
 43
0.0
 43
0.0
 43
0.0
 43
0.0
 43
1.0
 77
     0
 47
0.0208333333333333
 47
0.0
 47
0.0
 47
0.0
 47
0.0
 47
0.0208333333333333
 47
0.0
 47
0.0
 47
0.0
 47
0.0
 47
1.0
 47
0.0
 47
0.0
 47
0.0
 47
0.0
 47
1.0
171
     0
 49
0.0208333333333333
 49
0.0
 49
0.0
 49
0.0
 49
0.0
 49
0.0208333333333333
 49
0.0
 49
0.0
 49
0.0
 49
0.0
 49
1.0
 49
0.0
 49
0.0
 49
0.0
 49
0.0
 49
1.0
175
     0
142
0.0208333333333333
142
0.0
142
0.0
142
0.0
142
0.0
142
0.0208333333333333
142
0.0
142
0.0
142
0.0
142
0.0
142
1.0
142
0.0
142
0.0
142
0.0
142
0.0
142
1.0
179
     0
144
0.0208333333333333
144
0.0
144
0.0
144
0.0
144
0.0
144
0.0208333333333333
144
0.0
144
0.0
144
0.0
144
0.0
144
1.0
144
0.0
144
0.0
144
0.0
144
0.0
144
1.0
147
0.0208333333333333
147
0.0
147
0.0
147
0.0
147
0.0
147
0.0208333333333333
147
0.0
147
0.0
147
0.0
147
0.0
147
1.0
147
0.0
147
0.0
147
0.0
147
0.0
147
1.0
  0
MATERIAL
  5
869B
102
{ACAD_XDICTIONARY
360
869C
102
}
102
{ACAD_REACTORS
330
869A
102
}
330
869A
100
AcDbMaterial
  1
ByLayer
 72
     0
 43
0.0208333333333333
 43
0.0
 43
0.0
 43
0.0
 43
0.0
 43
0.0208333333333333
 43
0.0
 43
0.0
 43
0.0
 43
0.0
 43
1.0
 43
0.0
 43
0.0
 43
0.0
 43
0.0
 43
1.0
 77
     0
 47
0.0208333333333333
 47
0.0
 47
0.0
 47
0.0
 47
0.0
 47
0.0208333333333333
 47
0.0
 47
0.0
 47
0.0
 47
0.0
 47
1.0
 47
0.0
 47
0.0
 47
0.0
 47
0.0
 47
1.0
171
     0
 49
0.0208333333333333
 49
0.0
 49
0.0
 49
0.0
 49
0.0
 49
0.0208333333333333
 49
0.0
 49
0.0
 49
0.0
 49
0.0
 49
1.0
 49
0.0
 49
0.0
 49
0.0
 49
0.0
 49
1.0
175
     0
142
0.0208333333333333
142
0.0
142
0.0
142
0.0
142
0.0
142
0.0208333333333333
142
0.0
142
0.0
142
0.0
142
0.0
142
1.0
142
0.0
142
0.0
142
0.0
142
0.0
142
1.0
179
     0
144
0.0208333333333333
144
0.0
144
0.0
144
0.0
144
0.0
144
0.0208333333333333
144
0.0
144
0.0
144
0.0
144
0.0
144
1.0
144
0.0
144
0.0
144
0.0
144
0.0
144
1.0
147
0.0208333333333333
147
0.0
147
0.0
147
0.0
147
0.0
147
0.0208333333333333
147
0.0
147
0.0
147
0.0
147
0.0
147
1.0
147
0.0
147
0.0
147
0.0
147
0.0
147
1.0
  0
MATERIAL
  5
86AB
102
{ACAD_XDICTIONARY
360
86AC
102
}
102
{ACAD_REACTORS
330
869A
102
}
330
869A
100
AcDbMaterial
  1
Global
 72
     0
 43
0.0208333333333333
 43
0.0
 43
0.0
 43
0.0
 43
0.0
 43
0.0208333333333333
 43
0.0
 43
0.0
 43
0.0
 43
0.0
 43
1.0
 43
0.0
 43
0.0
 43
0.0
 43
0.0
 43
1.0
 77
     0
 47
0.0208333333333333
 47
0.0
 47
0.0
 47
0.0
 47
0.0
 47
0.0208333333333333
 47
0.0
 47
0.0
 47
0.0
 47
0.0
 47
1.0
 47
0.0
 47
0.0
 47
0.0
 47
0.0
 47
1.0
171
     0
 49
0.0208333333333333
 49
0.0
 49
0.0
 49
0.0
 49
0.0
 49
0.0208333333333333
 49
0.0
 49
0.0
 49
0.0
 49
0.0
 49
1.0
 49
0.0
 49
0.0
 49
0.0
 49
0.0
 49
1.0
175
     0
142
0.0208333333333333
142
0.0
142
0.0
142
0.0
142
0.0
142
0.0208333333333333
142
0.0
142
0.0
142
0.0
142
0.0
142
1.0
142
0.0
142
0.0
142
0.0
142
0.0
142
1.0
179
     0
144
0.0208333333333333
144
0.0
144
0.0
144
0.0
144
0.0
144
0.0208333333333333
144
0.0
144
0.0
144
0.0
144
0.0
144
1.0
144
0.0
144
0.0
144
0.0
144
0.0
144
1.0
147
0.0208333333333333
147
0.0
147
0.0
147
0.0
147
0.0
147
0.0208333333333333
147
0.0
147
0.0
147
0.0
147
0.0
147
1.0
147
0.0
147
0.0
147
0.0
147
0.0
147
1.0
  0
MLEADERSTYLE
  5
86E2
102
{ACAD_REACTORS
330
86E1
102
}
330
86E1
100
AcDbMLeaderStyle
179
     2
170
     2
171
     1
172
     0
 90
        2
 40
0.0
 41
0.0
173
     1
 91
-1056964608
340
13
 92
       -2
290
     1
 42
2.0
291
     1
 43
0.36
  3
Standard
 44
4.0
300

342
10
174
     1
178
     6
175
     1
176
     0
 93
-1056964608
 45
4.0
292
     0
297
     0
 46
4.0
 94
-1056964608
 47
1.0
 49
1.0
140
1.0
293
     1
141
0.0
294
     1
177
     0
142
1.0
295
     1
296
     0
143
0.125
271
     0
272
     9
273
     9
298
     1
  0
MLINESTYLE
  5
1C
102
{ACAD_REACTORS
330
E
102
}
330
E
100
AcDbMlineStyle
  2
STANDARD
 70
     0
  3

 62
     0
 51
90.0
 52
90.0
 71
     2
 49
0.5
 62
   256
  6
BYLAYER
 49
-0.5
 62
   256
  6
BYLAYER
  0
ACDBPLACEHOLDER
  5
868B
102
{ACAD_REACTORS
330
868A
102
}
330
868A
  0
SCALE
  5
86D0
102
{ACAD_REACTORS
330
86CF
102
}
330
86CF
100
AcDbScale
 70
     0
300
1:1
140
1.0
141
1.0
290
     1
  0
SCALE
  5
86D1
102
{ACAD_REACTORS
330
86CF
102
}
330
86CF
100
AcDbScale
 70
     0
300
1:2
140
1.0
141
2.0
290
     0
  0
SCALE
  5
86D2
102
{ACAD_REACTORS
330
86CF
102
}
330
86CF
100
AcDbScale
 70
     0
300
1:4
140
1.0
141
4.0
290
     0
  0
SCALE
  5
86D3
102
{ACAD_REACTORS
330
86CF
102
}
330
86CF
100
AcDbScale
 70
     0
300
1:5
140
1.0
141
5.0
290
     0
  0
SCALE
  5
86D4
102
{ACAD_REACTORS
330
86CF
102
}
330
86CF
100
AcDbScale
 70
     0
300
1:8
140
1.0
141
8.0
290
     0
  0
SCALE
  5
86D5
102
{ACAD_REACTORS
330
86CF
102
}
330
86CF
100
AcDbScale
 70
     0
300
1:10
140
1.0
141
10.0
290
     0
  0
SCALE
  5
86D6
102
{ACAD_REACTORS
330
86CF
102
}
330
86CF
100
AcDbScale
 70
     0
300
1:16
140
1.0
141
16.0
290
     0
  0
SCALE
  5
86D7
102
{ACAD_REACTORS
330
86CF
102
}
330
86CF
100
AcDbScale
 70
     0
300
1:20
140
1.0
141
20.0
290
     0
  0
SCALE
  5
86D8
102
{ACAD_REACTORS
330
86CF
102
}
330
86CF
100
AcDbScale
 70
     0
300
1:30
140
1.0
141
30.0
290
     0
  0
SCALE
  5
86D9
102
{ACAD_REACTORS
330
86CF
102
}
330
86CF
100
AcDbScale
 70
     0
300
1:40
140
1.0
141
40.0
290
     0
  0
SCALE
  5
86DA
102
{ACAD_REACTORS
330
86CF
102
}
330
86CF
100
AcDbScale
 70
     0
300
1:50
140
1.0
141
50.0
290
     0
  0
SCALE
  5
86DB
102
{ACAD_REACTORS
330
86CF
102
}
330
86CF
100
AcDbScale
 70
     0
300
1:100
140
1.0
141
100.0
290
     0
  0
SCALE
  5
86DC
102
{ACAD_REACTORS
330
86CF
102
}
330
86CF
100
AcDbScale
 70
     0
300
2:1
140
2.0
141
1.0
290
     0
  0
SCALE
  5
86DD
102
{ACAD_REACTORS
330
86CF
102
}
330
86CF
100
AcDbScale
 70
     0
300
4:1
140
4.0
141
1.0
290
     0
  0
SCALE
  5
86DE
102
{ACAD_REACTORS
330
86CF
102
}
330
86CF
100
AcDbScale
 70
     0
300
8:1
140
8.0
141
1.0
290
     0
  0
SCALE
  5
86DF
102
{ACAD_REACTORS
330
86CF
102
}
330
86CF
100
AcDbScale
 70
     0
300
10:1
140
10.0
141
1.0
290
     0
  0
SCALE
  5
86E0
102
{ACAD_REACTORS
330
86CF
102
}
330
86CF
100
AcDbScale
 70
     0
300
100:1
140
100.0
141
1.0
290
     0
  0
ACDBSECTIONVIEWSTYLE
  5
8759
102
{ACAD_XDICTIONARY
360
880A
102
}
102
{ACAD_REACTORS
330
86E3
102
}
330
86E3
100
AcDbModelDocViewStyle
 70
     0
  3
Imperial24
290
     0
100
AcDbSectionViewStyle
 70
     0
 71
     0
 90
       78
 71
     1
340
10
 62
   256
 40
0.24
340
0
340
0
 62
   256
 40
0.24
300
I, O, Q, S, X, Z
 40
0.48
 90
        3
 40
0.18
 90
        1
 71
     2
340
15
 90
       25
 62
   256
340
15
 90
       50
 62
   256
 40
0.24
 40
0.0
 40
0.24
 71
     3
340
10
 62
   256
 40
0.24
 90
        1
 40
0.75
 90
        1
300
%<\AcVar ViewType \f "%tc1">% %<\AcVar ViewSectionStartId>%-%<\AcVar ViewSectionEndId>%\PSCALE %<\AcVar ViewScale \f "%sn">%
 71
     4
 62
   256
 62
   257
300
ANSI31
 40
1.0
 90
        0
290
     0
290
     0
 90
        6
 40
0.0
 40
1.570796326794896
 40
0.2617993877991494
 40
1.308996938995747
 40
-0.2617993877991494
 40
1.832595714594046
  0
ACDBSECTIONVIEWSTYLE
  5
86E4
102
{ACAD_XDICTIONARY
360
8746
102
}
102
{ACAD_REACTORS
330
86E3
102
}
330
86E3
100
AcDbModelDocViewStyle
 70
     0
  3
Metric50
290
     0
100
AcDbSectionViewStyle
 70
     0
 71
     0
 90
      102
 71
     1
340
10
 62
   256
 40
5.0
340
0
340
0
 62
   256
 40
5.0
300
I, O, Q, S, X, Z
 40
10.0
 90
        0
 40
2.5
 90
        0
 71
     2
340
15
 90
       25
 62
   256
340
15
 90
       50
 62
   256
 40
5.0
 40
2.5
 40
5.0
 71
     3
340
10
 62
   256
 40
5.0
 90
        0
 40
15.0
 90
        1
300
%<\AcVar ViewSectionStartId>%-%<\AcVar ViewSectionEndId>% (%<\AcVar ViewScale \f "%sn">%)
 71
     4
 62
   256
 62
   257
300
ANSI31
 40
1.0
 90
        0
290
     0
290
     0
 90
        6
 40
0.0
 40
1.570796326794896
 40
0.2617993877991494
 40
1.308996938995747
 40
-0.2617993877991494
 40
1.832595714594046
  0
TABLESTYLE
  5
86CE
102
{ACAD_XDICTIONARY
360
8883
102
}
102
{ACAD_REACTORS
330
86CD
102
}
330
86CD
100
AcDbTableStyle
280
     0
  3
Standard
 70
     0
 71
     0
 40
1.5
 41
1.5
280
     0
281
     0
  7
STANDARD
140
4.5
170
     2
 62
     0
 63
     7
283
     0
 90
      512
 91
        0
  1

274
    -2
284
     1
 64
     0
275
    -2
285
     1
 65
     0
276
    -2
286
     1
 66
     0
277
    -2
287
     1
 67
     0
278
    -2
288
     1
 68
     0
279
    -2
289
     1
 69
     0
  7
STANDARD
140
6.0
170
     5
 62
     0
 63
     7
283
     0
 90
      512
 91
        0
  1

274
    -2
284
     1
 64
     0
275
    -2
285
     1
 65
     0
276
    -2
286
     1
 66
     0
277
    -2
287
     1
 67
     0
278
    -2
288
     1
 68
     0
279
    -2
289
     1
 69
     0
  7
STANDARD
140
4.5
170
     5
 62
     0
 63
     7
283
     0
 90
      512
 91
        0
  1

274
    -2
284
     1
 64
     0
275
    -2
285
     1
 65
     0
276
    -2
286
     1
 66
     0
277
    -2
287
     1
 67
     0
278
    -2
288
     1
 68
     0
279
    -2
289
     1
 69
     0
  0
VISUALSTYLE
  5
86B9
102
{ACAD_REACTORS
330
86B3
102
}
330
86B3
100
AcDbVisualStyle
  2
2dWireframe
 70
     4
177
     3
291
     0
 70
    58
 90
        0
176
     1
 90
        2
176
     1
 90
        0
176
     1
 90
        0
176
     1
 40
0.6
176
     1
 40
30.0
176
     1
 62
     7
420
 16777215
176
     1
 90
        1
176
     1
 90
        4
176
     1
 62
     7
176
     1
 62
   257
176
     1
 90
        1
176
     1
 90
        1
176
     1
 40
1.0
176
     1
 90
        0
176
     1
 62
   257
176
     1
 40
1.0
176
     1
 90
        1
176
     1
 90
        6
176
     1
 90
        2
176
     1
 62
     7
176
     1
 90
        5
176
     1
 90
        0
176
     1
 90
        0
176
     1
290
     0
176
     1
 90
        1
176
     1
 40
0.0
176
     1
 90
        0
176
     1
290
     1
176
     1
290
     1
176
     1
290
     0
176
     1
290
     0
176
     1
290
     0
176
     1
290
     0
176
     1
290
     0
176
     1
290
     0
176
     1
290
     0
176
     1
 90
       50
176
     1
 40
0.0
176
     1
 40
1.0
176
     1
 90
        0
176
     1
 62
    18
420
        0
176
     1
 90
       50
176
     1
 90
        3
176
     1
 62
     5
420
      255
176
     1
290
     0
176
     1
 90
       50
176
     1
 90
       50
176
     1
 90
       50
176
     1
290
     0
176
     1
 90
       50
176
     1
 62
   256
176
     0
 40
1.0
176
     0
 90
        2
176
     1
  1
strokes_ogs.tif
176
     1
290
     0
176
     1
 40
1.0
176
     1
 40
1.0
176
     1
  0
VISUALSTYLE
  5
86B8
102
{ACAD_REACTORS
330
86B3
102
}
330
86B3
100
AcDbVisualStyle
  2
Basic
 70
     7
177
     3
291
     1
 70
    58
 90
        1
176
     1
 90
        0
176
     1
 90
        1
176
     1
 90
        0
176
     1
 40
0.6
176
     1
 40
30.0
176
     1
 62
     7
420
 16777215
176
     1
 90
        0
176
     1
 90
        4
176
     1
 62
     7
176
     1
 62
   257
176
     1
 90
        1
176
     1
 90
        1
176
     1
 40
1.0
176
     1
 90
        8
176
     1
 62
     7
176
     1
 40
1.0
176
     1
 90
        1
176
     1
 90
        6
176
     1
 90
        2
176
     1
 62
     7
176
     1
 90
        5
176
     1
 90
        0
176
     1
 90
        0
176
     1
290
     0
176
     1
 90
        1
176
     1
 40
0.0
176
     1
 90
        0
176
     1
290
     0
176
     1
290
     1
176
     1
290
     1
176
     1
290
     0
176
     1
290
     0
176
     1
290
     0
176
     1
290
     0
176
     1
290
     0
176
     1
290
     0
176
     1
 90
       50
176
     1
 40
0.0
176
     1
 40
1.0
176
     1
 90
        0
176
     1
 62
    18
420
        0
176
     1
 90
       50
176
     1
 90
        3
176
     1
 62
     5
420
      255
176
     1
290
     0
176
     1
 90
       50
176
     1
 90
       50
176
     1
 90
       50
176
     1
290
     0
176
     1
 90
       50
176
     1
 62
   256
176
     0
 40
1.0
176
     0
 90
        2
176
     1
  1
strokes_ogs.tif
176
     1
290
     0
176
     1
 40
1.0
176
     1
 40
1.0
176
     1
  0
VISUALSTYLE
  5
86BF
102
{ACAD_REACTORS
330
86B3
102
}
330
86B3
100
AcDbVisualStyle
  2
Brighten
 70
    12
177
     3
291
     1
 70
    58
 90
        2
176
     1
 90
        2
176
     1
 90
        0
176
     1
 90
        0
176
     1
 40
0.6
176
     1
 40
30.0
176
     1
 62
     7
420
 16777215
176
     1
 90
        1
176
     1
 90
        4
176
     1
 62
     7
176
     1
 62
   257
176
     1
 90
        1
176
     1
 90
        1
176
     1
 40
1.0
176
     1
 90
        8
176
     1
 62
     7
176
     1
 40
1.0
176
     1
 90
        1
176
     1
 90
        6
176
     1
 90
        2
176
     1
 62
     7
176
     1
 90
        5
176
     1
 90
        0
176
     1
 90
        0
176
     1
290
     0
176
     1
 90
        1
176
     1
 40
50.0
176
     1
 90
        0
176
     1
290
     0
176
     1
290
     1
176
     1
290
     1
176
     1
290
     0
176
     1
290
     0
176
     1
290
     0
176
     1
290
     0
176
     1
290
     0
176
     1
290
     0
176
     1
 90
       50
176
     1
 40
0.0
176
     1
 40
1.0
176
     1
 90
        0
176
     1
 62
    18
420
        0
176
     1
 90
       50
176
     1
 90
        3
176
     1
 62
     5
420
      255
176
     1
290
     0
176
     1
 90
       50
176
     1
 90
       50
176
     1
 90
       50
176
     1
290
     0
176
     1
 90
       50
176
     1
 62
   256
176
     0
 40
1.0
176
     0
 90
        2
176
     1
  1
strokes_ogs.tif
176
     1
290
     0
176
     1
 40
1.0
176
     1
 40
1.0
176
     1
  0
VISUALSTYLE
  5
86C3
102
{ACAD_REACTORS
330
86B3
102
}
330
86B3
100
AcDbVisualStyle
  2
ColorChange
 70
    16
177
     3
291
     1
 70
    58
 90
        2
176
     1
 90
        2
176
     1
 90
        3
176
     1
 90
        0
176
     1
 40
0.6
176
     1
 40
30.0
176
     1
 62
     8
420
  8421504
176
     1
 90
        1
176
     1
 90
        4
176
     1
 62
     7
176
     1
 62
   257
176
     1
 90
        1
176
     1
 90
        1
176
     1
 40
1.0
176
     1
 90
        8
176
     1
 62
     8
420
  8421504
176
     1
 40
1.0
176
     1
 90
        1
176
     1
 90
        6
176
     1
 90
        2
176
     1
 62
     7
176
     1
 90
        5
176
     1
 90
        0
176
     1
 90
        0
176
     1
290
     0
176
     1
 90
        1
176
     1
 40
0.0
176
     1
 90
        0
176
     1
290
     0
176
     1
290
     1
176
     1
290
     1
176
     1
290
     0
176
     1
290
     0
176
     1
290
     0
176
     1
290
     0
176
     1
290
     0
176
     1
290
     0
176
     1
 90
       50
176
     1
 40
0.0
176
     1
 40
1.0
176
     1
 90
        0
176
     1
 62
    18
420
        0
176
     1
 90
       50
176
     1
 90
        3
176
     1
 62
     5
420
      255
176
     1
290
     0
176
     1
 90
       50
176
     1
 90
       50
176
     1
 90
       50
176
     1
290
     0
176
     1
 90
       50
176
     1
 62
   256
176
     0
 40
1.0
176
     0
 90
        2
176
     1
  1
strokes_ogs.tif
176
     1
290
     0
176
     1
 40
1.0
176
     1
 40
1.0
176
     1
  0
VISUALSTYLE
  5
86BC
102
{ACAD_REACTORS
330
86B3
102
}
330
86B3
100
AcDbVisualStyle
  2
Conceptual
 70
     9
177
     3
291
     0
 70
    58
 90
        3
176
     1
 90
        2
176
     1
 90
        0
176
     1
 90
        0
176
     1
 40
0.6
176
     1
 40
30.0
176
     1
 62
     7
420
 16777215
176
     1
 90
        2
176
     1
 90
        2
176
     1
 62
     7
176
     1
 62
   257
176
     1
 90
        1
176
     1
 90
        1
176
     1
 40
179.0
176
     1
 90
        8
176
     1
 62
     7
176
     1
 40
1.0
176
     1
 90
        1
176
     1
 90
        6
176
     1
 90
        2
176
     1
 62
     7
176
     1
 90
        3
176
     1
 90
        0
176
     1
 90
        0
176
     1
290
     0
176
     1
 90
        1
176
     1
 40
0.0
176
     1
 90
        0
176
     1
290
     0
176
     1
290
     1
176
     1
290
     1
176
     1
290
     0
176
     1
290
     0
176
     1
290
     0
176
     1
290
     0
176
     1
290
     0
176
     1
290
     0
176
     1
 90
       50
176
     1
 40
0.0
176
     1
 40
1.0
176
     1
 90
        0
176
     1
 62
    18
420
        0
176
     1
 90
       50
176
     1
 90
        3
176
     1
 62
     5
420
      255
176
     1
290
     0
176
     1
 90
       50
176
     1
 90
       50
176
     1
 90
       50
176
     1
290
     0
176
     1
 90
       50
176
     1
 62
   256
176
     0
 40
1.0
176
     0
 90
        2
176
     1
  1
strokes_ogs.tif
176
     1
290
     0
176
     1
 40
1.0
176
     1
 40
1.0
176
     1
  0
VISUALSTYLE
  5
86BE
102
{ACAD_REACTORS
330
86B3
102
}
330
86B3
100
AcDbVisualStyle
  2
Dim
 70
    11
177
     3
291
     1
 70
    58
 90
        2
176
     1
 90
        2
176
     1
 90
        0
176
     1
 90
        0
176
     1
 40
0.6
176
     1
 40
30.0
176
     1
 62
     7
420
 16777215
176
     1
 90
        1
176
     1
 90
        4
176
     1
 62
     7
176
     1
 62
   257
176
     1
 90
        1
176
     1
 90
        1
176
     1
 40
1.0
176
     1
 90
        8
176
     1
 62
     7
176
     1
 40
1.0
176
     1
 90
        1
176
     1
 90
        6
176
     1
 90
        2
176
     1
 62
     7
176
     1
 90
        5
176
     1
 90
        0
176
     1
 90
        0
176
     1
290
     0
176
     1
 90
        1
176
     1
 40
-50.0
176
     1
 90
        0
176
     1
290
     0
176
     1
290
     1
176
     1
290
     1
176
     1
290
     0
176
     1
290
     0
176
     1
290
     0
176
     1
290
     0
176
     1
290
     0
176
     1
290
     0
176
     1
 90
       50
176
     1
 40
0.0
176
     1
 40
1.0
176
     1
 90
        0
176
     1
 62
    18
420
        0
176
     1
 90
       50
176
     1
 90
        3
176
     1
 62
     5
420
      255
176
     1
290
     0
176
     1
 90
       50
176
     1
 90
       50
176
     1
 90
       50
176
     1
290
     0
176
     1
 90
       50
176
     1
 62
   256
176
     0
 40
1.0
176
     0
 90
        2
176
     1
  1
strokes_ogs.tif
176
     1
290
     0
176
     1
 40
1.0
176
     1
 40
1.0
176
     1
  0
VISUALSTYLE
  5
86CB
102
{ACAD_REACTORS
330
86B3
102
}
330
86B3
100
AcDbVisualStyle
  2
EdgeColorOff
 70
    22
177
     3
291
     1
 70
    58
 90
        2
176
     0
 90
        2
176
     0
 90
        0
176
     0
 90
        0
176
     0
 40
0.6
176
     0
 40
30.0
176
     0
 62
     7
420
 16777215
176
     0
 90
        1
176
     0
 90
        4
176
     0
 62
     7
176
     0
 62
   257
176
     0
 90
        1
176
     0
 90
        1
176
     0
 40
1.0
176
     0
 90
        8
176
     2
 62
     7
176
     0
 40
1.0
176
     0
 90
        1
176
     0
 90
        6
176
     0
 90
        2
176
     0
 62
     7
176
     0
 90
        5
176
     0
 90
        0
176
     0
 90
        0
176
     0
290
     0
176
     0
 90
        1
176
     0
 40
0.0
176
     0
 90
        0
176
     0
290
     0
176
     0
290
     1
176
     0
290
     1
176
     0
290
     0
176
     0
290
     0
176
     0
290
     0
176
     0
290
     0
176
     0
290
     0
176
     0
290
     0
176
     0
 90
       50
176
     0
 40
0.0
176
     0
 40
1.0
176
     0
 90
        0
176
     0
 62
    18
420
        0
176
     0
 90
       50
176
     0
 90
        3
176
     0
 62
     5
420
      255
176
     0
290
     0
176
     0
 90
       50
176
     0
 90
       50
176
     0
 90
       50
176
     0
290
     0
176
     0
 90
       50
176
     0
 62
   256
176
     0
 40
1.0
176
     0
 90
        2
176
     0
  1
strokes_ogs.tif
176
     0
290
     0
176
     0
 40
1.0
176
     0
 40
1.0
176
     0
  0
VISUALSTYLE
  5
86C2
102
{ACAD_REACTORS
330
86B3
102
}
330
86B3
100
AcDbVisualStyle
  2
Facepattern
 70
    15
177
     3
291
     1
 70
    58
 90
        2
176
     1
 90
        2
176
     1
 90
        0
176
     1
 90
        0
176
     1
 40
0.6
176
     1
 40
30.0
176
     1
 62
     7
420
 16777215
176
     1
 90
        1
176
     1
 90
        4
176
     1
 62
     7
176
     1
 62
   257
176
     1
 90
        1
176
     1
 90
        1
176
     1
 40
1.0
176
     1
 90
        8
176
     1
 62
     7
176
     1
 40
1.0
176
     1
 90
        1
176
     1
 90
        6
176
     1
 90
        2
176
     1
 62
     7
176
     1
 90
        5
176
     1
 90
        0
176
     1
 90
        0
176
     1
290
     0
176
     1
 90
        1
176
     1
 40
0.0
176
     1
 90
        0
176
     1
290
     0
176
     1
290
     1
176
     1
290
     1
176
     1
290
     0
176
     1
290
     0
176
     1
290
     0
176
     1
290
     0
176
     1
290
     0
176
     1
290
     0
176
     1
 90
       50
176
     1
 40
0.0
176
     1
 40
1.0
176
     1
 90
        0
176
     1
 62
    18
420
        0
176
     1
 90
       50
176
     1
 90
        3
176
     1
 62
     5
420
      255
176
     1
290
     0
176
     1
 90
       50
176
     1
 90
       50
176
     1
 90
       50
176
     1
290
     0
176
     1
 90
       50
176
     1
 62
   256
176
     0
 40
1.0
176
     0
 90
        2
176
     1
  1
strokes_ogs.tif
176
     1
290
     0
176
     1
 40
1.0
176
     1
 40
1.0
176
     1
  0
VISUALSTYLE
  5
86B4
102
{ACAD_REACTORS
330
86B3
102
}
330
86B3
100
AcDbVisualStyle
  2
Flat
 70
     0
177
     3
291
     1
 70
    58
 90
        2
176
     1
 90
        1
176
     1
 90
        1
176
     1
 90
        2
176
     1
 40
0.6
176
     1
 40
30.0
176
     1
 62
     7
420
 16777215
176
     1
 90
        0
176
     1
 90
        0
176
     1
 62
     7
176
     1
 62
   257
176
     1
 90
        1
176
     1
 90
        1
176
     1
 40
1.0
176
     1
 90
        8
176
     1
 62
     7
176
     1
 40
1.0
176
     1
 90
        1
176
     1
 90
        6
176
     1
 90
        2
176
     1
 62
     7
176
     1
 90
        5
176
     1
 90
        0
176
     1
 90
        0
176
     1
290
     0
176
     1
 90
       13
176
     1
 40
0.0
176
     1
 90
        0
176
     1
290
     0
176
     1
290
     1
176
     1
290
     1
176
     1
290
     0
176
     1
290
     0
176
     1
290
     0
176
     1
290
     0
176
     1
290
     0
176
     1
290
     0
176
     1
 90
       50
176
     1
 40
0.0
176
     1
 40
1.0
176
     1
 90
        0
176
     1
 62
    18
420
        0
176
     1
 90
       50
176
     1
 90
        3
176
     1
 62
     5
420
      255
176
     1
290
     0
176
     1
 90
       50
176
     1
 90
       50
176
     1
 90
       50
176
     1
290
     0
176
     1
 90
       50
176
     1
 62
   256
176
     0
 40
1.0
176
     0
 90
        2
176
     1
  1
strokes_ogs.tif
176
     1
290
     0
176
     1
 40
1.0
176
     1
 40
1.0
176
     1
  0
VISUALSTYLE
  5
86B5
102
{ACAD_REACTORS
330
86B3
102
}
330
86B3
100
AcDbVisualStyle
  2
FlatWithEdges
 70
     1
177
     3
291
     1
 70
    58
 90
        2
176
     1
 90
        1
176
     1
 90
        1
176
     1
 90
        2
176
     1
 40
0.6
176
     1
 40
30.0
176
     1
 62
     7
420
 16777215
176
     1
 90
        1
176
     1
 90
        0
176
     1
 62
     7
176
     1
 62
   257
176
     1
 90
        1
176
     1
 90
        1
176
     1
 40
1.0
176
     1
 90
        0
176
     1
 62
   257
176
     1
 40
1.0
176
     1
 90
        1
176
     1
 90
        6
176
     1
 90
        2
176
     1
 62
     7
176
     1
 90
        5
176
     1
 90
        0
176
     1
 90
        0
176
     1
290
     0
176
     1
 90
       13
176
     1
 40
0.0
176
     1
 90
        0
176
     1
290
     0
176
     1
290
     1
176
     1
290
     1
176
     1
290
     0
176
     1
290
     0
176
     1
290
     0
176
     1
290
     0
176
     1
290
     0
176
     1
290
     0
176
     1
 90
       50
176
     1
 40
0.0
176
     1
 40
1.0
176
     1
 90
        0
176
     1
 62
    18
420
        0
176
     1
 90
       50
176
     1
 90
        3
176
     1
 62
     5
420
      255
176
     1
290
     0
176
     1
 90
       50
176
     1
 90
       50
176
     1
 90
       50
176
     1
290
     0
176
     1
 90
       50
176
     1
 62
   256
176
     0
 40
1.0
176
     0
 90
        2
176
     1
  1
strokes_ogs.tif
176
     1
290
     0
176
     1
 40
1.0
176
     1
 40
1.0
176
     1
  0
VISUALSTYLE
  5
86B6
102
{ACAD_REACTORS
330
86B3
102
}
330
86B3
100
AcDbVisualStyle
  2
Gouraud
 70
     2
177
     3
291
     1
 70
    58
 90
        2
176
     1
 90
        2
176
     1
 90
        1
176
     1
 90
        2
176
     1
 40
0.6
176
     1
 40
30.0
176
     1
 62
     7
420
 16777215
176
     1
 90
        0
176
     1
 90
        0
176
     1
 62
     7
176
     1
 62
   257
176
     1
 90
        1
176
     1
 90
        1
176
     1
 40
1.0
176
     1
 90
        0
176
     1
 62
     7
176
     1
 40
1.0
176
     1
 90
        1
176
     1
 90
        6
176
     1
 90
        2
176
     1
 62
     7
176
     1
 90
        5
176
     1
 90
        0
176
     1
 90
        0
176
     1
290
     0
176
     1
 90
       13
176
     1
 40
0.0
176
     1
 90
        0
176
     1
290
     0
176
     1
290
     1
176
     1
290
     1
176
     1
290
     0
176
     1
290
     0
176
     1
290
     0
176
     1
290
     0
176
     1
290
     0
176
     1
290
     0
176
     1
 90
       50
176
     1
 40
0.0
176
     1
 40
1.0
176
     1
 90
        0
176
     1
 62
    18
420
        0
176
     1
 90
       50
176
     1
 90
        3
176
     1
 62
     5
420
      255
176
     1
290
     0
176
     1
 90
       50
176
     1
 90
       50
176
     1
 90
       50
176
     1
290
     0
176
     1
 90
       50
176
     1
 62
   256
176
     0
 40
1.0
176
     0
 90
        2
176
     1
  1
strokes_ogs.tif
176
     1
290
     0
176
     1
 40
1.0
176
     1
 40
1.0
176
     1
  0
VISUALSTYLE
  5
86B7
102
{ACAD_REACTORS
330
86B3
102
}
330
86B3
100
AcDbVisualStyle
  2
GouraudWithEdges
 70
     3
177
     3
291
     1
 70
    58
 90
        2
176
     1
 90
        2
176
     1
 90
        1
176
     1
 90
        2
176
     1
 40
0.6
176
     1
 40
30.0
176
     1
 62
     7
420
 16777215
176
     1
 90
        1
176
     1
 90
        0
176
     1
 62
     7
176
     1
 62
   257
176
     1
 90
        1
176
     1
 90
        1
176
     1
 40
1.0
176
     1
 90
        0
176
     1
 62
   257
176
     1
 40
1.0
176
     1
 90
        1
176
     1
 90
        6
176
     1
 90
        2
176
     1
 62
     7
176
     1
 90
        5
176
     1
 90
        0
176
     1
 90
        0
176
     1
290
     0
176
     1
 90
       13
176
     1
 40
0.0
176
     1
 90
        0
176
     1
290
     0
176
     1
290
     1
176
     1
290
     1
176
     1
290
     0
176
     1
290
     0
176
     1
290
     0
176
     1
290
     0
176
     1
290
     0
176
     1
290
     0
176
     1
 90
       50
176
     1
 40
0.0
176
     1
 40
1.0
176
     1
 90
        0
176
     1
 62
    18
420
        0
176
     1
 90
       50
176
     1
 90
        3
176
     1
 62
     5
420
      255
176
     1
290
     0
176
     1
 90
       50
176
     1
 90
       50
176
     1
 90
       50
176
     1
290
     0
176
     1
 90
       50
176
     1
 62
   256
176
     0
 40
1.0
176
     0
 90
        2
176
     1
  1
strokes_ogs.tif
176
     1
290
     0
176
     1
 40
1.0
176
     1
 40
1.0
176
     1
  0
VISUALSTYLE
  5
86BB
102
{ACAD_REACTORS
330
86B3
102
}
330
86B3
100
AcDbVisualStyle
  2
Hidden
 70
     6
177
     3
291
     0
 70
    58
 90
        1
176
     1
 90
        2
176
     1
 90
        2
176
     1
 90
        0
176
     1
 40
0.6
176
     1
 40
30.0
176
     1
 62
     7
420
 16777215
176
     1
 90
        2
176
     1
 90
        2
176
     1
 62
     7
176
     1
 62
   257
176
     1
 90
        2
176
     1
 90
        1
176
     1
 40
40.0
176
     1
 90
        0
176
     1
 62
   257
176
     1
 40
1.0
176
     1
 90
        1
176
     1
 90
        6
176
     1
 90
        2
176
     1
 62
     7
176
     1
 90
        3
176
     1
 90
        0
176
     1
 90
        0
176
     1
290
     0
176
     1
 90
        1
176
     1
 40
0.0
176
     1
 90
        0
176
     1
290
     0
176
     1
290
     1
176
     1
290
     1
176
     1
290
     0
176
     1
290
     0
176
     1
290
     0
176
     1
290
     0
176
     1
290
     0
176
     1
290
     0
176
     1
 90
       50
176
     1
 40
0.0
176
     1
 40
1.0
176
     1
 90
        0
176
     1
 62
    18
420
        0
176
     1
 90
       50
176
     1
 90
        3
176
     1
 62
     5
420
      255
176
     1
290
     0
176
     1
 90
       50
176
     1
 90
       50
176
     1
 90
       50
176
     1
290
     0
176
     1
 90
       50
176
     1
 62
   256
176
     0
 40
1.0
176
     0
 90
        2
176
     1
  1
strokes_ogs.tif
176
     1
290
     0
176
     1
 40
1.0
176
     1
 40
1.0
176
     1
  0
VISUALSTYLE
  5
86C9
102
{ACAD_REACTORS
330
86B3
102
}
330
86B3
100
AcDbVisualStyle
  2
JitterOff
 70
    20
177
     3
291
     1
 70
    58
 90
        2
176
     0
 90
        2
176
     0
 90
        0
176
     0
 90
        0
176
     0
 40
0.6
176
     0
 40
30.0
176
     0
 62
     7
420
 16777215
176
     0
 90
        1
176
     0
 90
        4
176
     0
 62
     7
176
     0
 62
   257
176
     0
 90
        1
176
     0
 90
        1
176
     0
 40
1.0
176
     0
 90
       10
176
     2
 62
     7
176
     0
 40
1.0
176
     0
 90
        1
176
     0
 90
        6
176
     0
 90
        2
176
     0
 62
     7
176
     0
 90
        5
176
     0
 90
        0
176
     0
 90
        0
176
     0
290
     0
176
     0
 90
        1
176
     0
 40
0.0
176
     0
 90
        0
176
     0
290
     0
176
     0
290
     1
176
     0
290
     1
176
     0
290
     0
176
     0
290
     0
176
     0
290
     0
176
     0
290
     0
176
     0
290
     0
176
     0
290
     0
176
     0
 90
       50
176
     0
 40
0.0
176
     0
 40
1.0
176
     0
 90
        0
176
     0
 62
    18
420
        0
176
     0
 90
       50
176
     0
 90
        3
176
     0
 62
     5
420
      255
176
     0
290
     0
176
     0
 90
       50
176
     0
 90
       50
176
     0
 90
       50
176
     0
290
     0
176
     0
 90
       50
176
     0
 62
   256
176
     0
 40
1.0
176
     0
 90
        2
176
     0
  1
strokes_ogs.tif
176
     0
290
     0
176
     0
 40
1.0
176
     0
 40
1.0
176
     0
  0
VISUALSTYLE
  5
86C1
102
{ACAD_REACTORS
330
86B3
102
}
330
86B3
100
AcDbVisualStyle
  2
Linepattern
 70
    14
177
     3
291
     1
 70
    58
 90
        2
176
     1
 90
        2
176
     1
 90
        0
176
     1
 90
        0
176
     1
 40
0.6
176
     1
 40
30.0
176
     1
 62
     7
420
 16777215
176
     1
 90
        1
176
     1
 90
        4
176
     1
 62
     7
176
     1
 62
   257
176
     1
 90
        7
176
     1
 90
        7
176
     1
 40
1.0
176
     1
 90
        8
176
     1
 62
     7
176
     1
 40
1.0
176
     1
 90
        1
176
     1
 90
        6
176
     1
 90
        2
176
     1
 62
     7
176
     1
 90
        5
176
     1
 90
        0
176
     1
 90
        0
176
     1
290
     0
176
     1
 90
        1
176
     1
 40
0.0
176
     1
 90
        0
176
     1
290
     0
176
     1
290
     1
176
     1
290
     1
176
     1
290
     0
176
     1
290
     0
176
     1
290
     0
176
     1
290
     0
176
     1
290
     0
176
     1
290
     0
176
     1
 90
       50
176
     1
 40
0.0
176
     1
 40
1.0
176
     1
 90
        0
176
     1
 62
    18
420
        0
176
     1
 90
       50
176
     1
 90
        3
176
     1
 62
     5
420
      255
176
     1
290
     0
176
     1
 90
       50
176
     1
 90
       50
176
     1
 90
       50
176
     1
290
     0
176
     1
 90
       50
176
     1
 62
   256
176
     0
 40
1.0
176
     0
 90
        2
176
     1
  1
strokes_ogs.tif
176
     1
290
     0
176
     1
 40
1.0
176
     1
 40
1.0
176
     1
  0
VISUALSTYLE
  5
86CA
102
{ACAD_REACTORS
330
86B3
102
}
330
86B3
100
AcDbVisualStyle
  2
OverhangOff
 70
    21
177
     3
291
     1
 70
    58
 90
        2
176
     0
 90
        2
176
     0
 90
        0
176
     0
 90
        0
176
     0
 40
0.6
176
     0
 40
30.0
176
     0
 62
     7
420
 16777215
176
     0
 90
        1
176
     0
 90
        4
176
     0
 62
     7
176
     0
 62
   257
176
     0
 90
        1
176
     0
 90
        1
176
     0
 40
1.0
176
     0
 90
        9
176
     2
 62
     7
176
     0
 40
1.0
176
     0
 90
        1
176
     0
 90
        6
176
     0
 90
        2
176
     0
 62
     7
176
     0
 90
        5
176
     0
 90
        0
176
     0
 90
        0
176
     0
290
     0
176
     0
 90
        1
176
     0
 40
0.0
176
     0
 90
        0
176
     0
290
     0
176
     0
290
     1
176
     0
290
     1
176
     0
290
     0
176
     0
290
     0
176
     0
290
     0
176
     0
290
     0
176
     0
290
     0
176
     0
290
     0
176
     0
 90
       50
176
     0
 40
0.0
176
     0
 40
1.0
176
     0
 90
        0
176
     0
 62
    18
420
        0
176
     0
 90
       50
176
     0
 90
        3
176
     0
 62
     5
420
      255
176
     0
290
     0
176
     0
 90
       50
176
     0
 90
       50
176
     0
 90
       50
176
     0
290
     0
176
     0
 90
       50
176
     0
 62
   256
176
     0
 40
1.0
176
     0
 90
        2
176
     0
  1
strokes_ogs.tif
176
     0
290
     0
176
     0
 40
1.0
176
     0
 40
1.0
176
     0
  0
VISUALSTYLE
  5
86BD
102
{ACAD_REACTORS
330
86B3
102
}
330
86B3
100
AcDbVisualStyle
  2
Realistic
 70
     8
177
     3
291
     0
 70
    58
 90
        2
176
     1
 90
        3
176
     1
 90
        0
176
     1
 90
        2
176
     1
 40
0.6
176
     1
 40
30.0
176
     1
 62
     7
420
 16777215
176
     1
 90
        0
176
     1
 90
        0
176
     1
 62
     7
176
     1
 62
   257
176
     1
 90
        1
176
     1
 90
        1
176
     1
 40
1.0
176
     1
 90
        8
176
     1
 62
   257
176
     1
 40
1.0
176
     1
 90
        1
176
     1
 90
        6
176
     1
 90
        2
176
     1
 62
     7
176
     1
 90
        3
176
     1
 90
        0
176
     1
 90
        0
176
     1
290
     0
176
     1
 90
       13
176
     1
 40
0.0
176
     1
 90
        0
176
     1
290
     0
176
     1
290
     1
176
     1
290
     1
176
     1
290
     0
176
     1
290
     0
176
     1
290
     0
176
     1
290
     0
176
     1
290
     0
176
     1
290
     0
176
     1
 90
       50
176
     1
 40
0.0
176
     1
 40
1.0
176
     1
 90
        0
176
     1
 62
    18
420
        0
176
     1
 90
       50
176
     1
 90
        3
176
     1
 62
     5
420
      255
176
     1
290
     0
176
     1
 90
       50
176
     1
 90
       50
176
     1
 90
       50
176
     1
290
     0
176
     1
 90
       50
176
     1
 62
   256
176
     0
 40
1.0
176
     0
 90
        2
176
     1
  1
strokes_ogs.tif
176
     1
290
     0
176
     1
 40
1.0
176
     1
 40
1.0
176
     1
  0
VISUALSTYLE
  5
86C8
102
{ACAD_REACTORS
330
86B3
102
}
330
86B3
100
AcDbVisualStyle
  2
Shaded
 70
    27
177
     3
291
     0
 70
    58
 90
        2
176
     1
 90
        2
176
     1
 90
        1
176
     1
 90
        2
176
     1
 40
0.6
176
     1
 40
30.0
176
     1
 62
     7
420
 16777215
176
     1
 90
        0
176
     1
 90
        4
176
     1
 62
     7
176
     1
 62
   257
176
     1
 90
        1
176
     1
 90
        1
176
     1
 40
1.0
176
     1
 90
        8
176
     1
 62
   257
176
     1
 40
1.0
176
     1
 90
        1
176
     1
 90
        6
176
     1
 90
        2
176
     1
 62
     8
420
  7895160
176
     1
 90
        3
176
     1
 90
        0
176
     1
 90
        0
176
     1
290
     0
176
     1
 90
        5
176
     1
 40
0.0
176
     1
 90
        0
176
     1
290
     0
176
     1
290
     1
176
     1
290
     1
176
     1
290
     0
176
     1
290
     0
176
     1
290
     0
176
     1
290
     0
176
     1
290
     0
176
     1
290
     0
176
     1
 90
       50
176
     1
 40
0.0
176
     1
 40
1.0
176
     1
 90
        0
176
     1
 62
    18
420
        0
176
     1
 90
       50
176
     1
 90
        3
176
     1
 62
     5
420
      255
176
     1
290
     0
176
     1
 90
       50
176
     1
 90
       50
176
     1
 90
       50
176
     1
290
     0
176
     1
 90
       50
176
     1
 62
   256
176
     0
 40
1.0
176
     0
 90
        2
176
     1
  1
strokes_ogs.tif
176
     1
290
     0
176
     1
 40
1.0
176
     1
 40
1.0
176
     1
  0
VISUALSTYLE
  5
86C7
102
{ACAD_REACTORS
330
86B3
102
}
330
86B3
100
AcDbVisualStyle
  2
Shaded with edges
 70
    26
177
     3
291
     0
 70
    58
 90
        2
176
     1
 90
        2
176
     1
 90
        1
176
     1
 90
        2
176
     1
 40
0.6
176
     1
 40
30.0
176
     1
 62
     7
420
 16777215
176
     1
 90
        1
176
     1
 90
       10
176
     1
 62
     7
176
     1
 62
   257
176
     1
 90
        2
176
     1
 90
        1
176
     1
 40
1.0
176
     1
 90
        8
176
     1
 62
   257
176
     1
 40
1.0
176
     1
 90
        1
176
     1
 90
        6
176
     1
 90
        2
176
     1
 62
     7
176
     1
 90
        3
176
     1
 90
        0
176
     1
 90
        0
176
     1
290
     0
176
     1
 90
        5
176
     1
 40
0.0
176
     1
 90
        0
176
     1
290
     0
176
     1
290
     1
176
     1
290
     1
176
     1
290
     0
176
     1
290
     0
176
     1
290
     0
176
     1
290
     0
176
     1
290
     0
176
     1
290
     0
176
     1
 90
       50
176
     1
 40
0.0
176
     1
 40
1.0
176
     1
 90
        0
176
     1
 62
    18
420
        0
176
     1
 90
       50
176
     1
 90
        3
176
     1
 62
     5
420
      255
176
     1
290
     0
176
     1
 90
       50
176
     1
 90
       50
176
     1
 90
       50
176
     1
290
     0
176
     1
 90
       50
176
     1
 62
   256
176
     0
 40
1.0
176
     0
 90
        2
176
     1
  1
strokes_ogs.tif
176
     1
290
     0
176
     1
 40
1.0
176
     1
 40
1.0
176
     1
  0
VISUALSTYLE
  5
86C4
102
{ACAD_REACTORS
330
86B3
102
}
330
86B3
100
AcDbVisualStyle
  2
Shades of Gray
 70
    23
177
     3
291
     0
 70
    58
 90
        2
176
     1
 90
        2
176
     1
 90
        3
176
     1
 90
        0
176
     1
 40
0.6
176
     1
 40
30.0
176
     1
 62
     7
420
 16777215
176
     1
 90
        2
176
     1
 90
        2
176
     1
 62
     7
176
     1
 62
     7
176
     1
 90
        1
176
     1
 90
        1
176
     1
 40
40.0
176
     1
 90
        8
176
     1
 62
     7
176
     1
 40
1.0
176
     1
 90
        1
176
     1
 90
        6
176
     1
 90
        2
176
     1
 62
     7
176
     1
 90
        3
176
     1
 90
        0
176
     1
 90
        0
176
     1
290
     0
176
     1
 90
        1
176
     1
 40
0.0
176
     1
 90
        0
176
     1
290
     0
176
     1
290
     1
176
     1
290
     1
176
     1
290
     0
176
     1
290
     0
176
     1
290
     0
176
     1
290
     0
176
     1
290
     0
176
     1
290
     0
176
     1
 90
       50
176
     1
 40
0.0
176
     1
 40
1.0
176
     1
 90
        0
176
     1
 62
    18
420
        0
176
     1
 90
       50
176
     1
 90
        3
176
     1
 62
     5
420
      255
176
     1
290
     0
176
     1
 90
       50
176
     1
 90
       50
176
     1
 90
       50
176
     1
290
     0
176
     1
 90
       50
176
     1
 62
   256
176
     0
 40
1.0
176
     0
 90
        2
176
     1
  1
strokes_ogs.tif
176
     1
290
     0
176
     1
 40
1.0
176
     1
 40
1.0
176
     1
  0
VISUALSTYLE
  5
86C5
102
{ACAD_REACTORS
330
86B3
102
}
330
86B3
100
AcDbVisualStyle
  2
Sketchy
 70
    24
177
     3
291
     0
 70
    58
 90
        1
176
     1
 90
        2
176
     1
 90
        2
176
     1
 90
        0
176
     1
 40
0.6
176
     1
 40
30.0
176
     1
 62
     7
420
 16777215
176
     1
 90
        2
176
     1
 90
        2
176
     1
 62
     7
176
     1
 62
     7
176
     1
 90
        1
176
     1
 90
        1
176
     1
 40
40.0
176
     1
 90
       11
176
     1
 62
     7
176
     1
 40
1.0
176
     1
 90
        1
176
     1
 90
        6
176
     1
 90
        2
176
     1
 62
     7
176
     1
 90
        6
176
     1
 90
        0
176
     1
 90
        0
176
     1
290
     0
176
     1
 90
        1
176
     1
 40
0.0
176
     1
 90
        0
176
     1
290
     0
176
     1
290
     1
176
     1
290
     1
176
     1
290
     0
176
     1
290
     0
176
     1
290
     0
176
     1
290
     0
176
     1
290
     0
176
     1
290
     0
176
     1
 90
       50
176
     1
 40
0.0
176
     1
 40
1.0
176
     1
 90
        0
176
     1
 62
    18
420
        0
176
     1
 90
       50
176
     1
 90
        3
176
     1
 62
     5
420
      255
176
     1
290
     0
176
     1
 90
       50
176
     1
 90
       50
176
     1
 90
       50
176
     1
290
     0
176
     1
 90
       50
176
     1
 62
   256
176
     0
 40
1.0
176
     0
 90
        2
176
     1
  1
strokes_ogs.tif
176
     1
290
     0
176
     1
 40
1.0
176
     1
 40
1.0
176
     1
  0
VISUALSTYLE
  5
86C0
102
{ACAD_REACTORS
330
86B3
102
}
330
86B3
100
AcDbVisualStyle
  2
Thicken
 70
    13
177
     3
291
     1
 70
    58
 90
        2
176
     1
 90
        2
176
     1
 90
        0
176
     1
 90
        0
176
     1
 40
0.6
176
     1
 40
30.0
176
     1
 62
     7
420
 16777215
176
     1
 90
        1
176
     1
 90
        4
176
     1
 62
     7
176
     1
 62
   257
176
     1
 90
        1
176
     1
 90
        1
176
     1
 40
1.0
176
     1
 90
       12
176
     1
 62
     7
176
     1
 40
1.0
176
     1
 90
        1
176
     1
 90
        6
176
     1
 90
        2
176
     1
 62
     7
176
     1
 90
        5
176
     1
 90
        0
176
     1
 90
        0
176
     1
290
     0
176
     1
 90
        1
176
     1
 40
0.0
176
     1
 90
        0
176
     1
290
     0
176
     1
290
     1
176
     1
290
     1
176
     1
290
     0
176
     1
290
     0
176
     1
290
     0
176
     1
290
     0
176
     1
290
     0
176
     1
290
     0
176
     1
 90
       50
176
     1
 40
0.0
176
     1
 40
1.0
176
     1
 90
        0
176
     1
 62
    18
420
        0
176
     1
 90
       50
176
     1
 90
        3
176
     1
 62
     5
420
      255
176
     1
290
     0
176
     1
 90
       50
176
     1
 90
       50
176
     1
 90
       50
176
     1
290
     0
176
     1
 90
       50
176
     1
 62
   256
176
     0
 40
1.0
176
     0
 90
        2
176
     1
  1
strokes_ogs.tif
176
     1
290
     0
176
     1
 40
1.0
176
     1
 40
1.0
176
     1
  0
VISUALSTYLE
  5
86BA
102
{ACAD_REACTORS
330
86B3
102
}
330
86B3
100
AcDbVisualStyle
  2
Wireframe
 70
     5
177
     3
291
     0
 70
    58
 90
        0
176
     1
 90
        2
176
     1
 90
        0
176
     1
 90
        0
176
     1
 40
0.6
176
     1
 40
30.0
176
     1
 62
     7
420
 16777215
176
     1
 90
        1
176
     1
 90
        4
176
     1
 62
     7
176
     1
 62
   257
176
     1
 90
        1
176
     1
 90
        1
176
     1
 40
1.0
176
     1
 90
        0
176
     1
 62
   257
176
     1
 40
1.0
176
     1
 90
        1
176
     1
 90
        6
176
     1
 90
        2
176
     1
 62
     7
176
     1
 90
        3
176
     1
 90
        0
176
     1
 90
        0
176
     1
290
     0
176
     1
 90
        1
176
     1
 40
0.0
176
     1
 90
        0
176
     1
290
     0
176
     1
290
     1
176
     1
290
     1
176
     1
290
     0
176
     1
290
     0
176
     1
290
     0
176
     1
290
     0
176
     1
290
     0
176
     1
290
     0
176
     1
 90
       50
176
     1
 40
0.0
176
     1
 40
1.0
176
     1
 90
        0
176
     1
 62
    18
420
        0
176
     1
 90
       50
176
     1
 90
        3
176
     1
 62
     5
420
      255
176
     1
290
     0
176
     1
 90
       50
176
     1
 90
       50
176
     1
 90
       50
176
     1
290
     0
176
     1
 90
       50
176
     1
 62
   256
176
     0
 40
1.0
176
     0
 90
        2
176
     1
  1
strokes_ogs.tif
176
     1
290
     0
176
     1
 40
1.0
176
     1
 40
1.0
176
     1
  0
VISUALSTYLE
  5
86C6
102
{ACAD_REACTORS
330
86B3
102
}
330
86B3
100
AcDbVisualStyle
  2
X-Ray
 70
    25
177
     3
291
     0
 70
    58
 90
        2
176
     1
 90
        2
176
     1
 90
        1
176
     1
 90
        1
176
     1
 40
0.5
176
     1
 40
30.0
176
     1
 62
     7
420
 16777215
176
     1
 90
        1
176
     1
 90
        0
176
     1
 62
     7
176
     1
 62
   257
176
     1
 90
        1
176
     1
 90
        1
176
     1
 40
1.0
176
     1
 90
        8
176
     1
 62
     7
176
     1
 40
1.0
176
     1
 90
        1
176
     1
 90
        6
176
     1
 90
        2
176
     1
 62
     7
176
     1
 90
        3
176
     1
 90
        0
176
     1
 90
        0
176
     1
290
     0
176
     1
 90
       13
176
     1
 40
0.0
176
     1
 90
        0
176
     1
290
     0
176
     1
290
     1
176
     1
290
     1
176
     1
290
     0
176
     1
290
     0
176
     1
290
     0
176
     1
290
     0
176
     1
290
     0
176
     1
290
     0
176
     1
 90
       50
176
     1
 40
0.0
176
     1
 40
1.0
176
     1
 90
        0
176
     1
 62
    18
420
        0
176
     1
 90
       50
176
     1
 90
        3
176
     1
 62
     5
420
      255
176
     1
290
     0
176
     1
 90
       50
176
     1
 90
       50
176
     1
 90
       50
176
     1
290
     0
176
     1
 90
       50
176
     1
 62
   256
176
     0
 40
1.0
176
     0
 90
        2
176
     1
  1
strokes_ogs.tif
176
     1
290
     0
176
     1
 40
1.0
176
     1
 40
1.0
176
     1
  0
DICTIONARYVAR
  5
8751
102
{ACAD_REACTORS
330
874B
102
}
330
874B
100
DictionaryVariables
280
     0
  1
1:1
  0
DICTIONARYVAR
  5
874D
102
{ACAD_REACTORS
330
874B
102
}
330
874B
100
DictionaryVariables
280
     0
  1
STANDARD
  0
DICTIONARYVAR
  5
874C
102
{ACAD_REACTORS
330
874B
102
}
330
874B
100
DictionaryVariables
280
     0
  1
STANDARD
  0
DICTIONARYVAR
  5
874E
102
{ACAD_REACTORS
330
874B
102
}
330
874B
100
DictionaryVariables
280
     0
  1
Metric50
  0
DICTIONARYVAR
  5
874F
102
{ACAD_REACTORS
330
874B
102
}
330
874B
100
DictionaryVariables
280
     0
  1
Metric50
  0
DICTIONARYVAR
  5
8753
102
{ACAD_REACTORS
330
874B
102
}
330
874B
100
DictionaryVariables
280
     0
  1
1
  0
DICTIONARYVAR
  5
8754
102
{ACAD_REACTORS
330
874B
102
}
330
874B
100
DictionaryVariables
280
     0
  1
15
  0
DICTIONARYVAR
  5
8752
102
{ACAD_REACTORS
330
874B
102
}
330
874B
100
DictionaryVariables
280
     0
  1
0
  0
DICTIONARYVAR
  5
8750
102
{ACAD_REACTORS
330
874B
102
}
330
874B
100
DictionaryVariables
280
     0
  1
0
  0
DICTIONARY
  5
880C
330
875A
100
AcDbDictionary
280
     1
281
     1
  3
ACAD_XREC_ROUNDTRIP
360
8888
  0
DICTIONARY
  5
8748
330
86E6
100
AcDbDictionary
280
     1
281
     1
  3
ACAD_XREC_ROUNDTRIP
360
8886
  0
DICTIONARY
  5
86A4
330
86A3
100
AcDbDictionary
280
     1
281
     1
  3
BUMPTILE
360
86A6
  3
DIFFUSETILE
360
86A5
  3
OPACITYTILE
360
86A9
  3
REFLECTIONTILE
360
86A8
  3
REFRACTIONTILE
360
86AA
  3
SPECULARTILE
360
86A7
  0
DICTIONARY
  5
869C
330
869B
100
AcDbDictionary
280
     1
281
     1
  3
BUMPTILE
360
869E
  3
DIFFUSETILE
360
869D
  3
OPACITYTILE
360
86A1
  3
REFLECTIONTILE
360
86A0
  3
REFRACTIONTILE
360
86A2
  3
SPECULARTILE
360
869F
  0
DICTIONARY
  5
86AC
330
86AB
100
AcDbDictionary
280
     1
281
     1
  3
BUMPTILE
360
86AE
  3
DIFFUSETILE
360
86AD
  3
OPACITYTILE
360
86B1
  3
REFLECTIONTILE
360
86B0
  3
REFRACTIONTILE
360
86B2
  3
SPECULARTILE
360
86AF
  0
DICTIONARY
  5
880A
330
8759
100
AcDbDictionary
280
     1
281
     1
  3
ACAD_XREC_ROUNDTRIP
360
8887
  0
DICTIONARY
  5
8746
330
86E4
100
AcDbDictionary
280
     1
281
     1
  3
ACAD_XREC_ROUNDTRIP
360
8885
  0
DICTIONARY
  5
8883
330
86CE
100
AcDbDictionary
280
     1
281
     1
  3
ACAD_ROUNDTRIP_2008_TABLESTYLE_CELLSTYLEMAP
360
8884
  0
XRECORD
  5
8888
102
{ACAD_REACTORS
330
880C
102
}
330
880C
100
AcDbXrecord
280
     1
102
DISPLAYNAME
  1
Imperial24
102
FLAGS
 90
        0
  0
XRECORD
  5
8886
102
{ACAD_REACTORS
330
8748
102
}
330
8748
100
AcDbXrecord
280
     1
102
DISPLAYNAME
  1
Metric50
102
FLAGS
 90
        0
  0
XRECORD
  5
86A6
102
{ACAD_REACTORS
330
86A4
102
}
330
86A4
100
AcDbXrecord
280
     1
270
     1
271
     1
  0
XRECORD
  5
86A5
102
{ACAD_REACTORS
330
86A4
102
}
330
86A4
100
AcDbXrecord
280
     1
270
     1
271
     1
  0
XRECORD
  5
86A9
102
{ACAD_REACTORS
330
86A4
102
}
330
86A4
100
AcDbXrecord
280
     1
270
     1
271
     1
  0
XRECORD
  5
86A8
102
{ACAD_REACTORS
330
86A4
102
}
330
86A4
100
AcDbXrecord
280
     1
270
     1
271
     1
  0
XRECORD
  5
86AA
102
{ACAD_REACTORS
330
86A4
102
}
330
86A4
100
AcDbXrecord
280
     1
270
     1
271
     1
  0
XRECORD
  5
86A7
102
{ACAD_REACTORS
330
86A4
102
}
330
86A4
100
AcDbXrecord
280
     1
270
     1
271
     1
  0
XRECORD
  5
869E
102
{ACAD_REACTORS
330
869C
102
}
330
869C
100
AcDbXrecord
280
     1
270
     1
271
     1
  0
XRECORD
  5
869D
102
{ACAD_REACTORS
330
869C
102
}
330
869C
100
AcDbXrecord
280
     1
270
     1
271
     1
  0
XRECORD
  5
86A1
102
{ACAD_REACTORS
330
869C
102
}
330
869C
100
AcDbXrecord
280
     1
270
     1
271
     1
  0
XRECORD
  5
86A0
102
{ACAD_REACTORS
330
869C
102
}
330
869C
100
AcDbXrecord
280
     1
270
     1
271
     1
  0
XRECORD
  5
86A2
102
{ACAD_REACTORS
330
869C
102
}
330
869C
100
AcDbXrecord
280
     1
270
     1
271
     1
  0
XRECORD
  5
869F
102
{ACAD_REACTORS
330
869C
102
}
330
869C
100
AcDbXrecord
280
     1
270
     1
271
     1
  0
XRECORD
  5
86AE
102
{ACAD_REACTORS
330
86AC
102
}
330
86AC
100
AcDbXrecord
280
     1
270
     1
271
     1
  0
XRECORD
  5
86AD
102
{ACAD_REACTORS
330
86AC
102
}
330
86AC
100
AcDbXrecord
280
     1
270
     1
271
     1
  0
XRECORD
  5
86B1
102
{ACAD_REACTORS
330
86AC
102
}
330
86AC
100
AcDbXrecord
280
     1
270
     1
271
     1
  0
XRECORD
  5
86B0
102
{ACAD_REACTORS
330
86AC
102
}
330
86AC
100
AcDbXrecord
280
     1
270
     1
271
     1
  0
XRECORD
  5
86B2
102
{ACAD_REACTORS
330
86AC
102
}
330
86AC
100
AcDbXrecord
280
     1
270
     1
271
     1
  0
XRECORD
  5
86AF
102
{ACAD_REACTORS
330
86AC
102
}
330
86AC
100
AcDbXrecord
280
     1
270
     1
271
     1
  0
XRECORD
  5
8887
102
{ACAD_REACTORS
330
880A
102
}
330
880A
100
AcDbXrecord
280
     1
102
DISPLAYNAME
  1
Imperial24
102
FLAGS
 90
        0
  0
XRECORD
  5
8885
102
{ACAD_REACTORS
330
8746
102
}
330
8746
100
AcDbXrecord
280
     1
102
DISPLAYNAME
  1
Metric50
102
FLAGS
 90
        0
  0
CELLSTYLEMAP
  5
8884
102
{ACAD_REACTORS
330
8883
102
}
330
8883
100
AcDbCellStyleMap
 90
        3
300
CELLSTYLE
  1
TABLEFORMAT_BEGIN
 90
        5
170
     1
 91
        0
 92
    32768
 62
   257
 93
        1
300
CONTENTFORMAT
  1
CONTENTFORMAT_BEGIN
 90
        0
 91
        0
 92
      512
 93
        0
300

 40
0.0
140
1.0
 94
        5
 62
     0
340
10
144
6.0
309
CONTENTFORMAT_END
171
     1
301
MARGIN
  1
CELLMARGIN_BEGIN
 40
1.5
 40
1.5
 40
1.5
 40
1.5
 40
4.5
 40
4.5
309
CELLMARGIN_END
 94
        6
 95
        1
302
GRIDFORMAT
  1
GRIDFORMAT_BEGIN
 90
        0
 91
        1
 62
     0
 92
       -2
340
0
 93
        0
 40
1.125
309
GRIDFORMAT_END
 95
        2
302
GRIDFORMAT
  1
GRIDFORMAT_BEGIN
 90
        0
 91
        1
 62
     0
 92
       -2
340
0
 93
        0
 40
1.125
309
GRIDFORMAT_END
 95
        4
302
GRIDFORMAT
  1
GRIDFORMAT_BEGIN
 90
        0
 91
        1
 62
     0
 92
       -2
340
0
 93
        0
 40
1.125
309
GRIDFORMAT_END
 95
        8
302
GRIDFORMAT
  1
GRIDFORMAT_BEGIN
 90
        0
 91
        1
 62
     0
 92
       -2
340
0
 93
        0
 40
1.125
309
GRIDFORMAT_END
 95
       16
302
GRIDFORMAT
  1
GRIDFORMAT_BEGIN
 90
        0
 91
        1
 62
     0
 92
       -2
340
0
 93
        0
 40
1.125
309
GRIDFORMAT_END
 95
       32
302
GRIDFORMAT
  1
GRIDFORMAT_BEGIN
 90
        0
 91
        1
 62
     0
 92
       -2
340
0
 93
        0
 40
1.125
309
GRIDFORMAT_END
309
TABLEFORMAT_END
  1
CELLSTYLE_BEGIN
 90
        1
 91
        1
300
_TITLE
309
CELLSTYLE_END
300
CELLSTYLE
  1
TABLEFORMAT_BEGIN
 90
        5
170
     1
 91
        0
 92
        0
 62
   257
 93
        1
300
CONTENTFORMAT
  1
CONTENTFORMAT_BEGIN
 90
        0
 91
        0
 92
      512
 93
        0
300

 40
0.0
140
1.0
 94
        5
 62
     0
340
10
144
4.5
309
CONTENTFORMAT_END
171
     1
301
MARGIN
  1
CELLMARGIN_BEGIN
 40
1.5
 40
1.5
 40
1.5
 40
1.5
 40
4.5
 40
4.5
309
CELLMARGIN_END
 94
        6
 95
        1
302
GRIDFORMAT
  1
GRIDFORMAT_BEGIN
 90
        0
 91
        1
 62
     0
 92
       -2
340
0
 93
        0
 40
1.125
309
GRIDFORMAT_END
 95
        2
302
GRIDFORMAT
  1
GRIDFORMAT_BEGIN
 90
        0
 91
        1
 62
     0
 92
       -2
340
0
 93
        0
 40
1.125
309
GRIDFORMAT_END
 95
        4
302
GRIDFORMAT
  1
GRIDFORMAT_BEGIN
 90
        0
 91
        1
 62
     0
 92
       -2
340
0
 93
        0
 40
1.125
309
GRIDFORMAT_END
 95
        8
302
GRIDFORMAT
  1
GRIDFORMAT_BEGIN
 90
        0
 91
        1
 62
     0
 92
       -2
340
0
 93
        0
 40
1.125
309
GRIDFORMAT_END
 95
       16
302
GRIDFORMAT
  1
GRIDFORMAT_BEGIN
 90
        0
 91
        1
 62
     0
 92
       -2
340
0
 93
        0
 40
1.125
309
GRIDFORMAT_END
 95
       32
302
GRIDFORMAT
  1
GRIDFORMAT_BEGIN
 90
        0
 91
        1
 62
     0
 92
       -2
340
0
 93
        0
 40
1.125
309
GRIDFORMAT_END
309
TABLEFORMAT_END
  1
CELLSTYLE_BEGIN
 90
        2
 91
        1
300
_HEADER
309
CELLSTYLE_END
300
CELLSTYLE
  1
TABLEFORMAT_BEGIN
 90
        5
170
     1
 91
        0
 92
        0
 62
   257
 93
        1
300
CONTENTFORMAT
  1
CONTENTFORMAT_BEGIN
 90
        0
 91
        0
 92
      512
 93
        0
300

 40
0.0
140
1.0
 94
        2
 62
     0
340
10
144
4.5
309
CONTENTFORMAT_END
171
     1
301
MARGIN
  1
CELLMARGIN_BEGIN
 40
1.5
 40
1.5
 40
1.5
 40
1.5
 40
4.5
 40
4.5
309
CELLMARGIN_END
 94
        6
 95
        1
302
GRIDFORMAT
  1
GRIDFORMAT_BEGIN
 90
        0
 91
        1
 62
     0
 92
       -2
340
0
 93
        0
 40
1.125
309
GRIDFORMAT_END
 95
        2
302
GRIDFORMAT
  1
GRIDFORMAT_BEGIN
 90
        0
 91
        1
 62
     0
 92
       -2
340
0
 93
        0
 40
1.125
309
GRIDFORMAT_END
 95
        4
302
GRIDFORMAT
  1
GRIDFORMAT_BEGIN
 90
        0
 91
        1
 62
     0
 92
       -2
340
0
 93
        0
 40
1.125
309
GRIDFORMAT_END
 95
        8
302
GRIDFORMAT
  1
GRIDFORMAT_BEGIN
 90
        0
 91
        1
 62
     0
 92
       -2
340
0
 93
        0
 40
1.125
309
GRIDFORMAT_END
 95
       16
302
GRIDFORMAT
  1
GRIDFORMAT_BEGIN
 90
        0
 91
        1
 62
     0
 92
       -2
340
0
 93
        0
 40
1.125
309
GRIDFORMAT_END
 95
       32
302
GRIDFORMAT
  1
GRIDFORMAT_BEGIN
 90
        0
 91
        1
 62
     0
 92
       -2
340
0
 93
        0
 40
1.125
309
GRIDFORMAT_END
309
TABLEFORMAT_END
  1
CELLSTYLE_BEGIN
 90
        3
 91
        2
300
_DATA
309
CELLSTYLE_END
  0
ENDSEC
  0
SECTION
  2
ACDSDATA
 70
     2
 71
     8
  0
ACDSSCHEMA
 90
        0
  1
AcDb_Thumbnail_Schema
  2
AcDbDs::ID
280
    10
 91
        8
  2
Thumbnail_Data
280
    15
 91
        0
101
ACDSRECORD
 95
        0
 90
        1
  2
AcDbDs::TreatedAsObjectData
280
     1
291
     1
101
ACDSRECORD
 95
        0
 90
        2
  2
AcDbDs::Legacy
280
     1
291
     1
101
ACDSRECORD
  1
AcDbDs::ID
 90
        3
  2
AcDs:Indexable
280
     1
291
     1
101
ACDSRECORD
  1
AcDbDs::ID
 90
        4
  2
AcDbDs::HandleAttribute
280
     7
282
     1
  0
ACDSSCHEMA
 90
        1
  1
AcDbDs::TreatedAsObjectDataSchema
  2
AcDbDs::TreatedAsObjectData
280
     1
 91
        0
  0
ACDSSCHEMA
 90
        2
  1
AcDbDs::LegacySchema
  2
AcDbDs::Legacy
280
     1
 91
        0
  0
ACDSSCHEMA
 90
        3
  1
AcDbDs::IndexedPropertySchema
  2
AcDs:Indexable
280
     1
 91
        0
  0
ACDSSCHEMA
 90
        4
  1
AcDbDs::HandleAttributeSchema
  2
AcDbDs::HandleAttribute
280
     7
 91
        1
284
     1
  0
ACDSRECORD
 90
        0
  2
AcDbDs::ID
280
    10
320
868E
  2
Thumbnail_Data
280
    15
 94
     1655
310
89504E470D0A1A0A0000000D49484452000001000000007C0803000000B13B9E5A00000300504C5445000000000000C8C8C80000000000000000000000000000000000000000000000000000330000660000990000CC0000FF0033000033330033660033990033CC0033FF0066000066330066660066990066CC0066FF0099
310
000099330099660099990099CC0099FF00CC0000CC3300CC6600CC9900CCCC00CCFF00FF0000FF3300FF6600FF9900FFCC00FFFF3300003300333300663300993300CC3300FF3333003333333333663333993333CC3333FF3366003366333366663366993366CC3366FF3399003399333399663399993399CC3399FF33CC00
310
33CC3333CC6633CC9933CCCC33CCFF33FF0033FF3333FF6633FF9933FFCC33FFFF6600006600336600666600996600CC6600FF6633006633336633666633996633CC6633FF6666006666336666666666996666CC6666FF6699006699336699666699996699CC6699FF66CC0066CC3366CC6666CC9966CCCC66CCFF66FF0066
310
FF3366FF6666FF9966FFCC66FFFF9900009900339900669900999900CC9900FF9933009933339933669933999933CC9933FF9966009966339966669966999966CC9966FF9999009999339999669999999999CC9999FF99CC0099CC3399CC6699CC9999CCCC99CCFF99FF0099FF3399FF6699FF9999FFCC99FFFFCC0000CC00
310
33CC0066CC0099CC00CCCC00FFCC3300CC3333CC3366CC3399CC33CCCC33FFCC6600CC6633CC6666CC6699CC66CCCC66FFCC9900CC9933CC9966CC9999CC99CCCC99FFCCCC00CCCC33CCCC66CCCC99CCCCCCCCCCFFCCFF00CCFF33CCFF66CCFF99CCFFCCCCFFFFFF0000FF0033FF0066FF0099FF00CCFF00FFFF3300FF3333
310
FF3366FF3399FF33CCFF33FFFF6600FF6633FF6666FF6699FF66CCFF66FFFF9900FF9933FF9966FF9999FF99CCFF99FFFFCC00FFCC33FFCC66FFCC99FFCCCCFFCCFFFFFF00FFFF33FFFF66FFFF99FFFFCCFFFFFF0000000D0D0D1A1A1A2828283535354343435050505D5D5D6B6B6B787878868686939393A1A1A1AEAEAEBB
310
BBBBC9C9C9D6D6D6E4E4E4F1F1F1FFFFFF00000000000000000000000000000000000000000000000000000000000008F1915C000002E04944415478DAEDDD5B8EEB200C06602F8717F6BF19B691F729848B09CE658E7A34B1FD479A2A4DD3A87C31064A2625C2F2FD65FB4F8B1E00558705000000000000BCE7935E347E6E
310
00E6F76F2E23C03DC0E61EC04A0EF8EA084025C0CB0EF617003DADEF67333F2B7F6DF56E9867016009EA8DC44017298C44C05E6E4630CE7E7F2A97D15404D061BD3994FD88C4BA80240800F40374F704595B571BC42909B0FD47EB4862E3A8134038A1EB86310E2C2D466B351C00506B00C638D01AC017DF8FAFC400000000
310
000000000000007402C4981F836780B1788F009F002186B6C48008700E5097941797497024C3E42C02F607B605004E01620C35097805F8644300000000E41EC0572BC0FA3F3E3B42CE7B82692DBFAFB1409A8320E414E86A34D84ACBCEBA3380E41E605D5C01BCF6B000000000000000000000000078C527BDEA211B01B81E
310
038C31C2BA9BF5C15079DAB7277B006B00A41B21831170097004335C05EE0192D52A907851CF013EA50F3601C24380BCA7098025B1F1C9807300F16A3A9D00BD3D4F654E2CE4C7070054E6CEE63CA015A0D7FE7D4AECF37002C04E79052013002D023EE569334222008BF968320272F9295C02F0594333003D11E6D9B07299
310
686CC13E018409A05C50AA1F20B1FEFD616234081140E622E000B01790DA05026755C0500EC805E01D801AE839CB8B00AD05B00C500A5AAF1A9F7340A8DB63E800EA3B421D800640DC4F7F39C177116005807816AC25BCAC0224FE6789DE66706DE6E70E91D411B003D012591CA3C1B67228609CD6C3B341A60A00B123B09E
310
E1F92500180290AA0079A902E95F2320D90018639EDA1F68ABEB6890F87C4862B1A31CA07F1FF008201907B89CF9B8DB416B15F8EDE5804F6B969E1C4000000000000080FA92BF1B2A9E03B08D54EFABC7EF3ABB1CCC0600890027371AB60820FD6AD07CA36137004E7300491170F566274970BAE3F6748F691F00FCCEBB74
310
16F8C801E809020000000000000000000000000000783780A25F9EFE01962776F770E9CFCA0000000049454E44AE4260826082EA2BF1A2465531A0D505757BECC7A5D56A01B4FF688168AD7BCD00E800A05A01D85E1F6301000000000000000000000000000000AD007EB53C7EBB5FCAFCFE290E46CB1F0000000049454E44
310
AE426082
  0
ENDSEC
  0
EOF
