  0
SECTION
  2
HEADER
  9
$ACADVER
  1
AC1027
  9
$ACADMAINTVER
 70
    81
  9
$DWGCODEPAGE
  3
ANSI_932
  9
$LASTSAVEDBY
  1
reiko.miyawaki
  9
$REQUIREDVERSIONS
160
                 0
  9
$INSBASE
 10
0.0
 20
0.0
 30
0.0
  9
$EXTMIN
 10
0.0
 20
0.0
 30
0.0
  9
$EXTMAX
 10
3150.0
 20
4425.0
 30
0.0
  9
$LIMMIN
 10
0.0
 20
0.0
  9
$LIMMAX
 10
297.0
 20
210.0
  9
$ORTHOMODE
 70
     0
  9
$REGENMODE
 70
     1
  9
$FILLMODE
 70
     0
  9
$QTEXTMODE
 70
     0
  9
$MIRRTEXT
 70
     1
  9
$LTSCALE
 40
100.0
  9
$ATTMODE
 70
     1
  9
$TEXTSIZE
 40
180.0
  9
$TRACEWID
 40
0.05
  9
$TEXTSTYLE
  7
STANDARD
  9
$CLAYER
  8
3
  9
$CELTYPE
  6
BYLAYER
  9
$CECOLOR
 62
   256
  9
$CELTSCALE
 40
1.0
  9
$DISPSILH
 70
     0
  9
$DIMSCALE
 40
15.0
  9
$DIMASZ
 40
2.0
  9
$DIMEXO
 40
0.5
  9
$DIMDLI
 40
10.0
  9
$DIMRND
 40
0.0
  9
$DIMDLE
 40
0.0
  9
$DIMEXE
 40
1.0
  9
$DIMTP
 40
1.0
  9
$DIMTM
 40
1.0
  9
$DIMTXT
 40
3.0
  9
$DIMCEN
 40
0.0
  9
$DIMTSZ
 40
0.0
  9
$DIMTOL
 70
     0
  9
$DIMLIM
 70
     0
  9
$DIMTIH
 70
     0
  9
$DIMTOH
 70
     0
  9
$DIMSE1
 70
     0
  9
$DIMSE2
 70
     0
  9
$DIMTAD
 70
     1
  9
$DIMZIN
 70
     8
  9
$DIMBLK
  1

  9
$DIMASO
 70
     1
  9
$DIMSHO
 70
     1
  9
$DIMPOST
  1
(<>)
  9
$DIMAPOST
  1

  9
$DIMALT
 70
     0
  9
$DIMALTD
 70
     2
  9
$DIMALTF
 40
0.039
  9
$DIMLFAC
 40
1.0
  9
$DIMTOFL
 70
     1
  9
$DIMTVP
 40
0.0
  9
$DIMTIX
 70
     0
  9
$DIMSOXD
 70
     0
  9
$DIMSAH
 70
     1
  9
$DIMBLK1
  1
OPEN
  9
$DIMBLK2
  1
OPEN
  9
$DIMSTYLE
  2
IGA
  9
$DIMCLRD
 70
     0
  9
$DIMCLRE
 70
     0
  9
$DIMCLRT
 70
     0
  9
$DIMTFAC
 40
10.0
  9
$DIMGAP
 40
1.0
  9
$DIMJUST
 70
     0
  9
$DIMSD1
 70
     0
  9
$DIMSD2
 70
     0
  9
$DIMTOLJ
 70
     1
  9
$DIMTZIN
 70
     8
  9
$DIMALTZ
 70
     0
  9
$DIMALTTZ
 70
     0
  9
$DIMUPT
 70
     0
  9
$DIMDEC
 70
     0
  9
$DIMTDEC
 70
     0
  9
$DIMALTU
 70
     2
  9
$DIMALTTD
 70
     2
  9
$DIMTXSTY
  7
STANDARD
  9
$DIMAUNIT
 70
     0
  9
$DIMADEC
 70
     0
  9
$DIMALTRND
 40
0.0
  9
$DIMAZIN
 70
     0
  9
$DIMDSEP
 70
    46
  9
$DIMATFIT
 70
     3
  9
$DIMFRAC
 70
     0
  9
$DIMLDRBLK
  1
OPEN
  9
$DIMLUNIT
 70
     2
  9
$DIMLWD
 70
    -2
  9
$DIMLWE
 70
    -2
  9
$DIMTMOVE
 70
     2
  9
$DIMFXL
 40
1.0
  9
$DIMFXLON
 70
     0
  9
$DIMJOGANG
 40
0.7853981633974483
  9
$DIMTFILL
 70
     0
  9
$DIMTFILLCLR
 70
     0
  9
$DIMARCSYM
 70
     0
  9
$DIMLTYPE
  6

  9
$DIMLTEX1
  6

  9
$DIMLTEX2
  6

  9
$DIMTXTDIRECTION
 70
     0
  9
$LUNITS
 70
     2
  9
$LUPREC
 70
     3
  9
$SKETCHINC
 40
0.1
  9
$FILLETRAD
 40
50.0
  9
$AUNITS
 70
     0
  9
$AUPREC
 70
     0
  9
$MENU
  1
acad
  9
$ELEVATION
 40
0.0
  9
$PELEVATION
 40
0.0
  9
$THICKNESS
 40
0.0
  9
$LIMCHECK
 70
     0
  9
$CHAMFERA
 40
0.5
  9
$CHAMFERB
 40
0.5
  9
$CHAMFERC
 40
20.0
  9
$CHAMFERD
 40
0.0
  9
$SKPOLY
 70
     0
  9
$TDCREATE
 40
2451936.482235648
  9
$TDUCREATE
 40
2451936.107235648
  9
$TDUPDATE
 40
2459024.491418125
  9
$TDUUPDATE
 40
2459024.116418125
  9
$TDINDWG
 40
0.2987967361
  9
$TDUSRTIMER
 40
0.2987967361
  9
$USRTIMER
 70
     1
  9
$ANGBASE
 50
0.0
  9
$ANGDIR
 70
     0
  9
$PDMODE
 70
     0
  9
$PDSIZE
 40
0.0
  9
$PLINEWID
 40
0.0
  9
$SPLFRAME
 70
     0
  9
$SPLINETYPE
 70
     6
  9
$SPLINESEGS
 70
     8
  9
$HANDSEED
  5
853B
  9
$SURFTAB1
 70
     6
  9
$SURFTAB2
 70
     6
  9
$SURFTYPE
 70
     6
  9
$SURFU
 70
     6
  9
$SURFV
 70
     6
  9
$UCSBASE
  2

  9
$UCSNAME
  2

  9
$UCSORG
 10
0.0
 20
0.0
 30
0.0
  9
$UCSXDIR
 10
1.0
 20
0.0
 30
0.0
  9
$UCSYDIR
 10
0.0
 20
1.0
 30
0.0
  9
$UCSORTHOREF
  2

  9
$UCSORTHOVIEW
 70
     0
  9
$UCSORGTOP
 10
0.0
 20
0.0
 30
0.0
  9
$UCSORGBOTTOM
 10
0.0
 20
0.0
 30
0.0
  9
$UCSORGLEFT
 10
0.0
 20
0.0
 30
0.0
  9
$UCSORGRIGHT
 10
0.0
 20
0.0
 30
0.0
  9
$UCSORGFRONT
 10
0.0
 20
0.0
 30
0.0
  9
$UCSORGBACK
 10
0.0
 20
0.0
 30
0.0
  9
$PUCSBASE
  2

  9
$PUCSNAME
  2

  9
$PUCSORG
 10
0.0
 20
0.0
 30
0.0
  9
$PUCSXDIR
 10
1.0
 20
0.0
 30
0.0
  9
$PUCSYDIR
 10
0.0
 20
1.0
 30
0.0
  9
$PUCSORTHOREF
  2

  9
$PUCSORTHOVIEW
 70
     0
  9
$PUCSORGTOP
 10
0.0
 20
0.0
 30
0.0
  9
$PUCSORGBOTTOM
 10
0.0
 20
0.0
 30
0.0
  9
$PUCSORGLEFT
 10
0.0
 20
0.0
 30
0.0
  9
$PUCSORGRIGHT
 10
0.0
 20
0.0
 30
0.0
  9
$PUCSORGFRONT
 10
0.0
 20
0.0
 30
0.0
  9
$PUCSORGBACK
 10
0.0
 20
0.0
 30
0.0
  9
$USERI1
 70
     0
  9
$USERI2
 70
     0
  9
$USERI3
 70
     0
  9
$USERI4
 70
     0
  9
$USERI5
 70
     0
  9
$USERR1
 40
0.0
  9
$USERR2
 40
0.0
  9
$USERR3
 40
0.0
  9
$USERR4
 40
0.0
  9
$USERR5
 40
0.0
  9
$WORLDVIEW
 70
     1
  9
$SHADEDGE
 70
     3
  9
$SHADEDIF
 70
    70
  9
$TILEMODE
 70
     1
  9
$MAXACTVP
 70
    16
  9
$PINSBASE
 10
0.0
 20
0.0
 30
0.0
  9
$PLIMCHECK
 70
     0
  9
$PEXTMIN
 10
1.000000000000000E+20
 20
1.000000000000000E+20
 30
1.000000000000000E+20
  9
$PEXTMAX
 10
-1.000000000000000E+20
 20
-1.000000000000000E+20
 30
-1.000000000000000E+20
  9
$PLIMMIN
 10
0.0
 20
0.0
  9
$PLIMMAX
 10
12.0
 20
9.0
  9
$UNITMODE
 70
     0
  9
$VISRETAIN
 70
     0
  9
$PLINEGEN
 70
     0
  9
$PSLTSCALE
 70
     1
  9
$TREEDEPTH
 70
  3020
  9
$CMLSTYLE
  2
STANDARD
  9
$CMLJUST
 70
     0
  9
$CMLSCALE
 40
20.0
  9
$PROXYGRAPHICS
 70
     1
  9
$MEASUREMENT
 70
     1
  9
$CELWEIGHT
370
    -1
  9
$ENDCAPS
280
     0
  9
$JOINSTYLE
280
     0
  9
$LWDISPLAY
290
     0
  9
$INSUNITS
 70
     0
  9
$HYPERLINKBASE
  1

  9
$STYLESHEET
  1

  9
$XEDIT
290
     1
  9
$CEPSNTYPE
380
     0
  9
$PSTYLEMODE
290
     1
  9
$FINGERPRINTGUID
  2
{8EA08BE2-17ED-44B0-9A98-E784FA590EF5}
  9
$VERSIONGUID
  2
{1D33EE8E-AE98-4E16-9AC3-0F782A68E2C5}
  9
$EXTNAMES
290
     1
  9
$PSVPSCALE
 40
0.0
  9
$OLESTARTUP
290
     0
  9
$SORTENTS
280
   127
  9
$INDEXCTL
280
     0
  9
$HIDETEXT
280
     0
  9
$XCLIPFRAME
280
     2
  9
$HALOGAP
280
     0
  9
$OBSCOLOR
 70
   257
  9
$OBSLTYPE
280
     0
  9
$INTERSECTIONDISPLAY
280
     0
  9
$INTERSECTIONCOLOR
 70
   257
  9
$DIMASSOC
280
     1
  9
$PROJECTNAME
  1

  9
$CAMERADISPLAY
290
     0
  9
$LENSLENGTH
 40
50.0
  9
$CAMERAHEIGHT
 40
0.0
  9
$STEPSPERSEC
 40
2.0
  9
$STEPSIZE
 40
6.0
  9
$3DDWFPREC
 40
2.0
  9
$PSOLWIDTH
 40
0.25
  9
$PSOLHEIGHT
 40
4.0
  9
$LOFTANG1
 40
1.570796326794896
  9
$LOFTANG2
 40
1.570796326794896
  9
$LOFTMAG1
 40
0.0
  9
$LOFTMAG2
 40
0.0
  9
$LOFTPARAM
 70
     7
  9
$LOFTNORMALS
280
     1
  9
$LATITUDE
 40
37.795
  9
$LONGITUDE
 40
-122.394
  9
$NORTHDIRECTION
 40
0.0
  9
$TIMEZONE
 70
 -8000
  9
$LIGHTGLYPHDISPLAY
280
     1
  9
$TILEMODELIGHTSYNCH
280
     1
  9
$CMATERIAL
347
8433
  9
$SOLIDHIST
280
     0
  9
$SHOWHIST
280
     1
  9
$DWFFRAME
280
     2
  9
$DGNFRAME
280
     0
  9
$REALWORLDSCALE
290
     1
  9
$INTERFERECOLOR
 62
     1
  9
$INTERFEREOBJVS
345
8455
  9
$INTERFEREVPVS
346
8452
  9
$CSHADOW
280
     0
  9
$SHADOWPLANELOCATION
 40
0.0
  0
ENDSEC
  0
SECTION
  2
CLASSES
  0
CLASS
  1
ACDBDICTIONARYWDFLT
  2
AcDbDictionaryWithDefault
  3
ObjectDBX Classes
 90
        0
 91
        1
280
     0
281
     0
  0
CLASS
  1
MATERIAL
  2
AcDbMaterial
  3
ObjectDBX Classes
 90
     1153
 91
        3
280
     0
281
     0
  0
CLASS
  1
VISUALSTYLE
  2
AcDbVisualStyle
  3
ObjectDBX Classes
 90
     4095
 91
       24
280
     0
281
     0
  0
CLASS
  1
TABLESTYLE
  2
AcDbTableStyle
  3
ObjectDBX Classes
 90
     4095
 91
        1
280
     0
281
     0
  0
CLASS
  1
SCALE
  2
AcDbScale
  3
ObjectDBX Classes
 90
     1153
 91
       17
280
     0
281
     0
  0
CLASS
  1
MLEADERSTYLE
  2
AcDbMLeaderStyle
  3
ACDB_MLEADERSTYLE_CLASS
 90
     4095
 91
        1
280
     0
281
     0
  0
CLASS
  1
ACDBSECTIONVIEWSTYLE
  2
AcDbSectionViewStyle
  3
ObjectDBX Classes
 90
     1025
 91
        1
280
     0
281
     0
  0
CLASS
  1
ACDBDETAILVIEWSTYLE
  2
AcDbDetailViewStyle
  3
ObjectDBX Classes
 90
     1025
 91
        1
280
     0
281
     0
  0
CLASS
  1
SORTENTSTABLE
  2
AcDbSortentsTable
  3
ObjectDBX Classes
 90
        0
 91
        1
280
     0
281
     0
  0
CLASS
  1
DICTIONARYVAR
  2
AcDbDictionaryVar
  3
ObjectDBX Classes
 90
        0
 91
        9
280
     0
281
     0
  0
CLASS
  1
CELLSTYLEMAP
  2
AcDbCellStyleMap
  3
ObjectDBX Classes
 90
     1152
 91
        1
280
     0
281
     0
  0
ENDSEC
  0
SECTION
  2
TABLES
  0
TABLE
  2
VPORT
  5
8
330
0
100
AcDbSymbolTable
 70
     1
  0
VPORT
  5
8430
330
8
100
AcDbSymbolTableRecord
100
AcDbViewportTableRecord
  2
*Active
 70
     0
 10
0.0
 20
0.0
 11
1.0
 21
1.0
 12
1575.000022003839
 22
2318.506828513427
 13
0.0
 23
0.0
 14
10.0
 24
10.0
 15
10.0
 25
10.0
 16
0.0
 26
0.0
 36
1.0
 17
0.0
 27
0.0
 37
0.0
 40
4668.592316181746
 41
1.957107843137254
 42
50.0
 43
0.0
 44
0.0
 50
0.0
 51
0.0
 71
     0
 72
   100
 73
     1
 74
     0
 75
     0
 76
     0
 77
     0
 78
     0
281
     0
 65
     1
110
0.0
120
0.0
130
0.0
111
1.0
121
0.0
131
0.0
112
0.0
122
1.0
132
0.0
 79
     0
146
0.0
348
8451
 60
     3
 61
     5
292
     1
282
     1
141
0.0
142
0.0
 63
   250
421
  3355443
1001
ACAD_NAV_VCDISPLAY
1070
     3
  0
ENDTAB
  0
TABLE
  2
LTYPE
  5
5
330
0
100
AcDbSymbolTable
 70
     2
  0
LTYPE
  5
13
330
5
100
AcDbSymbolTableRecord
100
AcDbLinetypeTableRecord
  2
BYBLOCK
 70
     0
  3

 72
    65
 73
     0
 40
0.0
  0
LTYPE
  5
14
330
5
100
AcDbSymbolTableRecord
100
AcDbLinetypeTableRecord
  2
BYLAYER
 70
     0
  3

 72
    65
 73
     0
 40
0.0
  0
LTYPE
  5
15
330
5
100
AcDbSymbolTableRecord
100
AcDbLinetypeTableRecord
  2
CONTINUOUS
 70
     0
  3
Solid line
 72
    65
 73
     0
 40
0.0
  0
LTYPE
  5
1F
330
5
100
AcDbSymbolTableRecord
100
AcDbLinetypeTableRecord
  2
CENTER
 70
     0
  3
____ _ ____ _ ____ _ ____ _ ____ _ ____ _ ____ 
 72
    65
 73
     4
 40
2.0
 49
1.25
 74
     0
 49
-0.25
 74
     0
 49
0.25
 74
     0
 49
-0.25
 74
     0
  0
ENDTAB
  0
TABLE
  2
LAYER
  5
2
102
{ACAD_XDICTIONARY
360
84E2
102
}
330
0
100
AcDbSymbolTable
 70
     6
  0
LAYER
  5
F
102
{ACAD_XDICTIONARY
360
84D5
102
}
330
2
100
AcDbSymbolTableRecord
100
AcDbLayerTableRecord
  2
0
 70
     0
 62
     7
  6
CONTINUOUS
370
    -3
390
8423
347
8443
348
0
  0
LAYER
  5
31
102
{ACAD_XDICTIONARY
360
84D7
102
}
330
2
100
AcDbSymbolTableRecord
100
AcDbLayerTableRecord
  2
3
 70
     0
 62
     2
  6
CONTINUOUS
370
    -3
390
8423
347
8443
348
0
  0
LAYER
  5
76D0
102
{ACAD_XDICTIONARY
360
84D9
102
}
330
2
100
AcDbSymbolTableRecord
100
AcDbLayerTableRecord
  2
2
 70
     0
 62
     3
  6
CENTER
370
    -3
390
8423
347
8443
348
0
  0
LAYER
  5
76D1
102
{ACAD_XDICTIONARY
360
84DB
102
}
330
2
100
AcDbSymbolTableRecord
100
AcDbLayerTableRecord
  2
1
 70
     0
 62
     4
  6
CONTINUOUS
370
    -3
390
8423
347
8443
348
0
  0
LAYER
  5
76D2
102
{ACAD_XDICTIONARY
360
84DD
102
}
330
2
100
AcDbSymbolTableRecord
100
AcDbLayerTableRecord
  2
4
 70
     0
 62
     7
  6
CONTINUOUS
370
    -3
390
8423
347
8443
348
0
  0
LAYER
  5
7B08
330
2
100
AcDbSymbolTableRecord
100
AcDbLayerTableRecord
  2
DEFPOINTS
 70
     0
 62
     7
  6
CONTINUOUS
290
     0
370
    -3
390
8423
347
8443
348
0
  0
ENDTAB
  0
TABLE
  2
STYLE
  5
3
330
0
100
AcDbSymbolTable
 70
     1
  0
STYLE
  5
10
330
3
100
AcDbSymbolTableRecord
100
AcDbTextStyleTableRecord
  2
STANDARD
 70
     0
 40
0.0
 41
1.0
 50
0.0
 71
     0
 42
180.0
  3
simplex.shx
  4
extfont.shx
  0
ENDTAB
  0
TABLE
  2
VIEW
  5
6
330
0
100
AcDbSymbolTable
 70
     0
  0
ENDTAB
  0
TABLE
  2
UCS
  5
7
330
0
100
AcDbSymbolTable
 70
     0
  0
ENDTAB
  0
TABLE
  2
APPID
  5
9
330
0
100
AcDbSymbolTable
 70
     4
  0
APPID
  5
11
330
9
100
AcDbSymbolTableRecord
100
AcDbRegAppTableRecord
  2
ACAD
 70
     0
  0
APPID
  5
84E8
330
9
100
AcDbSymbolTableRecord
100
AcDbRegAppTableRecord
  2
ACAD_NAV_VCDISPLAY
 70
     0
  0
APPID
  5
84FC
330
9
100
AcDbSymbolTableRecord
100
AcDbRegAppTableRecord
  2
AcadAnnoMonitorAlertIconDisabled
 70
     0
  0
APPID
  5
84FD
330
9
100
AcDbSymbolTableRecord
100
AcDbRegAppTableRecord
  2
ACAD_EXEMPT_FROM_CAD_STANDARDS
 70
     0
  0
ENDTAB
  0
TABLE
  2
DIMSTYLE
  5
A
330
0
100
AcDbSymbolTable
 70
     1
100
AcDbDimStyleTable
 71
     1
340
1D
  0
DIMSTYLE
105
1D
102
{ACAD_REACTORS
330
7C7C
330
7CD2
330
7CD3
330
7CED
330
7CEE
330
7CEF
330
7CF2
330
7CF3
330
7D42
330
7D43
330
7D44
330
7D46
330
8390
330
839F
330
83AC
330
83BB
330
83E5
330
8412
330
841F
102
}
330
A
100
AcDbSymbolTableRecord
100
AcDbDimStyleTableRecord
  2
IGA
 70
     0
 40
2.0
 41
2.0
 42
0.5
 43
10.0
 44
1.0
 47
1.0
 48
1.0
 73
     0
 74
     0
 77
     1
 78
     8
140
3.0
141
0.0
143
0.03937
146
10.0
147
1.0
173
     1
271
     1
272
     0
279
     2
284
     8
340
10
341
79FC
343
79FC
344
79FC
  0
ENDTAB
  0
TABLE
  2
BLOCK_RECORD
  5
1
330
0
100
AcDbSymbolTable
 70
    21
  0
BLOCK_RECORD
  5
19
102
{ACAD_XDICTIONARY
360
8483
102
}
330
1
100
AcDbSymbolTableRecord
100
AcDbBlockTableRecord
  2
*MODEL_SPACE
340
8426
 70
     0
280
     1
281
     0
  0
BLOCK_RECORD
  5
16
330
1
100
AcDbSymbolTableRecord
100
AcDbBlockTableRecord
  2
*PAPER_SPACE
340
8427
 70
     0
280
     1
281
     0
  0
BLOCK_RECORD
  5
79FC
330
1
100
AcDbSymbolTableRecord
100
AcDbBlockTableRecord
  2
_OPEN
340
0
102
{BLKREFS
331
81D9
331
81DA
331
81FA
331
81FB
331
8293
331
8294
331
8322
331
8323
331
833B
331
833C
331
8488
331
8489
331
8491
331
8492
331
849A
331
849B
331
84A5
331
84A6
331
84B1
331
84C4
331
84C5
331
84D1
331
850B
331
850C
331
809A
331
809B
331
80D7
331
80D8
331
8110
331
8111
331
8129
331
812A
331
8140
331
8141
331
8156
331
8157
102
}
 70
     0
280
     1
281
     0
  0
BLOCK_RECORD
  5
7AAA
330
1
100
AcDbSymbolTableRecord
100
AcDbBlockTableRecord
  2
_DOT
340
0
102
{BLKREFS
331
84B0
331
84D0
102
}
 70
     0
280
     1
281
     0
  0
BLOCK_RECORD
  5
7D74
330
1
100
AcDbSymbolTableRecord
100
AcDbBlockTableRecord
  2
*D2
340
0
 70
     0
280
     1
281
     0
  0
BLOCK_RECORD
  5
7DC6
330
1
100
AcDbSymbolTableRecord
100
AcDbBlockTableRecord
  2
*D3
340
0
 70
     0
280
     1
281
     0
  0
BLOCK_RECORD
  5
7DD2
330
1
100
AcDbSymbolTableRecord
100
AcDbBlockTableRecord
  2
*D4
340
0
 70
     0
280
     1
281
     0
  0
BLOCK_RECORD
  5
7DDE
330
1
100
AcDbSymbolTableRecord
100
AcDbBlockTableRecord
  2
*D5
340
0
 70
     0
280
     1
281
     0
  0
BLOCK_RECORD
  5
7DEA
330
1
100
AcDbSymbolTableRecord
100
AcDbBlockTableRecord
  2
*D6
340
0
 70
     0
280
     1
281
     0
  0
BLOCK_RECORD
  5
7DF6
330
1
100
AcDbSymbolTableRecord
100
AcDbBlockTableRecord
  2
*D7
340
0
 70
     0
280
     1
281
     0
  0
BLOCK_RECORD
  5
7E1C
330
1
100
AcDbSymbolTableRecord
100
AcDbBlockTableRecord
  2
*D8
340
0
 70
     0
280
     1
281
     0
  0
BLOCK_RECORD
  5
7E28
330
1
100
AcDbSymbolTableRecord
100
AcDbBlockTableRecord
  2
*D9
340
0
 70
     0
280
     1
281
     0
  0
BLOCK_RECORD
  5
7E33
330
1
100
AcDbSymbolTableRecord
100
AcDbBlockTableRecord
  2
*D10
340
0
 70
     0
280
     1
281
     0
  0
BLOCK_RECORD
  5
7E3F
330
1
100
AcDbSymbolTableRecord
100
AcDbBlockTableRecord
  2
*D11
340
0
 70
     0
280
     1
281
     0
  0
BLOCK_RECORD
  5
7E4A
330
1
100
AcDbSymbolTableRecord
100
AcDbBlockTableRecord
  2
*D12
340
0
 70
     0
280
     1
281
     0
  0
BLOCK_RECORD
  5
7E62
330
1
100
AcDbSymbolTableRecord
100
AcDbBlockTableRecord
  2
*D13
340
0
 70
     0
280
     1
281
     0
  0
BLOCK_RECORD
  5
8384
330
1
100
AcDbSymbolTableRecord
100
AcDbBlockTableRecord
  2
*D14
340
0
 70
     0
280
     1
281
     0
  0
BLOCK_RECORD
  5
8391
330
1
100
AcDbSymbolTableRecord
100
AcDbBlockTableRecord
  2
*D15
340
0
 70
     0
280
     1
281
     0
  0
BLOCK_RECORD
  5
83A0
330
1
100
AcDbSymbolTableRecord
100
AcDbBlockTableRecord
  2
*D16
340
0
 70
     0
280
     1
281
     0
  0
BLOCK_RECORD
  5
83AD
330
1
100
AcDbSymbolTableRecord
100
AcDbBlockTableRecord
  2
*D17
340
0
 70
     0
280
     1
281
     0
  0
BLOCK_RECORD
  5
83D7
330
1
100
AcDbSymbolTableRecord
100
AcDbBlockTableRecord
  2
*D18
340
0
 70
     0
280
     1
281
     0
  0
BLOCK_RECORD
  5
8404
330
1
100
AcDbSymbolTableRecord
100
AcDbBlockTableRecord
  2
*D19
340
0
 70
     0
280
     1
281
     0
  0
BLOCK_RECORD
  5
8413
330
1
100
AcDbSymbolTableRecord
100
AcDbBlockTableRecord
  2
*D20
340
0
 70
     0
280
     1
281
     0
  0
ENDTAB
  0
ENDSEC
  0
SECTION
  2
BLOCKS
  0
BLOCK
  5
1A
330
19
100
AcDbEntity
  8
0
100
AcDbBlockBegin
  2
*MODEL_SPACE
 70
     0
 10
0.0
 20
0.0
 30
0.0
  3
*MODEL_SPACE
  1

  0
ENDBLK
  5
1B
330
19
100
AcDbEntity
  8
0
100
AcDbBlockEnd
  0
BLOCK
  5
17
330
16
100
AcDbEntity
 67
     1
  8
0
100
AcDbBlockBegin
  2
*PAPER_SPACE
 70
     0
 10
0.0
 20
0.0
 30
0.0
  3
*PAPER_SPACE
  1

  0
ENDBLK
  5
18
330
16
100
AcDbEntity
 67
     1
  8
0
100
AcDbBlockEnd
  0
BLOCK
  5
7A00
330
79FC
100
AcDbEntity
  8
0
100
AcDbBlockBegin
  2
_OPEN
 70
     0
 10
0.0
 20
0.0
 30
0.0
  3
_OPEN
  1

  0
LINE
  5
79FD
330
79FC
100
AcDbEntity
  8
0
  6
ByBlock
 62
     0
100
AcDbLine
 10
-1.0
 20
0.1666666666666666
 30
0.0
 11
0.0
 21
0.0
 31
0.0
  0
LINE
  5
79FE
330
79FC
100
AcDbEntity
  8
0
  6
ByBlock
 62
     0
100
AcDbLine
 10
0.0
 20
0.0
 30
0.0
 11
-1.0
 21
-0.1666666666666666
 31
0.0
  0
LINE
  5
79FF
330
79FC
100
AcDbEntity
  8
0
  6
ByBlock
 62
     0
100
AcDbLine
 10
0.0
 20
0.0
 30
0.0
 11
-1.0
 21
0.0
 31
0.0
  0
ENDBLK
  5
7A01
330
79FC
100
AcDbEntity
  8
0
100
AcDbBlockEnd
  0
BLOCK
  5
7AB0
330
7AAA
100
AcDbEntity
  8
0
100
AcDbBlockBegin
  2
_DOT
 70
     0
 10
0.0
 20
0.0
 30
0.0
  3
_DOT
  1

  0
LINE
  5
8271
330
7AAA
100
AcDbEntity
  8
0
  6
ByBlock
 62
     0
100
AcDbLine
 10
0.0
 20
0.0
 30
0.0
 11
-1.0
 21
-0.0000000000000284
 31
0.0
  0
LWPOLYLINE
  5
8272
330
7AAA
100
AcDbEntity
  8
0
  6
ByBlock
 62
     0
100
AcDbPolyline
 90
        2
 70
     1
 43
0.1666666666666666
 10
-0.0833333333333286
 20
-0.0000000000000284
 42
1.0
 10
0.0833333333333286
 20
-0.0000000000000284
 42
1.0
  0
ENDBLK
  5
7AB1
330
7AAA
100
AcDbEntity
  8
0
100
AcDbBlockEnd
  0
BLOCK
  5
81F5
330
7D74
100
AcDbEntity
  8
0
100
AcDbBlockBegin
  2
*D2
 70
     1
 10
0.0
 20
0.0
 30
0.0
  3
*D2
  1

  0
LINE
  5
81F6
330
7D74
100
AcDbEntity
  8
0
  6
ByBlock
 62
     0
440
 16777216
100
AcDbLine
 10
2433.510370952188
 20
1781.646773431955
 30
0.0
 11
2433.510370952188
 21
1867.762779119544
 31
0.0
  0
LINE
  5
81F7
330
7D74
100
AcDbEntity
  8
0
  6
ByBlock
 62
     0
440
 16777216
100
AcDbLine
 10
2613.510370952187
 20
1783.310590922503
 30
0.0
 11
2613.510370952187
 21
1867.762779119544
 31
0.0
  0
LINE
  5
81F8
330
7D74
100
AcDbEntity
  8
0
  6
ByBlock
 62
     0
440
 16777216
100
AcDbLine
 10
2463.510370952187
 20
1852.762779119544
 30
0.0
 11
2583.510370952188
 21
1852.762779119544
 31
0.0
  0
MTEXT
  5
81F9
330
7D74
100
AcDbEntity
  8
0
  6
ByBlock
 62
     0
440
 16777216
100
AcDbMText
 10
2523.510370952187
 20
1887.848995678683
 30
0.0
 40
45.0
 41
0.0
 46
0.0
 71
     5
 72
     5
  1
\A1;180
 73
     1
 44
1.0
  0
INSERT
  5
81FA
330
7D74
100
AcDbEntity
  8
0
  6
ByBlock
 62
     0
440
 16777216
100
AcDbBlockReference
  2
_OPEN
 10
2433.510370952188
 20
1852.762779119544
 30
0.0
 41
30.0
 42
30.0
 43
30.0
 50
180.0
  0
INSERT
  5
81FB
330
7D74
100
AcDbEntity
  8
0
  6
ByBlock
 62
     0
440
 16777216
100
AcDbBlockReference
  2
_OPEN
 10
2613.510370952187
 20
1852.762779119544
 30
0.0
 41
30.0
 42
30.0
 43
30.0
  0
POINT
  5
81FC
330
7D74
100
AcDbEntity
  8
DEFPOINTS
  6
ByBlock
 62
     0
440
 16777216
100
AcDbPoint
 10
2433.510370952188
 20
1774.146773431955
 30
0.0
  0
POINT
  5
81FD
330
7D74
100
AcDbEntity
  8
DEFPOINTS
  6
ByBlock
 62
     0
440
 16777216
100
AcDbPoint
 10
2613.510370952187
 20
1775.810590922503
 30
0.0
  0
POINT
  5
81FE
330
7D74
100
AcDbEntity
  8
DEFPOINTS
  6
ByBlock
 62
     0
440
 16777216
100
AcDbPoint
 10
2613.510370952187
 20
1852.762779119544
 30
0.0
  0
ENDBLK
  5
81FF
330
7D74
100
AcDbEntity
  8
0
100
AcDbBlockEnd
  0
BLOCK
  5
831E
330
7DC6
100
AcDbEntity
  8
0
100
AcDbBlockBegin
  2
*D3
 70
     1
 10
0.0
 20
0.0
 30
0.0
  3
*D3
  1

  0
LINE
  5
831F
330
7DC6
100
AcDbEntity
  8
0
  6
ByBlock
 62
     0
440
 16777216
100
AcDbLine
 10
1342.704108809442
 20
3065.4415261527
 30
0.0
 11
1463.270618718125
 21
3065.4415261527
 31
0.0
  0
LINE
  5
8320
330
7DC6
100
AcDbEntity
  8
0
  6
ByBlock
 62
     0
440
 16777216
100
AcDbLine
 10
1342.704108809442
 20
2620.4415261527
 30
0.0
 11
1463.270618718125
 21
2620.4415261527
 31
0.0
  0
LINE
  5
8321
330
7DC6
100
AcDbEntity
  8
0
  6
ByBlock
 62
     0
440
 16777216
100
AcDbLine
 10
1448.270618718125
 20
3035.441526152701
 30
0.0
 11
1448.270618718125
 21
2650.4415261527
 31
0.0
  0
INSERT
  5
8322
330
7DC6
100
AcDbEntity
  8
0
  6
ByBlock
 62
     0
440
 16777216
100
AcDbBlockReference
  2
_OPEN
 10
1448.270618718125
 20
3065.4415261527
 30
0.0
 41
30.0
 42
30.0
 43
30.0
 50
90.0
  0
INSERT
  5
8323
330
7DC6
100
AcDbEntity
  8
0
  6
ByBlock
 62
     0
440
 16777216
100
AcDbBlockReference
  2
_OPEN
 10
1448.270618718125
 20
2620.4415261527
 30
0.0
 41
30.0
 42
30.0
 43
30.0
 50
270.0
  0
MTEXT
  5
8324
330
7DC6
100
AcDbEntity
  8
0
  6
ByBlock
 62
     0
440
 16777216
100
AcDbMText
 10
1410.770618718125
 20
2842.9415261527
 30
0.0
 40
45.0
 41
0.0
 46
0.0
 71
     5
 72
     5
  1
\A1;445
 11
0.0
 21
1.0
 31
0.0
 73
     1
 44
1.0
  0
POINT
  5
8325
330
7DC6
100
AcDbEntity
  8
DEFPOINTS
  6
ByBlock
 62
     0
440
 16777216
100
AcDbPoint
 10
1335.204108809442
 20
3065.4415261527
 30
0.0
  0
POINT
  5
8326
330
7DC6
100
AcDbEntity
  8
DEFPOINTS
  6
ByBlock
 62
     0
440
 16777216
100
AcDbPoint
 10
1335.204108809442
 20
2620.4415261527
 30
0.0
  0
POINT
  5
8327
330
7DC6
100
AcDbEntity
  8
DEFPOINTS
  6
ByBlock
 62
     0
440
 16777216
100
AcDbPoint
 10
1448.270618718125
 20
2620.4415261527
 30
0.0
  0
ENDBLK
  5
8328
330
7DC6
100
AcDbEntity
  8
0
100
AcDbBlockEnd
  0
BLOCK
  5
8337
330
7DD2
100
AcDbEntity
  8
0
100
AcDbBlockBegin
  2
*D4
 70
     1
 10
0.0
 20
0.0
 30
0.0
  3
*D4
  1

  0
LINE
  5
8338
330
7DD2
100
AcDbEntity
  8
0
  6
ByBlock
 62
     0
440
 16777216
100
AcDbLine
 10
635.2041088094424
 20
2612.9415261527
 30
0.0
 11
635.2041088094424
 21
2460.986921305059
 31
0.0
  0
LINE
  5
8339
330
7DD2
100
AcDbEntity
  8
0
  6
ByBlock
 62
     0
440
 16777216
100
AcDbLine
 10
1335.204108809442
 20
2612.9415261527
 30
0.0
 11
1335.204108809442
 21
2460.986921305059
 31
0.0
  0
LINE
  5
833A
330
7DD2
100
AcDbEntity
  8
0
  6
ByBlock
 62
     0
440
 16777216
100
AcDbLine
 10
665.2041088094424
 20
2475.986921305059
 30
0.0
 11
1305.204108809442
 21
2475.986921305059
 31
0.0
  0
INSERT
  5
833B
330
7DD2
100
AcDbEntity
  8
0
  6
ByBlock
 62
     0
440
 16777216
100
AcDbBlockReference
  2
_OPEN
 10
635.2041088094424
 20
2475.986921305059
 30
0.0
 41
30.0
 42
30.0
 43
30.0
 50
180.0
  0
INSERT
  5
833C
330
7DD2
100
AcDbEntity
  8
0
  6
ByBlock
 62
     0
440
 16777216
100
AcDbBlockReference
  2
_OPEN
 10
1335.204108809442
 20
2475.986921305059
 30
0.0
 41
30.0
 42
30.0
 43
30.0
  0
MTEXT
  5
833D
330
7DD2
100
AcDbEntity
  8
0
  6
ByBlock
 62
     0
440
 16777216
100
AcDbMText
 10
985.2041088094422
 20
2513.486921305059
 30
0.0
 40
45.0
 41
0.0
 46
0.0
 71
     5
 72
     5
  1
\A1;700
 73
     1
 44
1.0
  0
POINT
  5
833E
330
7DD2
100
AcDbEntity
  8
DEFPOINTS
  6
ByBlock
 62
     0
440
 16777216
100
AcDbPoint
 10
635.2041088094424
 20
2620.4415261527
 30
0.0
  0
POINT
  5
833F
330
7DD2
100
AcDbEntity
  8
DEFPOINTS
  6
ByBlock
 62
     0
440
 16777216
100
AcDbPoint
 10
1335.204108809442
 20
2620.4415261527
 30
0.0
  0
POINT
  5
8340
330
7DD2
100
AcDbEntity
  8
DEFPOINTS
  6
ByBlock
 62
     0
440
 16777216
100
AcDbPoint
 10
1335.204108809442
 20
2475.986921305059
 30
0.0
  0
ENDBLK
  5
8341
330
7DD2
100
AcDbEntity
  8
0
100
AcDbBlockEnd
  0
BLOCK
  5
80D3
330
7DDE
100
AcDbEntity
  8
0
100
AcDbBlockBegin
  2
*D5
 70
     1
 10
0.0
 20
0.0
 30
0.0
  3
*D5
  1

  0
LINE
  5
80D4
330
7DDE
100
AcDbEntity
  8
0
  6
ByBlock
 62
     0
440
 16777216
100
AcDbLine
 10
897.2041088094425
 20
1814.564747517886
 30
0.0
 11
897.2041088094425
 21
1881.253774602221
 31
0.0
  0
LINE
  5
80D5
330
7DDE
100
AcDbEntity
  8
0
  6
ByBlock
 62
     0
440
 16777216
100
AcDbLine
 10
1137.204108809442
 20
1814.564747517886
 30
0.0
 11
1137.204108809442
 21
1881.253774602221
 31
0.0
  0
LINE
  5
80D6
330
7DDE
100
AcDbEntity
  8
0
  6
ByBlock
 62
     0
440
 16777216
100
AcDbLine
 10
927.2041088094423
 20
1866.253774602221
 30
0.0
 11
1107.204108809442
 21
1866.253774602221
 31
0.0
  0
INSERT
  5
80D7
330
7DDE
100
AcDbEntity
  8
0
  6
ByBlock
 62
     0
440
 16777216
100
AcDbBlockReference
  2
_OPEN
 10
897.2041088094425
 20
1866.253774602221
 30
0.0
 41
30.0
 42
30.0
 43
30.0
 50
180.0
  0
INSERT
  5
80D8
330
7DDE
100
AcDbEntity
  8
0
  6
ByBlock
 62
     0
440
 16777216
100
AcDbBlockReference
  2
_OPEN
 10
1137.204108809442
 20
1866.253774602221
 30
0.0
 41
30.0
 42
30.0
 43
30.0
  0
MTEXT
  5
80D9
330
7DDE
100
AcDbEntity
  8
0
  6
ByBlock
 62
     0
440
 16777216
100
AcDbMText
 10
1017.204108809442
 20
1903.753774602221
 30
0.0
 40
45.0
 41
0.0
 46
0.0
 71
     5
 72
     5
  1
\A1;240
 73
     1
 44
1.0
  0
POINT
  5
80DA
330
7DDE
100
AcDbEntity
  8
DEFPOINTS
  6
ByBlock
 62
     0
440
 16777216
100
AcDbPoint
 10
897.2041088094425
 20
1807.064747517886
 30
0.0
  0
POINT
  5
80DB
330
7DDE
100
AcDbEntity
  8
DEFPOINTS
  6
ByBlock
 62
     0
440
 16777216
100
AcDbPoint
 10
1137.204108809442
 20
1807.064747517886
 30
0.0
  0
POINT
  5
80DC
330
7DDE
100
AcDbEntity
  8
DEFPOINTS
  6
ByBlock
 62
     0
440
 16777216
100
AcDbPoint
 10
1137.204108809442
 20
1866.253774602221
 30
0.0
  0
ENDBLK
  5
80DD
330
7DDE
100
AcDbEntity
  8
0
100
AcDbBlockEnd
  0
BLOCK
  5
810C
330
7DEA
100
AcDbEntity
  8
0
100
AcDbBlockBegin
  2
*D6
 70
     1
 10
0.0
 20
0.0
 30
0.0
  3
*D6
  1

  0
LINE
  5
810D
330
7DEA
100
AcDbEntity
  8
0
  6
ByBlock
 62
     0
440
 16777216
100
AcDbLine
 10
897.2041088094425
 20
1814.564747517886
 30
0.0
 11
897.2041088094425
 21
1960.298672481356
 31
0.0
  0
LINE
  5
810E
330
7DEA
100
AcDbEntity
  8
0
  6
ByBlock
 62
     0
440
 16777216
100
AcDbLine
 10
1135.204108809442
 20
1876.799038973459
 30
0.0
 11
1135.204108809442
 21
1960.298672481356
 31
0.0
  0
LINE
  5
810F
330
7DEA
100
AcDbEntity
  8
0
  6
ByBlock
 62
     0
440
 16777216
100
AcDbLine
 10
927.2041088094423
 20
1945.298672481356
 30
0.0
 11
1105.204108809442
 21
1945.298672481356
 31
0.0
  0
INSERT
  5
8110
330
7DEA
100
AcDbEntity
  8
0
  6
ByBlock
 62
     0
440
 16777216
100
AcDbBlockReference
  2
_OPEN
 10
897.2041088094425
 20
1945.298672481356
 30
0.0
 41
30.0
 42
30.0
 43
30.0
 50
180.0
  0
INSERT
  5
8111
330
7DEA
100
AcDbEntity
  8
0
  6
ByBlock
 62
     0
440
 16777216
100
AcDbBlockReference
  2
_OPEN
 10
1135.204108809442
 20
1945.298672481356
 30
0.0
 41
30.0
 42
30.0
 43
30.0
  0
MTEXT
  5
8112
330
7DEA
100
AcDbEntity
  8
0
  6
ByBlock
 62
     0
440
 16777216
100
AcDbMText
 10
1016.204108809442
 20
1982.798672481356
 30
0.0
 40
45.0
 41
0.0
 46
0.0
 71
     5
 72
     5
  1
\A1;238
 73
     1
 44
1.0
  0
POINT
  5
8113
330
7DEA
100
AcDbEntity
  8
DEFPOINTS
  6
ByBlock
 62
     0
440
 16777216
100
AcDbPoint
 10
897.2041088094425
 20
1807.064747517886
 30
0.0
  0
POINT
  5
8114
330
7DEA
100
AcDbEntity
  8
DEFPOINTS
  6
ByBlock
 62
     0
440
 16777216
100
AcDbPoint
 10
1135.204108809442
 20
1869.299038973458
 30
0.0
  0
POINT
  5
8115
330
7DEA
100
AcDbEntity
  8
DEFPOINTS
  6
ByBlock
 62
     0
440
 16777216
100
AcDbPoint
 10
1135.204108809442
 20
1945.298672481356
 30
0.0
  0
ENDBLK
  5
8116
330
7DEA
100
AcDbEntity
  8
0
100
AcDbBlockEnd
  0
BLOCK
  5
8096
330
7DF6
100
AcDbEntity
  8
0
100
AcDbBlockBegin
  2
*D7
 70
     1
 10
0.0
 20
0.0
 30
0.0
  3
*D7
  1

  0
LINE
  5
8097
330
7DF6
100
AcDbEntity
  8
0
  6
ByBlock
 62
     0
440
 16777216
100
AcDbLine
 10
1393.347088884662
 20
1607.064747517886
 30
0.0
 11
1501.018554589585
 21
1607.064747517886
 31
0.0
  0
LINE
  5
8098
330
7DF6
100
AcDbEntity
  8
0
  6
ByBlock
 62
     0
440
 16777216
100
AcDbLine
 10
1342.704108809442
 20
1287.064747517885
 30
0.0
 11
1501.018554589585
 21
1287.064747517885
 31
0.0
  0
LINE
  5
8099
330
7DF6
100
AcDbEntity
  8
0
  6
ByBlock
 62
     0
440
 16777216
100
AcDbLine
 10
1486.018554589585
 20
1577.064747517886
 30
0.0
 11
1486.018554589585
 21
1317.064747517885
 31
0.0
  0
INSERT
  5
809A
330
7DF6
100
AcDbEntity
  8
0
  6
ByBlock
 62
     0
440
 16777216
100
AcDbBlockReference
  2
_OPEN
 10
1486.018554589585
 20
1607.064747517886
 30
0.0
 41
30.0
 42
30.0
 43
30.0
 50
90.0
  0
INSERT
  5
809B
330
7DF6
100
AcDbEntity
  8
0
  6
ByBlock
 62
     0
440
 16777216
100
AcDbBlockReference
  2
_OPEN
 10
1486.018554589585
 20
1287.064747517885
 30
0.0
 41
30.0
 42
30.0
 43
30.0
 50
270.0
  0
MTEXT
  5
809C
330
7DF6
100
AcDbEntity
  8
0
  6
ByBlock
 62
     0
440
 16777216
100
AcDbMText
 10
1448.518554589585
 20
1447.064747517885
 30
0.0
 40
45.0
 41
0.0
 46
0.0
 71
     5
 72
     5
  1
\A1;320
 11
0.0
 21
1.0
 31
0.0
 73
     1
 44
1.0
  0
POINT
  5
809D
330
7DF6
100
AcDbEntity
  8
DEFPOINTS
  6
ByBlock
 62
     0
440
 16777216
100
AcDbPoint
 10
1385.847088884662
 20
1607.064747517886
 30
0.0
  0
POINT
  5
809E
330
7DF6
100
AcDbEntity
  8
DEFPOINTS
  6
ByBlock
 62
     0
440
 16777216
100
AcDbPoint
 10
1335.204108809442
 20
1287.064747517885
 30
0.0
  0
POINT
  5
809F
330
7DF6
100
AcDbEntity
  8
DEFPOINTS
  6
ByBlock
 62
     0
440
 16777216
100
AcDbPoint
 10
1486.018554589585
 20
1287.064747517885
 30
0.0
  0
ENDBLK
  5
80A0
330
7DF6
100
AcDbEntity
  8
0
100
AcDbBlockEnd
  0
BLOCK
  5
81D4
330
7E1C
100
AcDbEntity
  8
0
100
AcDbBlockBegin
  2
*D8
 70
     1
 10
0.0
 20
0.0
 30
0.0
  3
*D8
  1

  0
LINE
  5
81D5
330
7E1C
100
AcDbEntity
  8
0
  6
ByBlock
 62
     0
440
 16777216
100
AcDbLine
 10
2616.510370952187
 20
1783.310590922503
 30
0.0
 11
2616.510370952187
 21
1992.054799296116
 31
0.0
  0
LINE
  5
81D6
330
7E1C
100
AcDbEntity
  8
0
  6
ByBlock
 62
     0
440
 16777216
100
AcDbLine
 10
2523.510370952187
 20
1921.642945458915
 30
0.0
 11
2523.510370952187
 21
1992.054799296116
 31
0.0
  0
LINE
  5
81D7
330
7E1C
100
AcDbEntity
  8
0
  6
ByBlock
 62
     0
440
 16777216
100
AcDbLine
 10
2586.510370952187
 20
1977.054799296115
 30
0.0
 11
2553.510370952187
 21
1977.054799296115
 31
0.0
  0
MTEXT
  5
81D8
330
7E1C
100
AcDbEntity
  8
0
  6
ByBlock
 62
     0
440
 16777216
100
AcDbMText
 10
2570.010370952187
 20
2037.054799296116
 30
0.0
 40
45.0
 41
0.0
 46
0.0
 71
     5
 72
     5
  1
\A1;94
 73
     1
 44
1.0
  0
INSERT
  5
81D9
330
7E1C
100
AcDbEntity
  8
0
  6
ByBlock
 62
     0
440
 16777216
100
AcDbBlockReference
  2
_OPEN
 10
2616.510370952187
 20
1977.054799296115
 30
0.0
 41
30.0
 42
30.0
 43
30.0
  0
INSERT
  5
81DA
330
7E1C
100
AcDbEntity
  8
0
  6
ByBlock
 62
     0
440
 16777216
100
AcDbBlockReference
  2
_OPEN
 10
2523.510370952187
 20
1977.054799296115
 30
0.0
 41
30.0
 42
30.0
 43
30.0
 50
180.0
  0
POINT
  5
81DB
330
7E1C
100
AcDbEntity
  8
DEFPOINTS
  6
ByBlock
 62
     0
440
 16777216
100
AcDbPoint
 10
2616.510370952187
 20
1775.810590922503
 30
0.0
  0
POINT
  5
81DC
330
7E1C
100
AcDbEntity
  8
DEFPOINTS
  6
ByBlock
 62
     0
440
 16777216
100
AcDbPoint
 10
2523.510370952187
 20
1914.142945458915
 30
0.0
  0
POINT
  5
81DD
330
7E1C
100
AcDbEntity
  8
DEFPOINTS
  6
ByBlock
 62
     0
440
 16777216
100
AcDbPoint
 10
2523.510370952187
 20
1977.054799296115
 30
0.0
  0
ENDBLK
  5
81DE
330
7E1C
100
AcDbEntity
  8
0
100
AcDbBlockEnd
  0
BLOCK
  5
8299
330
7E28
100
AcDbEntity
  8
0
100
AcDbBlockBegin
  2
*D9
 70
     1
 10
0.0
 20
0.0
 30
0.0
  3
*D9
  1

  0
LINE
  5
8508
330
7E28
100
AcDbEntity
  8
3
 62
     0
440
 16777216
370
    -2
100
AcDbLine
 10
2523.510370952187
 20
1921.642945458915
 30
0.0
 11
2523.510370952187
 21
1992.054799296116
 31
0.0
  0
LINE
  5
8509
330
7E28
100
AcDbEntity
  8
3
 62
     0
440
 16777216
370
    -2
100
AcDbLine
 10
1995.749305764281
 20
1707.110377821673
 30
0.0
 11
1995.749305764281
 21
1992.054799296116
 31
0.0
  0
LINE
  5
850A
330
7E28
100
AcDbEntity
  8
3
 62
     0
440
 16777216
370
    -2
100
AcDbLine
 10
2493.510370952187
 20
1977.054799296115
 30
0.0
 11
2025.749305764282
 21
1977.054799296115
 31
0.0
  0
INSERT
  5
850B
330
7E28
100
AcDbEntity
  8
3
 62
     0
440
 16777216
370
    -2
100
AcDbBlockReference
  2
_OPEN
 10
2523.510370952187
 20
1977.054799296115
 30
0.0
 41
30.0
 42
30.0
 43
30.0
  0
INSERT
  5
850C
330
7E28
100
AcDbEntity
  8
3
 62
     0
440
 16777216
370
    -2
100
AcDbBlockReference
  2
_OPEN
 10
1995.749305764281
 20
1977.054799296115
 30
0.0
 41
30.0
 42
30.0
 43
30.0
 50
180.0
  0
MTEXT
  5
850D
330
7E28
100
AcDbEntity
  8
3
 62
     0
440
 16777216
100
AcDbMText
 10
2259.629838358234
 20
2063.84051358183
 30
0.0
 40
45.0
 41
0.0
 46
0.0
 71
     5
 72
     1
  1
\A1;\P(600)
 73
     1
 44
1.0
  0
POINT
  5
850E
330
7E28
100
AcDbEntity
  8
DEFPOINTS
 62
     0
440
 16777216
100
AcDbPoint
 10
2523.510370952187
 20
1914.142945458915
 30
0.0
  0
POINT
  5
850F
330
7E28
100
AcDbEntity
  8
DEFPOINTS
 62
     0
440
 16777216
100
AcDbPoint
 10
1995.749305764281
 20
1699.610377821673
 30
0.0
  0
POINT
  5
8510
330
7E28
100
AcDbEntity
  8
DEFPOINTS
 62
     0
440
 16777216
100
AcDbPoint
 10
1995.749305764281
 20
1977.054799296115
 30
0.0
  0
ENDBLK
  5
82A3
330
7E28
100
AcDbEntity
  8
0
100
AcDbBlockEnd
  0
BLOCK
  5
8151
330
7E33
100
AcDbEntity
  8
0
100
AcDbBlockBegin
  2
*D10
 70
     1
 10
0.0
 20
0.0
 30
0.0
  3
*D10
  1

  0
LINE
  5
8152
330
7E33
100
AcDbEntity
  8
0
  6
ByBlock
 62
     0
440
 16777216
100
AcDbLine
 10
1171.704108809443
 20
1807.064747517886
 30
0.0
 11
1501.315432061543
 21
1807.064747517886
 31
0.0
  0
LINE
  5
8153
330
7E33
100
AcDbEntity
  8
0
  6
ByBlock
 62
     0
440
 16777216
100
AcDbLine
 10
1393.347088884662
 20
1607.064747517886
 30
0.0
 11
1501.315432061543
 21
1607.064747517886
 31
0.0
  0
LINE
  5
8154
330
7E33
100
AcDbEntity
  8
0
  6
ByBlock
 62
     0
440
 16777216
100
AcDbLine
 10
1486.315432061543
 20
1777.064747517886
 30
0.0
 11
1486.315432061543
 21
1637.064747517885
 31
0.0
  0
MTEXT
  5
8155
330
7E33
100
AcDbEntity
  8
0
  6
ByBlock
 62
     0
440
 16777216
100
AcDbMText
 10
1442.043941045205
 20
1707.064747517886
 30
0.0
 40
45.0
 41
0.0
 46
0.0
 71
     5
 72
     5
  1
\A1;200
 11
0.0
 21
1.0
 31
0.0
 73
     1
 44
1.0
  0
INSERT
  5
8156
330
7E33
100
AcDbEntity
  8
0
  6
ByBlock
 62
     0
440
 16777216
100
AcDbBlockReference
  2
_OPEN
 10
1486.315432061543
 20
1807.064747517886
 30
0.0
 41
30.0
 42
30.0
 43
30.0
 50
90.0
  0
INSERT
  5
8157
330
7E33
100
AcDbEntity
  8
0
  6
ByBlock
 62
     0
440
 16777216
100
AcDbBlockReference
  2
_OPEN
 10
1486.315432061543
 20
1607.064747517886
 30
0.0
 41
30.0
 42
30.0
 43
30.0
 50
270.0
  0
POINT
  5
8158
330
7E33
100
AcDbEntity
  8
DEFPOINTS
  6
ByBlock
 62
     0
440
 16777216
100
AcDbPoint
 10
1164.204108809443
 20
1807.064747517886
 30
0.0
  0
POINT
  5
8159
330
7E33
100
AcDbEntity
  8
DEFPOINTS
  6
ByBlock
 62
     0
440
 16777216
100
AcDbPoint
 10
1385.847088884662
 20
1607.064747517886
 30
0.0
  0
POINT
  5
815A
330
7E33
100
AcDbEntity
  8
DEFPOINTS
  6
ByBlock
 62
     0
440
 16777216
100
AcDbPoint
 10
1486.315432061543
 20
1607.064747517886
 30
0.0
  0
ENDBLK
  5
815B
330
7E33
100
AcDbEntity
  8
0
100
AcDbBlockEnd
  0
BLOCK
  5
813B
330
7E3F
100
AcDbEntity
  8
0
100
AcDbBlockBegin
  2
*D11
 70
     1
 10
0.0
 20
0.0
 30
0.0
  3
*D11
  1

  0
LINE
  5
813C
330
7E3F
100
AcDbEntity
  8
0
  6
ByBlock
 62
     0
440
 16777216
100
AcDbLine
 10
1135.204108809442
 20
1876.799038973459
 30
0.0
 11
1135.204108809442
 21
1960.298672481356
 31
0.0
  0
LINE
  5
813D
330
7E3F
100
AcDbEntity
  8
0
  6
ByBlock
 62
     0
440
 16777216
100
AcDbLine
 10
1312.204108809443
 20
1600.564747517885
 30
0.0
 11
1312.204108809443
 21
1960.298672481356
 31
0.0
  0
LINE
  5
813E
330
7E3F
100
AcDbEntity
  8
0
  6
ByBlock
 62
     0
440
 16777216
100
AcDbLine
 10
1165.204108809442
 20
1945.298672481356
 30
0.0
 11
1282.204108809443
 21
1945.298672481356
 31
0.0
  0
MTEXT
  5
813F
330
7E3F
100
AcDbEntity
  8
0
  6
ByBlock
 62
     0
440
 16777216
100
AcDbMText
 10
1223.704108809442
 20
1980.579476418745
 30
0.0
 40
45.0
 41
0.0
 46
0.0
 71
     5
 72
     5
  1
\A1;177
 73
     1
 44
1.0
  0
INSERT
  5
8140
330
7E3F
100
AcDbEntity
  8
0
  6
ByBlock
 62
     0
440
 16777216
100
AcDbBlockReference
  2
_OPEN
 10
1135.204108809442
 20
1945.298672481356
 30
0.0
 41
30.0
 42
30.0
 43
30.0
 50
180.0
  0
INSERT
  5
8141
330
7E3F
100
AcDbEntity
  8
0
  6
ByBlock
 62
     0
440
 16777216
100
AcDbBlockReference
  2
_OPEN
 10
1312.204108809443
 20
1945.298672481356
 30
0.0
 41
30.0
 42
30.0
 43
30.0
  0
POINT
  5
8142
330
7E3F
100
AcDbEntity
  8
DEFPOINTS
  6
ByBlock
 62
     0
440
 16777216
100
AcDbPoint
 10
1135.204108809442
 20
1869.299038973458
 30
0.0
  0
POINT
  5
8143
330
7E3F
100
AcDbEntity
  8
DEFPOINTS
  6
ByBlock
 62
     0
440
 16777216
100
AcDbPoint
 10
1312.204108809443
 20
1593.064747517885
 30
0.0
  0
POINT
  5
8144
330
7E3F
100
AcDbEntity
  8
DEFPOINTS
  6
ByBlock
 62
     0
440
 16777216
100
AcDbPoint
 10
1312.204108809443
 20
1945.298672481356
 30
0.0
  0
ENDBLK
  5
8145
330
7E3F
100
AcDbEntity
  8
0
100
AcDbBlockEnd
  0
BLOCK
  5
8125
330
7E4A
100
AcDbEntity
  8
0
100
AcDbBlockBegin
  2
*D12
 70
     1
 10
0.0
 20
0.0
 30
0.0
  3
*D12
  1

  0
LINE
  5
8126
330
7E4A
100
AcDbEntity
  8
0
  6
ByBlock
 62
     0
440
 16777216
100
AcDbLine
 10
1312.204108809443
 20
1600.564747517885
 30
0.0
 11
1312.204108809443
 21
2052.061774057661
 31
0.0
  0
LINE
  5
8127
330
7E4A
100
AcDbEntity
  8
0
  6
ByBlock
 62
     0
440
 16777216
100
AcDbLine
 10
635.2041088094416
 20
1334.564747517885
 30
0.0
 11
635.2041088094416
 21
2052.061774057661
 31
0.0
  0
LINE
  5
8128
330
7E4A
100
AcDbEntity
  8
0
  6
ByBlock
 62
     0
440
 16777216
100
AcDbLine
 10
1282.204108809443
 20
2037.061774057661
 30
0.0
 11
665.2041088094415
 21
2037.061774057661
 31
0.0
  0
INSERT
  5
8129
330
7E4A
100
AcDbEntity
  8
0
  6
ByBlock
 62
     0
440
 16777216
100
AcDbBlockReference
  2
_OPEN
 10
1312.204108809443
 20
2037.061774057661
 30
0.0
 41
30.0
 42
30.0
 43
30.0
  0
INSERT
  5
812A
330
7E4A
100
AcDbEntity
  8
0
  6
ByBlock
 62
     0
440
 16777216
100
AcDbBlockReference
  2
_OPEN
 10
635.2041088094416
 20
2037.061774057661
 30
0.0
 41
30.0
 42
30.0
 43
30.0
 50
180.0
  0
MTEXT
  5
812B
330
7E4A
100
AcDbEntity
  8
0
  6
ByBlock
 62
     0
440
 16777216
100
AcDbMText
 10
973.7041088094422
 20
2074.561774057661
 30
0.0
 40
45.0
 41
0.0
 46
0.0
 71
     5
 72
     5
  1
\A1;677
 73
     1
 44
1.0
  0
POINT
  5
812C
330
7E4A
100
AcDbEntity
  8
DEFPOINTS
  6
ByBlock
 62
     0
440
 16777216
100
AcDbPoint
 10
1312.204108809443
 20
1593.064747517885
 30
0.0
  0
POINT
  5
812D
330
7E4A
100
AcDbEntity
  8
DEFPOINTS
  6
ByBlock
 62
     0
440
 16777216
100
AcDbPoint
 10
635.2041088094416
 20
1327.064747517885
 30
0.0
  0
POINT
  5
812E
330
7E4A
100
AcDbEntity
  8
DEFPOINTS
  6
ByBlock
 62
     0
440
 16777216
100
AcDbPoint
 10
635.2041088094416
 20
2037.061774057661
 30
0.0
  0
ENDBLK
  5
812F
330
7E4A
100
AcDbEntity
  8
0
100
AcDbBlockEnd
  0
BLOCK
  5
828E
330
7E62
100
AcDbEntity
  8
0
100
AcDbBlockBegin
  2
*D13
 70
     1
 10
0.0
 20
0.0
 30
0.0
  3
*D13
  1

  0
LINE
  5
828F
330
7E62
100
AcDbEntity
  8
0
  6
ByBlock
 62
     0
440
 16777216
100
AcDbLine
 10
2650.010370952188
 20
1734.041672618428
 30
0.0
 11
2757.212645178134
 21
1734.041672618428
 31
0.0
  0
LINE
  5
8290
330
7E62
100
AcDbEntity
  8
0
  6
ByBlock
 62
     0
440
 16777216
100
AcDbLine
 10
2650.010370952188
 20
1480.041672618427
 30
0.0
 11
2757.212645178134
 21
1480.041672618427
 31
0.0
  0
LINE
  5
8291
330
7E62
100
AcDbEntity
  8
0
  6
ByBlock
 62
     0
440
 16777216
100
AcDbLine
 10
2742.212645178133
 20
1704.041672618427
 30
0.0
 11
2742.212645178133
 21
1510.041672618427
 31
0.0
  0
MTEXT
  5
8292
330
7E62
100
AcDbEntity
  8
0
  6
ByBlock
 62
     0
440
 16777216
100
AcDbMText
 10
2706.557177401915
 20
1607.041672618428
 30
0.0
 40
45.0
 41
0.0
 46
0.0
 71
     5
 72
     5
  1
\A1;φ254
 11
0.0
 21
1.0
 31
0.0
 73
     1
 44
1.0
  0
INSERT
  5
8293
330
7E62
100
AcDbEntity
  8
0
  6
ByBlock
 62
     0
440
 16777216
100
AcDbBlockReference
  2
_OPEN
 10
2742.212645178133
 20
1734.041672618428
 30
0.0
 41
30.0
 42
30.0
 43
30.0
 50
90.0
  0
INSERT
  5
8294
330
7E62
100
AcDbEntity
  8
0
  6
ByBlock
 62
     0
440
 16777216
100
AcDbBlockReference
  2
_OPEN
 10
2742.212645178133
 20
1480.041672618427
 30
0.0
 41
30.0
 42
30.0
 43
30.0
 50
270.0
  0
POINT
  5
8295
330
7E62
100
AcDbEntity
  8
DEFPOINTS
  6
ByBlock
 62
     0
440
 16777216
100
AcDbPoint
 10
2642.510370952188
 20
1734.041672618428
 30
0.0
  0
POINT
  5
8296
330
7E62
100
AcDbEntity
  8
DEFPOINTS
  6
ByBlock
 62
     0
440
 16777216
100
AcDbPoint
 10
2642.510370952188
 20
1480.041672618427
 30
0.0
  0
POINT
  5
8297
330
7E62
100
AcDbEntity
  8
DEFPOINTS
  6
ByBlock
 62
     0
440
 16777216
100
AcDbPoint
 10
2742.212645178133
 20
1480.041672618427
 30
0.0
  0
ENDBLK
  5
8298
330
7E62
100
AcDbEntity
  8
0
100
AcDbBlockEnd
  0
BLOCK
  5
8385
330
8384
100
AcDbEntity
  8
0
100
AcDbBlockBegin
  2
*D14
 70
     1
 10
0.0
 20
0.0
 30
0.0
  3
*D14
  1

  0
LINE
  5
8485
330
8384
100
AcDbEntity
  8
3
 62
     0
440
 16777216
370
    -2
100
AcDbLine
 10
635.2041088094416
 20
1169.564747517885
 30
0.0
 11
635.2041088094416
 21
1042.770638735048
 31
0.0
  0
LINE
  5
8486
330
8384
100
AcDbEntity
  8
3
 62
     0
440
 16777216
370
    -2
100
AcDbLine
 10
1135.204108809442
 20
1169.564747517885
 30
0.0
 11
1135.204108809442
 21
1042.770638735048
 31
0.0
  0
LINE
  5
8487
330
8384
100
AcDbEntity
  8
3
 62
     0
440
 16777216
370
    -2
100
AcDbLine
 10
665.2041088094415
 20
1057.770638735048
 30
0.0
 11
1105.204108809442
 21
1057.770638735048
 31
0.0
  0
INSERT
  5
8488
330
8384
100
AcDbEntity
  8
3
 62
     0
440
 16777216
370
    -2
100
AcDbBlockReference
  2
_OPEN
 10
635.2041088094416
 20
1057.770638735048
 30
0.0
 41
30.0
 42
30.0
 43
30.0
 50
180.0
  0
INSERT
  5
8489
330
8384
100
AcDbEntity
  8
3
 62
     0
440
 16777216
370
    -2
100
AcDbBlockReference
  2
_OPEN
 10
1135.204108809442
 20
1057.770638735048
 30
0.0
 41
30.0
 42
30.0
 43
30.0
  0
MTEXT
  5
848A
330
8384
100
AcDbEntity
  8
3
 62
     0
440
 16777216
100
AcDbMText
 10
885.2041088094418
 20
1095.270638735048
 30
0.0
 40
45.0
 41
0.0
 46
0.0
 71
     5
 72
     1
  1
\A1;500
 73
     1
 44
1.0
  0
POINT
  5
848B
330
8384
100
AcDbEntity
  8
DEFPOINTS
 62
     0
440
 16777216
100
AcDbPoint
 10
635.2041088094416
 20
1177.064747517885
 30
0.0
  0
POINT
  5
848C
330
8384
100
AcDbEntity
  8
DEFPOINTS
 62
     0
440
 16777216
100
AcDbPoint
 10
1135.204108809442
 20
1177.064747517885
 30
0.0
  0
POINT
  5
848D
330
8384
100
AcDbEntity
  8
DEFPOINTS
 62
     0
440
 16777216
100
AcDbPoint
 10
1135.204108809442
 20
1057.770638735048
 30
0.0
  0
ENDBLK
  5
838F
330
8384
100
AcDbEntity
  8
0
100
AcDbBlockEnd
  0
BLOCK
  5
8392
330
8391
100
AcDbEntity
  8
0
100
AcDbBlockBegin
  2
*D15
 70
     1
 10
0.0
 20
0.0
 30
0.0
  3
*D15
  1

  0
LINE
  5
848E
330
8391
100
AcDbEntity
  8
3
 62
     0
440
 16777216
370
    -2
100
AcDbLine
 10
1135.204108809442
 20
1169.564747517885
 30
0.0
 11
1135.204108809442
 21
1042.770638735048
 31
0.0
  0
LINE
  5
848F
330
8391
100
AcDbEntity
  8
3
 62
     0
440
 16777216
370
    -2
100
AcDbLine
 10
1335.204108809442
 20
1169.564747517885
 30
0.0
 11
1335.204108809442
 21
1042.770638735048
 31
0.0
  0
LINE
  5
8490
330
8391
100
AcDbEntity
  8
3
 62
     0
440
 16777216
370
    -2
100
AcDbLine
 10
1165.204108809442
 20
1057.770638735048
 30
0.0
 11
1305.204108809442
 21
1057.770638735048
 31
0.0
  0
INSERT
  5
8491
330
8391
100
AcDbEntity
  8
3
 62
     0
440
 16777216
370
    -2
100
AcDbBlockReference
  2
_OPEN
 10
1135.204108809442
 20
1057.770638735048
 30
0.0
 41
30.0
 42
30.0
 43
30.0
 50
180.0
  0
INSERT
  5
8492
330
8391
100
AcDbEntity
  8
3
 62
     0
440
 16777216
370
    -2
100
AcDbBlockReference
  2
_OPEN
 10
1335.204108809442
 20
1057.770638735048
 30
0.0
 41
30.0
 42
30.0
 43
30.0
  0
MTEXT
  5
8493
330
8391
100
AcDbEntity
  8
3
 62
     0
440
 16777216
100
AcDbMText
 10
1235.204108809442
 20
1095.270638735048
 30
0.0
 40
45.0
 41
0.0
 46
0.0
 71
     5
 72
     1
  1
\A1;200
 73
     1
 44
1.0
  0
POINT
  5
8494
330
8391
100
AcDbEntity
  8
DEFPOINTS
 62
     0
440
 16777216
100
AcDbPoint
 10
1135.204108809442
 20
1177.064747517885
 30
0.0
  0
POINT
  5
8495
330
8391
100
AcDbEntity
  8
DEFPOINTS
 62
     0
440
 16777216
100
AcDbPoint
 10
1335.204108809442
 20
1177.064747517885
 30
0.0
  0
POINT
  5
8496
330
8391
100
AcDbEntity
  8
DEFPOINTS
 62
     0
440
 16777216
100
AcDbPoint
 10
1335.204108809442
 20
1057.770638735048
 30
0.0
  0
ENDBLK
  5
839E
330
8391
100
AcDbEntity
  8
0
100
AcDbBlockEnd
  0
BLOCK
  5
83A1
330
83A0
100
AcDbEntity
  8
0
100
AcDbBlockBegin
  2
*D16
 70
     1
 10
0.0
 20
0.0
 30
0.0
  3
*D16
  1

  0
LINE
  5
8497
330
83A0
100
AcDbEntity
  8
3
 62
     0
440
 16777216
370
    -2
100
AcDbLine
 10
2022.510370952187
 20
1169.541672618427
 30
0.0
 11
2022.510370952187
 21
1042.770638735048
 31
0.0
  0
LINE
  5
8498
330
83A0
100
AcDbEntity
  8
3
 62
     0
440
 16777216
370
    -2
100
AcDbLine
 10
2467.510370952187
 20
1169.541672618427
 30
0.0
 11
2467.510370952187
 21
1042.770638735048
 31
0.0
  0
LINE
  5
8499
330
83A0
100
AcDbEntity
  8
3
 62
     0
440
 16777216
370
    -2
100
AcDbLine
 10
2052.510370952187
 20
1057.770638735048
 30
0.0
 11
2437.510370952188
 21
1057.770638735048
 31
0.0
  0
INSERT
  5
849A
330
83A0
100
AcDbEntity
  8
3
 62
     0
440
 16777216
370
    -2
100
AcDbBlockReference
  2
_OPEN
 10
2022.510370952187
 20
1057.770638735048
 30
0.0
 41
30.0
 42
30.0
 43
30.0
 50
180.0
  0
INSERT
  5
849B
330
83A0
100
AcDbEntity
  8
3
 62
     0
440
 16777216
370
    -2
100
AcDbBlockReference
  2
_OPEN
 10
2467.510370952187
 20
1057.770638735048
 30
0.0
 41
30.0
 42
30.0
 43
30.0
  0
MTEXT
  5
849C
330
83A0
100
AcDbEntity
  8
3
 62
     0
440
 16777216
100
AcDbMText
 10
2245.010370952187
 20
1095.270638735048
 30
0.0
 40
45.0
 41
0.0
 46
0.0
 71
     5
 72
     1
  1
\A1;445
 73
     1
 44
1.0
  0
POINT
  5
849D
330
83A0
100
AcDbEntity
  8
DEFPOINTS
 62
     0
440
 16777216
100
AcDbPoint
 10
2022.510370952187
 20
1177.041672618427
 30
0.0
  0
POINT
  5
849E
330
83A0
100
AcDbEntity
  8
DEFPOINTS
 62
     0
440
 16777216
100
AcDbPoint
 10
2467.510370952187
 20
1177.041672618427
 30
0.0
  0
POINT
  5
849F
330
83A0
100
AcDbEntity
  8
DEFPOINTS
 62
     0
440
 16777216
100
AcDbPoint
 10
2467.510370952187
 20
1057.770638735048
 30
0.0
  0
ENDBLK
  5
83AB
330
83A0
100
AcDbEntity
  8
0
100
AcDbBlockEnd
  0
BLOCK
  5
83AE
330
83AD
100
AcDbEntity
  8
0
100
AcDbBlockBegin
  2
*D17
 70
     1
 10
0.0
 20
0.0
 30
0.0
  3
*D17
  1

  0
LINE
  5
84A0
330
83AD
100
AcDbEntity
  8
3
 62
     0
440
 16777216
370
    -2
100
AcDbLine
 10
2467.510370952187
 20
1169.541672618427
 30
0.0
 11
2467.510370952187
 21
1042.770638735048
 31
0.0
  0
LINE
  5
84A1
330
83AD
100
AcDbEntity
  8
3
 62
     0
440
 16777216
370
    -2
100
AcDbLine
 10
2523.510370952187
 20
1169.541672618427
 30
0.0
 11
2523.510370952187
 21
1042.770638735048
 31
0.0
  0
LINE
  5
84A2
330
83AD
100
AcDbEntity
  8
3
 62
     0
440
 16777216
370
    -2
100
AcDbLine
 10
2437.510370952188
 20
1057.770638735048
 30
0.0
 11
2407.510370952187
 21
1057.770638735048
 31
0.0
  0
LINE
  5
84A3
330
83AD
100
AcDbEntity
  8
3
 62
     0
440
 16777216
370
    -2
100
AcDbLine
 10
2553.510370952187
 20
1057.770638735048
 30
0.0
 11
2684.224656666473
 21
1057.770638735048
 31
0.0
  0
LINE
  5
84A4
330
83AD
100
AcDbEntity
  8
3
 62
     0
440
 16777216
370
    -2
100
AcDbLine
 10
2467.510370952187
 20
1057.770638735048
 30
0.0
 11
2523.510370952187
 21
1057.770638735048
 31
0.0
  0
INSERT
  5
84A5
330
83AD
100
AcDbEntity
  8
3
 62
     0
440
 16777216
370
    -2
100
AcDbBlockReference
  2
_OPEN
 10
2467.510370952187
 20
1057.770638735048
 30
0.0
 41
30.0
 42
30.0
 43
30.0
  0
INSERT
  5
84A6
330
83AD
100
AcDbEntity
  8
3
 62
     0
440
 16777216
370
    -2
100
AcDbBlockReference
  2
_OPEN
 10
2523.510370952187
 20
1057.770638735048
 30
0.0
 41
30.0
 42
30.0
 43
30.0
 50
180.0
  0
MTEXT
  5
84A7
330
83AD
100
AcDbEntity
  8
3
 62
     0
440
 16777216
100
AcDbMText
 10
2633.86751380933
 20
1095.270638735048
 30
0.0
 40
45.0
 41
0.0
 46
0.0
 71
     5
 72
     1
  1
\A1;56
 73
     1
 44
1.0
  0
POINT
  5
84A8
330
83AD
100
AcDbEntity
  8
DEFPOINTS
 62
     0
440
 16777216
100
AcDbPoint
 10
2467.510370952187
 20
1177.041672618427
 30
0.0
  0
POINT
  5
84A9
330
83AD
100
AcDbEntity
  8
DEFPOINTS
 62
     0
440
 16777216
100
AcDbPoint
 10
2523.510370952187
 20
1177.041672618427
 30
0.0
  0
POINT
  5
84AA
330
83AD
100
AcDbEntity
  8
DEFPOINTS
 62
     0
440
 16777216
100
AcDbPoint
 10
2523.510370952187
 20
1057.770638735048
 30
0.0
  0
ENDBLK
  5
83BA
330
83AD
100
AcDbEntity
  8
0
100
AcDbBlockEnd
  0
BLOCK
  5
83D8
330
83D7
100
AcDbEntity
  8
0
100
AcDbBlockBegin
  2
*D18
 70
     1
 10
0.0
 20
0.0
 30
0.0
  3
*D18
  1

  0
LINE
  5
84AB
330
83D7
100
AcDbEntity
  8
3
 62
     0
440
 16777216
370
    -2
100
AcDbLine
 10
1342.704108809442
 20
1217.064747517885
 30
0.0
 11
1502.396556984984
 21
1217.064747517885
 31
0.0
  0
LINE
  5
84AC
330
83D7
100
AcDbEntity
  8
3
 62
     0
440
 16777216
370
    -2
100
AcDbLine
 10
1342.704108809442
 20
1177.064747517885
 30
0.0
 11
1502.396556984984
 21
1177.064747517885
 31
0.0
  0
LINE
  5
84AD
330
83D7
100
AcDbEntity
  8
3
 62
     0
440
 16777216
370
    -2
100
AcDbLine
 10
1487.396556984984
 20
1247.064747517885
 30
0.0
 11
1487.396556984984
 21
1277.064747517885
 31
0.0
  0
LINE
  5
84AE
330
83D7
100
AcDbEntity
  8
3
 62
     0
440
 16777216
370
    -2
100
AcDbLine
 10
1487.396556984984
 20
1147.064747517885
 30
0.0
 11
1487.396556984984
 21
1014.207604660742
 31
0.0
  0
LINE
  5
84AF
330
83D7
100
AcDbEntity
  8
3
 62
     0
440
 16777216
370
    -2
100
AcDbLine
 10
1487.396556984984
 20
1217.064747517885
 30
0.0
 11
1487.396556984984
 21
1177.064747517885
 31
0.0
  0
INSERT
  5
84B0
330
83D7
100
AcDbEntity
  8
3
 62
     0
440
 16777216
370
    -2
100
AcDbBlockReference
  2
_DOT
 10
1487.396556984984
 20
1217.064747517885
 30
0.0
 41
30.0
 42
30.0
 43
30.0
 50
270.0
  0
INSERT
  5
84B1
330
83D7
100
AcDbEntity
  8
3
 62
     0
440
 16777216
370
    -2
100
AcDbBlockReference
  2
_OPEN
 10
1487.396556984984
 20
1177.064747517885
 30
0.0
 41
30.0
 42
30.0
 43
30.0
 50
90.0
  0
MTEXT
  5
84B2
330
83D7
100
AcDbEntity
  8
3
 62
     0
440
 16777216
100
AcDbMText
 10
1449.896556984984
 20
1065.636176089314
 30
0.0
 40
45.0
 41
0.0
 46
0.0
 71
     5
 72
     1
  1
\A1;40
 11
0.0000000000000001
 21
1.0
 31
0.0
 73
     1
 44
1.0
  0
POINT
  5
84B3
330
83D7
100
AcDbEntity
  8
DEFPOINTS
 62
     0
440
 16777216
100
AcDbPoint
 10
1335.204108809442
 20
1217.064747517885
 30
0.0
  0
POINT
  5
84B4
330
83D7
100
AcDbEntity
  8
DEFPOINTS
 62
     0
440
 16777216
100
AcDbPoint
 10
1335.204108809442
 20
1177.064747517885
 30
0.0
  0
POINT
  5
84B5
330
83D7
100
AcDbEntity
  8
DEFPOINTS
 62
     0
440
 16777216
100
AcDbPoint
 10
1487.396556984984
 20
1177.064747517885
 30
0.0
  0
ENDBLK
  5
83E4
330
83D7
100
AcDbEntity
  8
0
100
AcDbBlockEnd
  0
BLOCK
  5
8405
330
8404
100
AcDbEntity
  8
0
100
AcDbBlockBegin
  2
*D19
 70
     1
 10
0.0
 20
0.0
 30
0.0
  3
*D19
  1

  0
LINE
  5
84CA
330
8404
100
AcDbEntity
  8
3
 62
     0
440
 16777216
370
    -2
100
AcDbLine
 10
1342.704108809442
 20
1217.064747517885
 30
0.0
 11
1503.568424734729
 21
1217.064747517885
 31
0.0
  0
LINE
  5
84CB
330
8404
100
AcDbEntity
  8
3
 62
     0
440
 16777216
370
    -2
100
AcDbLine
 10
1342.704108809442
 20
1287.064747517885
 30
0.0
 11
1503.568424734729
 21
1287.064747517885
 31
0.0
  0
LINE
  5
84CC
330
8404
100
AcDbEntity
  8
3
 62
     0
440
 16777216
370
    -2
100
AcDbLine
 10
1488.568424734729
 20
1187.064747517885
 30
0.0
 11
1488.568424734729
 21
1157.064747517885
 31
0.0
  0
LINE
  5
84CD
330
8404
100
AcDbEntity
  8
3
 62
     0
440
 16777216
370
    -2
100
AcDbLine
 10
1488.568424734729
 20
1317.064747517885
 30
0.0
 11
1488.568424734729
 21
1347.064747517885
 31
0.0
  0
MTEXT
  5
84CE
330
8404
100
AcDbEntity
  8
3
 62
     0
440
 16777216
100
AcDbMText
 10
1556.952825529894
 20
1255.196538162225
 30
0.0
 40
45.0
 41
0.0
 46
0.0
 71
     5
 72
     1
  1
\A1;(70)
 11
0.0000000000000001
 21
1.0
 31
0.0
 73
     1
 44
1.0
  0
LINE
  5
84CF
330
8404
100
AcDbEntity
  8
3
 62
     0
440
 16777216
370
    -2
100
AcDbLine
 10
1488.568424734729
 20
1217.064747517885
 30
0.0
 11
1488.568424734729
 21
1287.064747517885
 31
0.0
  0
INSERT
  5
84D0
330
8404
100
AcDbEntity
  8
3
 62
     0
440
 16777216
370
    -2
100
AcDbBlockReference
  2
_DOT
 10
1488.568424734729
 20
1217.064747517885
 30
0.0
 41
30.0
 42
30.0
 43
30.0
 50
90.0
  0
INSERT
  5
84D1
330
8404
100
AcDbEntity
  8
3
 62
     0
440
 16777216
370
    -2
100
AcDbBlockReference
  2
_OPEN
 10
1488.568424734729
 20
1287.064747517885
 30
0.0
 41
30.0
 42
30.0
 43
30.0
 50
270.0
  0
POINT
  5
84D2
330
8404
100
AcDbEntity
  8
DEFPOINTS
 62
     0
440
 16777216
100
AcDbPoint
 10
1335.204108809442
 20
1217.064747517885
 30
0.0
  0
POINT
  5
84D3
330
8404
100
AcDbEntity
  8
DEFPOINTS
 62
     0
440
 16777216
100
AcDbPoint
 10
1335.204108809442
 20
1287.064747517885
 30
0.0
  0
POINT
  5
84D4
330
8404
100
AcDbEntity
  8
DEFPOINTS
 62
     0
440
 16777216
100
AcDbPoint
 10
1488.568424734729
 20
1287.064747517885
 30
0.0
  0
ENDBLK
  5
8411
330
8404
100
AcDbEntity
  8
0
100
AcDbBlockEnd
  0
BLOCK
  5
8414
330
8413
100
AcDbEntity
  8
0
100
AcDbBlockBegin
  2
*D20
 70
     1
 10
0.0
 20
0.0
 30
0.0
  3
*D20
  1

  0
LINE
  5
84C1
330
8413
100
AcDbEntity
  8
3
 62
     0
440
 16777216
370
    -2
100
AcDbLine
 10
1171.704108809443
 20
1807.064747517886
 30
0.0
 11
1647.953268370058
 21
1807.064747517885
 31
0.0
  0
LINE
  5
84C2
330
8413
100
AcDbEntity
  8
3
 62
     0
440
 16777216
370
    -2
100
AcDbLine
 10
1342.704108809442
 20
1177.064747517885
 30
0.0
 11
1647.953268370058
 21
1177.064747517885
 31
0.0
  0
LINE
  5
84C3
330
8413
100
AcDbEntity
  8
3
 62
     0
440
 16777216
370
    -2
100
AcDbLine
 10
1632.953268370058
 20
1777.064747517885
 30
0.0
 11
1632.953268370058
 21
1207.064747517885
 31
0.0
  0
INSERT
  5
84C4
330
8413
100
AcDbEntity
  8
3
 62
     0
440
 16777216
370
    -2
100
AcDbBlockReference
  2
_OPEN
 10
1632.953268370058
 20
1807.064747517885
 30
0.0
 41
30.0
 42
30.0
 43
30.0
 50
90.0
  0
INSERT
  5
84C5
330
8413
100
AcDbEntity
  8
3
 62
     0
440
 16777216
370
    -2
100
AcDbBlockReference
  2
_OPEN
 10
1632.953268370058
 20
1177.064747517885
 30
0.0
 41
30.0
 42
30.0
 43
30.0
 50
270.0
  0
MTEXT
  5
84C6
330
8413
100
AcDbEntity
  8
3
 62
     0
440
 16777216
100
AcDbMText
 10
1583.667554084344
 20
1492.064747517886
 30
0.0
 40
45.0
 41
0.0
 46
0.0
 71
     5
 72
     1
  1
\A1;(630)
 11
0.0000000000000001
 21
1.0
 31
0.0
 73
     1
 44
1.0
  0
POINT
  5
84C7
330
8413
100
AcDbEntity
  8
DEFPOINTS
 62
     0
440
 16777216
100
AcDbPoint
 10
1164.204108809443
 20
1807.064747517886
 30
0.0
  0
POINT
  5
84C8
330
8413
100
AcDbEntity
  8
DEFPOINTS
 62
     0
440
 16777216
100
AcDbPoint
 10
1335.204108809442
 20
1177.064747517885
 30
0.0
  0
POINT
  5
84C9
330
8413
100
AcDbEntity
  8
DEFPOINTS
 62
     0
440
 16777216
100
AcDbPoint
 10
1632.953268370058
 20
1177.064747517885
 30
0.0
  0
ENDBLK
  5
841E
330
8413
100
AcDbEntity
  8
0
100
AcDbBlockEnd
  0
ENDSEC
  0
SECTION
  2
ENTITIES
  0
LINE
  5
7C41
330
19
100
AcDbEntity
  8
2
100
AcDbLine
 10
851.9098403604303
 20
1607.064747517885
 30
0.0
 11
1385.847088884662
 21
1607.064747517886
 31
0.0
  0
LINE
  5
7C42
330
19
100
AcDbEntity
  8
2
100
AcDbLine
 10
1135.204108809442
 20
1857.862429259308
 30
0.0
 11
1135.204108809442
 21
1177.064747517885
 31
0.0
  0
LINE
  5
7C43
330
19
100
AcDbEntity
  8
1
100
AcDbLine
 10
756.3663042782927
 20
1506.057447798553
 30
0.0
 11
1099.504958297226
 21
1692.472802382233
 31
0.0
  0
ARC
  5
7C44
330
19
100
AcDbEntity
  8
1
100
AcDbCircle
 10
1135.204108809442
 20
1607.064747517885
 30
0.0
 40
92.56870520324515
100
AcDbArc
 50
287.9621549859291
 51
112.6841186733969
  0
LINE
  5
7C45
330
19
100
AcDbEntity
  8
1
100
AcDbLine
 10
870.204108809442
 20
1782.064747517886
 30
0.0
 11
1164.204108809443
 21
1782.064747517886
 31
0.0
  0
LINE
  5
7C46
330
19
100
AcDbEntity
  8
1
100
AcDbLine
 10
870.204108809442
 20
1807.064747517886
 30
0.0
 11
1164.204108809443
 21
1807.064747517886
 31
0.0
  0
ARC
  5
7C47
330
19
100
AcDbEntity
  8
1
100
AcDbCircle
 10
1119.204108809443
 20
1623.064747517885
 30
0.0
 40
221.0
100
AcDbArc
 50
180.3103773356434
 51
270.2687094722478
  0
LINE
  5
7C48
330
19
100
AcDbEntity
  8
1
100
AcDbLine
 10
1162.995822951245
 20
1542.977282254391
 30
0.0
 11
806.3447814448199
 21
1388.314529512124
 31
0.0
  0
LINE
  5
7C49
330
19
100
AcDbEntity
  8
1
100
AcDbLine
 10
808.264517858257
 20
1365.932271132649
 30
0.0
 11
1163.751254713621
 21
1519.007802057968
 31
0.0
  0
LINE
  5
7C4A
330
19
100
AcDbEntity
  8
1
100
AcDbLine
 10
764.8340301902644
 20
1486.1419488657
 30
0.0
 11
1108.425424337366
 21
1671.582067958092
 31
0.0
  0
LINE
  5
7C4D
330
19
100
AcDbEntity
  8
1
100
AcDbLine
 10
635.2041088094416
 20
1287.064747517885
 30
0.0
 11
1335.204108809442
 21
1287.064747517885
 31
0.0
  0
LINE
  5
7C4E
330
19
100
AcDbEntity
  8
1
100
AcDbLine
 10
635.2041088094416
 20
1327.064747517885
 30
0.0
 11
1335.204108809442
 21
1327.064747517885
 31
0.0
  0
ARC
  5
7C4F
330
19
100
AcDbEntity
  8
1
100
AcDbCircle
 10
1121.204108809443
 20
1593.064747517885
 30
0.0
 40
191.0
100
AcDbArc
 50
269.7109569763444
 51
13.21980005672138
  0
LINE
  5
7C50
330
19
100
AcDbEntity
  8
2
100
AcDbLine
 10
785.204108809442
 20
1542.734682142552
 30
0.0
 11
785.204108809442
 21
1310.625236728228
 31
0.0
  0
ARC
  5
7C51
330
19
100
AcDbEntity
  8
1
100
AcDbCircle
 10
785.204108809442
 20
1437.064747517885
 30
0.0
 40
74.77707979183754
100
AcDbArc
 50
112.6841186733969
 51
287.962154985929
  0
CIRCLE
  5
7C52
330
19
100
AcDbEntity
  8
1
100
AcDbCircle
 10
785.204108809442
 20
1437.064747517885
 30
0.0
 40
53.13672736521761
  0
ARC
  5
7C53
330
19
100
AcDbEntity
  8
1
100
AcDbCircle
 10
785.204108809442
 20
1437.064747517885
 30
0.0
 40
85.0
100
AcDbArc
 50
298.8779990926558
 51
241.1220009073443
  0
LINE
  5
7C54
330
19
100
AcDbEntity
  8
2
100
AcDbLine
 10
664.2041088094416
 20
1437.064747517885
 30
0.0
 11
906.2041088094419
 21
1437.064747517885
 31
0.0
  0
LINE
  5
7C55
330
19
100
AcDbEntity
  8
1
100
AcDbLine
 10
882.704108809442
 20
1357.064747517885
 30
0.0
 11
687.7041088094419
 21
1357.064747517885
 31
0.0
  0
LINE
  5
7C56
330
19
100
AcDbEntity
  8
1
100
AcDbLine
 10
677.7041088094415
 20
1327.064747517885
 30
0.0
 11
892.7041088094419
 21
1327.064747517885
 31
0.0
  0
LINE
  5
7C57
330
19
100
AcDbEntity
  8
1
100
AcDbLine
 10
635.2041088094416
 20
1327.064747517885
 30
0.0
 11
635.2041088094416
 21
1287.064747517885
 31
0.0
  0
LINE
  5
7C58
330
19
100
AcDbEntity
  8
1
100
AcDbLine
 10
687.7041088094419
 20
1357.064747517885
 30
0.0
 11
677.7041088094415
 21
1327.064747517885
 31
0.0
  0
LINE
  5
7C5C
330
19
100
AcDbEntity
  8
1
100
AcDbLine
 10
723.704108809442
 20
1287.064747517894
 30
0.0
 11
696.7041088094419
 21
1287.064747517894
 31
0.0
  0
LINE
  5
7C5D
330
19
100
AcDbEntity
  8
1
100
AcDbLine
 10
744.1536835499528
 20
1362.634494354175
 30
0.0
 11
826.2545340689385
 21
1362.634494354176
 31
0.0
  0
LINE
  5
7C5E
330
19
100
AcDbEntity
  8
1
100
AcDbLine
 10
704.8432725831739
 20
1357.064747517885
 30
0.0
 11
715.8685933196775
 21
1387.895790931751
 31
0.0
  0
LINE
  5
7C5F
330
19
100
AcDbEntity
  8
1
100
AcDbLine
 10
707.704108809442
 20
1357.064747517885
 30
0.0
 11
742.7041088094419
 21
1357.064747517885
 31
0.0
  0
LINE
  5
7C60
330
19
100
AcDbEntity
  8
1
100
AcDbLine
 10
865.5649450357095
 20
1357.064747517885
 30
0.0
 11
854.5396242992065
 21
1387.895790931751
 31
0.0
  0
LINE
  5
7C61
330
19
100
AcDbEntity
  8
1
100
AcDbLine
 10
862.704108809442
 20
1357.064747517885
 30
0.0
 11
827.7041088094419
 21
1357.064747517885
 31
0.0
  0
LINE
  5
7C62
330
19
100
AcDbEntity
  8
1
100
AcDbLine
 10
892.7041088094419
 20
1327.064747517885
 30
0.0
 11
882.704108809442
 21
1357.064747517885
 31
0.0
  0
LINE
  5
7C63
330
19
100
AcDbEntity
  8
1
100
AcDbLine
 10
1300.404108809442
 20
1550.764747517885
 30
0.0
 11
1300.404108809442
 21
1327.064747517885
 31
0.0
  0
LINE
  5
7C64
330
19
100
AcDbEntity
  8
1
100
AcDbLine
 10
970.0041088094421
 20
1550.764747517885
 30
0.0
 11
970.0041088094421
 21
1327.064747517885
 31
0.0
  0
ARC
  5
7C65
330
19
100
AcDbEntity
  8
1
100
AcDbCircle
 10
1146.204108809443
 20
1596.064747517886
 30
0.0
 40
166.0
100
AcDbArc
 50
14.1851355981358
 51
107.4117837704787
  0
LINE
  5
7C66
330
19
100
AcDbEntity
  8
1
100
AcDbLine
 10
1335.204108809442
 20
1327.064747517885
 30
0.0
 11
1335.204108809442
 21
1287.064747517885
 31
0.0
  0
LINE
  5
7C69
330
19
100
AcDbEntity
  8
1
100
AcDbLine
 10
1273.704108809441
 20
1287.0647475179
 30
0.0
 11
1246.704108809441
 21
1287.0647475179
 31
0.0
  0
LINE
  5
7C6A
330
19
100
AcDbEntity
  8
1
100
AcDbLine
 10
965.0041088094422
 20
1550.764747517885
 30
0.0
 11
1305.404108809442
 21
1550.764747517885
 31
0.0
  0
LINE
  5
7C6B
330
19
100
AcDbEntity
  8
1
100
AcDbLine
 10
965.0041088094422
 20
1553.064747517885
 30
0.0
 11
1305.404108809442
 21
1553.064747517885
 31
0.0
  0
CIRCLE
  5
7C6C
330
19
100
AcDbEntity
  8
1
100
AcDbCircle
 10
1135.204108809442
 20
1607.064747517885
 30
0.0
 40
69.85400903913341
  0
LINE
  5
7C6D
330
19
100
AcDbEntity
  8
1
100
AcDbLine
 10
1035.204108809442
 20
1553.464747517885
 30
0.0
 11
1235.204108809441
 21
1553.464747517885
 31
0.0
  0
LINE
  5
7C6E
330
19
100
AcDbEntity
  8
1
100
AcDbLine
 10
981.0041088094422
 20
1658.064747517885
 30
0.0
 11
981.0041088094422
 21
1553.064747517885
 31
0.0
  0
LINE
  5
7C6F
330
19
100
AcDbEntity
  8
1
100
AcDbLine
 10
975.0041088094421
 20
1658.064747517885
 30
0.0
 11
975.0041088094421
 21
1553.064747517885
 31
0.0
  0
LINE
  5
7C70
330
19
100
AcDbEntity
  8
1
100
AcDbLine
 10
965.0041088094422
 20
1553.064747517885
 30
0.0
 11
965.0041088094422
 21
1550.764747517885
 31
0.0
  0
LINE
  5
7C71
330
19
100
AcDbEntity
  8
1
100
AcDbLine
 10
981.0041088094422
 20
1658.064747517886
 30
0.0
 11
975.0041088094421
 21
1658.064747517886
 31
0.0
  0
LINE
  5
7C72
330
19
100
AcDbEntity
  8
1
100
AcDbLine
 10
1289.404108809442
 20
1658.064747517886
 30
0.0
 11
1289.404108809442
 21
1553.064747517884
 31
0.0
  0
LINE
  5
7C73
330
19
100
AcDbEntity
  8
1
100
AcDbLine
 10
1295.404108809442
 20
1658.064747517885
 30
0.0
 11
1295.404108809442
 21
1553.064747517884
 31
0.0
  0
LINE
  5
7C74
330
19
100
AcDbEntity
  8
1
100
AcDbLine
 10
1305.404108809442
 20
1553.064747517885
 30
0.0
 11
1305.404108809442
 21
1550.764747517885
 31
0.0
  0
LINE
  5
7C75
330
19
100
AcDbEntity
  8
1
100
AcDbLine
 10
1137.204108809442
 20
1761.820592060393
 30
0.0
 11
1137.204108809442
 21
1807.064747517886
 31
0.0
  0
LINE
  5
7C76
330
19
100
AcDbEntity
  8
1
100
AcDbLine
 10
1164.204108809443
 20
1782.064747517886
 30
0.0
 11
1164.204108809443
 21
1807.064747517886
 31
0.0
  0
LINE
  5
7C77
330
19
100
AcDbEntity
  8
1
100
AcDbLine
 10
1289.404108809442
 20
1658.064747517886
 30
0.0
 11
1295.404108809442
 21
1658.064747517885
 31
0.0
  0
CIRCLE
  5
7C78
330
19
100
AcDbEntity
  8
1
100
AcDbCircle
 10
1070.204108809443
 20
1751.798064598984
 30
0.0
 40
8.0
  0
ARC
  5
7C79
330
19
100
AcDbEntity
  8
1
100
AcDbCircle
 10
1143.204108809443
 20
1615.064747517886
 30
0.0
 40
147.0
100
AcDbArc
 50
108.5121515118291
 51
118.0971331097658
  0
LINE
  5
7C7A
330
19
100
AcDbEntity
  8
1
100
AcDbLine
 10
898.2073514286625
 20
1621.867572851944
 30
0.0
 11
897.2041088094425
 21
1807.064747517886
 31
0.0
  0
LINE
  5
7C7B
330
19
100
AcDbEntity
  8
1
100
AcDbLine
 10
870.2041088094425
 20
1782.064747517886
 30
0.0
 11
870.2041088094425
 21
1807.064747517886
 31
0.0
  0
DIMENSION
  5
7C7C
330
19
100
AcDbEntity
  8
3
100
AcDbDimension
280
     0
  2
*D2
 10
2613.510370952187
 20
1852.762779119544
 30
0.0
 11
2523.510370952187
 21
1887.848995678683
 31
0.0
 70
   160
 71
     5
 42
-1.0
 73
     0
 74
     0
 75
     0
  3
IGA
100
AcDbAlignedDimension
 13
2433.510370952188
 23
1774.146773431955
 33
0.0
 14
2613.510370952187
 24
1775.810590922503
 34
0.0
100
AcDbRotatedDimension
1001
ACAD
1000
DSTYLE
1002
{
1070
   288
1070
     1
1070
   172
1070
     1
1070
    40
1040
15.0
1070
   271
1070
     0
1070
   143
1040
0.039
1002
}
  0
LINE
  5
7C7D
330
19
100
AcDbEntity
  8
2
100
AcDbLine
 10
1981.237831804836
 20
1607.041672618428
 30
0.0
 11
2674.646132014439
 21
1607.041672618428
 31
0.0
  0
LINE
  5
7C7F
330
19
100
AcDbEntity
  8
1
100
AcDbLine
 10
2433.510370952186
 20
1402.064747517885
 30
0.0
 11
2613.510370952186
 21
1402.064747517884
 31
0.0
  0
LINE
  5
7C80
330
19
100
AcDbEntity
  8
2
100
AcDbLine
 10
2523.510370952187
 20
1847.422673121233
 30
0.0
 11
2523.510370952187
 21
1177.041672618427
 31
0.0
  0
LINE
  5
7C81
330
19
100
AcDbEntity
  8
1
100
AcDbLine
 10
2065.428171024462
 20
1652.623399830913
 30
0.0
 11
2065.428171024462
 21
1699.610377821673
 31
0.0
  0
LINE
  5
7C82
330
19
100
AcDbEntity
  8
1
100
AcDbLine
 10
1995.749305764281
 20
1362.287667726048
 30
0.0
 11
1995.749305764281
 21
1699.610377821673
 31
0.0
  0
LINE
  5
7C83
330
19
100
AcDbEntity
  8
1
100
AcDbLine
 10
2092.510370952187
 20
1550.764747517885
 30
0.0
 11
2405.510370952188
 21
1550.764747517885
 31
0.0
  0
LINE
  5
7C86
330
19
100
AcDbEntity
  8
1
100
AcDbLine
 10
2022.510370952187
 20
1287.041672618427
 30
0.0
 11
2467.510370952187
 21
1287.041672618427
 31
0.0
  0
LINE
  5
7C87
330
19
100
AcDbEntity
  8
1
100
AcDbLine
 10
2022.510370952186
 20
1327.041672618427
 30
0.0
 11
2467.510370952187
 21
1327.041672618427
 31
0.0
  0
LINE
  5
7C88
330
19
100
AcDbEntity
  8
1
100
AcDbLine
 10
2092.510370952187
 20
1553.041672618427
 30
0.0
 11
2405.510370952188
 21
1553.041672618427
 31
0.0
  0
LINE
  5
7C89
330
19
100
AcDbEntity
  8
1
100
AcDbLine
 10
2013.552716271289
 20
1383.928020152668
 30
0.0
 11
2013.552716271288
 21
1537.187663579294
 31
0.0
  0
LINE
  5
7C8A
330
19
100
AcDbEntity
  8
1
100
AcDbLine
 10
2049.159537285301
 20
1383.928020152668
 30
0.0
 11
2049.159537285301
 21
1537.187663579294
 31
0.0
  0
LINE
  5
7C8B
330
19
100
AcDbEntity
  8
1
100
AcDbLine
 10
2097.510370952188
 20
1550.764747517885
 30
0.0
 11
2097.510370952187
 21
1327.041672618427
 31
0.0
  0
LINE
  5
7C8C
330
19
100
AcDbEntity
  8
1
100
AcDbLine
 10
1995.749305764281
 20
1362.287667726048
 30
0.0
 11
2065.428171024462
 21
1362.287667726048
 31
0.0
  0
LINE
  5
7C8D
330
19
100
AcDbEntity
  8
1
100
AcDbLine
 10
2013.552716271288
 20
1383.928020152668
 30
0.0
 11
2049.159537285301
 21
1383.928020152668
 31
0.0
  0
LINE
  5
7C8E
330
19
100
AcDbEntity
  8
1
100
AcDbLine
 10
2065.428171024462
 20
1362.287667726048
 30
0.0
 11
2065.428171024462
 21
1427.388848332888
 31
0.0
  0
LINE
  5
7C8F
330
19
100
AcDbEntity
  8
1
100
AcDbLine
 10
2049.159537285301
 20
1537.187663579294
 30
0.0
 11
2049.159537285301
 21
1676.895681657561
 31
0.0
  0
LINE
  5
7C90
330
19
100
AcDbEntity
  8
1
100
AcDbLine
 10
2013.552716271288
 20
1537.187663579294
 30
0.0
 11
2013.552716271288
 21
1676.895681657561
 31
0.0
  0
LINE
  5
7C91
330
19
100
AcDbEntity
  8
2
100
AcDbLine
 10
2209.844356260057
 20
1437.064747517885
 30
0.0
 11
1988.911715644063
 21
1437.064747517885
 31
0.0
  0
LINE
  5
7C92
330
19
100
AcDbEntity
  8
1
100
AcDbLine
 10
2013.552716271288
 20
1490.201474883103
 30
0.0
 11
2049.159537285301
 21
1490.201474883103
 31
0.0
  0
LINE
  5
7C93
330
19
100
AcDbEntity
  8
1
100
AcDbLine
 10
2013.552716271288
 20
1537.187663579294
 30
0.0
 11
2049.159537285301
 21
1537.187663579294
 31
0.0
  0
LINE
  5
7C94
330
19
100
AcDbEntity
  8
1
100
AcDbLine
 10
2092.510370952187
 20
1553.041672618427
 30
0.0
 11
2092.510370952188
 21
1550.764747517885
 31
0.0
  0
LINE
  5
7C95
330
19
100
AcDbEntity
  8
1
100
AcDbLine
 10
2013.552716271288
 20
1676.895681657561
 30
0.0
 11
2049.159537285301
 21
1676.895681657561
 31
0.0
  0
LINE
  5
7C96
330
19
100
AcDbEntity
  8
1
100
AcDbLine
 10
2049.159537285301
 20
1595.041672618427
 30
0.0
 11
2063.510370952188
 21
1595.041672618427
 31
0.0
  0
LINE
  5
7C97
330
19
100
AcDbEntity
  8
1
100
AcDbLine
 10
2049.159537285301
 20
1619.041672618427
 30
0.0
 11
2063.510370952187
 21
1619.041672618427
 31
0.0
  0
LINE
  5
7C98
330
19
100
AcDbEntity
  8
1
100
AcDbLine
 10
2065.510370952187
 20
1624.541672618428
 30
0.0
 11
2405.510370952188
 21
1624.541672618428
 31
0.0
  0
LINE
  5
7C99
330
19
100
AcDbEntity
  8
1
100
AcDbLine
 10
2065.510370952187
 20
1589.541672618427
 30
0.0
 11
2405.510370952189
 21
1589.541672618427
 31
0.0
  0
LINE
  5
7C9A
330
19
100
AcDbEntity
  8
1
100
AcDbLine
 10
2065.510370952187
 20
1593.041672618427
 30
0.0
 11
2065.510370952187
 21
1589.541672618427
 31
0.0
  0
ARC
  5
7C9B
330
19
100
AcDbEntity
  8
1
100
AcDbCircle
 10
2063.510370952188
 20
1593.041672618427
 30
0.0
 40
2.0
100
AcDbArc
 50
0.0000000000002036
 51
90.0
  0
ARC
  5
7C9C
330
19
100
AcDbEntity
  8
1
100
AcDbCircle
 10
2063.510370952187
 20
1621.041672618428
 30
0.0
 40
2.0
100
AcDbArc
 50
270.0
 51
0.0
  0
LINE
  5
7C9D
330
19
100
AcDbEntity
  8
1
100
AcDbLine
 10
2065.510370952188
 20
1624.541672618428
 30
0.0
 11
2065.510370952187
 21
1621.041672618428
 31
0.0
  0
LINE
  5
7CA2
330
19
100
AcDbEntity
  8
1
100
AcDbLine
 10
2405.510370952186
 20
1658.064747517885
 30
0.0
 11
2433.510370952188
 21
1658.064747517885
 31
0.0
  0
LINE
  5
7CA3
330
19
100
AcDbEntity
  8
1
100
AcDbLine
 10
1995.749305764281
 20
1699.610377821673
 30
0.0
 11
2065.428171024462
 21
1699.610377821673
 31
0.0
  0
LINE
  5
7CA4
330
19
100
AcDbEntity
  8
1
100
AcDbLine
 10
2642.510370952188
 20
1480.041672618427
 30
0.0
 11
2642.510370952188
 21
1734.041672618428
 31
0.0
  0
LINE
  5
7CA5
330
19
100
AcDbEntity
  8
1
100
AcDbLine
 10
2613.510370952187
 20
1763.041672618428
 30
0.0
 11
2613.510370952187
 21
1607.041672618428
 31
0.0
  0
LINE
  5
7CA6
330
19
100
AcDbEntity
  8
1
100
AcDbLine
 10
2641.510370952186
 20
1807.041672618427
 30
0.0
 11
2641.510370952187
 21
1782.064747517886
 31
0.0
  0
LINE
  5
7CA8
330
19
100
AcDbEntity
  8
1
100
AcDbLine
 10
2613.510370952187
 20
1782.064747517885
 30
0.0
 11
2613.510370952187
 21
1605.041672618428
 31
0.0
  0
LINE
  5
7CA9
330
19
100
AcDbEntity
  8
1
100
AcDbLine
 10
2613.510370952186
 20
1605.041672618428
 30
0.0
 11
2613.510370952186
 21
1402.064747517885
 31
0.0
  0
LINE
  5
7CAB
330
19
100
AcDbEntity
  8
1
100
AcDbLine
 10
2617.510370952189
 20
1607.041672618428
 30
0.0
 11
2617.510370952188
 21
1451.041672618427
 31
0.0
  0
LWPOLYLINE
  5
7CAC
330
19
100
AcDbEntity
  8
1
100
AcDbPolyline
 90
        9
 70
     1
 43
0.0
 10
2617.510370952188
 20
1480.041672618427
 10
2617.510370952188
 20
1455.041672618427
 10
2618.510370952189
 20
1455.041672618427
 42
0.4142135623730951
 10
2620.510370952188
 20
1457.041672618428
 10
2620.510370952188
 20
1473.041672618427
 42
-0.4142135623730951
 10
2624.510370952188
 20
1477.041672618427
 10
2640.510370952188
 20
1477.041672618427
 42
0.4142135623730951
 10
2642.510370952188
 20
1479.041672618427
 10
2642.510370952188
 20
1480.041672618427
  0
LINE
  5
7CB7
330
19
100
AcDbEntity
  8
1
100
AcDbLine
 10
2618.510370952187
 20
1480.041672618427
 30
0.0
 11
2640.510370952188
 21
1480.041672618427
 31
0.0
  0
LINE
  5
7CB8
330
19
100
AcDbEntity
  8
1
100
AcDbLine
 10
2613.510370952186
 20
1451.041672618427
 30
0.0
 11
2617.510370952188
 21
1451.041672618427
 31
0.0
  0
LINE
  5
7CBA
330
19
100
AcDbEntity
  8
2
100
AcDbLine
 10
1135.204108809442
 20
3227.965503387359
 30
0.0
 11
1135.204108809442
 21
2583.13529359164
 31
0.0
  0
LINE
  5
7CBC
330
19
100
AcDbEntity
  8
1
100
AcDbLine
 10
675.2041088094424
 20
3065.4415261527
 30
0.0
 11
675.2041088094419
 21
2620.4415261527
 31
0.0
  0
LINE
  5
7CBD
330
19
100
AcDbEntity
  8
1
100
AcDbLine
 10
1335.204108809442
 20
3065.4415261527
 30
0.0
 11
1335.204108809442
 21
2620.4415261527
 31
0.0
  0
LINE
  5
7CBE
330
19
100
AcDbEntity
  8
1
100
AcDbLine
 10
635.204108809442
 20
3065.4415261527
 30
0.0
 11
635.2041088094424
 21
2620.4415261527
 31
0.0
  0
LINE
  5
7CC6
330
19
100
AcDbEntity
  8
1
100
AcDbLine
 10
2022.510370952187
 20
1287.041672618427
 30
0.0
 11
2022.510370952186
 21
1327.041672618427
 31
0.0
  0
LINE
  5
7CC7
330
19
100
AcDbEntity
  8
1
100
AcDbLine
 10
2467.510370952187
 20
1287.041672618427
 30
0.0
 11
2467.510370952187
 21
1327.041672618427
 31
0.0
  0
LINE
  5
7CCE
330
19
100
AcDbEntity
  8
1
100
AcDbLine
 10
1335.204108809442
 20
3065.4415261527
 30
0.0
 11
1312.204108809443
 21
3065.441526152701
 31
0.0
  0
LINE
  5
7CCF
330
19
100
AcDbEntity
  8
1
100
AcDbLine
 10
1335.204108809442
 20
2620.4415261527
 30
0.0
 11
675.2041088094419
 21
2620.4415261527
 31
0.0
  0
LINE
  5
7CD1
330
19
100
AcDbEntity
  8
1
100
AcDbLine
 10
675.2041088094419
 20
2620.4415261527
 30
0.0
 11
635.204108809442
 21
2620.4415261527
 31
0.0
  0
DIMENSION
  5
7CD2
330
19
100
AcDbEntity
  8
3
100
AcDbDimension
280
     0
  2
*D3
 10
1448.270618718125
 20
2620.4415261527
 30
0.0
 11
1410.770618718125
 21
2842.9415261527
 31
0.0
 70
    32
 71
     5
 42
-1.0
 73
     0
 74
     0
 75
     0
  3
IGA
100
AcDbAlignedDimension
 13
1335.204108809442
 23
3065.4415261527
 33
0.0
 14
1335.204108809442
 24
2620.4415261527
 34
0.0
 50
90.0
100
AcDbRotatedDimension
1001
ACAD
1000
DSTYLE
1002
{
1070
    40
1040
15.0
1070
   143
1040
0.039
1070
   172
1070
     1
1070
   271
1070
     0
1070
   279
1070
     0
1070
   288
1070
     1
1002
}
  0
DIMENSION
  5
7CD3
330
19
100
AcDbEntity
  8
3
100
AcDbDimension
280
     0
  2
*D4
 10
1335.204108809442
 20
2475.986921305059
 30
0.0
 11
985.2041088094422
 21
2475.986921305059
 31
0.0
 70
   160
 71
     5
 42
-1.0
 73
     0
 74
     0
 75
     0
  3
IGA
100
AcDbAlignedDimension
 13
635.2041088094424
 23
2620.4415261527
 33
0.0
 14
1335.204108809442
 24
2620.4415261527
 34
0.0
100
AcDbRotatedDimension
1001
ACAD
1000
DSTYLE
1002
{
1070
    40
1040
15.0
1070
   143
1040
0.039
1070
   172
1070
     1
1070
   271
1070
     0
1070
   279
1070
     0
1070
   288
1070
     1
1002
}
  0
LINE
  5
7CD4
330
19
100
AcDbEntity
  8
2
100
AcDbLine
 10
1347.256303223159
 20
3121.4415261527
 30
0.0
 11
917.1729144285837
 21
3121.4415261527
 31
0.0
  0
LINE
  5
7CD5
330
19
100
AcDbEntity
  8
1
100
AcDbLine
 10
2405.510370952186
 20
1408.064747517885
 30
0.0
 11
2433.510370952186
 21
1408.064747517885
 31
0.0
  0
LWPOLYLINE
  5
7CD6
330
19
100
AcDbEntity
  8
1
100
AcDbPolyline
 90
        2
 70
     0
 43
0.0
 10
2405.510370952188
 20
1658.064747517885
 10
2405.510370952188
 20
1408.064747517885
  0
ARC
  5
7CDA
330
19
100
AcDbEntity
  8
1
100
AcDbCircle
 10
2640.510370952188
 20
1735.041672618427
 30
0.0
 40
2.0
100
AcDbArc
 50
0.0
 51
60.00000000002852
  0
LINE
  5
7CDB
330
19
100
AcDbEntity
  8
1
100
AcDbLine
 10
2642.510370952188
 20
1735.041672618427
 30
0.0
 11
2642.510370952188
 21
1734.041672618428
 31
0.0
  0
LINE
  5
7CDC
330
19
100
AcDbEntity
  8
1
100
AcDbLine
 10
2642.510370952188
 20
1734.041672618428
 30
0.0
 11
2641.510370952187
 21
1734.041672618428
 31
0.0
  0
LINE
  5
7CDD
330
19
100
AcDbEntity
  8
1
100
AcDbLine
 10
2076.356126778295
 20
1403.564747517885
 30
0.0
 11
2076.356126778295
 21
1470.564747517885
 31
0.0
  0
LINE
  5
7CDE
330
19
100
AcDbEntity
  8
1
100
AcDbLine
 10
2086.356126778294
 20
1359.064747517885
 30
0.0
 11
2086.356126778294
 21
1511.864735517885
 31
0.0
  0
LINE
  5
7CDF
330
19
100
AcDbEntity
  8
1
100
AcDbLine
 10
2086.356126778294
 20
1359.064747517885
 30
0.0
 11
2097.510370952188
 21
1359.064747517885
 31
0.0
  0
LINE
  5
7CE0
330
19
100
AcDbEntity
  8
1
100
AcDbLine
 10
2086.356126778294
 20
1403.564747517885
 30
0.0
 11
2076.356126778295
 21
1403.564747517885
 31
0.0
  0
LINE
  5
7CE1
330
19
100
AcDbEntity
  8
1
100
AcDbLine
 10
2086.356126778294
 20
1407.129750517885
 30
0.0
 11
2086.356126778294
 21
1398.499745517885
 31
0.0
  0
LINE
  5
7CE2
330
19
100
AcDbEntity
  8
1
100
AcDbLine
 10
2086.356126778294
 20
1409.314808517885
 30
0.0
 11
2086.356126778294
 21
1397.050874517885
 31
0.0
  0
LINE
  5
7CE3
330
19
100
AcDbEntity
  8
1
100
AcDbLine
 10
2086.356126778294
 20
1398.380543517885
 30
0.0
 11
2086.356126778294
 21
1407.380543517885
 31
0.0
  0
LINE
  5
7CE4
330
19
100
AcDbEntity
  8
1
100
AcDbLine
 10
2071.356126778294
 20
1446.564747517885
 30
0.0
 11
2049.159537285301
 21
1446.564747517885
 31
0.0
  0
LINE
  5
7CE5
330
19
100
AcDbEntity
  8
1
100
AcDbLine
 10
2049.159537285301
 20
1427.564747517885
 30
0.0
 11
2071.356126778294
 21
1427.564747517885
 31
0.0
  0
LINE
  5
7CE6
330
19
100
AcDbEntity
  8
1
100
AcDbLine
 10
2071.356126778294
 20
1447.564747517885
 30
0.0
 11
2076.356126778295
 21
1447.564747517885
 31
0.0
  0
LINE
  5
7CE7
330
19
100
AcDbEntity
  8
1
100
AcDbLine
 10
2071.356126778294
 20
1426.564747517885
 30
0.0
 11
2076.356126778295
 21
1426.564747517885
 31
0.0
  0
LINE
  5
7CE8
330
19
100
AcDbEntity
  8
1
100
AcDbLine
 10
2071.356126778294
 20
1426.564747517885
 30
0.0
 11
2071.356126778294
 21
1447.564747517885
 31
0.0
  0
LINE
  5
7CE9
330
19
100
AcDbEntity
  8
1
100
AcDbLine
 10
2097.510370952188
 20
1511.864735517885
 30
0.0
 11
2086.356126778294
 21
1511.864735517885
 31
0.0
  0
LINE
  5
7CEA
330
19
100
AcDbEntity
  8
1
100
AcDbLine
 10
2076.356126778295
 20
1470.564747517885
 30
0.0
 11
2086.356126778294
 21
1470.564747517885
 31
0.0
  0
LINE
  5
7CEB
330
19
100
AcDbEntity
  8
1
100
AcDbLine
 10
2086.356126778294
 20
1509.879750517885
 30
0.0
 11
2086.356126778294
 21
1501.249745517885
 31
0.0
  0
LINE
  5
7CEC
330
19
100
AcDbEntity
  8
1
100
AcDbLine
 10
2086.356126778294
 20
1501.130543517885
 30
0.0
 11
2086.356126778294
 21
1510.130543517885
 31
0.0
  0
DIMENSION
  5
7CED
330
19
100
AcDbEntity
  8
3
100
AcDbDimension
280
     0
  2
*D5
 10
1137.204108809442
 20
1866.253774602221
 30
0.0
 11
1017.204108809442
 21
1903.753774602221
 31
0.0
 70
    32
 71
     5
 42
-1.0
 73
     0
 74
     0
 75
     0
  3
IGA
100
AcDbAlignedDimension
 13
897.2041088094425
 23
1807.064747517886
 33
0.0
 14
1137.204108809442
 24
1807.064747517886
 34
0.0
 50
180.0
100
AcDbRotatedDimension
1001
ACAD
1000
DSTYLE
1002
{
1070
    40
1040
15.0
1070
   143
1040
0.039
1070
   172
1070
     1
1070
   271
1070
     0
1070
   279
1070
     0
1070
   288
1070
     1
1002
}
  0
DIMENSION
  5
7CEE
330
19
100
AcDbEntity
  8
3
100
AcDbDimension
280
     0
  2
*D6
 10
1135.204108809442
 20
1945.298672481356
 30
0.0
 11
1016.204108809442
 21
1982.798672481356
 31
0.0
 70
    32
 71
     5
 42
-1.0
 73
     0
 74
     0
 75
     0
  3
IGA
100
AcDbAlignedDimension
 13
897.2041088094425
 23
1807.064747517886
 33
0.0
 14
1135.204108809442
 24
1869.299038973458
 34
0.0
 50
180.0
100
AcDbRotatedDimension
1001
ACAD
1000
DSTYLE
1002
{
1070
    40
1040
15.0
1070
   143
1040
0.039
1070
   172
1070
     1
1070
   271
1070
     0
1070
   279
1070
     0
1070
   288
1070
     1
1002
}
  0
DIMENSION
  5
7CEF
330
19
100
AcDbEntity
  8
3
100
AcDbDimension
280
     0
  2
*D7
 10
1486.018554589585
 20
1287.064747517885
 30
0.0
 11
1448.518554589585
 21
1447.064747517885
 31
0.0
 70
    32
 71
     5
 42
-1.0
 73
     0
 74
     0
 75
     0
  3
IGA
100
AcDbAlignedDimension
 13
1385.847088884662
 23
1607.064747517886
 33
0.0
 14
1335.204108809442
 24
1287.064747517885
 34
0.0
 50
90.0
100
AcDbRotatedDimension
1001
ACAD
1000
DSTYLE
1002
{
1070
    40
1040
15.0
1070
   143
1040
0.039
1070
   172
1070
     1
1070
   271
1070
     0
1070
   279
1070
     0
1070
   288
1070
     1
1002
}
  0
DIMENSION
  5
7CF2
330
19
100
AcDbEntity
  8
3
100
AcDbDimension
280
     0
  2
*D8
 10
2523.510370952187
 20
1977.054799296115
 30
0.0
 11
2570.010370952187
 21
2037.054799296116
 31
0.0
 70
    32
  1
94
 71
     5
 42
-1.0
 73
     0
 74
     0
 75
     0
  3
IGA
100
AcDbAlignedDimension
 13
2616.510370952187
 23
1775.810590922503
 33
0.0
 14
2523.510370952187
 24
1914.142945458915
 34
0.0
100
AcDbRotatedDimension
1001
ACAD
1000
DSTYLE
1002
{
1070
   288
1070
     1
1070
   172
1070
     1
1070
    40
1040
15.0
1070
   271
1070
     0
1070
   143
1040
0.039
1002
}
  0
DIMENSION
  5
7CF3
330
19
100
AcDbEntity
  8
3
100
AcDbDimension
280
     0
  2
*D9
 10
1995.749305764281
 20
1977.054799296115
 30
0.0
 11
2259.629838358234
 21
2063.84051358183
 31
0.0
 70
    32
  1
\P(600)
 71
     5
 42
527.7610651879058
 73
     0
 74
     0
 75
     0
  3
IGA
100
AcDbAlignedDimension
 13
2523.510370952187
 23
1914.142945458915
 33
0.0
 14
1995.749305764281
 24
1699.610377821673
 34
0.0
100
AcDbRotatedDimension
1001
ACAD
1000
DSTYLE
1002
{
1070
    40
1040
15.0
1070
   143
1040
0.039
1070
   172
1070
     1
1070
   271
1070
     0
1070
   279
1070
     0
1070
   288
1070
     1
1002
}
  0
LINE
  5
7CF4
330
19
100
AcDbEntity
  8
1
100
AcDbLine
 10
1312.204108809443
 20
3211.441526152701
 30
0.0
 11
1162.204108809442
 21
3211.441526152701
 31
0.0
  0
LINE
  5
7CF5
330
19
100
AcDbEntity
  8
1
100
AcDbLine
 10
1312.204108809442
 20
3031.4415261527
 30
0.0
 11
1162.204108809443
 21
3031.4415261527
 31
0.0
  0
LINE
  5
7CF6
330
19
100
AcDbEntity
  8
1
100
AcDbLine
 10
1295.204108809442
 20
2668.9415261527
 30
0.0
 11
1295.204108809442
 21
2620.4415261527
 31
0.0
  0
LINE
  5
7D13
330
19
100
AcDbEntity
  8
1
100
AcDbLine
 10
860.0040968094427
 20
2901.941526152699
 30
0.0
 11
707.204108809442
 21
2901.941526152699
 31
0.0
  0
LINE
  5
7D14
330
19
100
AcDbEntity
  8
1
100
AcDbLine
 10
707.2041088094424
 20
2684.287281978808
 30
0.0
 11
707.204108809442
 21
2901.941526152699
 31
0.0
  0
LINE
  5
7D15
330
19
100
AcDbEntity
  8
1
100
AcDbLine
 10
860.0040968094427
 20
2901.941526152699
 30
0.0
 11
860.0040968094416
 21
2684.287281978808
 31
0.0
  0
LINE
  5
7D16
330
19
100
AcDbEntity
  8
1
100
AcDbLine
 10
775.7041088094425
 20
2647.090692485814
 30
0.0
 11
775.7041088094419
 21
2668.941526152699
 31
0.0
  0
LINE
  5
7D17
330
19
100
AcDbEntity
  8
1
100
AcDbLine
 10
794.704108809442
 20
2668.941526152699
 30
0.0
 11
794.704108809442
 21
2647.090692485814
 31
0.0
  0
LINE
  5
7D18
330
19
100
AcDbEntity
  8
1
100
AcDbLine
 10
774.704108809442
 20
2668.941526152699
 30
0.0
 11
775.7041088094429
 21
2668.941526152699
 31
0.0
  0
LINE
  5
7D19
330
19
100
AcDbEntity
  8
1
100
AcDbLine
 10
751.704108809442
 20
2683.941526152699
 30
0.0
 11
751.704108809442
 21
2674.287281978808
 31
0.0
  0
LINE
  5
7D1A
330
19
100
AcDbEntity
  8
1
100
AcDbLine
 10
774.704108809442
 20
2668.941526152699
 30
0.0
 11
774.704108809442
 21
2673.941526152699
 31
0.0
  0
LINE
  5
7D1B
330
19
100
AcDbEntity
  8
1
100
AcDbLine
 10
795.704108809442
 20
2668.941526152699
 30
0.0
 11
795.704108809442
 21
2673.941526152699
 31
0.0
  0
LINE
  5
7D1C
330
19
100
AcDbEntity
  8
1
100
AcDbLine
 10
818.7041088094419
 20
2674.287281978808
 30
0.0
 11
818.7041088094419
 21
2683.941526152699
 31
0.0
  0
LINE
  5
7D1D
330
19
100
AcDbEntity
  8
1
100
AcDbLine
 10
710.4270290176046
 20
2593.680460964794
 30
0.0
 11
1227.772814012687
 21
2593.680460964794
 31
0.0
  0
LINE
  5
7D1E
330
19
100
AcDbEntity
  8
1
100
AcDbLine
 10
775.7041088094419
 20
2647.090692485814
 30
0.0
 11
775.7041088094419
 21
2669.287281978807
 31
0.0
  0
LINE
  5
7D1F
330
19
100
AcDbEntity
  8
1
100
AcDbLine
 10
794.704108809442
 20
2669.287281978807
 30
0.0
 11
794.7041088094429
 21
2647.090692485814
 31
0.0
  0
LINE
  5
7D20
330
19
100
AcDbEntity
  8
2
100
AcDbLine
 10
785.204108809442
 20
2918.080135967019
 30
0.0
 11
785.204108809442
 21
2586.842870844576
 31
0.0
  0
LINE
  5
7D21
330
19
100
AcDbEntity
  8
1
100
AcDbLine
 10
710.4270290176046
 20
2593.680460964794
 30
0.0
 11
710.4270290176055
 21
2663.359326224975
 31
0.0
  0
LINE
  5
7D22
330
19
100
AcDbEntity
  8
1
100
AcDbLine
 10
732.0673814442252
 20
2647.090692485814
 30
0.0
 11
838.3408361746601
 21
2647.090692485814
 31
0.0
  0
LINE
  5
7D23
330
19
100
AcDbEntity
  8
1
100
AcDbLine
 10
732.0673814442252
 20
2611.483871471802
 30
0.0
 11
838.3408361746601
 21
2611.483871471801
 31
0.0
  0
LINE
  5
7D24
330
19
100
AcDbEntity
  8
1
100
AcDbLine
 10
732.0673814442243
 20
2611.483871471801
 30
0.0
 11
732.0673814442243
 21
2647.090692485814
 31
0.0
  0
LINE
  5
7D25
330
19
100
AcDbEntity
  8
1
100
AcDbLine
 10
838.3408361746596
 20
2611.483871471801
 30
0.0
 11
838.3408361746596
 21
2647.090692485814
 31
0.0
  0
LINE
  5
7D26
330
19
100
AcDbEntity
  8
1
100
AcDbLine
 10
774.704108809442
 20
2669.287281978807
 30
0.0
 11
795.704108809442
 21
2669.287281978807
 31
0.0
  0
LINE
  5
7D27
330
19
100
AcDbEntity
  8
1
100
AcDbLine
 10
707.204108809442
 20
2684.287281978808
 30
0.0
 11
860.0040968094427
 21
2684.287281978808
 31
0.0
  0
LINE
  5
7D28
330
19
100
AcDbEntity
  8
1
100
AcDbLine
 10
751.704108809442
 20
2674.287281978807
 30
0.0
 11
818.7041088094419
 21
2674.287281978807
 31
0.0
  0
LINE
  5
7D29
330
19
100
AcDbEntity
  8
1
100
AcDbLine
 10
710.4270290176055
 20
2663.359326224975
 30
0.0
 11
1227.772814012687
 21
2663.359326224975
 31
0.0
  0
LINE
  5
7D2A
330
19
100
AcDbEntity
  8
1
100
AcDbLine
 10
707.204108809442
 20
2684.287281978808
 30
0.0
 11
707.204108809442
 21
2695.441526152701
 31
0.0
  0
LINE
  5
7D2B
330
19
100
AcDbEntity
  8
1
100
AcDbLine
 10
774.704108809442
 20
2669.287281978807
 30
0.0
 11
774.704108809442
 21
2674.287281978807
 31
0.0
  0
LINE
  5
7D2C
330
19
100
AcDbEntity
  8
1
100
AcDbLine
 10
746.5199048094428
 20
2684.287281978808
 30
0.0
 11
755.5199048094427
 21
2684.287281978808
 31
0.0
  0
LINE
  5
7D2D
330
19
100
AcDbEntity
  8
1
100
AcDbLine
 10
757.4541698094426
 20
2684.287281978808
 30
0.0
 11
745.1902358094421
 21
2684.287281978808
 31
0.0
  0
LINE
  5
7D2E
330
19
100
AcDbEntity
  8
1
100
AcDbLine
 10
755.2691118094426
 20
2684.287281978808
 30
0.0
 11
746.6391068094426
 21
2684.287281978808
 31
0.0
  0
LINE
  5
7D2F
330
19
100
AcDbEntity
  8
1
100
AcDbLine
 10
751.704108809442
 20
2684.287281978808
 30
0.0
 11
751.704108809442
 21
2674.287281978807
 31
0.0
  0
LINE
  5
7D30
330
19
100
AcDbEntity
  8
1
100
AcDbLine
 10
818.7041088094419
 20
2674.287281978807
 30
0.0
 11
818.7041088094419
 21
2684.287281978808
 31
0.0
  0
LINE
  5
7D31
330
19
100
AcDbEntity
  8
1
100
AcDbLine
 10
795.704108809442
 20
2669.287281978807
 30
0.0
 11
795.704108809442
 21
2674.287281978807
 31
0.0
  0
LINE
  5
7D32
330
19
100
AcDbEntity
  8
1
100
AcDbLine
 10
849.2699048094427
 20
2684.287281978808
 30
0.0
 11
858.2699048094427
 21
2684.287281978808
 31
0.0
  0
LINE
  5
7D33
330
19
100
AcDbEntity
  8
1
100
AcDbLine
 10
858.0191118094425
 20
2684.287281978808
 30
0.0
 11
849.3891068094425
 21
2684.287281978808
 31
0.0
  0
LINE
  5
7D34
330
19
100
AcDbEntity
  8
1
100
AcDbLine
 10
860.0040968094427
 20
2695.441526152701
 30
0.0
 11
860.0040968094427
 21
2684.287281978808
 31
0.0
  0
LINE
  5
7D35
330
19
100
AcDbEntity
  8
1
100
AcDbLine
 10
1227.772814012687
 20
2593.680460964794
 30
0.0
 11
1227.772814012687
 21
2663.359326224975
 31
0.0
  0
LINE
  5
7D36
330
19
100
AcDbEntity
  8
1
100
AcDbLine
 10
1065.350099770308
 20
2611.483871471801
 30
0.0
 11
1205.058117848575
 21
2611.483871471801
 31
0.0
  0
LINE
  5
7D37
330
19
100
AcDbEntity
  8
1
100
AcDbLine
 10
1065.350099770308
 20
2647.090692485814
 30
0.0
 11
1205.058117848575
 21
2647.090692485814
 31
0.0
  0
LINE
  5
7D38
330
19
100
AcDbEntity
  8
1
100
AcDbLine
 10
1205.058117848575
 20
2611.483871471801
 30
0.0
 11
1205.058117848575
 21
2647.090692485814
 31
0.0
  0
LINE
  5
7D3A
330
19
100
AcDbEntity
  8
1
100
AcDbLine
 10
1065.350099770308
 20
2611.483871471801
 30
0.0
 11
1065.350099770308
 21
2647.090692485814
 31
0.0
  0
LINE
  5
7D3B
330
19
100
AcDbEntity
  8
1
100
AcDbLine
 10
965.2041088094426
 20
2668.941526152701
 30
0.0
 11
1305.204108809442
 21
2668.9415261527
 31
0.0
  0
LINE
  5
7D3C
330
19
100
AcDbEntity
  8
1
100
AcDbLine
 10
794.704108809442
 20
2668.941526152699
 30
0.0
 11
795.704108809442
 21
2668.941526152699
 31
0.0
  0
LINE
  5
7D3D
330
19
100
AcDbEntity
  8
1
100
AcDbLine
 10
1305.204108809443
 20
3031.4415261527
 30
0.0
 11
1305.204108809443
 21
2668.9415261527
 31
0.0
  0
LINE
  5
7D3E
330
19
100
AcDbEntity
  8
1
100
AcDbLine
 10
965.204108809443
 20
3006.441526152701
 30
0.0
 11
965.2041088094424
 21
2668.9415261527
 31
0.0
  0
LINE
  5
7D40
330
19
100
AcDbEntity
  8
1
100
AcDbLine
 10
1152.704108809442
 20
3006.441526152701
 30
0.0
 11
1152.704108809442
 21
2668.9415261527
 31
0.0
  0
LINE
  5
7D41
330
19
100
AcDbEntity
  8
1
100
AcDbLine
 10
1117.70410880944
 20
3006.441526152701
 30
0.0
 11
1117.704108809442
 21
2668.9415261527
 31
0.0
  0
DIMENSION
  5
7D42
330
19
100
AcDbEntity
  8
3
100
AcDbDimension
280
     0
  2
*D10
 10
1486.315432061543
 20
1607.064747517886
 30
0.0
 11
1442.043941045205
 21
1707.064747517886
 31
0.0
 70
   160
 71
     5
 42
-1.0
 73
     0
 74
     0
 75
     0
  3
IGA
100
AcDbAlignedDimension
 13
1164.204108809443
 23
1807.064747517886
 33
0.0
 14
1385.847088884662
 24
1607.064747517886
 34
0.0
 50
90.0
100
AcDbRotatedDimension
1001
ACAD
1000
DSTYLE
1002
{
1070
   288
1070
     1
1070
   172
1070
     1
1070
    40
1040
15.0
1070
   271
1070
     0
1070
   143
1040
0.039
1002
}
  0
DIMENSION
  5
7D43
330
19
100
AcDbEntity
  8
3
100
AcDbDimension
280
     0
  2
*D11
 10
1312.204108809443
 20
1945.298672481356
 30
0.0
 11
1223.704108809442
 21
1980.579476418745
 31
0.0
 70
   160
 71
     5
 42
-1.0
 73
     0
 74
     0
 75
     0
  3
IGA
100
AcDbAlignedDimension
 13
1135.204108809442
 23
1869.299038973458
 33
0.0
 14
1312.204108809443
 24
1593.064747517885
 34
0.0
100
AcDbRotatedDimension
1001
ACAD
1000
DSTYLE
1002
{
1070
   288
1070
     1
1070
   172
1070
     1
1070
    40
1040
15.0
1070
   271
1070
     0
1070
   143
1040
0.039
1002
}
  0
DIMENSION
  5
7D44
330
19
100
AcDbEntity
  8
3
100
AcDbDimension
280
     0
  2
*D12
 10
635.2041088094416
 20
2037.061774057661
 30
0.0
 11
973.7041088094422
 21
2074.561774057661
 31
0.0
 70
    32
 71
     5
 42
-1.0
 73
     0
 74
     0
 75
     0
  3
IGA
100
AcDbAlignedDimension
 13
1312.204108809443
 23
1593.064747517885
 33
0.0
 14
635.2041088094416
 24
1327.064747517885
 34
0.0
100
AcDbRotatedDimension
1001
ACAD
1000
DSTYLE
1002
{
1070
    40
1040
15.0
1070
   143
1040
0.039
1070
   172
1070
     1
1070
   271
1070
     0
1070
   279
1070
     0
1070
   288
1070
     1
1002
}
  0
DIMENSION
  5
7D46
330
19
100
AcDbEntity
  8
3
100
AcDbDimension
280
     0
  2
*D13
 10
2742.212645178133
 20
1480.041672618427
 30
0.0
 11
2706.557177401915
 21
1607.041672618428
 31
0.0
 70
   160
 71
     5
 42
-1.0
 73
     0
 74
     0
 75
     0
  3
IGA
100
AcDbAlignedDimension
 13
2642.510370952188
 23
1734.041672618428
 33
0.0
 14
2642.510370952188
 24
1480.041672618427
 34
0.0
 50
90.0
100
AcDbRotatedDimension
1001
ACAD
1000
DSTYLE
1002
{
1070
   288
1070
     1
1070
   172
1070
     1
1070
    40
1040
15.0
1070
     3
1000
φ<>
1070
   271
1070
     0
1070
   143
1040
0.039
1002
}
  0
LINE
  5
7D47
330
19
100
AcDbEntity
  8
1
100
AcDbLine
 10
2405.510370952189
 20
1807.041672618428
 30
0.0
 11
2641.510370952187
 21
1807.041672618428
 31
0.0
  0
LINE
  5
7D48
330
19
100
AcDbEntity
  8
1
100
AcDbLine
 10
2405.510370952188
 20
1782.064747517886
 30
0.0
 11
2641.510370952187
 21
1782.064747517886
 31
0.0
  0
LWPOLYLINE
  5
7D49
330
19
100
AcDbEntity
  8
1
100
AcDbPolyline
 90
        2
 70
     0
 43
0.0
 10
2433.510370952188
 20
1605.041672618428
 10
2433.510370952186
 20
1327.041672618427
  0
LWPOLYLINE
  5
7D4D
330
19
100
AcDbEntity
  8
1
100
AcDbPolyline
 90
        2
 70
     0
 43
0.0
 10
2405.510370952189
 20
1807.041672618428
 10
2405.510370952188
 20
1782.064747517885
  0
LINE
  5
7D51
330
19
100
AcDbEntity
  8
1
100
AcDbLine
 10
2617.510370952189
 20
1607.041672618428
 30
0.0
 11
2617.510370952188
 21
1763.041672618427
 31
0.0
  0
LINE
  5
7D52
330
19
100
AcDbEntity
  8
1
100
AcDbLine
 10
2642.510370952188
 20
1734.041672618428
 30
0.0
 11
2642.510370952188
 21
1480.041672618428
 31
0.0
  0
LINE
  5
7D54
330
19
100
AcDbEntity
  8
1
100
AcDbLine
 10
2613.510370952187
 20
1763.041672618427
 30
0.0
 11
2617.510370952188
 21
1763.041672618427
 31
0.0
  0
LINE
  5
7D55
330
19
100
AcDbEntity
  8
1
100
AcDbLine
 10
2618.510370952187
 20
1734.041672618428
 30
0.0
 11
2640.510370952188
 21
1734.041672618428
 31
0.0
  0
LWPOLYLINE
  5
7D56
330
19
100
AcDbEntity
  8
1
100
AcDbPolyline
 90
        9
 70
     1
 43
0.0
 10
2617.510370952188
 20
1734.041672618428
 10
2617.510370952188
 20
1759.041672618428
 10
2618.510370952189
 20
1759.041672618428
 42
-0.4142135623730951
 10
2620.510370952188
 20
1757.041672618427
 10
2620.510370952188
 20
1741.041672618427
 42
0.4142135623730951
 10
2624.510370952188
 20
1737.041672618428
 10
2640.510370952188
 20
1737.041672618428
 42
-0.4142135623730951
 10
2642.510370952188
 20
1735.041672618428
 10
2642.510370952188
 20
1734.041672618428
  0
LWPOLYLINE
  5
7D61
330
19
100
AcDbEntity
  8
1
100
AcDbPolyline
 90
        2
 70
     0
 43
0.0
 10
2433.510370952188
 20
1782.064747517885
 10
2433.510370952188
 20
1605.041672618428
  0
LINE
  5
7D69
330
19
100
AcDbEntity
  8
1
100
AcDbLine
 10
1312.204108809442
 20
3211.441526152701
 30
0.0
 11
1312.204108809443
 21
3031.4415261527
 31
0.0
  0
LINE
  5
7D6A
330
19
100
AcDbEntity
  8
1
100
AcDbLine
 10
897.2041088094419
 20
3211.4415261527
 30
0.0
 11
897.2041088094425
 21
3031.441526152701
 31
0.0
  0
LINE
  5
7D6B
330
19
100
AcDbEntity
  8
1
100
AcDbLine
 10
1137.204108809442
 20
3211.441526152701
 30
0.0
 11
1137.204108809443
 21
3031.441526152701
 31
0.0
  0
LINE
  5
7D6C
330
19
100
AcDbEntity
  8
1
100
AcDbLine
 10
1162.204108809441
 20
3236.441526152701
 30
0.0
 11
872.2041088094416
 21
3236.4415261527
 31
0.0
  0
LINE
  5
7D6D
330
19
100
AcDbEntity
  8
1
100
AcDbLine
 10
872.2041088094416
 20
3236.4415261527
 30
0.0
 11
872.2041088094425
 21
3006.441526152701
 31
0.0
  0
LINE
  5
7D6E
330
19
100
AcDbEntity
  8
1
100
AcDbLine
 10
1162.204108809443
 20
3006.441526152701
 30
0.0
 11
872.2041088094425
 21
3006.441526152701
 31
0.0
  0
LINE
  5
7D6F
330
19
100
AcDbEntity
  8
1
100
AcDbLine
 10
1162.204108809441
 20
3236.4415261527
 30
0.0
 11
1162.204108809443
 21
3006.4415261527
 31
0.0
  0
LINE
  5
7D70
330
19
100
AcDbEntity
  8
1
100
AcDbLine
 10
1137.204108809442
 20
3211.441526152701
 30
0.0
 11
897.2041088094419
 21
3211.4415261527
 31
0.0
  0
LINE
  5
7D71
330
19
100
AcDbEntity
  8
1
100
AcDbLine
 10
1137.204108809443
 20
3031.4415261527
 30
0.0
 11
897.2041088094419
 21
3031.441526152701
 31
0.0
  0
LINE
  5
7D72
330
19
100
AcDbEntity
  8
1
100
AcDbLine
 10
1137.204108809442
 20
3211.441526152701
 30
0.0
 11
897.2041088094425
 21
3031.441526152701
 31
0.0
  0
LINE
  5
7D73
330
19
100
AcDbEntity
  8
1
100
AcDbLine
 10
897.2041088094419
 20
3211.4415261527
 30
0.0
 11
1137.204108809443
 21
3031.4415261527
 31
0.0
  0
LINE
  5
7F53
330
19
100
AcDbEntity
  8
4
100
AcDbLine
 10
2775.0
 20
750.0
 30
0.0
 11
2775.0
 21
450.0
 31
0.0
  0
LINE
  5
7F54
330
19
100
AcDbEntity
  8
4
100
AcDbLine
 10
1725.0
 20
750.0
 30
0.0
 11
1725.0
 21
450.0
 31
0.0
  0
LINE
  5
7F55
330
19
100
AcDbEntity
  8
4
100
AcDbLine
 10
975.0
 20
750.0
 30
0.0
 11
975.0
 21
450.0
 31
0.0
  0
LINE
  5
7F58
330
19
100
AcDbEntity
  8
4
100
AcDbLine
 10
975.0
 20
450.0
 30
0.0
 11
2775.0
 21
450.0
 31
0.0
  0
LINE
  5
7F59
330
19
100
AcDbEntity
  8
4
100
AcDbLine
 10
975.0
 20
600.0
 30
0.0
 11
2775.0
 21
600.0
 31
0.0
  0
TEXT
  5
7F5A
330
19
100
AcDbEntity
  8
4
100
AcDbText
 10
1032.753121270352
 20
647.3145387999193
 30
0.0
 40
75.0
  1
機器名称
100
AcDbText
  0
TEXT
  5
7F5B
330
19
100
AcDbEntity
  8
4
100
AcDbText
 10
1029.387159037196
 20
482.4677350980164
 30
0.0
 40
75.0
  1
機器型番
100
AcDbText
  0
TEXT
  5
7F5C
330
19
100
AcDbEntity
  8
4
100
AcDbText
 10
1766.518118231497
 20
633.8576534363528
 30
0.0
 40
75.0
  1
ミツヤ多翼送風機
100
AcDbText
  0
TEXT
  5
7F5D
330
19
100
AcDbEntity
  8
4
100
AcDbText
 10
1779.981743378221
 20
475.739376419915
 30
0.0
 40
75.0
  1
MF#1 1/2-1
100
AcDbText
  0
TEXT
  5
7F5F
330
19
100
AcDbEntity
  8
4
100
AcDbText
 10
1095.645631978823
 20
3575.143261998774
 30
0.0
 40
80.99999999999999
  1
床置防振ベット
100
AcDbText
  0
TEXT
  5
7F60
330
19
100
AcDbEntity
  8
4
100
AcDbText
 10
474.2513899941696
 20
3800.821464298947
 30
0.0
 40
108.0
  1
遠心式片吸込片持多翼ファン
100
AcDbText
  0
LINE
  5
7F61
330
19
100
AcDbEntity
  8
4
100
AcDbLine
 10
375.0
 20
3704.113131397207
 30
0.0
 11
2775.0
 21
3704.113131397207
 31
0.0
  0
LINE
  5
7F62
330
19
100
AcDbEntity
  8
4
100
AcDbLine
 10
375.0
 20
4004.113131397207
 30
0.0
 11
2775.0
 21
4004.113131397207
 31
0.0
  0
LINE
  5
7F63
330
19
100
AcDbEntity
  8
4
100
AcDbLine
 10
975.0
 20
750.0
 30
0.0
 11
2775.0
 21
750.0
 31
0.0
  0
LINE
  5
7F64
330
19
100
AcDbEntity
  8
4
100
AcDbLine
 10
375.0
 20
4004.113131397207
 30
0.0
 11
375.0
 21
3704.113131397207
 31
0.0
  0
TEXT
  5
7F65
330
19
100
AcDbEntity
  8
4
100
AcDbText
 10
441.8573836147698
 20
3573.479216319515
 30
0.0
 40
80.99999999999999
  1
右回転上向
100
AcDbText
  0
TEXT
  5
7F66
330
19
100
AcDbEntity
  8
4
100
AcDbText
 10
2203.454338873935
 20
4059.091622242963
 30
0.0
 40
84.00000000000002
  1
No.
100
AcDbText
  0
TEXT
  5
7F67
330
19
100
AcDbEntity
  8
4
100
AcDbText
 10
1966.94409390002
 20
3575.143261998774
 30
0.0
 40
80.99999999999999
  1
縮尺：1/15
100
AcDbText
  0
LINE
  5
7F68
330
19
100
AcDbEntity
  8
4
100
AcDbLine
 10
2775.0
 20
4004.113131397207
 30
0.0
 11
2775.0
 21
3704.113131397207
 31
0.0
  0
LINE
  5
7F69
330
19
100
AcDbEntity
  8
4
100
AcDbLine
 10
3150.0
 20
4425.0
 30
0.0
 11
3150.0
 21
4425.0
 31
0.0
  0
LINE
  5
7F6A
330
19
100
AcDbEntity
  8
4
100
AcDbLine
 10
2160.926133539797
 20
4021.895374688102
 30
0.0
 11
2160.926133539797
 21
4179.978392324628
 31
0.0
  0
LINE
  5
7F6B
330
19
100
AcDbEntity
  8
4
100
AcDbLine
 10
2160.926133539797
 20
4179.978392324628
 30
0.0
 11
2775.0
 21
4179.978392324628
 31
0.0
  0
LINE
  5
7F6C
330
19
100
AcDbEntity
  8
4
100
AcDbLine
 10
2775.0
 20
4179.978392324628
 30
0.0
 11
2775.0
 21
4021.895374688102
 31
0.0
  0
LINE
  5
7F6D
330
19
100
AcDbEntity
  8
4
100
AcDbLine
 10
2775.0
 20
4021.895374688102
 30
0.0
 11
2160.926133539797
 21
4021.895374688102
 31
0.0
  0
LINE
  5
7F6E
330
19
100
AcDbEntity
  8
4
100
AcDbLine
 10
0.0
 20
0.0
 30
0.0
 11
0.0
 21
4425.0
 31
0.0
  0
LINE
  5
7F6F
330
19
100
AcDbEntity
  8
4
100
AcDbLine
 10
0.0
 20
4425.0
 30
0.0
 11
3150.0
 21
4425.0
 31
0.0
  0
LINE
  5
7F70
330
19
100
AcDbEntity
  8
4
100
AcDbLine
 10
3150.0
 20
4425.0
 30
0.0
 11
3150.0
 21
0.0
 31
0.0
  0
LINE
  5
7F71
330
19
100
AcDbEntity
  8
4
100
AcDbLine
 10
3150.0
 20
0.0
 30
0.0
 11
0.0
 21
0.0
 31
0.0
  0
LINE
  5
8329
330
19
100
AcDbEntity
  8
1
100
AcDbLine
 10
1295.204108809442
 20
2660.4415261527
 30
0.0
 11
675.2041088094419
 21
2660.4415261527
 31
0.0
  0
LINE
  5
832A
330
19
100
AcDbEntity
  8
1
100
AcDbLine
 10
872.2041088094425
 20
3025.441526152701
 30
0.0
 11
635.204108809442
 21
3025.4415261527
 31
0.0
  0
LINE
  5
832B
330
19
100
AcDbEntity
  8
1
100
AcDbLine
 10
872.2041088094425
 20
3065.441526152701
 30
0.0
 11
635.204108809442
 21
3065.4415261527
 31
0.0
  0
DIMENSION
  5
8390
330
19
100
AcDbEntity
  8
3
100
AcDbDimension
280
     0
  2
*D14
 10
1135.204108809442
 20
1057.770638735048
 30
0.0
 11
885.2041088094418
 21
1095.270638735048
 31
0.0
 70
    32
 71
     5
 42
500.0000000000004
 73
     0
 74
     0
 75
     0
  3
IGA
100
AcDbAlignedDimension
 13
635.2041088094416
 23
1177.064747517885
 33
0.0
 14
1135.204108809442
 24
1177.064747517885
 34
0.0
100
AcDbRotatedDimension
1001
ACAD
1000
DSTYLE
1002
{
1070
    40
1040
15.0
1070
   143
1040
0.039
1070
   172
1070
     1
1070
   271
1070
     0
1070
   279
1070
     0
1002
}
  0
DIMENSION
  5
839F
330
19
100
AcDbEntity
  8
3
100
AcDbDimension
280
     0
  2
*D15
 10
1335.204108809442
 20
1057.770638735048
 30
0.0
 11
1235.204108809442
 21
1095.270638735048
 31
0.0
 70
    32
 71
     5
 42
200.0
 73
     0
 74
     0
 75
     0
  3
IGA
100
AcDbAlignedDimension
 13
1135.204108809442
 23
1177.064747517885
 33
0.0
 14
1335.204108809442
 24
1177.064747517885
 34
0.0
100
AcDbRotatedDimension
1001
ACAD
1000
DSTYLE
1002
{
1070
    40
1040
15.0
1070
   143
1040
0.039
1070
   172
1070
     1
1070
   271
1070
     0
1070
   279
1070
     0
1002
}
  0
DIMENSION
  5
83AC
330
19
100
AcDbEntity
  8
3
100
AcDbDimension
280
     0
  2
*D16
 10
2467.510370952187
 20
1057.770638735048
 30
0.0
 11
2245.010370952187
 21
1095.270638735048
 31
0.0
 70
    32
 71
     5
 42
445.0
 73
     0
 74
     0
 75
     0
  3
IGA
100
AcDbAlignedDimension
 13
2022.510370952187
 23
1177.041672618427
 33
0.0
 14
2467.510370952187
 24
1177.041672618427
 34
0.0
100
AcDbRotatedDimension
1001
ACAD
1000
DSTYLE
1002
{
1070
    40
1040
15.0
1070
   143
1040
0.039
1070
   172
1070
     1
1070
   271
1070
     0
1070
   279
1070
     0
1002
}
  0
DIMENSION
  5
83BB
330
19
100
AcDbEntity
  8
3
100
AcDbDimension
280
     0
  2
*D17
 10
2523.510370952187
 20
1057.770638735048
 30
0.0
 11
2633.86751380933
 21
1095.270638735048
 31
0.0
 70
    32
 71
     5
 42
56.0
 73
     0
 74
     0
 75
     0
  3
IGA
100
AcDbAlignedDimension
 13
2467.510370952187
 23
1177.041672618427
 33
0.0
 14
2523.510370952187
 24
1177.041672618427
 34
0.0
100
AcDbRotatedDimension
1001
ACAD
1000
DSTYLE
1002
{
1070
    40
1040
15.0
1070
   143
1040
0.039
1070
   172
1070
     1
1070
   271
1070
     0
1070
   279
1070
     0
1002
}
  0
LINE
  5
83CE
330
19
100
AcDbEntity
  8
1
100
AcDbLine
 10
2022.510370952186
 20
1217.041672618427
 30
0.0
 11
2467.510370952187
 21
1217.041672618427
 31
0.0
  0
LINE
  5
83CF
330
19
100
AcDbEntity
  8
1
100
AcDbLine
 10
2022.510370952187
 20
1177.041672618427
 30
0.0
 11
2467.510370952187
 21
1177.041672618427
 31
0.0
  0
LINE
  5
83D0
330
19
100
AcDbEntity
  8
1
100
AcDbLine
 10
2467.510370952187
 20
1177.041672618427
 30
0.0
 11
2467.510370952187
 21
1217.041672618427
 31
0.0
  0
LINE
  5
83D1
330
19
100
AcDbEntity
  8
1
100
AcDbLine
 10
2022.510370952187
 20
1177.041672618427
 30
0.0
 11
2022.510370952186
 21
1217.041672618427
 31
0.0
  0
LINE
  5
83D2
330
19
100
AcDbEntity
  8
1
100
AcDbLine
 10
635.2041088094416
 20
1217.064747517885
 30
0.0
 11
1335.204108809442
 21
1217.064747517885
 31
0.0
  0
LINE
  5
83D3
330
19
100
AcDbEntity
  8
1
100
AcDbLine
 10
1335.204108809442
 20
1217.064747517885
 30
0.0
 11
1335.204108809442
 21
1177.064747517885
 31
0.0
  0
LINE
  5
83D4
330
19
100
AcDbEntity
  8
1
100
AcDbLine
 10
635.2041088094416
 20
1177.064747517885
 30
0.0
 11
1335.204108809442
 21
1177.064747517885
 31
0.0
  0
LINE
  5
83D5
330
19
100
AcDbEntity
  8
1
100
AcDbLine
 10
635.2041088094416
 20
1217.064747517885
 30
0.0
 11
635.2041088094416
 21
1177.064747517885
 31
0.0
  0
DIMENSION
  5
83E5
330
19
100
AcDbEntity
  8
3
100
AcDbDimension
280
     0
  2
*D18
 10
1487.396556984984
 20
1177.064747517885
 30
0.0
 11
1449.896556984984
 21
1065.636176089314
 31
0.0
 70
    32
 71
     5
 42
40.00000000000023
 73
     0
 74
     0
 75
     0
  3
IGA
100
AcDbAlignedDimension
 13
1335.204108809442
 23
1217.064747517885
 33
0.0
 14
1335.204108809442
 24
1177.064747517885
 34
0.0
 50
90.0
100
AcDbRotatedDimension
1001
ACAD
1000
DSTYLE
1002
{
1070
    40
1040
15.0
1070
   143
1040
0.039
1070
   172
1070
     1
1070
   271
1070
     0
1070
   279
1070
     0
1070
   343
1005
7AAA
1002
}
  0
DIMENSION
  5
8412
330
19
100
AcDbEntity
  8
3
100
AcDbDimension
280
     0
  2
*D19
 10
1488.568424734729
 20
1287.064747517885
 30
0.0
 11
1556.952825529894
 21
1255.196538162225
 31
0.0
 70
   160
 71
     5
 42
69.99999999999977
 73
     0
 74
     0
 75
     0
  3
IGA
100
AcDbAlignedDimension
 13
1335.204108809442
 23
1217.064747517885
 33
0.0
 14
1335.204108809442
 24
1287.064747517885
 34
0.0
 50
90.0
100
AcDbRotatedDimension
1001
ACAD
1000
DSTYLE
1002
{
1070
     3
1000
(<>)
1070
    40
1040
15.0
1070
   143
1040
0.039
1070
   172
1070
     1
1070
   271
1070
     0
1070
   343
1005
7AAA
1002
}
  0
DIMENSION
  5
841F
330
19
100
AcDbEntity
  8
3
100
AcDbDimension
280
     0
  2
*D20
 10
1632.953268370058
 20
1177.064747517885
 30
0.0
 11
1583.667554084344
 21
1492.064747517886
 31
0.0
 70
    32
 71
     5
 42
630.0000000000006
 73
     0
 74
     0
 75
     0
  3
IGA
100
AcDbAlignedDimension
 13
1164.204108809443
 23
1807.064747517886
 33
0.0
 14
1335.204108809442
 24
1177.064747517885
 34
0.0
 50
90.0
100
AcDbRotatedDimension
1001
ACAD
1000
DSTYLE
1002
{
1070
   172
1070
     1
1070
    40
1040
15.0
1070
     3
1000
(<>)
1070
   271
1070
     0
1070
   143
1040
0.039
1002
}
  0
ENDSEC
  0
SECTION
  2
OBJECTS
  0
DICTIONARY
  5
C
330
0
100
AcDbDictionary
281
     1
  3
ACAD_CIP_PREVIOUS_PRODUCT_INFO
350
8481
  3
ACAD_COLOR
350
8464
  3
ACAD_DETAILVIEWSTYLE
350
847D
  3
ACAD_GROUP
350
D
  3
ACAD_LAYOUT
350
8424
  3
ACAD_MATERIAL
350
8432
  3
ACAD_MLEADERSTYLE
350
8479
  3
ACAD_MLINESTYLE
350
E
  3
ACAD_PLOTSETTINGS
350
8425
  3
ACAD_PLOTSTYLENAME
350
8422
  3
ACAD_SCALELIST
350
8467
  3
ACAD_SECTIONVIEWSTYLE
350
847B
  3
ACAD_TABLESTYLE
350
8465
  3
ACAD_VISUALSTYLE
350
844B
  3
ACDB_RECOMPOSE_DATA
350
853A
  3
AcDbVariableDictionary
350
84EE
  0
DICTIONARY
  5
84E2
330
2
100
AcDbDictionary
280
     1
281
     1
  3
ACAD_LAYERSTATES
360
84E3
  0
DICTIONARY
  5
84D5
330
F
100
AcDbDictionary
280
     1
281
     1
  3
ADSK_XREC_LAYER_RECONCILED
360
84D6
  0
DICTIONARY
  5
84D7
330
31
100
AcDbDictionary
280
     1
281
     1
  3
ADSK_XREC_LAYER_RECONCILED
360
84D8
  0
DICTIONARY
  5
84D9
330
76D0
100
AcDbDictionary
280
     1
281
     1
  3
ADSK_XREC_LAYER_RECONCILED
360
84DA
  0
DICTIONARY
  5
84DB
330
76D1
100
AcDbDictionary
280
     1
281
     1
  3
ADSK_XREC_LAYER_RECONCILED
360
84DC
  0
DICTIONARY
  5
84DD
330
76D2
100
AcDbDictionary
280
     1
281
     1
  3
ADSK_XREC_LAYER_RECONCILED
360
84DE
  0
DICTIONARY
  5
8483
330
19
100
AcDbDictionary
280
     1
281
     1
  3
ACAD_SORTENTS
360
8484
  0
XRECORD
  5
8481
102
{ACAD_REACTORS
330
C
102
}
330
C
100
AcDbXrecord
280
     1
300
ACDLT
300
2015
300
INVLTS_F_S
  0
DICTIONARY
  5
8464
102
{ACAD_REACTORS
330
C
102
}
330
C
100
AcDbDictionary
281
     1
  0
DICTIONARY
  5
847D
102
{ACAD_REACTORS
330
C
102
}
330
C
100
AcDbDictionary
281
     1
  3
Metric50
350
847E
  0
DICTIONARY
  5
D
102
{ACAD_REACTORS
330
C
102
}
330
C
100
AcDbDictionary
281
     1
  0
DICTIONARY
  5
8424
102
{ACAD_REACTORS
330
C
102
}
330
C
100
AcDbDictionary
281
     1
  3
Model
350
8426
  3
ﾚｲｱｳﾄ1
350
8427
  0
DICTIONARY
  5
8432
102
{ACAD_REACTORS
330
C
102
}
330
C
100
AcDbDictionary
281
     1
  3
ByBlock
350
843B
  3
ByLayer
350
8433
  3
Global
350
8443
  0
DICTIONARY
  5
8479
102
{ACAD_REACTORS
330
C
102
}
330
C
100
AcDbDictionary
281
     1
  3
Standard
350
847A
  0
DICTIONARY
  5
E
102
{ACAD_REACTORS
330
C
102
}
330
C
100
AcDbDictionary
281
     1
  3
STANDARD
350
1C
  0
DICTIONARY
  5
8425
102
{ACAD_REACTORS
330
C
102
}
330
C
100
AcDbDictionary
281
     1
  0
ACDBDICTIONARYWDFLT
  5
8422
102
{ACAD_REACTORS
330
C
102
}
330
C
100
AcDbDictionary
281
     1
  3
Normal
350
8423
100
AcDbDictionaryWithDefault
340
8423
  0
DICTIONARY
  5
8467
102
{ACAD_REACTORS
330
C
102
}
330
C
100
AcDbDictionary
281
     1
  3
A0
350
8468
  3
A1
350
8469
  3
A2
350
846A
  3
A3
350
846B
  3
A4
350
846C
  3
A5
350
846D
  3
A6
350
846E
  3
A7
350
846F
  3
A8
350
8470
  3
A9
350
8471
  3
B0
350
8472
  3
B1
350
8473
  3
B2
350
8474
  3
B3
350
8475
  3
B4
350
8476
  3
B5
350
8477
  3
B6
350
8478
  0
DICTIONARY
  5
847B
102
{ACAD_REACTORS
330
C
102
}
330
C
100
AcDbDictionary
281
     1
  3
Metric50
350
847C
  0
DICTIONARY
  5
8465
102
{ACAD_REACTORS
330
C
102
}
330
C
100
AcDbDictionary
281
     1
  3
Standard
350
8466
  0
DICTIONARY
  5
844B
102
{ACAD_REACTORS
330
C
102
}
330
C
100
AcDbDictionary
281
     1
  3
2dWireframe
350
8451
  3
Basic
350
8450
  3
Brighten
350
8457
  3
ColorChange
350
845B
  3
Conceptual
350
8454
  3
Dim
350
8456
  3
EdgeColorOff
350
8463
  3
Facepattern
350
845A
  3
Flat
350
844C
  3
FlatWithEdges
350
844D
  3
Gouraud
350
844E
  3
GouraudWithEdges
350
844F
  3
Hidden
350
8453
  3
JitterOff
350
8461
  3
Linepattern
350
8459
  3
OverhangOff
350
8462
  3
Realistic
350
8455
  3
Shaded
350
8460
  3
Shaded with edges
350
845F
  3
Shades of Gray
350
845C
  3
Sketchy
350
845D
  3
Thicken
350
8458
  3
Wireframe
350
8452
  3
X-Ray
350
845E
  0
XRECORD
  5
853A
102
{ACAD_REACTORS
330
C
102
}
330
C
100
AcDbXrecord
280
     1
 90
        1
330
8466
330
847C
330
847E
  0
DICTIONARY
  5
84EE
102
{ACAD_REACTORS
330
C
102
}
330
C
100
AcDbDictionary
281
     1
  3
CANNOSCALE
350
84F4
  3
CMLEADERSTYLE
350
84F0
  3
CTABLESTYLE
350
84EF
  3
CVIEWDETAILSTYLE
350
84F1
  3
CVIEWSECTIONSTYLE
350
84F2
  3
LAYEREVAL
350
84F6
  3
LAYERNOTIFY
350
84F7
  3
LIGHTINGUNITS
350
84F5
  3
MSLTSCALE
350
84F3
  0
DICTIONARY
  5
84E3
102
{ACAD_REACTORS
330
84E2
102
}
330
84E2
100
AcDbDictionary
281
     1
  0
XRECORD
  5
84D6
102
{ACAD_REACTORS
330
84D5
102
}
330
84D5
100
AcDbXrecord
280
     1
290
     1
  0
XRECORD
  5
84D8
102
{ACAD_REACTORS
330
84D7
102
}
330
84D7
100
AcDbXrecord
280
     1
290
     1
  0
XRECORD
  5
84DA
102
{ACAD_REACTORS
330
84D9
102
}
330
84D9
100
AcDbXrecord
280
     1
290
     1
  0
XRECORD
  5
84DC
102
{ACAD_REACTORS
330
84DB
102
}
330
84DB
100
AcDbXrecord
280
     1
290
     1
  0
XRECORD
  5
84DE
102
{ACAD_REACTORS
330
84DD
102
}
330
84DD
100
AcDbXrecord
280
     1
290
     1
  0
SORTENTSTABLE
  5
8484
102
{ACAD_REACTORS
330
8483
102
}
330
8483
100
AcDbSortentsTable
330
19
331
7D2D
  5
7D2E
331
7D29
  5
7D2A
331
7C9B
  5
7C9C
331
7D6C
  5
7D6D
331
7CD6
  5
7CDA
331
7C97
  5
7C98
331
7D25
  5
7D26
331
7D21
  5
7D22
331
7C93
  5
7C94
331
7CD2
  5
7CD3
331
83CE
  5
83CF
331
7C5E
  5
7C5E
331
7F64
  5
7F65
331
7F60
  5
7F61
331
7D1D
  5
7D1E
331
7C8F
  5
7C90
331
7CCE
  5
7CCF
331
7D19
  5
7D1A
331
7C8B
  5
7C8C
331
7D54
  5
7D55
331
7CC6
  5
7CC7
331
7C87
  5
7C88
331
7D15
  5
7D16
331
7C83
  5
7C83
331
7C56
  5
7C56
331
7C52
  5
7C52
331
7C4E
  5
7C4E
331
7C4A
  5
7C4A
331
7F5C
  5
7F5D
331
7F58
  5
7F59
331
7F54
  5
7F55
331
7CF5
  5
7CF6
331
7C7F
  5
7C7F
331
7CBE
  5
7CC6
331
7CBA
  5
7CBC
331
7C7B
  5
7C7B
331
7D48
  5
7D49
331
7CED
  5
7CEE
331
7C77
  5
7C77
331
7D44
  5
7D46
331
7D40
  5
7D41
331
7C73
  5
7C73
331
7CE9
  5
7CEA
331
7C46
  5
7C46
331
7C42
  5
7C42
331
832B
  5
8390
331
83E5
  5
8412
331
7D3C
  5
7D3D
331
7C6F
  5
7C6F
331
7CE5
  5
7CE6
331
7D38
  5
7D3A
331
7CE1
  5
7CE2
331
7C6B
  5
7C6B
331
7CDD
  5
7CDE
331
7CA6
  5
7CA8
331
7D34
  5
7D35
331
7CA2
  5
7CA3
331
7C63
  5
7C63
331
7D30
  5
7D31
331
83D5
  5
83E5
331
83D1
  5
83D2
331
7F6F
  5
7F70
331
7F6B
  5
7F6C
331
7D71
  5
7D72
331
7D2C
  5
7D2D
331
7D28
  5
7D29
331
7C9A
  5
7C9B
331
7D6F
  5
7D70
331
7D6B
  5
7D6C
331
7CD5
  5
7CD6
331
7C96
  5
7C97
331
7D24
  5
7D25
331
7D20
  5
7D21
331
7C92
  5
7C93
331
7CD1
  5
7CD2
331
7C5D
  5
7C5D
331
7F67
  5
7F68
331
7F63
  5
7F64
331
7D1C
  5
7D1D
331
7C8E
  5
7C8F
331
7D18
  5
7D19
331
7C8A
  5
7C8B
331
7C86
  5
7C86
331
7D14
  5
7D15
331
7C82
  5
7C82
331
7C55
  5
7C55
331
7C51
  5
7C51
331
7C4D
  5
7C4D
331
7C49
  5
7C49
331
7F5F
  5
7F60
331
7F5B
  5
7F5C
331
7F53
  5
7F54
331
7CF4
  5
7CF5
331
7CBD
  5
7CBE
331
7C7A
  5
7C7A
331
7D47
  5
7D48
331
7D43
  5
7D44
331
7C76
  5
7C76
331
7CEC
  5
7CED
331
7C72
  5
7C72
331
7CE8
  5
7CE9
331
7C45
  5
7C45
331
7C41
  5
7C41
331
832A
  5
832B
331
7D3B
  5
7D3C
331
7C6E
  5
7C6E
331
7CE4
  5
7CE5
331
7CE0
  5
7CE1
331
7CA9
  5
7CAB
331
7C6A
  5
7C6A
331
7D37
  5
7D38
331
7CDC
  5
7CDD
331
7CA5
  5
7CA6
331
7C66
  5
7C66
331
7D33
  5
7D34
331
7C62
  5
7C62
331
83D4
  5
83D5
331
83D0
  5
83D1
331
7F6E
  5
7F6F
331
7F6A
  5
7F6B
331
7D70
  5
7D71
331
7D2F
  5
7D30
331
7D2B
  5
7D2C
331
7C9D
  5
7CA2
331
7D27
  5
7D28
331
7C99
  5
7C9A
331
7D6E
  5
7D6F
331
7D6A
  5
7D6B
331
7CD4
  5
7CD5
331
7C95
  5
7C96
331
7D23
  5
7D24
331
7C91
  5
7C92
331
7C5C
  5
7C5C
331
7C58
  5
7C58
331
7F66
  5
7F67
331
7F62
  5
7F63
331
7D1F
  5
7D20
331
7D1B
  5
7D1C
331
7C8D
  5
7C8E
331
7D17
  5
7D18
331
7C89
  5
7C8A
331
7D56
  5
7D61
331
7D52
  5
7D54
331
7D13
  5
7D14
331
7C81
  5
7C81
331
841F
  5
8482
331
7C54
  5
7C54
331
83AC
  5
83BB
331
7C50
  5
7C50
331
7C48
  5
7C48
331
7F5A
  5
7F5B
331
7CF3
  5
7CF4
331
7CBC
  5
7CBD
331
7C7D
  5
7C7D
331
7CEF
  5
7CF2
331
7CB8
  5
7CBA
331
7C79
  5
7C79
331
7D46
  5
7D47
331
7D42
  5
7D43
331
7C75
  5
7C75
331
7CEB
  5
7CEC
331
7C71
  5
7C71
331
7C44
  5
7C44
331
8329
  5
832A
331
8390
  5
839F
331
7D3E
  5
7D40
331
7CE7
  5
7CE8
331
7D3A
  5
7D3B
331
7CE3
  5
7CE4
331
7C6D
  5
7C6D
331
7CAC
  5
7CB7
331
7CDF
  5
7CE0
331
7CA8
  5
7CA9
331
7C69
  5
7C69
331
7D36
  5
7D37
331
7D32
  5
7D33
331
7CA4
  5
7CA5
331
7C65
  5
7C65
331
7CDB
  5
7CDC
331
7C61
  5
7C61
331
83D3
  5
83D4
331
7F71
  5
8329
331
7F6D
  5
7F6E
331
7D73
  5
7F53
331
7F69
  5
7F6A
331
7D2E
  5
7D2F
331
7D2A
  5
7D2B
331
7C9C
  5
7C9D
331
7D6D
  5
7D6E
331
7C98
  5
7C99
331
7D26
  5
7D27
331
7D69
  5
7D6A
331
7CD3
  5
7CD4
331
7C94
  5
7C95
331
7D22
  5
7D23
331
7C90
  5
7C91
331
83CF
  5
83D0
331
7C5F
  5
7C5F
331
83BB
  5
83CE
331
7F65
  5
7F66
331
7F61
  5
7F62
331
7D1E
  5
7D1F
331
7CCF
  5
7CD1
331
7D1A
  5
7D1B
331
7C8C
  5
7C8D
331
7D61
  5
7D69
331
7D16
  5
7D17
331
7CC7
  5
7CCE
331
7C88
  5
7C89
331
7D55
  5
7D56
331
7D51
  5
7D52
331
7C80
  5
7C80
331
7C57
  5
7C57
331
7C53
  5
7C53
331
7C4F
  5
7C4F
331
8412
  5
841F
331
7F5D
  5
7F5F
331
7F59
  5
7F5A
331
7F55
  5
7F58
331
7D4D
  5
7D51
331
7CF6
  5
7D13
331
7D49
  5
7D4D
331
7CF2
  5
7CF3
331
7C7C
  5
7C7C
331
7CEE
  5
7CEF
331
7CB7
  5
7CB8
331
7C78
  5
7C78
331
7D41
  5
7D42
331
7C74
  5
7C74
331
7CEA
  5
7CEB
331
7C70
  5
7C70
331
7C47
  5
7C47
331
839F
  5
83AC
331
7C43
  5
7C43
331
7D3D
  5
7D3E
331
7CE6
  5
7CE7
331
7CE2
  5
7CE3
331
7CAB
  5
7CAC
331
7C6C
  5
7C6C
331
7CDE
  5
7CDF
331
7D35
  5
7D36
331
7D31
  5
7D32
331
7CA3
  5
7CA4
331
7C64
  5
7C64
331
7CDA
  5
7CDB
331
7C60
  5
7C60
331
83D2
  5
83D3
331
7F70
  5
7F71
331
7F6C
  5
7F6D
331
7D72
  5
7D73
331
7F68
  5
7F69
  0
ACDBDETAILVIEWSTYLE
  5
847E
102
{ACAD_XDICTIONARY
360
84EB
102
}
102
{ACAD_REACTORS
330
847D
102
}
330
847D
100
AcDbModelDocViewStyle
 70
     0
  3
Metric50
290
     0
100
AcDbDetailViewStyle
 70
     0
 71
     0
 90
        3
 71
     1
340
10
 62
   256
 40
5.0
340
0
 62
   256
 40
5.0
300

 40
0.0
280
     1
 71
     2
340
15
 90
       25
 62
   256
 71
     3
340
10
 62
   256
 40
5.0
 90
        0
 40
15.0
 90
        1
300
%<\AcVar ViewDetailId>% (%<\AcVar ViewScale \f "%sn">%)
 71
     4
340
15
 90
       25
 62
   256
340
15
 90
       25
 62
   256
280
     0
  0
LAYOUT
  5
8426
102
{ACAD_REACTORS
330
8424
102
}
330
8424
100
AcDbPlotSettings
  1

  2
EPSON LP-9300
  4

  6

 40
0.0
 41
0.0
 42
0.0
 43
0.0
 44
0.0
 45
0.0
 46
0.0
 47
0.0
 48
0.0
 49
0.0
140
0.0
141
0.0
142
1.0
143
1.0
 70
  1712
 72
     0
 73
     0
 74
     0
  7

 75
     0
147
1.0
 76
     0
 77
     2
 78
   300
148
0.0
149
0.0
100
AcDbLayout
  1
Model
 70
     1
 71
     0
 10
0.0
 20
0.0
 11
12.0
 21
9.0
 12
0.0
 22
0.0
 32
0.0
 14
0.0
 24
0.0
 34
0.0
 15
0.0
 25
0.0
 35
0.0
146
0.0
 13
0.0
 23
0.0
 33
0.0
 16
1.0
 26
0.0
 36
0.0
 17
0.0
 27
1.0
 37
0.0
 76
     0
330
19
331
8430
  0
LAYOUT
  5
8427
102
{ACAD_REACTORS
330
8424
102
}
330
8424
100
AcDbPlotSettings
  1

  2
EPSON LP-9300
  4

  6

 40
0.0
 41
0.0
 42
0.0
 43
0.0
 44
0.0
 45
0.0
 46
0.0
 47
0.0
 48
0.0
 49
0.0
140
0.0
141
0.0
142
1.0
143
1.0
 70
   688
 72
     0
 73
     0
 74
     5
  7

 75
    16
147
1.0
 76
     0
 77
     2
 78
   300
148
0.0
149
0.0
100
AcDbLayout
  1
ﾚｲｱｳﾄ1
 70
     1
 71
     1
 10
0.0
 20
0.0
 11
12.0
 21
9.0
 12
0.0
 22
0.0
 32
0.0
 14
1.000000000000000E+20
 24
1.000000000000000E+20
 34
1.000000000000000E+20
 15
-1.000000000000000E+20
 25
-1.000000000000000E+20
 35
-1.000000000000000E+20
146
0.0
 13
0.0
 23
0.0
 33
0.0
 16
1.0
 26
0.0
 36
0.0
 17
0.0
 27
1.0
 37
0.0
 76
     0
330
16
  0
MATERIAL
  5
843B
102
{ACAD_XDICTIONARY
360
843C
102
}
102
{ACAD_REACTORS
330
8432
102
}
330
8432
100
AcDbMaterial
  1
ByBlock
 72
     0
 43
0.0208333333333333
 43
0.0
 43
0.0
 43
0.0
 43
0.0
 43
0.0208333333333333
 43
0.0
 43
0.0
 43
0.0
 43
0.0
 43
1.0
 43
0.0
 43
0.0
 43
0.0
 43
0.0
 43
1.0
 77
     0
 47
0.0208333333333333
 47
0.0
 47
0.0
 47
0.0
 47
0.0
 47
0.0208333333333333
 47
0.0
 47
0.0
 47
0.0
 47
0.0
 47
1.0
 47
0.0
 47
0.0
 47
0.0
 47
0.0
 47
1.0
171
     0
 49
0.0208333333333333
 49
0.0
 49
0.0
 49
0.0
 49
0.0
 49
0.0208333333333333
 49
0.0
 49
0.0
 49
0.0
 49
0.0
 49
1.0
 49
0.0
 49
0.0
 49
0.0
 49
0.0
 49
1.0
175
     0
142
0.0208333333333333
142
0.0
142
0.0
142
0.0
142
0.0
142
0.0208333333333333
142
0.0
142
0.0
142
0.0
142
0.0
142
1.0
142
0.0
142
0.0
142
0.0
142
0.0
142
1.0
179
     0
144
0.0208333333333333
144
0.0
144
0.0
144
0.0
144
0.0
144
0.0208333333333333
144
0.0
144
0.0
144
0.0
144
0.0
144
1.0
144
0.0
144
0.0
144
0.0
144
0.0
144
1.0
147
0.0208333333333333
147
0.0
147
0.0
147
0.0
147
0.0
147
0.0208333333333333
147
0.0
147
0.0
147
0.0
147
0.0
147
1.0
147
0.0
147
0.0
147
0.0
147
0.0
147
1.0
  0
MATERIAL
  5
8433
102
{ACAD_XDICTIONARY
360
8434
102
}
102
{ACAD_REACTORS
330
8432
102
}
330
8432
100
AcDbMaterial
  1
ByLayer
 72
     0
 43
0.0208333333333333
 43
0.0
 43
0.0
 43
0.0
 43
0.0
 43
0.0208333333333333
 43
0.0
 43
0.0
 43
0.0
 43
0.0
 43
1.0
 43
0.0
 43
0.0
 43
0.0
 43
0.0
 43
1.0
 77
     0
 47
0.0208333333333333
 47
0.0
 47
0.0
 47
0.0
 47
0.0
 47
0.0208333333333333
 47
0.0
 47
0.0
 47
0.0
 47
0.0
 47
1.0
 47
0.0
 47
0.0
 47
0.0
 47
0.0
 47
1.0
171
     0
 49
0.0208333333333333
 49
0.0
 49
0.0
 49
0.0
 49
0.0
 49
0.0208333333333333
 49
0.0
 49
0.0
 49
0.0
 49
0.0
 49
1.0
 49
0.0
 49
0.0
 49
0.0
 49
0.0
 49
1.0
175
     0
142
0.0208333333333333
142
0.0
142
0.0
142
0.0
142
0.0
142
0.0208333333333333
142
0.0
142
0.0
142
0.0
142
0.0
142
1.0
142
0.0
142
0.0
142
0.0
142
0.0
142
1.0
179
     0
144
0.0208333333333333
144
0.0
144
0.0
144
0.0
144
0.0
144
0.0208333333333333
144
0.0
144
0.0
144
0.0
144
0.0
144
1.0
144
0.0
144
0.0
144
0.0
144
0.0
144
1.0
147
0.0208333333333333
147
0.0
147
0.0
147
0.0
147
0.0
147
0.0208333333333333
147
0.0
147
0.0
147
0.0
147
0.0
147
1.0
147
0.0
147
0.0
147
0.0
147
0.0
147
1.0
  0
MATERIAL
  5
8443
102
{ACAD_XDICTIONARY
360
8444
102
}
102
{ACAD_REACTORS
330
8432
102
}
330
8432
100
AcDbMaterial
  1
Global
 72
     0
 43
0.0208333333333333
 43
0.0
 43
0.0
 43
0.0
 43
0.0
 43
0.0208333333333333
 43
0.0
 43
0.0
 43
0.0
 43
0.0
 43
1.0
 43
0.0
 43
0.0
 43
0.0
 43
0.0
 43
1.0
 77
     0
 47
0.0208333333333333
 47
0.0
 47
0.0
 47
0.0
 47
0.0
 47
0.0208333333333333
 47
0.0
 47
0.0
 47
0.0
 47
0.0
 47
1.0
 47
0.0
 47
0.0
 47
0.0
 47
0.0
 47
1.0
171
     0
 49
0.0208333333333333
 49
0.0
 49
0.0
 49
0.0
 49
0.0
 49
0.0208333333333333
 49
0.0
 49
0.0
 49
0.0
 49
0.0
 49
1.0
 49
0.0
 49
0.0
 49
0.0
 49
0.0
 49
1.0
175
     0
142
0.0208333333333333
142
0.0
142
0.0
142
0.0
142
0.0
142
0.0208333333333333
142
0.0
142
0.0
142
0.0
142
0.0
142
1.0
142
0.0
142
0.0
142
0.0
142
0.0
142
1.0
179
     0
144
0.0208333333333333
144
0.0
144
0.0
144
0.0
144
0.0
144
0.0208333333333333
144
0.0
144
0.0
144
0.0
144
0.0
144
1.0
144
0.0
144
0.0
144
0.0
144
0.0
144
1.0
147
0.0208333333333333
147
0.0
147
0.0
147
0.0
147
0.0
147
0.0208333333333333
147
0.0
147
0.0
147
0.0
147
0.0
147
1.0
147
0.0
147
0.0
147
0.0
147
0.0
147
1.0
  0
MLEADERSTYLE
  5
847A
102
{ACAD_REACTORS
330
8479
102
}
330
8479
100
AcDbMLeaderStyle
179
     2
170
     2
171
     1
172
     0
 90
        2
 40
0.0
 41
0.0
173
     1
 91
-1056964608
340
13
 92
       -2
290
     1
 42
2.0
291
     1
 43
0.36
  3
Standard
 44
4.0
300

342
10
174
     1
178
     6
175
     1
176
     0
 93
-1056964608
 45
4.0
292
     0
297
     0
 46
4.0
 94
-1056964608
 47
1.0
 49
1.0
140
1.0
293
     1
141
0.0
294
     1
177
     0
142
1.0
295
     1
296
     0
143
0.125
271
     0
272
     9
273
     9
298
     1
  0
MLINESTYLE
  5
1C
102
{ACAD_REACTORS
330
E
102
}
330
E
100
AcDbMlineStyle
  2
STANDARD
 70
     0
  3

 62
     0
 51
90.0
 52
90.0
 71
     2
 49
0.5
 62
   256
  6
BYLAYER
 49
-0.5
 62
   256
  6
BYLAYER
  0
ACDBPLACEHOLDER
  5
8423
102
{ACAD_REACTORS
330
8422
102
}
330
8422
  0
SCALE
  5
8468
102
{ACAD_REACTORS
330
8467
102
}
330
8467
100
AcDbScale
 70
     0
300
1:1
140
1.0
141
1.0
290
     1
  0
SCALE
  5
8469
102
{ACAD_REACTORS
330
8467
102
}
330
8467
100
AcDbScale
 70
     0
300
1:2
140
1.0
141
2.0
290
     0
  0
SCALE
  5
846A
102
{ACAD_REACTORS
330
8467
102
}
330
8467
100
AcDbScale
 70
     0
300
1:4
140
1.0
141
4.0
290
     0
  0
SCALE
  5
846B
102
{ACAD_REACTORS
330
8467
102
}
330
8467
100
AcDbScale
 70
     0
300
1:5
140
1.0
141
5.0
290
     0
  0
SCALE
  5
846C
102
{ACAD_REACTORS
330
8467
102
}
330
8467
100
AcDbScale
 70
     0
300
1:8
140
1.0
141
8.0
290
     0
  0
SCALE
  5
846D
102
{ACAD_REACTORS
330
8467
102
}
330
8467
100
AcDbScale
 70
     0
300
1:10
140
1.0
141
10.0
290
     0
  0
SCALE
  5
846E
102
{ACAD_REACTORS
330
8467
102
}
330
8467
100
AcDbScale
 70
     0
300
1:16
140
1.0
141
16.0
290
     0
  0
SCALE
  5
846F
102
{ACAD_REACTORS
330
8467
102
}
330
8467
100
AcDbScale
 70
     0
300
1:20
140
1.0
141
20.0
290
     0
  0
SCALE
  5
8470
102
{ACAD_REACTORS
330
8467
102
}
330
8467
100
AcDbScale
 70
     0
300
1:30
140
1.0
141
30.0
290
     0
  0
SCALE
  5
8471
102
{ACAD_REACTORS
330
8467
102
}
330
8467
100
AcDbScale
 70
     0
300
1:40
140
1.0
141
40.0
290
     0
  0
SCALE
  5
8472
102
{ACAD_REACTORS
330
8467
102
}
330
8467
100
AcDbScale
 70
     0
300
1:50
140
1.0
141
50.0
290
     0
  0
SCALE
  5
8473
102
{ACAD_REACTORS
330
8467
102
}
330
8467
100
AcDbScale
 70
     0
300
1:100
140
1.0
141
100.0
290
     0
  0
SCALE
  5
8474
102
{ACAD_REACTORS
330
8467
102
}
330
8467
100
AcDbScale
 70
     0
300
2:1
140
2.0
141
1.0
290
     0
  0
SCALE
  5
8475
102
{ACAD_REACTORS
330
8467
102
}
330
8467
100
AcDbScale
 70
     0
300
4:1
140
4.0
141
1.0
290
     0
  0
SCALE
  5
8476
102
{ACAD_REACTORS
330
8467
102
}
330
8467
100
AcDbScale
 70
     0
300
8:1
140
8.0
141
1.0
290
     0
  0
SCALE
  5
8477
102
{ACAD_REACTORS
330
8467
102
}
330
8467
100
AcDbScale
 70
     0
300
10:1
140
10.0
141
1.0
290
     0
  0
SCALE
  5
8478
102
{ACAD_REACTORS
330
8467
102
}
330
8467
100
AcDbScale
 70
     0
300
100:1
140
100.0
141
1.0
290
     0
  0
ACDBSECTIONVIEWSTYLE
  5
847C
102
{ACAD_XDICTIONARY
360
84E9
102
}
102
{ACAD_REACTORS
330
847B
102
}
330
847B
100
AcDbModelDocViewStyle
 70
     0
  3
Metric50
290
     0
100
AcDbSectionViewStyle
 70
     0
 71
     0
 90
      102
 71
     1
340
10
 62
   256
 40
5.0
340
0
340
0
 62
   256
 40
5.0
300
I, O, Q, S, X, Z
 40
10.0
 90
        0
 40
2.5
 90
        0
 71
     2
340
15
 90
       25
 62
   256
340
15
 90
       50
 62
   256
 40
5.0
 40
2.5
 40
5.0
 71
     3
340
10
 62
   256
 40
5.0
 90
        0
 40
15.0
 90
        1
300
%<\AcVar ViewSectionStartId>%-%<\AcVar ViewSectionEndId>% (%<\AcVar ViewScale \f "%sn">%)
 71
     4
 62
   256
 62
   257
300
ANSI31
 40
1.0
 90
        0
290
     0
290
     0
 90
        6
 40
0.0
 40
1.570796326794896
 40
0.2617993877991494
 40
1.308996938995747
 40
-0.2617993877991494
 40
1.832595714594046
  0
TABLESTYLE
  5
8466
102
{ACAD_XDICTIONARY
360
8536
102
}
102
{ACAD_REACTORS
330
8465
102
}
330
8465
100
AcDbTableStyle
280
     0
  3
Standard
 70
     0
 71
     0
 40
1.5
 41
1.5
280
     0
281
     0
  7
STANDARD
140
4.5
170
     2
 62
     0
 63
     7
283
     0
 90
      512
 91
        0
  1

274
    -2
284
     1
 64
     0
275
    -2
285
     1
 65
     0
276
    -2
286
     1
 66
     0
277
    -2
287
     1
 67
     0
278
    -2
288
     1
 68
     0
279
    -2
289
     1
 69
     0
  7
STANDARD
140
6.0
170
     5
 62
     0
 63
     7
283
     0
 90
      512
 91
        0
  1

274
    -2
284
     1
 64
     0
275
    -2
285
     1
 65
     0
276
    -2
286
     1
 66
     0
277
    -2
287
     1
 67
     0
278
    -2
288
     1
 68
     0
279
    -2
289
     1
 69
     0
  7
STANDARD
140
4.5
170
     5
 62
     0
 63
     7
283
     0
 90
      512
 91
        0
  1

274
    -2
284
     1
 64
     0
275
    -2
285
     1
 65
     0
276
    -2
286
     1
 66
     0
277
    -2
287
     1
 67
     0
278
    -2
288
     1
 68
     0
279
    -2
289
     1
 69
     0
  0
VISUALSTYLE
  5
8451
102
{ACAD_REACTORS
330
844B
102
}
330
844B
100
AcDbVisualStyle
  2
2dWireframe
 70
     4
177
     3
291
     0
 70
    58
 90
        0
176
     1
 90
        2
176
     1
 90
        0
176
     1
 90
        0
176
     1
 40
0.6
176
     1
 40
30.0
176
     1
 62
     7
420
 16777215
176
     1
 90
        1
176
     1
 90
        4
176
     1
 62
     7
176
     1
 62
   257
176
     1
 90
        1
176
     1
 90
        1
176
     1
 40
1.0
176
     1
 90
        0
176
     1
 62
   257
176
     1
 40
1.0
176
     1
 90
        1
176
     1
 90
        6
176
     1
 90
        2
176
     1
 62
     7
176
     1
 90
        5
176
     1
 90
        0
176
     1
 90
        0
176
     1
290
     0
176
     1
 90
        1
176
     1
 40
0.0
176
     1
 90
        0
176
     1
290
     1
176
     1
290
     1
176
     1
290
     0
176
     1
290
     0
176
     1
290
     0
176
     1
290
     0
176
     1
290
     0
176
     1
290
     0
176
     1
290
     0
176
     1
 90
       50
176
     1
 40
0.0
176
     1
 40
1.0
176
     1
 90
        0
176
     1
 62
    18
420
        0
176
     1
 90
       50
176
     1
 90
        3
176
     1
 62
     5
420
      255
176
     1
290
     0
176
     1
 90
       50
176
     1
 90
       50
176
     1
 90
       50
176
     1
290
     0
176
     1
 90
       50
176
     1
 62
   256
176
     0
 40
1.0
176
     0
 90
        2
176
     1
  1
strokes_ogs.tif
176
     1
290
     0
176
     1
 40
1.0
176
     1
 40
1.0
176
     1
  0
VISUALSTYLE
  5
8450
102
{ACAD_REACTORS
330
844B
102
}
330
844B
100
AcDbVisualStyle
  2
Basic
 70
     7
177
     3
291
     1
 70
    58
 90
        1
176
     1
 90
        0
176
     1
 90
        1
176
     1
 90
        0
176
     1
 40
0.6
176
     1
 40
30.0
176
     1
 62
     7
420
 16777215
176
     1
 90
        0
176
     1
 90
        4
176
     1
 62
     7
176
     1
 62
   257
176
     1
 90
        1
176
     1
 90
        1
176
     1
 40
1.0
176
     1
 90
        8
176
     1
 62
     7
176
     1
 40
1.0
176
     1
 90
        1
176
     1
 90
        6
176
     1
 90
        2
176
     1
 62
     7
176
     1
 90
        5
176
     1
 90
        0
176
     1
 90
        0
176
     1
290
     0
176
     1
 90
        1
176
     1
 40
0.0
176
     1
 90
        0
176
     1
290
     0
176
     1
290
     1
176
     1
290
     1
176
     1
290
     0
176
     1
290
     0
176
     1
290
     0
176
     1
290
     0
176
     1
290
     0
176
     1
290
     0
176
     1
 90
       50
176
     1
 40
0.0
176
     1
 40
1.0
176
     1
 90
        0
176
     1
 62
    18
420
        0
176
     1
 90
       50
176
     1
 90
        3
176
     1
 62
     5
420
      255
176
     1
290
     0
176
     1
 90
       50
176
     1
 90
       50
176
     1
 90
       50
176
     1
290
     0
176
     1
 90
       50
176
     1
 62
   256
176
     0
 40
1.0
176
     0
 90
        2
176
     1
  1
strokes_ogs.tif
176
     1
290
     0
176
     1
 40
1.0
176
     1
 40
1.0
176
     1
  0
VISUALSTYLE
  5
8457
102
{ACAD_REACTORS
330
844B
102
}
330
844B
100
AcDbVisualStyle
  2
Brighten
 70
    12
177
     3
291
     1
 70
    58
 90
        2
176
     1
 90
        2
176
     1
 90
        0
176
     1
 90
        0
176
     1
 40
0.6
176
     1
 40
30.0
176
     1
 62
     7
420
 16777215
176
     1
 90
        1
176
     1
 90
        4
176
     1
 62
     7
176
     1
 62
   257
176
     1
 90
        1
176
     1
 90
        1
176
     1
 40
1.0
176
     1
 90
        8
176
     1
 62
     7
176
     1
 40
1.0
176
     1
 90
        1
176
     1
 90
        6
176
     1
 90
        2
176
     1
 62
     7
176
     1
 90
        5
176
     1
 90
        0
176
     1
 90
        0
176
     1
290
     0
176
     1
 90
        1
176
     1
 40
50.0
176
     1
 90
        0
176
     1
290
     0
176
     1
290
     1
176
     1
290
     1
176
     1
290
     0
176
     1
290
     0
176
     1
290
     0
176
     1
290
     0
176
     1
290
     0
176
     1
290
     0
176
     1
 90
       50
176
     1
 40
0.0
176
     1
 40
1.0
176
     1
 90
        0
176
     1
 62
    18
420
        0
176
     1
 90
       50
176
     1
 90
        3
176
     1
 62
     5
420
      255
176
     1
290
     0
176
     1
 90
       50
176
     1
 90
       50
176
     1
 90
       50
176
     1
290
     0
176
     1
 90
       50
176
     1
 62
   256
176
     0
 40
1.0
176
     0
 90
        2
176
     1
  1
strokes_ogs.tif
176
     1
290
     0
176
     1
 40
1.0
176
     1
 40
1.0
176
     1
  0
VISUALSTYLE
  5
845B
102
{ACAD_REACTORS
330
844B
102
}
330
844B
100
AcDbVisualStyle
  2
ColorChange
 70
    16
177
     3
291
     1
 70
    58
 90
        2
176
     1
 90
        2
176
     1
 90
        3
176
     1
 90
        0
176
     1
 40
0.6
176
     1
 40
30.0
176
     1
 62
     8
420
  8421504
176
     1
 90
        1
176
     1
 90
        4
176
     1
 62
     7
176
     1
 62
   257
176
     1
 90
        1
176
     1
 90
        1
176
     1
 40
1.0
176
     1
 90
        8
176
     1
 62
     8
420
  8421504
176
     1
 40
1.0
176
     1
 90
        1
176
     1
 90
        6
176
     1
 90
        2
176
     1
 62
     7
176
     1
 90
        5
176
     1
 90
        0
176
     1
 90
        0
176
     1
290
     0
176
     1
 90
        1
176
     1
 40
0.0
176
     1
 90
        0
176
     1
290
     0
176
     1
290
     1
176
     1
290
     1
176
     1
290
     0
176
     1
290
     0
176
     1
290
     0
176
     1
290
     0
176
     1
290
     0
176
     1
290
     0
176
     1
 90
       50
176
     1
 40
0.0
176
     1
 40
1.0
176
     1
 90
        0
176
     1
 62
    18
420
        0
176
     1
 90
       50
176
     1
 90
        3
176
     1
 62
     5
420
      255
176
     1
290
     0
176
     1
 90
       50
176
     1
 90
       50
176
     1
 90
       50
176
     1
290
     0
176
     1
 90
       50
176
     1
 62
   256
176
     0
 40
1.0
176
     0
 90
        2
176
     1
  1
strokes_ogs.tif
176
     1
290
     0
176
     1
 40
1.0
176
     1
 40
1.0
176
     1
  0
VISUALSTYLE
  5
8454
102
{ACAD_REACTORS
330
844B
102
}
330
844B
100
AcDbVisualStyle
  2
Conceptual
 70
     9
177
     3
291
     0
 70
    58
 90
        3
176
     1
 90
        2
176
     1
 90
        0
176
     1
 90
        0
176
     1
 40
0.6
176
     1
 40
30.0
176
     1
 62
     7
420
 16777215
176
     1
 90
        2
176
     1
 90
        2
176
     1
 62
     7
176
     1
 62
   257
176
     1
 90
        1
176
     1
 90
        1
176
     1
 40
179.0
176
     1
 90
        8
176
     1
 62
     7
176
     1
 40
1.0
176
     1
 90
        1
176
     1
 90
        6
176
     1
 90
        2
176
     1
 62
     7
176
     1
 90
        3
176
     1
 90
        0
176
     1
 90
        0
176
     1
290
     0
176
     1
 90
        1
176
     1
 40
0.0
176
     1
 90
        0
176
     1
290
     0
176
     1
290
     1
176
     1
290
     1
176
     1
290
     0
176
     1
290
     0
176
     1
290
     0
176
     1
290
     0
176
     1
290
     0
176
     1
290
     0
176
     1
 90
       50
176
     1
 40
0.0
176
     1
 40
1.0
176
     1
 90
        0
176
     1
 62
    18
420
        0
176
     1
 90
       50
176
     1
 90
        3
176
     1
 62
     5
420
      255
176
     1
290
     0
176
     1
 90
       50
176
     1
 90
       50
176
     1
 90
       50
176
     1
290
     0
176
     1
 90
       50
176
     1
 62
   256
176
     0
 40
1.0
176
     0
 90
        2
176
     1
  1
strokes_ogs.tif
176
     1
290
     0
176
     1
 40
1.0
176
     1
 40
1.0
176
     1
  0
VISUALSTYLE
  5
8456
102
{ACAD_REACTORS
330
844B
102
}
330
844B
100
AcDbVisualStyle
  2
Dim
 70
    11
177
     3
291
     1
 70
    58
 90
        2
176
     1
 90
        2
176
     1
 90
        0
176
     1
 90
        0
176
     1
 40
0.6
176
     1
 40
30.0
176
     1
 62
     7
420
 16777215
176
     1
 90
        1
176
     1
 90
        4
176
     1
 62
     7
176
     1
 62
   257
176
     1
 90
        1
176
     1
 90
        1
176
     1
 40
1.0
176
     1
 90
        8
176
     1
 62
     7
176
     1
 40
1.0
176
     1
 90
        1
176
     1
 90
        6
176
     1
 90
        2
176
     1
 62
     7
176
     1
 90
        5
176
     1
 90
        0
176
     1
 90
        0
176
     1
290
     0
176
     1
 90
        1
176
     1
 40
-50.0
176
     1
 90
        0
176
     1
290
     0
176
     1
290
     1
176
     1
290
     1
176
     1
290
     0
176
     1
290
     0
176
     1
290
     0
176
     1
290
     0
176
     1
290
     0
176
     1
290
     0
176
     1
 90
       50
176
     1
 40
0.0
176
     1
 40
1.0
176
     1
 90
        0
176
     1
 62
    18
420
        0
176
     1
 90
       50
176
     1
 90
        3
176
     1
 62
     5
420
      255
176
     1
290
     0
176
     1
 90
       50
176
     1
 90
       50
176
     1
 90
       50
176
     1
290
     0
176
     1
 90
       50
176
     1
 62
   256
176
     0
 40
1.0
176
     0
 90
        2
176
     1
  1
strokes_ogs.tif
176
     1
290
     0
176
     1
 40
1.0
176
     1
 40
1.0
176
     1
  0
VISUALSTYLE
  5
8463
102
{ACAD_REACTORS
330
844B
102
}
330
844B
100
AcDbVisualStyle
  2
EdgeColorOff
 70
    22
177
     3
291
     1
 70
    58
 90
        2
176
     0
 90
        2
176
     0
 90
        0
176
     0
 90
        0
176
     0
 40
0.6
176
     0
 40
30.0
176
     0
 62
     7
420
 16777215
176
     0
 90
        1
176
     0
 90
        4
176
     0
 62
     7
176
     0
 62
   257
176
     0
 90
        1
176
     0
 90
        1
176
     0
 40
1.0
176
     0
 90
        8
176
     2
 62
     7
176
     0
 40
1.0
176
     0
 90
        1
176
     0
 90
        6
176
     0
 90
        2
176
     0
 62
     7
176
     0
 90
        5
176
     0
 90
        0
176
     0
 90
        0
176
     0
290
     0
176
     0
 90
        1
176
     0
 40
0.0
176
     0
 90
        0
176
     0
290
     0
176
     0
290
     1
176
     0
290
     1
176
     0
290
     0
176
     0
290
     0
176
     0
290
     0
176
     0
290
     0
176
     0
290
     0
176
     0
290
     0
176
     0
 90
       50
176
     0
 40
0.0
176
     0
 40
1.0
176
     0
 90
        0
176
     0
 62
    18
420
        0
176
     0
 90
       50
176
     0
 90
        3
176
     0
 62
     5
420
      255
176
     0
290
     0
176
     0
 90
       50
176
     0
 90
       50
176
     0
 90
       50
176
     0
290
     0
176
     0
 90
       50
176
     0
 62
   256
176
     0
 40
1.0
176
     0
 90
        2
176
     0
  1
strokes_ogs.tif
176
     0
290
     0
176
     0
 40
1.0
176
     0
 40
1.0
176
     0
  0
VISUALSTYLE
  5
845A
102
{ACAD_REACTORS
330
844B
102
}
330
844B
100
AcDbVisualStyle
  2
Facepattern
 70
    15
177
     3
291
     1
 70
    58
 90
        2
176
     1
 90
        2
176
     1
 90
        0
176
     1
 90
        0
176
     1
 40
0.6
176
     1
 40
30.0
176
     1
 62
     7
420
 16777215
176
     1
 90
        1
176
     1
 90
        4
176
     1
 62
     7
176
     1
 62
   257
176
     1
 90
        1
176
     1
 90
        1
176
     1
 40
1.0
176
     1
 90
        8
176
     1
 62
     7
176
     1
 40
1.0
176
     1
 90
        1
176
     1
 90
        6
176
     1
 90
        2
176
     1
 62
     7
176
     1
 90
        5
176
     1
 90
        0
176
     1
 90
        0
176
     1
290
     0
176
     1
 90
        1
176
     1
 40
0.0
176
     1
 90
        0
176
     1
290
     0
176
     1
290
     1
176
     1
290
     1
176
     1
290
     0
176
     1
290
     0
176
     1
290
     0
176
     1
290
     0
176
     1
290
     0
176
     1
290
     0
176
     1
 90
       50
176
     1
 40
0.0
176
     1
 40
1.0
176
     1
 90
        0
176
     1
 62
    18
420
        0
176
     1
 90
       50
176
     1
 90
        3
176
     1
 62
     5
420
      255
176
     1
290
     0
176
     1
 90
       50
176
     1
 90
       50
176
     1
 90
       50
176
     1
290
     0
176
     1
 90
       50
176
     1
 62
   256
176
     0
 40
1.0
176
     0
 90
        2
176
     1
  1
strokes_ogs.tif
176
     1
290
     0
176
     1
 40
1.0
176
     1
 40
1.0
176
     1
  0
VISUALSTYLE
  5
844C
102
{ACAD_REACTORS
330
844B
102
}
330
844B
100
AcDbVisualStyle
  2
Flat
 70
     0
177
     3
291
     1
 70
    58
 90
        2
176
     1
 90
        1
176
     1
 90
        1
176
     1
 90
        2
176
     1
 40
0.6
176
     1
 40
30.0
176
     1
 62
     7
420
 16777215
176
     1
 90
        0
176
     1
 90
        0
176
     1
 62
     7
176
     1
 62
   257
176
     1
 90
        1
176
     1
 90
        1
176
     1
 40
1.0
176
     1
 90
        8
176
     1
 62
     7
176
     1
 40
1.0
176
     1
 90
        1
176
     1
 90
        6
176
     1
 90
        2
176
     1
 62
     7
176
     1
 90
        5
176
     1
 90
        0
176
     1
 90
        0
176
     1
290
     0
176
     1
 90
       13
176
     1
 40
0.0
176
     1
 90
        0
176
     1
290
     0
176
     1
290
     1
176
     1
290
     1
176
     1
290
     0
176
     1
290
     0
176
     1
290
     0
176
     1
290
     0
176
     1
290
     0
176
     1
290
     0
176
     1
 90
       50
176
     1
 40
0.0
176
     1
 40
1.0
176
     1
 90
        0
176
     1
 62
    18
420
        0
176
     1
 90
       50
176
     1
 90
        3
176
     1
 62
     5
420
      255
176
     1
290
     0
176
     1
 90
       50
176
     1
 90
       50
176
     1
 90
       50
176
     1
290
     0
176
     1
 90
       50
176
     1
 62
   256
176
     0
 40
1.0
176
     0
 90
        2
176
     1
  1
strokes_ogs.tif
176
     1
290
     0
176
     1
 40
1.0
176
     1
 40
1.0
176
     1
  0
VISUALSTYLE
  5
844D
102
{ACAD_REACTORS
330
844B
102
}
330
844B
100
AcDbVisualStyle
  2
FlatWithEdges
 70
     1
177
     3
291
     1
 70
    58
 90
        2
176
     1
 90
        1
176
     1
 90
        1
176
     1
 90
        2
176
     1
 40
0.6
176
     1
 40
30.0
176
     1
 62
     7
420
 16777215
176
     1
 90
        1
176
     1
 90
        0
176
     1
 62
     7
176
     1
 62
   257
176
     1
 90
        1
176
     1
 90
        1
176
     1
 40
1.0
176
     1
 90
        0
176
     1
 62
   257
176
     1
 40
1.0
176
     1
 90
        1
176
     1
 90
        6
176
     1
 90
        2
176
     1
 62
     7
176
     1
 90
        5
176
     1
 90
        0
176
     1
 90
        0
176
     1
290
     0
176
     1
 90
       13
176
     1
 40
0.0
176
     1
 90
        0
176
     1
290
     0
176
     1
290
     1
176
     1
290
     1
176
     1
290
     0
176
     1
290
     0
176
     1
290
     0
176
     1
290
     0
176
     1
290
     0
176
     1
290
     0
176
     1
 90
       50
176
     1
 40
0.0
176
     1
 40
1.0
176
     1
 90
        0
176
     1
 62
    18
420
        0
176
     1
 90
       50
176
     1
 90
        3
176
     1
 62
     5
420
      255
176
     1
290
     0
176
     1
 90
       50
176
     1
 90
       50
176
     1
 90
       50
176
     1
290
     0
176
     1
 90
       50
176
     1
 62
   256
176
     0
 40
1.0
176
     0
 90
        2
176
     1
  1
strokes_ogs.tif
176
     1
290
     0
176
     1
 40
1.0
176
     1
 40
1.0
176
     1
  0
VISUALSTYLE
  5
844E
102
{ACAD_REACTORS
330
844B
102
}
330
844B
100
AcDbVisualStyle
  2
Gouraud
 70
     2
177
     3
291
     1
 70
    58
 90
        2
176
     1
 90
        2
176
     1
 90
        1
176
     1
 90
        2
176
     1
 40
0.6
176
     1
 40
30.0
176
     1
 62
     7
420
 16777215
176
     1
 90
        0
176
     1
 90
        0
176
     1
 62
     7
176
     1
 62
   257
176
     1
 90
        1
176
     1
 90
        1
176
     1
 40
1.0
176
     1
 90
        0
176
     1
 62
     7
176
     1
 40
1.0
176
     1
 90
        1
176
     1
 90
        6
176
     1
 90
        2
176
     1
 62
     7
176
     1
 90
        5
176
     1
 90
        0
176
     1
 90
        0
176
     1
290
     0
176
     1
 90
       13
176
     1
 40
0.0
176
     1
 90
        0
176
     1
290
     0
176
     1
290
     1
176
     1
290
     1
176
     1
290
     0
176
     1
290
     0
176
     1
290
     0
176
     1
290
     0
176
     1
290
     0
176
     1
290
     0
176
     1
 90
       50
176
     1
 40
0.0
176
     1
 40
1.0
176
     1
 90
        0
176
     1
 62
    18
420
        0
176
     1
 90
       50
176
     1
 90
        3
176
     1
 62
     5
420
      255
176
     1
290
     0
176
     1
 90
       50
176
     1
 90
       50
176
     1
 90
       50
176
     1
290
     0
176
     1
 90
       50
176
     1
 62
   256
176
     0
 40
1.0
176
     0
 90
        2
176
     1
  1
strokes_ogs.tif
176
     1
290
     0
176
     1
 40
1.0
176
     1
 40
1.0
176
     1
  0
VISUALSTYLE
  5
844F
102
{ACAD_REACTORS
330
844B
102
}
330
844B
100
AcDbVisualStyle
  2
GouraudWithEdges
 70
     3
177
     3
291
     1
 70
    58
 90
        2
176
     1
 90
        2
176
     1
 90
        1
176
     1
 90
        2
176
     1
 40
0.6
176
     1
 40
30.0
176
     1
 62
     7
420
 16777215
176
     1
 90
        1
176
     1
 90
        0
176
     1
 62
     7
176
     1
 62
   257
176
     1
 90
        1
176
     1
 90
        1
176
     1
 40
1.0
176
     1
 90
        0
176
     1
 62
   257
176
     1
 40
1.0
176
     1
 90
        1
176
     1
 90
        6
176
     1
 90
        2
176
     1
 62
     7
176
     1
 90
        5
176
     1
 90
        0
176
     1
 90
        0
176
     1
290
     0
176
     1
 90
       13
176
     1
 40
0.0
176
     1
 90
        0
176
     1
290
     0
176
     1
290
     1
176
     1
290
     1
176
     1
290
     0
176
     1
290
     0
176
     1
290
     0
176
     1
290
     0
176
     1
290
     0
176
     1
290
     0
176
     1
 90
       50
176
     1
 40
0.0
176
     1
 40
1.0
176
     1
 90
        0
176
     1
 62
    18
420
        0
176
     1
 90
       50
176
     1
 90
        3
176
     1
 62
     5
420
      255
176
     1
290
     0
176
     1
 90
       50
176
     1
 90
       50
176
     1
 90
       50
176
     1
290
     0
176
     1
 90
       50
176
     1
 62
   256
176
     0
 40
1.0
176
     0
 90
        2
176
     1
  1
strokes_ogs.tif
176
     1
290
     0
176
     1
 40
1.0
176
     1
 40
1.0
176
     1
  0
VISUALSTYLE
  5
8453
102
{ACAD_REACTORS
330
844B
102
}
330
844B
100
AcDbVisualStyle
  2
Hidden
 70
     6
177
     3
291
     0
 70
    58
 90
        1
176
     1
 90
        2
176
     1
 90
        2
176
     1
 90
        0
176
     1
 40
0.6
176
     1
 40
30.0
176
     1
 62
     7
420
 16777215
176
     1
 90
        2
176
     1
 90
        2
176
     1
 62
     7
176
     1
 62
   257
176
     1
 90
        2
176
     1
 90
        1
176
     1
 40
40.0
176
     1
 90
        0
176
     1
 62
   257
176
     1
 40
1.0
176
     1
 90
        1
176
     1
 90
        6
176
     1
 90
        2
176
     1
 62
     7
176
     1
 90
        3
176
     1
 90
        0
176
     1
 90
        0
176
     1
290
     0
176
     1
 90
        1
176
     1
 40
0.0
176
     1
 90
        0
176
     1
290
     0
176
     1
290
     1
176
     1
290
     1
176
     1
290
     0
176
     1
290
     0
176
     1
290
     0
176
     1
290
     0
176
     1
290
     0
176
     1
290
     0
176
     1
 90
       50
176
     1
 40
0.0
176
     1
 40
1.0
176
     1
 90
        0
176
     1
 62
    18
420
        0
176
     1
 90
       50
176
     1
 90
        3
176
     1
 62
     5
420
      255
176
     1
290
     0
176
     1
 90
       50
176
     1
 90
       50
176
     1
 90
       50
176
     1
290
     0
176
     1
 90
       50
176
     1
 62
   256
176
     0
 40
1.0
176
     0
 90
        2
176
     1
  1
strokes_ogs.tif
176
     1
290
     0
176
     1
 40
1.0
176
     1
 40
1.0
176
     1
  0
VISUALSTYLE
  5
8461
102
{ACAD_REACTORS
330
844B
102
}
330
844B
100
AcDbVisualStyle
  2
JitterOff
 70
    20
177
     3
291
     1
 70
    58
 90
        2
176
     0
 90
        2
176
     0
 90
        0
176
     0
 90
        0
176
     0
 40
0.6
176
     0
 40
30.0
176
     0
 62
     7
420
 16777215
176
     0
 90
        1
176
     0
 90
        4
176
     0
 62
     7
176
     0
 62
   257
176
     0
 90
        1
176
     0
 90
        1
176
     0
 40
1.0
176
     0
 90
       10
176
     2
 62
     7
176
     0
 40
1.0
176
     0
 90
        1
176
     0
 90
        6
176
     0
 90
        2
176
     0
 62
     7
176
     0
 90
        5
176
     0
 90
        0
176
     0
 90
        0
176
     0
290
     0
176
     0
 90
        1
176
     0
 40
0.0
176
     0
 90
        0
176
     0
290
     0
176
     0
290
     1
176
     0
290
     1
176
     0
290
     0
176
     0
290
     0
176
     0
290
     0
176
     0
290
     0
176
     0
290
     0
176
     0
290
     0
176
     0
 90
       50
176
     0
 40
0.0
176
     0
 40
1.0
176
     0
 90
        0
176
     0
 62
    18
420
        0
176
     0
 90
       50
176
     0
 90
        3
176
     0
 62
     5
420
      255
176
     0
290
     0
176
     0
 90
       50
176
     0
 90
       50
176
     0
 90
       50
176
     0
290
     0
176
     0
 90
       50
176
     0
 62
   256
176
     0
 40
1.0
176
     0
 90
        2
176
     0
  1
strokes_ogs.tif
176
     0
290
     0
176
     0
 40
1.0
176
     0
 40
1.0
176
     0
  0
VISUALSTYLE
  5
8459
102
{ACAD_REACTORS
330
844B
102
}
330
844B
100
AcDbVisualStyle
  2
Linepattern
 70
    14
177
     3
291
     1
 70
    58
 90
        2
176
     1
 90
        2
176
     1
 90
        0
176
     1
 90
        0
176
     1
 40
0.6
176
     1
 40
30.0
176
     1
 62
     7
420
 16777215
176
     1
 90
        1
176
     1
 90
        4
176
     1
 62
     7
176
     1
 62
   257
176
     1
 90
        7
176
     1
 90
        7
176
     1
 40
1.0
176
     1
 90
        8
176
     1
 62
     7
176
     1
 40
1.0
176
     1
 90
        1
176
     1
 90
        6
176
     1
 90
        2
176
     1
 62
     7
176
     1
 90
        5
176
     1
 90
        0
176
     1
 90
        0
176
     1
290
     0
176
     1
 90
        1
176
     1
 40
0.0
176
     1
 90
        0
176
     1
290
     0
176
     1
290
     1
176
     1
290
     1
176
     1
290
     0
176
     1
290
     0
176
     1
290
     0
176
     1
290
     0
176
     1
290
     0
176
     1
290
     0
176
     1
 90
       50
176
     1
 40
0.0
176
     1
 40
1.0
176
     1
 90
        0
176
     1
 62
    18
420
        0
176
     1
 90
       50
176
     1
 90
        3
176
     1
 62
     5
420
      255
176
     1
290
     0
176
     1
 90
       50
176
     1
 90
       50
176
     1
 90
       50
176
     1
290
     0
176
     1
 90
       50
176
     1
 62
   256
176
     0
 40
1.0
176
     0
 90
        2
176
     1
  1
strokes_ogs.tif
176
     1
290
     0
176
     1
 40
1.0
176
     1
 40
1.0
176
     1
  0
VISUALSTYLE
  5
8462
102
{ACAD_REACTORS
330
844B
102
}
330
844B
100
AcDbVisualStyle
  2
OverhangOff
 70
    21
177
     3
291
     1
 70
    58
 90
        2
176
     0
 90
        2
176
     0
 90
        0
176
     0
 90
        0
176
     0
 40
0.6
176
     0
 40
30.0
176
     0
 62
     7
420
 16777215
176
     0
 90
        1
176
     0
 90
        4
176
     0
 62
     7
176
     0
 62
   257
176
     0
 90
        1
176
     0
 90
        1
176
     0
 40
1.0
176
     0
 90
        9
176
     2
 62
     7
176
     0
 40
1.0
176
     0
 90
        1
176
     0
 90
        6
176
     0
 90
        2
176
     0
 62
     7
176
     0
 90
        5
176
     0
 90
        0
176
     0
 90
        0
176
     0
290
     0
176
     0
 90
        1
176
     0
 40
0.0
176
     0
 90
        0
176
     0
290
     0
176
     0
290
     1
176
     0
290
     1
176
     0
290
     0
176
     0
290
     0
176
     0
290
     0
176
     0
290
     0
176
     0
290
     0
176
     0
290
     0
176
     0
 90
       50
176
     0
 40
0.0
176
     0
 40
1.0
176
     0
 90
        0
176
     0
 62
    18
420
        0
176
     0
 90
       50
176
     0
 90
        3
176
     0
 62
     5
420
      255
176
     0
290
     0
176
     0
 90
       50
176
     0
 90
       50
176
     0
 90
       50
176
     0
290
     0
176
     0
 90
       50
176
     0
 62
   256
176
     0
 40
1.0
176
     0
 90
        2
176
     0
  1
strokes_ogs.tif
176
     0
290
     0
176
     0
 40
1.0
176
     0
 40
1.0
176
     0
  0
VISUALSTYLE
  5
8455
102
{ACAD_REACTORS
330
844B
102
}
330
844B
100
AcDbVisualStyle
  2
Realistic
 70
     8
177
     3
291
     0
 70
    58
 90
        2
176
     1
 90
        3
176
     1
 90
        0
176
     1
 90
        2
176
     1
 40
0.6
176
     1
 40
30.0
176
     1
 62
     7
420
 16777215
176
     1
 90
        0
176
     1
 90
        0
176
     1
 62
     7
176
     1
 62
   257
176
     1
 90
        1
176
     1
 90
        1
176
     1
 40
1.0
176
     1
 90
        8
176
     1
 62
   257
176
     1
 40
1.0
176
     1
 90
        1
176
     1
 90
        6
176
     1
 90
        2
176
     1
 62
     7
176
     1
 90
        3
176
     1
 90
        0
176
     1
 90
        0
176
     1
290
     0
176
     1
 90
       13
176
     1
 40
0.0
176
     1
 90
        0
176
     1
290
     0
176
     1
290
     1
176
     1
290
     1
176
     1
290
     0
176
     1
290
     0
176
     1
290
     0
176
     1
290
     0
176
     1
290
     0
176
     1
290
     0
176
     1
 90
       50
176
     1
 40
0.0
176
     1
 40
1.0
176
     1
 90
        0
176
     1
 62
    18
420
        0
176
     1
 90
       50
176
     1
 90
        3
176
     1
 62
     5
420
      255
176
     1
290
     0
176
     1
 90
       50
176
     1
 90
       50
176
     1
 90
       50
176
     1
290
     0
176
     1
 90
       50
176
     1
 62
   256
176
     0
 40
1.0
176
     0
 90
        2
176
     1
  1
strokes_ogs.tif
176
     1
290
     0
176
     1
 40
1.0
176
     1
 40
1.0
176
     1
  0
VISUALSTYLE
  5
8460
102
{ACAD_REACTORS
330
844B
102
}
330
844B
100
AcDbVisualStyle
  2
Shaded
 70
    27
177
     3
291
     0
 70
    58
 90
        2
176
     1
 90
        2
176
     1
 90
        1
176
     1
 90
        2
176
     1
 40
0.6
176
     1
 40
30.0
176
     1
 62
     7
420
 16777215
176
     1
 90
        0
176
     1
 90
        4
176
     1
 62
     7
176
     1
 62
   257
176
     1
 90
        1
176
     1
 90
        1
176
     1
 40
1.0
176
     1
 90
        8
176
     1
 62
   257
176
     1
 40
1.0
176
     1
 90
        1
176
     1
 90
        6
176
     1
 90
        2
176
     1
 62
     8
420
  7895160
176
     1
 90
        3
176
     1
 90
        0
176
     1
 90
        0
176
     1
290
     0
176
     1
 90
        5
176
     1
 40
0.0
176
     1
 90
        0
176
     1
290
     0
176
     1
290
     1
176
     1
290
     1
176
     1
290
     0
176
     1
290
     0
176
     1
290
     0
176
     1
290
     0
176
     1
290
     0
176
     1
290
     0
176
     1
 90
       50
176
     1
 40
0.0
176
     1
 40
1.0
176
     1
 90
        0
176
     1
 62
    18
420
        0
176
     1
 90
       50
176
     1
 90
        3
176
     1
 62
     5
420
      255
176
     1
290
     0
176
     1
 90
       50
176
     1
 90
       50
176
     1
 90
       50
176
     1
290
     0
176
     1
 90
       50
176
     1
 62
   256
176
     0
 40
1.0
176
     0
 90
        2
176
     1
  1
strokes_ogs.tif
176
     1
290
     0
176
     1
 40
1.0
176
     1
 40
1.0
176
     1
  0
VISUALSTYLE
  5
845F
102
{ACAD_REACTORS
330
844B
102
}
330
844B
100
AcDbVisualStyle
  2
Shaded with edges
 70
    26
177
     3
291
     0
 70
    58
 90
        2
176
     1
 90
        2
176
     1
 90
        1
176
     1
 90
        2
176
     1
 40
0.6
176
     1
 40
30.0
176
     1
 62
     7
420
 16777215
176
     1
 90
        1
176
     1
 90
       10
176
     1
 62
     7
176
     1
 62
   257
176
     1
 90
        2
176
     1
 90
        1
176
     1
 40
1.0
176
     1
 90
        8
176
     1
 62
   257
176
     1
 40
1.0
176
     1
 90
        1
176
     1
 90
        6
176
     1
 90
        2
176
     1
 62
     7
176
     1
 90
        3
176
     1
 90
        0
176
     1
 90
        0
176
     1
290
     0
176
     1
 90
        5
176
     1
 40
0.0
176
     1
 90
        0
176
     1
290
     0
176
     1
290
     1
176
     1
290
     1
176
     1
290
     0
176
     1
290
     0
176
     1
290
     0
176
     1
290
     0
176
     1
290
     0
176
     1
290
     0
176
     1
 90
       50
176
     1
 40
0.0
176
     1
 40
1.0
176
     1
 90
        0
176
     1
 62
    18
420
        0
176
     1
 90
       50
176
     1
 90
        3
176
     1
 62
     5
420
      255
176
     1
290
     0
176
     1
 90
       50
176
     1
 90
       50
176
     1
 90
       50
176
     1
290
     0
176
     1
 90
       50
176
     1
 62
   256
176
     0
 40
1.0
176
     0
 90
        2
176
     1
  1
strokes_ogs.tif
176
     1
290
     0
176
     1
 40
1.0
176
     1
 40
1.0
176
     1
  0
VISUALSTYLE
  5
845C
102
{ACAD_REACTORS
330
844B
102
}
330
844B
100
AcDbVisualStyle
  2
Shades of Gray
 70
    23
177
     3
291
     0
 70
    58
 90
        2
176
     1
 90
        2
176
     1
 90
        3
176
     1
 90
        0
176
     1
 40
0.6
176
     1
 40
30.0
176
     1
 62
     7
420
 16777215
176
     1
 90
        2
176
     1
 90
        2
176
     1
 62
     7
176
     1
 62
     7
176
     1
 90
        1
176
     1
 90
        1
176
     1
 40
40.0
176
     1
 90
        8
176
     1
 62
     7
176
     1
 40
1.0
176
     1
 90
        1
176
     1
 90
        6
176
     1
 90
        2
176
     1
 62
     7
176
     1
 90
        3
176
     1
 90
        0
176
     1
 90
        0
176
     1
290
     0
176
     1
 90
        1
176
     1
 40
0.0
176
     1
 90
        0
176
     1
290
     0
176
     1
290
     1
176
     1
290
     1
176
     1
290
     0
176
     1
290
     0
176
     1
290
     0
176
     1
290
     0
176
     1
290
     0
176
     1
290
     0
176
     1
 90
       50
176
     1
 40
0.0
176
     1
 40
1.0
176
     1
 90
        0
176
     1
 62
    18
420
        0
176
     1
 90
       50
176
     1
 90
        3
176
     1
 62
     5
420
      255
176
     1
290
     0
176
     1
 90
       50
176
     1
 90
       50
176
     1
 90
       50
176
     1
290
     0
176
     1
 90
       50
176
     1
 62
   256
176
     0
 40
1.0
176
     0
 90
        2
176
     1
  1
strokes_ogs.tif
176
     1
290
     0
176
     1
 40
1.0
176
     1
 40
1.0
176
     1
  0
VISUALSTYLE
  5
845D
102
{ACAD_REACTORS
330
844B
102
}
330
844B
100
AcDbVisualStyle
  2
Sketchy
 70
    24
177
     3
291
     0
 70
    58
 90
        1
176
     1
 90
        2
176
     1
 90
        2
176
     1
 90
        0
176
     1
 40
0.6
176
     1
 40
30.0
176
     1
 62
     7
420
 16777215
176
     1
 90
        2
176
     1
 90
        2
176
     1
 62
     7
176
     1
 62
     7
176
     1
 90
        1
176
     1
 90
        1
176
     1
 40
40.0
176
     1
 90
       11
176
     1
 62
     7
176
     1
 40
1.0
176
     1
 90
        1
176
     1
 90
        6
176
     1
 90
        2
176
     1
 62
     7
176
     1
 90
        6
176
     1
 90
        0
176
     1
 90
        0
176
     1
290
     0
176
     1
 90
        1
176
     1
 40
0.0
176
     1
 90
        0
176
     1
290
     0
176
     1
290
     1
176
     1
290
     1
176
     1
290
     0
176
     1
290
     0
176
     1
290
     0
176
     1
290
     0
176
     1
290
     0
176
     1
290
     0
176
     1
 90
       50
176
     1
 40
0.0
176
     1
 40
1.0
176
     1
 90
        0
176
     1
 62
    18
420
        0
176
     1
 90
       50
176
     1
 90
        3
176
     1
 62
     5
420
      255
176
     1
290
     0
176
     1
 90
       50
176
     1
 90
       50
176
     1
 90
       50
176
     1
290
     0
176
     1
 90
       50
176
     1
 62
   256
176
     0
 40
1.0
176
     0
 90
        2
176
     1
  1
strokes_ogs.tif
176
     1
290
     0
176
     1
 40
1.0
176
     1
 40
1.0
176
     1
  0
VISUALSTYLE
  5
8458
102
{ACAD_REACTORS
330
844B
102
}
330
844B
100
AcDbVisualStyle
  2
Thicken
 70
    13
177
     3
291
     1
 70
    58
 90
        2
176
     1
 90
        2
176
     1
 90
        0
176
     1
 90
        0
176
     1
 40
0.6
176
     1
 40
30.0
176
     1
 62
     7
420
 16777215
176
     1
 90
        1
176
     1
 90
        4
176
     1
 62
     7
176
     1
 62
   257
176
     1
 90
        1
176
     1
 90
        1
176
     1
 40
1.0
176
     1
 90
       12
176
     1
 62
     7
176
     1
 40
1.0
176
     1
 90
        1
176
     1
 90
        6
176
     1
 90
        2
176
     1
 62
     7
176
     1
 90
        5
176
     1
 90
        0
176
     1
 90
        0
176
     1
290
     0
176
     1
 90
        1
176
     1
 40
0.0
176
     1
 90
        0
176
     1
290
     0
176
     1
290
     1
176
     1
290
     1
176
     1
290
     0
176
     1
290
     0
176
     1
290
     0
176
     1
290
     0
176
     1
290
     0
176
     1
290
     0
176
     1
 90
       50
176
     1
 40
0.0
176
     1
 40
1.0
176
     1
 90
        0
176
     1
 62
    18
420
        0
176
     1
 90
       50
176
     1
 90
        3
176
     1
 62
     5
420
      255
176
     1
290
     0
176
     1
 90
       50
176
     1
 90
       50
176
     1
 90
       50
176
     1
290
     0
176
     1
 90
       50
176
     1
 62
   256
176
     0
 40
1.0
176
     0
 90
        2
176
     1
  1
strokes_ogs.tif
176
     1
290
     0
176
     1
 40
1.0
176
     1
 40
1.0
176
     1
  0
VISUALSTYLE
  5
8452
102
{ACAD_REACTORS
330
844B
102
}
330
844B
100
AcDbVisualStyle
  2
Wireframe
 70
     5
177
     3
291
     0
 70
    58
 90
        0
176
     1
 90
        2
176
     1
 90
        0
176
     1
 90
        0
176
     1
 40
0.6
176
     1
 40
30.0
176
     1
 62
     7
420
 16777215
176
     1
 90
        1
176
     1
 90
        4
176
     1
 62
     7
176
     1
 62
   257
176
     1
 90
        1
176
     1
 90
        1
176
     1
 40
1.0
176
     1
 90
        0
176
     1
 62
   257
176
     1
 40
1.0
176
     1
 90
        1
176
     1
 90
        6
176
     1
 90
        2
176
     1
 62
     7
176
     1
 90
        3
176
     1
 90
        0
176
     1
 90
        0
176
     1
290
     0
176
     1
 90
        1
176
     1
 40
0.0
176
     1
 90
        0
176
     1
290
     0
176
     1
290
     1
176
     1
290
     1
176
     1
290
     0
176
     1
290
     0
176
     1
290
     0
176
     1
290
     0
176
     1
290
     0
176
     1
290
     0
176
     1
 90
       50
176
     1
 40
0.0
176
     1
 40
1.0
176
     1
 90
        0
176
     1
 62
    18
420
        0
176
     1
 90
       50
176
     1
 90
        3
176
     1
 62
     5
420
      255
176
     1
290
     0
176
     1
 90
       50
176
     1
 90
       50
176
     1
 90
       50
176
     1
290
     0
176
     1
 90
       50
176
     1
 62
   256
176
     0
 40
1.0
176
     0
 90
        2
176
     1
  1
strokes_ogs.tif
176
     1
290
     0
176
     1
 40
1.0
176
     1
 40
1.0
176
     1
  0
VISUALSTYLE
  5
845E
102
{ACAD_REACTORS
330
844B
102
}
330
844B
100
AcDbVisualStyle
  2
X-Ray
 70
    25
177
     3
291
     0
 70
    58
 90
        2
176
     1
 90
        2
176
     1
 90
        1
176
     1
 90
        1
176
     1
 40
0.5
176
     1
 40
30.0
176
     1
 62
     7
420
 16777215
176
     1
 90
        1
176
     1
 90
        0
176
     1
 62
     7
176
     1
 62
   257
176
     1
 90
        1
176
     1
 90
        1
176
     1
 40
1.0
176
     1
 90
        8
176
     1
 62
     7
176
     1
 40
1.0
176
     1
 90
        1
176
     1
 90
        6
176
     1
 90
        2
176
     1
 62
     7
176
     1
 90
        3
176
     1
 90
        0
176
     1
 90
        0
176
     1
290
     0
176
     1
 90
       13
176
     1
 40
0.0
176
     1
 90
        0
176
     1
290
     0
176
     1
290
     1
176
     1
290
     1
176
     1
290
     0
176
     1
290
     0
176
     1
290
     0
176
     1
290
     0
176
     1
290
     0
176
     1
290
     0
176
     1
 90
       50
176
     1
 40
0.0
176
     1
 40
1.0
176
     1
 90
        0
176
     1
 62
    18
420
        0
176
     1
 90
       50
176
     1
 90
        3
176
     1
 62
     5
420
      255
176
     1
290
     0
176
     1
 90
       50
176
     1
 90
       50
176
     1
 90
       50
176
     1
290
     0
176
     1
 90
       50
176
     1
 62
   256
176
     0
 40
1.0
176
     0
 90
        2
176
     1
  1
strokes_ogs.tif
176
     1
290
     0
176
     1
 40
1.0
176
     1
 40
1.0
176
     1
  0
DICTIONARYVAR
  5
84F4
102
{ACAD_REACTORS
330
84EE
102
}
330
84EE
100
DictionaryVariables
280
     0
  1
1:1
  0
DICTIONARYVAR
  5
84F0
102
{ACAD_REACTORS
330
84EE
102
}
330
84EE
100
DictionaryVariables
280
     0
  1
STANDARD
  0
DICTIONARYVAR
  5
84EF
102
{ACAD_REACTORS
330
84EE
102
}
330
84EE
100
DictionaryVariables
280
     0
  1
STANDARD
  0
DICTIONARYVAR
  5
84F1
102
{ACAD_REACTORS
330
84EE
102
}
330
84EE
100
DictionaryVariables
280
     0
  1
Metric50
  0
DICTIONARYVAR
  5
84F2
102
{ACAD_REACTORS
330
84EE
102
}
330
84EE
100
DictionaryVariables
280
     0
  1
Metric50
  0
DICTIONARYVAR
  5
84F6
102
{ACAD_REACTORS
330
84EE
102
}
330
84EE
100
DictionaryVariables
280
     0
  1
1
  0
DICTIONARYVAR
  5
84F7
102
{ACAD_REACTORS
330
84EE
102
}
330
84EE
100
DictionaryVariables
280
     0
  1
15
  0
DICTIONARYVAR
  5
84F5
102
{ACAD_REACTORS
330
84EE
102
}
330
84EE
100
DictionaryVariables
280
     0
  1
0
  0
DICTIONARYVAR
  5
84F3
102
{ACAD_REACTORS
330
84EE
102
}
330
84EE
100
DictionaryVariables
280
     0
  1
0
  0
DICTIONARY
  5
84EB
330
847E
100
AcDbDictionary
280
     1
281
     1
  3
ACAD_XREC_ROUNDTRIP
360
8539
  0
DICTIONARY
  5
843C
330
843B
100
AcDbDictionary
280
     1
281
     1
  3
BUMPTILE
360
843E
  3
DIFFUSETILE
360
843D
  3
OPACITYTILE
360
8441
  3
REFLECTIONTILE
360
8440
  3
REFRACTIONTILE
360
8442
  3
SPECULARTILE
360
843F
  0
DICTIONARY
  5
8434
330
8433
100
AcDbDictionary
280
     1
281
     1
  3
BUMPTILE
360
8436
  3
DIFFUSETILE
360
8435
  3
OPACITYTILE
360
8439
  3
REFLECTIONTILE
360
8438
  3
REFRACTIONTILE
360
843A
  3
SPECULARTILE
360
8437
  0
DICTIONARY
  5
8444
330
8443
100
AcDbDictionary
280
     1
281
     1
  3
BUMPTILE
360
8446
  3
DIFFUSETILE
360
8445
  3
OPACITYTILE
360
8449
  3
REFLECTIONTILE
360
8448
  3
REFRACTIONTILE
360
844A
  3
SPECULARTILE
360
8447
  0
DICTIONARY
  5
84E9
330
847C
100
AcDbDictionary
280
     1
281
     1
  3
ACAD_XREC_ROUNDTRIP
360
8538
  0
DICTIONARY
  5
8536
330
8466
100
AcDbDictionary
280
     1
281
     1
  3
ACAD_ROUNDTRIP_2008_TABLESTYLE_CELLSTYLEMAP
360
8537
  0
XRECORD
  5
8539
102
{ACAD_REACTORS
330
84EB
102
}
330
84EB
100
AcDbXrecord
280
     1
102
DISPLAYNAME
  1
Metric50
102
FLAGS
 90
        0
  0
XRECORD
  5
843E
102
{ACAD_REACTORS
330
843C
102
}
330
843C
100
AcDbXrecord
280
     1
270
     1
271
     1
  0
XRECORD
  5
843D
102
{ACAD_REACTORS
330
843C
102
}
330
843C
100
AcDbXrecord
280
     1
270
     1
271
     1
  0
XRECORD
  5
8441
102
{ACAD_REACTORS
330
843C
102
}
330
843C
100
AcDbXrecord
280
     1
270
     1
271
     1
  0
XRECORD
  5
8440
102
{ACAD_REACTORS
330
843C
102
}
330
843C
100
AcDbXrecord
280
     1
270
     1
271
     1
  0
XRECORD
  5
8442
102
{ACAD_REACTORS
330
843C
102
}
330
843C
100
AcDbXrecord
280
     1
270
     1
271
     1
  0
XRECORD
  5
843F
102
{ACAD_REACTORS
330
843C
102
}
330
843C
100
AcDbXrecord
280
     1
270
     1
271
     1
  0
XRECORD
  5
8436
102
{ACAD_REACTORS
330
8434
102
}
330
8434
100
AcDbXrecord
280
     1
270
     1
271
     1
  0
XRECORD
  5
8435
102
{ACAD_REACTORS
330
8434
102
}
330
8434
100
AcDbXrecord
280
     1
270
     1
271
     1
  0
XRECORD
  5
8439
102
{ACAD_REACTORS
330
8434
102
}
330
8434
100
AcDbXrecord
280
     1
270
     1
271
     1
  0
XRECORD
  5
8438
102
{ACAD_REACTORS
330
8434
102
}
330
8434
100
AcDbXrecord
280
     1
270
     1
271
     1
  0
XRECORD
  5
843A
102
{ACAD_REACTORS
330
8434
102
}
330
8434
100
AcDbXrecord
280
     1
270
     1
271
     1
  0
XRECORD
  5
8437
102
{ACAD_REACTORS
330
8434
102
}
330
8434
100
AcDbXrecord
280
     1
270
     1
271
     1
  0
XRECORD
  5
8446
102
{ACAD_REACTORS
330
8444
102
}
330
8444
100
AcDbXrecord
280
     1
270
     1
271
     1
  0
XRECORD
  5
8445
102
{ACAD_REACTORS
330
8444
102
}
330
8444
100
AcDbXrecord
280
     1
270
     1
271
     1
  0
XRECORD
  5
8449
102
{ACAD_REACTORS
330
8444
102
}
330
8444
100
AcDbXrecord
280
     1
270
     1
271
     1
  0
XRECORD
  5
8448
102
{ACAD_REACTORS
330
8444
102
}
330
8444
100
AcDbXrecord
280
     1
270
     1
271
     1
  0
XRECORD
  5
844A
102
{ACAD_REACTORS
330
8444
102
}
330
8444
100
AcDbXrecord
280
     1
270
     1
271
     1
  0
XRECORD
  5
8447
102
{ACAD_REACTORS
330
8444
102
}
330
8444
100
AcDbXrecord
280
     1
270
     1
271
     1
  0
XRECORD
  5
8538
102
{ACAD_REACTORS
330
84E9
102
}
330
84E9
100
AcDbXrecord
280
     1
102
DISPLAYNAME
  1
Metric50
102
FLAGS
 90
        0
  0
CELLSTYLEMAP
  5
8537
102
{ACAD_REACTORS
330
8536
102
}
330
8536
100
AcDbCellStyleMap
 90
        3
300
CELLSTYLE
  1
TABLEFORMAT_BEGIN
 90
        5
170
     1
 91
        0
 92
    32768
 62
   257
 93
        1
300
CONTENTFORMAT
  1
CONTENTFORMAT_BEGIN
 90
        0
 91
        0
 92
      512
 93
        0
300

 40
0.0
140
1.0
 94
        5
 62
     0
340
10
144
6.0
309
CONTENTFORMAT_END
171
     1
301
MARGIN
  1
CELLMARGIN_BEGIN
 40
1.5
 40
1.5
 40
1.5
 40
1.5
 40
4.5
 40
4.5
309
CELLMARGIN_END
 94
        6
 95
        1
302
GRIDFORMAT
  1
GRIDFORMAT_BEGIN
 90
        0
 91
        1
 62
     0
 92
       -2
340
0
 93
        0
 40
1.125
309
GRIDFORMAT_END
 95
        2
302
GRIDFORMAT
  1
GRIDFORMAT_BEGIN
 90
        0
 91
        1
 62
     0
 92
       -2
340
0
 93
        0
 40
1.125
309
GRIDFORMAT_END
 95
        4
302
GRIDFORMAT
  1
GRIDFORMAT_BEGIN
 90
        0
 91
        1
 62
     0
 92
       -2
340
0
 93
        0
 40
1.125
309
GRIDFORMAT_END
 95
        8
302
GRIDFORMAT
  1
GRIDFORMAT_BEGIN
 90
        0
 91
        1
 62
     0
 92
       -2
340
0
 93
        0
 40
1.125
309
GRIDFORMAT_END
 95
       16
302
GRIDFORMAT
  1
GRIDFORMAT_BEGIN
 90
        0
 91
        1
 62
     0
 92
       -2
340
0
 93
        0
 40
1.125
309
GRIDFORMAT_END
 95
       32
302
GRIDFORMAT
  1
GRIDFORMAT_BEGIN
 90
        0
 91
        1
 62
     0
 92
       -2
340
0
 93
        0
 40
1.125
309
GRIDFORMAT_END
309
TABLEFORMAT_END
  1
CELLSTYLE_BEGIN
 90
        1
 91
        1
300
_TITLE
309
CELLSTYLE_END
300
CELLSTYLE
  1
TABLEFORMAT_BEGIN
 90
        5
170
     1
 91
        0
 92
        0
 62
   257
 93
        1
300
CONTENTFORMAT
  1
CONTENTFORMAT_BEGIN
 90
        0
 91
        0
 92
      512
 93
        0
300

 40
0.0
140
1.0
 94
        5
 62
     0
340
10
144
4.5
309
CONTENTFORMAT_END
171
     1
301
MARGIN
  1
CELLMARGIN_BEGIN
 40
1.5
 40
1.5
 40
1.5
 40
1.5
 40
4.5
 40
4.5
309
CELLMARGIN_END
 94
        6
 95
        1
302
GRIDFORMAT
  1
GRIDFORMAT_BEGIN
 90
        0
 91
        1
 62
     0
 92
       -2
340
0
 93
        0
 40
1.125
309
GRIDFORMAT_END
 95
        2
302
GRIDFORMAT
  1
GRIDFORMAT_BEGIN
 90
        0
 91
        1
 62
     0
 92
       -2
340
0
 93
        0
 40
1.125
309
GRIDFORMAT_END
 95
        4
302
GRIDFORMAT
  1
GRIDFORMAT_BEGIN
 90
        0
 91
        1
 62
     0
 92
       -2
340
0
 93
        0
 40
1.125
309
GRIDFORMAT_END
 95
        8
302
GRIDFORMAT
  1
GRIDFORMAT_BEGIN
 90
        0
 91
        1
 62
     0
 92
       -2
340
0
 93
        0
 40
1.125
309
GRIDFORMAT_END
 95
       16
302
GRIDFORMAT
  1
GRIDFORMAT_BEGIN
 90
        0
 91
        1
 62
     0
 92
       -2
340
0
 93
        0
 40
1.125
309
GRIDFORMAT_END
 95
       32
302
GRIDFORMAT
  1
GRIDFORMAT_BEGIN
 90
        0
 91
        1
 62
     0
 92
       -2
340
0
 93
        0
 40
1.125
309
GRIDFORMAT_END
309
TABLEFORMAT_END
  1
CELLSTYLE_BEGIN
 90
        2
 91
        1
300
_HEADER
309
CELLSTYLE_END
300
CELLSTYLE
  1
TABLEFORMAT_BEGIN
 90
        5
170
     1
 91
        0
 92
        0
 62
   257
 93
        1
300
CONTENTFORMAT
  1
CONTENTFORMAT_BEGIN
 90
        0
 91
        0
 92
      512
 93
        0
300

 40
0.0
140
1.0
 94
        2
 62
     0
340
10
144
4.5
309
CONTENTFORMAT_END
171
     1
301
MARGIN
  1
CELLMARGIN_BEGIN
 40
1.5
 40
1.5
 40
1.5
 40
1.5
 40
4.5
 40
4.5
309
CELLMARGIN_END
 94
        6
 95
        1
302
GRIDFORMAT
  1
GRIDFORMAT_BEGIN
 90
        0
 91
        1
 62
     0
 92
       -2
340
0
 93
        0
 40
1.125
309
GRIDFORMAT_END
 95
        2
302
GRIDFORMAT
  1
GRIDFORMAT_BEGIN
 90
        0
 91
        1
 62
     0
 92
       -2
340
0
 93
        0
 40
1.125
309
GRIDFORMAT_END
 95
        4
302
GRIDFORMAT
  1
GRIDFORMAT_BEGIN
 90
        0
 91
        1
 62
     0
 92
       -2
340
0
 93
        0
 40
1.125
309
GRIDFORMAT_END
 95
        8
302
GRIDFORMAT
  1
GRIDFORMAT_BEGIN
 90
        0
 91
        1
 62
     0
 92
       -2
340
0
 93
        0
 40
1.125
309
GRIDFORMAT_END
 95
       16
302
GRIDFORMAT
  1
GRIDFORMAT_BEGIN
 90
        0
 91
        1
 62
     0
 92
       -2
340
0
 93
        0
 40
1.125
309
GRIDFORMAT_END
 95
       32
302
GRIDFORMAT
  1
GRIDFORMAT_BEGIN
 90
        0
 91
        1
 62
     0
 92
       -2
340
0
 93
        0
 40
1.125
309
GRIDFORMAT_END
309
TABLEFORMAT_END
  1
CELLSTYLE_BEGIN
 90
        3
 91
        2
300
_DATA
309
CELLSTYLE_END
  0
ENDSEC
  0
SECTION
  2
ACDSDATA
 70
     2
 71
     8
  0
ACDSSCHEMA
 90
        0
  1
AcDb_Thumbnail_Schema
  2
AcDbDs::ID
280
    10
 91
        8
  2
Thumbnail_Data
280
    15
 91
        0
101
ACDSRECORD
 95
        0
 90
        1
  2
AcDbDs::TreatedAsObjectData
280
     1
291
     1
101
ACDSRECORD
 95
        0
 90
        2
  2
AcDbDs::Legacy
280
     1
291
     1
101
ACDSRECORD
  1
AcDbDs::ID
 90
        3
  2
AcDs:Indexable
280
     1
291
     1
101
ACDSRECORD
  1
AcDbDs::ID
 90
        4
  2
AcDbDs::HandleAttribute
280
     7
282
     1
  0
ACDSSCHEMA
 90
        1
  1
AcDbDs::TreatedAsObjectDataSchema
  2
AcDbDs::TreatedAsObjectData
280
     1
 91
        0
  0
ACDSSCHEMA
 90
        2
  1
AcDbDs::LegacySchema
  2
AcDbDs::Legacy
280
     1
 91
        0
  0
ACDSSCHEMA
 90
        3
  1
AcDbDs::IndexedPropertySchema
  2
AcDs:Indexable
280
     1
 91
        0
  0
ACDSSCHEMA
 90
        4
  1
AcDbDs::HandleAttributeSchema
  2
AcDbDs::HandleAttribute
280
     7
 91
        1
284
     1
  0
ACDSRECORD
 90
        0
  2
AcDbDs::ID
280
    10
320
8426
  2
Thumbnail_Data
280
    15
 94
     1645
310
89504E470D0A1A0A0000000D49484452000001000000007C0803000000B13B9E5A00000300504C5445000000000000C8C8C80000000000000000000000000000000000000000000000000000330000660000990000CC0000FF0033000033330033660033990033CC0033FF0066000066330066660066990066CC0066FF0099
310
000099330099660099990099CC0099FF00CC0000CC3300CC6600CC9900CCCC00CCFF00FF0000FF3300FF6600FF9900FFCC00FFFF3300003300333300663300993300CC3300FF3333003333333333663333993333CC3333FF3366003366333366663366993366CC3366FF3399003399333399663399993399CC3399FF33CC00
310
33CC3333CC6633CC9933CCCC33CCFF33FF0033FF3333FF6633FF9933FFCC33FFFF6600006600336600666600996600CC6600FF6633006633336633666633996633CC6633FF6666006666336666666666996666CC6666FF6699006699336699666699996699CC6699FF66CC0066CC3366CC6666CC9966CCCC66CCFF66FF0066
310
FF3366FF6666FF9966FFCC66FFFF9900009900339900669900999900CC9900FF9933009933339933669933999933CC9933FF9966009966339966669966999966CC9966FF9999009999339999669999999999CC9999FF99CC0099CC3399CC6699CC9999CCCC99CCFF99FF0099FF3399FF6699FF9999FFCC99FFFFCC0000CC00
310
33CC0066CC0099CC00CCCC00FFCC3300CC3333CC3366CC3399CC33CCCC33FFCC6600CC6633CC6666CC6699CC66CCCC66FFCC9900CC9933CC9966CC9999CC99CCCC99FFCCCC00CCCC33CCCC66CCCC99CCCCCCCCCCFFCCFF00CCFF33CCFF66CCFF99CCFFCCCCFFFFFF0000FF0033FF0066FF0099FF00CCFF00FFFF3300FF3333
310
FF3366FF3399FF33CCFF33FFFF6600FF6633FF6666FF6699FF66CCFF66FFFF9900FF9933FF9966FF9999FF99CCFF99FFFFCC00FFCC33FFCC66FFCC99FFCCCCFFCCFFFFFF00FFFF33FFFF66FFFF99FFFFCCFFFFFF0000000D0D0D1A1A1A2828283535354343435050505D5D5D6B6B6B787878868686939393A1A1A1AEAEAEBB
310
BBBBC9C9C9D6D6D6E4E4E4F1F1F1FFFFFF00000000000000000000000000000000000000000000000000000000000008F1915C000002D54944415478DAEDDD6172C2201005E03D0E7FB8FF65B806FFAB0109848D3A565B79EFD1A9B62666E4CBB2908489661F28F943C5562979A9CD0A400002108000BEE793DEE9FC58000E
310
6FCF9411400F9099010EAD606D80B71E012C09F0651B13C03F00D438DE9FEAAF39819E9D4A220058A96DABB2358856FB8DC4BC437E8C0818E3600886DC02021920B7415EB631085AA79795042101D8C7016FDDC29A0087CC3F4645C97AB95FB57485B74550007906E814F60143CB945800D903A8FDC4BEA6E101BCF1FD3A27
310
2800010840000210C0C200F156E8015E438000D81F3901C2F61343B83C51026CBB9F300286965F1FD3A510020C59900960EA0629016ACBA704B87600D7FCC70B60E1BAFF7B00B2242800011C018C1EC0F80642F400B423C1E4D49FEA5820591908FD62F7AF0E30174A80D4C53D178057D4048800BE7AB30210800004200001
310
0840007FF1495F1A01A31E0BDC312A0BA775108E054AE57801DADE77011E850910801F0169FA1715E0E468384DF9921800B509EC8F0F012C181C404CED84B8970DFAEA7A73E9002220DEAA5652DC56F7E446C0658D60980056AE123E0730A40114807291D003E8F6382C409B2CE30044748010B6DA5FA789C690427200F612
310
B6D5C022A0A4BFB865B7DA17F6353C5C3C448B80305D1D7F02C07000EAFC8868B1CD163F1E15F51D7FEB065100EA5E2DCDDBEA0491C700304D20D4B2C7B60310CA447AD081509B24F46413D87A4BA01322B7CC16CB48B08E89E66E7068028603E04F923A9E1B1B172301C493495234006309FD698FF389128A001680B3A160
310
424A82CE7FC9BCF3C0DDDF7800DD150FFFE240EAD64A36AD00374D6E06B87F65646980B19AE5250760680209B51B3CCB0D6FDBEC3A0026000108400002A002A0BFA3E449CDEADD16BDA54400FE8E470330E76B93CA9D140F0A0411C09903FC08B0FD16DBE38D564972401EEFB94E02E0BCD84588290750DF595A4361010840
310
0002108000042000010860498085BE7AFB07E01961219A89D8920000000049454E44AE42608244AE426082426082940FA87541CD1EFB3CB5DA2C80FA1F2D10CD756F19003D01985600B6D7C758000000000000000000000000000000C02A808FB6DBBFEE0F0458D7B9E0FB834F0000000049454E44AE426082
  0
ENDSEC
  0
EOF
