  0
SECTION
  2
HEADER
  9
$ACADVER
  1
AC1027
  9
$ACADMAINTVER
 70
    81
  9
$DWGCODEPAGE
  3
ANSI_932
  9
$LASTSAVEDBY
  1
reiko.miyawaki
  9
$REQUIREDVERSIONS
160
                 0
  9
$INSBASE
 10
0.0
 20
0.0
 30
0.0
  9
$EXTMIN
 10
0.0
 20
0.0
 30
0.0
  9
$EXTMAX
 10
3150.0
 20
4425.0
 30
0.0
  9
$LIMMIN
 10
0.0
 20
0.0
  9
$LIMMAX
 10
297.0
 20
210.0
  9
$ORTHOMODE
 70
     0
  9
$REGENMODE
 70
     1
  9
$FILLMODE
 70
     0
  9
$QTEXTMODE
 70
     0
  9
$MIRRTEXT
 70
     1
  9
$LTSCALE
 40
100.0
  9
$ATTMODE
 70
     1
  9
$TEXTSIZE
 40
180.0
  9
$TRACEWID
 40
0.05
  9
$TEXTSTYLE
  7
STANDARD
  9
$CLAYER
  8
3
  9
$CELTYPE
  6
BYLAYER
  9
$CECOLOR
 62
   256
  9
$CELTSCALE
 40
1.0
  9
$DISPSILH
 70
     0
  9
$DIMSCALE
 40
15.0
  9
$DIMASZ
 40
2.0
  9
$DIMEXO
 40
0.5
  9
$DIMDLI
 40
10.0
  9
$DIMRND
 40
0.0
  9
$DIMDLE
 40
0.0
  9
$DIMEXE
 40
1.0
  9
$DIMTP
 40
1.0
  9
$DIMTM
 40
1.0
  9
$DIMTXT
 40
3.0
  9
$DIMCEN
 40
0.0
  9
$DIMTSZ
 40
0.0
  9
$DIMTOL
 70
     0
  9
$DIMLIM
 70
     0
  9
$DIMTIH
 70
     0
  9
$DIMTOH
 70
     0
  9
$DIMSE1
 70
     0
  9
$DIMSE2
 70
     0
  9
$DIMTAD
 70
     1
  9
$DIMZIN
 70
     8
  9
$DIMBLK
  1

  9
$DIMASO
 70
     1
  9
$DIMSHO
 70
     1
  9
$DIMPOST
  1
(<>)
  9
$DIMAPOST
  1

  9
$DIMALT
 70
     0
  9
$DIMALTD
 70
     2
  9
$DIMALTF
 40
0.039
  9
$DIMLFAC
 40
1.0
  9
$DIMTOFL
 70
     1
  9
$DIMTVP
 40
0.0
  9
$DIMTIX
 70
     0
  9
$DIMSOXD
 70
     0
  9
$DIMSAH
 70
     1
  9
$DIMBLK1
  1
OPEN
  9
$DIMBLK2
  1
OPEN
  9
$DIMSTYLE
  2
IGA
  9
$DIMCLRD
 70
     0
  9
$DIMCLRE
 70
     0
  9
$DIMCLRT
 70
     0
  9
$DIMTFAC
 40
10.0
  9
$DIMGAP
 40
1.0
  9
$DIMJUST
 70
     0
  9
$DIMSD1
 70
     0
  9
$DIMSD2
 70
     0
  9
$DIMTOLJ
 70
     1
  9
$DIMTZIN
 70
     8
  9
$DIMALTZ
 70
     0
  9
$DIMALTTZ
 70
     0
  9
$DIMUPT
 70
     0
  9
$DIMDEC
 70
     0
  9
$DIMTDEC
 70
     0
  9
$DIMALTU
 70
     2
  9
$DIMALTTD
 70
     2
  9
$DIMTXSTY
  7
STANDARD
  9
$DIMAUNIT
 70
     0
  9
$DIMADEC
 70
     0
  9
$DIMALTRND
 40
0.0
  9
$DIMAZIN
 70
     0
  9
$DIMDSEP
 70
    46
  9
$DIMATFIT
 70
     3
  9
$DIMFRAC
 70
     0
  9
$DIMLDRBLK
  1
OPEN
  9
$DIMLUNIT
 70
     2
  9
$DIMLWD
 70
    -2
  9
$DIMLWE
 70
    -2
  9
$DIMTMOVE
 70
     2
  9
$DIMFXL
 40
1.0
  9
$DIMFXLON
 70
     0
  9
$DIMJOGANG
 40
0.7853981633974483
  9
$DIMTFILL
 70
     0
  9
$DIMTFILLCLR
 70
     0
  9
$DIMARCSYM
 70
     0
  9
$DIMLTYPE
  6

  9
$DIMLTEX1
  6

  9
$DIMLTEX2
  6

  9
$DIMTXTDIRECTION
 70
     0
  9
$LUNITS
 70
     2
  9
$LUPREC
 70
     3
  9
$SKETCHINC
 40
0.1
  9
$FILLETRAD
 40
50.0
  9
$AUNITS
 70
     0
  9
$AUPREC
 70
     0
  9
$MENU
  1
acad
  9
$ELEVATION
 40
0.0
  9
$PELEVATION
 40
0.0
  9
$THICKNESS
 40
0.0
  9
$LIMCHECK
 70
     0
  9
$CHAMFERA
 40
0.5
  9
$CHAMFERB
 40
0.5
  9
$CHAMFERC
 40
20.0
  9
$CHAMFERD
 40
0.0
  9
$SKPOLY
 70
     0
  9
$TDCREATE
 40
2451936.464751621
  9
$TDUCREATE
 40
2451936.089751621
  9
$TDUPDATE
 40
2459024.490804919
  9
$TDUUPDATE
 40
2459024.115804919
  9
$TDINDWG
 40
0.0969575926
  9
$TDUSRTIMER
 40
0.0969575926
  9
$USRTIMER
 70
     1
  9
$ANGBASE
 50
0.0
  9
$ANGDIR
 70
     0
  9
$PDMODE
 70
     0
  9
$PDSIZE
 40
0.0
  9
$PLINEWID
 40
0.0
  9
$SPLFRAME
 70
     0
  9
$SPLINETYPE
 70
     6
  9
$SPLINESEGS
 70
     8
  9
$HANDSEED
  5
854D
  9
$SURFTAB1
 70
     6
  9
$SURFTAB2
 70
     6
  9
$SURFTYPE
 70
     6
  9
$SURFU
 70
     6
  9
$SURFV
 70
     6
  9
$UCSBASE
  2

  9
$UCSNAME
  2

  9
$UCSORG
 10
0.0
 20
0.0
 30
0.0
  9
$UCSXDIR
 10
1.0
 20
0.0
 30
0.0
  9
$UCSYDIR
 10
0.0
 20
1.0
 30
0.0
  9
$UCSORTHOREF
  2

  9
$UCSORTHOVIEW
 70
     0
  9
$UCSORGTOP
 10
0.0
 20
0.0
 30
0.0
  9
$UCSORGBOTTOM
 10
0.0
 20
0.0
 30
0.0
  9
$UCSORGLEFT
 10
0.0
 20
0.0
 30
0.0
  9
$UCSORGRIGHT
 10
0.0
 20
0.0
 30
0.0
  9
$UCSORGFRONT
 10
0.0
 20
0.0
 30
0.0
  9
$UCSORGBACK
 10
0.0
 20
0.0
 30
0.0
  9
$PUCSBASE
  2

  9
$PUCSNAME
  2

  9
$PUCSORG
 10
0.0
 20
0.0
 30
0.0
  9
$PUCSXDIR
 10
1.0
 20
0.0
 30
0.0
  9
$PUCSYDIR
 10
0.0
 20
1.0
 30
0.0
  9
$PUCSORTHOREF
  2

  9
$PUCSORTHOVIEW
 70
     0
  9
$PUCSORGTOP
 10
0.0
 20
0.0
 30
0.0
  9
$PUCSORGBOTTOM
 10
0.0
 20
0.0
 30
0.0
  9
$PUCSORGLEFT
 10
0.0
 20
0.0
 30
0.0
  9
$PUCSORGRIGHT
 10
0.0
 20
0.0
 30
0.0
  9
$PUCSORGFRONT
 10
0.0
 20
0.0
 30
0.0
  9
$PUCSORGBACK
 10
0.0
 20
0.0
 30
0.0
  9
$USERI1
 70
     0
  9
$USERI2
 70
     0
  9
$USERI3
 70
     0
  9
$USERI4
 70
     0
  9
$USERI5
 70
     0
  9
$USERR1
 40
0.0
  9
$USERR2
 40
0.0
  9
$USERR3
 40
0.0
  9
$USERR4
 40
0.0
  9
$USERR5
 40
0.0
  9
$WORLDVIEW
 70
     1
  9
$SHADEDGE
 70
     3
  9
$SHADEDIF
 70
    70
  9
$TILEMODE
 70
     1
  9
$MAXACTVP
 70
    16
  9
$PINSBASE
 10
0.0
 20
0.0
 30
0.0
  9
$PLIMCHECK
 70
     0
  9
$PEXTMIN
 10
1.000000000000000E+20
 20
1.000000000000000E+20
 30
1.000000000000000E+20
  9
$PEXTMAX
 10
-1.000000000000000E+20
 20
-1.000000000000000E+20
 30
-1.000000000000000E+20
  9
$PLIMMIN
 10
0.0
 20
0.0
  9
$PLIMMAX
 10
12.0
 20
9.0
  9
$UNITMODE
 70
     0
  9
$VISRETAIN
 70
     0
  9
$PLINEGEN
 70
     0
  9
$PSLTSCALE
 70
     1
  9
$TREEDEPTH
 70
  3020
  9
$CMLSTYLE
  2
STANDARD
  9
$CMLJUST
 70
     0
  9
$CMLSCALE
 40
20.0
  9
$PROXYGRAPHICS
 70
     1
  9
$MEASUREMENT
 70
     1
  9
$CELWEIGHT
370
    -1
  9
$ENDCAPS
280
     0
  9
$JOINSTYLE
280
     0
  9
$LWDISPLAY
290
     0
  9
$INSUNITS
 70
     0
  9
$HYPERLINKBASE
  1

  9
$STYLESHEET
  1

  9
$XEDIT
290
     1
  9
$CEPSNTYPE
380
     0
  9
$PSTYLEMODE
290
     1
  9
$FINGERPRINTGUID
  2
{01C062F0-9C35-4590-B31A-D54365FC1146}
  9
$VERSIONGUID
  2
{5D3508A9-C3E7-42C3-889F-55BFC3A9F0CF}
  9
$EXTNAMES
290
     1
  9
$PSVPSCALE
 40
0.0
  9
$OLESTARTUP
290
     0
  9
$SORTENTS
280
   127
  9
$INDEXCTL
280
     0
  9
$HIDETEXT
280
     0
  9
$XCLIPFRAME
280
     2
  9
$HALOGAP
280
     0
  9
$OBSCOLOR
 70
   257
  9
$OBSLTYPE
280
     0
  9
$INTERSECTIONDISPLAY
280
     0
  9
$INTERSECTIONCOLOR
 70
   257
  9
$DIMASSOC
280
     1
  9
$PROJECTNAME
  1

  9
$CAMERADISPLAY
290
     0
  9
$LENSLENGTH
 40
50.0
  9
$CAMERAHEIGHT
 40
0.0
  9
$STEPSPERSEC
 40
2.0
  9
$STEPSIZE
 40
6.0
  9
$3DDWFPREC
 40
2.0
  9
$PSOLWIDTH
 40
0.25
  9
$PSOLHEIGHT
 40
4.0
  9
$LOFTANG1
 40
1.570796326794896
  9
$LOFTANG2
 40
1.570796326794896
  9
$LOFTMAG1
 40
0.0
  9
$LOFTMAG2
 40
0.0
  9
$LOFTPARAM
 70
     7
  9
$LOFTNORMALS
280
     1
  9
$LATITUDE
 40
37.795
  9
$LONGITUDE
 40
-122.394
  9
$NORTHDIRECTION
 40
0.0
  9
$TIMEZONE
 70
 -8000
  9
$LIGHTGLYPHDISPLAY
280
     1
  9
$TILEMODELIGHTSYNCH
280
     1
  9
$CMATERIAL
347
8446
  9
$SOLIDHIST
280
     0
  9
$SHOWHIST
280
     1
  9
$DWFFRAME
280
     2
  9
$DGNFRAME
280
     0
  9
$REALWORLDSCALE
290
     1
  9
$INTERFERECOLOR
 62
     1
  9
$INTERFEREOBJVS
345
8468
  9
$INTERFEREVPVS
346
8465
  9
$CSHADOW
280
     0
  9
$SHADOWPLANELOCATION
 40
0.0
  0
ENDSEC
  0
SECTION
  2
CLASSES
  0
CLASS
  1
ACDBDICTIONARYWDFLT
  2
AcDbDictionaryWithDefault
  3
ObjectDBX Classes
 90
        0
 91
        1
280
     0
281
     0
  0
CLASS
  1
MATERIAL
  2
AcDbMaterial
  3
ObjectDBX Classes
 90
     1153
 91
        3
280
     0
281
     0
  0
CLASS
  1
VISUALSTYLE
  2
AcDbVisualStyle
  3
ObjectDBX Classes
 90
     4095
 91
       24
280
     0
281
     0
  0
CLASS
  1
TABLESTYLE
  2
AcDbTableStyle
  3
ObjectDBX Classes
 90
     4095
 91
        1
280
     0
281
     0
  0
CLASS
  1
SCALE
  2
AcDbScale
  3
ObjectDBX Classes
 90
     1153
 91
       17
280
     0
281
     0
  0
CLASS
  1
MLEADERSTYLE
  2
AcDbMLeaderStyle
  3
ACDB_MLEADERSTYLE_CLASS
 90
     4095
 91
        1
280
     0
281
     0
  0
CLASS
  1
ACDBSECTIONVIEWSTYLE
  2
AcDbSectionViewStyle
  3
ObjectDBX Classes
 90
     1025
 91
        1
280
     0
281
     0
  0
CLASS
  1
ACDBDETAILVIEWSTYLE
  2
AcDbDetailViewStyle
  3
ObjectDBX Classes
 90
     1025
 91
        1
280
     0
281
     0
  0
CLASS
  1
DICTIONARYVAR
  2
AcDbDictionaryVar
  3
ObjectDBX Classes
 90
        0
 91
        9
280
     0
281
     0
  0
CLASS
  1
SORTENTSTABLE
  2
AcDbSortentsTable
  3
ObjectDBX Classes
 90
        0
 91
        1
280
     0
281
     0
  0
CLASS
  1
CELLSTYLEMAP
  2
AcDbCellStyleMap
  3
ObjectDBX Classes
 90
     1152
 91
        1
280
     0
281
     0
  0
ENDSEC
  0
SECTION
  2
TABLES
  0
TABLE
  2
VPORT
  5
8
330
0
100
AcDbSymbolTable
 70
     1
  0
VPORT
  5
8443
330
8
100
AcDbSymbolTableRecord
100
AcDbViewportTableRecord
  2
*Active
 70
     0
 10
0.0
 20
0.0
 11
1.0
 21
1.0
 12
1575.000022003839
 22
2318.432906054561
 13
0.0
 23
0.0
 14
10.0
 24
10.0
 15
10.0
 25
10.0
 16
0.0
 26
0.0
 36
1.0
 17
0.0
 27
0.0
 37
0.0
 40
4665.336734169487
 41
1.957107843137254
 42
50.0
 43
0.0
 44
0.0
 50
0.0
 51
0.0
 71
     0
 72
   100
 73
     1
 74
     0
 75
     0
 76
     0
 77
     0
 78
     0
281
     0
 65
     1
110
0.0
120
0.0
130
0.0
111
1.0
121
0.0
131
0.0
112
0.0
122
1.0
132
0.0
 79
     0
146
0.0
348
8464
 60
     3
 61
     5
292
     1
282
     1
141
0.0
142
0.0
 63
   250
421
  3355443
1001
ACAD_NAV_VCDISPLAY
1070
     3
  0
ENDTAB
  0
TABLE
  2
LTYPE
  5
5
330
0
100
AcDbSymbolTable
 70
     2
  0
LTYPE
  5
13
330
5
100
AcDbSymbolTableRecord
100
AcDbLinetypeTableRecord
  2
BYBLOCK
 70
     0
  3

 72
    65
 73
     0
 40
0.0
  0
LTYPE
  5
14
330
5
100
AcDbSymbolTableRecord
100
AcDbLinetypeTableRecord
  2
BYLAYER
 70
     0
  3

 72
    65
 73
     0
 40
0.0
  0
LTYPE
  5
15
330
5
100
AcDbSymbolTableRecord
100
AcDbLinetypeTableRecord
  2
CONTINUOUS
 70
     0
  3
Solid line
 72
    65
 73
     0
 40
0.0
  0
LTYPE
  5
1F
330
5
100
AcDbSymbolTableRecord
100
AcDbLinetypeTableRecord
  2
CENTER
 70
     0
  3
____ _ ____ _ ____ _ ____ _ ____ _ ____ _ ____ 
 72
    65
 73
     4
 40
2.0
 49
1.25
 74
     0
 49
-0.25
 74
     0
 49
0.25
 74
     0
 49
-0.25
 74
     0
  0
ENDTAB
  0
TABLE
  2
LAYER
  5
2
102
{ACAD_XDICTIONARY
360
84AD
102
}
330
0
100
AcDbSymbolTable
 70
     6
  0
LAYER
  5
F
102
{ACAD_XDICTIONARY
360
84A0
102
}
330
2
100
AcDbSymbolTableRecord
100
AcDbLayerTableRecord
  2
0
 70
     0
 62
     7
  6
CONTINUOUS
370
    -3
390
8436
347
8456
348
0
  0
LAYER
  5
31
102
{ACAD_XDICTIONARY
360
84A2
102
}
330
2
100
AcDbSymbolTableRecord
100
AcDbLayerTableRecord
  2
3
 70
     0
 62
     2
  6
CONTINUOUS
370
    -3
390
8436
347
8456
348
0
  0
LAYER
  5
76D0
102
{ACAD_XDICTIONARY
360
84A4
102
}
330
2
100
AcDbSymbolTableRecord
100
AcDbLayerTableRecord
  2
2
 70
     0
 62
     3
  6
CENTER
370
    -3
390
8436
347
8456
348
0
  0
LAYER
  5
76D1
102
{ACAD_XDICTIONARY
360
84A6
102
}
330
2
100
AcDbSymbolTableRecord
100
AcDbLayerTableRecord
  2
1
 70
     0
 62
     4
  6
CONTINUOUS
370
    -3
390
8436
347
8456
348
0
  0
LAYER
  5
76D2
102
{ACAD_XDICTIONARY
360
84A8
102
}
330
2
100
AcDbSymbolTableRecord
100
AcDbLayerTableRecord
  2
4
 70
     0
 62
     7
  6
CONTINUOUS
370
    -3
390
8436
347
8456
348
0
  0
LAYER
  5
7AFC
330
2
100
AcDbSymbolTableRecord
100
AcDbLayerTableRecord
  2
DEFPOINTS
 70
     0
 62
     7
  6
CONTINUOUS
290
     0
370
    -3
390
8436
347
8456
348
0
  0
ENDTAB
  0
TABLE
  2
STYLE
  5
3
330
0
100
AcDbSymbolTable
 70
     1
  0
STYLE
  5
10
330
3
100
AcDbSymbolTableRecord
100
AcDbTextStyleTableRecord
  2
STANDARD
 70
     0
 40
0.0
 41
1.0
 50
0.0
 71
     0
 42
180.0
  3
simplex.shx
  4
extfont.shx
  0
ENDTAB
  0
TABLE
  2
VIEW
  5
6
330
0
100
AcDbSymbolTable
 70
     0
  0
ENDTAB
  0
TABLE
  2
UCS
  5
7
330
0
100
AcDbSymbolTable
 70
     0
  0
ENDTAB
  0
TABLE
  2
APPID
  5
9
330
0
100
AcDbSymbolTable
 70
     4
  0
APPID
  5
11
330
9
100
AcDbSymbolTableRecord
100
AcDbRegAppTableRecord
  2
ACAD
 70
     0
  0
APPID
  5
84B3
330
9
100
AcDbSymbolTableRecord
100
AcDbRegAppTableRecord
  2
ACAD_NAV_VCDISPLAY
 70
     0
  0
APPID
  5
8525
330
9
100
AcDbSymbolTableRecord
100
AcDbRegAppTableRecord
  2
AcadAnnoMonitorAlertIconDisabled
 70
     0
  0
APPID
  5
8526
330
9
100
AcDbSymbolTableRecord
100
AcDbRegAppTableRecord
  2
ACAD_EXEMPT_FROM_CAD_STANDARDS
 70
     0
  0
ENDTAB
  0
TABLE
  2
DIMSTYLE
  5
A
330
0
100
AcDbSymbolTable
 70
     1
100
AcDbDimStyleTable
 71
     1
340
1D
  0
DIMSTYLE
105
1D
102
{ACAD_REACTORS
330
7C5B
330
7CB9
330
7CDB
330
7CDC
330
7CDD
330
7CE0
330
7CE1
330
7CE2
330
7CE3
330
7CE4
330
8265
330
8355
330
83A3
330
83B2
330
83BF
330
83CE
330
83F8
330
8425
330
8432
102
}
330
A
100
AcDbSymbolTableRecord
100
AcDbDimStyleTableRecord
  2
IGA
 70
     0
 40
2.0
 41
2.0
 42
0.5
 43
10.0
 44
1.0
 47
1.0
 48
1.0
 73
     0
 74
     0
 77
     1
 78
     8
140
3.0
141
0.0
143
0.03937
146
10.0
147
1.0
173
     1
271
     1
272
     0
279
     2
284
     8
340
10
341
79FC
343
79FC
344
79FC
  0
ENDTAB
  0
TABLE
  2
BLOCK_RECORD
  5
1
330
0
100
AcDbSymbolTable
 70
    21
  0
BLOCK_RECORD
  5
19
102
{ACAD_XDICTIONARY
360
84C4
102
}
330
1
100
AcDbSymbolTableRecord
100
AcDbBlockTableRecord
  2
*MODEL_SPACE
340
8439
 70
     0
280
     1
281
     0
  0
BLOCK_RECORD
  5
16
330
1
100
AcDbSymbolTableRecord
100
AcDbBlockTableRecord
  2
*PAPER_SPACE
340
843A
 70
     0
280
     1
281
     0
  0
BLOCK_RECORD
  5
79FC
330
1
100
AcDbSymbolTableRecord
100
AcDbBlockTableRecord
  2
_OPEN
340
0
102
{BLKREFS
331
82A4
331
82A5
331
831D
331
831E
331
834E
331
834F
331
8039
331
803A
331
8044
331
8045
331
8095
331
8096
331
80A0
331
80A1
331
8151
331
8152
331
815C
331
815D
331
8207
331
8208
331
828E
331
828F
331
84C9
331
84CA
331
84D2
331
84D3
331
84DB
331
84DC
331
84E6
331
84E7
331
84F2
331
84FE
331
8505
331
8506
331
8534
331
8535
102
}
 70
     0
280
     1
281
     0
  0
BLOCK_RECORD
  5
7AAA
330
1
100
AcDbSymbolTableRecord
100
AcDbBlockTableRecord
  2
_DOT
340
0
102
{BLKREFS
331
84F1
331
84FD
102
}
 70
     0
280
     1
281
     0
  0
BLOCK_RECORD
  5
7D3E
330
1
100
AcDbSymbolTableRecord
100
AcDbBlockTableRecord
  2
*D2
340
0
 70
     0
280
     1
281
     0
  0
BLOCK_RECORD
  5
7D9C
330
1
100
AcDbSymbolTableRecord
100
AcDbBlockTableRecord
  2
*D3
340
0
 70
     0
280
     1
281
     0
  0
BLOCK_RECORD
  5
7DA8
330
1
100
AcDbSymbolTableRecord
100
AcDbBlockTableRecord
  2
*D4
340
0
 70
     0
280
     1
281
     0
  0
BLOCK_RECORD
  5
7DB4
330
1
100
AcDbSymbolTableRecord
100
AcDbBlockTableRecord
  2
*D5
340
0
 70
     0
280
     1
281
     0
  0
BLOCK_RECORD
  5
7DC0
330
1
100
AcDbSymbolTableRecord
100
AcDbBlockTableRecord
  2
*D6
340
0
 70
     0
280
     1
281
     0
  0
BLOCK_RECORD
  5
7DE6
330
1
100
AcDbSymbolTableRecord
100
AcDbBlockTableRecord
  2
*D7
340
0
 70
     0
280
     1
281
     0
  0
BLOCK_RECORD
  5
7DF2
330
1
100
AcDbSymbolTableRecord
100
AcDbBlockTableRecord
  2
*D8
340
0
 70
     0
280
     1
281
     0
  0
BLOCK_RECORD
  5
7DFD
330
1
100
AcDbSymbolTableRecord
100
AcDbBlockTableRecord
  2
*D9
340
0
 70
     0
280
     1
281
     0
  0
BLOCK_RECORD
  5
7E09
330
1
100
AcDbSymbolTableRecord
100
AcDbBlockTableRecord
  2
*D10
340
0
 70
     0
280
     1
281
     0
  0
BLOCK_RECORD
  5
7E14
330
1
100
AcDbSymbolTableRecord
100
AcDbBlockTableRecord
  2
*D11
340
0
 70
     0
280
     1
281
     0
  0
BLOCK_RECORD
  5
8259
330
1
100
AcDbSymbolTableRecord
100
AcDbBlockTableRecord
  2
*D12
340
0
 70
     0
280
     1
281
     0
  0
BLOCK_RECORD
  5
8349
330
1
100
AcDbSymbolTableRecord
100
AcDbBlockTableRecord
  2
*D13
340
0
 70
     0
280
     1
281
     0
  0
BLOCK_RECORD
  5
8397
330
1
100
AcDbSymbolTableRecord
100
AcDbBlockTableRecord
  2
*D14
340
0
 70
     0
280
     1
281
     0
  0
BLOCK_RECORD
  5
83A4
330
1
100
AcDbSymbolTableRecord
100
AcDbBlockTableRecord
  2
*D15
340
0
 70
     0
280
     1
281
     0
  0
BLOCK_RECORD
  5
83B3
330
1
100
AcDbSymbolTableRecord
100
AcDbBlockTableRecord
  2
*D16
340
0
 70
     0
280
     1
281
     0
  0
BLOCK_RECORD
  5
83C0
330
1
100
AcDbSymbolTableRecord
100
AcDbBlockTableRecord
  2
*D17
340
0
 70
     0
280
     1
281
     0
  0
BLOCK_RECORD
  5
83EA
330
1
100
AcDbSymbolTableRecord
100
AcDbBlockTableRecord
  2
*D18
340
0
 70
     0
280
     1
281
     0
  0
BLOCK_RECORD
  5
8417
330
1
100
AcDbSymbolTableRecord
100
AcDbBlockTableRecord
  2
*D19
340
0
 70
     0
280
     1
281
     0
  0
BLOCK_RECORD
  5
8426
330
1
100
AcDbSymbolTableRecord
100
AcDbBlockTableRecord
  2
*D20
340
0
 70
     0
280
     1
281
     0
  0
ENDTAB
  0
ENDSEC
  0
SECTION
  2
BLOCKS
  0
BLOCK
  5
1A
330
19
100
AcDbEntity
  8
0
100
AcDbBlockBegin
  2
*MODEL_SPACE
 70
     0
 10
0.0
 20
0.0
 30
0.0
  3
*MODEL_SPACE
  1

  0
ENDBLK
  5
1B
330
19
100
AcDbEntity
  8
0
100
AcDbBlockEnd
  0
BLOCK
  5
17
330
16
100
AcDbEntity
 67
     1
  8
0
100
AcDbBlockBegin
  2
*PAPER_SPACE
 70
     0
 10
0.0
 20
0.0
 30
0.0
  3
*PAPER_SPACE
  1

  0
ENDBLK
  5
18
330
16
100
AcDbEntity
 67
     1
  8
0
100
AcDbBlockEnd
  0
BLOCK
  5
7A00
330
79FC
100
AcDbEntity
  8
0
100
AcDbBlockBegin
  2
_OPEN
 70
     0
 10
0.0
 20
0.0
 30
0.0
  3
_OPEN
  1

  0
LINE
  5
79FD
330
79FC
100
AcDbEntity
  8
0
  6
ByBlock
 62
     0
100
AcDbLine
 10
-1.0
 20
0.1666666666666666
 30
0.0
 11
0.0
 21
0.0
 31
0.0
  0
LINE
  5
79FE
330
79FC
100
AcDbEntity
  8
0
  6
ByBlock
 62
     0
100
AcDbLine
 10
0.0
 20
0.0
 30
0.0
 11
-1.0
 21
-0.1666666666666666
 31
0.0
  0
LINE
  5
79FF
330
79FC
100
AcDbEntity
  8
0
  6
ByBlock
 62
     0
100
AcDbLine
 10
0.0
 20
0.0
 30
0.0
 11
-1.0
 21
0.0
 31
0.0
  0
ENDBLK
  5
7A01
330
79FC
100
AcDbEntity
  8
0
100
AcDbBlockEnd
  0
BLOCK
  5
7AB0
330
7AAA
100
AcDbEntity
  8
0
100
AcDbBlockBegin
  2
_DOT
 70
     0
 10
0.0
 20
0.0
 30
0.0
  3
_DOT
  1

  0
LINE
  5
8254
330
7AAA
100
AcDbEntity
  8
0
  6
ByBlock
 62
     0
100
AcDbLine
 10
0.0
 20
0.0
 30
0.0
 11
-1.0
 21
-0.0000000000000284
 31
0.0
  0
LWPOLYLINE
  5
8255
330
7AAA
100
AcDbEntity
  8
0
  6
ByBlock
 62
     0
100
AcDbPolyline
 90
        2
 70
     1
 43
0.1666666666666666
 10
-0.0833333333333286
 20
-0.0000000000000284
 42
1.0
 10
0.0833333333333286
 20
-0.0000000000000284
 42
1.0
  0
ENDBLK
  5
7AB1
330
7AAA
100
AcDbEntity
  8
0
100
AcDbBlockEnd
  0
BLOCK
  5
8202
330
7D3E
100
AcDbEntity
  8
0
100
AcDbBlockBegin
  2
*D2
 70
     1
 10
0.0
 20
0.0
 30
0.0
  3
*D2
  1

  0
LINE
  5
8203
330
7D3E
100
AcDbEntity
  8
0
  6
ByBlock
 62
     0
440
 16777216
100
AcDbLine
 10
2542.32640243322
 20
1763.264450133167
 30
0.0
 11
2542.32640243322
 21
1836.45548400703
 31
0.0
  0
LINE
  5
8204
330
7D3E
100
AcDbEntity
  8
0
  6
ByBlock
 62
     0
440
 16777216
100
AcDbLine
 10
2722.32640243322
 20
1763.264450133167
 30
0.0
 11
2722.32640243322
 21
1836.45548400703
 31
0.0
  0
LINE
  5
8205
330
7D3E
100
AcDbEntity
  8
0
  6
ByBlock
 62
     0
440
 16777216
100
AcDbLine
 10
2572.326402433219
 20
1821.45548400703
 30
0.0
 11
2692.32640243322
 21
1821.45548400703
 31
0.0
  0
MTEXT
  5
8206
330
7D3E
100
AcDbEntity
  8
0
  6
ByBlock
 62
     0
440
 16777216
100
AcDbMText
 10
2632.32640243322
 20
1855.206742963244
 30
0.0
 40
45.0
 41
0.0
 46
0.0
 71
     5
 72
     5
  1
\A1;180
 73
     1
 44
1.0
  0
INSERT
  5
8207
330
7D3E
100
AcDbEntity
  8
0
  6
ByBlock
 62
     0
440
 16777216
100
AcDbBlockReference
  2
_OPEN
 10
2542.32640243322
 20
1821.45548400703
 30
0.0
 41
30.0
 42
30.0
 43
30.0
 50
180.0
  0
INSERT
  5
8208
330
7D3E
100
AcDbEntity
  8
0
  6
ByBlock
 62
     0
440
 16777216
100
AcDbBlockReference
  2
_OPEN
 10
2722.32640243322
 20
1821.45548400703
 30
0.0
 41
30.0
 42
30.0
 43
30.0
  0
POINT
  5
8209
330
7D3E
100
AcDbEntity
  8
DEFPOINTS
  6
ByBlock
 62
     0
440
 16777216
100
AcDbPoint
 10
2542.32640243322
 20
1755.764450133167
 30
0.0
  0
POINT
  5
820A
330
7D3E
100
AcDbEntity
  8
DEFPOINTS
  6
ByBlock
 62
     0
440
 16777216
100
AcDbPoint
 10
2722.32640243322
 20
1755.764450133167
 30
0.0
  0
POINT
  5
820B
330
7D3E
100
AcDbEntity
  8
DEFPOINTS
  6
ByBlock
 62
     0
440
 16777216
100
AcDbPoint
 10
2722.32640243322
 20
1821.45548400703
 30
0.0
  0
ENDBLK
  5
820C
330
7D3E
100
AcDbEntity
  8
0
100
AcDbBlockEnd
  0
BLOCK
  5
8319
330
7D9C
100
AcDbEntity
  8
0
100
AcDbBlockBegin
  2
*D3
 70
     1
 10
0.0
 20
0.0
 30
0.0
  3
*D3
  1

  0
LINE
  5
831A
330
7D9C
100
AcDbEntity
  8
0
  6
ByBlock
 62
     0
440
 16777216
100
AcDbLine
 10
632.8514437920416
 20
2523.66430366744
 30
0.0
 11
632.8514437920416
 21
2343.6090543795
 31
0.0
  0
LINE
  5
831B
330
7D9C
100
AcDbEntity
  8
0
  6
ByBlock
 62
     0
440
 16777216
100
AcDbLine
 10
1332.851443792041
 20
2523.66430366744
 30
0.0
 11
1332.851443792041
 21
2343.6090543795
 31
0.0
  0
LINE
  5
831C
330
7D9C
100
AcDbEntity
  8
0
  6
ByBlock
 62
     0
440
 16777216
100
AcDbLine
 10
662.8514437920416
 20
2358.6090543795
 30
0.0
 11
1302.851443792041
 21
2358.6090543795
 31
0.0
  0
INSERT
  5
831D
330
7D9C
100
AcDbEntity
  8
0
  6
ByBlock
 62
     0
440
 16777216
100
AcDbBlockReference
  2
_OPEN
 10
632.8514437920416
 20
2358.6090543795
 30
0.0
 41
30.0
 42
30.0
 43
30.0
 50
180.0
  0
INSERT
  5
831E
330
7D9C
100
AcDbEntity
  8
0
  6
ByBlock
 62
     0
440
 16777216
100
AcDbBlockReference
  2
_OPEN
 10
1332.851443792041
 20
2358.6090543795
 30
0.0
 41
30.0
 42
30.0
 43
30.0
  0
MTEXT
  5
831F
330
7D9C
100
AcDbEntity
  8
0
  6
ByBlock
 62
     0
440
 16777216
100
AcDbMText
 10
982.8514437920414
 20
2396.1090543795
 30
0.0
 40
45.0
 41
0.0
 46
0.0
 71
     5
 72
     5
  1
\A1;700
 73
     1
 44
1.0
  0
POINT
  5
8320
330
7D9C
100
AcDbEntity
  8
DEFPOINTS
  6
ByBlock
 62
     0
440
 16777216
100
AcDbPoint
 10
632.8514437920416
 20
2531.16430366744
 30
0.0
  0
POINT
  5
8321
330
7D9C
100
AcDbEntity
  8
DEFPOINTS
  6
ByBlock
 62
     0
440
 16777216
100
AcDbPoint
 10
1332.851443792041
 20
2531.16430366744
 30
0.0
  0
POINT
  5
8322
330
7D9C
100
AcDbEntity
  8
DEFPOINTS
  6
ByBlock
 62
     0
440
 16777216
100
AcDbPoint
 10
1332.851443792041
 20
2358.6090543795
 30
0.0
  0
ENDBLK
  5
8323
330
7D9C
100
AcDbEntity
  8
0
100
AcDbBlockEnd
  0
BLOCK
  5
8040
330
7DA8
100
AcDbEntity
  8
0
100
AcDbBlockBegin
  2
*D4
 70
     1
 10
0.0
 20
0.0
 30
0.0
  3
*D4
  1

  0
LINE
  5
8041
330
7DA8
100
AcDbEntity
  8
0
  6
ByBlock
 62
     0
440
 16777216
100
AcDbLine
 10
1340.351443792041
 20
1755.787525032625
 30
0.0
 11
1481.141205869202
 21
1755.787525032625
 31
0.0
  0
LINE
  5
8042
330
7DA8
100
AcDbEntity
  8
0
  6
ByBlock
 62
     0
440
 16777216
100
AcDbLine
 10
1340.351443792041
 20
1515.787525032625
 30
0.0
 11
1481.141205869202
 21
1515.787525032625
 31
0.0
  0
LINE
  5
8043
330
7DA8
100
AcDbEntity
  8
0
  6
ByBlock
 62
     0
440
 16777216
100
AcDbLine
 10
1466.141205869202
 20
1725.787525032625
 30
0.0
 11
1466.141205869202
 21
1545.787525032625
 31
0.0
  0
INSERT
  5
8044
330
7DA8
100
AcDbEntity
  8
0
  6
ByBlock
 62
     0
440
 16777216
100
AcDbBlockReference
  2
_OPEN
 10
1466.141205869202
 20
1755.787525032625
 30
0.0
 41
30.0
 42
30.0
 43
30.0
 50
90.0
  0
INSERT
  5
8045
330
7DA8
100
AcDbEntity
  8
0
  6
ByBlock
 62
     0
440
 16777216
100
AcDbBlockReference
  2
_OPEN
 10
1466.141205869202
 20
1515.787525032625
 30
0.0
 41
30.0
 42
30.0
 43
30.0
 50
270.0
  0
MTEXT
  5
8046
330
7DA8
100
AcDbEntity
  8
0
  6
ByBlock
 62
     0
440
 16777216
100
AcDbMText
 10
1428.641205869202
 20
1635.787525032625
 30
0.0
 40
45.0
 41
0.0
 46
0.0
 71
     5
 72
     5
  1
\A1;240
 11
0.0
 21
1.0
 31
0.0
 73
     1
 44
1.0
  0
POINT
  5
8047
330
7DA8
100
AcDbEntity
  8
DEFPOINTS
  6
ByBlock
 62
     0
440
 16777216
100
AcDbPoint
 10
1332.851443792041
 20
1755.787525032625
 30
0.0
  0
POINT
  5
8048
330
7DA8
100
AcDbEntity
  8
DEFPOINTS
  6
ByBlock
 62
     0
440
 16777216
100
AcDbPoint
 10
1332.851443792041
 20
1515.787525032625
 30
0.0
  0
POINT
  5
8049
330
7DA8
100
AcDbEntity
  8
DEFPOINTS
  6
ByBlock
 62
     0
440
 16777216
100
AcDbPoint
 10
1466.141205869202
 20
1515.787525032625
 30
0.0
  0
ENDBLK
  5
804A
330
7DA8
100
AcDbEntity
  8
0
100
AcDbBlockEnd
  0
BLOCK
  5
8091
330
7DB4
100
AcDbEntity
  8
0
100
AcDbBlockBegin
  2
*D5
 70
     1
 10
0.0
 20
0.0
 30
0.0
  3
*D5
  1

  0
LINE
  5
8092
330
7DB4
100
AcDbEntity
  8
0
  6
ByBlock
 62
     0
440
 16777216
100
AcDbLine
 10
1340.351443792041
 20
1755.787525032625
 30
0.0
 11
1576.95417925734
 21
1755.787525032625
 31
0.0
  0
LINE
  5
8093
330
7DB4
100
AcDbEntity
  8
0
  6
ByBlock
 62
     0
440
 16777216
100
AcDbLine
 10
1390.994423867261
 20
1517.787525032625
 30
0.0
 11
1576.95417925734
 21
1517.787525032625
 31
0.0
  0
LINE
  5
8094
330
7DB4
100
AcDbEntity
  8
0
  6
ByBlock
 62
     0
440
 16777216
100
AcDbLine
 10
1561.95417925734
 20
1725.787525032625
 30
0.0
 11
1561.95417925734
 21
1547.787525032625
 31
0.0
  0
INSERT
  5
8095
330
7DB4
100
AcDbEntity
  8
0
  6
ByBlock
 62
     0
440
 16777216
100
AcDbBlockReference
  2
_OPEN
 10
1561.95417925734
 20
1755.787525032625
 30
0.0
 41
30.0
 42
30.0
 43
30.0
 50
90.0
  0
INSERT
  5
8096
330
7DB4
100
AcDbEntity
  8
0
  6
ByBlock
 62
     0
440
 16777216
100
AcDbBlockReference
  2
_OPEN
 10
1561.95417925734
 20
1517.787525032625
 30
0.0
 41
30.0
 42
30.0
 43
30.0
 50
270.0
  0
MTEXT
  5
8097
330
7DB4
100
AcDbEntity
  8
0
  6
ByBlock
 62
     0
440
 16777216
100
AcDbMText
 10
1524.45417925734
 20
1636.787525032625
 30
0.0
 40
45.0
 41
0.0
 46
0.0
 71
     5
 72
     5
  1
\A1;238
 11
0.0
 21
1.0
 31
0.0
 73
     1
 44
1.0
  0
POINT
  5
8098
330
7DB4
100
AcDbEntity
  8
DEFPOINTS
  6
ByBlock
 62
     0
440
 16777216
100
AcDbPoint
 10
1332.851443792041
 20
1755.787525032625
 30
0.0
  0
POINT
  5
8099
330
7DB4
100
AcDbEntity
  8
DEFPOINTS
  6
ByBlock
 62
     0
440
 16777216
100
AcDbPoint
 10
1383.494423867261
 20
1517.787525032625
 30
0.0
  0
POINT
  5
809A
330
7DB4
100
AcDbEntity
  8
DEFPOINTS
  6
ByBlock
 62
     0
440
 16777216
100
AcDbPoint
 10
1561.95417925734
 20
1517.787525032625
 30
0.0
  0
ENDBLK
  5
809B
330
7DB4
100
AcDbEntity
  8
0
100
AcDbBlockEnd
  0
BLOCK
  5
809C
330
7DC0
100
AcDbEntity
  8
0
100
AcDbBlockBegin
  2
*D6
 70
     1
 10
0.0
 20
0.0
 30
0.0
  3
*D6
  1

  0
LINE
  5
809D
330
7DC0
100
AcDbEntity
  8
0
  6
ByBlock
 62
     0
440
 16777216
100
AcDbLine
 10
1390.994423867261
 20
1517.787525032625
 30
0.0
 11
1576.95417925734
 21
1517.787525032625
 31
0.0
  0
LINE
  5
809E
330
7DC0
100
AcDbEntity
  8
0
  6
ByBlock
 62
     0
440
 16777216
100
AcDbLine
 10
1340.351443792041
 20
1197.787525032624
 30
0.0
 11
1576.95417925734
 21
1197.787525032624
 31
0.0
  0
LINE
  5
809F
330
7DC0
100
AcDbEntity
  8
0
  6
ByBlock
 62
     0
440
 16777216
100
AcDbLine
 10
1561.95417925734
 20
1487.787525032625
 30
0.0
 11
1561.95417925734
 21
1227.787525032624
 31
0.0
  0
INSERT
  5
80A0
330
7DC0
100
AcDbEntity
  8
0
  6
ByBlock
 62
     0
440
 16777216
100
AcDbBlockReference
  2
_OPEN
 10
1561.95417925734
 20
1517.787525032625
 30
0.0
 41
30.0
 42
30.0
 43
30.0
 50
90.0
  0
INSERT
  5
80A1
330
7DC0
100
AcDbEntity
  8
0
  6
ByBlock
 62
     0
440
 16777216
100
AcDbBlockReference
  2
_OPEN
 10
1561.95417925734
 20
1197.787525032624
 30
0.0
 41
30.0
 42
30.0
 43
30.0
 50
270.0
  0
MTEXT
  5
80A2
330
7DC0
100
AcDbEntity
  8
0
  6
ByBlock
 62
     0
440
 16777216
100
AcDbMText
 10
1524.45417925734
 20
1357.787525032625
 30
0.0
 40
45.0
 41
0.0
 46
0.0
 71
     5
 72
     5
  1
\A1;320
 11
0.0
 21
1.0
 31
0.0
 73
     1
 44
1.0
  0
POINT
  5
80A3
330
7DC0
100
AcDbEntity
  8
DEFPOINTS
  6
ByBlock
 62
     0
440
 16777216
100
AcDbPoint
 10
1383.494423867261
 20
1517.787525032625
 30
0.0
  0
POINT
  5
80A4
330
7DC0
100
AcDbEntity
  8
DEFPOINTS
  6
ByBlock
 62
     0
440
 16777216
100
AcDbPoint
 10
1332.851443792041
 20
1197.787525032624
 30
0.0
  0
POINT
  5
80A5
330
7DC0
100
AcDbEntity
  8
DEFPOINTS
  6
ByBlock
 62
     0
440
 16777216
100
AcDbPoint
 10
1561.95417925734
 20
1197.787525032624
 30
0.0
  0
ENDBLK
  5
80A6
330
7DC0
100
AcDbEntity
  8
0
100
AcDbBlockEnd
  0
BLOCK
  5
829F
330
7DE6
100
AcDbEntity
  8
0
100
AcDbBlockBegin
  2
*D7
 70
     1
 10
0.0
 20
0.0
 30
0.0
  3
*D7
  1

  0
LINE
  5
82A0
330
7DE6
100
AcDbEntity
  8
0
  6
ByBlock
 62
     0
440
 16777216
100
AcDbLine
 10
2725.326402433219
 20
1495.863165962146
 30
0.0
 11
2725.326402433219
 21
1948.439141591771
 31
0.0
  0
LINE
  5
82A1
330
7DE6
100
AcDbEntity
  8
0
  6
ByBlock
 62
     0
440
 16777216
100
AcDbLine
 10
2632.32640243322
 20
1886.617880241438
 30
0.0
 11
2632.32640243322
 21
1948.439141591771
 31
0.0
  0
LINE
  5
82A2
330
7DE6
100
AcDbEntity
  8
0
  6
ByBlock
 62
     0
440
 16777216
100
AcDbLine
 10
2695.326402433219
 20
1933.439141591771
 30
0.0
 11
2662.326402433219
 21
1933.439141591771
 31
0.0
  0
MTEXT
  5
82A3
330
7DE6
100
AcDbEntity
  8
0
  6
ByBlock
 62
     0
440
 16777216
100
AcDbMText
 10
2678.82640243322
 20
1993.439141591771
 30
0.0
 40
45.0
 41
0.0
 46
0.0
 71
     5
 72
     5
  1
\A1;94
 73
     1
 44
1.0
  0
INSERT
  5
82A4
330
7DE6
100
AcDbEntity
  8
0
  6
ByBlock
 62
     0
440
 16777216
100
AcDbBlockReference
  2
_OPEN
 10
2725.326402433219
 20
1933.439141591771
 30
0.0
 41
30.0
 42
30.0
 43
30.0
  0
INSERT
  5
82A5
330
7DE6
100
AcDbEntity
  8
0
  6
ByBlock
 62
     0
440
 16777216
100
AcDbBlockReference
  2
_OPEN
 10
2632.32640243322
 20
1933.439141591771
 30
0.0
 41
30.0
 42
30.0
 43
30.0
 50
180.0
  0
POINT
  5
82A6
330
7DE6
100
AcDbEntity
  8
DEFPOINTS
  6
ByBlock
 62
     0
440
 16777216
100
AcDbPoint
 10
2725.326402433219
 20
1488.363165962146
 30
0.0
  0
POINT
  5
82A7
330
7DE6
100
AcDbEntity
  8
DEFPOINTS
  6
ByBlock
 62
     0
440
 16777216
100
AcDbPoint
 10
2632.32640243322
 20
1879.117880241438
 30
0.0
  0
POINT
  5
82A8
330
7DE6
100
AcDbEntity
  8
DEFPOINTS
  6
ByBlock
 62
     0
440
 16777216
100
AcDbPoint
 10
2632.32640243322
 20
1933.439141591771
 30
0.0
  0
ENDBLK
  5
82A9
330
7DE6
100
AcDbEntity
  8
0
100
AcDbBlockEnd
  0
BLOCK
  5
8294
330
7DF2
100
AcDbEntity
  8
0
100
AcDbBlockBegin
  2
*D8
 70
     1
 10
0.0
 20
0.0
 30
0.0
  3
*D8
  1

  0
LINE
  5
8531
330
7DF2
100
AcDbEntity
  8
3
 62
     0
440
 16777216
370
    -2
100
AcDbLine
 10
2632.32640243322
 20
1886.617880241438
 30
0.0
 11
2632.32640243322
 21
1948.439141591771
 31
0.0
  0
LINE
  5
8532
330
7DF2
100
AcDbEntity
  8
3
 62
     0
440
 16777216
370
    -2
100
AcDbLine
 10
2104.565337245313
 20
1617.833155336412
 30
0.0
 11
2104.565337245313
 21
1948.439141591771
 31
0.0
  0
LINE
  5
8533
330
7DF2
100
AcDbEntity
  8
3
 62
     0
440
 16777216
370
    -2
100
AcDbLine
 10
2602.326402433219
 20
1933.439141591771
 30
0.0
 11
2134.565337245314
 21
1933.439141591771
 31
0.0
  0
INSERT
  5
8534
330
7DF2
100
AcDbEntity
  8
3
 62
     0
440
 16777216
370
    -2
100
AcDbBlockReference
  2
_OPEN
 10
2632.32640243322
 20
1933.439141591771
 30
0.0
 41
30.0
 42
30.0
 43
30.0
  0
INSERT
  5
8535
330
7DF2
100
AcDbEntity
  8
3
 62
     0
440
 16777216
370
    -2
100
AcDbBlockReference
  2
_OPEN
 10
2104.565337245313
 20
1933.439141591771
 30
0.0
 41
30.0
 42
30.0
 43
30.0
 50
180.0
  0
MTEXT
  5
8536
330
7DF2
100
AcDbEntity
  8
3
 62
     0
440
 16777216
100
AcDbMText
 10
2368.445869839266
 20
2020.224855877485
 30
0.0
 40
45.0
 41
0.0
 46
0.0
 71
     5
 72
     1
  1
\A1;\P(600)
 73
     1
 44
1.0
  0
POINT
  5
8537
330
7DF2
100
AcDbEntity
  8
DEFPOINTS
 62
     0
440
 16777216
100
AcDbPoint
 10
2632.32640243322
 20
1879.117880241438
 30
0.0
  0
POINT
  5
8538
330
7DF2
100
AcDbEntity
  8
DEFPOINTS
 62
     0
440
 16777216
100
AcDbPoint
 10
2104.565337245313
 20
1610.333155336412
 30
0.0
  0
POINT
  5
8539
330
7DF2
100
AcDbEntity
  8
DEFPOINTS
 62
     0
440
 16777216
100
AcDbPoint
 10
2104.565337245313
 20
1933.439141591771
 30
0.0
  0
ENDBLK
  5
829E
330
7DF2
100
AcDbEntity
  8
0
100
AcDbBlockEnd
  0
BLOCK
  5
8157
330
7DFD
100
AcDbEntity
  8
0
100
AcDbBlockBegin
  2
*D9
 70
     1
 10
0.0
 20
0.0
 30
0.0
  3
*D9
  1

  0
LINE
  5
8158
330
7DFD
100
AcDbEntity
  8
0
  6
ByBlock
 62
     0
440
 16777216
100
AcDbLine
 10
1332.851443792041
 20
1790.287525032624
 30
0.0
 11
1332.851443792041
 21
1897.514709882273
 31
0.0
  0
LINE
  5
8159
330
7DFD
100
AcDbEntity
  8
0
  6
ByBlock
 62
     0
440
 16777216
100
AcDbLine
 10
1132.851443792041
 20
1800.247538062116
 30
0.0
 11
1132.851443792041
 21
1897.514709882273
 31
0.0
  0
LINE
  5
815A
330
7DFD
100
AcDbEntity
  8
0
  6
ByBlock
 62
     0
440
 16777216
100
AcDbLine
 10
1302.851443792041
 20
1882.514709882272
 30
0.0
 11
1162.851443792041
 21
1882.514709882272
 31
0.0
  0
MTEXT
  5
815B
330
7DFD
100
AcDbEntity
  8
0
  6
ByBlock
 62
     0
440
 16777216
100
AcDbMText
 10
1232.851443792041
 20
1918.344772210897
 30
0.0
 40
45.0
 41
0.0
 46
0.0
 71
     5
 72
     5
  1
\A1;200
 73
     1
 44
1.0
  0
INSERT
  5
815C
330
7DFD
100
AcDbEntity
  8
0
  6
ByBlock
 62
     0
440
 16777216
100
AcDbBlockReference
  2
_OPEN
 10
1332.851443792041
 20
1882.514709882272
 30
0.0
 41
30.0
 42
30.0
 43
30.0
  0
INSERT
  5
815D
330
7DFD
100
AcDbEntity
  8
0
  6
ByBlock
 62
     0
440
 16777216
100
AcDbBlockReference
  2
_OPEN
 10
1132.851443792041
 20
1882.514709882272
 30
0.0
 41
30.0
 42
30.0
 43
30.0
 50
180.0
  0
POINT
  5
815E
330
7DFD
100
AcDbEntity
  8
DEFPOINTS
  6
ByBlock
 62
     0
440
 16777216
100
AcDbPoint
 10
1332.851443792041
 20
1782.787525032625
 30
0.0
  0
POINT
  5
815F
330
7DFD
100
AcDbEntity
  8
DEFPOINTS
  6
ByBlock
 62
     0
440
 16777216
100
AcDbPoint
 10
1132.851443792041
 20
1792.747538062116
 30
0.0
  0
POINT
  5
8160
330
7DFD
100
AcDbEntity
  8
DEFPOINTS
  6
ByBlock
 62
     0
440
 16777216
100
AcDbPoint
 10
1132.851443792041
 20
1882.514709882272
 30
0.0
  0
ENDBLK
  5
8161
330
7DFD
100
AcDbEntity
  8
0
100
AcDbBlockEnd
  0
BLOCK
  5
814C
330
7E09
100
AcDbEntity
  8
0
100
AcDbBlockBegin
  2
*D10
 70
     1
 10
0.0
 20
0.0
 30
0.0
  3
*D10
  1

  0
LINE
  5
814D
330
7E09
100
AcDbEntity
  8
0
  6
ByBlock
 62
     0
440
 16777216
100
AcDbLine
 10
1132.851443792041
 20
1800.247538062116
 30
0.0
 11
1132.851443792041
 21
1897.514709882273
 31
0.0
  0
LINE
  5
814E
330
7E09
100
AcDbEntity
  8
0
  6
ByBlock
 62
     0
440
 16777216
100
AcDbLine
 10
927.8514437920403
 20
1539.287525032625
 30
0.0
 11
927.8514437920403
 21
1897.514709882273
 31
0.0
  0
LINE
  5
814F
330
7E09
100
AcDbEntity
  8
0
  6
ByBlock
 62
     0
440
 16777216
100
AcDbLine
 10
1102.851443792041
 20
1882.514709882272
 30
0.0
 11
957.8514437920402
 21
1882.514709882272
 31
0.0
  0
MTEXT
  5
8150
330
7E09
100
AcDbEntity
  8
0
  6
ByBlock
 62
     0
440
 16777216
100
AcDbMText
 10
1030.35144379204
 20
1921.671274551582
 30
0.0
 40
45.0
 41
0.0
 46
0.0
 71
     5
 72
     5
  1
\A1;205
 73
     1
 44
1.0
  0
INSERT
  5
8151
330
7E09
100
AcDbEntity
  8
0
  6
ByBlock
 62
     0
440
 16777216
100
AcDbBlockReference
  2
_OPEN
 10
1132.851443792041
 20
1882.514709882272
 30
0.0
 41
30.0
 42
30.0
 43
30.0
  0
INSERT
  5
8152
330
7E09
100
AcDbEntity
  8
0
  6
ByBlock
 62
     0
440
 16777216
100
AcDbBlockReference
  2
_OPEN
 10
927.8514437920403
 20
1882.514709882272
 30
0.0
 41
30.0
 42
30.0
 43
30.0
 50
180.0
  0
POINT
  5
8153
330
7E09
100
AcDbEntity
  8
DEFPOINTS
  6
ByBlock
 62
     0
440
 16777216
100
AcDbPoint
 10
1132.851443792041
 20
1792.747538062116
 30
0.0
  0
POINT
  5
8154
330
7E09
100
AcDbEntity
  8
DEFPOINTS
  6
ByBlock
 62
     0
440
 16777216
100
AcDbPoint
 10
927.8514437920403
 20
1531.787525032625
 30
0.0
  0
POINT
  5
8155
330
7E09
100
AcDbEntity
  8
DEFPOINTS
  6
ByBlock
 62
     0
440
 16777216
100
AcDbPoint
 10
927.8514437920403
 20
1882.514709882272
 30
0.0
  0
ENDBLK
  5
8156
330
7E09
100
AcDbEntity
  8
0
100
AcDbBlockEnd
  0
BLOCK
  5
8035
330
7E14
100
AcDbEntity
  8
0
100
AcDbBlockBegin
  2
*D11
 70
     1
 10
0.0
 20
0.0
 30
0.0
  3
*D11
  1

  0
LINE
  5
8036
330
7E14
100
AcDbEntity
  8
0
  6
ByBlock
 62
     0
440
 16777216
100
AcDbLine
 10
1332.851443792041
 20
1790.287525032624
 30
0.0
 11
1332.851443792041
 21
2000.090079776642
 31
0.0
  0
LINE
  5
8037
330
7E14
100
AcDbEntity
  8
0
  6
ByBlock
 62
     0
440
 16777216
100
AcDbLine
 10
632.8514437920407
 20
1245.287525032624
 30
0.0
 11
632.8514437920407
 21
2000.090079776642
 31
0.0
  0
LINE
  5
8038
330
7E14
100
AcDbEntity
  8
0
  6
ByBlock
 62
     0
440
 16777216
100
AcDbLine
 10
1302.851443792041
 20
1985.090079776641
 30
0.0
 11
662.8514437920407
 21
1985.090079776641
 31
0.0
  0
INSERT
  5
8039
330
7E14
100
AcDbEntity
  8
0
  6
ByBlock
 62
     0
440
 16777216
100
AcDbBlockReference
  2
_OPEN
 10
1332.851443792041
 20
1985.090079776641
 30
0.0
 41
30.0
 42
30.0
 43
30.0
  0
INSERT
  5
803A
330
7E14
100
AcDbEntity
  8
0
  6
ByBlock
 62
     0
440
 16777216
100
AcDbBlockReference
  2
_OPEN
 10
632.8514437920407
 20
1985.090079776641
 30
0.0
 41
30.0
 42
30.0
 43
30.0
 50
180.0
  0
MTEXT
  5
803B
330
7E14
100
AcDbEntity
  8
0
  6
ByBlock
 62
     0
440
 16777216
100
AcDbMText
 10
982.8514437920409
 20
2022.590079776642
 30
0.0
 40
45.0
 41
0.0
 46
0.0
 71
     5
 72
     5
  1
\A1;700
 73
     1
 44
1.0
  0
POINT
  5
803C
330
7E14
100
AcDbEntity
  8
DEFPOINTS
  6
ByBlock
 62
     0
440
 16777216
100
AcDbPoint
 10
1332.851443792041
 20
1782.787525032625
 30
0.0
  0
POINT
  5
803D
330
7E14
100
AcDbEntity
  8
DEFPOINTS
  6
ByBlock
 62
     0
440
 16777216
100
AcDbPoint
 10
632.8514437920407
 20
1237.787525032624
 30
0.0
  0
POINT
  5
803E
330
7E14
100
AcDbEntity
  8
DEFPOINTS
  6
ByBlock
 62
     0
440
 16777216
100
AcDbPoint
 10
632.8514437920407
 20
1985.090079776641
 30
0.0
  0
ENDBLK
  5
803F
330
7E14
100
AcDbEntity
  8
0
100
AcDbBlockEnd
  0
BLOCK
  5
8289
330
8259
100
AcDbEntity
  8
0
100
AcDbBlockBegin
  2
*D12
 70
     1
 10
0.0
 20
0.0
 30
0.0
  3
*D12
  1

  0
LINE
  5
828A
330
8259
100
AcDbEntity
  8
0
  6
ByBlock
 62
     0
440
 16777216
100
AcDbLine
 10
2758.82640243322
 20
1644.764450133167
 30
0.0
 11
2904.749434711081
 21
1644.764450133167
 31
0.0
  0
LINE
  5
828B
330
8259
100
AcDbEntity
  8
0
  6
ByBlock
 62
     0
440
 16777216
100
AcDbLine
 10
2758.82640243322
 20
1390.764450133167
 30
0.0
 11
2904.749434711081
 21
1390.764450133167
 31
0.0
  0
LINE
  5
828C
330
8259
100
AcDbEntity
  8
0
  6
ByBlock
 62
     0
440
 16777216
100
AcDbLine
 10
2889.749434711081
 20
1614.764450133167
 30
0.0
 11
2889.749434711081
 21
1420.764450133167
 31
0.0
  0
MTEXT
  5
828D
330
8259
100
AcDbEntity
  8
0
  6
ByBlock
 62
     0
440
 16777216
100
AcDbMText
 10
2856.766717406212
 20
1517.764450133167
 30
0.0
 40
45.0
 41
0.0
 46
0.0
 71
     5
 72
     5
  1
\A1;φ254
 11
0.0
 21
1.0
 31
0.0
 73
     1
 44
1.0
  0
INSERT
  5
828E
330
8259
100
AcDbEntity
  8
0
  6
ByBlock
 62
     0
440
 16777216
100
AcDbBlockReference
  2
_OPEN
 10
2889.749434711081
 20
1644.764450133167
 30
0.0
 41
30.0
 42
30.0
 43
30.0
 50
90.0
  0
INSERT
  5
828F
330
8259
100
AcDbEntity
  8
0
  6
ByBlock
 62
     0
440
 16777216
100
AcDbBlockReference
  2
_OPEN
 10
2889.749434711081
 20
1390.764450133167
 30
0.0
 41
30.0
 42
30.0
 43
30.0
 50
270.0
  0
POINT
  5
8290
330
8259
100
AcDbEntity
  8
DEFPOINTS
  6
ByBlock
 62
     0
440
 16777216
100
AcDbPoint
 10
2751.32640243322
 20
1644.764450133167
 30
0.0
  0
POINT
  5
8291
330
8259
100
AcDbEntity
  8
DEFPOINTS
  6
ByBlock
 62
     0
440
 16777216
100
AcDbPoint
 10
2751.32640243322
 20
1390.764450133167
 30
0.0
  0
POINT
  5
8292
330
8259
100
AcDbEntity
  8
DEFPOINTS
  6
ByBlock
 62
     0
440
 16777216
100
AcDbPoint
 10
2889.749434711081
 20
1390.764450133167
 30
0.0
  0
ENDBLK
  5
8293
330
8259
100
AcDbEntity
  8
0
100
AcDbBlockEnd
  0
BLOCK
  5
834A
330
8349
100
AcDbEntity
  8
0
100
AcDbBlockBegin
  2
*D13
 70
     1
 10
0.0
 20
0.0
 30
0.0
  3
*D13
  1

  0
LINE
  5
834B
330
8349
100
AcDbEntity
  8
0
  6
ByBlock
 62
     0
440
 16777216
100
AcDbLine
 10
625.3514437920411
 20
2976.164303667439
 30
0.0
 11
495.9986110865047
 21
2976.164303667439
 31
0.0
  0
LINE
  5
834C
330
8349
100
AcDbEntity
  8
0
  6
ByBlock
 62
     0
440
 16777216
100
AcDbLine
 10
625.3514437920416
 20
2531.16430366744
 30
0.0
 11
495.9986110865047
 21
2531.16430366744
 31
0.0
  0
LINE
  5
834D
330
8349
100
AcDbEntity
  8
0
  6
ByBlock
 62
     0
440
 16777216
100
AcDbLine
 10
510.9986110865047
 20
2946.164303667439
 30
0.0
 11
510.9986110865047
 21
2561.164303667439
 31
0.0
  0
INSERT
  5
834E
330
8349
100
AcDbEntity
  8
0
  6
ByBlock
 62
     0
440
 16777216
100
AcDbBlockReference
  2
_OPEN
 10
510.9986110865047
 20
2976.164303667439
 30
0.0
 41
30.0
 42
30.0
 43
30.0
 50
90.0
  0
INSERT
  5
834F
330
8349
100
AcDbEntity
  8
0
  6
ByBlock
 62
     0
440
 16777216
100
AcDbBlockReference
  2
_OPEN
 10
510.9986110865047
 20
2531.16430366744
 30
0.0
 41
30.0
 42
30.0
 43
30.0
 50
270.0
  0
MTEXT
  5
8350
330
8349
100
AcDbEntity
  8
0
  6
ByBlock
 62
     0
440
 16777216
100
AcDbMText
 10
473.4986110865047
 20
2736.168641217444
 30
0.0
 40
45.0
 41
0.0
 46
0.0
 71
     5
 72
     5
  1
\A1;445
 11
0.0
 21
1.0
 31
0.0
 73
     1
 44
1.0
  0
POINT
  5
8351
330
8349
100
AcDbEntity
  8
DEFPOINTS
  6
ByBlock
 62
     0
440
 16777216
100
AcDbPoint
 10
632.8514437920412
 20
2976.164303667439
 30
0.0
  0
POINT
  5
8352
330
8349
100
AcDbEntity
  8
DEFPOINTS
  6
ByBlock
 62
     0
440
 16777216
100
AcDbPoint
 10
632.8514437920416
 20
2531.16430366744
 30
0.0
  0
POINT
  5
8353
330
8349
100
AcDbEntity
  8
DEFPOINTS
  6
ByBlock
 62
     0
440
 16777216
100
AcDbPoint
 10
510.9986110865047
 20
2531.16430366744
 30
0.0
  0
ENDBLK
  5
8354
330
8349
100
AcDbEntity
  8
0
100
AcDbBlockEnd
  0
BLOCK
  5
8398
330
8397
100
AcDbEntity
  8
0
100
AcDbBlockBegin
  2
*D14
 70
     1
 10
0.0
 20
0.0
 30
0.0
  3
*D14
  1

  0
LINE
  5
84C6
330
8397
100
AcDbEntity
  8
3
 62
     0
440
 16777216
370
    -2
100
AcDbLine
 10
632.8514437920407
 20
1080.287525032624
 30
0.0
 11
632.8514437920407
 21
967.4220818664579
 31
0.0
  0
LINE
  5
84C7
330
8397
100
AcDbEntity
  8
3
 62
     0
440
 16777216
370
    -2
100
AcDbLine
 10
1132.851443792041
 20
1080.287525032624
 30
0.0
 11
1132.851443792041
 21
967.4220818664579
 31
0.0
  0
LINE
  5
84C8
330
8397
100
AcDbEntity
  8
3
 62
     0
440
 16777216
370
    -2
100
AcDbLine
 10
662.8514437920407
 20
982.422081866458
 30
0.0
 11
1102.851443792041
 21
982.422081866458
 31
0.0
  0
INSERT
  5
84C9
330
8397
100
AcDbEntity
  8
3
 62
     0
440
 16777216
370
    -2
100
AcDbBlockReference
  2
_OPEN
 10
632.8514437920407
 20
982.422081866458
 30
0.0
 41
30.0
 42
30.0
 43
30.0
 50
180.0
  0
INSERT
  5
84CA
330
8397
100
AcDbEntity
  8
3
 62
     0
440
 16777216
370
    -2
100
AcDbBlockReference
  2
_OPEN
 10
1132.851443792041
 20
982.422081866458
 30
0.0
 41
30.0
 42
30.0
 43
30.0
  0
MTEXT
  5
84CB
330
8397
100
AcDbEntity
  8
3
 62
     0
440
 16777216
100
AcDbMText
 10
882.8514437920409
 20
1019.922081866458
 30
0.0
 40
45.0
 41
0.0
 46
0.0
 71
     5
 72
     1
  1
\A1;500
 73
     1
 44
1.0
  0
POINT
  5
84CC
330
8397
100
AcDbEntity
  8
DEFPOINTS
 62
     0
440
 16777216
100
AcDbPoint
 10
632.8514437920407
 20
1087.787525032624
 30
0.0
  0
POINT
  5
84CD
330
8397
100
AcDbEntity
  8
DEFPOINTS
 62
     0
440
 16777216
100
AcDbPoint
 10
1132.851443792041
 20
1087.787525032624
 30
0.0
  0
POINT
  5
84CE
330
8397
100
AcDbEntity
  8
DEFPOINTS
 62
     0
440
 16777216
100
AcDbPoint
 10
1132.851443792041
 20
982.422081866458
 30
0.0
  0
ENDBLK
  5
83A2
330
8397
100
AcDbEntity
  8
0
100
AcDbBlockEnd
  0
BLOCK
  5
83A5
330
83A4
100
AcDbEntity
  8
0
100
AcDbBlockBegin
  2
*D15
 70
     1
 10
0.0
 20
0.0
 30
0.0
  3
*D15
  1

  0
LINE
  5
84CF
330
83A4
100
AcDbEntity
  8
3
 62
     0
440
 16777216
370
    -2
100
AcDbLine
 10
1132.851443792041
 20
1080.287525032624
 30
0.0
 11
1132.851443792041
 21
967.4220818664579
 31
0.0
  0
LINE
  5
84D0
330
83A4
100
AcDbEntity
  8
3
 62
     0
440
 16777216
370
    -2
100
AcDbLine
 10
1332.851443792041
 20
1080.287525032624
 30
0.0
 11
1332.851443792041
 21
967.4220818664579
 31
0.0
  0
LINE
  5
84D1
330
83A4
100
AcDbEntity
  8
3
 62
     0
440
 16777216
370
    -2
100
AcDbLine
 10
1162.851443792041
 20
982.422081866458
 30
0.0
 11
1302.851443792041
 21
982.422081866458
 31
0.0
  0
INSERT
  5
84D2
330
83A4
100
AcDbEntity
  8
3
 62
     0
440
 16777216
370
    -2
100
AcDbBlockReference
  2
_OPEN
 10
1132.851443792041
 20
982.422081866458
 30
0.0
 41
30.0
 42
30.0
 43
30.0
 50
180.0
  0
INSERT
  5
84D3
330
83A4
100
AcDbEntity
  8
3
 62
     0
440
 16777216
370
    -2
100
AcDbBlockReference
  2
_OPEN
 10
1332.851443792041
 20
982.422081866458
 30
0.0
 41
30.0
 42
30.0
 43
30.0
  0
MTEXT
  5
84D4
330
83A4
100
AcDbEntity
  8
3
 62
     0
440
 16777216
100
AcDbMText
 10
1232.851443792041
 20
1019.922081866458
 30
0.0
 40
45.0
 41
0.0
 46
0.0
 71
     5
 72
     1
  1
\A1;200
 73
     1
 44
1.0
  0
POINT
  5
84D5
330
83A4
100
AcDbEntity
  8
DEFPOINTS
 62
     0
440
 16777216
100
AcDbPoint
 10
1132.851443792041
 20
1087.787525032624
 30
0.0
  0
POINT
  5
84D6
330
83A4
100
AcDbEntity
  8
DEFPOINTS
 62
     0
440
 16777216
100
AcDbPoint
 10
1332.851443792041
 20
1087.787525032624
 30
0.0
  0
POINT
  5
84D7
330
83A4
100
AcDbEntity
  8
DEFPOINTS
 62
     0
440
 16777216
100
AcDbPoint
 10
1332.851443792041
 20
982.422081866458
 30
0.0
  0
ENDBLK
  5
83B1
330
83A4
100
AcDbEntity
  8
0
100
AcDbBlockEnd
  0
BLOCK
  5
83B4
330
83B3
100
AcDbEntity
  8
0
100
AcDbBlockBegin
  2
*D16
 70
     1
 10
0.0
 20
0.0
 30
0.0
  3
*D16
  1

  0
LINE
  5
84D8
330
83B3
100
AcDbEntity
  8
3
 62
     0
440
 16777216
370
    -2
100
AcDbLine
 10
2131.32640243322
 20
1080.264450133167
 30
0.0
 11
2131.32640243322
 21
967.4220818664579
 31
0.0
  0
LINE
  5
84D9
330
83B3
100
AcDbEntity
  8
3
 62
     0
440
 16777216
370
    -2
100
AcDbLine
 10
2576.326402433219
 20
1080.264450133167
 30
0.0
 11
2576.326402433219
 21
967.4220818664579
 31
0.0
  0
LINE
  5
84DA
330
83B3
100
AcDbEntity
  8
3
 62
     0
440
 16777216
370
    -2
100
AcDbLine
 10
2161.326402433219
 20
982.422081866458
 30
0.0
 11
2546.32640243322
 21
982.422081866458
 31
0.0
  0
INSERT
  5
84DB
330
83B3
100
AcDbEntity
  8
3
 62
     0
440
 16777216
370
    -2
100
AcDbBlockReference
  2
_OPEN
 10
2131.32640243322
 20
982.422081866458
 30
0.0
 41
30.0
 42
30.0
 43
30.0
 50
180.0
  0
INSERT
  5
84DC
330
83B3
100
AcDbEntity
  8
3
 62
     0
440
 16777216
370
    -2
100
AcDbBlockReference
  2
_OPEN
 10
2576.326402433219
 20
982.422081866458
 30
0.0
 41
30.0
 42
30.0
 43
30.0
  0
MTEXT
  5
84DD
330
83B3
100
AcDbEntity
  8
3
 62
     0
440
 16777216
100
AcDbMText
 10
2353.826402433219
 20
1019.922081866458
 30
0.0
 40
45.0
 41
0.0
 46
0.0
 71
     5
 72
     1
  1
\A1;445
 73
     1
 44
1.0
  0
POINT
  5
84DE
330
83B3
100
AcDbEntity
  8
DEFPOINTS
 62
     0
440
 16777216
100
AcDbPoint
 10
2131.32640243322
 20
1087.764450133167
 30
0.0
  0
POINT
  5
84DF
330
83B3
100
AcDbEntity
  8
DEFPOINTS
 62
     0
440
 16777216
100
AcDbPoint
 10
2576.326402433219
 20
1087.764450133167
 30
0.0
  0
POINT
  5
84E0
330
83B3
100
AcDbEntity
  8
DEFPOINTS
 62
     0
440
 16777216
100
AcDbPoint
 10
2576.326402433219
 20
982.422081866458
 30
0.0
  0
ENDBLK
  5
83BE
330
83B3
100
AcDbEntity
  8
0
100
AcDbBlockEnd
  0
BLOCK
  5
83C1
330
83C0
100
AcDbEntity
  8
0
100
AcDbBlockBegin
  2
*D17
 70
     1
 10
0.0
 20
0.0
 30
0.0
  3
*D17
  1

  0
LINE
  5
84E1
330
83C0
100
AcDbEntity
  8
3
 62
     0
440
 16777216
370
    -2
100
AcDbLine
 10
2576.326402433219
 20
1080.264450133167
 30
0.0
 11
2576.326402433219
 21
967.4220818664579
 31
0.0
  0
LINE
  5
84E2
330
83C0
100
AcDbEntity
  8
3
 62
     0
440
 16777216
370
    -2
100
AcDbLine
 10
2632.32640243322
 20
1080.264450133167
 30
0.0
 11
2632.32640243322
 21
967.4220818664579
 31
0.0
  0
LINE
  5
84E3
330
83C0
100
AcDbEntity
  8
3
 62
     0
440
 16777216
370
    -2
100
AcDbLine
 10
2546.32640243322
 20
982.422081866458
 30
0.0
 11
2516.326402433219
 21
982.422081866458
 31
0.0
  0
LINE
  5
84E4
330
83C0
100
AcDbEntity
  8
3
 62
     0
440
 16777216
370
    -2
100
AcDbLine
 10
2662.326402433219
 20
982.422081866458
 30
0.0
 11
2793.040688147505
 21
982.422081866458
 31
0.0
  0
LINE
  5
84E5
330
83C0
100
AcDbEntity
  8
3
 62
     0
440
 16777216
370
    -2
100
AcDbLine
 10
2576.326402433219
 20
982.422081866458
 30
0.0
 11
2632.32640243322
 21
982.422081866458
 31
0.0
  0
INSERT
  5
84E6
330
83C0
100
AcDbEntity
  8
3
 62
     0
440
 16777216
370
    -2
100
AcDbBlockReference
  2
_OPEN
 10
2576.326402433219
 20
982.422081866458
 30
0.0
 41
30.0
 42
30.0
 43
30.0
  0
INSERT
  5
84E7
330
83C0
100
AcDbEntity
  8
3
 62
     0
440
 16777216
370
    -2
100
AcDbBlockReference
  2
_OPEN
 10
2632.32640243322
 20
982.422081866458
 30
0.0
 41
30.0
 42
30.0
 43
30.0
 50
180.0
  0
MTEXT
  5
84E8
330
83C0
100
AcDbEntity
  8
3
 62
     0
440
 16777216
100
AcDbMText
 10
2742.683545290362
 20
1019.922081866458
 30
0.0
 40
45.0
 41
0.0
 46
0.0
 71
     5
 72
     1
  1
\A1;56
 73
     1
 44
1.0
  0
POINT
  5
84E9
330
83C0
100
AcDbEntity
  8
DEFPOINTS
 62
     0
440
 16777216
100
AcDbPoint
 10
2576.326402433219
 20
1087.764450133167
 30
0.0
  0
POINT
  5
84EA
330
83C0
100
AcDbEntity
  8
DEFPOINTS
 62
     0
440
 16777216
100
AcDbPoint
 10
2632.32640243322
 20
1087.764450133167
 30
0.0
  0
POINT
  5
84EB
330
83C0
100
AcDbEntity
  8
DEFPOINTS
 62
     0
440
 16777216
100
AcDbPoint
 10
2632.32640243322
 20
982.422081866458
 30
0.0
  0
ENDBLK
  5
83CD
330
83C0
100
AcDbEntity
  8
0
100
AcDbBlockEnd
  0
BLOCK
  5
83EB
330
83EA
100
AcDbEntity
  8
0
100
AcDbBlockBegin
  2
*D18
 70
     1
 10
0.0
 20
0.0
 30
0.0
  3
*D18
  1

  0
LINE
  5
84EC
330
83EA
100
AcDbEntity
  8
3
 62
     0
440
 16777216
370
    -2
100
AcDbLine
 10
1340.351443792041
 20
1127.787525032625
 30
0.0
 11
1577.295786133474
 21
1127.787525032624
 31
0.0
  0
LINE
  5
84ED
330
83EA
100
AcDbEntity
  8
3
 62
     0
440
 16777216
370
    -2
100
AcDbLine
 10
1340.351443792041
 20
1087.787525032624
 30
0.0
 11
1577.295786133474
 21
1087.787525032624
 31
0.0
  0
LINE
  5
84EE
330
83EA
100
AcDbEntity
  8
3
 62
     0
440
 16777216
370
    -2
100
AcDbLine
 10
1562.295786133474
 20
1157.787525032624
 30
0.0
 11
1562.295786133474
 21
1187.787525032624
 31
0.0
  0
LINE
  5
84EF
330
83EA
100
AcDbEntity
  8
3
 62
     0
440
 16777216
370
    -2
100
AcDbLine
 10
1562.295786133474
 20
1057.787525032624
 30
0.0
 11
1562.295786133474
 21
924.9303821754814
 31
0.0
  0
LINE
  5
84F0
330
83EA
100
AcDbEntity
  8
3
 62
     0
440
 16777216
370
    -2
100
AcDbLine
 10
1562.295786133474
 20
1127.787525032624
 30
0.0
 11
1562.295786133474
 21
1087.787525032624
 31
0.0
  0
INSERT
  5
84F1
330
83EA
100
AcDbEntity
  8
3
 62
     0
440
 16777216
370
    -2
100
AcDbBlockReference
  2
_DOT
 10
1562.295786133474
 20
1127.787525032624
 30
0.0
 41
30.0
 42
30.0
 43
30.0
 50
270.0
  0
INSERT
  5
84F2
330
83EA
100
AcDbEntity
  8
3
 62
     0
440
 16777216
370
    -2
100
AcDbBlockReference
  2
_OPEN
 10
1562.295786133474
 20
1087.787525032624
 30
0.0
 41
30.0
 42
30.0
 43
30.0
 50
90.0
  0
MTEXT
  5
84F3
330
83EA
100
AcDbEntity
  8
3
 62
     0
440
 16777216
100
AcDbMText
 10
1524.795786133474
 20
976.358953604053
 30
0.0
 40
45.0
 41
0.0
 46
0.0
 71
     5
 72
     1
  1
\A1;40
 11
0.0000000000000001
 21
1.0
 31
0.0
 73
     1
 44
1.0
  0
POINT
  5
84F4
330
83EA
100
AcDbEntity
  8
DEFPOINTS
 62
     0
440
 16777216
100
AcDbPoint
 10
1332.851443792041
 20
1127.787525032625
 30
0.0
  0
POINT
  5
84F5
330
83EA
100
AcDbEntity
  8
DEFPOINTS
 62
     0
440
 16777216
100
AcDbPoint
 10
1332.851443792041
 20
1087.787525032624
 30
0.0
  0
POINT
  5
84F6
330
83EA
100
AcDbEntity
  8
DEFPOINTS
 62
     0
440
 16777216
100
AcDbPoint
 10
1562.295786133474
 20
1087.787525032624
 30
0.0
  0
ENDBLK
  5
83F7
330
83EA
100
AcDbEntity
  8
0
100
AcDbBlockEnd
  0
BLOCK
  5
8418
330
8417
100
AcDbEntity
  8
0
100
AcDbBlockBegin
  2
*D19
 70
     1
 10
0.0
 20
0.0
 30
0.0
  3
*D19
  1

  0
LINE
  5
84F7
330
8417
100
AcDbEntity
  8
3
 62
     0
440
 16777216
370
    -2
100
AcDbLine
 10
1340.351443792041
 20
1127.787525032625
 30
0.0
 11
1578.063291953769
 21
1127.787525032624
 31
0.0
  0
LINE
  5
84F8
330
8417
100
AcDbEntity
  8
3
 62
     0
440
 16777216
370
    -2
100
AcDbLine
 10
1340.351443792041
 20
1197.787525032624
 30
0.0
 11
1578.063291953769
 21
1197.787525032624
 31
0.0
  0
LINE
  5
84F9
330
8417
100
AcDbEntity
  8
3
 62
     0
440
 16777216
370
    -2
100
AcDbLine
 10
1563.063291953769
 20
1097.787525032624
 30
0.0
 11
1563.063291953769
 21
1067.787525032624
 31
0.0
  0
LINE
  5
84FA
330
8417
100
AcDbEntity
  8
3
 62
     0
440
 16777216
370
    -2
100
AcDbLine
 10
1563.063291953769
 20
1227.787525032624
 30
0.0
 11
1563.063291953769
 21
1257.787525032624
 31
0.0
  0
MTEXT
  5
84FB
330
8417
100
AcDbEntity
  8
3
 62
     0
440
 16777216
100
AcDbMText
 10
1619.80362063273
 20
1159.397933619162
 30
0.0
 40
45.0
 41
0.0
 46
0.0
 71
     5
 72
     1
  1
\A1;(70)
 11
0.0000000000000001
 21
1.0
 31
0.0
 73
     1
 44
1.0
  0
LINE
  5
84FC
330
8417
100
AcDbEntity
  8
3
 62
     0
440
 16777216
370
    -2
100
AcDbLine
 10
1563.063291953769
 20
1127.787525032624
 30
0.0
 11
1563.063291953769
 21
1197.787525032624
 31
0.0
  0
INSERT
  5
84FD
330
8417
100
AcDbEntity
  8
3
 62
     0
440
 16777216
370
    -2
100
AcDbBlockReference
  2
_DOT
 10
1563.063291953769
 20
1127.787525032624
 30
0.0
 41
30.0
 42
30.0
 43
30.0
 50
90.0
  0
INSERT
  5
84FE
330
8417
100
AcDbEntity
  8
3
 62
     0
440
 16777216
370
    -2
100
AcDbBlockReference
  2
_OPEN
 10
1563.063291953769
 20
1197.787525032624
 30
0.0
 41
30.0
 42
30.0
 43
30.0
 50
270.0
  0
POINT
  5
84FF
330
8417
100
AcDbEntity
  8
DEFPOINTS
 62
     0
440
 16777216
100
AcDbPoint
 10
1332.851443792041
 20
1127.787525032625
 30
0.0
  0
POINT
  5
8500
330
8417
100
AcDbEntity
  8
DEFPOINTS
 62
     0
440
 16777216
100
AcDbPoint
 10
1332.851443792041
 20
1197.787525032624
 30
0.0
  0
POINT
  5
8501
330
8417
100
AcDbEntity
  8
DEFPOINTS
 62
     0
440
 16777216
100
AcDbPoint
 10
1563.063291953769
 20
1197.787525032624
 30
0.0
  0
ENDBLK
  5
8424
330
8417
100
AcDbEntity
  8
0
100
AcDbBlockEnd
  0
BLOCK
  5
8427
330
8426
100
AcDbEntity
  8
0
100
AcDbBlockBegin
  2
*D20
 70
     1
 10
0.0
 20
0.0
 30
0.0
  3
*D20
  1

  0
LINE
  5
8502
330
8426
100
AcDbEntity
  8
3
 62
     0
440
 16777216
370
    -2
100
AcDbLine
 10
1340.351443792041
 20
1782.787525032625
 30
0.0
 11
1705.084982781062
 21
1782.787525032624
 31
0.0
  0
LINE
  5
8503
330
8426
100
AcDbEntity
  8
3
 62
     0
440
 16777216
370
    -2
100
AcDbLine
 10
1340.351443792041
 20
1087.787525032624
 30
0.0
 11
1705.084982781061
 21
1087.787525032624
 31
0.0
  0
LINE
  5
8504
330
8426
100
AcDbEntity
  8
3
 62
     0
440
 16777216
370
    -2
100
AcDbLine
 10
1690.084982781062
 20
1752.787525032624
 30
0.0
 11
1690.084982781062
 21
1117.787525032624
 31
0.0
  0
INSERT
  5
8505
330
8426
100
AcDbEntity
  8
3
 62
     0
440
 16777216
370
    -2
100
AcDbBlockReference
  2
_OPEN
 10
1690.084982781062
 20
1782.787525032624
 30
0.0
 41
30.0
 42
30.0
 43
30.0
 50
90.0
  0
INSERT
  5
8506
330
8426
100
AcDbEntity
  8
3
 62
     0
440
 16777216
370
    -2
100
AcDbBlockReference
  2
_OPEN
 10
1690.084982781062
 20
1087.787525032624
 30
0.0
 41
30.0
 42
30.0
 43
30.0
 50
270.0
  0
MTEXT
  5
8507
330
8426
100
AcDbEntity
  8
3
 62
     0
440
 16777216
100
AcDbMText
 10
1640.799268495347
 20
1435.287525032625
 30
0.0
 40
45.0
 41
0.0
 46
0.0
 71
     5
 72
     1
  1
\A1;(695)
 11
0.0000000000000001
 21
1.0
 31
0.0
 73
     1
 44
1.0
  0
POINT
  5
8508
330
8426
100
AcDbEntity
  8
DEFPOINTS
 62
     0
440
 16777216
100
AcDbPoint
 10
1332.851443792041
 20
1782.787525032625
 30
0.0
  0
POINT
  5
8509
330
8426
100
AcDbEntity
  8
DEFPOINTS
 62
     0
440
 16777216
100
AcDbPoint
 10
1332.851443792041
 20
1087.787525032624
 30
0.0
  0
POINT
  5
850A
330
8426
100
AcDbEntity
  8
DEFPOINTS
 62
     0
440
 16777216
100
AcDbPoint
 10
1690.084982781062
 20
1087.787525032624
 30
0.0
  0
ENDBLK
  5
8431
330
8426
100
AcDbEntity
  8
0
100
AcDbBlockEnd
  0
ENDSEC
  0
SECTION
  2
ENTITIES
  0
LINE
  5
7C20
330
19
100
AcDbEntity
  8
2
100
AcDbLine
 10
849.5571753430294
 20
1517.787525032625
 30
0.0
 11
1383.494423867261
 21
1517.787525032625
 31
0.0
  0
LINE
  5
7C21
330
19
100
AcDbEntity
  8
2
100
AcDbLine
 10
1132.851443792041
 20
1792.747538062116
 30
0.0
 11
1132.851443792041
 21
1087.787525032624
 31
0.0
  0
LINE
  5
7C22
330
19
100
AcDbEntity
  8
1
100
AcDbLine
 10
754.0136392608919
 20
1416.780225313292
 30
0.0
 11
1097.152293279825
 21
1603.195579896973
 31
0.0
  0
ARC
  5
7C23
330
19
100
AcDbEntity
  8
1
100
AcDbCircle
 10
1132.851443792041
 20
1517.787525032625
 30
0.0
 40
92.56870520324515
100
AcDbArc
 50
287.9621549859291
 51
112.6841186733969
  0
LINE
  5
7C24
330
19
100
AcDbEntity
  8
1
100
AcDbLine
 10
1307.851443792041
 20
1782.787525032625
 30
0.0
 11
1307.851443792041
 21
1488.787525032624
 31
0.0
  0
LINE
  5
7C25
330
19
100
AcDbEntity
  8
1
100
AcDbLine
 10
1332.851443792041
 20
1782.787525032625
 30
0.0
 11
1332.851443792041
 21
1488.787525032624
 31
0.0
  0
ARC
  5
7C26
330
19
100
AcDbEntity
  8
1
100
AcDbCircle
 10
1148.85144379204
 20
1533.787525032624
 30
0.0
 40
221.0
100
AcDbArc
 50
90.31037733564346
 51
180.2687094722478
  0
LINE
  5
7C27
330
19
100
AcDbEntity
  8
1
100
AcDbLine
 10
1160.643157933844
 20
1453.70005976913
 30
0.0
 11
803.9921164274192
 21
1299.037307026863
 31
0.0
  0
LINE
  5
7C28
330
19
100
AcDbEntity
  8
1
100
AcDbLine
 10
805.9118528408562
 20
1276.655048647389
 30
0.0
 11
1161.39858969622
 21
1429.730579572708
 31
0.0
  0
LINE
  5
7C29
330
19
100
AcDbEntity
  8
1
100
AcDbLine
 10
762.4813651728636
 20
1396.86472638044
 30
0.0
 11
1106.072759319965
 21
1582.304845472832
 31
0.0
  0
LINE
  5
7C2C
330
19
100
AcDbEntity
  8
1
100
AcDbLine
 10
632.8514437920407
 20
1197.787525032625
 30
0.0
 11
1332.851443792041
 21
1197.787525032624
 31
0.0
  0
LINE
  5
7C2D
330
19
100
AcDbEntity
  8
1
100
AcDbLine
 10
632.8514437920407
 20
1237.787525032624
 30
0.0
 11
1332.851443792041
 21
1237.787525032624
 31
0.0
  0
ARC
  5
7C2E
330
19
100
AcDbEntity
  8
1
100
AcDbCircle
 10
1118.85144379204
 20
1531.787525032625
 30
0.0
 40
191.0
100
AcDbArc
 50
179.7109569763443
 51
283.2198000567213
  0
LINE
  5
7C2F
330
19
100
AcDbEntity
  8
2
100
AcDbLine
 10
782.8514437920412
 20
1453.457459657292
 30
0.0
 11
782.8514437920412
 21
1221.348014242968
 31
0.0
  0
ARC
  5
7C30
330
19
100
AcDbEntity
  8
1
100
AcDbCircle
 10
782.8514437920412
 20
1347.787525032625
 30
0.0
 40
74.77707979183754
100
AcDbArc
 50
112.6841186733969
 51
287.962154985929
  0
CIRCLE
  5
7C31
330
19
100
AcDbEntity
  8
1
100
AcDbCircle
 10
782.8514437920412
 20
1347.787525032625
 30
0.0
 40
53.13672736521761
  0
ARC
  5
7C32
330
19
100
AcDbEntity
  8
1
100
AcDbCircle
 10
782.8514437920412
 20
1347.787525032625
 30
0.0
 40
85.0
100
AcDbArc
 50
298.8779990926558
 51
241.1220009073443
  0
LINE
  5
7C33
330
19
100
AcDbEntity
  8
2
100
AcDbLine
 10
661.8514437920407
 20
1347.787525032625
 30
0.0
 11
903.8514437920412
 21
1347.787525032625
 31
0.0
  0
LINE
  5
7C34
330
19
100
AcDbEntity
  8
1
100
AcDbLine
 10
880.3514437920412
 20
1267.787525032624
 30
0.0
 11
685.3514437920412
 21
1267.787525032624
 31
0.0
  0
LINE
  5
7C35
330
19
100
AcDbEntity
  8
1
100
AcDbLine
 10
675.3514437920407
 20
1237.787525032624
 30
0.0
 11
890.3514437920412
 21
1237.787525032624
 31
0.0
  0
LINE
  5
7C36
330
19
100
AcDbEntity
  8
1
100
AcDbLine
 10
632.8514437920407
 20
1237.787525032624
 30
0.0
 11
632.8514437920407
 21
1197.787525032624
 31
0.0
  0
LINE
  5
7C37
330
19
100
AcDbEntity
  8
1
100
AcDbLine
 10
685.3514437920412
 20
1267.787525032624
 30
0.0
 11
675.3514437920407
 21
1237.787525032624
 31
0.0
  0
LINE
  5
7C3B
330
19
100
AcDbEntity
  8
1
100
AcDbLine
 10
721.3514437920411
 20
1197.787525032633
 30
0.0
 11
694.3514437920412
 21
1197.787525032633
 31
0.0
  0
LINE
  5
7C3C
330
19
100
AcDbEntity
  8
1
100
AcDbLine
 10
741.801018532552
 20
1273.357271868915
 30
0.0
 11
823.9018690515376
 21
1273.357271868915
 31
0.0
  0
LINE
  5
7C3D
330
19
100
AcDbEntity
  8
1
100
AcDbLine
 10
702.4906075657732
 20
1267.787525032624
 30
0.0
 11
713.5159283022767
 21
1298.618568446491
 31
0.0
  0
LINE
  5
7C3E
330
19
100
AcDbEntity
  8
1
100
AcDbLine
 10
705.3514437920412
 20
1267.787525032624
 30
0.0
 11
740.3514437920412
 21
1267.787525032624
 31
0.0
  0
LINE
  5
7C3F
330
19
100
AcDbEntity
  8
1
100
AcDbLine
 10
863.2122800183088
 20
1267.787525032624
 30
0.0
 11
852.1869592818056
 21
1298.618568446491
 31
0.0
  0
LINE
  5
7C40
330
19
100
AcDbEntity
  8
1
100
AcDbLine
 10
860.3514437920411
 20
1267.787525032624
 30
0.0
 11
825.3514437920411
 21
1267.787525032624
 31
0.0
  0
LINE
  5
7C41
330
19
100
AcDbEntity
  8
1
100
AcDbLine
 10
890.3514437920412
 20
1237.787525032624
 30
0.0
 11
880.3514437920412
 21
1267.787525032624
 31
0.0
  0
LINE
  5
7C42
330
19
100
AcDbEntity
  8
1
100
AcDbLine
 10
1298.051443792041
 20
1461.487525032624
 30
0.0
 11
1298.051443792041
 21
1237.787525032625
 31
0.0
  0
LINE
  5
7C43
330
19
100
AcDbEntity
  8
1
100
AcDbLine
 10
967.6514437920413
 20
1461.487525032625
 30
0.0
 11
967.6514437920413
 21
1237.787525032625
 31
0.0
  0
ARC
  5
7C44
330
19
100
AcDbEntity
  8
1
100
AcDbCircle
 10
1121.851443792041
 20
1506.787525032625
 30
0.0
 40
166.0
100
AcDbArc
 50
284.1851355981358
 51
17.41178377047871
  0
LINE
  5
7C45
330
19
100
AcDbEntity
  8
1
100
AcDbLine
 10
1332.851443792041
 20
1237.787525032624
 30
0.0
 11
1332.851443792041
 21
1197.787525032624
 31
0.0
  0
LINE
  5
7C48
330
19
100
AcDbEntity
  8
1
100
AcDbLine
 10
1271.35144379204
 20
1197.787525032639
 30
0.0
 11
1244.35144379204
 21
1197.787525032639
 31
0.0
  0
LINE
  5
7C49
330
19
100
AcDbEntity
  8
1
100
AcDbLine
 10
962.6514437920414
 20
1461.487525032625
 30
0.0
 11
1303.051443792041
 21
1461.487525032624
 31
0.0
  0
LINE
  5
7C4A
330
19
100
AcDbEntity
  8
1
100
AcDbLine
 10
962.6514437920414
 20
1463.787525032625
 30
0.0
 11
1303.051443792041
 21
1463.787525032624
 31
0.0
  0
CIRCLE
  5
7C4B
330
19
100
AcDbEntity
  8
1
100
AcDbCircle
 10
1132.851443792041
 20
1517.787525032625
 30
0.0
 40
69.85400903913341
  0
LINE
  5
7C4C
330
19
100
AcDbEntity
  8
1
100
AcDbLine
 10
1032.851443792041
 20
1464.187525032624
 30
0.0
 11
1232.85144379204
 21
1464.187525032624
 31
0.0
  0
LINE
  5
7C4D
330
19
100
AcDbEntity
  8
1
100
AcDbLine
 10
978.6514437920414
 20
1568.787525032624
 30
0.0
 11
978.6514437920414
 21
1463.787525032625
 31
0.0
  0
LINE
  5
7C4E
330
19
100
AcDbEntity
  8
1
100
AcDbLine
 10
972.6514437920414
 20
1568.787525032624
 30
0.0
 11
972.6514437920414
 21
1463.787525032625
 31
0.0
  0
LINE
  5
7C4F
330
19
100
AcDbEntity
  8
1
100
AcDbLine
 10
962.6514437920414
 20
1463.787525032625
 30
0.0
 11
962.6514437920414
 21
1461.487525032625
 31
0.0
  0
LINE
  5
7C50
330
19
100
AcDbEntity
  8
1
100
AcDbLine
 10
978.6514437920414
 20
1568.787525032625
 30
0.0
 11
972.6514437920414
 21
1568.787525032625
 31
0.0
  0
LINE
  5
7C51
330
19
100
AcDbEntity
  8
1
100
AcDbLine
 10
1287.051443792041
 20
1568.787525032625
 30
0.0
 11
1287.051443792041
 21
1463.787525032624
 31
0.0
  0
LINE
  5
7C52
330
19
100
AcDbEntity
  8
1
100
AcDbLine
 10
1293.051443792041
 20
1568.787525032624
 30
0.0
 11
1293.051443792041
 21
1463.787525032624
 31
0.0
  0
LINE
  5
7C53
330
19
100
AcDbEntity
  8
1
100
AcDbLine
 10
1303.051443792041
 20
1463.787525032624
 30
0.0
 11
1303.051443792041
 21
1461.487525032624
 31
0.0
  0
LINE
  5
7C54
330
19
100
AcDbEntity
  8
1
100
AcDbLine
 10
1287.607288334548
 20
1515.787525032625
 30
0.0
 11
1332.851443792041
 21
1515.787525032625
 31
0.0
  0
LINE
  5
7C55
330
19
100
AcDbEntity
  8
1
100
AcDbLine
 10
1307.851443792041
 20
1488.787525032624
 30
0.0
 11
1332.851443792041
 21
1488.787525032624
 31
0.0
  0
LINE
  5
7C56
330
19
100
AcDbEntity
  8
1
100
AcDbLine
 10
1287.051443792041
 20
1568.787525032625
 30
0.0
 11
1293.051443792041
 21
1568.787525032624
 31
0.0
  0
CIRCLE
  5
7C57
330
19
100
AcDbEntity
  8
1
100
AcDbCircle
 10
1277.584760873139
 20
1582.787525032625
 30
0.0
 40
8.0
  0
ARC
  5
7C58
330
19
100
AcDbEntity
  8
1
100
AcDbCircle
 10
1140.851443792041
 20
1509.787525032624
 30
0.0
 40
147.0
100
AcDbArc
 50
18.51215151182916
 51
28.09713310976582
  0
LINE
  5
7C59
330
19
100
AcDbEntity
  8
1
100
AcDbLine
 10
1147.6542691261
 20
1754.784282413405
 30
0.0
 11
1332.851443792041
 21
1755.787525032625
 31
0.0
  0
LINE
  5
7C5A
330
19
100
AcDbEntity
  8
1
100
AcDbLine
 10
1307.851443792041
 20
1782.787525032625
 30
0.0
 11
1332.851443792041
 21
1782.787525032625
 31
0.0
  0
DIMENSION
  5
7C5B
330
19
100
AcDbEntity
  8
3
100
AcDbDimension
280
     0
  2
*D2
 10
2722.32640243322
 20
1821.45548400703
 30
0.0
 11
2632.32640243322
 21
1855.206742963244
 31
0.0
 70
   160
 71
     5
 42
-1.0
 73
     0
 74
     0
 75
     0
  3
IGA
100
AcDbAlignedDimension
 13
2542.32640243322
 23
1755.764450133167
 33
0.0
 14
2722.32640243322
 24
1755.764450133167
 34
0.0
100
AcDbRotatedDimension
1001
ACAD
1000
DSTYLE
1002
{
1070
   288
1070
     1
1070
   172
1070
     1
1070
    40
1040
15.0
1070
   271
1070
     0
1070
   143
1040
0.039
1002
}
  0
LINE
  5
7C5C
330
19
100
AcDbEntity
  8
2
100
AcDbLine
 10
2090.053863285869
 20
1517.764450133167
 30
0.0
 11
2783.462163495471
 21
1517.764450133167
 31
0.0
  0
LINE
  5
7C5D
330
19
100
AcDbEntity
  8
1
100
AcDbLine
 10
2514.32640243322
 20
1488.764450133167
 30
0.0
 11
2750.326402433219
 21
1488.764450133167
 31
0.0
  0
LINE
  5
7C5E
330
19
100
AcDbEntity
  8
1
100
AcDbLine
 10
2542.32640243322
 20
1515.764450133167
 30
0.0
 11
2722.32640243322
 21
1515.764450133167
 31
0.0
  0
LINE
  5
7C5F
330
19
100
AcDbEntity
  8
1
100
AcDbLine
 10
2514.32640243322
 20
1783.764450133167
 30
0.0
 11
2750.326402433219
 21
1783.764450133167
 31
0.0
  0
LINE
  5
7C60
330
19
100
AcDbEntity
  8
1
100
AcDbLine
 10
2542.326402433218
 20
1340.764450133167
 30
0.0
 11
2722.326402433218
 21
1340.764450133167
 31
0.0
  0
LINE
  5
7C61
330
19
100
AcDbEntity
  8
1
100
AcDbLine
 10
2542.32640243322
 20
1755.764450133167
 30
0.0
 11
2722.32640243322
 21
1755.764450133167
 31
0.0
  0
LINE
  5
7C62
330
19
100
AcDbEntity
  8
2
100
AcDbLine
 10
2632.32640243322
 20
1816.11537800872
 30
0.0
 11
2632.326402433219
 21
1087.764450133167
 31
0.0
  0
LINE
  5
7C63
330
19
100
AcDbEntity
  8
1
100
AcDbLine
 10
2174.244202505494
 20
1563.346177345653
 30
0.0
 11
2174.244202505494
 21
1610.333155336412
 31
0.0
  0
LINE
  5
7C64
330
19
100
AcDbEntity
  8
1
100
AcDbLine
 10
2104.565337245313
 20
1273.010445240787
 30
0.0
 11
2104.565337245313
 21
1610.333155336412
 31
0.0
  0
LWPOLYLINE
  5
7C65
330
19
100
AcDbEntity
  8
1
100
AcDbPolyline
 90
        2
 70
     0
 43
0.0
 10
2542.32640243322
 20
1755.764450133167
 10
2542.32640243322
 20
1515.764450133167
  0
LINE
  5
7C69
330
19
100
AcDbEntity
  8
1
100
AcDbLine
 10
2201.326402433219
 20
1461.487525032624
 30
0.0
 11
2514.32640243322
 21
1461.487525032624
 31
0.0
  0
LINE
  5
7C6C
330
19
100
AcDbEntity
  8
1
100
AcDbLine
 10
2131.32640243322
 20
1197.764450133167
 30
0.0
 11
2576.326402433219
 21
1197.764450133167
 31
0.0
  0
LINE
  5
7C6D
330
19
100
AcDbEntity
  8
1
100
AcDbLine
 10
2131.326402433218
 20
1237.764450133167
 30
0.0
 11
2576.326402433219
 21
1237.764450133167
 31
0.0
  0
LINE
  5
7C6E
330
19
100
AcDbEntity
  8
1
100
AcDbLine
 10
2201.326402433219
 20
1463.764450133167
 30
0.0
 11
2514.32640243322
 21
1463.764450133167
 31
0.0
  0
LINE
  5
7C6F
330
19
100
AcDbEntity
  8
1
100
AcDbLine
 10
2122.368747752321
 20
1294.650797667407
 30
0.0
 11
2122.36874775232
 21
1447.910441094033
 31
0.0
  0
LINE
  5
7C70
330
19
100
AcDbEntity
  8
1
100
AcDbLine
 10
2157.975568766333
 20
1294.650797667407
 30
0.0
 11
2157.975568766333
 21
1447.910441094033
 31
0.0
  0
LINE
  5
7C71
330
19
100
AcDbEntity
  8
1
100
AcDbLine
 10
2206.32640243322
 20
1461.487525032624
 30
0.0
 11
2206.326402433219
 21
1237.764450133167
 31
0.0
  0
LINE
  5
7C72
330
19
100
AcDbEntity
  8
1
100
AcDbLine
 10
2104.565337245313
 20
1273.010445240787
 30
0.0
 11
2174.244202505494
 21
1273.010445240787
 31
0.0
  0
LINE
  5
7C73
330
19
100
AcDbEntity
  8
1
100
AcDbLine
 10
2122.36874775232
 20
1294.650797667407
 30
0.0
 11
2157.975568766333
 21
1294.650797667407
 31
0.0
  0
LINE
  5
7C74
330
19
100
AcDbEntity
  8
1
100
AcDbLine
 10
2174.244202505494
 20
1273.010445240787
 30
0.0
 11
2174.244202505494
 21
1338.111625847627
 31
0.0
  0
LINE
  5
7C75
330
19
100
AcDbEntity
  8
1
100
AcDbLine
 10
2157.975568766333
 20
1447.910441094033
 30
0.0
 11
2157.975568766333
 21
1587.618459172301
 31
0.0
  0
LINE
  5
7C76
330
19
100
AcDbEntity
  8
1
100
AcDbLine
 10
2122.36874775232
 20
1447.910441094033
 30
0.0
 11
2122.36874775232
 21
1587.618459172301
 31
0.0
  0
LINE
  5
7C77
330
19
100
AcDbEntity
  8
2
100
AcDbLine
 10
2318.660387741089
 20
1347.787525032625
 30
0.0
 11
2097.727747125095
 21
1347.787525032625
 31
0.0
  0
LINE
  5
7C78
330
19
100
AcDbEntity
  8
1
100
AcDbLine
 10
2122.36874775232
 20
1400.924252397842
 30
0.0
 11
2157.975568766333
 21
1400.924252397842
 31
0.0
  0
LINE
  5
7C79
330
19
100
AcDbEntity
  8
1
100
AcDbLine
 10
2122.36874775232
 20
1447.910441094033
 30
0.0
 11
2157.975568766333
 21
1447.910441094033
 31
0.0
  0
LINE
  5
7C7A
330
19
100
AcDbEntity
  8
1
100
AcDbLine
 10
2201.326402433219
 20
1463.764450133167
 30
0.0
 11
2201.32640243322
 21
1461.487525032624
 31
0.0
  0
LINE
  5
7C7B
330
19
100
AcDbEntity
  8
1
100
AcDbLine
 10
2122.36874775232
 20
1587.618459172301
 30
0.0
 11
2157.975568766333
 21
1587.618459172301
 31
0.0
  0
LINE
  5
7C7C
330
19
100
AcDbEntity
  8
1
100
AcDbLine
 10
2157.975568766333
 20
1505.764450133167
 30
0.0
 11
2172.32640243322
 21
1505.764450133167
 31
0.0
  0
LINE
  5
7C7D
330
19
100
AcDbEntity
  8
1
100
AcDbLine
 10
2157.975568766333
 20
1529.764450133167
 30
0.0
 11
2172.326402433219
 21
1529.764450133167
 31
0.0
  0
LINE
  5
7C7E
330
19
100
AcDbEntity
  8
1
100
AcDbLine
 10
2174.326402433219
 20
1535.264450133167
 30
0.0
 11
2514.32640243322
 21
1535.264450133167
 31
0.0
  0
LINE
  5
7C7F
330
19
100
AcDbEntity
  8
1
100
AcDbLine
 10
2174.326402433219
 20
1500.264450133167
 30
0.0
 11
2514.326402433221
 21
1500.264450133167
 31
0.0
  0
LINE
  5
7C80
330
19
100
AcDbEntity
  8
1
100
AcDbLine
 10
2174.326402433219
 20
1503.764450133167
 30
0.0
 11
2174.326402433219
 21
1500.264450133167
 31
0.0
  0
ARC
  5
7C81
330
19
100
AcDbEntity
  8
1
100
AcDbCircle
 10
2172.32640243322
 20
1503.764450133167
 30
0.0
 40
2.0
100
AcDbArc
 50
0.0000000000002036
 51
90.0
  0
ARC
  5
7C82
330
19
100
AcDbEntity
  8
1
100
AcDbCircle
 10
2172.326402433219
 20
1531.764450133167
 30
0.0
 40
2.0
100
AcDbArc
 50
270.0
 51
0.0
  0
LINE
  5
7C83
330
19
100
AcDbEntity
  8
1
100
AcDbLine
 10
2174.32640243322
 20
1535.264450133167
 30
0.0
 11
2174.326402433219
 21
1531.764450133167
 31
0.0
  0
LINE
  5
7C88
330
19
100
AcDbEntity
  8
1
100
AcDbLine
 10
2514.326402433218
 20
1568.787525032624
 30
0.0
 11
2542.32640243322
 21
1568.787525032624
 31
0.0
  0
LINE
  5
7C89
330
19
100
AcDbEntity
  8
1
100
AcDbLine
 10
2104.565337245313
 20
1610.333155336412
 30
0.0
 11
2174.244202505494
 21
1610.333155336412
 31
0.0
  0
LINE
  5
7C8A
330
19
100
AcDbEntity
  8
1
100
AcDbLine
 10
2751.32640243322
 20
1390.764450133167
 30
0.0
 11
2751.32640243322
 21
1644.764450133167
 31
0.0
  0
LINE
  5
7C8B
330
19
100
AcDbEntity
  8
1
100
AcDbLine
 10
2722.32640243322
 20
1673.764450133167
 30
0.0
 11
2722.32640243322
 21
1517.764450133167
 31
0.0
  0
LINE
  5
7C8C
330
19
100
AcDbEntity
  8
1
100
AcDbLine
 10
2750.326402433219
 20
1783.764450133167
 30
0.0
 11
2750.326402433219
 21
1488.764450133167
 31
0.0
  0
LINE
  5
7C8E
330
19
100
AcDbEntity
  8
1
100
AcDbLine
 10
2722.32640243322
 20
1755.764450133167
 30
0.0
 11
2722.32640243322
 21
1515.764450133167
 31
0.0
  0
LINE
  5
7C8F
330
19
100
AcDbEntity
  8
1
100
AcDbLine
 10
2722.326402433218
 20
1488.764450133167
 30
0.0
 11
2722.326402433218
 21
1340.764450133167
 31
0.0
  0
LINE
  5
7C91
330
19
100
AcDbEntity
  8
1
100
AcDbLine
 10
2726.32640243322
 20
1488.764450133167
 30
0.0
 11
2726.32640243322
 21
1361.764450133167
 31
0.0
  0
LWPOLYLINE
  5
7C92
330
19
100
AcDbEntity
  8
1
100
AcDbPolyline
 90
        9
 70
     1
 43
0.0
 10
2726.32640243322
 20
1390.764450133167
 10
2726.32640243322
 20
1365.764450133167
 10
2727.326402433221
 20
1365.764450133167
 42
0.4142135623730951
 10
2729.32640243322
 20
1367.764450133167
 10
2729.32640243322
 20
1383.764450133167
 42
-0.4142135623730951
 10
2733.32640243322
 20
1387.764450133167
 10
2749.32640243322
 20
1387.764450133167
 42
0.4142135623730951
 10
2751.32640243322
 20
1389.764450133167
 10
2751.32640243322
 20
1390.764450133167
  0
LINE
  5
7C9D
330
19
100
AcDbEntity
  8
1
100
AcDbLine
 10
2727.326402433219
 20
1390.764450133167
 30
0.0
 11
2749.32640243322
 21
1390.764450133167
 31
0.0
  0
LINE
  5
7C9E
330
19
100
AcDbEntity
  8
1
100
AcDbLine
 10
2722.326402433218
 20
1361.764450133167
 30
0.0
 11
2726.32640243322
 21
1361.764450133167
 31
0.0
  0
LINE
  5
7CA0
330
19
100
AcDbEntity
  8
2
100
AcDbLine
 10
1132.851443792041
 20
3138.688280902098
 30
0.0
 11
1132.851443792041
 21
2493.85807110638
 31
0.0
  0
LINE
  5
7CA2
330
19
100
AcDbEntity
  8
1
100
AcDbLine
 10
672.8514437920416
 20
2976.164303667439
 30
0.0
 11
672.8514437920412
 21
2531.16430366744
 31
0.0
  0
LINE
  5
7CA3
330
19
100
AcDbEntity
  8
1
100
AcDbLine
 10
1332.851443792041
 20
3147.164303667439
 30
0.0
 11
1332.851443792041
 21
2531.16430366744
 31
0.0
  0
LINE
  5
7CA4
330
19
100
AcDbEntity
  8
1
100
AcDbLine
 10
632.8514437920412
 20
2976.164303667439
 30
0.0
 11
632.8514437920416
 21
2531.16430366744
 31
0.0
  0
LINE
  5
7CA5
330
19
100
AcDbEntity
  8
1
100
AcDbLine
 10
672.8514437920412
 20
2579.66430366744
 30
0.0
 11
773.3514437920416
 21
2579.66430366744
 31
0.0
  0
LINE
  5
7CAC
330
19
100
AcDbEntity
  8
1
100
AcDbLine
 10
2131.32640243322
 20
1197.764450133167
 30
0.0
 11
2131.326402433218
 21
1237.764450133167
 31
0.0
  0
LINE
  5
7CAD
330
19
100
AcDbEntity
  8
1
100
AcDbLine
 10
2576.326402433219
 20
1197.764450133167
 30
0.0
 11
2576.326402433219
 21
1237.764450133167
 31
0.0
  0
LINE
  5
7CB4
330
19
100
AcDbEntity
  8
1
100
AcDbLine
 10
927.8514437920414
 20
2976.164303667439
 30
0.0
 11
632.8514437920412
 21
2976.164303667439
 31
0.0
  0
LINE
  5
7CB5
330
19
100
AcDbEntity
  8
1
100
AcDbLine
 10
1332.851443792041
 20
2531.16430366744
 30
0.0
 11
632.8514437920416
 21
2531.16430366744
 31
0.0
  0
DIMENSION
  5
7CB9
330
19
100
AcDbEntity
  8
3
100
AcDbDimension
280
     0
  2
*D3
 10
1332.851443792041
 20
2358.6090543795
 30
0.0
 11
982.8514437920414
 21
2358.6090543795
 31
0.0
 70
   160
 71
     5
 42
-1.0
 73
     0
 74
     0
 75
     0
  3
IGA
100
AcDbAlignedDimension
 13
632.8514437920416
 23
2531.16430366744
 33
0.0
 14
1332.851443792041
 24
2531.16430366744
 34
0.0
100
AcDbRotatedDimension
1001
ACAD
1000
DSTYLE
1002
{
1070
    40
1040
15.0
1070
   143
1040
0.039
1070
   172
1070
     1
1070
   271
1070
     0
1070
   279
1070
     0
1070
   288
1070
     1
1002
}
  0
LINE
  5
7CBA
330
19
100
AcDbEntity
  8
2
100
AcDbLine
 10
1344.903638205758
 20
3032.164303667439
 30
0.0
 11
914.8202494111828
 21
3032.164303667439
 31
0.0
  0
LWPOLYLINE
  5
7CBB
330
19
100
AcDbEntity
  8
1
100
AcDbPolyline
 90
        2
 70
     0
 43
0.0
 10
2514.326402433218
 20
1783.764450133167
 10
2514.326402433221
 20
1488.764450133167
  0
LINE
  5
7CBF
330
19
100
AcDbEntity
  8
1
100
AcDbLine
 10
2514.326402433218
 20
1318.787525032624
 30
0.0
 11
2542.326402433218
 21
1318.787525032625
 31
0.0
  0
LWPOLYLINE
  5
7CC0
330
19
100
AcDbEntity
  8
1
100
AcDbPolyline
 90
        2
 70
     0
 43
0.0
 10
2514.32640243322
 20
1488.764450133167
 10
2514.32640243322
 20
1318.787525032624
  0
ARC
  5
7CC4
330
19
100
AcDbEntity
  8
1
100
AcDbCircle
 10
2749.32640243322
 20
1645.764450133167
 30
0.0
 40
2.0
100
AcDbArc
 50
0.0
 51
60.00000000002852
  0
LINE
  5
7CC5
330
19
100
AcDbEntity
  8
1
100
AcDbLine
 10
2751.32640243322
 20
1645.764450133167
 30
0.0
 11
2751.32640243322
 21
1644.764450133167
 31
0.0
  0
LINE
  5
7CC6
330
19
100
AcDbEntity
  8
1
100
AcDbLine
 10
2751.32640243322
 20
1644.764450133167
 30
0.0
 11
2750.326402433219
 21
1644.764450133167
 31
0.0
  0
LINE
  5
7CCB
330
19
100
AcDbEntity
  8
1
100
AcDbLine
 10
2185.172158259327
 20
1314.287525032624
 30
0.0
 11
2185.172158259327
 21
1381.287525032625
 31
0.0
  0
LINE
  5
7CCC
330
19
100
AcDbEntity
  8
1
100
AcDbLine
 10
2195.172158259326
 20
1269.787525032624
 30
0.0
 11
2195.172158259326
 21
1422.587513032624
 31
0.0
  0
LINE
  5
7CCD
330
19
100
AcDbEntity
  8
1
100
AcDbLine
 10
2195.172158259326
 20
1269.787525032624
 30
0.0
 11
2206.32640243322
 21
1269.787525032624
 31
0.0
  0
LINE
  5
7CCE
330
19
100
AcDbEntity
  8
1
100
AcDbLine
 10
2195.172158259326
 20
1314.287525032624
 30
0.0
 11
2185.172158259327
 21
1314.287525032624
 31
0.0
  0
LINE
  5
7CCF
330
19
100
AcDbEntity
  8
1
100
AcDbLine
 10
2195.172158259326
 20
1317.852528032624
 30
0.0
 11
2195.172158259326
 21
1309.222523032624
 31
0.0
  0
LINE
  5
7CD0
330
19
100
AcDbEntity
  8
1
100
AcDbLine
 10
2195.172158259326
 20
1320.037586032624
 30
0.0
 11
2195.172158259326
 21
1307.773652032625
 31
0.0
  0
LINE
  5
7CD1
330
19
100
AcDbEntity
  8
1
100
AcDbLine
 10
2195.172158259326
 20
1309.103321032625
 30
0.0
 11
2195.172158259326
 21
1318.103321032625
 31
0.0
  0
LINE
  5
7CD2
330
19
100
AcDbEntity
  8
1
100
AcDbLine
 10
2180.172158259326
 20
1357.287525032625
 30
0.0
 11
2157.975568766333
 21
1357.287525032625
 31
0.0
  0
LINE
  5
7CD3
330
19
100
AcDbEntity
  8
1
100
AcDbLine
 10
2157.975568766333
 20
1338.287525032624
 30
0.0
 11
2180.172158259326
 21
1338.287525032624
 31
0.0
  0
LINE
  5
7CD4
330
19
100
AcDbEntity
  8
1
100
AcDbLine
 10
2180.172158259326
 20
1358.287525032624
 30
0.0
 11
2185.172158259327
 21
1358.287525032624
 31
0.0
  0
LINE
  5
7CD5
330
19
100
AcDbEntity
  8
1
100
AcDbLine
 10
2180.172158259326
 20
1337.287525032625
 30
0.0
 11
2185.172158259327
 21
1337.287525032625
 31
0.0
  0
LINE
  5
7CD6
330
19
100
AcDbEntity
  8
1
100
AcDbLine
 10
2180.172158259326
 20
1337.287525032625
 30
0.0
 11
2180.172158259326
 21
1358.287525032624
 31
0.0
  0
LINE
  5
7CD7
330
19
100
AcDbEntity
  8
1
100
AcDbLine
 10
2206.32640243322
 20
1422.587513032624
 30
0.0
 11
2195.172158259326
 21
1422.587513032624
 31
0.0
  0
LINE
  5
7CD8
330
19
100
AcDbEntity
  8
1
100
AcDbLine
 10
2185.172158259327
 20
1381.287525032625
 30
0.0
 11
2195.172158259326
 21
1381.287525032625
 31
0.0
  0
LINE
  5
7CD9
330
19
100
AcDbEntity
  8
1
100
AcDbLine
 10
2195.172158259326
 20
1420.602528032624
 30
0.0
 11
2195.172158259326
 21
1411.972523032624
 31
0.0
  0
LINE
  5
7CDA
330
19
100
AcDbEntity
  8
1
100
AcDbLine
 10
2195.172158259326
 20
1411.853321032625
 30
0.0
 11
2195.172158259326
 21
1420.853321032625
 31
0.0
  0
DIMENSION
  5
7CDB
330
19
100
AcDbEntity
  8
3
100
AcDbDimension
280
     0
  2
*D4
 10
1466.141205869202
 20
1515.787525032625
 30
0.0
 11
1428.641205869202
 21
1635.787525032625
 31
0.0
 70
    32
 71
     5
 42
-1.0
 73
     0
 74
     0
 75
     0
  3
IGA
100
AcDbAlignedDimension
 13
1332.851443792041
 23
1755.787525032625
 33
0.0
 14
1332.851443792041
 24
1515.787525032625
 34
0.0
 50
90.0
100
AcDbRotatedDimension
1001
ACAD
1000
DSTYLE
1002
{
1070
    40
1040
15.0
1070
   143
1040
0.039
1070
   172
1070
     1
1070
   271
1070
     0
1070
   279
1070
     0
1070
   288
1070
     1
1002
}
  0
DIMENSION
  5
7CDC
330
19
100
AcDbEntity
  8
3
100
AcDbDimension
280
     0
  2
*D5
 10
1561.95417925734
 20
1517.787525032625
 30
0.0
 11
1524.45417925734
 21
1636.787525032625
 31
0.0
 70
    32
 71
     5
 42
-1.0
 73
     0
 74
     0
 75
     0
  3
IGA
100
AcDbAlignedDimension
 13
1332.851443792041
 23
1755.787525032625
 33
0.0
 14
1383.494423867261
 24
1517.787525032625
 34
0.0
 50
90.0
100
AcDbRotatedDimension
1001
ACAD
1000
DSTYLE
1002
{
1070
    40
1040
15.0
1070
   143
1040
0.039
1070
   172
1070
     1
1070
   271
1070
     0
1070
   279
1070
     0
1070
   288
1070
     1
1002
}
  0
DIMENSION
  5
7CDD
330
19
100
AcDbEntity
  8
3
100
AcDbDimension
280
     0
  2
*D6
 10
1561.95417925734
 20
1197.787525032624
 30
0.0
 11
1524.45417925734
 21
1357.787525032625
 31
0.0
 70
    32
 71
     5
 42
-1.0
 73
     0
 74
     0
 75
     0
  3
IGA
100
AcDbAlignedDimension
 13
1383.494423867261
 23
1517.787525032625
 33
0.0
 14
1332.851443792041
 24
1197.787525032624
 34
0.0
 50
90.0
100
AcDbRotatedDimension
1001
ACAD
1000
DSTYLE
1002
{
1070
    40
1040
15.0
1070
   143
1040
0.039
1070
   172
1070
     1
1070
   271
1070
     0
1070
   279
1070
     0
1070
   288
1070
     1
1002
}
  0
DIMENSION
  5
7CE0
330
19
100
AcDbEntity
  8
3
100
AcDbDimension
280
     0
  2
*D7
 10
2632.32640243322
 20
1933.439141591771
 30
0.0
 11
2678.82640243322
 21
1993.439141591771
 31
0.0
 70
    32
  1
94
 71
     5
 42
-1.0
 73
     0
 74
     0
 75
     0
  3
IGA
100
AcDbAlignedDimension
 13
2725.326402433219
 23
1488.363165962146
 33
0.0
 14
2632.32640243322
 24
1879.117880241438
 34
0.0
100
AcDbRotatedDimension
1001
ACAD
1000
DSTYLE
1002
{
1070
   288
1070
     1
1070
   172
1070
     1
1070
    40
1040
15.0
1070
   271
1070
     0
1070
   143
1040
0.039
1002
}
  0
DIMENSION
  5
7CE1
330
19
100
AcDbEntity
  8
3
100
AcDbDimension
280
     0
  2
*D8
 10
2104.565337245313
 20
1933.439141591771
 30
0.0
 11
2368.445869839266
 21
2020.224855877485
 31
0.0
 70
    32
  1
\P(600)
 71
     5
 42
527.7610651879058
 73
     0
 74
     0
 75
     0
  3
IGA
100
AcDbAlignedDimension
 13
2632.32640243322
 23
1879.117880241438
 33
0.0
 14
2104.565337245313
 24
1610.333155336412
 34
0.0
100
AcDbRotatedDimension
1001
ACAD
1000
DSTYLE
1002
{
1070
    40
1040
15.0
1070
   143
1040
0.039
1070
   172
1070
     1
1070
   271
1070
     0
1070
   279
1070
     0
1070
   288
1070
     1
1002
}
  0
DIMENSION
  5
7CE2
330
19
100
AcDbEntity
  8
3
100
AcDbDimension
280
     0
  2
*D9
 10
1132.851443792041
 20
1882.514709882272
 30
0.0
 11
1232.851443792041
 21
1918.344772210897
 31
0.0
 70
   160
 71
     5
 42
-1.0
 73
     0
 74
     0
 75
     0
  3
IGA
100
AcDbAlignedDimension
 13
1332.851443792041
 23
1782.787525032625
 33
0.0
 14
1132.851443792041
 24
1792.747538062116
 34
0.0
100
AcDbRotatedDimension
1001
ACAD
1000
DSTYLE
1002
{
1070
   288
1070
     1
1070
   172
1070
     1
1070
    40
1040
15.0
1070
   271
1070
     0
1070
   143
1040
0.039
1002
}
  0
DIMENSION
  5
7CE3
330
19
100
AcDbEntity
  8
3
100
AcDbDimension
280
     0
  2
*D10
 10
927.8514437920403
 20
1882.514709882272
 30
0.0
 11
1030.35144379204
 21
1921.671274551582
 31
0.0
 70
   160
 71
     5
 42
-1.0
 73
     0
 74
     0
 75
     0
  3
IGA
100
AcDbAlignedDimension
 13
1132.851443792041
 23
1792.747538062116
 33
0.0
 14
927.8514437920403
 24
1531.787525032625
 34
0.0
100
AcDbRotatedDimension
1001
ACAD
1000
DSTYLE
1002
{
1070
   288
1070
     1
1070
   172
1070
     1
1070
    40
1040
15.0
1070
   271
1070
     0
1070
   143
1040
0.039
1002
}
  0
DIMENSION
  5
7CE4
330
19
100
AcDbEntity
  8
3
100
AcDbDimension
280
     0
  2
*D11
 10
632.8514437920407
 20
1985.090079776641
 30
0.0
 11
982.8514437920409
 21
2022.590079776642
 31
0.0
 70
    32
 71
     5
 42
-1.0
 73
     0
 74
     0
 75
     0
  3
IGA
100
AcDbAlignedDimension
 13
1332.851443792041
 23
1782.787525032625
 33
0.0
 14
632.8514437920407
 24
1237.787525032624
 34
0.0
100
AcDbRotatedDimension
1001
ACAD
1000
DSTYLE
1002
{
1070
    40
1040
15.0
1070
   143
1040
0.039
1070
   172
1070
     1
1070
   271
1070
     0
1070
   279
1070
     0
1070
   288
1070
     1
1002
}
  0
LINE
  5
7CE5
330
19
100
AcDbEntity
  8
1
100
AcDbLine
 10
2722.32640243322
 20
1755.764450133167
 30
0.0
 11
2542.32640243322
 21
1515.764450133167
 31
0.0
  0
LINE
  5
7CE6
330
19
100
AcDbEntity
  8
1
100
AcDbLine
 10
2542.32640243322
 20
1755.764450133167
 30
0.0
 11
2722.32640243322
 21
1515.764450133167
 31
0.0
  0
LINE
  5
7CE7
330
19
100
AcDbEntity
  8
1
100
AcDbLine
 10
1307.851443792041
 20
3122.16430366744
 30
0.0
 11
927.8514437920412
 21
3122.16430366744
 31
0.0
  0
LINE
  5
7CE8
330
19
100
AcDbEntity
  8
1
100
AcDbLine
 10
1307.85144379204
 20
2942.164303667439
 30
0.0
 11
927.8514437920412
 21
2942.164303667439
 31
0.0
  0
LINE
  5
7CE9
330
19
100
AcDbEntity
  8
1
100
AcDbLine
 10
927.8514437920417
 20
3122.16430366744
 30
0.0
 11
927.8514437920412
 21
2942.164303667439
 31
0.0
  0
LINE
  5
7CEA
330
19
100
AcDbEntity
  8
1
100
AcDbLine
 10
1307.851443792041
 20
3147.16430366744
 30
0.0
 11
1307.85144379204
 21
2917.16430366744
 31
0.0
  0
LINE
  5
7CEB
330
19
100
AcDbEntity
  8
1
100
AcDbLine
 10
1332.85144379204
 20
3147.16430366744
 30
0.0
 11
1307.85144379204
 21
3147.16430366744
 31
0.0
  0
LINE
  5
7CEC
330
19
100
AcDbEntity
  8
1
100
AcDbLine
 10
1332.85144379204
 20
2917.16430366744
 30
0.0
 11
1307.85144379204
 21
2917.16430366744
 31
0.0
  0
LINE
  5
7CED
330
19
100
AcDbEntity
  8
1
100
AcDbLine
 10
1292.851443792041
 20
2579.664303667439
 30
0.0
 11
1292.851443792041
 21
2531.16430366744
 31
0.0
  0
LINE
  5
7D0A
330
19
100
AcDbEntity
  8
1
100
AcDbLine
 10
857.6514317920418
 20
2812.664303667439
 30
0.0
 11
704.8514437920411
 21
2812.664303667439
 31
0.0
  0
LINE
  5
7D0B
330
19
100
AcDbEntity
  8
1
100
AcDbLine
 10
704.8514437920417
 20
2595.010059493547
 30
0.0
 11
704.8514437920411
 21
2812.664303667439
 31
0.0
  0
LINE
  5
7D0C
330
19
100
AcDbEntity
  8
1
100
AcDbLine
 10
857.6514317920418
 20
2812.664303667439
 30
0.0
 11
857.6514317920409
 21
2595.010059493547
 31
0.0
  0
LINE
  5
7D0D
330
19
100
AcDbEntity
  8
1
100
AcDbLine
 10
773.3514437920416
 20
2557.813470000553
 30
0.0
 11
773.3514437920412
 21
2579.664303667439
 31
0.0
  0
LINE
  5
7D0E
330
19
100
AcDbEntity
  8
1
100
AcDbLine
 10
792.3514437920411
 20
2579.664303667439
 30
0.0
 11
792.3514437920411
 21
2557.813470000553
 31
0.0
  0
LINE
  5
7D0F
330
19
100
AcDbEntity
  8
1
100
AcDbLine
 10
772.3514437920412
 20
2579.664303667439
 30
0.0
 11
773.3514437920421
 21
2579.664303667439
 31
0.0
  0
LINE
  5
7D10
330
19
100
AcDbEntity
  8
1
100
AcDbLine
 10
749.3514437920412
 20
2594.664303667439
 30
0.0
 11
749.3514437920412
 21
2585.010059493547
 31
0.0
  0
LINE
  5
7D11
330
19
100
AcDbEntity
  8
1
100
AcDbLine
 10
772.3514437920412
 20
2579.664303667439
 30
0.0
 11
772.3514437920412
 21
2584.664303667439
 31
0.0
  0
LINE
  5
7D12
330
19
100
AcDbEntity
  8
1
100
AcDbLine
 10
793.3514437920412
 20
2579.664303667439
 30
0.0
 11
793.3514437920412
 21
2584.664303667439
 31
0.0
  0
LINE
  5
7D13
330
19
100
AcDbEntity
  8
1
100
AcDbLine
 10
816.3514437920412
 20
2585.010059493547
 30
0.0
 11
816.3514437920412
 21
2594.664303667439
 31
0.0
  0
LINE
  5
7D14
330
19
100
AcDbEntity
  8
1
100
AcDbLine
 10
708.0743640002038
 20
2504.403238479534
 30
0.0
 11
1225.420148995286
 21
2504.403238479534
 31
0.0
  0
LINE
  5
7D15
330
19
100
AcDbEntity
  8
1
100
AcDbLine
 10
773.3514437920412
 20
2557.813470000553
 30
0.0
 11
773.3514437920412
 21
2580.010059493547
 31
0.0
  0
LINE
  5
7D16
330
19
100
AcDbEntity
  8
1
100
AcDbLine
 10
792.3514437920411
 20
2580.010059493547
 30
0.0
 11
792.3514437920421
 21
2557.813470000553
 31
0.0
  0
LINE
  5
7D17
330
19
100
AcDbEntity
  8
2
100
AcDbLine
 10
782.8514437920412
 20
2828.802913481758
 30
0.0
 11
782.8514437920412
 21
2497.565648359316
 31
0.0
  0
LINE
  5
7D18
330
19
100
AcDbEntity
  8
1
100
AcDbLine
 10
708.0743640002038
 20
2504.403238479534
 30
0.0
 11
708.0743640002046
 21
2574.082103739715
 31
0.0
  0
LINE
  5
7D19
330
19
100
AcDbEntity
  8
1
100
AcDbLine
 10
729.7147164268245
 20
2557.813470000553
 30
0.0
 11
835.9881711572594
 21
2557.813470000553
 31
0.0
  0
LINE
  5
7D1A
330
19
100
AcDbEntity
  8
1
100
AcDbLine
 10
729.7147164268245
 20
2522.206648986542
 30
0.0
 11
835.9881711572594
 21
2522.206648986541
 31
0.0
  0
LINE
  5
7D1B
330
19
100
AcDbEntity
  8
1
100
AcDbLine
 10
729.7147164268235
 20
2522.20664898654
 30
0.0
 11
729.7147164268235
 21
2557.813470000553
 31
0.0
  0
LINE
  5
7D1C
330
19
100
AcDbEntity
  8
1
100
AcDbLine
 10
835.9881711572588
 20
2522.20664898654
 30
0.0
 11
835.9881711572588
 21
2557.813470000553
 31
0.0
  0
LINE
  5
7D1D
330
19
100
AcDbEntity
  8
1
100
AcDbLine
 10
772.3514437920412
 20
2580.010059493547
 30
0.0
 11
793.3514437920412
 21
2580.010059493547
 31
0.0
  0
LINE
  5
7D1E
330
19
100
AcDbEntity
  8
1
100
AcDbLine
 10
704.8514437920411
 20
2595.010059493547
 30
0.0
 11
857.6514317920418
 21
2595.010059493547
 31
0.0
  0
LINE
  5
7D1F
330
19
100
AcDbEntity
  8
1
100
AcDbLine
 10
749.3514437920412
 20
2585.010059493547
 30
0.0
 11
816.3514437920412
 21
2585.010059493547
 31
0.0
  0
LINE
  5
7D20
330
19
100
AcDbEntity
  8
1
100
AcDbLine
 10
708.0743640002046
 20
2574.082103739715
 30
0.0
 11
1225.420148995286
 21
2574.082103739715
 31
0.0
  0
LINE
  5
7D21
330
19
100
AcDbEntity
  8
1
100
AcDbLine
 10
704.8514437920411
 20
2595.010059493547
 30
0.0
 11
704.8514437920411
 21
2606.164303667441
 31
0.0
  0
LINE
  5
7D22
330
19
100
AcDbEntity
  8
1
100
AcDbLine
 10
772.3514437920412
 20
2580.010059493547
 30
0.0
 11
772.3514437920412
 21
2585.010059493547
 31
0.0
  0
LINE
  5
7D23
330
19
100
AcDbEntity
  8
1
100
AcDbLine
 10
744.1672397920419
 20
2595.010059493547
 30
0.0
 11
753.1672397920419
 21
2595.010059493547
 31
0.0
  0
LINE
  5
7D24
330
19
100
AcDbEntity
  8
1
100
AcDbLine
 10
755.1015047920418
 20
2595.010059493547
 30
0.0
 11
742.8375707920413
 21
2595.010059493547
 31
0.0
  0
LINE
  5
7D25
330
19
100
AcDbEntity
  8
1
100
AcDbLine
 10
752.9164467920418
 20
2595.010059493547
 30
0.0
 11
744.2864417920418
 21
2595.010059493547
 31
0.0
  0
LINE
  5
7D26
330
19
100
AcDbEntity
  8
1
100
AcDbLine
 10
749.3514437920412
 20
2595.010059493547
 30
0.0
 11
749.3514437920412
 21
2585.010059493547
 31
0.0
  0
LINE
  5
7D27
330
19
100
AcDbEntity
  8
1
100
AcDbLine
 10
816.3514437920412
 20
2585.010059493547
 30
0.0
 11
816.3514437920412
 21
2595.010059493547
 31
0.0
  0
LINE
  5
7D28
330
19
100
AcDbEntity
  8
1
100
AcDbLine
 10
793.3514437920412
 20
2580.010059493547
 30
0.0
 11
793.3514437920412
 21
2585.010059493547
 31
0.0
  0
LINE
  5
7D29
330
19
100
AcDbEntity
  8
1
100
AcDbLine
 10
846.917239792042
 20
2595.010059493547
 30
0.0
 11
855.917239792042
 21
2595.010059493547
 31
0.0
  0
LINE
  5
7D2A
330
19
100
AcDbEntity
  8
1
100
AcDbLine
 10
855.6664467920418
 20
2595.010059493547
 30
0.0
 11
847.0364417920418
 21
2595.010059493547
 31
0.0
  0
LINE
  5
7D2B
330
19
100
AcDbEntity
  8
1
100
AcDbLine
 10
857.6514317920418
 20
2606.164303667441
 30
0.0
 11
857.6514317920418
 21
2595.010059493547
 31
0.0
  0
LINE
  5
7D2C
330
19
100
AcDbEntity
  8
1
100
AcDbLine
 10
1225.420148995286
 20
2504.403238479534
 30
0.0
 11
1225.420148995286
 21
2574.082103739715
 31
0.0
  0
LINE
  5
7D2D
330
19
100
AcDbEntity
  8
1
100
AcDbLine
 10
1062.997434752907
 20
2522.20664898654
 30
0.0
 11
1202.705452831174
 21
2522.20664898654
 31
0.0
  0
LINE
  5
7D2E
330
19
100
AcDbEntity
  8
1
100
AcDbLine
 10
1062.997434752907
 20
2557.813470000553
 30
0.0
 11
1202.705452831174
 21
2557.813470000553
 31
0.0
  0
LINE
  5
7D2F
330
19
100
AcDbEntity
  8
1
100
AcDbLine
 10
1202.705452831174
 20
2522.20664898654
 30
0.0
 11
1202.705452831174
 21
2557.813470000553
 31
0.0
  0
LINE
  5
7D31
330
19
100
AcDbEntity
  8
1
100
AcDbLine
 10
1062.997434752908
 20
2522.20664898654
 30
0.0
 11
1062.997434752908
 21
2557.813470000553
 31
0.0
  0
LINE
  5
7D32
330
19
100
AcDbEntity
  8
1
100
AcDbLine
 10
792.3514437920411
 20
2579.66430366744
 30
0.0
 11
1302.851443792041
 21
2579.66430366744
 31
0.0
  0
LINE
  5
7D33
330
19
100
AcDbEntity
  8
1
100
AcDbLine
 10
792.3514437920411
 20
2579.664303667439
 30
0.0
 11
793.3514437920412
 21
2579.664303667439
 31
0.0
  0
LINE
  5
7D34
330
19
100
AcDbEntity
  8
1
100
AcDbLine
 10
1302.851443792042
 20
2942.164303667439
 30
0.0
 11
1302.851443792042
 21
2579.66430366744
 31
0.0
  0
LINE
  5
7D35
330
19
100
AcDbEntity
  8
1
100
AcDbLine
 10
962.8514437920417
 20
2942.164303667439
 30
0.0
 11
962.8514437920417
 21
2579.66430366744
 31
0.0
  0
LINE
  5
7D37
330
19
100
AcDbEntity
  8
1
100
AcDbLine
 10
1150.351443792041
 20
2942.164303667439
 30
0.0
 11
1150.351443792041
 21
2579.66430366744
 31
0.0
  0
LINE
  5
7D38
330
19
100
AcDbEntity
  8
1
100
AcDbLine
 10
1115.35144379204
 20
2942.164303667439
 30
0.0
 11
1115.351443792041
 21
2579.66430366744
 31
0.0
  0
LWPOLYLINE
  5
7D39
330
19
100
AcDbEntity
  8
1
100
AcDbPolyline
 90
        2
 70
     0
 43
0.0
 10
2542.32640243322
 20
1488.764450133167
 10
2542.326402433218
 20
1237.764450133167
  0
LINE
  5
7F06
330
19
100
AcDbEntity
  8
4
100
AcDbLine
 10
2775.0
 20
750.0
 30
0.0
 11
2775.0
 21
450.0
 31
0.0
  0
LINE
  5
7F07
330
19
100
AcDbEntity
  8
4
100
AcDbLine
 10
1725.0
 20
750.0
 30
0.0
 11
1725.0
 21
450.0
 31
0.0
  0
LINE
  5
7F08
330
19
100
AcDbEntity
  8
4
100
AcDbLine
 10
975.0
 20
750.0
 30
0.0
 11
975.0
 21
450.0
 31
0.0
  0
LINE
  5
7F0B
330
19
100
AcDbEntity
  8
4
100
AcDbLine
 10
975.0
 20
450.0
 30
0.0
 11
2775.0
 21
450.0
 31
0.0
  0
LINE
  5
7F0C
330
19
100
AcDbEntity
  8
4
100
AcDbLine
 10
975.0
 20
600.0
 30
0.0
 11
2775.0
 21
600.0
 31
0.0
  0
TEXT
  5
7F0D
330
19
100
AcDbEntity
  8
4
100
AcDbText
 10
1032.753121270352
 20
647.3145387999193
 30
0.0
 40
75.0
  1
機器名称
100
AcDbText
  0
TEXT
  5
7F0E
330
19
100
AcDbEntity
  8
4
100
AcDbText
 10
1029.387159037196
 20
482.4677350980164
 30
0.0
 40
75.0
  1
機器型番
100
AcDbText
  0
TEXT
  5
7F0F
330
19
100
AcDbEntity
  8
4
100
AcDbText
 10
1766.518118231497
 20
633.8576534363528
 30
0.0
 40
75.0
  1
ミツヤ多翼送風機
100
AcDbText
  0
TEXT
  5
7F10
330
19
100
AcDbEntity
  8
4
100
AcDbText
 10
1779.981743378221
 20
475.739376419915
 30
0.0
 40
75.0
  1
MF#1 1/2-1
100
AcDbText
  0
TEXT
  5
7F12
330
19
100
AcDbEntity
  8
4
100
AcDbText
 10
1139.234459196199
 20
3575.143261998774
 30
0.0
 40
80.99999999999999
  1
床置防振ベット
100
AcDbText
  0
TEXT
  5
7F13
330
19
100
AcDbEntity
  8
4
100
AcDbText
 10
474.2513899941696
 20
3800.821464298947
 30
0.0
 40
108.0
  1
遠心式片吸込片持多翼ファン
100
AcDbText
  0
LINE
  5
7F14
330
19
100
AcDbEntity
  8
4
100
AcDbLine
 10
375.0
 20
3704.113131397207
 30
0.0
 11
2775.0
 21
3704.113131397207
 31
0.0
  0
LINE
  5
7F15
330
19
100
AcDbEntity
  8
4
100
AcDbLine
 10
375.0
 20
4004.113131397207
 30
0.0
 11
2775.0
 21
4004.113131397207
 31
0.0
  0
LINE
  5
7F16
330
19
100
AcDbEntity
  8
4
100
AcDbLine
 10
975.0
 20
750.0
 30
0.0
 11
2775.0
 21
750.0
 31
0.0
  0
LINE
  5
7F17
330
19
100
AcDbEntity
  8
4
100
AcDbLine
 10
375.0
 20
4004.113131397207
 30
0.0
 11
375.0
 21
3704.113131397207
 31
0.0
  0
TEXT
  5
7F18
330
19
100
AcDbEntity
  8
4
100
AcDbText
 10
485.4462108321459
 20
3573.479216319515
 30
0.0
 40
80.99999999999999
  1
右回転右横向
100
AcDbText
  0
TEXT
  5
7F19
330
19
100
AcDbEntity
  8
4
100
AcDbText
 10
2203.454338873935
 20
4059.091622242963
 30
0.0
 40
84.00000000000002
  1
No.
100
AcDbText
  0
TEXT
  5
7F1A
330
19
100
AcDbEntity
  8
4
100
AcDbText
 10
1966.94409390002
 20
3575.143261998774
 30
0.0
 40
80.99999999999999
  1
縮尺：1/15
100
AcDbText
  0
LINE
  5
7F1B
330
19
100
AcDbEntity
  8
4
100
AcDbLine
 10
2775.0
 20
4004.113131397207
 30
0.0
 11
2775.0
 21
3704.113131397207
 31
0.0
  0
LINE
  5
7F1C
330
19
100
AcDbEntity
  8
4
100
AcDbLine
 10
3150.0
 20
4425.0
 30
0.0
 11
3150.0
 21
4425.0
 31
0.0
  0
LINE
  5
7F1D
330
19
100
AcDbEntity
  8
4
100
AcDbLine
 10
2160.926133539797
 20
4021.895374688102
 30
0.0
 11
2160.926133539797
 21
4179.978392324628
 31
0.0
  0
LINE
  5
7F1E
330
19
100
AcDbEntity
  8
4
100
AcDbLine
 10
2160.926133539797
 20
4179.978392324628
 30
0.0
 11
2775.0
 21
4179.978392324628
 31
0.0
  0
LINE
  5
7F1F
330
19
100
AcDbEntity
  8
4
100
AcDbLine
 10
2775.0
 20
4179.978392324628
 30
0.0
 11
2775.0
 21
4021.895374688102
 31
0.0
  0
LINE
  5
7F20
330
19
100
AcDbEntity
  8
4
100
AcDbLine
 10
2775.0
 20
4021.895374688102
 30
0.0
 11
2160.926133539797
 21
4021.895374688102
 31
0.0
  0
LINE
  5
7F21
330
19
100
AcDbEntity
  8
4
100
AcDbLine
 10
0.0
 20
0.0
 30
0.0
 11
0.0
 21
4425.0
 31
0.0
  0
LINE
  5
7F22
330
19
100
AcDbEntity
  8
4
100
AcDbLine
 10
0.0
 20
4425.0
 30
0.0
 11
3150.0
 21
4425.0
 31
0.0
  0
LINE
  5
7F23
330
19
100
AcDbEntity
  8
4
100
AcDbLine
 10
3150.0
 20
4425.0
 30
0.0
 11
3150.0
 21
0.0
 31
0.0
  0
LINE
  5
7F24
330
19
100
AcDbEntity
  8
4
100
AcDbLine
 10
3150.0
 20
0.0
 30
0.0
 11
0.0
 21
0.0
 31
0.0
  0
DIMENSION
  5
8265
330
19
100
AcDbEntity
  8
3
100
AcDbDimension
280
     0
  2
*D12
 10
2889.749434711081
 20
1390.764450133167
 30
0.0
 11
2856.766717406212
 21
1517.764450133167
 31
0.0
 70
   160
 71
     5
 42
-1.0
 73
     0
 74
     0
 75
     0
  3
IGA
100
AcDbAlignedDimension
 13
2751.32640243322
 23
1644.764450133167
 33
0.0
 14
2751.32640243322
 24
1390.764450133167
 34
0.0
 50
90.0
100
AcDbRotatedDimension
1001
ACAD
1000
DSTYLE
1002
{
1070
   288
1070
     1
1070
   172
1070
     1
1070
    40
1040
15.0
1070
     3
1000
φ<>
1070
   271
1070
     0
1070
   143
1040
0.039
1002
}
  0
LINE
  5
8347
330
19
100
AcDbEntity
  8
1
100
AcDbLine
 10
962.8514437920417
 20
2936.164303667439
 30
0.0
 11
672.8514437920416
 21
2936.164303667439
 31
0.0
  0
LINE
  5
8348
330
19
100
AcDbEntity
  8
1
100
AcDbLine
 10
1292.851443792041
 20
2571.16430366744
 30
0.0
 11
672.8514437920413
 21
2571.16430366744
 31
0.0
  0
DIMENSION
  5
8355
330
19
100
AcDbEntity
  8
3
100
AcDbDimension
280
     0
  2
*D13
 10
510.9986110865047
 20
2531.16430366744
 30
0.0
 11
510.9986110865047
 21
2736.168641217444
 31
0.0
 70
   160
 71
     5
 42
-1.0
 73
     0
 74
     0
 75
     0
  3
IGA
100
AcDbAlignedDimension
 13
632.8514437920412
 23
2976.164303667439
 33
0.0
 14
632.8514437920416
 24
2531.16430366744
 34
0.0
 50
90.0
100
AcDbRotatedDimension
1001
ACAD
1000
DSTYLE
1002
{
1070
    40
1040
15.0
1070
   143
1040
0.039
1070
   172
1070
     1
1070
   271
1070
     0
1070
   279
1070
     0
1070
   288
1070
     1
1002
}
  0
DIMENSION
  5
83A3
330
19
100
AcDbEntity
  8
3
100
AcDbDimension
280
     0
  2
*D14
 10
1132.851443792041
 20
982.422081866458
 30
0.0
 11
882.8514437920409
 21
1019.922081866458
 31
0.0
 70
    32
 71
     5
 42
500.0000000000004
 73
     0
 74
     0
 75
     0
  3
IGA
100
AcDbAlignedDimension
 13
632.8514437920407
 23
1087.787525032624
 33
0.0
 14
1132.851443792041
 24
1087.787525032624
 34
0.0
100
AcDbRotatedDimension
1001
ACAD
1000
DSTYLE
1002
{
1070
    40
1040
15.0
1070
   143
1040
0.039
1070
   172
1070
     1
1070
   271
1070
     0
1070
   279
1070
     0
1002
}
  0
DIMENSION
  5
83B2
330
19
100
AcDbEntity
  8
3
100
AcDbDimension
280
     0
  2
*D15
 10
1332.851443792041
 20
982.422081866458
 30
0.0
 11
1232.851443792041
 21
1019.922081866458
 31
0.0
 70
    32
 71
     5
 42
200.0
 73
     0
 74
     0
 75
     0
  3
IGA
100
AcDbAlignedDimension
 13
1132.851443792041
 23
1087.787525032624
 33
0.0
 14
1332.851443792041
 24
1087.787525032624
 34
0.0
100
AcDbRotatedDimension
1001
ACAD
1000
DSTYLE
1002
{
1070
    40
1040
15.0
1070
   143
1040
0.039
1070
   172
1070
     1
1070
   271
1070
     0
1070
   279
1070
     0
1002
}
  0
DIMENSION
  5
83BF
330
19
100
AcDbEntity
  8
3
100
AcDbDimension
280
     0
  2
*D16
 10
2576.326402433219
 20
982.422081866458
 30
0.0
 11
2353.826402433219
 21
1019.922081866458
 31
0.0
 70
    32
 71
     5
 42
445.0
 73
     0
 74
     0
 75
     0
  3
IGA
100
AcDbAlignedDimension
 13
2131.32640243322
 23
1087.764450133167
 33
0.0
 14
2576.326402433219
 24
1087.764450133167
 34
0.0
100
AcDbRotatedDimension
1001
ACAD
1000
DSTYLE
1002
{
1070
    40
1040
15.0
1070
   143
1040
0.039
1070
   172
1070
     1
1070
   271
1070
     0
1070
   279
1070
     0
1002
}
  0
DIMENSION
  5
83CE
330
19
100
AcDbEntity
  8
3
100
AcDbDimension
280
     0
  2
*D17
 10
2632.32640243322
 20
982.422081866458
 30
0.0
 11
2742.683545290362
 21
1019.922081866458
 31
0.0
 70
    32
 71
     5
 42
56.0
 73
     0
 74
     0
 75
     0
  3
IGA
100
AcDbAlignedDimension
 13
2576.326402433219
 23
1087.764450133167
 33
0.0
 14
2632.32640243322
 24
1087.764450133167
 34
0.0
100
AcDbRotatedDimension
1001
ACAD
1000
DSTYLE
1002
{
1070
    40
1040
15.0
1070
   143
1040
0.039
1070
   172
1070
     1
1070
   271
1070
     0
1070
   279
1070
     0
1002
}
  0
LINE
  5
83E1
330
19
100
AcDbEntity
  8
1
100
AcDbLine
 10
2131.326402433218
 20
1127.764450133167
 30
0.0
 11
2576.326402433219
 21
1127.764450133167
 31
0.0
  0
LINE
  5
83E2
330
19
100
AcDbEntity
  8
1
100
AcDbLine
 10
2131.32640243322
 20
1087.764450133167
 30
0.0
 11
2576.326402433219
 21
1087.764450133167
 31
0.0
  0
LINE
  5
83E3
330
19
100
AcDbEntity
  8
1
100
AcDbLine
 10
2576.326402433219
 20
1087.764450133167
 30
0.0
 11
2576.326402433219
 21
1127.764450133167
 31
0.0
  0
LINE
  5
83E4
330
19
100
AcDbEntity
  8
1
100
AcDbLine
 10
2131.32640243322
 20
1087.764450133167
 30
0.0
 11
2131.326402433218
 21
1127.764450133167
 31
0.0
  0
LINE
  5
83E5
330
19
100
AcDbEntity
  8
1
100
AcDbLine
 10
632.8514437920407
 20
1127.787525032625
 30
0.0
 11
1332.851443792041
 21
1127.787525032625
 31
0.0
  0
LINE
  5
83E6
330
19
100
AcDbEntity
  8
1
100
AcDbLine
 10
1332.851443792041
 20
1127.787525032625
 30
0.0
 11
1332.851443792041
 21
1087.787525032624
 31
0.0
  0
LINE
  5
83E7
330
19
100
AcDbEntity
  8
1
100
AcDbLine
 10
632.8514437920407
 20
1087.787525032624
 30
0.0
 11
1332.851443792041
 21
1087.787525032624
 31
0.0
  0
LINE
  5
83E8
330
19
100
AcDbEntity
  8
1
100
AcDbLine
 10
632.8514437920407
 20
1127.787525032625
 30
0.0
 11
632.8514437920407
 21
1087.787525032624
 31
0.0
  0
DIMENSION
  5
83F8
330
19
100
AcDbEntity
  8
3
100
AcDbDimension
280
     0
  2
*D18
 10
1562.295786133474
 20
1087.787525032624
 30
0.0
 11
1524.795786133474
 21
976.358953604053
 31
0.0
 70
    32
 71
     5
 42
40.00000000000023
 73
     0
 74
     0
 75
     0
  3
IGA
100
AcDbAlignedDimension
 13
1332.851443792041
 23
1127.787525032625
 33
0.0
 14
1332.851443792041
 24
1087.787525032624
 34
0.0
 50
90.0
100
AcDbRotatedDimension
1001
ACAD
1000
DSTYLE
1002
{
1070
    40
1040
15.0
1070
   143
1040
0.039
1070
   172
1070
     1
1070
   271
1070
     0
1070
   279
1070
     0
1070
   343
1005
7AAA
1002
}
  0
DIMENSION
  5
8425
330
19
100
AcDbEntity
  8
3
100
AcDbDimension
280
     0
  2
*D19
 10
1563.063291953769
 20
1197.787525032624
 30
0.0
 11
1619.80362063273
 21
1159.397933619162
 31
0.0
 70
   160
 71
     5
 42
69.99999999999977
 73
     0
 74
     0
 75
     0
  3
IGA
100
AcDbAlignedDimension
 13
1332.851443792041
 23
1127.787525032625
 33
0.0
 14
1332.851443792041
 24
1197.787525032624
 34
0.0
 50
90.0
100
AcDbRotatedDimension
1001
ACAD
1000
DSTYLE
1002
{
1070
     3
1000
(<>)
1070
    40
1040
15.0
1070
   143
1040
0.039
1070
   172
1070
     1
1070
   271
1070
     0
1070
   343
1005
7AAA
1002
}
  0
DIMENSION
  5
8432
330
19
100
AcDbEntity
  8
3
100
AcDbDimension
280
     0
  2
*D20
 10
1690.084982781062
 20
1087.787525032624
 30
0.0
 11
1640.799268495347
 21
1435.287525032625
 31
0.0
 70
    32
 71
     5
 42
695.0000000000002
 73
     0
 74
     0
 75
     0
  3
IGA
100
AcDbAlignedDimension
 13
1332.851443792041
 23
1782.787525032625
 33
0.0
 14
1332.851443792041
 24
1087.787525032624
 34
0.0
 50
90.0
100
AcDbRotatedDimension
1001
ACAD
1000
DSTYLE
1002
{
1070
   172
1070
     1
1070
    40
1040
15.0
1070
     3
1000
(<>)
1070
   271
1070
     0
1070
   143
1040
0.039
1002
}
  0
ENDSEC
  0
SECTION
  2
OBJECTS
  0
DICTIONARY
  5
C
330
0
100
AcDbDictionary
281
     1
  3
ACAD_CIP_PREVIOUS_PRODUCT_INFO
350
8494
  3
ACAD_COLOR
350
8477
  3
ACAD_DETAILVIEWSTYLE
350
8490
  3
ACAD_GROUP
350
D
  3
ACAD_LAYOUT
350
8437
  3
ACAD_MATERIAL
350
8445
  3
ACAD_MLEADERSTYLE
350
848C
  3
ACAD_MLINESTYLE
350
E
  3
ACAD_PLOTSETTINGS
350
8438
  3
ACAD_PLOTSTYLENAME
350
8435
  3
ACAD_SCALELIST
350
847A
  3
ACAD_SECTIONVIEWSTYLE
350
848E
  3
ACAD_TABLESTYLE
350
8478
  3
ACAD_VISUALSTYLE
350
845E
  3
ACDB_RECOMPOSE_DATA
350
854C
  3
AcDbVariableDictionary
350
8517
  0
DICTIONARY
  5
84AD
330
2
100
AcDbDictionary
280
     1
281
     1
  3
ACAD_LAYERSTATES
360
84AE
  0
DICTIONARY
  5
84A0
330
F
100
AcDbDictionary
280
     1
281
     1
  3
ADSK_XREC_LAYER_RECONCILED
360
84A1
  0
DICTIONARY
  5
84A2
330
31
100
AcDbDictionary
280
     1
281
     1
  3
ADSK_XREC_LAYER_RECONCILED
360
84A3
  0
DICTIONARY
  5
84A4
330
76D0
100
AcDbDictionary
280
     1
281
     1
  3
ADSK_XREC_LAYER_RECONCILED
360
84A5
  0
DICTIONARY
  5
84A6
330
76D1
100
AcDbDictionary
280
     1
281
     1
  3
ADSK_XREC_LAYER_RECONCILED
360
84A7
  0
DICTIONARY
  5
84A8
330
76D2
100
AcDbDictionary
280
     1
281
     1
  3
ADSK_XREC_LAYER_RECONCILED
360
84A9
  0
DICTIONARY
  5
84C4
330
19
100
AcDbDictionary
280
     1
281
     1
  3
ACAD_SORTENTS
360
84C5
  0
XRECORD
  5
8494
102
{ACAD_REACTORS
330
C
102
}
330
C
100
AcDbXrecord
280
     1
300
ACDLT
300
2015
300
INVLTS_F_S
  0
DICTIONARY
  5
8477
102
{ACAD_REACTORS
330
C
102
}
330
C
100
AcDbDictionary
281
     1
  0
DICTIONARY
  5
8490
102
{ACAD_REACTORS
330
C
102
}
330
C
100
AcDbDictionary
281
     1
  3
Metric50
350
8491
  0
DICTIONARY
  5
D
102
{ACAD_REACTORS
330
C
102
}
330
C
100
AcDbDictionary
281
     1
  0
DICTIONARY
  5
8437
102
{ACAD_REACTORS
330
C
102
}
330
C
100
AcDbDictionary
281
     1
  3
Model
350
8439
  3
ﾚｲｱｳﾄ1
350
843A
  0
DICTIONARY
  5
8445
102
{ACAD_REACTORS
330
C
102
}
330
C
100
AcDbDictionary
281
     1
  3
ByBlock
350
844E
  3
ByLayer
350
8446
  3
Global
350
8456
  0
DICTIONARY
  5
848C
102
{ACAD_REACTORS
330
C
102
}
330
C
100
AcDbDictionary
281
     1
  3
Standard
350
848D
  0
DICTIONARY
  5
E
102
{ACAD_REACTORS
330
C
102
}
330
C
100
AcDbDictionary
281
     1
  3
STANDARD
350
1C
  0
DICTIONARY
  5
8438
102
{ACAD_REACTORS
330
C
102
}
330
C
100
AcDbDictionary
281
     1
  0
ACDBDICTIONARYWDFLT
  5
8435
102
{ACAD_REACTORS
330
C
102
}
330
C
100
AcDbDictionary
281
     1
  3
Normal
350
8436
100
AcDbDictionaryWithDefault
340
8436
  0
DICTIONARY
  5
847A
102
{ACAD_REACTORS
330
C
102
}
330
C
100
AcDbDictionary
281
     1
  3
A0
350
847B
  3
A1
350
847C
  3
A2
350
847D
  3
A3
350
847E
  3
A4
350
847F
  3
A5
350
8480
  3
A6
350
8481
  3
A7
350
8482
  3
A8
350
8483
  3
A9
350
8484
  3
B0
350
8485
  3
B1
350
8486
  3
B2
350
8487
  3
B3
350
8488
  3
B4
350
8489
  3
B5
350
848A
  3
B6
350
848B
  0
DICTIONARY
  5
848E
102
{ACAD_REACTORS
330
C
102
}
330
C
100
AcDbDictionary
281
     1
  3
Metric50
350
848F
  0
DICTIONARY
  5
8478
102
{ACAD_REACTORS
330
C
102
}
330
C
100
AcDbDictionary
281
     1
  3
Standard
350
8479
  0
DICTIONARY
  5
845E
102
{ACAD_REACTORS
330
C
102
}
330
C
100
AcDbDictionary
281
     1
  3
2dWireframe
350
8464
  3
Basic
350
8463
  3
Brighten
350
846A
  3
ColorChange
350
846E
  3
Conceptual
350
8467
  3
Dim
350
8469
  3
EdgeColorOff
350
8476
  3
Facepattern
350
846D
  3
Flat
350
845F
  3
FlatWithEdges
350
8460
  3
Gouraud
350
8461
  3
GouraudWithEdges
350
8462
  3
Hidden
350
8466
  3
JitterOff
350
8474
  3
Linepattern
350
846C
  3
OverhangOff
350
8475
  3
Realistic
350
8468
  3
Shaded
350
8473
  3
Shaded with edges
350
8472
  3
Shades of Gray
350
846F
  3
Sketchy
350
8470
  3
Thicken
350
846B
  3
Wireframe
350
8465
  3
X-Ray
350
8471
  0
XRECORD
  5
854C
102
{ACAD_REACTORS
330
C
102
}
330
C
100
AcDbXrecord
280
     1
 90
        1
330
8479
330
848F
330
8491
  0
DICTIONARY
  5
8517
102
{ACAD_REACTORS
330
C
102
}
330
C
100
AcDbDictionary
281
     1
  3
CANNOSCALE
350
851D
  3
CMLEADERSTYLE
350
8519
  3
CTABLESTYLE
350
8518
  3
CVIEWDETAILSTYLE
350
851A
  3
CVIEWSECTIONSTYLE
350
851B
  3
LAYEREVAL
350
851F
  3
LAYERNOTIFY
350
8520
  3
LIGHTINGUNITS
350
851E
  3
MSLTSCALE
350
851C
  0
DICTIONARY
  5
84AE
102
{ACAD_REACTORS
330
84AD
102
}
330
84AD
100
AcDbDictionary
281
     1
  0
XRECORD
  5
84A1
102
{ACAD_REACTORS
330
84A0
102
}
330
84A0
100
AcDbXrecord
280
     1
290
     1
  0
XRECORD
  5
84A3
102
{ACAD_REACTORS
330
84A2
102
}
330
84A2
100
AcDbXrecord
280
     1
290
     1
  0
XRECORD
  5
84A5
102
{ACAD_REACTORS
330
84A4
102
}
330
84A4
100
AcDbXrecord
280
     1
290
     1
  0
XRECORD
  5
84A7
102
{ACAD_REACTORS
330
84A6
102
}
330
84A6
100
AcDbXrecord
280
     1
290
     1
  0
XRECORD
  5
84A9
102
{ACAD_REACTORS
330
84A8
102
}
330
84A8
100
AcDbXrecord
280
     1
290
     1
  0
SORTENTSTABLE
  5
84C5
102
{ACAD_REACTORS
330
84C4
102
}
330
84C4
100
AcDbSortentsTable
330
19
331
7D0D
  5
7D0E
331
7C7F
  5
7C80
331
7C7B
  5
7C7C
331
7C77
  5
7C78
331
7CED
  5
7D0A
331
7C73
  5
7C74
331
7C3F
  5
7C3F
331
7CE9
  5
7CEA
331
7C3B
  5
7C3B
331
7CE5
  5
7CE6
331
7C6F
  5
7C70
331
7C37
  5
7C37
331
7CE1
  5
7CE2
331
7D38
  5
7D39
331
7C33
  5
7C33
331
7CDD
  5
7CE0
331
7D34
  5
7D35
331
7C63
  5
7C63
331
7C2F
  5
7C2F
331
7CA2
  5
7CA3
331
7CD9
  5
7CDA
331
7F22
  5
7F23
331
7CD5
  5
7CD6
331
7D2C
  5
7D2D
331
7C5F
  5
7C5F
331
7C9E
  5
7CA0
331
7CD1
  5
7CD2
331
7D28
  5
7D29
331
7C27
  5
7C27
331
7C5B
  5
7C5B
331
7CCD
  5
7CCE
331
7D24
  5
7D25
331
7C23
  5
7C23
331
7C57
  5
7C57
331
7D20
  5
7D21
331
7C53
  5
7C53
331
7C92
  5
7C9D
331
7F1E
  5
7F1F
331
7F1A
  5
7F1B
331
7F16
  5
7F17
331
7F12
  5
7F13
331
7CC5
  5
7CC6
331
7D1C
  5
7D1D
331
7C4F
  5
7C4F
331
7C8E
  5
7C8F
331
7D18
  5
7D19
331
7C4B
  5
7C4B
331
7C8A
  5
7C8B
331
83E7
  5
83E8
331
7D14
  5
7D15
331
7D10
  5
7D11
331
7C43
  5
7C43
331
7C82
  5
7C83
331
83E3
  5
83E4
331
7CB9
  5
7CBA
331
8432
  5
84C3
331
7F0E
  5
7F0F
331
7F06
  5
7F07
331
7D0C
  5
7D0D
331
7C7E
  5
7C7F
331
7C7A
  5
7C7B
331
7C76
  5
7C77
331
7CB5
  5
7CB9
331
7CEC
  5
7CED
331
7C72
  5
7C73
331
7C3E
  5
7C3E
331
7CE8
  5
7CE9
331
8348
  5
8355
331
7CE4
  5
7CE5
331
7C6E
  5
7C6F
331
7CAD
  5
7CB4
331
7C36
  5
7C36
331
7CE0
  5
7CE1
331
7D37
  5
7D38
331
83BF
  5
83CE
331
7C32
  5
7C32
331
7CA5
  5
7CAC
331
7CDC
  5
7CDD
331
7D33
  5
7D34
331
7C62
  5
7C62
331
7C2E
  5
7C2E
331
7CD8
  5
7CD9
331
7F21
  5
7F22
331
7D2F
  5
7D31
331
7CD4
  5
7CD5
331
7D2B
  5
7D2C
331
7C5E
  5
7C5E
331
7C9D
  5
7C9E
331
7CD0
  5
7CD1
331
7D27
  5
7D28
331
7C26
  5
7C26
331
7C5A
  5
7C5A
331
7C56
  5
7C56
331
7C22
  5
7C22
331
7CCC
  5
7CCD
331
7D23
  5
7D24
331
7C52
  5
7C52
331
7C91
  5
7C92
331
83A3
  5
83B2
331
7F1D
  5
7F1E
331
7F19
  5
7F1A
331
7F15
  5
7F16
331
7D1F
  5
7D20
331
7CC4
  5
7CC5
331
7D1B
  5
7D1C
331
7C4E
  5
7C4E
331
7C89
  5
7C8A
331
7CC0
  5
7CC4
331
7D17
  5
7D18
331
7C4A
  5
7C4A
331
83E6
  5
83E7
331
7D13
  5
7D14
331
7C42
  5
7C42
331
7C81
  5
7C82
331
83E2
  5
83E3
331
83CE
  5
83E1
331
7F0D
  5
7F0E
331
7D0F
  5
7D10
331
7D0B
  5
7D0C
331
7C7D
  5
7C7E
331
7C79
  5
7C7A
331
7C75
  5
7C76
331
7CB4
  5
7CB5
331
8425
  5
8432
331
7CEB
  5
7CEC
331
7C71
  5
7C72
331
7C3D
  5
7C3D
331
8347
  5
8348
331
7CE7
  5
7CE8
331
7CE3
  5
7CE4
331
7C6D
  5
7C6E
331
7CAC
  5
7CAD
331
7C35
  5
7C35
331
7C69
  5
7C69
331
7D32
  5
7D33
331
7C65
  5
7C65
331
7C31
  5
7C31
331
7CA4
  5
7CA5
331
7CDB
  5
7CDC
331
7C61
  5
7C61
331
7C2D
  5
7C2D
331
7CA0
  5
7CA2
331
7C29
  5
7C29
331
83B2
  5
83BF
331
7F24
  5
8265
331
7F20
  5
7F21
331
7D2E
  5
7D2F
331
7CD7
  5
7CD8
331
7CD3
  5
7CD4
331
7D2A
  5
7D2B
331
7C5D
  5
7C5D
331
7CCF
  5
7CD0
331
7D26
  5
7D27
331
7C25
  5
7C25
331
7C59
  5
7C59
331
7C55
  5
7C55
331
7C21
  5
7C21
331
7CCB
  5
7CCC
331
7D22
  5
7D23
331
7C51
  5
7C51
331
7F1C
  5
7F1D
331
7F18
  5
7F19
331
7F14
  5
7F15
331
7F10
  5
7F12
331
7D1E
  5
7D1F
331
7D1A
  5
7D1B
331
7C4D
  5
7C4D
331
7C8C
  5
7C8E
331
7C88
  5
7C89
331
7CBF
  5
7CC0
331
7D16
  5
7D17
331
7C49
  5
7C49
331
7C45
  5
7C45
331
83E5
  5
83E6
331
7CBB
  5
7CBF
331
7D12
  5
7D13
331
7C41
  5
7C41
331
7C80
  5
7C81
331
83E1
  5
83E2
331
7F0C
  5
7F0D
331
7F08
  5
7F0B
331
7D0E
  5
7D0F
331
7D0A
  5
7D0B
331
7C7C
  5
7C7D
331
7C78
  5
7C79
331
7C74
  5
7C75
331
7CEA
  5
7CEB
331
7C70
  5
7C71
331
7C3C
  5
7C3C
331
7CE6
  5
7CE7
331
7CE2
  5
7CE3
331
7D39
  5
7F06
331
7C6C
  5
7C6C
331
7C34
  5
7C34
331
7D35
  5
7D37
331
7D31
  5
7D32
331
7C64
  5
7C64
331
7C30
  5
7C30
331
7CA3
  5
7CA4
331
7CDA
  5
7CDB
331
7C60
  5
7C60
331
7C2C
  5
7C2C
331
7C28
  5
7C28
331
83F8
  5
8425
331
8265
  5
8347
331
7F23
  5
7F24
331
7CD6
  5
7CD7
331
7D2D
  5
7D2E
331
7CD2
  5
7CD3
331
7D29
  5
7D2A
331
7C5C
  5
7C5C
331
7CCE
  5
7CCF
331
7D25
  5
7D26
331
7C24
  5
7C24
331
7C58
  5
7C58
331
7D21
  5
7D22
331
7C54
  5
7C54
331
7C20
  5
7C20
331
7C50
  5
7C50
331
83E8
  5
83F8
331
7F1F
  5
7F20
331
7F1B
  5
7F1C
331
7F17
  5
7F18
331
7F13
  5
7F14
331
7D1D
  5
7D1E
331
7C8F
  5
7C91
331
7CC6
  5
7CCB
331
7D19
  5
7D1A
331
7C4C
  5
7C4C
331
7C8B
  5
7C8C
331
7D15
  5
7D16
331
7C48
  5
7C48
331
7C44
  5
7C44
331
7C83
  5
7C88
331
83E4
  5
83E5
331
7CBA
  5
7CBB
331
7D11
  5
7D12
331
7C40
  5
7C40
331
8355
  5
83A3
331
7F0F
  5
7F10
331
7F0B
  5
7F0C
331
7F07
  5
7F08
  0
ACDBDETAILVIEWSTYLE
  5
8491
102
{ACAD_XDICTIONARY
360
8514
102
}
102
{ACAD_REACTORS
330
8490
102
}
330
8490
100
AcDbModelDocViewStyle
 70
     0
  3
Metric50
290
     0
100
AcDbDetailViewStyle
 70
     0
 71
     0
 90
        3
 71
     1
340
10
 62
   256
 40
5.0
340
0
 62
   256
 40
5.0
300

 40
0.0
280
     1
 71
     2
340
15
 90
       25
 62
   256
 71
     3
340
10
 62
   256
 40
5.0
 90
        0
 40
15.0
 90
        1
300
%<\AcVar ViewDetailId>% (%<\AcVar ViewScale \f "%sn">%)
 71
     4
340
15
 90
       25
 62
   256
340
15
 90
       25
 62
   256
280
     0
  0
LAYOUT
  5
8439
102
{ACAD_REACTORS
330
8437
102
}
330
8437
100
AcDbPlotSettings
  1

  2
EPSON LP-9300
  4

  6

 40
0.0
 41
0.0
 42
0.0
 43
0.0
 44
0.0
 45
0.0
 46
0.0
 47
0.0
 48
0.0
 49
0.0
140
0.0
141
0.0
142
1.0
143
1.0
 70
  1712
 72
     0
 73
     0
 74
     0
  7

 75
     0
147
1.0
 76
     0
 77
     2
 78
   300
148
0.0
149
0.0
100
AcDbLayout
  1
Model
 70
     1
 71
     0
 10
0.0
 20
0.0
 11
12.0
 21
9.0
 12
0.0
 22
0.0
 32
0.0
 14
0.0
 24
0.0
 34
0.0
 15
0.0
 25
0.0
 35
0.0
146
0.0
 13
0.0
 23
0.0
 33
0.0
 16
1.0
 26
0.0
 36
0.0
 17
0.0
 27
1.0
 37
0.0
 76
     0
330
19
331
8443
  0
LAYOUT
  5
843A
102
{ACAD_REACTORS
330
8437
102
}
330
8437
100
AcDbPlotSettings
  1

  2
EPSON LP-9300
  4

  6

 40
0.0
 41
0.0
 42
0.0
 43
0.0
 44
0.0
 45
0.0
 46
0.0
 47
0.0
 48
0.0
 49
0.0
140
0.0
141
0.0
142
1.0
143
1.0
 70
   688
 72
     0
 73
     0
 74
     5
  7

 75
    16
147
1.0
 76
     0
 77
     2
 78
   300
148
0.0
149
0.0
100
AcDbLayout
  1
ﾚｲｱｳﾄ1
 70
     1
 71
     1
 10
0.0
 20
0.0
 11
12.0
 21
9.0
 12
0.0
 22
0.0
 32
0.0
 14
1.000000000000000E+20
 24
1.000000000000000E+20
 34
1.000000000000000E+20
 15
-1.000000000000000E+20
 25
-1.000000000000000E+20
 35
-1.000000000000000E+20
146
0.0
 13
0.0
 23
0.0
 33
0.0
 16
1.0
 26
0.0
 36
0.0
 17
0.0
 27
1.0
 37
0.0
 76
     0
330
16
  0
MATERIAL
  5
844E
102
{ACAD_XDICTIONARY
360
844F
102
}
102
{ACAD_REACTORS
330
8445
102
}
330
8445
100
AcDbMaterial
  1
ByBlock
 72
     0
 43
0.0208333333333333
 43
0.0
 43
0.0
 43
0.0
 43
0.0
 43
0.0208333333333333
 43
0.0
 43
0.0
 43
0.0
 43
0.0
 43
1.0
 43
0.0
 43
0.0
 43
0.0
 43
0.0
 43
1.0
 77
     0
 47
0.0208333333333333
 47
0.0
 47
0.0
 47
0.0
 47
0.0
 47
0.0208333333333333
 47
0.0
 47
0.0
 47
0.0
 47
0.0
 47
1.0
 47
0.0
 47
0.0
 47
0.0
 47
0.0
 47
1.0
171
     0
 49
0.0208333333333333
 49
0.0
 49
0.0
 49
0.0
 49
0.0
 49
0.0208333333333333
 49
0.0
 49
0.0
 49
0.0
 49
0.0
 49
1.0
 49
0.0
 49
0.0
 49
0.0
 49
0.0
 49
1.0
175
     0
142
0.0208333333333333
142
0.0
142
0.0
142
0.0
142
0.0
142
0.0208333333333333
142
0.0
142
0.0
142
0.0
142
0.0
142
1.0
142
0.0
142
0.0
142
0.0
142
0.0
142
1.0
179
     0
144
0.0208333333333333
144
0.0
144
0.0
144
0.0
144
0.0
144
0.0208333333333333
144
0.0
144
0.0
144
0.0
144
0.0
144
1.0
144
0.0
144
0.0
144
0.0
144
0.0
144
1.0
147
0.0208333333333333
147
0.0
147
0.0
147
0.0
147
0.0
147
0.0208333333333333
147
0.0
147
0.0
147
0.0
147
0.0
147
1.0
147
0.0
147
0.0
147
0.0
147
0.0
147
1.0
  0
MATERIAL
  5
8446
102
{ACAD_XDICTIONARY
360
8447
102
}
102
{ACAD_REACTORS
330
8445
102
}
330
8445
100
AcDbMaterial
  1
ByLayer
 72
     0
 43
0.0208333333333333
 43
0.0
 43
0.0
 43
0.0
 43
0.0
 43
0.0208333333333333
 43
0.0
 43
0.0
 43
0.0
 43
0.0
 43
1.0
 43
0.0
 43
0.0
 43
0.0
 43
0.0
 43
1.0
 77
     0
 47
0.0208333333333333
 47
0.0
 47
0.0
 47
0.0
 47
0.0
 47
0.0208333333333333
 47
0.0
 47
0.0
 47
0.0
 47
0.0
 47
1.0
 47
0.0
 47
0.0
 47
0.0
 47
0.0
 47
1.0
171
     0
 49
0.0208333333333333
 49
0.0
 49
0.0
 49
0.0
 49
0.0
 49
0.0208333333333333
 49
0.0
 49
0.0
 49
0.0
 49
0.0
 49
1.0
 49
0.0
 49
0.0
 49
0.0
 49
0.0
 49
1.0
175
     0
142
0.0208333333333333
142
0.0
142
0.0
142
0.0
142
0.0
142
0.0208333333333333
142
0.0
142
0.0
142
0.0
142
0.0
142
1.0
142
0.0
142
0.0
142
0.0
142
0.0
142
1.0
179
     0
144
0.0208333333333333
144
0.0
144
0.0
144
0.0
144
0.0
144
0.0208333333333333
144
0.0
144
0.0
144
0.0
144
0.0
144
1.0
144
0.0
144
0.0
144
0.0
144
0.0
144
1.0
147
0.0208333333333333
147
0.0
147
0.0
147
0.0
147
0.0
147
0.0208333333333333
147
0.0
147
0.0
147
0.0
147
0.0
147
1.0
147
0.0
147
0.0
147
0.0
147
0.0
147
1.0
  0
MATERIAL
  5
8456
102
{ACAD_XDICTIONARY
360
8457
102
}
102
{ACAD_REACTORS
330
8445
102
}
330
8445
100
AcDbMaterial
  1
Global
 72
     0
 43
0.0208333333333333
 43
0.0
 43
0.0
 43
0.0
 43
0.0
 43
0.0208333333333333
 43
0.0
 43
0.0
 43
0.0
 43
0.0
 43
1.0
 43
0.0
 43
0.0
 43
0.0
 43
0.0
 43
1.0
 77
     0
 47
0.0208333333333333
 47
0.0
 47
0.0
 47
0.0
 47
0.0
 47
0.0208333333333333
 47
0.0
 47
0.0
 47
0.0
 47
0.0
 47
1.0
 47
0.0
 47
0.0
 47
0.0
 47
0.0
 47
1.0
171
     0
 49
0.0208333333333333
 49
0.0
 49
0.0
 49
0.0
 49
0.0
 49
0.0208333333333333
 49
0.0
 49
0.0
 49
0.0
 49
0.0
 49
1.0
 49
0.0
 49
0.0
 49
0.0
 49
0.0
 49
1.0
175
     0
142
0.0208333333333333
142
0.0
142
0.0
142
0.0
142
0.0
142
0.0208333333333333
142
0.0
142
0.0
142
0.0
142
0.0
142
1.0
142
0.0
142
0.0
142
0.0
142
0.0
142
1.0
179
     0
144
0.0208333333333333
144
0.0
144
0.0
144
0.0
144
0.0
144
0.0208333333333333
144
0.0
144
0.0
144
0.0
144
0.0
144
1.0
144
0.0
144
0.0
144
0.0
144
0.0
144
1.0
147
0.0208333333333333
147
0.0
147
0.0
147
0.0
147
0.0
147
0.0208333333333333
147
0.0
147
0.0
147
0.0
147
0.0
147
1.0
147
0.0
147
0.0
147
0.0
147
0.0
147
1.0
  0
MLEADERSTYLE
  5
848D
102
{ACAD_REACTORS
330
848C
102
}
330
848C
100
AcDbMLeaderStyle
179
     2
170
     2
171
     1
172
     0
 90
        2
 40
0.0
 41
0.0
173
     1
 91
-1056964608
340
13
 92
       -2
290
     1
 42
2.0
291
     1
 43
0.36
  3
Standard
 44
4.0
300

342
10
174
     1
178
     6
175
     1
176
     0
 93
-1056964608
 45
4.0
292
     0
297
     0
 46
4.0
 94
-1056964608
 47
1.0
 49
1.0
140
1.0
293
     1
141
0.0
294
     1
177
     0
142
1.0
295
     1
296
     0
143
0.125
271
     0
272
     9
273
     9
298
     1
  0
MLINESTYLE
  5
1C
102
{ACAD_REACTORS
330
E
102
}
330
E
100
AcDbMlineStyle
  2
STANDARD
 70
     0
  3

 62
     0
 51
90.0
 52
90.0
 71
     2
 49
0.5
 62
   256
  6
BYLAYER
 49
-0.5
 62
   256
  6
BYLAYER
  0
ACDBPLACEHOLDER
  5
8436
102
{ACAD_REACTORS
330
8435
102
}
330
8435
  0
SCALE
  5
847B
102
{ACAD_REACTORS
330
847A
102
}
330
847A
100
AcDbScale
 70
     0
300
1:1
140
1.0
141
1.0
290
     1
  0
SCALE
  5
847C
102
{ACAD_REACTORS
330
847A
102
}
330
847A
100
AcDbScale
 70
     0
300
1:2
140
1.0
141
2.0
290
     0
  0
SCALE
  5
847D
102
{ACAD_REACTORS
330
847A
102
}
330
847A
100
AcDbScale
 70
     0
300
1:4
140
1.0
141
4.0
290
     0
  0
SCALE
  5
847E
102
{ACAD_REACTORS
330
847A
102
}
330
847A
100
AcDbScale
 70
     0
300
1:5
140
1.0
141
5.0
290
     0
  0
SCALE
  5
847F
102
{ACAD_REACTORS
330
847A
102
}
330
847A
100
AcDbScale
 70
     0
300
1:8
140
1.0
141
8.0
290
     0
  0
SCALE
  5
8480
102
{ACAD_REACTORS
330
847A
102
}
330
847A
100
AcDbScale
 70
     0
300
1:10
140
1.0
141
10.0
290
     0
  0
SCALE
  5
8481
102
{ACAD_REACTORS
330
847A
102
}
330
847A
100
AcDbScale
 70
     0
300
1:16
140
1.0
141
16.0
290
     0
  0
SCALE
  5
8482
102
{ACAD_REACTORS
330
847A
102
}
330
847A
100
AcDbScale
 70
     0
300
1:20
140
1.0
141
20.0
290
     0
  0
SCALE
  5
8483
102
{ACAD_REACTORS
330
847A
102
}
330
847A
100
AcDbScale
 70
     0
300
1:30
140
1.0
141
30.0
290
     0
  0
SCALE
  5
8484
102
{ACAD_REACTORS
330
847A
102
}
330
847A
100
AcDbScale
 70
     0
300
1:40
140
1.0
141
40.0
290
     0
  0
SCALE
  5
8485
102
{ACAD_REACTORS
330
847A
102
}
330
847A
100
AcDbScale
 70
     0
300
1:50
140
1.0
141
50.0
290
     0
  0
SCALE
  5
8486
102
{ACAD_REACTORS
330
847A
102
}
330
847A
100
AcDbScale
 70
     0
300
1:100
140
1.0
141
100.0
290
     0
  0
SCALE
  5
8487
102
{ACAD_REACTORS
330
847A
102
}
330
847A
100
AcDbScale
 70
     0
300
2:1
140
2.0
141
1.0
290
     0
  0
SCALE
  5
8488
102
{ACAD_REACTORS
330
847A
102
}
330
847A
100
AcDbScale
 70
     0
300
4:1
140
4.0
141
1.0
290
     0
  0
SCALE
  5
8489
102
{ACAD_REACTORS
330
847A
102
}
330
847A
100
AcDbScale
 70
     0
300
8:1
140
8.0
141
1.0
290
     0
  0
SCALE
  5
848A
102
{ACAD_REACTORS
330
847A
102
}
330
847A
100
AcDbScale
 70
     0
300
10:1
140
10.0
141
1.0
290
     0
  0
SCALE
  5
848B
102
{ACAD_REACTORS
330
847A
102
}
330
847A
100
AcDbScale
 70
     0
300
100:1
140
100.0
141
1.0
290
     0
  0
ACDBSECTIONVIEWSTYLE
  5
848F
102
{ACAD_XDICTIONARY
360
8512
102
}
102
{ACAD_REACTORS
330
848E
102
}
330
848E
100
AcDbModelDocViewStyle
 70
     0
  3
Metric50
290
     0
100
AcDbSectionViewStyle
 70
     0
 71
     0
 90
      102
 71
     1
340
10
 62
   256
 40
5.0
340
0
340
0
 62
   256
 40
5.0
300
I, O, Q, S, X, Z
 40
10.0
 90
        0
 40
2.5
 90
        0
 71
     2
340
15
 90
       25
 62
   256
340
15
 90
       50
 62
   256
 40
5.0
 40
2.5
 40
5.0
 71
     3
340
10
 62
   256
 40
5.0
 90
        0
 40
15.0
 90
        1
300
%<\AcVar ViewSectionStartId>%-%<\AcVar ViewSectionEndId>% (%<\AcVar ViewScale \f "%sn">%)
 71
     4
 62
   256
 62
   257
300
ANSI31
 40
1.0
 90
        0
290
     0
290
     0
 90
        6
 40
0.0
 40
1.570796326794896
 40
0.2617993877991494
 40
1.308996938995747
 40
-0.2617993877991494
 40
1.832595714594046
  0
TABLESTYLE
  5
8479
102
{ACAD_XDICTIONARY
360
8548
102
}
102
{ACAD_REACTORS
330
8478
102
}
330
8478
100
AcDbTableStyle
280
     0
  3
Standard
 70
     0
 71
     0
 40
1.5
 41
1.5
280
     0
281
     0
  7
STANDARD
140
4.5
170
     2
 62
     0
 63
     7
283
     0
 90
      512
 91
        0
  1

274
    -2
284
     1
 64
     0
275
    -2
285
     1
 65
     0
276
    -2
286
     1
 66
     0
277
    -2
287
     1
 67
     0
278
    -2
288
     1
 68
     0
279
    -2
289
     1
 69
     0
  7
STANDARD
140
6.0
170
     5
 62
     0
 63
     7
283
     0
 90
      512
 91
        0
  1

274
    -2
284
     1
 64
     0
275
    -2
285
     1
 65
     0
276
    -2
286
     1
 66
     0
277
    -2
287
     1
 67
     0
278
    -2
288
     1
 68
     0
279
    -2
289
     1
 69
     0
  7
STANDARD
140
4.5
170
     5
 62
     0
 63
     7
283
     0
 90
      512
 91
        0
  1

274
    -2
284
     1
 64
     0
275
    -2
285
     1
 65
     0
276
    -2
286
     1
 66
     0
277
    -2
287
     1
 67
     0
278
    -2
288
     1
 68
     0
279
    -2
289
     1
 69
     0
  0
VISUALSTYLE
  5
8464
102
{ACAD_REACTORS
330
845E
102
}
330
845E
100
AcDbVisualStyle
  2
2dWireframe
 70
     4
177
     3
291
     0
 70
    58
 90
        0
176
     1
 90
        2
176
     1
 90
        0
176
     1
 90
        0
176
     1
 40
0.6
176
     1
 40
30.0
176
     1
 62
     7
420
 16777215
176
     1
 90
        1
176
     1
 90
        4
176
     1
 62
     7
176
     1
 62
   257
176
     1
 90
        1
176
     1
 90
        1
176
     1
 40
1.0
176
     1
 90
        0
176
     1
 62
   257
176
     1
 40
1.0
176
     1
 90
        1
176
     1
 90
        6
176
     1
 90
        2
176
     1
 62
     7
176
     1
 90
        5
176
     1
 90
        0
176
     1
 90
        0
176
     1
290
     0
176
     1
 90
        1
176
     1
 40
0.0
176
     1
 90
        0
176
     1
290
     1
176
     1
290
     1
176
     1
290
     0
176
     1
290
     0
176
     1
290
     0
176
     1
290
     0
176
     1
290
     0
176
     1
290
     0
176
     1
290
     0
176
     1
 90
       50
176
     1
 40
0.0
176
     1
 40
1.0
176
     1
 90
        0
176
     1
 62
    18
420
        0
176
     1
 90
       50
176
     1
 90
        3
176
     1
 62
     5
420
      255
176
     1
290
     0
176
     1
 90
       50
176
     1
 90
       50
176
     1
 90
       50
176
     1
290
     0
176
     1
 90
       50
176
     1
 62
   256
176
     0
 40
1.0
176
     0
 90
        2
176
     1
  1
strokes_ogs.tif
176
     1
290
     0
176
     1
 40
1.0
176
     1
 40
1.0
176
     1
  0
VISUALSTYLE
  5
8463
102
{ACAD_REACTORS
330
845E
102
}
330
845E
100
AcDbVisualStyle
  2
Basic
 70
     7
177
     3
291
     1
 70
    58
 90
        1
176
     1
 90
        0
176
     1
 90
        1
176
     1
 90
        0
176
     1
 40
0.6
176
     1
 40
30.0
176
     1
 62
     7
420
 16777215
176
     1
 90
        0
176
     1
 90
        4
176
     1
 62
     7
176
     1
 62
   257
176
     1
 90
        1
176
     1
 90
        1
176
     1
 40
1.0
176
     1
 90
        8
176
     1
 62
     7
176
     1
 40
1.0
176
     1
 90
        1
176
     1
 90
        6
176
     1
 90
        2
176
     1
 62
     7
176
     1
 90
        5
176
     1
 90
        0
176
     1
 90
        0
176
     1
290
     0
176
     1
 90
        1
176
     1
 40
0.0
176
     1
 90
        0
176
     1
290
     0
176
     1
290
     1
176
     1
290
     1
176
     1
290
     0
176
     1
290
     0
176
     1
290
     0
176
     1
290
     0
176
     1
290
     0
176
     1
290
     0
176
     1
 90
       50
176
     1
 40
0.0
176
     1
 40
1.0
176
     1
 90
        0
176
     1
 62
    18
420
        0
176
     1
 90
       50
176
     1
 90
        3
176
     1
 62
     5
420
      255
176
     1
290
     0
176
     1
 90
       50
176
     1
 90
       50
176
     1
 90
       50
176
     1
290
     0
176
     1
 90
       50
176
     1
 62
   256
176
     0
 40
1.0
176
     0
 90
        2
176
     1
  1
strokes_ogs.tif
176
     1
290
     0
176
     1
 40
1.0
176
     1
 40
1.0
176
     1
  0
VISUALSTYLE
  5
846A
102
{ACAD_REACTORS
330
845E
102
}
330
845E
100
AcDbVisualStyle
  2
Brighten
 70
    12
177
     3
291
     1
 70
    58
 90
        2
176
     1
 90
        2
176
     1
 90
        0
176
     1
 90
        0
176
     1
 40
0.6
176
     1
 40
30.0
176
     1
 62
     7
420
 16777215
176
     1
 90
        1
176
     1
 90
        4
176
     1
 62
     7
176
     1
 62
   257
176
     1
 90
        1
176
     1
 90
        1
176
     1
 40
1.0
176
     1
 90
        8
176
     1
 62
     7
176
     1
 40
1.0
176
     1
 90
        1
176
     1
 90
        6
176
     1
 90
        2
176
     1
 62
     7
176
     1
 90
        5
176
     1
 90
        0
176
     1
 90
        0
176
     1
290
     0
176
     1
 90
        1
176
     1
 40
50.0
176
     1
 90
        0
176
     1
290
     0
176
     1
290
     1
176
     1
290
     1
176
     1
290
     0
176
     1
290
     0
176
     1
290
     0
176
     1
290
     0
176
     1
290
     0
176
     1
290
     0
176
     1
 90
       50
176
     1
 40
0.0
176
     1
 40
1.0
176
     1
 90
        0
176
     1
 62
    18
420
        0
176
     1
 90
       50
176
     1
 90
        3
176
     1
 62
     5
420
      255
176
     1
290
     0
176
     1
 90
       50
176
     1
 90
       50
176
     1
 90
       50
176
     1
290
     0
176
     1
 90
       50
176
     1
 62
   256
176
     0
 40
1.0
176
     0
 90
        2
176
     1
  1
strokes_ogs.tif
176
     1
290
     0
176
     1
 40
1.0
176
     1
 40
1.0
176
     1
  0
VISUALSTYLE
  5
846E
102
{ACAD_REACTORS
330
845E
102
}
330
845E
100
AcDbVisualStyle
  2
ColorChange
 70
    16
177
     3
291
     1
 70
    58
 90
        2
176
     1
 90
        2
176
     1
 90
        3
176
     1
 90
        0
176
     1
 40
0.6
176
     1
 40
30.0
176
     1
 62
     8
420
  8421504
176
     1
 90
        1
176
     1
 90
        4
176
     1
 62
     7
176
     1
 62
   257
176
     1
 90
        1
176
     1
 90
        1
176
     1
 40
1.0
176
     1
 90
        8
176
     1
 62
     8
420
  8421504
176
     1
 40
1.0
176
     1
 90
        1
176
     1
 90
        6
176
     1
 90
        2
176
     1
 62
     7
176
     1
 90
        5
176
     1
 90
        0
176
     1
 90
        0
176
     1
290
     0
176
     1
 90
        1
176
     1
 40
0.0
176
     1
 90
        0
176
     1
290
     0
176
     1
290
     1
176
     1
290
     1
176
     1
290
     0
176
     1
290
     0
176
     1
290
     0
176
     1
290
     0
176
     1
290
     0
176
     1
290
     0
176
     1
 90
       50
176
     1
 40
0.0
176
     1
 40
1.0
176
     1
 90
        0
176
     1
 62
    18
420
        0
176
     1
 90
       50
176
     1
 90
        3
176
     1
 62
     5
420
      255
176
     1
290
     0
176
     1
 90
       50
176
     1
 90
       50
176
     1
 90
       50
176
     1
290
     0
176
     1
 90
       50
176
     1
 62
   256
176
     0
 40
1.0
176
     0
 90
        2
176
     1
  1
strokes_ogs.tif
176
     1
290
     0
176
     1
 40
1.0
176
     1
 40
1.0
176
     1
  0
VISUALSTYLE
  5
8467
102
{ACAD_REACTORS
330
845E
102
}
330
845E
100
AcDbVisualStyle
  2
Conceptual
 70
     9
177
     3
291
     0
 70
    58
 90
        3
176
     1
 90
        2
176
     1
 90
        0
176
     1
 90
        0
176
     1
 40
0.6
176
     1
 40
30.0
176
     1
 62
     7
420
 16777215
176
     1
 90
        2
176
     1
 90
        2
176
     1
 62
     7
176
     1
 62
   257
176
     1
 90
        1
176
     1
 90
        1
176
     1
 40
179.0
176
     1
 90
        8
176
     1
 62
     7
176
     1
 40
1.0
176
     1
 90
        1
176
     1
 90
        6
176
     1
 90
        2
176
     1
 62
     7
176
     1
 90
        3
176
     1
 90
        0
176
     1
 90
        0
176
     1
290
     0
176
     1
 90
        1
176
     1
 40
0.0
176
     1
 90
        0
176
     1
290
     0
176
     1
290
     1
176
     1
290
     1
176
     1
290
     0
176
     1
290
     0
176
     1
290
     0
176
     1
290
     0
176
     1
290
     0
176
     1
290
     0
176
     1
 90
       50
176
     1
 40
0.0
176
     1
 40
1.0
176
     1
 90
        0
176
     1
 62
    18
420
        0
176
     1
 90
       50
176
     1
 90
        3
176
     1
 62
     5
420
      255
176
     1
290
     0
176
     1
 90
       50
176
     1
 90
       50
176
     1
 90
       50
176
     1
290
     0
176
     1
 90
       50
176
     1
 62
   256
176
     0
 40
1.0
176
     0
 90
        2
176
     1
  1
strokes_ogs.tif
176
     1
290
     0
176
     1
 40
1.0
176
     1
 40
1.0
176
     1
  0
VISUALSTYLE
  5
8469
102
{ACAD_REACTORS
330
845E
102
}
330
845E
100
AcDbVisualStyle
  2
Dim
 70
    11
177
     3
291
     1
 70
    58
 90
        2
176
     1
 90
        2
176
     1
 90
        0
176
     1
 90
        0
176
     1
 40
0.6
176
     1
 40
30.0
176
     1
 62
     7
420
 16777215
176
     1
 90
        1
176
     1
 90
        4
176
     1
 62
     7
176
     1
 62
   257
176
     1
 90
        1
176
     1
 90
        1
176
     1
 40
1.0
176
     1
 90
        8
176
     1
 62
     7
176
     1
 40
1.0
176
     1
 90
        1
176
     1
 90
        6
176
     1
 90
        2
176
     1
 62
     7
176
     1
 90
        5
176
     1
 90
        0
176
     1
 90
        0
176
     1
290
     0
176
     1
 90
        1
176
     1
 40
-50.0
176
     1
 90
        0
176
     1
290
     0
176
     1
290
     1
176
     1
290
     1
176
     1
290
     0
176
     1
290
     0
176
     1
290
     0
176
     1
290
     0
176
     1
290
     0
176
     1
290
     0
176
     1
 90
       50
176
     1
 40
0.0
176
     1
 40
1.0
176
     1
 90
        0
176
     1
 62
    18
420
        0
176
     1
 90
       50
176
     1
 90
        3
176
     1
 62
     5
420
      255
176
     1
290
     0
176
     1
 90
       50
176
     1
 90
       50
176
     1
 90
       50
176
     1
290
     0
176
     1
 90
       50
176
     1
 62
   256
176
     0
 40
1.0
176
     0
 90
        2
176
     1
  1
strokes_ogs.tif
176
     1
290
     0
176
     1
 40
1.0
176
     1
 40
1.0
176
     1
  0
VISUALSTYLE
  5
8476
102
{ACAD_REACTORS
330
845E
102
}
330
845E
100
AcDbVisualStyle
  2
EdgeColorOff
 70
    22
177
     3
291
     1
 70
    58
 90
        2
176
     0
 90
        2
176
     0
 90
        0
176
     0
 90
        0
176
     0
 40
0.6
176
     0
 40
30.0
176
     0
 62
     7
420
 16777215
176
     0
 90
        1
176
     0
 90
        4
176
     0
 62
     7
176
     0
 62
   257
176
     0
 90
        1
176
     0
 90
        1
176
     0
 40
1.0
176
     0
 90
        8
176
     2
 62
     7
176
     0
 40
1.0
176
     0
 90
        1
176
     0
 90
        6
176
     0
 90
        2
176
     0
 62
     7
176
     0
 90
        5
176
     0
 90
        0
176
     0
 90
        0
176
     0
290
     0
176
     0
 90
        1
176
     0
 40
0.0
176
     0
 90
        0
176
     0
290
     0
176
     0
290
     1
176
     0
290
     1
176
     0
290
     0
176
     0
290
     0
176
     0
290
     0
176
     0
290
     0
176
     0
290
     0
176
     0
290
     0
176
     0
 90
       50
176
     0
 40
0.0
176
     0
 40
1.0
176
     0
 90
        0
176
     0
 62
    18
420
        0
176
     0
 90
       50
176
     0
 90
        3
176
     0
 62
     5
420
      255
176
     0
290
     0
176
     0
 90
       50
176
     0
 90
       50
176
     0
 90
       50
176
     0
290
     0
176
     0
 90
       50
176
     0
 62
   256
176
     0
 40
1.0
176
     0
 90
        2
176
     0
  1
strokes_ogs.tif
176
     0
290
     0
176
     0
 40
1.0
176
     0
 40
1.0
176
     0
  0
VISUALSTYLE
  5
846D
102
{ACAD_REACTORS
330
845E
102
}
330
845E
100
AcDbVisualStyle
  2
Facepattern
 70
    15
177
     3
291
     1
 70
    58
 90
        2
176
     1
 90
        2
176
     1
 90
        0
176
     1
 90
        0
176
     1
 40
0.6
176
     1
 40
30.0
176
     1
 62
     7
420
 16777215
176
     1
 90
        1
176
     1
 90
        4
176
     1
 62
     7
176
     1
 62
   257
176
     1
 90
        1
176
     1
 90
        1
176
     1
 40
1.0
176
     1
 90
        8
176
     1
 62
     7
176
     1
 40
1.0
176
     1
 90
        1
176
     1
 90
        6
176
     1
 90
        2
176
     1
 62
     7
176
     1
 90
        5
176
     1
 90
        0
176
     1
 90
        0
176
     1
290
     0
176
     1
 90
        1
176
     1
 40
0.0
176
     1
 90
        0
176
     1
290
     0
176
     1
290
     1
176
     1
290
     1
176
     1
290
     0
176
     1
290
     0
176
     1
290
     0
176
     1
290
     0
176
     1
290
     0
176
     1
290
     0
176
     1
 90
       50
176
     1
 40
0.0
176
     1
 40
1.0
176
     1
 90
        0
176
     1
 62
    18
420
        0
176
     1
 90
       50
176
     1
 90
        3
176
     1
 62
     5
420
      255
176
     1
290
     0
176
     1
 90
       50
176
     1
 90
       50
176
     1
 90
       50
176
     1
290
     0
176
     1
 90
       50
176
     1
 62
   256
176
     0
 40
1.0
176
     0
 90
        2
176
     1
  1
strokes_ogs.tif
176
     1
290
     0
176
     1
 40
1.0
176
     1
 40
1.0
176
     1
  0
VISUALSTYLE
  5
845F
102
{ACAD_REACTORS
330
845E
102
}
330
845E
100
AcDbVisualStyle
  2
Flat
 70
     0
177
     3
291
     1
 70
    58
 90
        2
176
     1
 90
        1
176
     1
 90
        1
176
     1
 90
        2
176
     1
 40
0.6
176
     1
 40
30.0
176
     1
 62
     7
420
 16777215
176
     1
 90
        0
176
     1
 90
        0
176
     1
 62
     7
176
     1
 62
   257
176
     1
 90
        1
176
     1
 90
        1
176
     1
 40
1.0
176
     1
 90
        8
176
     1
 62
     7
176
     1
 40
1.0
176
     1
 90
        1
176
     1
 90
        6
176
     1
 90
        2
176
     1
 62
     7
176
     1
 90
        5
176
     1
 90
        0
176
     1
 90
        0
176
     1
290
     0
176
     1
 90
       13
176
     1
 40
0.0
176
     1
 90
        0
176
     1
290
     0
176
     1
290
     1
176
     1
290
     1
176
     1
290
     0
176
     1
290
     0
176
     1
290
     0
176
     1
290
     0
176
     1
290
     0
176
     1
290
     0
176
     1
 90
       50
176
     1
 40
0.0
176
     1
 40
1.0
176
     1
 90
        0
176
     1
 62
    18
420
        0
176
     1
 90
       50
176
     1
 90
        3
176
     1
 62
     5
420
      255
176
     1
290
     0
176
     1
 90
       50
176
     1
 90
       50
176
     1
 90
       50
176
     1
290
     0
176
     1
 90
       50
176
     1
 62
   256
176
     0
 40
1.0
176
     0
 90
        2
176
     1
  1
strokes_ogs.tif
176
     1
290
     0
176
     1
 40
1.0
176
     1
 40
1.0
176
     1
  0
VISUALSTYLE
  5
8460
102
{ACAD_REACTORS
330
845E
102
}
330
845E
100
AcDbVisualStyle
  2
FlatWithEdges
 70
     1
177
     3
291
     1
 70
    58
 90
        2
176
     1
 90
        1
176
     1
 90
        1
176
     1
 90
        2
176
     1
 40
0.6
176
     1
 40
30.0
176
     1
 62
     7
420
 16777215
176
     1
 90
        1
176
     1
 90
        0
176
     1
 62
     7
176
     1
 62
   257
176
     1
 90
        1
176
     1
 90
        1
176
     1
 40
1.0
176
     1
 90
        0
176
     1
 62
   257
176
     1
 40
1.0
176
     1
 90
        1
176
     1
 90
        6
176
     1
 90
        2
176
     1
 62
     7
176
     1
 90
        5
176
     1
 90
        0
176
     1
 90
        0
176
     1
290
     0
176
     1
 90
       13
176
     1
 40
0.0
176
     1
 90
        0
176
     1
290
     0
176
     1
290
     1
176
     1
290
     1
176
     1
290
     0
176
     1
290
     0
176
     1
290
     0
176
     1
290
     0
176
     1
290
     0
176
     1
290
     0
176
     1
 90
       50
176
     1
 40
0.0
176
     1
 40
1.0
176
     1
 90
        0
176
     1
 62
    18
420
        0
176
     1
 90
       50
176
     1
 90
        3
176
     1
 62
     5
420
      255
176
     1
290
     0
176
     1
 90
       50
176
     1
 90
       50
176
     1
 90
       50
176
     1
290
     0
176
     1
 90
       50
176
     1
 62
   256
176
     0
 40
1.0
176
     0
 90
        2
176
     1
  1
strokes_ogs.tif
176
     1
290
     0
176
     1
 40
1.0
176
     1
 40
1.0
176
     1
  0
VISUALSTYLE
  5
8461
102
{ACAD_REACTORS
330
845E
102
}
330
845E
100
AcDbVisualStyle
  2
Gouraud
 70
     2
177
     3
291
     1
 70
    58
 90
        2
176
     1
 90
        2
176
     1
 90
        1
176
     1
 90
        2
176
     1
 40
0.6
176
     1
 40
30.0
176
     1
 62
     7
420
 16777215
176
     1
 90
        0
176
     1
 90
        0
176
     1
 62
     7
176
     1
 62
   257
176
     1
 90
        1
176
     1
 90
        1
176
     1
 40
1.0
176
     1
 90
        0
176
     1
 62
     7
176
     1
 40
1.0
176
     1
 90
        1
176
     1
 90
        6
176
     1
 90
        2
176
     1
 62
     7
176
     1
 90
        5
176
     1
 90
        0
176
     1
 90
        0
176
     1
290
     0
176
     1
 90
       13
176
     1
 40
0.0
176
     1
 90
        0
176
     1
290
     0
176
     1
290
     1
176
     1
290
     1
176
     1
290
     0
176
     1
290
     0
176
     1
290
     0
176
     1
290
     0
176
     1
290
     0
176
     1
290
     0
176
     1
 90
       50
176
     1
 40
0.0
176
     1
 40
1.0
176
     1
 90
        0
176
     1
 62
    18
420
        0
176
     1
 90
       50
176
     1
 90
        3
176
     1
 62
     5
420
      255
176
     1
290
     0
176
     1
 90
       50
176
     1
 90
       50
176
     1
 90
       50
176
     1
290
     0
176
     1
 90
       50
176
     1
 62
   256
176
     0
 40
1.0
176
     0
 90
        2
176
     1
  1
strokes_ogs.tif
176
     1
290
     0
176
     1
 40
1.0
176
     1
 40
1.0
176
     1
  0
VISUALSTYLE
  5
8462
102
{ACAD_REACTORS
330
845E
102
}
330
845E
100
AcDbVisualStyle
  2
GouraudWithEdges
 70
     3
177
     3
291
     1
 70
    58
 90
        2
176
     1
 90
        2
176
     1
 90
        1
176
     1
 90
        2
176
     1
 40
0.6
176
     1
 40
30.0
176
     1
 62
     7
420
 16777215
176
     1
 90
        1
176
     1
 90
        0
176
     1
 62
     7
176
     1
 62
   257
176
     1
 90
        1
176
     1
 90
        1
176
     1
 40
1.0
176
     1
 90
        0
176
     1
 62
   257
176
     1
 40
1.0
176
     1
 90
        1
176
     1
 90
        6
176
     1
 90
        2
176
     1
 62
     7
176
     1
 90
        5
176
     1
 90
        0
176
     1
 90
        0
176
     1
290
     0
176
     1
 90
       13
176
     1
 40
0.0
176
     1
 90
        0
176
     1
290
     0
176
     1
290
     1
176
     1
290
     1
176
     1
290
     0
176
     1
290
     0
176
     1
290
     0
176
     1
290
     0
176
     1
290
     0
176
     1
290
     0
176
     1
 90
       50
176
     1
 40
0.0
176
     1
 40
1.0
176
     1
 90
        0
176
     1
 62
    18
420
        0
176
     1
 90
       50
176
     1
 90
        3
176
     1
 62
     5
420
      255
176
     1
290
     0
176
     1
 90
       50
176
     1
 90
       50
176
     1
 90
       50
176
     1
290
     0
176
     1
 90
       50
176
     1
 62
   256
176
     0
 40
1.0
176
     0
 90
        2
176
     1
  1
strokes_ogs.tif
176
     1
290
     0
176
     1
 40
1.0
176
     1
 40
1.0
176
     1
  0
VISUALSTYLE
  5
8466
102
{ACAD_REACTORS
330
845E
102
}
330
845E
100
AcDbVisualStyle
  2
Hidden
 70
     6
177
     3
291
     0
 70
    58
 90
        1
176
     1
 90
        2
176
     1
 90
        2
176
     1
 90
        0
176
     1
 40
0.6
176
     1
 40
30.0
176
     1
 62
     7
420
 16777215
176
     1
 90
        2
176
     1
 90
        2
176
     1
 62
     7
176
     1
 62
   257
176
     1
 90
        2
176
     1
 90
        1
176
     1
 40
40.0
176
     1
 90
        0
176
     1
 62
   257
176
     1
 40
1.0
176
     1
 90
        1
176
     1
 90
        6
176
     1
 90
        2
176
     1
 62
     7
176
     1
 90
        3
176
     1
 90
        0
176
     1
 90
        0
176
     1
290
     0
176
     1
 90
        1
176
     1
 40
0.0
176
     1
 90
        0
176
     1
290
     0
176
     1
290
     1
176
     1
290
     1
176
     1
290
     0
176
     1
290
     0
176
     1
290
     0
176
     1
290
     0
176
     1
290
     0
176
     1
290
     0
176
     1
 90
       50
176
     1
 40
0.0
176
     1
 40
1.0
176
     1
 90
        0
176
     1
 62
    18
420
        0
176
     1
 90
       50
176
     1
 90
        3
176
     1
 62
     5
420
      255
176
     1
290
     0
176
     1
 90
       50
176
     1
 90
       50
176
     1
 90
       50
176
     1
290
     0
176
     1
 90
       50
176
     1
 62
   256
176
     0
 40
1.0
176
     0
 90
        2
176
     1
  1
strokes_ogs.tif
176
     1
290
     0
176
     1
 40
1.0
176
     1
 40
1.0
176
     1
  0
VISUALSTYLE
  5
8474
102
{ACAD_REACTORS
330
845E
102
}
330
845E
100
AcDbVisualStyle
  2
JitterOff
 70
    20
177
     3
291
     1
 70
    58
 90
        2
176
     0
 90
        2
176
     0
 90
        0
176
     0
 90
        0
176
     0
 40
0.6
176
     0
 40
30.0
176
     0
 62
     7
420
 16777215
176
     0
 90
        1
176
     0
 90
        4
176
     0
 62
     7
176
     0
 62
   257
176
     0
 90
        1
176
     0
 90
        1
176
     0
 40
1.0
176
     0
 90
       10
176
     2
 62
     7
176
     0
 40
1.0
176
     0
 90
        1
176
     0
 90
        6
176
     0
 90
        2
176
     0
 62
     7
176
     0
 90
        5
176
     0
 90
        0
176
     0
 90
        0
176
     0
290
     0
176
     0
 90
        1
176
     0
 40
0.0
176
     0
 90
        0
176
     0
290
     0
176
     0
290
     1
176
     0
290
     1
176
     0
290
     0
176
     0
290
     0
176
     0
290
     0
176
     0
290
     0
176
     0
290
     0
176
     0
290
     0
176
     0
 90
       50
176
     0
 40
0.0
176
     0
 40
1.0
176
     0
 90
        0
176
     0
 62
    18
420
        0
176
     0
 90
       50
176
     0
 90
        3
176
     0
 62
     5
420
      255
176
     0
290
     0
176
     0
 90
       50
176
     0
 90
       50
176
     0
 90
       50
176
     0
290
     0
176
     0
 90
       50
176
     0
 62
   256
176
     0
 40
1.0
176
     0
 90
        2
176
     0
  1
strokes_ogs.tif
176
     0
290
     0
176
     0
 40
1.0
176
     0
 40
1.0
176
     0
  0
VISUALSTYLE
  5
846C
102
{ACAD_REACTORS
330
845E
102
}
330
845E
100
AcDbVisualStyle
  2
Linepattern
 70
    14
177
     3
291
     1
 70
    58
 90
        2
176
     1
 90
        2
176
     1
 90
        0
176
     1
 90
        0
176
     1
 40
0.6
176
     1
 40
30.0
176
     1
 62
     7
420
 16777215
176
     1
 90
        1
176
     1
 90
        4
176
     1
 62
     7
176
     1
 62
   257
176
     1
 90
        7
176
     1
 90
        7
176
     1
 40
1.0
176
     1
 90
        8
176
     1
 62
     7
176
     1
 40
1.0
176
     1
 90
        1
176
     1
 90
        6
176
     1
 90
        2
176
     1
 62
     7
176
     1
 90
        5
176
     1
 90
        0
176
     1
 90
        0
176
     1
290
     0
176
     1
 90
        1
176
     1
 40
0.0
176
     1
 90
        0
176
     1
290
     0
176
     1
290
     1
176
     1
290
     1
176
     1
290
     0
176
     1
290
     0
176
     1
290
     0
176
     1
290
     0
176
     1
290
     0
176
     1
290
     0
176
     1
 90
       50
176
     1
 40
0.0
176
     1
 40
1.0
176
     1
 90
        0
176
     1
 62
    18
420
        0
176
     1
 90
       50
176
     1
 90
        3
176
     1
 62
     5
420
      255
176
     1
290
     0
176
     1
 90
       50
176
     1
 90
       50
176
     1
 90
       50
176
     1
290
     0
176
     1
 90
       50
176
     1
 62
   256
176
     0
 40
1.0
176
     0
 90
        2
176
     1
  1
strokes_ogs.tif
176
     1
290
     0
176
     1
 40
1.0
176
     1
 40
1.0
176
     1
  0
VISUALSTYLE
  5
8475
102
{ACAD_REACTORS
330
845E
102
}
330
845E
100
AcDbVisualStyle
  2
OverhangOff
 70
    21
177
     3
291
     1
 70
    58
 90
        2
176
     0
 90
        2
176
     0
 90
        0
176
     0
 90
        0
176
     0
 40
0.6
176
     0
 40
30.0
176
     0
 62
     7
420
 16777215
176
     0
 90
        1
176
     0
 90
        4
176
     0
 62
     7
176
     0
 62
   257
176
     0
 90
        1
176
     0
 90
        1
176
     0
 40
1.0
176
     0
 90
        9
176
     2
 62
     7
176
     0
 40
1.0
176
     0
 90
        1
176
     0
 90
        6
176
     0
 90
        2
176
     0
 62
     7
176
     0
 90
        5
176
     0
 90
        0
176
     0
 90
        0
176
     0
290
     0
176
     0
 90
        1
176
     0
 40
0.0
176
     0
 90
        0
176
     0
290
     0
176
     0
290
     1
176
     0
290
     1
176
     0
290
     0
176
     0
290
     0
176
     0
290
     0
176
     0
290
     0
176
     0
290
     0
176
     0
290
     0
176
     0
 90
       50
176
     0
 40
0.0
176
     0
 40
1.0
176
     0
 90
        0
176
     0
 62
    18
420
        0
176
     0
 90
       50
176
     0
 90
        3
176
     0
 62
     5
420
      255
176
     0
290
     0
176
     0
 90
       50
176
     0
 90
       50
176
     0
 90
       50
176
     0
290
     0
176
     0
 90
       50
176
     0
 62
   256
176
     0
 40
1.0
176
     0
 90
        2
176
     0
  1
strokes_ogs.tif
176
     0
290
     0
176
     0
 40
1.0
176
     0
 40
1.0
176
     0
  0
VISUALSTYLE
  5
8468
102
{ACAD_REACTORS
330
845E
102
}
330
845E
100
AcDbVisualStyle
  2
Realistic
 70
     8
177
     3
291
     0
 70
    58
 90
        2
176
     1
 90
        3
176
     1
 90
        0
176
     1
 90
        2
176
     1
 40
0.6
176
     1
 40
30.0
176
     1
 62
     7
420
 16777215
176
     1
 90
        0
176
     1
 90
        0
176
     1
 62
     7
176
     1
 62
   257
176
     1
 90
        1
176
     1
 90
        1
176
     1
 40
1.0
176
     1
 90
        8
176
     1
 62
   257
176
     1
 40
1.0
176
     1
 90
        1
176
     1
 90
        6
176
     1
 90
        2
176
     1
 62
     7
176
     1
 90
        3
176
     1
 90
        0
176
     1
 90
        0
176
     1
290
     0
176
     1
 90
       13
176
     1
 40
0.0
176
     1
 90
        0
176
     1
290
     0
176
     1
290
     1
176
     1
290
     1
176
     1
290
     0
176
     1
290
     0
176
     1
290
     0
176
     1
290
     0
176
     1
290
     0
176
     1
290
     0
176
     1
 90
       50
176
     1
 40
0.0
176
     1
 40
1.0
176
     1
 90
        0
176
     1
 62
    18
420
        0
176
     1
 90
       50
176
     1
 90
        3
176
     1
 62
     5
420
      255
176
     1
290
     0
176
     1
 90
       50
176
     1
 90
       50
176
     1
 90
       50
176
     1
290
     0
176
     1
 90
       50
176
     1
 62
   256
176
     0
 40
1.0
176
     0
 90
        2
176
     1
  1
strokes_ogs.tif
176
     1
290
     0
176
     1
 40
1.0
176
     1
 40
1.0
176
     1
  0
VISUALSTYLE
  5
8473
102
{ACAD_REACTORS
330
845E
102
}
330
845E
100
AcDbVisualStyle
  2
Shaded
 70
    27
177
     3
291
     0
 70
    58
 90
        2
176
     1
 90
        2
176
     1
 90
        1
176
     1
 90
        2
176
     1
 40
0.6
176
     1
 40
30.0
176
     1
 62
     7
420
 16777215
176
     1
 90
        0
176
     1
 90
        4
176
     1
 62
     7
176
     1
 62
   257
176
     1
 90
        1
176
     1
 90
        1
176
     1
 40
1.0
176
     1
 90
        8
176
     1
 62
   257
176
     1
 40
1.0
176
     1
 90
        1
176
     1
 90
        6
176
     1
 90
        2
176
     1
 62
     8
420
  7895160
176
     1
 90
        3
176
     1
 90
        0
176
     1
 90
        0
176
     1
290
     0
176
     1
 90
        5
176
     1
 40
0.0
176
     1
 90
        0
176
     1
290
     0
176
     1
290
     1
176
     1
290
     1
176
     1
290
     0
176
     1
290
     0
176
     1
290
     0
176
     1
290
     0
176
     1
290
     0
176
     1
290
     0
176
     1
 90
       50
176
     1
 40
0.0
176
     1
 40
1.0
176
     1
 90
        0
176
     1
 62
    18
420
        0
176
     1
 90
       50
176
     1
 90
        3
176
     1
 62
     5
420
      255
176
     1
290
     0
176
     1
 90
       50
176
     1
 90
       50
176
     1
 90
       50
176
     1
290
     0
176
     1
 90
       50
176
     1
 62
   256
176
     0
 40
1.0
176
     0
 90
        2
176
     1
  1
strokes_ogs.tif
176
     1
290
     0
176
     1
 40
1.0
176
     1
 40
1.0
176
     1
  0
VISUALSTYLE
  5
8472
102
{ACAD_REACTORS
330
845E
102
}
330
845E
100
AcDbVisualStyle
  2
Shaded with edges
 70
    26
177
     3
291
     0
 70
    58
 90
        2
176
     1
 90
        2
176
     1
 90
        1
176
     1
 90
        2
176
     1
 40
0.6
176
     1
 40
30.0
176
     1
 62
     7
420
 16777215
176
     1
 90
        1
176
     1
 90
       10
176
     1
 62
     7
176
     1
 62
   257
176
     1
 90
        2
176
     1
 90
        1
176
     1
 40
1.0
176
     1
 90
        8
176
     1
 62
   257
176
     1
 40
1.0
176
     1
 90
        1
176
     1
 90
        6
176
     1
 90
        2
176
     1
 62
     7
176
     1
 90
        3
176
     1
 90
        0
176
     1
 90
        0
176
     1
290
     0
176
     1
 90
        5
176
     1
 40
0.0
176
     1
 90
        0
176
     1
290
     0
176
     1
290
     1
176
     1
290
     1
176
     1
290
     0
176
     1
290
     0
176
     1
290
     0
176
     1
290
     0
176
     1
290
     0
176
     1
290
     0
176
     1
 90
       50
176
     1
 40
0.0
176
     1
 40
1.0
176
     1
 90
        0
176
     1
 62
    18
420
        0
176
     1
 90
       50
176
     1
 90
        3
176
     1
 62
     5
420
      255
176
     1
290
     0
176
     1
 90
       50
176
     1
 90
       50
176
     1
 90
       50
176
     1
290
     0
176
     1
 90
       50
176
     1
 62
   256
176
     0
 40
1.0
176
     0
 90
        2
176
     1
  1
strokes_ogs.tif
176
     1
290
     0
176
     1
 40
1.0
176
     1
 40
1.0
176
     1
  0
VISUALSTYLE
  5
846F
102
{ACAD_REACTORS
330
845E
102
}
330
845E
100
AcDbVisualStyle
  2
Shades of Gray
 70
    23
177
     3
291
     0
 70
    58
 90
        2
176
     1
 90
        2
176
     1
 90
        3
176
     1
 90
        0
176
     1
 40
0.6
176
     1
 40
30.0
176
     1
 62
     7
420
 16777215
176
     1
 90
        2
176
     1
 90
        2
176
     1
 62
     7
176
     1
 62
     7
176
     1
 90
        1
176
     1
 90
        1
176
     1
 40
40.0
176
     1
 90
        8
176
     1
 62
     7
176
     1
 40
1.0
176
     1
 90
        1
176
     1
 90
        6
176
     1
 90
        2
176
     1
 62
     7
176
     1
 90
        3
176
     1
 90
        0
176
     1
 90
        0
176
     1
290
     0
176
     1
 90
        1
176
     1
 40
0.0
176
     1
 90
        0
176
     1
290
     0
176
     1
290
     1
176
     1
290
     1
176
     1
290
     0
176
     1
290
     0
176
     1
290
     0
176
     1
290
     0
176
     1
290
     0
176
     1
290
     0
176
     1
 90
       50
176
     1
 40
0.0
176
     1
 40
1.0
176
     1
 90
        0
176
     1
 62
    18
420
        0
176
     1
 90
       50
176
     1
 90
        3
176
     1
 62
     5
420
      255
176
     1
290
     0
176
     1
 90
       50
176
     1
 90
       50
176
     1
 90
       50
176
     1
290
     0
176
     1
 90
       50
176
     1
 62
   256
176
     0
 40
1.0
176
     0
 90
        2
176
     1
  1
strokes_ogs.tif
176
     1
290
     0
176
     1
 40
1.0
176
     1
 40
1.0
176
     1
  0
VISUALSTYLE
  5
8470
102
{ACAD_REACTORS
330
845E
102
}
330
845E
100
AcDbVisualStyle
  2
Sketchy
 70
    24
177
     3
291
     0
 70
    58
 90
        1
176
     1
 90
        2
176
     1
 90
        2
176
     1
 90
        0
176
     1
 40
0.6
176
     1
 40
30.0
176
     1
 62
     7
420
 16777215
176
     1
 90
        2
176
     1
 90
        2
176
     1
 62
     7
176
     1
 62
     7
176
     1
 90
        1
176
     1
 90
        1
176
     1
 40
40.0
176
     1
 90
       11
176
     1
 62
     7
176
     1
 40
1.0
176
     1
 90
        1
176
     1
 90
        6
176
     1
 90
        2
176
     1
 62
     7
176
     1
 90
        6
176
     1
 90
        0
176
     1
 90
        0
176
     1
290
     0
176
     1
 90
        1
176
     1
 40
0.0
176
     1
 90
        0
176
     1
290
     0
176
     1
290
     1
176
     1
290
     1
176
     1
290
     0
176
     1
290
     0
176
     1
290
     0
176
     1
290
     0
176
     1
290
     0
176
     1
290
     0
176
     1
 90
       50
176
     1
 40
0.0
176
     1
 40
1.0
176
     1
 90
        0
176
     1
 62
    18
420
        0
176
     1
 90
       50
176
     1
 90
        3
176
     1
 62
     5
420
      255
176
     1
290
     0
176
     1
 90
       50
176
     1
 90
       50
176
     1
 90
       50
176
     1
290
     0
176
     1
 90
       50
176
     1
 62
   256
176
     0
 40
1.0
176
     0
 90
        2
176
     1
  1
strokes_ogs.tif
176
     1
290
     0
176
     1
 40
1.0
176
     1
 40
1.0
176
     1
  0
VISUALSTYLE
  5
846B
102
{ACAD_REACTORS
330
845E
102
}
330
845E
100
AcDbVisualStyle
  2
Thicken
 70
    13
177
     3
291
     1
 70
    58
 90
        2
176
     1
 90
        2
176
     1
 90
        0
176
     1
 90
        0
176
     1
 40
0.6
176
     1
 40
30.0
176
     1
 62
     7
420
 16777215
176
     1
 90
        1
176
     1
 90
        4
176
     1
 62
     7
176
     1
 62
   257
176
     1
 90
        1
176
     1
 90
        1
176
     1
 40
1.0
176
     1
 90
       12
176
     1
 62
     7
176
     1
 40
1.0
176
     1
 90
        1
176
     1
 90
        6
176
     1
 90
        2
176
     1
 62
     7
176
     1
 90
        5
176
     1
 90
        0
176
     1
 90
        0
176
     1
290
     0
176
     1
 90
        1
176
     1
 40
0.0
176
     1
 90
        0
176
     1
290
     0
176
     1
290
     1
176
     1
290
     1
176
     1
290
     0
176
     1
290
     0
176
     1
290
     0
176
     1
290
     0
176
     1
290
     0
176
     1
290
     0
176
     1
 90
       50
176
     1
 40
0.0
176
     1
 40
1.0
176
     1
 90
        0
176
     1
 62
    18
420
        0
176
     1
 90
       50
176
     1
 90
        3
176
     1
 62
     5
420
      255
176
     1
290
     0
176
     1
 90
       50
176
     1
 90
       50
176
     1
 90
       50
176
     1
290
     0
176
     1
 90
       50
176
     1
 62
   256
176
     0
 40
1.0
176
     0
 90
        2
176
     1
  1
strokes_ogs.tif
176
     1
290
     0
176
     1
 40
1.0
176
     1
 40
1.0
176
     1
  0
VISUALSTYLE
  5
8465
102
{ACAD_REACTORS
330
845E
102
}
330
845E
100
AcDbVisualStyle
  2
Wireframe
 70
     5
177
     3
291
     0
 70
    58
 90
        0
176
     1
 90
        2
176
     1
 90
        0
176
     1
 90
        0
176
     1
 40
0.6
176
     1
 40
30.0
176
     1
 62
     7
420
 16777215
176
     1
 90
        1
176
     1
 90
        4
176
     1
 62
     7
176
     1
 62
   257
176
     1
 90
        1
176
     1
 90
        1
176
     1
 40
1.0
176
     1
 90
        0
176
     1
 62
   257
176
     1
 40
1.0
176
     1
 90
        1
176
     1
 90
        6
176
     1
 90
        2
176
     1
 62
     7
176
     1
 90
        3
176
     1
 90
        0
176
     1
 90
        0
176
     1
290
     0
176
     1
 90
        1
176
     1
 40
0.0
176
     1
 90
        0
176
     1
290
     0
176
     1
290
     1
176
     1
290
     1
176
     1
290
     0
176
     1
290
     0
176
     1
290
     0
176
     1
290
     0
176
     1
290
     0
176
     1
290
     0
176
     1
 90
       50
176
     1
 40
0.0
176
     1
 40
1.0
176
     1
 90
        0
176
     1
 62
    18
420
        0
176
     1
 90
       50
176
     1
 90
        3
176
     1
 62
     5
420
      255
176
     1
290
     0
176
     1
 90
       50
176
     1
 90
       50
176
     1
 90
       50
176
     1
290
     0
176
     1
 90
       50
176
     1
 62
   256
176
     0
 40
1.0
176
     0
 90
        2
176
     1
  1
strokes_ogs.tif
176
     1
290
     0
176
     1
 40
1.0
176
     1
 40
1.0
176
     1
  0
VISUALSTYLE
  5
8471
102
{ACAD_REACTORS
330
845E
102
}
330
845E
100
AcDbVisualStyle
  2
X-Ray
 70
    25
177
     3
291
     0
 70
    58
 90
        2
176
     1
 90
        2
176
     1
 90
        1
176
     1
 90
        1
176
     1
 40
0.5
176
     1
 40
30.0
176
     1
 62
     7
420
 16777215
176
     1
 90
        1
176
     1
 90
        0
176
     1
 62
     7
176
     1
 62
   257
176
     1
 90
        1
176
     1
 90
        1
176
     1
 40
1.0
176
     1
 90
        8
176
     1
 62
     7
176
     1
 40
1.0
176
     1
 90
        1
176
     1
 90
        6
176
     1
 90
        2
176
     1
 62
     7
176
     1
 90
        3
176
     1
 90
        0
176
     1
 90
        0
176
     1
290
     0
176
     1
 90
       13
176
     1
 40
0.0
176
     1
 90
        0
176
     1
290
     0
176
     1
290
     1
176
     1
290
     1
176
     1
290
     0
176
     1
290
     0
176
     1
290
     0
176
     1
290
     0
176
     1
290
     0
176
     1
290
     0
176
     1
 90
       50
176
     1
 40
0.0
176
     1
 40
1.0
176
     1
 90
        0
176
     1
 62
    18
420
        0
176
     1
 90
       50
176
     1
 90
        3
176
     1
 62
     5
420
      255
176
     1
290
     0
176
     1
 90
       50
176
     1
 90
       50
176
     1
 90
       50
176
     1
290
     0
176
     1
 90
       50
176
     1
 62
   256
176
     0
 40
1.0
176
     0
 90
        2
176
     1
  1
strokes_ogs.tif
176
     1
290
     0
176
     1
 40
1.0
176
     1
 40
1.0
176
     1
  0
DICTIONARYVAR
  5
851D
102
{ACAD_REACTORS
330
8517
102
}
330
8517
100
DictionaryVariables
280
     0
  1
1:1
  0
DICTIONARYVAR
  5
8519
102
{ACAD_REACTORS
330
8517
102
}
330
8517
100
DictionaryVariables
280
     0
  1
STANDARD
  0
DICTIONARYVAR
  5
8518
102
{ACAD_REACTORS
330
8517
102
}
330
8517
100
DictionaryVariables
280
     0
  1
STANDARD
  0
DICTIONARYVAR
  5
851A
102
{ACAD_REACTORS
330
8517
102
}
330
8517
100
DictionaryVariables
280
     0
  1
Metric50
  0
DICTIONARYVAR
  5
851B
102
{ACAD_REACTORS
330
8517
102
}
330
8517
100
DictionaryVariables
280
     0
  1
Metric50
  0
DICTIONARYVAR
  5
851F
102
{ACAD_REACTORS
330
8517
102
}
330
8517
100
DictionaryVariables
280
     0
  1
1
  0
DICTIONARYVAR
  5
8520
102
{ACAD_REACTORS
330
8517
102
}
330
8517
100
DictionaryVariables
280
     0
  1
15
  0
DICTIONARYVAR
  5
851E
102
{ACAD_REACTORS
330
8517
102
}
330
8517
100
DictionaryVariables
280
     0
  1
0
  0
DICTIONARYVAR
  5
851C
102
{ACAD_REACTORS
330
8517
102
}
330
8517
100
DictionaryVariables
280
     0
  1
0
  0
DICTIONARY
  5
8514
330
8491
100
AcDbDictionary
280
     1
281
     1
  3
ACAD_XREC_ROUNDTRIP
360
854B
  0
DICTIONARY
  5
844F
330
844E
100
AcDbDictionary
280
     1
281
     1
  3
BUMPTILE
360
8451
  3
DIFFUSETILE
360
8450
  3
OPACITYTILE
360
8454
  3
REFLECTIONTILE
360
8453
  3
REFRACTIONTILE
360
8455
  3
SPECULARTILE
360
8452
  0
DICTIONARY
  5
8447
330
8446
100
AcDbDictionary
280
     1
281
     1
  3
BUMPTILE
360
8449
  3
DIFFUSETILE
360
8448
  3
OPACITYTILE
360
844C
  3
REFLECTIONTILE
360
844B
  3
REFRACTIONTILE
360
844D
  3
SPECULARTILE
360
844A
  0
DICTIONARY
  5
8457
330
8456
100
AcDbDictionary
280
     1
281
     1
  3
BUMPTILE
360
8459
  3
DIFFUSETILE
360
8458
  3
OPACITYTILE
360
845C
  3
REFLECTIONTILE
360
845B
  3
REFRACTIONTILE
360
845D
  3
SPECULARTILE
360
845A
  0
DICTIONARY
  5
8512
330
848F
100
AcDbDictionary
280
     1
281
     1
  3
ACAD_XREC_ROUNDTRIP
360
854A
  0
DICTIONARY
  5
8548
330
8479
100
AcDbDictionary
280
     1
281
     1
  3
ACAD_ROUNDTRIP_2008_TABLESTYLE_CELLSTYLEMAP
360
8549
  0
XRECORD
  5
854B
102
{ACAD_REACTORS
330
8514
102
}
330
8514
100
AcDbXrecord
280
     1
102
DISPLAYNAME
  1
Metric50
102
FLAGS
 90
        0
  0
XRECORD
  5
8451
102
{ACAD_REACTORS
330
844F
102
}
330
844F
100
AcDbXrecord
280
     1
270
     1
271
     1
  0
XRECORD
  5
8450
102
{ACAD_REACTORS
330
844F
102
}
330
844F
100
AcDbXrecord
280
     1
270
     1
271
     1
  0
XRECORD
  5
8454
102
{ACAD_REACTORS
330
844F
102
}
330
844F
100
AcDbXrecord
280
     1
270
     1
271
     1
  0
XRECORD
  5
8453
102
{ACAD_REACTORS
330
844F
102
}
330
844F
100
AcDbXrecord
280
     1
270
     1
271
     1
  0
XRECORD
  5
8455
102
{ACAD_REACTORS
330
844F
102
}
330
844F
100
AcDbXrecord
280
     1
270
     1
271
     1
  0
XRECORD
  5
8452
102
{ACAD_REACTORS
330
844F
102
}
330
844F
100
AcDbXrecord
280
     1
270
     1
271
     1
  0
XRECORD
  5
8449
102
{ACAD_REACTORS
330
8447
102
}
330
8447
100
AcDbXrecord
280
     1
270
     1
271
     1
  0
XRECORD
  5
8448
102
{ACAD_REACTORS
330
8447
102
}
330
8447
100
AcDbXrecord
280
     1
270
     1
271
     1
  0
XRECORD
  5
844C
102
{ACAD_REACTORS
330
8447
102
}
330
8447
100
AcDbXrecord
280
     1
270
     1
271
     1
  0
XRECORD
  5
844B
102
{ACAD_REACTORS
330
8447
102
}
330
8447
100
AcDbXrecord
280
     1
270
     1
271
     1
  0
XRECORD
  5
844D
102
{ACAD_REACTORS
330
8447
102
}
330
8447
100
AcDbXrecord
280
     1
270
     1
271
     1
  0
XRECORD
  5
844A
102
{ACAD_REACTORS
330
8447
102
}
330
8447
100
AcDbXrecord
280
     1
270
     1
271
     1
  0
XRECORD
  5
8459
102
{ACAD_REACTORS
330
8457
102
}
330
8457
100
AcDbXrecord
280
     1
270
     1
271
     1
  0
XRECORD
  5
8458
102
{ACAD_REACTORS
330
8457
102
}
330
8457
100
AcDbXrecord
280
     1
270
     1
271
     1
  0
XRECORD
  5
845C
102
{ACAD_REACTORS
330
8457
102
}
330
8457
100
AcDbXrecord
280
     1
270
     1
271
     1
  0
XRECORD
  5
845B
102
{ACAD_REACTORS
330
8457
102
}
330
8457
100
AcDbXrecord
280
     1
270
     1
271
     1
  0
XRECORD
  5
845D
102
{ACAD_REACTORS
330
8457
102
}
330
8457
100
AcDbXrecord
280
     1
270
     1
271
     1
  0
XRECORD
  5
845A
102
{ACAD_REACTORS
330
8457
102
}
330
8457
100
AcDbXrecord
280
     1
270
     1
271
     1
  0
XRECORD
  5
854A
102
{ACAD_REACTORS
330
8512
102
}
330
8512
100
AcDbXrecord
280
     1
102
DISPLAYNAME
  1
Metric50
102
FLAGS
 90
        0
  0
CELLSTYLEMAP
  5
8549
102
{ACAD_REACTORS
330
8548
102
}
330
8548
100
AcDbCellStyleMap
 90
        3
300
CELLSTYLE
  1
TABLEFORMAT_BEGIN
 90
        5
170
     1
 91
        0
 92
    32768
 62
   257
 93
        1
300
CONTENTFORMAT
  1
CONTENTFORMAT_BEGIN
 90
        0
 91
        0
 92
      512
 93
        0
300

 40
0.0
140
1.0
 94
        5
 62
     0
340
10
144
6.0
309
CONTENTFORMAT_END
171
     1
301
MARGIN
  1
CELLMARGIN_BEGIN
 40
1.5
 40
1.5
 40
1.5
 40
1.5
 40
4.5
 40
4.5
309
CELLMARGIN_END
 94
        6
 95
        1
302
GRIDFORMAT
  1
GRIDFORMAT_BEGIN
 90
        0
 91
        1
 62
     0
 92
       -2
340
0
 93
        0
 40
1.125
309
GRIDFORMAT_END
 95
        2
302
GRIDFORMAT
  1
GRIDFORMAT_BEGIN
 90
        0
 91
        1
 62
     0
 92
       -2
340
0
 93
        0
 40
1.125
309
GRIDFORMAT_END
 95
        4
302
GRIDFORMAT
  1
GRIDFORMAT_BEGIN
 90
        0
 91
        1
 62
     0
 92
       -2
340
0
 93
        0
 40
1.125
309
GRIDFORMAT_END
 95
        8
302
GRIDFORMAT
  1
GRIDFORMAT_BEGIN
 90
        0
 91
        1
 62
     0
 92
       -2
340
0
 93
        0
 40
1.125
309
GRIDFORMAT_END
 95
       16
302
GRIDFORMAT
  1
GRIDFORMAT_BEGIN
 90
        0
 91
        1
 62
     0
 92
       -2
340
0
 93
        0
 40
1.125
309
GRIDFORMAT_END
 95
       32
302
GRIDFORMAT
  1
GRIDFORMAT_BEGIN
 90
        0
 91
        1
 62
     0
 92
       -2
340
0
 93
        0
 40
1.125
309
GRIDFORMAT_END
309
TABLEFORMAT_END
  1
CELLSTYLE_BEGIN
 90
        1
 91
        1
300
_TITLE
309
CELLSTYLE_END
300
CELLSTYLE
  1
TABLEFORMAT_BEGIN
 90
        5
170
     1
 91
        0
 92
        0
 62
   257
 93
        1
300
CONTENTFORMAT
  1
CONTENTFORMAT_BEGIN
 90
        0
 91
        0
 92
      512
 93
        0
300

 40
0.0
140
1.0
 94
        5
 62
     0
340
10
144
4.5
309
CONTENTFORMAT_END
171
     1
301
MARGIN
  1
CELLMARGIN_BEGIN
 40
1.5
 40
1.5
 40
1.5
 40
1.5
 40
4.5
 40
4.5
309
CELLMARGIN_END
 94
        6
 95
        1
302
GRIDFORMAT
  1
GRIDFORMAT_BEGIN
 90
        0
 91
        1
 62
     0
 92
       -2
340
0
 93
        0
 40
1.125
309
GRIDFORMAT_END
 95
        2
302
GRIDFORMAT
  1
GRIDFORMAT_BEGIN
 90
        0
 91
        1
 62
     0
 92
       -2
340
0
 93
        0
 40
1.125
309
GRIDFORMAT_END
 95
        4
302
GRIDFORMAT
  1
GRIDFORMAT_BEGIN
 90
        0
 91
        1
 62
     0
 92
       -2
340
0
 93
        0
 40
1.125
309
GRIDFORMAT_END
 95
        8
302
GRIDFORMAT
  1
GRIDFORMAT_BEGIN
 90
        0
 91
        1
 62
     0
 92
       -2
340
0
 93
        0
 40
1.125
309
GRIDFORMAT_END
 95
       16
302
GRIDFORMAT
  1
GRIDFORMAT_BEGIN
 90
        0
 91
        1
 62
     0
 92
       -2
340
0
 93
        0
 40
1.125
309
GRIDFORMAT_END
 95
       32
302
GRIDFORMAT
  1
GRIDFORMAT_BEGIN
 90
        0
 91
        1
 62
     0
 92
       -2
340
0
 93
        0
 40
1.125
309
GRIDFORMAT_END
309
TABLEFORMAT_END
  1
CELLSTYLE_BEGIN
 90
        2
 91
        1
300
_HEADER
309
CELLSTYLE_END
300
CELLSTYLE
  1
TABLEFORMAT_BEGIN
 90
        5
170
     1
 91
        0
 92
        0
 62
   257
 93
        1
300
CONTENTFORMAT
  1
CONTENTFORMAT_BEGIN
 90
        0
 91
        0
 92
      512
 93
        0
300

 40
0.0
140
1.0
 94
        2
 62
     0
340
10
144
4.5
309
CONTENTFORMAT_END
171
     1
301
MARGIN
  1
CELLMARGIN_BEGIN
 40
1.5
 40
1.5
 40
1.5
 40
1.5
 40
4.5
 40
4.5
309
CELLMARGIN_END
 94
        6
 95
        1
302
GRIDFORMAT
  1
GRIDFORMAT_BEGIN
 90
        0
 91
        1
 62
     0
 92
       -2
340
0
 93
        0
 40
1.125
309
GRIDFORMAT_END
 95
        2
302
GRIDFORMAT
  1
GRIDFORMAT_BEGIN
 90
        0
 91
        1
 62
     0
 92
       -2
340
0
 93
        0
 40
1.125
309
GRIDFORMAT_END
 95
        4
302
GRIDFORMAT
  1
GRIDFORMAT_BEGIN
 90
        0
 91
        1
 62
     0
 92
       -2
340
0
 93
        0
 40
1.125
309
GRIDFORMAT_END
 95
        8
302
GRIDFORMAT
  1
GRIDFORMAT_BEGIN
 90
        0
 91
        1
 62
     0
 92
       -2
340
0
 93
        0
 40
1.125
309
GRIDFORMAT_END
 95
       16
302
GRIDFORMAT
  1
GRIDFORMAT_BEGIN
 90
        0
 91
        1
 62
     0
 92
       -2
340
0
 93
        0
 40
1.125
309
GRIDFORMAT_END
 95
       32
302
GRIDFORMAT
  1
GRIDFORMAT_BEGIN
 90
        0
 91
        1
 62
     0
 92
       -2
340
0
 93
        0
 40
1.125
309
GRIDFORMAT_END
309
TABLEFORMAT_END
  1
CELLSTYLE_BEGIN
 90
        3
 91
        2
300
_DATA
309
CELLSTYLE_END
  0
ENDSEC
  0
SECTION
  2
ACDSDATA
 70
     2
 71
     8
  0
ACDSSCHEMA
 90
        0
  1
AcDb_Thumbnail_Schema
  2
AcDbDs::ID
280
    10
 91
        8
  2
Thumbnail_Data
280
    15
 91
        0
101
ACDSRECORD
 95
        0
 90
        1
  2
AcDbDs::TreatedAsObjectData
280
     1
291
     1
101
ACDSRECORD
 95
        0
 90
        2
  2
AcDbDs::Legacy
280
     1
291
     1
101
ACDSRECORD
  1
AcDbDs::ID
 90
        3
  2
AcDs:Indexable
280
     1
291
     1
101
ACDSRECORD
  1
AcDbDs::ID
 90
        4
  2
AcDbDs::HandleAttribute
280
     7
282
     1
  0
ACDSSCHEMA
 90
        1
  1
AcDbDs::TreatedAsObjectDataSchema
  2
AcDbDs::TreatedAsObjectData
280
     1
 91
        0
  0
ACDSSCHEMA
 90
        2
  1
AcDbDs::LegacySchema
  2
AcDbDs::Legacy
280
     1
 91
        0
  0
ACDSSCHEMA
 90
        3
  1
AcDbDs::IndexedPropertySchema
  2
AcDs:Indexable
280
     1
 91
        0
  0
ACDSSCHEMA
 90
        4
  1
AcDbDs::HandleAttributeSchema
  2
AcDbDs::HandleAttribute
280
     7
 91
        1
284
     1
  0
ACDSRECORD
 90
        0
  2
AcDbDs::ID
280
    10
320
8439
  2
Thumbnail_Data
280
    15
 94
     1639
310
89504E470D0A1A0A0000000D49484452000001000000007C0803000000B13B9E5A00000300504C5445000000000000C8C8C80000000000000000000000000000000000000000000000000000330000660000990000CC0000FF0033000033330033660033990033CC0033FF0066000066330066660066990066CC0066FF0099
310
000099330099660099990099CC0099FF00CC0000CC3300CC6600CC9900CCCC00CCFF00FF0000FF3300FF6600FF9900FFCC00FFFF3300003300333300663300993300CC3300FF3333003333333333663333993333CC3333FF3366003366333366663366993366CC3366FF3399003399333399663399993399CC3399FF33CC00
310
33CC3333CC6633CC9933CCCC33CCFF33FF0033FF3333FF6633FF9933FFCC33FFFF6600006600336600666600996600CC6600FF6633006633336633666633996633CC6633FF6666006666336666666666996666CC6666FF6699006699336699666699996699CC6699FF66CC0066CC3366CC6666CC9966CCCC66CCFF66FF0066
310
FF3366FF6666FF9966FFCC66FFFF9900009900339900669900999900CC9900FF9933009933339933669933999933CC9933FF9966009966339966669966999966CC9966FF9999009999339999669999999999CC9999FF99CC0099CC3399CC6699CC9999CCCC99CCFF99FF0099FF3399FF6699FF9999FFCC99FFFFCC0000CC00
310
33CC0066CC0099CC00CCCC00FFCC3300CC3333CC3366CC3399CC33CCCC33FFCC6600CC6633CC6666CC6699CC66CCCC66FFCC9900CC9933CC9966CC9999CC99CCCC99FFCCCC00CCCC33CCCC66CCCC99CCCCCCCCCCFFCCFF00CCFF33CCFF66CCFF99CCFFCCCCFFFFFF0000FF0033FF0066FF0099FF00CCFF00FFFF3300FF3333
310
FF3366FF3399FF33CCFF33FFFF6600FF6633FF6666FF6699FF66CCFF66FFFF9900FF9933FF9966FF9999FF99CCFF99FFFFCC00FFCC33FFCC66FFCC99FFCCCCFFCCFFFFFF00FFFF33FFFF66FFFF99FFFFCCFFFFFF0000000D0D0D1A1A1A2828283535354343435050505D5D5D6B6B6B787878868686939393A1A1A1AEAEAEBB
310
BBBBC9C9C9D6D6D6E4E4E4F1F1F1FFFFFF00000000000000000000000000000000000000000000000000000000000008F1915C000002E74944415478DAEDDD5972C3200C06601D8717EE7F19AEC17B6316196199713B691BA4DF335D923899F0211605C621FA8523FFD241BB1C79AB97050000000000007CCE3B5D0C7E5E00
310
A6A7679711E01A80A4803B80FB3B7604786B06B025C087BD1800FE01A0C5F1F9A7FD9012E85929A405006A3D3B179621B8F48584B494DF4604C83810C19039202C03649EE4659241504E59150F9D20E6011ED3E16C281D566AF452C1F93CB30E85AD53740190F315604E88F66E02178059A30F0343F1C95004BCEFF9F84C10
310
000000000000000000000000DB02C4F17009507E876A01008F00818F18BC00A4E310EDDE5B04A4B3B43E3BC134169C2BDF6704906780E01520B526108E223B04480DE01501000080E73EC02F0001609A01FA9E093A0410C9D070244FE970EA39E0990D923B8027F7990728CDC1258076F802A007771906F8E8970500000000
310
000000E06FDEE9CF26409672814753E173A228B9DC4C852D0288C2D13DC0D2C94A36B88A8074B9E91AC060045C7EAF00520A8601A21A0B23405D4FB407C01F8A72E99700D11A401CB6C81C03022D01C85C041C15DA017AF87B022801FD18804F4AA600625F1BD4008636DF00CE134C00F465B1A8034401D09A40320670AC13
310
D7B5C16B27382D9F19030875ABD0B14D741806C53C60062808460082BA38BC0438BACB6825026A996BEBAFDDDB1DC0D0091A02E8955E5BF6AB5871488E5600468641DE23DE47801B80E38CD76932024C4C844A8F1E4BC5C773CFA8360C469BB90037011A37CD2E01285258BFEC4600B77B84D2350190A3800D00AE77E25CA0
310
35EEF9B3A128FEB703A06D92E269908708700F206EA109C4DB5C608A80646614E0DA9EA73F493B93D3E424D6860C2E8D5D5707566B68567689F5B2DF008CD1201FB6B83FE05B8BE5D82001000000607B00F75794BC2959BDC4AAFAA82300BDE2AD0190F2B549B95F5DD75904F8EC03F408A0E1EAA2E511ADD886FB802CAFB9
310
EE0440B9738810421FE0FACAD2980A03000000000000000000000000005B026CF4D5DB5FA9197F855E068FFC0000000049454E44AE426082285B4F5B034015806A0DC0F6FA8805000000000000000000000000000000B402F86A79FC717F00A97EF6133323650D0000000049454E44AE426082
  0
ENDSEC
  0
EOF
