  0
SECTION
  2
HEADER
  9
$ACADVER
  1
AC1027
  9
$ACADMAINTVER
 70
    81
  9
$DWGCODEPAGE
  3
ANSI_932
  9
$LASTSAVEDBY
  1
reiko.miyawaki
  9
$REQUIREDVERSIONS
160
                 0
  9
$INSBASE
 10
0.0
 20
0.0
 30
0.0
  9
$EXTMIN
 10
0.0
 20
0.0
 30
0.0
  9
$EXTMAX
 10
3150.0
 20
4425.0
 30
0.0
  9
$LIMMIN
 10
0.0
 20
0.0
  9
$LIMMAX
 10
297.0
 20
210.0
  9
$ORTHOMODE
 70
     1
  9
$REGENMODE
 70
     1
  9
$FILLMODE
 70
     0
  9
$QTEXTMODE
 70
     0
  9
$MIRRTEXT
 70
     1
  9
$LTSCALE
 40
100.0
  9
$ATTMODE
 70
     1
  9
$TEXTSIZE
 40
180.0
  9
$TRACEWID
 40
0.05
  9
$TEXTSTYLE
  7
STANDARD
  9
$CLAYER
  8
3
  9
$CELTYPE
  6
BYLAYER
  9
$CECOLOR
 62
   256
  9
$CELTSCALE
 40
1.0
  9
$DISPSILH
 70
     0
  9
$DIMSCALE
 40
15.0
  9
$DIMASZ
 40
2.0
  9
$DIMEXO
 40
0.5
  9
$DIMDLI
 40
10.0
  9
$DIMRND
 40
0.0
  9
$DIMDLE
 40
0.0
  9
$DIMEXE
 40
1.0
  9
$DIMTP
 40
1.0
  9
$DIMTM
 40
1.0
  9
$DIMTXT
 40
3.0
  9
$DIMCEN
 40
0.0
  9
$DIMTSZ
 40
0.0
  9
$DIMTOL
 70
     0
  9
$DIMLIM
 70
     0
  9
$DIMTIH
 70
     0
  9
$DIMTOH
 70
     0
  9
$DIMSE1
 70
     0
  9
$DIMSE2
 70
     0
  9
$DIMTAD
 70
     1
  9
$DIMZIN
 70
     8
  9
$DIMBLK
  1

  9
$DIMASO
 70
     1
  9
$DIMSHO
 70
     1
  9
$DIMPOST
  1
(<>)
  9
$DIMAPOST
  1

  9
$DIMALT
 70
     0
  9
$DIMALTD
 70
     2
  9
$DIMALTF
 40
0.039
  9
$DIMLFAC
 40
1.0
  9
$DIMTOFL
 70
     1
  9
$DIMTVP
 40
0.0
  9
$DIMTIX
 70
     0
  9
$DIMSOXD
 70
     0
  9
$DIMSAH
 70
     1
  9
$DIMBLK1
  1
OPEN
  9
$DIMBLK2
  1
OPEN
  9
$DIMSTYLE
  2
IGA
  9
$DIMCLRD
 70
     0
  9
$DIMCLRE
 70
     0
  9
$DIMCLRT
 70
     0
  9
$DIMTFAC
 40
10.0
  9
$DIMGAP
 40
1.0
  9
$DIMJUST
 70
     0
  9
$DIMSD1
 70
     0
  9
$DIMSD2
 70
     0
  9
$DIMTOLJ
 70
     1
  9
$DIMTZIN
 70
     8
  9
$DIMALTZ
 70
     0
  9
$DIMALTTZ
 70
     0
  9
$DIMUPT
 70
     0
  9
$DIMDEC
 70
     0
  9
$DIMTDEC
 70
     0
  9
$DIMALTU
 70
     2
  9
$DIMALTTD
 70
     2
  9
$DIMTXSTY
  7
STANDARD
  9
$DIMAUNIT
 70
     0
  9
$DIMADEC
 70
     0
  9
$DIMALTRND
 40
0.0
  9
$DIMAZIN
 70
     0
  9
$DIMDSEP
 70
    46
  9
$DIMATFIT
 70
     3
  9
$DIMFRAC
 70
     0
  9
$DIMLDRBLK
  1
OPEN
  9
$DIMLUNIT
 70
     2
  9
$DIMLWD
 70
    -2
  9
$DIMLWE
 70
    -2
  9
$DIMTMOVE
 70
     2
  9
$DIMFXL
 40
1.0
  9
$DIMFXLON
 70
     0
  9
$DIMJOGANG
 40
0.7853981633974483
  9
$DIMTFILL
 70
     0
  9
$DIMTFILLCLR
 70
     0
  9
$DIMARCSYM
 70
     0
  9
$DIMLTYPE
  6

  9
$DIMLTEX1
  6

  9
$DIMLTEX2
  6

  9
$DIMTXTDIRECTION
 70
     0
  9
$LUNITS
 70
     2
  9
$LUPREC
 70
     3
  9
$SKETCHINC
 40
0.1
  9
$FILLETRAD
 40
50.0
  9
$AUNITS
 70
     0
  9
$AUPREC
 70
     0
  9
$MENU
  1
acad
  9
$ELEVATION
 40
0.0
  9
$PELEVATION
 40
0.0
  9
$THICKNESS
 40
0.0
  9
$LIMCHECK
 70
     0
  9
$CHAMFERA
 40
0.5
  9
$CHAMFERB
 40
0.5
  9
$CHAMFERC
 40
20.0
  9
$CHAMFERD
 40
0.0
  9
$SKPOLY
 70
     0
  9
$TDCREATE
 40
2451936.572614120
  9
$TDUCREATE
 40
2451936.197614120
  9
$TDUPDATE
 40
2459024.490532419
  9
$TDUUPDATE
 40
2459024.115532419
  9
$TDINDWG
 40
0.0591533333
  9
$TDUSRTIMER
 40
0.0591533333
  9
$USRTIMER
 70
     1
  9
$ANGBASE
 50
0.0
  9
$ANGDIR
 70
     0
  9
$PDMODE
 70
     0
  9
$PDSIZE
 40
0.0
  9
$PLINEWID
 40
0.0
  9
$SPLFRAME
 70
     0
  9
$SPLINETYPE
 70
     6
  9
$SPLINESEGS
 70
     8
  9
$HANDSEED
  5
8601
  9
$SURFTAB1
 70
     6
  9
$SURFTAB2
 70
     6
  9
$SURFTYPE
 70
     6
  9
$SURFU
 70
     6
  9
$SURFV
 70
     6
  9
$UCSBASE
  2

  9
$UCSNAME
  2

  9
$UCSORG
 10
0.0
 20
0.0
 30
0.0
  9
$UCSXDIR
 10
1.0
 20
0.0
 30
0.0
  9
$UCSYDIR
 10
0.0
 20
1.0
 30
0.0
  9
$UCSORTHOREF
  2

  9
$UCSORTHOVIEW
 70
     0
  9
$UCSORGTOP
 10
0.0
 20
0.0
 30
0.0
  9
$UCSORGBOTTOM
 10
0.0
 20
0.0
 30
0.0
  9
$UCSORGLEFT
 10
0.0
 20
0.0
 30
0.0
  9
$UCSORGRIGHT
 10
0.0
 20
0.0
 30
0.0
  9
$UCSORGFRONT
 10
0.0
 20
0.0
 30
0.0
  9
$UCSORGBACK
 10
0.0
 20
0.0
 30
0.0
  9
$PUCSBASE
  2

  9
$PUCSNAME
  2

  9
$PUCSORG
 10
0.0
 20
0.0
 30
0.0
  9
$PUCSXDIR
 10
1.0
 20
0.0
 30
0.0
  9
$PUCSYDIR
 10
0.0
 20
1.0
 30
0.0
  9
$PUCSORTHOREF
  2

  9
$PUCSORTHOVIEW
 70
     0
  9
$PUCSORGTOP
 10
0.0
 20
0.0
 30
0.0
  9
$PUCSORGBOTTOM
 10
0.0
 20
0.0
 30
0.0
  9
$PUCSORGLEFT
 10
0.0
 20
0.0
 30
0.0
  9
$PUCSORGRIGHT
 10
0.0
 20
0.0
 30
0.0
  9
$PUCSORGFRONT
 10
0.0
 20
0.0
 30
0.0
  9
$PUCSORGBACK
 10
0.0
 20
0.0
 30
0.0
  9
$USERI1
 70
     0
  9
$USERI2
 70
     0
  9
$USERI3
 70
     0
  9
$USERI4
 70
     0
  9
$USERI5
 70
     0
  9
$USERR1
 40
0.0
  9
$USERR2
 40
0.0
  9
$USERR3
 40
0.0
  9
$USERR4
 40
0.0
  9
$USERR5
 40
0.0
  9
$WORLDVIEW
 70
     1
  9
$SHADEDGE
 70
     3
  9
$SHADEDIF
 70
    70
  9
$TILEMODE
 70
     1
  9
$MAXACTVP
 70
    16
  9
$PINSBASE
 10
0.0
 20
0.0
 30
0.0
  9
$PLIMCHECK
 70
     0
  9
$PEXTMIN
 10
1.000000000000000E+20
 20
1.000000000000000E+20
 30
1.000000000000000E+20
  9
$PEXTMAX
 10
-1.000000000000000E+20
 20
-1.000000000000000E+20
 30
-1.000000000000000E+20
  9
$PLIMMIN
 10
0.0
 20
0.0
  9
$PLIMMAX
 10
12.0
 20
9.0
  9
$UNITMODE
 70
     0
  9
$VISRETAIN
 70
     0
  9
$PLINEGEN
 70
     0
  9
$PSLTSCALE
 70
     1
  9
$TREEDEPTH
 70
  3020
  9
$CMLSTYLE
  2
STANDARD
  9
$CMLJUST
 70
     0
  9
$CMLSCALE
 40
20.0
  9
$PROXYGRAPHICS
 70
     1
  9
$MEASUREMENT
 70
     1
  9
$CELWEIGHT
370
    -1
  9
$ENDCAPS
280
     0
  9
$JOINSTYLE
280
     0
  9
$LWDISPLAY
290
     0
  9
$INSUNITS
 70
     0
  9
$HYPERLINKBASE
  1

  9
$STYLESHEET
  1

  9
$XEDIT
290
     1
  9
$CEPSNTYPE
380
     0
  9
$PSTYLEMODE
290
     1
  9
$FINGERPRINTGUID
  2
{9E70C796-C9CD-4E61-8349-F8B5FD875CD0}
  9
$VERSIONGUID
  2
{5E202DEE-2213-431F-A266-B4876BC08D42}
  9
$EXTNAMES
290
     1
  9
$PSVPSCALE
 40
0.0
  9
$OLESTARTUP
290
     0
  9
$SORTENTS
280
   127
  9
$INDEXCTL
280
     0
  9
$HIDETEXT
280
     0
  9
$XCLIPFRAME
280
     2
  9
$HALOGAP
280
     0
  9
$OBSCOLOR
 70
   257
  9
$OBSLTYPE
280
     0
  9
$INTERSECTIONDISPLAY
280
     0
  9
$INTERSECTIONCOLOR
 70
   257
  9
$DIMASSOC
280
     1
  9
$PROJECTNAME
  1

  9
$CAMERADISPLAY
290
     0
  9
$LENSLENGTH
 40
50.0
  9
$CAMERAHEIGHT
 40
0.0
  9
$STEPSPERSEC
 40
2.0
  9
$STEPSIZE
 40
6.0
  9
$3DDWFPREC
 40
2.0
  9
$PSOLWIDTH
 40
0.25
  9
$PSOLHEIGHT
 40
4.0
  9
$LOFTANG1
 40
1.570796326794896
  9
$LOFTANG2
 40
1.570796326794896
  9
$LOFTMAG1
 40
0.0
  9
$LOFTMAG2
 40
0.0
  9
$LOFTPARAM
 70
     7
  9
$LOFTNORMALS
280
     1
  9
$LATITUDE
 40
37.795
  9
$LONGITUDE
 40
-122.394
  9
$NORTHDIRECTION
 40
0.0
  9
$TIMEZONE
 70
 -8000
  9
$LIGHTGLYPHDISPLAY
280
     1
  9
$TILEMODELIGHTSYNCH
280
     1
  9
$CMATERIAL
347
84EA
  9
$SOLIDHIST
280
     0
  9
$SHOWHIST
280
     1
  9
$DWFFRAME
280
     2
  9
$DGNFRAME
280
     0
  9
$REALWORLDSCALE
290
     1
  9
$INTERFERECOLOR
 62
     1
  9
$INTERFEREOBJVS
345
850C
  9
$INTERFEREVPVS
346
8509
  9
$CSHADOW
280
     0
  9
$SHADOWPLANELOCATION
 40
0.0
  0
ENDSEC
  0
SECTION
  2
CLASSES
  0
CLASS
  1
ACDBDICTIONARYWDFLT
  2
AcDbDictionaryWithDefault
  3
ObjectDBX Classes
 90
        0
 91
        1
280
     0
281
     0
  0
CLASS
  1
MATERIAL
  2
AcDbMaterial
  3
ObjectDBX Classes
 90
     1153
 91
        3
280
     0
281
     0
  0
CLASS
  1
VISUALSTYLE
  2
AcDbVisualStyle
  3
ObjectDBX Classes
 90
     4095
 91
       24
280
     0
281
     0
  0
CLASS
  1
TABLESTYLE
  2
AcDbTableStyle
  3
ObjectDBX Classes
 90
     4095
 91
        1
280
     0
281
     0
  0
CLASS
  1
SCALE
  2
AcDbScale
  3
ObjectDBX Classes
 90
     1153
 91
       17
280
     0
281
     0
  0
CLASS
  1
MLEADERSTYLE
  2
AcDbMLeaderStyle
  3
ACDB_MLEADERSTYLE_CLASS
 90
     4095
 91
        1
280
     0
281
     0
  0
CLASS
  1
ACDBSECTIONVIEWSTYLE
  2
AcDbSectionViewStyle
  3
ObjectDBX Classes
 90
     1025
 91
        1
280
     0
281
     0
  0
CLASS
  1
ACDBDETAILVIEWSTYLE
  2
AcDbDetailViewStyle
  3
ObjectDBX Classes
 90
     1025
 91
        1
280
     0
281
     0
  0
CLASS
  1
SORTENTSTABLE
  2
AcDbSortentsTable
  3
ObjectDBX Classes
 90
        0
 91
        1
280
     0
281
     0
  0
CLASS
  1
DICTIONARYVAR
  2
AcDbDictionaryVar
  3
ObjectDBX Classes
 90
        0
 91
        9
280
     0
281
     0
  0
CLASS
  1
CELLSTYLEMAP
  2
AcDbCellStyleMap
  3
ObjectDBX Classes
 90
     1152
 91
        1
280
     0
281
     0
  0
ENDSEC
  0
SECTION
  2
TABLES
  0
TABLE
  2
VPORT
  5
8
330
0
100
AcDbSymbolTable
 70
     1
  0
VPORT
  5
84E7
330
8
100
AcDbSymbolTableRecord
100
AcDbViewportTableRecord
  2
*Active
 70
     0
 10
0.0
 20
0.0
 11
1.0
 21
1.0
 12
1575.000022003839
 22
2318.432906054561
 13
0.0
 23
0.0
 14
10.0
 24
10.0
 15
10.0
 25
10.0
 16
0.0
 26
0.0
 36
1.0
 17
0.0
 27
0.0
 37
0.0
 40
4665.336734169487
 41
1.957107843137254
 42
50.0
 43
0.0
 44
0.0
 50
0.0
 51
0.0
 71
     0
 72
   100
 73
     1
 74
     0
 75
     0
 76
     0
 77
     0
 78
     0
281
     0
 65
     1
110
0.0
120
0.0
130
0.0
111
1.0
121
0.0
131
0.0
112
0.0
122
1.0
132
0.0
 79
     0
146
0.0
348
8508
 60
     3
 61
     5
292
     1
282
     1
141
0.0
142
0.0
 63
   250
421
  3355443
1001
ACAD_NAV_VCDISPLAY
1070
     3
  0
ENDTAB
  0
TABLE
  2
LTYPE
  5
5
330
0
100
AcDbSymbolTable
 70
     2
  0
LTYPE
  5
13
330
5
100
AcDbSymbolTableRecord
100
AcDbLinetypeTableRecord
  2
BYBLOCK
 70
     0
  3

 72
    65
 73
     0
 40
0.0
  0
LTYPE
  5
14
330
5
100
AcDbSymbolTableRecord
100
AcDbLinetypeTableRecord
  2
BYLAYER
 70
     0
  3

 72
    65
 73
     0
 40
0.0
  0
LTYPE
  5
15
330
5
100
AcDbSymbolTableRecord
100
AcDbLinetypeTableRecord
  2
CONTINUOUS
 70
     0
  3
Solid line
 72
    65
 73
     0
 40
0.0
  0
LTYPE
  5
1F
330
5
100
AcDbSymbolTableRecord
100
AcDbLinetypeTableRecord
  2
CENTER
 70
     0
  3
____ _ ____ _ ____ _ ____ _ ____ _ ____ _ ____ 
 72
    65
 73
     4
 40
2.0
 49
1.25
 74
     0
 49
-0.25
 74
     0
 49
0.25
 74
     0
 49
-0.25
 74
     0
  0
ENDTAB
  0
TABLE
  2
LAYER
  5
2
102
{ACAD_XDICTIONARY
360
858E
102
}
330
0
100
AcDbSymbolTable
 70
     6
  0
LAYER
  5
F
102
{ACAD_XDICTIONARY
360
8581
102
}
330
2
100
AcDbSymbolTableRecord
100
AcDbLayerTableRecord
  2
0
 70
     0
 62
     7
  6
CONTINUOUS
370
    -3
390
84DA
347
84FA
348
0
  0
LAYER
  5
31
102
{ACAD_XDICTIONARY
360
8583
102
}
330
2
100
AcDbSymbolTableRecord
100
AcDbLayerTableRecord
  2
3
 70
     0
 62
     2
  6
CONTINUOUS
370
    -3
390
84DA
347
84FA
348
0
  0
LAYER
  5
76D0
102
{ACAD_XDICTIONARY
360
8585
102
}
330
2
100
AcDbSymbolTableRecord
100
AcDbLayerTableRecord
  2
2
 70
     0
 62
     3
  6
CENTER
370
    -3
390
84DA
347
84FA
348
0
  0
LAYER
  5
76D1
102
{ACAD_XDICTIONARY
360
8587
102
}
330
2
100
AcDbSymbolTableRecord
100
AcDbLayerTableRecord
  2
1
 70
     0
 62
     4
  6
CONTINUOUS
370
    -3
390
84DA
347
84FA
348
0
  0
LAYER
  5
76D2
102
{ACAD_XDICTIONARY
360
8589
102
}
330
2
100
AcDbSymbolTableRecord
100
AcDbLayerTableRecord
  2
4
 70
     0
 62
     7
  6
CONTINUOUS
370
    -3
390
84DA
347
84FA
348
0
  0
LAYER
  5
7B0C
330
2
100
AcDbSymbolTableRecord
100
AcDbLayerTableRecord
  2
DEFPOINTS
 70
     0
 62
     7
  6
CONTINUOUS
290
     0
370
    -3
390
84DA
347
84FA
348
0
  0
ENDTAB
  0
TABLE
  2
STYLE
  5
3
330
0
100
AcDbSymbolTable
 70
     1
  0
STYLE
  5
10
330
3
100
AcDbSymbolTableRecord
100
AcDbTextStyleTableRecord
  2
STANDARD
 70
     0
 40
0.0
 41
1.0
 50
0.0
 71
     0
 42
180.0
  3
simplex.shx
  4
extfont.shx
  0
ENDTAB
  0
TABLE
  2
VIEW
  5
6
330
0
100
AcDbSymbolTable
 70
     0
  0
ENDTAB
  0
TABLE
  2
UCS
  5
7
330
0
100
AcDbSymbolTable
 70
     0
  0
ENDTAB
  0
TABLE
  2
APPID
  5
9
330
0
100
AcDbSymbolTable
 70
     4
  0
APPID
  5
11
330
9
100
AcDbSymbolTableRecord
100
AcDbRegAppTableRecord
  2
ACAD
 70
     0
  0
APPID
  5
8594
330
9
100
AcDbSymbolTableRecord
100
AcDbRegAppTableRecord
  2
ACAD_NAV_VCDISPLAY
 70
     0
  0
APPID
  5
85D9
330
9
100
AcDbSymbolTableRecord
100
AcDbRegAppTableRecord
  2
AcadAnnoMonitorAlertIconDisabled
 70
     0
  0
APPID
  5
85DA
330
9
100
AcDbSymbolTableRecord
100
AcDbRegAppTableRecord
  2
ACAD_EXEMPT_FROM_CAD_STANDARDS
 70
     0
  0
ENDTAB
  0
TABLE
  2
DIMSTYLE
  5
A
330
0
100
AcDbSymbolTable
 70
     1
100
AcDbDimStyleTable
 71
     1
340
1D
  0
DIMSTYLE
105
1D
102
{ACAD_REACTORS
330
7C5C
330
7CA7
330
7CA8
330
7CA9
330
7CAA
330
7CF0
330
7D05
330
7D06
330
7D07
330
7D08
330
7D0C
330
8398
330
83B0
330
8446
330
8455
330
8462
330
8471
330
849C
330
84C9
330
84D6
102
}
330
A
100
AcDbSymbolTableRecord
100
AcDbDimStyleTableRecord
  2
IGA
 70
     0
 40
2.0
 41
2.0
 42
0.5
 43
10.0
 44
1.0
 47
1.0
 48
1.0
 73
     0
 74
     0
 77
     1
 78
     8
140
3.0
141
0.0
143
0.03937
146
10.0
147
1.0
173
     1
271
     1
272
     0
279
     2
284
     8
340
10
341
79FC
343
79FC
344
79FC
  0
ENDTAB
  0
TABLE
  2
BLOCK_RECORD
  5
1
330
0
100
AcDbSymbolTable
 70
    22
  0
BLOCK_RECORD
  5
19
102
{ACAD_XDICTIONARY
360
853A
102
}
330
1
100
AcDbSymbolTableRecord
100
AcDbBlockTableRecord
  2
*MODEL_SPACE
340
84DD
 70
     0
280
     1
281
     0
  0
BLOCK_RECORD
  5
16
330
1
100
AcDbSymbolTableRecord
100
AcDbBlockTableRecord
  2
*PAPER_SPACE
340
84DE
 70
     0
280
     1
281
     0
  0
BLOCK_RECORD
  5
79FC
330
1
100
AcDbSymbolTableRecord
100
AcDbBlockTableRecord
  2
_OPEN
340
0
102
{BLKREFS
331
85E8
331
85E9
331
853F
331
8540
331
8548
331
8549
331
8551
331
8552
331
855C
331
855D
331
8568
331
857B
331
857C
331
85AB
331
833B
331
833C
331
8346
331
8347
331
83A9
331
83AA
331
83B5
331
83B6
331
802D
331
802E
331
8038
331
8039
331
80A1
331
80A2
331
80D3
331
80D4
331
8134
331
8135
331
81DD
331
81DE
331
81E8
331
81E9
331
829B
331
829C
102
}
 70
     0
280
     1
281
     0
  0
BLOCK_RECORD
  5
7D30
330
1
100
AcDbSymbolTableRecord
100
AcDbBlockTableRecord
  2
*D1
340
0
 70
     0
280
     1
281
     0
  0
BLOCK_RECORD
  5
7D9A
330
1
100
AcDbSymbolTableRecord
100
AcDbBlockTableRecord
  2
*D2
340
0
 70
     0
280
     1
281
     0
  0
BLOCK_RECORD
  5
7DA6
330
1
100
AcDbSymbolTableRecord
100
AcDbBlockTableRecord
  2
*D3
340
0
 70
     0
280
     1
281
     0
  0
BLOCK_RECORD
  5
7DB2
330
1
100
AcDbSymbolTableRecord
100
AcDbBlockTableRecord
  2
*D4
340
0
 70
     0
280
     1
281
     0
  0
BLOCK_RECORD
  5
7DBE
330
1
100
AcDbSymbolTableRecord
100
AcDbBlockTableRecord
  2
*D5
340
0
 70
     0
280
     1
281
     0
  0
BLOCK_RECORD
  5
7DC9
330
1
100
AcDbSymbolTableRecord
100
AcDbBlockTableRecord
  2
*D6
340
0
 70
     0
280
     1
281
     0
  0
BLOCK_RECORD
  5
7DD5
330
1
100
AcDbSymbolTableRecord
100
AcDbBlockTableRecord
  2
*D7
340
0
 70
     0
280
     1
281
     0
  0
BLOCK_RECORD
  5
7DE1
330
1
100
AcDbSymbolTableRecord
100
AcDbBlockTableRecord
  2
*D8
340
0
 70
     0
280
     1
281
     0
  0
BLOCK_RECORD
  5
7DEC
330
1
100
AcDbSymbolTableRecord
100
AcDbBlockTableRecord
  2
*D9
340
0
 70
     0
280
     1
281
     0
  0
BLOCK_RECORD
  5
7DF8
330
1
100
AcDbSymbolTableRecord
100
AcDbBlockTableRecord
  2
*D10
340
0
 70
     0
280
     1
281
     0
  0
BLOCK_RECORD
  5
7E2A
330
1
100
AcDbSymbolTableRecord
100
AcDbBlockTableRecord
  2
*D11
340
0
 70
     0
280
     1
281
     0
  0
BLOCK_RECORD
  5
819F
330
1
100
AcDbSymbolTableRecord
100
AcDbBlockTableRecord
  2
_DOT
340
0
102
{BLKREFS
331
8567
331
85AA
102
}
 70
     0
280
     1
281
     0
  0
BLOCK_RECORD
  5
838C
330
1
100
AcDbSymbolTableRecord
100
AcDbBlockTableRecord
  2
*D13
340
0
 70
     0
280
     1
281
     0
  0
BLOCK_RECORD
  5
83A4
330
1
100
AcDbSymbolTableRecord
100
AcDbBlockTableRecord
  2
*D14
340
0
 70
     0
280
     1
281
     0
  0
BLOCK_RECORD
  5
843A
330
1
100
AcDbSymbolTableRecord
100
AcDbBlockTableRecord
  2
*D15
340
0
 70
     0
280
     1
281
     0
  0
BLOCK_RECORD
  5
8447
330
1
100
AcDbSymbolTableRecord
100
AcDbBlockTableRecord
  2
*D16
340
0
 70
     0
280
     1
281
     0
  0
BLOCK_RECORD
  5
8456
330
1
100
AcDbSymbolTableRecord
100
AcDbBlockTableRecord
  2
*D17
340
0
 70
     0
280
     1
281
     0
  0
BLOCK_RECORD
  5
8463
330
1
100
AcDbSymbolTableRecord
100
AcDbBlockTableRecord
  2
*D18
340
0
 70
     0
280
     1
281
     0
  0
BLOCK_RECORD
  5
848E
330
1
100
AcDbSymbolTableRecord
100
AcDbBlockTableRecord
  2
*D19
340
0
 70
     0
280
     1
281
     0
  0
BLOCK_RECORD
  5
84BB
330
1
100
AcDbSymbolTableRecord
100
AcDbBlockTableRecord
  2
*D20
340
0
 70
     0
280
     1
281
     0
  0
BLOCK_RECORD
  5
84CA
330
1
100
AcDbSymbolTableRecord
100
AcDbBlockTableRecord
  2
*D21
340
0
 70
     0
280
     1
281
     0
  0
ENDTAB
  0
ENDSEC
  0
SECTION
  2
BLOCKS
  0
BLOCK
  5
1A
330
19
100
AcDbEntity
  8
0
100
AcDbBlockBegin
  2
*MODEL_SPACE
 70
     0
 10
0.0
 20
0.0
 30
0.0
  3
*MODEL_SPACE
  1

  0
ENDBLK
  5
1B
330
19
100
AcDbEntity
  8
0
100
AcDbBlockEnd
  0
BLOCK
  5
17
330
16
100
AcDbEntity
 67
     1
  8
0
100
AcDbBlockBegin
  2
*PAPER_SPACE
 70
     0
 10
0.0
 20
0.0
 30
0.0
  3
*PAPER_SPACE
  1

  0
ENDBLK
  5
18
330
16
100
AcDbEntity
 67
     1
  8
0
100
AcDbBlockEnd
  0
BLOCK
  5
7A00
330
79FC
100
AcDbEntity
  8
0
100
AcDbBlockBegin
  2
_OPEN
 70
     0
 10
0.0
 20
0.0
 30
0.0
  3
_OPEN
  1

  0
LINE
  5
79FD
330
79FC
100
AcDbEntity
  8
0
  6
ByBlock
 62
     0
100
AcDbLine
 10
-1.0
 20
0.1666666666666666
 30
0.0
 11
0.0
 21
0.0
 31
0.0
  0
LINE
  5
79FE
330
79FC
100
AcDbEntity
  8
0
  6
ByBlock
 62
     0
100
AcDbLine
 10
0.0
 20
0.0
 30
0.0
 11
-1.0
 21
-0.1666666666666666
 31
0.0
  0
LINE
  5
79FF
330
79FC
100
AcDbEntity
  8
0
  6
ByBlock
 62
     0
100
AcDbLine
 10
0.0
 20
0.0
 30
0.0
 11
-1.0
 21
0.0
 31
0.0
  0
ENDBLK
  5
7A01
330
79FC
100
AcDbEntity
  8
0
100
AcDbBlockEnd
  0
BLOCK
  5
8296
330
7D30
100
AcDbEntity
  8
0
100
AcDbBlockBegin
  2
*D1
 70
     1
 10
0.0
 20
0.0
 30
0.0
  3
*D1
  1

  0
LINE
  5
8297
330
7D30
100
AcDbEntity
  8
0
  6
ByBlock
 62
     0
440
 16777216
100
AcDbLine
 10
2319.900310617745
 20
1807.685710406586
 30
0.0
 11
2319.900310617745
 21
1872.933916549591
 31
0.0
  0
LINE
  5
8298
330
7D30
100
AcDbEntity
  8
0
  6
ByBlock
 62
     0
440
 16777216
100
AcDbLine
 10
2499.900310617745
 20
1809.349527897133
 30
0.0
 11
2499.900310617745
 21
1872.933916549591
 31
0.0
  0
LINE
  5
8299
330
7D30
100
AcDbEntity
  8
0
  6
ByBlock
 62
     0
440
 16777216
100
AcDbLine
 10
2349.900310617745
 20
1857.933916549591
 30
0.0
 11
2469.900310617746
 21
1857.933916549591
 31
0.0
  0
MTEXT
  5
829A
330
7D30
100
AcDbEntity
  8
0
  6
ByBlock
 62
     0
440
 16777216
100
AcDbMText
 10
2409.900310617745
 20
1888.869226090721
 30
0.0
 40
45.0
 41
0.0
 46
0.0
 71
     5
 72
     5
  1
\A1;180
 73
     1
 44
1.0
  0
INSERT
  5
829B
330
7D30
100
AcDbEntity
  8
0
  6
ByBlock
 62
     0
440
 16777216
100
AcDbBlockReference
  2
_OPEN
 10
2319.900310617745
 20
1857.933916549591
 30
0.0
 41
30.0
 42
30.0
 43
30.0
 50
180.0
  0
INSERT
  5
829C
330
7D30
100
AcDbEntity
  8
0
  6
ByBlock
 62
     0
440
 16777216
100
AcDbBlockReference
  2
_OPEN
 10
2499.900310617745
 20
1857.933916549591
 30
0.0
 41
30.0
 42
30.0
 43
30.0
  0
POINT
  5
829D
330
7D30
100
AcDbEntity
  8
DEFPOINTS
  6
ByBlock
 62
     0
440
 16777216
100
AcDbPoint
 10
2319.900310617745
 20
1800.185710406586
 30
0.0
  0
POINT
  5
829E
330
7D30
100
AcDbEntity
  8
DEFPOINTS
  6
ByBlock
 62
     0
440
 16777216
100
AcDbPoint
 10
2499.900310617745
 20
1801.849527897133
 30
0.0
  0
POINT
  5
829F
330
7D30
100
AcDbEntity
  8
DEFPOINTS
  6
ByBlock
 62
     0
440
 16777216
100
AcDbPoint
 10
2499.900310617745
 20
1857.933916549591
 30
0.0
  0
ENDBLK
  5
82A0
330
7D30
100
AcDbEntity
  8
0
100
AcDbBlockEnd
  0
BLOCK
  5
8034
330
7D9A
100
AcDbEntity
  8
0
100
AcDbBlockBegin
  2
*D2
 70
     1
 10
0.0
 20
0.0
 30
0.0
  3
*D2
  1

  0
LINE
  5
8035
330
7D9A
100
AcDbEntity
  8
0
  6
ByBlock
 62
     0
440
 16777216
100
AcDbLine
 10
1349.38119165984
 20
1395.103684492517
 30
0.0
 11
1441.031750286163
 21
1395.103684492517
 31
0.0
  0
LINE
  5
8036
330
7D9A
100
AcDbEntity
  8
0
  6
ByBlock
 62
     0
440
 16777216
100
AcDbLine
 10
1349.38119165984
 20
1635.103684492516
 30
0.0
 11
1441.031750286163
 21
1635.103684492516
 31
0.0
  0
LINE
  5
8037
330
7D9A
100
AcDbEntity
  8
0
  6
ByBlock
 62
     0
440
 16777216
100
AcDbLine
 10
1426.031750286163
 20
1425.103684492517
 30
0.0
 11
1426.031750286163
 21
1605.103684492516
 31
0.0
  0
INSERT
  5
8038
330
7D9A
100
AcDbEntity
  8
0
  6
ByBlock
 62
     0
440
 16777216
100
AcDbBlockReference
  2
_OPEN
 10
1426.031750286163
 20
1395.103684492517
 30
0.0
 41
30.0
 42
30.0
 43
30.0
 50
270.0
  0
INSERT
  5
8039
330
7D9A
100
AcDbEntity
  8
0
  6
ByBlock
 62
     0
440
 16777216
100
AcDbBlockReference
  2
_OPEN
 10
1426.031750286163
 20
1635.103684492516
 30
0.0
 41
30.0
 42
30.0
 43
30.0
 50
90.0
  0
MTEXT
  5
803A
330
7D9A
100
AcDbEntity
  8
0
  6
ByBlock
 62
     0
440
 16777216
100
AcDbMText
 10
1388.531750286163
 20
1515.103684492516
 30
0.0
 40
45.0
 41
0.0
 46
0.0
 71
     5
 72
     5
  1
\A1;240
 11
0.0
 21
1.0
 31
0.0
 73
     1
 44
1.0
  0
POINT
  5
803B
330
7D9A
100
AcDbEntity
  8
DEFPOINTS
  6
ByBlock
 62
     0
440
 16777216
100
AcDbPoint
 10
1341.88119165984
 20
1395.103684492517
 30
0.0
  0
POINT
  5
803C
330
7D9A
100
AcDbEntity
  8
DEFPOINTS
  6
ByBlock
 62
     0
440
 16777216
100
AcDbPoint
 10
1341.88119165984
 20
1635.103684492516
 30
0.0
  0
POINT
  5
803D
330
7D9A
100
AcDbEntity
  8
DEFPOINTS
  6
ByBlock
 62
     0
440
 16777216
100
AcDbPoint
 10
1426.031750286163
 20
1635.103684492516
 30
0.0
  0
ENDBLK
  5
803E
330
7D9A
100
AcDbEntity
  8
0
100
AcDbBlockEnd
  0
BLOCK
  5
809D
330
7DA6
100
AcDbEntity
  8
0
100
AcDbBlockBegin
  2
*D3
 70
     1
 10
0.0
 20
0.0
 30
0.0
  3
*D3
  1

  0
LINE
  5
809E
330
7DA6
100
AcDbEntity
  8
0
  6
ByBlock
 62
     0
440
 16777216
100
AcDbLine
 10
1349.38119165984
 20
1395.103684492517
 30
0.0
 11
1522.481029561149
 21
1395.103684492517
 31
0.0
  0
LINE
  5
809F
330
7DA6
100
AcDbEntity
  8
0
  6
ByBlock
 62
     0
440
 16777216
100
AcDbLine
 10
1436.577014657401
 20
1633.103684492516
 30
0.0
 11
1522.481029561149
 21
1633.103684492516
 31
0.0
  0
LINE
  5
80A0
330
7DA6
100
AcDbEntity
  8
0
  6
ByBlock
 62
     0
440
 16777216
100
AcDbLine
 10
1507.48102956115
 20
1425.103684492517
 30
0.0
 11
1507.48102956115
 21
1603.103684492516
 31
0.0
  0
INSERT
  5
80A1
330
7DA6
100
AcDbEntity
  8
0
  6
ByBlock
 62
     0
440
 16777216
100
AcDbBlockReference
  2
_OPEN
 10
1507.48102956115
 20
1395.103684492517
 30
0.0
 41
30.0
 42
30.0
 43
30.0
 50
270.0
  0
INSERT
  5
80A2
330
7DA6
100
AcDbEntity
  8
0
  6
ByBlock
 62
     0
440
 16777216
100
AcDbBlockReference
  2
_OPEN
 10
1507.48102956115
 20
1633.103684492516
 30
0.0
 41
30.0
 42
30.0
 43
30.0
 50
90.0
  0
MTEXT
  5
80A3
330
7DA6
100
AcDbEntity
  8
0
  6
ByBlock
 62
     0
440
 16777216
100
AcDbMText
 10
1469.981029561149
 20
1514.103684492517
 30
0.0
 40
45.0
 41
0.0
 46
0.0
 71
     5
 72
     5
  1
\A1;238
 11
0.0
 21
1.0
 31
0.0
 73
     1
 44
1.0
  0
POINT
  5
80A4
330
7DA6
100
AcDbEntity
  8
DEFPOINTS
  6
ByBlock
 62
     0
440
 16777216
100
AcDbPoint
 10
1341.88119165984
 20
1395.103684492517
 30
0.0
  0
POINT
  5
80A5
330
7DA6
100
AcDbEntity
  8
DEFPOINTS
  6
ByBlock
 62
     0
440
 16777216
100
AcDbPoint
 10
1429.077014657401
 20
1633.103684492516
 30
0.0
  0
POINT
  5
80A6
330
7DA6
100
AcDbEntity
  8
DEFPOINTS
  6
ByBlock
 62
     0
440
 16777216
100
AcDbPoint
 10
1507.48102956115
 20
1633.103684492516
 30
0.0
  0
ENDBLK
  5
80A7
330
7DA6
100
AcDbEntity
  8
0
100
AcDbBlockEnd
  0
BLOCK
  5
8341
330
7DB2
100
AcDbEntity
  8
0
100
AcDbBlockBegin
  2
*D4
 70
     1
 10
0.0
 20
0.0
 30
0.0
  3
*D4
  1

  0
LINE
  5
8342
330
7DB2
100
AcDbEntity
  8
0
  6
ByBlock
 62
     0
440
 16777216
100
AcDbLine
 10
2502.900310617745
 20
1796.424034412645
 30
0.0
 11
2502.900310617745
 21
1986.217627399088
 31
0.0
  0
LINE
  5
8343
330
7DB2
100
AcDbEntity
  8
0
  6
ByBlock
 62
     0
440
 16777216
100
AcDbLine
 10
2409.900310617745
 20
1925.733828620519
 30
0.0
 11
2409.900310617745
 21
1986.217627399088
 31
0.0
  0
LINE
  5
8344
330
7DB2
100
AcDbEntity
  8
0
  6
ByBlock
 62
     0
440
 16777216
100
AcDbLine
 10
2472.900310617745
 20
1971.217627399088
 30
0.0
 11
2439.900310617745
 21
1971.217627399088
 31
0.0
  0
MTEXT
  5
8345
330
7DB2
100
AcDbEntity
  8
0
  6
ByBlock
 62
     0
440
 16777216
100
AcDbMText
 10
2456.400310617745
 20
2009.5834653972
 30
0.0
 40
45.0
 41
0.0
 46
0.0
 71
     5
 72
     5
  1
\A1;94
 73
     1
 44
1.0
  0
INSERT
  5
8346
330
7DB2
100
AcDbEntity
  8
0
  6
ByBlock
 62
     0
440
 16777216
100
AcDbBlockReference
  2
_OPEN
 10
2502.900310617745
 20
1971.217627399088
 30
0.0
 41
30.0
 42
30.0
 43
30.0
  0
INSERT
  5
8347
330
7DB2
100
AcDbEntity
  8
0
  6
ByBlock
 62
     0
440
 16777216
100
AcDbBlockReference
  2
_OPEN
 10
2409.900310617745
 20
1971.217627399088
 30
0.0
 41
30.0
 42
30.0
 43
30.0
 50
180.0
  0
POINT
  5
8348
330
7DB2
100
AcDbEntity
  8
DEFPOINTS
  6
ByBlock
 62
     0
440
 16777216
100
AcDbPoint
 10
2502.900310617745
 20
1788.924034412644
 30
0.0
  0
POINT
  5
8349
330
7DB2
100
AcDbEntity
  8
DEFPOINTS
  6
ByBlock
 62
     0
440
 16777216
100
AcDbPoint
 10
2409.900310617745
 20
1918.233828620519
 30
0.0
  0
POINT
  5
834A
330
7DB2
100
AcDbEntity
  8
DEFPOINTS
  6
ByBlock
 62
     0
440
 16777216
100
AcDbPoint
 10
2409.900310617745
 20
1971.217627399088
 30
0.0
  0
ENDBLK
  5
834B
330
7DB2
100
AcDbEntity
  8
0
100
AcDbBlockEnd
  0
BLOCK
  5
8313
330
7DBE
100
AcDbEntity
  8
0
100
AcDbBlockBegin
  2
*D5
 70
     1
 10
0.0
 20
0.0
 30
0.0
  3
*D5
  1

  0
LINE
  5
85E5
330
7DBE
100
AcDbEntity
  8
3
 62
     0
440
 16777216
370
    -2
100
AcDbLine
 10
2409.900310617745
 20
1925.733828620519
 30
0.0
 11
2409.900310617745
 21
1986.217627399088
 31
0.0
  0
LINE
  5
85E6
330
7DBE
100
AcDbEntity
  8
3
 62
     0
440
 16777216
370
    -2
100
AcDbLine
 10
1882.139245429839
 20
1733.149314796303
 30
0.0
 11
1882.139245429839
 21
1986.217627399088
 31
0.0
  0
LINE
  5
85E7
330
7DBE
100
AcDbEntity
  8
3
 62
     0
440
 16777216
370
    -2
100
AcDbLine
 10
2379.900310617745
 20
1971.217627399088
 30
0.0
 11
1912.139245429839
 21
1971.217627399088
 31
0.0
  0
INSERT
  5
85E8
330
7DBE
100
AcDbEntity
  8
3
 62
     0
440
 16777216
370
    -2
100
AcDbBlockReference
  2
_OPEN
 10
2409.900310617745
 20
1971.217627399088
 30
0.0
 41
30.0
 42
30.0
 43
30.0
  0
INSERT
  5
85E9
330
7DBE
100
AcDbEntity
  8
3
 62
     0
440
 16777216
370
    -2
100
AcDbBlockReference
  2
_OPEN
 10
1882.139245429839
 20
1971.217627399088
 30
0.0
 41
30.0
 42
30.0
 43
30.0
 50
180.0
  0
MTEXT
  5
85EA
330
7DBE
100
AcDbEntity
  8
3
 62
     0
440
 16777216
100
AcDbMText
 10
2146.019778023792
 20
2058.003341684802
 30
0.0
 40
45.0
 41
0.0
 46
0.0
 71
     5
 72
     1
  1
\A1;\P(600)
 73
     1
 44
1.0
  0
POINT
  5
85EB
330
7DBE
100
AcDbEntity
  8
DEFPOINTS
 62
     0
440
 16777216
100
AcDbPoint
 10
2409.900310617745
 20
1918.233828620519
 30
0.0
  0
POINT
  5
85EC
330
7DBE
100
AcDbEntity
  8
DEFPOINTS
 62
     0
440
 16777216
100
AcDbPoint
 10
1882.139245429839
 20
1725.649314796304
 30
0.0
  0
POINT
  5
85ED
330
7DBE
100
AcDbEntity
  8
DEFPOINTS
 62
     0
440
 16777216
100
AcDbPoint
 10
1882.139245429839
 20
1971.217627399088
 30
0.0
  0
ENDBLK
  5
831D
330
7DBE
100
AcDbEntity
  8
0
100
AcDbBlockEnd
  0
BLOCK
  5
8336
330
7DC9
100
AcDbEntity
  8
0
100
AcDbBlockBegin
  2
*D6
 70
     1
 10
0.0
 20
0.0
 30
0.0
  3
*D6
  1

  0
LINE
  5
8337
330
7DC9
100
AcDbEntity
  8
0
  6
ByBlock
 62
     0
440
 16777216
100
AcDbLine
 10
2536.400310617746
 20
1760.080609593058
 30
0.0
 11
2643.602584843691
 21
1760.080609593058
 31
0.0
  0
LINE
  5
8338
330
7DC9
100
AcDbEntity
  8
0
  6
ByBlock
 62
     0
440
 16777216
100
AcDbLine
 10
2536.400310617746
 20
1506.080609593058
 30
0.0
 11
2643.602584843691
 21
1506.080609593058
 31
0.0
  0
LINE
  5
8339
330
7DC9
100
AcDbEntity
  8
0
  6
ByBlock
 62
     0
440
 16777216
100
AcDbLine
 10
2628.602584843691
 20
1730.080609593058
 30
0.0
 11
2628.602584843691
 21
1536.080609593058
 31
0.0
  0
MTEXT
  5
833A
330
7DC9
100
AcDbEntity
  8
0
  6
ByBlock
 62
     0
440
 16777216
100
AcDbMText
 10
2589.271260048791
 20
1633.080609593058
 30
0.0
 40
45.0
 41
0.0
 46
0.0
 71
     5
 72
     5
  1
\A1;φ254
 11
0.0
 21
1.0
 31
0.0
 73
     1
 44
1.0
  0
INSERT
  5
833B
330
7DC9
100
AcDbEntity
  8
0
  6
ByBlock
 62
     0
440
 16777216
100
AcDbBlockReference
  2
_OPEN
 10
2628.602584843691
 20
1760.080609593058
 30
0.0
 41
30.0
 42
30.0
 43
30.0
 50
90.0
  0
INSERT
  5
833C
330
7DC9
100
AcDbEntity
  8
0
  6
ByBlock
 62
     0
440
 16777216
100
AcDbBlockReference
  2
_OPEN
 10
2628.602584843691
 20
1506.080609593058
 30
0.0
 41
30.0
 42
30.0
 43
30.0
 50
270.0
  0
POINT
  5
833D
330
7DC9
100
AcDbEntity
  8
DEFPOINTS
  6
ByBlock
 62
     0
440
 16777216
100
AcDbPoint
 10
2528.900310617746
 20
1760.080609593058
 30
0.0
  0
POINT
  5
833E
330
7DC9
100
AcDbEntity
  8
DEFPOINTS
  6
ByBlock
 62
     0
440
 16777216
100
AcDbPoint
 10
2528.900310617746
 20
1506.080609593058
 30
0.0
  0
POINT
  5
833F
330
7DC9
100
AcDbEntity
  8
DEFPOINTS
  6
ByBlock
 62
     0
440
 16777216
100
AcDbPoint
 10
2628.602584843691
 20
1506.080609593058
 30
0.0
  0
ENDBLK
  5
8340
330
7DC9
100
AcDbEntity
  8
0
100
AcDbBlockEnd
  0
BLOCK
  5
81E3
330
7DD5
100
AcDbEntity
  8
0
100
AcDbBlockBegin
  2
*D7
 70
     1
 10
0.0
 20
0.0
 30
0.0
  3
*D7
  1

  0
LINE
  5
81E4
330
7DD5
100
AcDbEntity
  8
0
  6
ByBlock
 62
     0
440
 16777216
100
AcDbLine
 10
1080.348175439657
 20
1669.603684492517
 30
0.0
 11
1080.348175439657
 21
1920.199369376761
 31
0.0
  0
LINE
  5
81E5
330
7DD5
100
AcDbEntity
  8
0
  6
ByBlock
 62
     0
440
 16777216
100
AcDbLine
 10
880.3481754396571
 20
1879.810054853586
 30
0.0
 11
880.3481754396571
 21
1920.199369376761
 31
0.0
  0
LINE
  5
81E6
330
7DD5
100
AcDbEntity
  8
0
  6
ByBlock
 62
     0
440
 16777216
100
AcDbLine
 10
1050.348175439657
 20
1905.199369376761
 30
0.0
 11
910.348175439657
 21
1905.199369376761
 31
0.0
  0
MTEXT
  5
81E7
330
7DD5
100
AcDbEntity
  8
0
  6
ByBlock
 62
     0
440
 16777216
100
AcDbMText
 10
980.3481754396571
 20
1939.624084435285
 30
0.0
 40
45.0
 41
0.0
 46
0.0
 71
     5
 72
     5
  1
\A1;200
 73
     1
 44
1.0
  0
INSERT
  5
81E8
330
7DD5
100
AcDbEntity
  8
0
  6
ByBlock
 62
     0
440
 16777216
100
AcDbBlockReference
  2
_OPEN
 10
1080.348175439657
 20
1905.199369376761
 30
0.0
 41
30.0
 42
30.0
 43
30.0
  0
INSERT
  5
81E9
330
7DD5
100
AcDbEntity
  8
0
  6
ByBlock
 62
     0
440
 16777216
100
AcDbBlockReference
  2
_OPEN
 10
880.3481754396571
 20
1905.199369376761
 30
0.0
 41
30.0
 42
30.0
 43
30.0
 50
180.0
  0
POINT
  5
81EA
330
7DD5
100
AcDbEntity
  8
DEFPOINTS
  6
ByBlock
 62
     0
440
 16777216
100
AcDbPoint
 10
1080.348175439657
 20
1662.103684492517
 30
0.0
  0
POINT
  5
81EB
330
7DD5
100
AcDbEntity
  8
DEFPOINTS
  6
ByBlock
 62
     0
440
 16777216
100
AcDbPoint
 10
880.3481754396571
 20
1872.310054853586
 30
0.0
  0
POINT
  5
81EC
330
7DD5
100
AcDbEntity
  8
DEFPOINTS
  6
ByBlock
 62
     0
440
 16777216
100
AcDbPoint
 10
880.3481754396571
 20
1905.199369376761
 30
0.0
  0
ENDBLK
  5
81ED
330
7DD5
100
AcDbEntity
  8
0
100
AcDbBlockEnd
  0
BLOCK
  5
81D8
330
7DE1
100
AcDbEntity
  8
0
100
AcDbBlockBegin
  2
*D8
 70
     1
 10
0.0
 20
0.0
 30
0.0
  3
*D8
  1

  0
LINE
  5
81D9
330
7DE1
100
AcDbEntity
  8
0
  6
ByBlock
 62
     0
440
 16777216
100
AcDbLine
 10
880.3481754396571
 20
1879.810054853586
 30
0.0
 11
880.3481754396571
 21
1920.199369376761
 31
0.0
  0
LINE
  5
81DA
330
7DE1
100
AcDbEntity
  8
0
  6
ByBlock
 62
     0
440
 16777216
100
AcDbLine
 10
675.3481754396561
 20
1626.603684492517
 30
0.0
 11
675.3481754396561
 21
1920.199369376761
 31
0.0
  0
LINE
  5
81DB
330
7DE1
100
AcDbEntity
  8
0
  6
ByBlock
 62
     0
440
 16777216
100
AcDbLine
 10
850.348175439657
 20
1905.199369376761
 30
0.0
 11
705.3481754396561
 21
1905.199369376761
 31
0.0
  0
MTEXT
  5
81DC
330
7DE1
100
AcDbEntity
  8
0
  6
ByBlock
 62
     0
440
 16777216
100
AcDbMText
 10
777.8481754396566
 20
1939.624084435285
 30
0.0
 40
45.0
 41
0.0
 46
0.0
 71
     5
 72
     5
  1
\A1;205
 73
     1
 44
1.0
  0
INSERT
  5
81DD
330
7DE1
100
AcDbEntity
  8
0
  6
ByBlock
 62
     0
440
 16777216
100
AcDbBlockReference
  2
_OPEN
 10
880.3481754396571
 20
1905.199369376761
 30
0.0
 41
30.0
 42
30.0
 43
30.0
  0
INSERT
  5
81DE
330
7DE1
100
AcDbEntity
  8
0
  6
ByBlock
 62
     0
440
 16777216
100
AcDbBlockReference
  2
_OPEN
 10
675.3481754396561
 20
1905.199369376761
 30
0.0
 41
30.0
 42
30.0
 43
30.0
 50
180.0
  0
POINT
  5
81DF
330
7DE1
100
AcDbEntity
  8
DEFPOINTS
  6
ByBlock
 62
     0
440
 16777216
100
AcDbPoint
 10
880.3481754396571
 20
1872.310054853586
 30
0.0
  0
POINT
  5
81E0
330
7DE1
100
AcDbEntity
  8
DEFPOINTS
  6
ByBlock
 62
     0
440
 16777216
100
AcDbPoint
 10
675.3481754396561
 20
1619.103684492517
 30
0.0
  0
POINT
  5
81E1
330
7DE1
100
AcDbEntity
  8
DEFPOINTS
  6
ByBlock
 62
     0
440
 16777216
100
AcDbPoint
 10
675.3481754396561
 20
1905.199369376761
 30
0.0
  0
ENDBLK
  5
81E2
330
7DE1
100
AcDbEntity
  8
0
100
AcDbBlockEnd
  0
BLOCK
  5
812F
330
7DEC
100
AcDbEntity
  8
0
100
AcDbBlockBegin
  2
*D9
 70
     1
 10
0.0
 20
0.0
 30
0.0
  3
*D9
  1

  0
LINE
  5
8130
330
7DEC
100
AcDbEntity
  8
0
  6
ByBlock
 62
     0
440
 16777216
100
AcDbLine
 10
873.8481754396561
 20
1810.103684492517
 30
0.0
 11
1352.319700656047
 21
1810.103684492517
 31
0.0
  0
LINE
  5
8131
330
7DEC
100
AcDbEntity
  8
0
  6
ByBlock
 62
     0
440
 16777216
100
AcDbLine
 10
1175.043998437218
 20
1633.103684492516
 30
0.0
 11
1352.319700656047
 21
1633.103684492516
 31
0.0
  0
LINE
  5
8132
330
7DEC
100
AcDbEntity
  8
0
  6
ByBlock
 62
     0
440
 16777216
100
AcDbLine
 10
1337.319700656047
 20
1780.103684492517
 30
0.0
 11
1337.319700656047
 21
1663.103684492516
 31
0.0
  0
MTEXT
  5
8133
330
7DEC
100
AcDbEntity
  8
0
  6
ByBlock
 62
     0
440
 16777216
100
AcDbMText
 10
1304.095585878538
 20
1721.603684492517
 30
0.0
 40
45.0
 41
0.0
 46
0.0
 71
     5
 72
     5
  1
\A1;177
 11
0.0
 21
1.0
 31
0.0
 73
     1
 44
1.0
  0
INSERT
  5
8134
330
7DEC
100
AcDbEntity
  8
0
  6
ByBlock
 62
     0
440
 16777216
100
AcDbBlockReference
  2
_OPEN
 10
1337.319700656047
 20
1810.103684492517
 30
0.0
 41
30.0
 42
30.0
 43
30.0
 50
90.0
  0
INSERT
  5
8135
330
7DEC
100
AcDbEntity
  8
0
  6
ByBlock
 62
     0
440
 16777216
100
AcDbBlockReference
  2
_OPEN
 10
1337.319700656047
 20
1633.103684492516
 30
0.0
 41
30.0
 42
30.0
 43
30.0
 50
270.0
  0
POINT
  5
8136
330
7DEC
100
AcDbEntity
  8
DEFPOINTS
  6
ByBlock
 62
     0
440
 16777216
100
AcDbPoint
 10
866.3481754396562
 20
1810.103684492517
 30
0.0
  0
POINT
  5
8137
330
7DEC
100
AcDbEntity
  8
DEFPOINTS
  6
ByBlock
 62
     0
440
 16777216
100
AcDbPoint
 10
1167.543998437219
 20
1633.103684492516
 30
0.0
  0
POINT
  5
8138
330
7DEC
100
AcDbEntity
  8
DEFPOINTS
  6
ByBlock
 62
     0
440
 16777216
100
AcDbPoint
 10
1337.319700656047
 20
1633.103684492516
 30
0.0
  0
ENDBLK
  5
8139
330
7DEC
100
AcDbEntity
  8
0
100
AcDbBlockEnd
  0
BLOCK
  5
80CF
330
7DF8
100
AcDbEntity
  8
0
100
AcDbBlockBegin
  2
*D10
 70
     1
 10
0.0
 20
0.0
 30
0.0
  3
*D10
  1

  0
LINE
  5
80D0
330
7DF8
100
AcDbEntity
  8
0
  6
ByBlock
 62
     0
440
 16777216
100
AcDbLine
 10
1436.577014657401
 20
1633.103684492516
 30
0.0
 11
1613.85271687623
 21
1633.103684492516
 31
0.0
  0
LINE
  5
80D1
330
7DF8
100
AcDbEntity
  8
0
  6
ByBlock
 62
     0
440
 16777216
100
AcDbLine
 10
1349.38119165984
 20
1313.103684492516
 30
0.0
 11
1613.85271687623
 21
1313.103684492516
 31
0.0
  0
LINE
  5
80D2
330
7DF8
100
AcDbEntity
  8
0
  6
ByBlock
 62
     0
440
 16777216
100
AcDbLine
 10
1598.85271687623
 20
1603.103684492516
 30
0.0
 11
1598.85271687623
 21
1343.103684492515
 31
0.0
  0
INSERT
  5
80D3
330
7DF8
100
AcDbEntity
  8
0
  6
ByBlock
 62
     0
440
 16777216
100
AcDbBlockReference
  2
_OPEN
 10
1598.85271687623
 20
1633.103684492516
 30
0.0
 41
30.0
 42
30.0
 43
30.0
 50
90.0
  0
INSERT
  5
80D4
330
7DF8
100
AcDbEntity
  8
0
  6
ByBlock
 62
     0
440
 16777216
100
AcDbBlockReference
  2
_OPEN
 10
1598.85271687623
 20
1313.103684492516
 30
0.0
 41
30.0
 42
30.0
 43
30.0
 50
270.0
  0
MTEXT
  5
80D5
330
7DF8
100
AcDbEntity
  8
0
  6
ByBlock
 62
     0
440
 16777216
100
AcDbMText
 10
1561.35271687623
 20
1473.103684492516
 30
0.0
 40
45.0
 41
0.0
 46
0.0
 71
     5
 72
     5
  1
\A1;320
 11
0.0
 21
1.0
 31
0.0
 73
     1
 44
1.0
  0
POINT
  5
80D6
330
7DF8
100
AcDbEntity
  8
DEFPOINTS
  6
ByBlock
 62
     0
440
 16777216
100
AcDbPoint
 10
1429.077014657401
 20
1633.103684492516
 30
0.0
  0
POINT
  5
80D7
330
7DF8
100
AcDbEntity
  8
DEFPOINTS
  6
ByBlock
 62
     0
440
 16777216
100
AcDbPoint
 10
1341.88119165984
 20
1313.103684492516
 30
0.0
  0
POINT
  5
80D8
330
7DF8
100
AcDbEntity
  8
DEFPOINTS
  6
ByBlock
 62
     0
440
 16777216
100
AcDbPoint
 10
1598.85271687623
 20
1313.103684492516
 30
0.0
  0
ENDBLK
  5
80D9
330
7DF8
100
AcDbEntity
  8
0
100
AcDbBlockEnd
  0
BLOCK
  5
8029
330
7E2A
100
AcDbEntity
  8
0
100
AcDbBlockBegin
  2
*D11
 70
     1
 10
0.0
 20
0.0
 30
0.0
  3
*D11
  1

  0
LINE
  5
802A
330
7E2A
100
AcDbEntity
  8
0
  6
ByBlock
 62
     0
440
 16777216
100
AcDbLine
 10
1341.88119165984
 20
1669.603684492517
 30
0.0
 11
1341.88119165984
 21
2037.970819652688
 31
0.0
  0
LINE
  5
802B
330
7E2A
100
AcDbEntity
  8
0
  6
ByBlock
 62
     0
440
 16777216
100
AcDbLine
 10
641.8811916598388
 20
1360.603684492516
 30
0.0
 11
641.8811916598388
 21
2037.970819652688
 31
0.0
  0
LINE
  5
802C
330
7E2A
100
AcDbEntity
  8
0
  6
ByBlock
 62
     0
440
 16777216
100
AcDbLine
 10
1311.88119165984
 20
2022.970819652687
 30
0.0
 11
671.8811916598387
 21
2022.970819652687
 31
0.0
  0
INSERT
  5
802D
330
7E2A
100
AcDbEntity
  8
0
  6
ByBlock
 62
     0
440
 16777216
100
AcDbBlockReference
  2
_OPEN
 10
1341.88119165984
 20
2022.970819652687
 30
0.0
 41
30.0
 42
30.0
 43
30.0
  0
INSERT
  5
802E
330
7E2A
100
AcDbEntity
  8
0
  6
ByBlock
 62
     0
440
 16777216
100
AcDbBlockReference
  2
_OPEN
 10
641.8811916598388
 20
2022.970819652687
 30
0.0
 41
30.0
 42
30.0
 43
30.0
 50
180.0
  0
MTEXT
  5
802F
330
7E2A
100
AcDbEntity
  8
0
  6
ByBlock
 62
     0
440
 16777216
100
AcDbMText
 10
991.8811916598393
 20
2060.470819652687
 30
0.0
 40
45.0
 41
0.0
 46
0.0
 71
     5
 72
     5
  1
\A1;700
 73
     1
 44
1.0
  0
POINT
  5
8030
330
7E2A
100
AcDbEntity
  8
DEFPOINTS
  6
ByBlock
 62
     0
440
 16777216
100
AcDbPoint
 10
1341.88119165984
 20
1662.103684492517
 30
0.0
  0
POINT
  5
8031
330
7E2A
100
AcDbEntity
  8
DEFPOINTS
  6
ByBlock
 62
     0
440
 16777216
100
AcDbPoint
 10
641.8811916598388
 20
1353.103684492516
 30
0.0
  0
POINT
  5
8032
330
7E2A
100
AcDbEntity
  8
DEFPOINTS
  6
ByBlock
 62
     0
440
 16777216
100
AcDbPoint
 10
641.8811916598388
 20
2022.970819652687
 30
0.0
  0
ENDBLK
  5
8033
330
7E2A
100
AcDbEntity
  8
0
100
AcDbBlockEnd
  0
BLOCK
  5
81A0
330
819F
100
AcDbEntity
  8
0
100
AcDbBlockBegin
  2
_DOT
 70
     0
 10
0.0
 20
0.0
 30
0.0
  3
_DOT
  1

  0
LINE
  5
830E
330
819F
100
AcDbEntity
  8
0
  6
ByBlock
 62
     0
100
AcDbLine
 10
0.0
 20
0.0
 30
0.0
 11
-1.0
 21
-0.0000000000000284
 31
0.0
  0
LWPOLYLINE
  5
830F
330
819F
100
AcDbEntity
  8
0
  6
ByBlock
 62
     0
100
AcDbPolyline
 90
        2
 70
     1
 43
0.1666666666666666
 10
-0.0833333333333286
 20
-0.0000000000000284
 42
1.0
 10
0.0833333333333286
 20
-0.0000000000000284
 42
1.0
  0
ENDBLK
  5
81A6
330
819F
100
AcDbEntity
  8
0
100
AcDbBlockEnd
  0
BLOCK
  5
83B1
330
838C
100
AcDbEntity
  8
0
100
AcDbBlockBegin
  2
*D13
 70
     1
 10
0.0
 20
0.0
 30
0.0
  3
*D13
  1

  0
LINE
  5
83B2
330
838C
100
AcDbEntity
  8
0
  6
ByBlock
 62
     0
440
 16777216
100
AcDbLine
 10
372.8481754396571
 20
3091.480463127331
 30
0.0
 11
287.1162107943055
 21
3091.480463127331
 31
0.0
  0
LINE
  5
83B3
330
838C
100
AcDbEntity
  8
0
  6
ByBlock
 62
     0
440
 16777216
100
AcDbLine
 10
372.848175439658
 20
2646.480463127331
 30
0.0
 11
287.1162107943055
 21
2646.480463127331
 31
0.0
  0
LINE
  5
83B4
330
838C
100
AcDbEntity
  8
0
  6
ByBlock
 62
     0
440
 16777216
100
AcDbLine
 10
302.1162107943055
 20
3061.480463127331
 30
0.0
 11
302.1162107943055
 21
2676.480463127331
 31
0.0
  0
INSERT
  5
83B5
330
838C
100
AcDbEntity
  8
0
  6
ByBlock
 62
     0
440
 16777216
100
AcDbBlockReference
  2
_OPEN
 10
302.1162107943055
 20
3091.480463127331
 30
0.0
 41
30.0
 42
30.0
 43
30.0
 50
90.0
  0
INSERT
  5
83B6
330
838C
100
AcDbEntity
  8
0
  6
ByBlock
 62
     0
440
 16777216
100
AcDbBlockReference
  2
_OPEN
 10
302.1162107943055
 20
2646.480463127331
 30
0.0
 41
30.0
 42
30.0
 43
30.0
 50
270.0
  0
MTEXT
  5
83B7
330
838C
100
AcDbEntity
  8
0
  6
ByBlock
 62
     0
440
 16777216
100
AcDbMText
 10
264.6162107943055
 20
2859.571621663239
 30
0.0
 40
45.0
 41
0.0
 46
0.0
 71
     5
 72
     5
  1
\A1;445
 11
0.0
 21
1.0
 31
0.0
 73
     1
 44
1.0
  0
POINT
  5
83B8
330
838C
100
AcDbEntity
  8
DEFPOINTS
  6
ByBlock
 62
     0
440
 16777216
100
AcDbPoint
 10
380.3481754396571
 20
3091.480463127331
 30
0.0
  0
POINT
  5
83B9
330
838C
100
AcDbEntity
  8
DEFPOINTS
  6
ByBlock
 62
     0
440
 16777216
100
AcDbPoint
 10
380.348175439658
 20
2646.480463127331
 30
0.0
  0
POINT
  5
83BA
330
838C
100
AcDbEntity
  8
DEFPOINTS
  6
ByBlock
 62
     0
440
 16777216
100
AcDbPoint
 10
302.1162107943055
 20
2646.480463127331
 30
0.0
  0
ENDBLK
  5
83BB
330
838C
100
AcDbEntity
  8
0
100
AcDbBlockEnd
  0
BLOCK
  5
83A5
330
83A4
100
AcDbEntity
  8
0
100
AcDbBlockBegin
  2
*D14
 70
     1
 10
0.0
 20
0.0
 30
0.0
  3
*D14
  1

  0
LINE
  5
83A6
330
83A4
100
AcDbEntity
  8
0
  6
ByBlock
 62
     0
440
 16777216
100
AcDbLine
 10
380.348175439658
 20
2638.980463127331
 30
0.0
 11
380.348175439658
 21
2479.552879106071
 31
0.0
  0
LINE
  5
83A7
330
83A4
100
AcDbEntity
  8
0
  6
ByBlock
 62
     0
440
 16777216
100
AcDbLine
 10
1080.348175439657
 20
2638.980463127331
 30
0.0
 11
1080.348175439657
 21
2479.552879106071
 31
0.0
  0
LINE
  5
83A8
330
83A4
100
AcDbEntity
  8
0
  6
ByBlock
 62
     0
440
 16777216
100
AcDbLine
 10
410.348175439658
 20
2494.552879106072
 30
0.0
 11
1050.348175439657
 21
2494.552879106072
 31
0.0
  0
INSERT
  5
83A9
330
83A4
100
AcDbEntity
  8
0
  6
ByBlock
 62
     0
440
 16777216
100
AcDbBlockReference
  2
_OPEN
 10
380.348175439658
 20
2494.552879106072
 30
0.0
 41
30.0
 42
30.0
 43
30.0
 50
180.0
  0
INSERT
  5
83AA
330
83A4
100
AcDbEntity
  8
0
  6
ByBlock
 62
     0
440
 16777216
100
AcDbBlockReference
  2
_OPEN
 10
1080.348175439657
 20
2494.552879106072
 30
0.0
 41
30.0
 42
30.0
 43
30.0
  0
MTEXT
  5
83AB
330
83A4
100
AcDbEntity
  8
0
  6
ByBlock
 62
     0
440
 16777216
100
AcDbMText
 10
694.6665839007437
 20
2532.052879106072
 30
0.0
 40
45.0
 41
0.0
 46
0.0
 71
     5
 72
     5
  1
\A1;700
 73
     1
 44
1.0
  0
POINT
  5
83AC
330
83A4
100
AcDbEntity
  8
DEFPOINTS
  6
ByBlock
 62
     0
440
 16777216
100
AcDbPoint
 10
380.348175439658
 20
2646.480463127331
 30
0.0
  0
POINT
  5
83AD
330
83A4
100
AcDbEntity
  8
DEFPOINTS
  6
ByBlock
 62
     0
440
 16777216
100
AcDbPoint
 10
1080.348175439657
 20
2646.480463127331
 30
0.0
  0
POINT
  5
83AE
330
83A4
100
AcDbEntity
  8
DEFPOINTS
  6
ByBlock
 62
     0
440
 16777216
100
AcDbPoint
 10
1080.348175439657
 20
2494.552879106072
 30
0.0
  0
ENDBLK
  5
83AF
330
83A4
100
AcDbEntity
  8
0
100
AcDbBlockEnd
  0
BLOCK
  5
843B
330
843A
100
AcDbEntity
  8
0
100
AcDbBlockBegin
  2
*D15
 70
     1
 10
0.0
 20
0.0
 30
0.0
  3
*D15
  1

  0
LINE
  5
853C
330
843A
100
AcDbEntity
  8
3
 62
     0
440
 16777216
370
    -2
100
AcDbLine
 10
380.3481754396562
 20
1195.603684492515
 30
0.0
 11
380.3481754396562
 21
1070.022427699312
 31
0.0
  0
LINE
  5
853D
330
843A
100
AcDbEntity
  8
3
 62
     0
440
 16777216
370
    -2
100
AcDbLine
 10
880.3481754396571
 20
1195.603684492515
 30
0.0
 11
880.3481754396571
 21
1070.022427699312
 31
0.0
  0
LINE
  5
853E
330
843A
100
AcDbEntity
  8
3
 62
     0
440
 16777216
370
    -2
100
AcDbLine
 10
410.3481754396561
 20
1085.022427699312
 30
0.0
 11
850.348175439657
 21
1085.022427699312
 31
0.0
  0
INSERT
  5
853F
330
843A
100
AcDbEntity
  8
3
 62
     0
440
 16777216
370
    -2
100
AcDbBlockReference
  2
_OPEN
 10
380.3481754396562
 20
1085.022427699312
 30
0.0
 41
30.0
 42
30.0
 43
30.0
 50
180.0
  0
INSERT
  5
8540
330
843A
100
AcDbEntity
  8
3
 62
     0
440
 16777216
370
    -2
100
AcDbBlockReference
  2
_OPEN
 10
880.3481754396571
 20
1085.022427699312
 30
0.0
 41
30.0
 42
30.0
 43
30.0
  0
MTEXT
  5
8541
330
843A
100
AcDbEntity
  8
3
 62
     0
440
 16777216
100
AcDbMText
 10
630.3481754396566
 20
1122.522427699312
 30
0.0
 40
45.0
 41
0.0
 46
0.0
 71
     5
 72
     1
  1
\A1;500
 73
     1
 44
1.0
  0
POINT
  5
8542
330
843A
100
AcDbEntity
  8
DEFPOINTS
 62
     0
440
 16777216
100
AcDbPoint
 10
380.3481754396562
 20
1203.103684492515
 30
0.0
  0
POINT
  5
8543
330
843A
100
AcDbEntity
  8
DEFPOINTS
 62
     0
440
 16777216
100
AcDbPoint
 10
880.3481754396571
 20
1203.103684492515
 30
0.0
  0
POINT
  5
8544
330
843A
100
AcDbEntity
  8
DEFPOINTS
 62
     0
440
 16777216
100
AcDbPoint
 10
880.3481754396571
 20
1085.022427699312
 30
0.0
  0
ENDBLK
  5
8445
330
843A
100
AcDbEntity
  8
0
100
AcDbBlockEnd
  0
BLOCK
  5
8448
330
8447
100
AcDbEntity
  8
0
100
AcDbBlockBegin
  2
*D16
 70
     1
 10
0.0
 20
0.0
 30
0.0
  3
*D16
  1

  0
LINE
  5
8545
330
8447
100
AcDbEntity
  8
3
 62
     0
440
 16777216
370
    -2
100
AcDbLine
 10
880.3481754396571
 20
1195.603684492515
 30
0.0
 11
880.3481754396571
 21
1070.022427699312
 31
0.0
  0
LINE
  5
8546
330
8447
100
AcDbEntity
  8
3
 62
     0
440
 16777216
370
    -2
100
AcDbLine
 10
1080.348175439657
 20
1195.603684492515
 30
0.0
 11
1080.348175439657
 21
1070.022427699312
 31
0.0
  0
LINE
  5
8547
330
8447
100
AcDbEntity
  8
3
 62
     0
440
 16777216
370
    -2
100
AcDbLine
 10
910.348175439657
 20
1085.022427699312
 30
0.0
 11
1050.348175439657
 21
1085.022427699312
 31
0.0
  0
INSERT
  5
8548
330
8447
100
AcDbEntity
  8
3
 62
     0
440
 16777216
370
    -2
100
AcDbBlockReference
  2
_OPEN
 10
880.3481754396571
 20
1085.022427699312
 30
0.0
 41
30.0
 42
30.0
 43
30.0
 50
180.0
  0
INSERT
  5
8549
330
8447
100
AcDbEntity
  8
3
 62
     0
440
 16777216
370
    -2
100
AcDbBlockReference
  2
_OPEN
 10
1080.348175439657
 20
1085.022427699312
 30
0.0
 41
30.0
 42
30.0
 43
30.0
  0
MTEXT
  5
854A
330
8447
100
AcDbEntity
  8
3
 62
     0
440
 16777216
100
AcDbMText
 10
980.3481754396571
 20
1122.522427699312
 30
0.0
 40
45.0
 41
0.0
 46
0.0
 71
     5
 72
     1
  1
\A1;200
 73
     1
 44
1.0
  0
POINT
  5
854B
330
8447
100
AcDbEntity
  8
DEFPOINTS
 62
     0
440
 16777216
100
AcDbPoint
 10
880.3481754396571
 20
1203.103684492515
 30
0.0
  0
POINT
  5
854C
330
8447
100
AcDbEntity
  8
DEFPOINTS
 62
     0
440
 16777216
100
AcDbPoint
 10
1080.348175439657
 20
1203.103684492515
 30
0.0
  0
POINT
  5
854D
330
8447
100
AcDbEntity
  8
DEFPOINTS
 62
     0
440
 16777216
100
AcDbPoint
 10
1080.348175439657
 20
1085.022427699312
 30
0.0
  0
ENDBLK
  5
8454
330
8447
100
AcDbEntity
  8
0
100
AcDbBlockEnd
  0
BLOCK
  5
8457
330
8456
100
AcDbEntity
  8
0
100
AcDbBlockBegin
  2
*D17
 70
     1
 10
0.0
 20
0.0
 30
0.0
  3
*D17
  1

  0
LINE
  5
854E
330
8456
100
AcDbEntity
  8
3
 62
     0
440
 16777216
370
    -2
100
AcDbLine
 10
1908.900310617745
 20
1195.580609593058
 30
0.0
 11
1908.900310617745
 21
1070.022427699312
 31
0.0
  0
LINE
  5
854F
330
8456
100
AcDbEntity
  8
3
 62
     0
440
 16777216
370
    -2
100
AcDbLine
 10
2353.900310617746
 20
1195.580609593058
 30
0.0
 11
2353.900310617746
 21
1070.022427699312
 31
0.0
  0
LINE
  5
8550
330
8456
100
AcDbEntity
  8
3
 62
     0
440
 16777216
370
    -2
100
AcDbLine
 10
1938.900310617745
 20
1085.022427699312
 30
0.0
 11
2323.900310617745
 21
1085.022427699312
 31
0.0
  0
INSERT
  5
8551
330
8456
100
AcDbEntity
  8
3
 62
     0
440
 16777216
370
    -2
100
AcDbBlockReference
  2
_OPEN
 10
1908.900310617745
 20
1085.022427699312
 30
0.0
 41
30.0
 42
30.0
 43
30.0
 50
180.0
  0
INSERT
  5
8552
330
8456
100
AcDbEntity
  8
3
 62
     0
440
 16777216
370
    -2
100
AcDbBlockReference
  2
_OPEN
 10
2353.900310617746
 20
1085.022427699312
 30
0.0
 41
30.0
 42
30.0
 43
30.0
  0
MTEXT
  5
8553
330
8456
100
AcDbEntity
  8
3
 62
     0
440
 16777216
100
AcDbMText
 10
2131.400310617745
 20
1122.522427699312
 30
0.0
 40
45.0
 41
0.0
 46
0.0
 71
     5
 72
     1
  1
\A1;445
 73
     1
 44
1.0
  0
POINT
  5
8554
330
8456
100
AcDbEntity
  8
DEFPOINTS
 62
     0
440
 16777216
100
AcDbPoint
 10
1908.900310617745
 20
1203.080609593058
 30
0.0
  0
POINT
  5
8555
330
8456
100
AcDbEntity
  8
DEFPOINTS
 62
     0
440
 16777216
100
AcDbPoint
 10
2353.900310617746
 20
1203.080609593058
 30
0.0
  0
POINT
  5
8556
330
8456
100
AcDbEntity
  8
DEFPOINTS
 62
     0
440
 16777216
100
AcDbPoint
 10
2353.900310617746
 20
1085.022427699312
 30
0.0
  0
ENDBLK
  5
8461
330
8456
100
AcDbEntity
  8
0
100
AcDbBlockEnd
  0
BLOCK
  5
8464
330
8463
100
AcDbEntity
  8
0
100
AcDbBlockBegin
  2
*D18
 70
     1
 10
0.0
 20
0.0
 30
0.0
  3
*D18
  1

  0
LINE
  5
8557
330
8463
100
AcDbEntity
  8
3
 62
     0
440
 16777216
370
    -2
100
AcDbLine
 10
2353.900310617746
 20
1195.580609593058
 30
0.0
 11
2353.900310617746
 21
1070.022427699312
 31
0.0
  0
LINE
  5
8558
330
8463
100
AcDbEntity
  8
3
 62
     0
440
 16777216
370
    -2
100
AcDbLine
 10
2409.900310617746
 20
1195.580609593058
 30
0.0
 11
2409.900310617746
 21
1070.022427699312
 31
0.0
  0
LINE
  5
8559
330
8463
100
AcDbEntity
  8
3
 62
     0
440
 16777216
370
    -2
100
AcDbLine
 10
2323.900310617745
 20
1085.022427699312
 30
0.0
 11
2293.900310617745
 21
1085.022427699312
 31
0.0
  0
LINE
  5
855A
330
8463
100
AcDbEntity
  8
3
 62
     0
440
 16777216
370
    -2
100
AcDbLine
 10
2439.900310617746
 20
1085.022427699312
 30
0.0
 11
2570.614596332032
 21
1085.022427699312
 31
0.0
  0
LINE
  5
855B
330
8463
100
AcDbEntity
  8
3
 62
     0
440
 16777216
370
    -2
100
AcDbLine
 10
2353.900310617746
 20
1085.022427699312
 30
0.0
 11
2409.900310617746
 21
1085.022427699312
 31
0.0
  0
INSERT
  5
855C
330
8463
100
AcDbEntity
  8
3
 62
     0
440
 16777216
370
    -2
100
AcDbBlockReference
  2
_OPEN
 10
2353.900310617746
 20
1085.022427699312
 30
0.0
 41
30.0
 42
30.0
 43
30.0
  0
INSERT
  5
855D
330
8463
100
AcDbEntity
  8
3
 62
     0
440
 16777216
370
    -2
100
AcDbBlockReference
  2
_OPEN
 10
2409.900310617746
 20
1085.022427699312
 30
0.0
 41
30.0
 42
30.0
 43
30.0
 50
180.0
  0
MTEXT
  5
855E
330
8463
100
AcDbEntity
  8
3
 62
     0
440
 16777216
100
AcDbMText
 10
2520.257453474889
 20
1122.522427699312
 30
0.0
 40
45.0
 41
0.0
 46
0.0
 71
     5
 72
     1
  1
\A1;56
 73
     1
 44
1.0
  0
POINT
  5
855F
330
8463
100
AcDbEntity
  8
DEFPOINTS
 62
     0
440
 16777216
100
AcDbPoint
 10
2353.900310617746
 20
1203.080609593058
 30
0.0
  0
POINT
  5
8560
330
8463
100
AcDbEntity
  8
DEFPOINTS
 62
     0
440
 16777216
100
AcDbPoint
 10
2409.900310617746
 20
1203.080609593058
 30
0.0
  0
POINT
  5
8561
330
8463
100
AcDbEntity
  8
DEFPOINTS
 62
     0
440
 16777216
100
AcDbPoint
 10
2409.900310617746
 20
1085.022427699312
 30
0.0
  0
ENDBLK
  5
8470
330
8463
100
AcDbEntity
  8
0
100
AcDbBlockEnd
  0
BLOCK
  5
848F
330
848E
100
AcDbEntity
  8
0
100
AcDbBlockBegin
  2
*D19
 70
     1
 10
0.0
 20
0.0
 30
0.0
  3
*D19
  1

  0
LINE
  5
8562
330
848E
100
AcDbEntity
  8
3
 62
     0
440
 16777216
370
    -2
100
AcDbLine
 10
1087.848175439657
 20
1243.103684492516
 30
0.0
 11
1353.778217251418
 21
1243.103684492516
 31
0.0
  0
LINE
  5
8563
330
848E
100
AcDbEntity
  8
3
 62
     0
440
 16777216
370
    -2
100
AcDbLine
 10
1087.848175439657
 20
1203.103684492515
 30
0.0
 11
1353.778217251418
 21
1203.103684492515
 31
0.0
  0
LINE
  5
8564
330
848E
100
AcDbEntity
  8
3
 62
     0
440
 16777216
370
    -2
100
AcDbLine
 10
1338.778217251418
 20
1273.103684492516
 30
0.0
 11
1338.778217251418
 21
1303.103684492516
 31
0.0
  0
LINE
  5
8565
330
848E
100
AcDbEntity
  8
3
 62
     0
440
 16777216
370
    -2
100
AcDbLine
 10
1338.778217251418
 20
1173.103684492516
 30
0.0
 11
1338.778217251418
 21
1040.246541635373
 31
0.0
  0
LINE
  5
8566
330
848E
100
AcDbEntity
  8
3
 62
     0
440
 16777216
370
    -2
100
AcDbLine
 10
1338.778217251418
 20
1243.103684492516
 30
0.0
 11
1338.778217251418
 21
1203.103684492515
 31
0.0
  0
INSERT
  5
8567
330
848E
100
AcDbEntity
  8
3
 62
     0
440
 16777216
370
    -2
100
AcDbBlockReference
  2
_DOT
 10
1338.778217251418
 20
1243.103684492516
 30
0.0
 41
30.0
 42
30.0
 43
30.0
 50
270.0
  0
INSERT
  5
8568
330
848E
100
AcDbEntity
  8
3
 62
     0
440
 16777216
370
    -2
100
AcDbBlockReference
  2
_OPEN
 10
1338.778217251418
 20
1203.103684492515
 30
0.0
 41
30.0
 42
30.0
 43
30.0
 50
90.0
  0
MTEXT
  5
8569
330
848E
100
AcDbEntity
  8
3
 62
     0
440
 16777216
100
AcDbMText
 10
1301.278217251418
 20
1091.675113063944
 30
0.0
 40
45.0
 41
0.0
 46
0.0
 71
     5
 72
     1
  1
\A1;40
 11
0.0000000000000001
 21
1.0
 31
0.0
 73
     1
 44
1.0
  0
POINT
  5
856A
330
848E
100
AcDbEntity
  8
DEFPOINTS
 62
     0
440
 16777216
100
AcDbPoint
 10
1080.348175439657
 20
1243.103684492516
 30
0.0
  0
POINT
  5
856B
330
848E
100
AcDbEntity
  8
DEFPOINTS
 62
     0
440
 16777216
100
AcDbPoint
 10
1080.348175439657
 20
1203.103684492515
 30
0.0
  0
POINT
  5
856C
330
848E
100
AcDbEntity
  8
DEFPOINTS
 62
     0
440
 16777216
100
AcDbPoint
 10
1338.778217251418
 20
1203.103684492515
 30
0.0
  0
ENDBLK
  5
849B
330
848E
100
AcDbEntity
  8
0
100
AcDbBlockEnd
  0
BLOCK
  5
84BC
330
84BB
100
AcDbEntity
  8
0
100
AcDbBlockBegin
  2
*D20
 70
     1
 10
0.0
 20
0.0
 30
0.0
  3
*D20
  1

  0
LINE
  5
85A4
330
84BB
100
AcDbEntity
  8
3
 62
     0
440
 16777216
370
    -2
100
AcDbLine
 10
1087.848175439657
 20
1243.103684492516
 30
0.0
 11
1352.713664124045
 21
1243.103684492516
 31
0.0
  0
LINE
  5
85A5
330
84BB
100
AcDbEntity
  8
3
 62
     0
440
 16777216
370
    -2
100
AcDbLine
 10
1087.848175439657
 20
1313.103684492516
 30
0.0
 11
1352.713664124045
 21
1313.103684492516
 31
0.0
  0
LINE
  5
85A6
330
84BB
100
AcDbEntity
  8
3
 62
     0
440
 16777216
370
    -2
100
AcDbLine
 10
1337.713664124045
 20
1213.103684492516
 30
0.0
 11
1337.713664124045
 21
1183.103684492516
 31
0.0
  0
LINE
  5
85A7
330
84BB
100
AcDbEntity
  8
3
 62
     0
440
 16777216
370
    -2
100
AcDbLine
 10
1337.713664124045
 20
1343.103684492515
 30
0.0
 11
1337.713664124045
 21
1373.103684492515
 31
0.0
  0
MTEXT
  5
85A8
330
84BB
100
AcDbEntity
  8
3
 62
     0
440
 16777216
100
AcDbMText
 10
1398.37646072069
 20
1279.90259231472
 30
0.0
 40
45.0
 41
0.0
 46
0.0
 71
     5
 72
     1
  1
\A1;(70)
 11
0.0000000000000001
 21
1.0
 31
0.0
 73
     1
 44
1.0
  0
LINE
  5
85A9
330
84BB
100
AcDbEntity
  8
3
 62
     0
440
 16777216
370
    -2
100
AcDbLine
 10
1337.713664124045
 20
1243.103684492516
 30
0.0
 11
1337.713664124045
 21
1313.103684492516
 31
0.0
  0
INSERT
  5
85AA
330
84BB
100
AcDbEntity
  8
3
 62
     0
440
 16777216
370
    -2
100
AcDbBlockReference
  2
_DOT
 10
1337.713664124045
 20
1243.103684492516
 30
0.0
 41
30.0
 42
30.0
 43
30.0
 50
90.0
  0
INSERT
  5
85AB
330
84BB
100
AcDbEntity
  8
3
 62
     0
440
 16777216
370
    -2
100
AcDbBlockReference
  2
_OPEN
 10
1337.713664124045
 20
1313.103684492516
 30
0.0
 41
30.0
 42
30.0
 43
30.0
 50
270.0
  0
POINT
  5
85AC
330
84BB
100
AcDbEntity
  8
DEFPOINTS
 62
     0
440
 16777216
100
AcDbPoint
 10
1080.348175439657
 20
1243.103684492516
 30
0.0
  0
POINT
  5
85AD
330
84BB
100
AcDbEntity
  8
DEFPOINTS
 62
     0
440
 16777216
100
AcDbPoint
 10
1080.348175439657
 20
1313.103684492516
 30
0.0
  0
POINT
  5
85AE
330
84BB
100
AcDbEntity
  8
DEFPOINTS
 62
     0
440
 16777216
100
AcDbPoint
 10
1337.713664124045
 20
1313.103684492516
 30
0.0
  0
ENDBLK
  5
84C8
330
84BB
100
AcDbEntity
  8
0
100
AcDbBlockEnd
  0
BLOCK
  5
84CB
330
84CA
100
AcDbEntity
  8
0
100
AcDbBlockBegin
  2
*D21
 70
     1
 10
0.0
 20
0.0
 30
0.0
  3
*D21
  1

  0
LINE
  5
8578
330
84CA
100
AcDbEntity
  8
3
 62
     0
440
 16777216
370
    -2
100
AcDbLine
 10
881.3481754396562
 20
1810.103684492517
 30
0.0
 11
1484.587788179133
 21
1810.103684492517
 31
0.0
  0
LINE
  5
8579
330
84CA
100
AcDbEntity
  8
3
 62
     0
440
 16777216
370
    -2
100
AcDbLine
 10
1087.848175439657
 20
1203.103684492515
 30
0.0
 11
1484.587788179133
 21
1203.103684492515
 31
0.0
  0
LINE
  5
857A
330
84CA
100
AcDbEntity
  8
3
 62
     0
440
 16777216
370
    -2
100
AcDbLine
 10
1469.587788179133
 20
1780.103684492517
 30
0.0
 11
1469.587788179133
 21
1233.103684492516
 31
0.0
  0
INSERT
  5
857B
330
84CA
100
AcDbEntity
  8
3
 62
     0
440
 16777216
370
    -2
100
AcDbBlockReference
  2
_OPEN
 10
1469.587788179133
 20
1810.103684492517
 30
0.0
 41
30.0
 42
30.0
 43
30.0
 50
90.0
  0
INSERT
  5
857C
330
84CA
100
AcDbEntity
  8
3
 62
     0
440
 16777216
370
    -2
100
AcDbBlockReference
  2
_OPEN
 10
1469.587788179133
 20
1203.103684492515
 30
0.0
 41
30.0
 42
30.0
 43
30.0
 50
270.0
  0
MTEXT
  5
857D
330
84CA
100
AcDbEntity
  8
3
 62
     0
440
 16777216
100
AcDbMText
 10
1420.302073893418
 20
1506.603684492517
 30
0.0
 40
45.0
 41
0.0
 46
0.0
 71
     5
 72
     1
  1
\A1;(607)
 11
0.0000000000000001
 21
1.0
 31
0.0
 73
     1
 44
1.0
  0
POINT
  5
857E
330
84CA
100
AcDbEntity
  8
DEFPOINTS
 62
     0
440
 16777216
100
AcDbPoint
 10
873.8481754396561
 20
1810.103684492517
 30
0.0
  0
POINT
  5
857F
330
84CA
100
AcDbEntity
  8
DEFPOINTS
 62
     0
440
 16777216
100
AcDbPoint
 10
1080.348175439657
 20
1203.103684492515
 30
0.0
  0
POINT
  5
8580
330
84CA
100
AcDbEntity
  8
DEFPOINTS
 62
     0
440
 16777216
100
AcDbPoint
 10
1469.587788179133
 20
1203.103684492515
 30
0.0
  0
ENDBLK
  5
84D5
330
84CA
100
AcDbEntity
  8
0
100
AcDbBlockEnd
  0
ENDSEC
  0
SECTION
  2
ENTITIES
  0
LINE
  5
7C21
330
19
100
AcDbEntity
  8
2
100
AcDbLine
 10
597.0539069906453
 20
1633.103684492516
 30
0.0
 11
1167.543998437219
 21
1633.103684492516
 31
0.0
  0
LINE
  5
7C22
330
19
100
AcDbEntity
  8
2
100
AcDbLine
 10
880.3481754396571
 20
1872.310054853586
 30
0.0
 11
880.3481754396571
 21
1203.103684492516
 31
0.0
  0
LINE
  5
7C23
330
19
100
AcDbEntity
  8
1
100
AcDbLine
 10
501.5103709085078
 20
1532.096384773184
 30
0.0
 11
844.6490249274411
 21
1718.511739356864
 31
0.0
  0
ARC
  5
7C24
330
19
100
AcDbEntity
  8
1
100
AcDbCircle
 10
880.3481754396571
 20
1633.103684492516
 30
0.0
 40
92.56870520324515
100
AcDbArc
 50
287.9621549859291
 51
112.6841186733969
  0
LINE
  5
7C25
330
19
100
AcDbEntity
  8
1
100
AcDbLine
 10
1055.348175439657
 20
1368.103684492516
 30
0.0
 11
1055.348175439657
 21
1662.103684492517
 31
0.0
  0
LINE
  5
7C26
330
19
100
AcDbEntity
  8
1
100
AcDbLine
 10
1080.348175439657
 20
1368.103684492516
 30
0.0
 11
1080.348175439657
 21
1662.103684492517
 31
0.0
  0
ARC
  5
7C27
330
19
100
AcDbEntity
  8
1
100
AcDbCircle
 10
896.3481754396562
 20
1617.103684492517
 30
0.0
 40
221.0
100
AcDbArc
 50
179.7312905277521
 51
269.6896226643565
  0
LINE
  5
7C28
330
19
100
AcDbEntity
  8
1
100
AcDbLine
 10
908.1398895814599
 20
1569.016219229022
 30
0.0
 11
551.488848075035
 21
1414.353466486755
 31
0.0
  0
LINE
  5
7C29
330
19
100
AcDbEntity
  8
1
100
AcDbLine
 10
553.4085844884721
 20
1391.97120810728
 30
0.0
 11
908.8953213438362
 21
1545.046739032599
 31
0.0
  0
LINE
  5
7C2A
330
19
100
AcDbEntity
  8
1
100
AcDbLine
 10
509.9780968204795
 20
1512.180885840331
 30
0.0
 11
853.5694909675813
 21
1697.621004932723
 31
0.0
  0
LINE
  5
7C2D
330
19
100
AcDbEntity
  8
1
100
AcDbLine
 10
380.3481754396562
 20
1313.103684492516
 30
0.0
 11
1080.348175439657
 21
1313.103684492516
 31
0.0
  0
LINE
  5
7C2E
330
19
100
AcDbEntity
  8
1
100
AcDbLine
 10
380.3481754396562
 20
1353.103684492516
 30
0.0
 11
1080.348175439657
 21
1353.103684492516
 31
0.0
  0
ARC
  5
7C2F
330
19
100
AcDbEntity
  8
1
100
AcDbCircle
 10
866.3481754396562
 20
1619.103684492517
 30
0.0
 40
191.0
100
AcDbArc
 50
76.78019994327863
 51
180.2890430236556
  0
LINE
  5
7C30
330
19
100
AcDbEntity
  8
2
100
AcDbLine
 10
530.348175439657
 20
1568.773619117183
 30
0.0
 11
530.348175439657
 21
1336.664173702859
 31
0.0
  0
ARC
  5
7C31
330
19
100
AcDbEntity
  8
1
100
AcDbCircle
 10
530.348175439657
 20
1463.103684492516
 30
0.0
 40
74.77707979183754
100
AcDbArc
 50
112.6841186733969
 51
287.962154985929
  0
CIRCLE
  5
7C32
330
19
100
AcDbEntity
  8
1
100
AcDbCircle
 10
530.348175439657
 20
1463.103684492516
 30
0.0
 40
53.13672736521761
  0
ARC
  5
7C33
330
19
100
AcDbEntity
  8
1
100
AcDbCircle
 10
530.348175439657
 20
1463.103684492516
 30
0.0
 40
85.0
100
AcDbArc
 50
298.8779990926558
 51
241.1220009073443
  0
LINE
  5
7C34
330
19
100
AcDbEntity
  8
2
100
AcDbLine
 10
409.3481754396561
 20
1463.103684492516
 30
0.0
 11
651.3481754396571
 21
1463.103684492516
 31
0.0
  0
LINE
  5
7C35
330
19
100
AcDbEntity
  8
1
100
AcDbLine
 10
627.8481754396571
 20
1383.103684492516
 30
0.0
 11
432.8481754396571
 21
1383.103684492516
 31
0.0
  0
LINE
  5
7C36
330
19
100
AcDbEntity
  8
1
100
AcDbLine
 10
422.8481754396561
 20
1353.103684492516
 30
0.0
 11
637.848175439657
 21
1353.103684492516
 31
0.0
  0
LINE
  5
7C37
330
19
100
AcDbEntity
  8
1
100
AcDbLine
 10
380.3481754396562
 20
1353.103684492516
 30
0.0
 11
380.3481754396562
 21
1313.103684492516
 31
0.0
  0
LINE
  5
7C38
330
19
100
AcDbEntity
  8
1
100
AcDbLine
 10
432.8481754396571
 20
1383.103684492516
 30
0.0
 11
422.8481754396561
 21
1353.103684492516
 31
0.0
  0
LINE
  5
7C3C
330
19
100
AcDbEntity
  8
1
100
AcDbLine
 10
468.8481754396571
 20
1313.103684492525
 30
0.0
 11
441.848175439657
 21
1313.103684492525
 31
0.0
  0
LINE
  5
7C3D
330
19
100
AcDbEntity
  8
1
100
AcDbLine
 10
489.2977501801679
 20
1388.673431328806
 30
0.0
 11
571.3986006991535
 21
1388.673431328806
 31
0.0
  0
LINE
  5
7C3E
330
19
100
AcDbEntity
  8
1
100
AcDbLine
 10
449.9873392133886
 20
1383.103684492516
 30
0.0
 11
461.0126599498926
 21
1413.934727906382
 31
0.0
  0
LINE
  5
7C3F
330
19
100
AcDbEntity
  8
1
100
AcDbLine
 10
452.8481754396571
 20
1383.103684492516
 30
0.0
 11
487.848175439657
 21
1383.103684492516
 31
0.0
  0
LINE
  5
7C40
330
19
100
AcDbEntity
  8
1
100
AcDbLine
 10
610.7090116659247
 20
1383.103684492516
 30
0.0
 11
599.6836909294215
 21
1413.934727906382
 31
0.0
  0
LINE
  5
7C41
330
19
100
AcDbEntity
  8
1
100
AcDbLine
 10
607.8481754396571
 20
1383.103684492516
 30
0.0
 11
572.8481754396571
 21
1383.103684492516
 31
0.0
  0
LINE
  5
7C42
330
19
100
AcDbEntity
  8
1
100
AcDbLine
 10
637.848175439657
 20
1353.103684492516
 30
0.0
 11
627.8481754396571
 21
1383.103684492516
 31
0.0
  0
LINE
  5
7C43
330
19
100
AcDbEntity
  8
1
100
AcDbLine
 10
1045.548175439657
 20
1576.803684492515
 30
0.0
 11
1045.548175439657
 21
1353.103684492517
 31
0.0
  0
LINE
  5
7C44
330
19
100
AcDbEntity
  8
1
100
AcDbLine
 10
715.1481754396573
 20
1576.803684492516
 30
0.0
 11
715.1481754396573
 21
1353.103684492517
 31
0.0
  0
ARC
  5
7C45
330
19
100
AcDbEntity
  8
1
100
AcDbCircle
 10
869.348175439657
 20
1644.103684492517
 30
0.0
 40
166.0
100
AcDbArc
 50
342.5882162295213
 51
75.8148644018642
  0
LINE
  5
7C46
330
19
100
AcDbEntity
  8
1
100
AcDbLine
 10
1080.348175439657
 20
1353.103684492516
 30
0.0
 11
1080.348175439657
 21
1313.103684492516
 31
0.0
  0
LINE
  5
7C49
330
19
100
AcDbEntity
  8
1
100
AcDbLine
 10
1018.848175439656
 20
1313.103684492531
 30
0.0
 11
991.8481754396562
 21
1313.103684492531
 31
0.0
  0
LINE
  5
7C4A
330
19
100
AcDbEntity
  8
1
100
AcDbLine
 10
710.1481754396573
 20
1576.803684492516
 30
0.0
 11
1050.548175439657
 21
1576.803684492515
 31
0.0
  0
LINE
  5
7C4B
330
19
100
AcDbEntity
  8
1
100
AcDbLine
 10
710.1481754396573
 20
1579.103684492516
 30
0.0
 11
1050.548175439657
 21
1579.103684492516
 31
0.0
  0
CIRCLE
  5
7C4C
330
19
100
AcDbEntity
  8
1
100
AcDbCircle
 10
880.3481754396571
 20
1633.103684492516
 30
0.0
 40
69.85400903913341
  0
LINE
  5
7C4D
330
19
100
AcDbEntity
  8
1
100
AcDbLine
 10
780.3481754396571
 20
1579.503684492516
 30
0.0
 11
980.3481754396562
 21
1579.503684492516
 31
0.0
  0
LINE
  5
7C4E
330
19
100
AcDbEntity
  8
1
100
AcDbLine
 10
726.1481754396572
 20
1684.103684492516
 30
0.0
 11
726.1481754396572
 21
1579.103684492516
 31
0.0
  0
LINE
  5
7C4F
330
19
100
AcDbEntity
  8
1
100
AcDbLine
 10
720.1481754396573
 20
1684.103684492516
 30
0.0
 11
720.1481754396573
 21
1579.103684492516
 31
0.0
  0
LINE
  5
7C50
330
19
100
AcDbEntity
  8
1
100
AcDbLine
 10
710.1481754396573
 20
1579.103684492516
 30
0.0
 11
710.1481754396573
 21
1576.803684492516
 31
0.0
  0
LINE
  5
7C51
330
19
100
AcDbEntity
  8
1
100
AcDbLine
 10
726.1481754396572
 20
1684.103684492516
 30
0.0
 11
720.1481754396573
 21
1684.103684492516
 31
0.0
  0
LINE
  5
7C52
330
19
100
AcDbEntity
  8
1
100
AcDbLine
 10
1034.548175439657
 20
1684.103684492516
 30
0.0
 11
1034.548175439657
 21
1579.103684492516
 31
0.0
  0
LINE
  5
7C53
330
19
100
AcDbEntity
  8
1
100
AcDbLine
 10
1040.548175439657
 20
1684.103684492516
 30
0.0
 11
1040.548175439657
 21
1579.103684492516
 31
0.0
  0
LINE
  5
7C54
330
19
100
AcDbEntity
  8
1
100
AcDbLine
 10
1050.548175439657
 20
1579.103684492516
 30
0.0
 11
1050.548175439657
 21
1576.803684492515
 31
0.0
  0
LINE
  5
7C55
330
19
100
AcDbEntity
  8
1
100
AcDbLine
 10
1035.104019982164
 20
1635.103684492516
 30
0.0
 11
1080.348175439657
 21
1635.103684492516
 31
0.0
  0
LINE
  5
7C56
330
19
100
AcDbEntity
  8
1
100
AcDbLine
 10
1055.348175439657
 20
1662.103684492517
 30
0.0
 11
1080.348175439657
 21
1662.103684492517
 31
0.0
  0
LINE
  5
7C57
330
19
100
AcDbEntity
  8
1
100
AcDbLine
 10
1034.548175439657
 20
1684.103684492516
 30
0.0
 11
1040.548175439657
 21
1684.103684492516
 31
0.0
  0
CIRCLE
  5
7C58
330
19
100
AcDbEntity
  8
1
100
AcDbCircle
 10
1025.081492520755
 20
1568.103684492517
 30
0.0
 40
8.0
  0
ARC
  5
7C59
330
19
100
AcDbEntity
  8
1
100
AcDbCircle
 10
888.3481754396571
 20
1641.103684492517
 30
0.0
 40
147.0
100
AcDbArc
 50
331.9028668902342
 51
341.4878484881708
  0
LINE
  5
7C5A
330
19
100
AcDbEntity
  8
1
100
AcDbLine
 10
895.151000773716
 20
1396.106927111737
 30
0.0
 11
1080.348175439657
 21
1395.103684492517
 31
0.0
  0
LINE
  5
7C5B
330
19
100
AcDbEntity
  8
1
100
AcDbLine
 10
1055.348175439657
 20
1368.103684492517
 30
0.0
 11
1080.348175439657
 21
1368.103684492517
 31
0.0
  0
DIMENSION
  5
7C5C
330
19
100
AcDbEntity
  8
3
100
AcDbDimension
280
     0
  2
*D1
 10
2499.900310617745
 20
1857.933916549591
 30
0.0
 11
2409.900310617745
 21
1888.869226090721
 31
0.0
 70
   160
 71
     5
 42
-1.0
 73
     0
 74
     0
 75
     0
  3
IGA
100
AcDbAlignedDimension
 13
2319.900310617745
 23
1800.185710406586
 33
0.0
 14
2499.900310617745
 24
1801.849527897133
 34
0.0
100
AcDbRotatedDimension
1001
ACAD
1000
DSTYLE
1002
{
1070
   288
1070
     1
1070
   172
1070
     1
1070
    40
1040
15.0
1070
   271
1070
     0
1070
   143
1040
0.039
1002
}
  0
LINE
  5
7C5D
330
19
100
AcDbEntity
  8
2
100
AcDbLine
 10
1867.627771470395
 20
1633.080609593058
 30
0.0
 11
2561.036071679997
 21
1633.080609593058
 31
0.0
  0
LINE
  5
7C5E
330
19
100
AcDbEntity
  8
1
100
AcDbLine
 10
2316.900310617744
 20
1631.080609593058
 30
0.0
 11
2502.900310617745
 21
1631.080609593059
 31
0.0
  0
LINE
  5
7C5F
330
19
100
AcDbEntity
  8
2
100
AcDbLine
 10
2409.900310617745
 20
1852.59381055128
 30
0.0
 11
2409.900310617747
 21
1203.080609593058
 31
0.0
  0
LINE
  5
7C60
330
19
100
AcDbEntity
  8
1
100
AcDbLine
 10
1951.81811069002
 20
1678.662336805544
 30
0.0
 11
1951.81811069002
 21
1725.649314796304
 31
0.0
  0
LINE
  5
7C61
330
19
100
AcDbEntity
  8
1
100
AcDbLine
 10
1882.139245429839
 20
1388.326604700678
 30
0.0
 11
1882.139245429839
 21
1725.649314796304
 31
0.0
  0
LINE
  5
7C62
330
19
100
AcDbEntity
  8
1
100
AcDbLine
 10
1978.900310617745
 20
1576.803684492516
 30
0.0
 11
2291.900310617745
 21
1576.803684492516
 31
0.0
  0
LINE
  5
7C65
330
19
100
AcDbEntity
  8
1
100
AcDbLine
 10
1908.900310617745
 20
1313.080609593058
 30
0.0
 11
2353.900310617746
 21
1313.080609593058
 31
0.0
  0
LINE
  5
7C66
330
19
100
AcDbEntity
  8
1
100
AcDbLine
 10
1908.900310617744
 20
1353.080609593058
 30
0.0
 11
2353.900310617746
 21
1353.080609593058
 31
0.0
  0
LINE
  5
7C67
330
19
100
AcDbEntity
  8
1
100
AcDbLine
 10
1978.900310617745
 20
1579.080609593058
 30
0.0
 11
2291.900310617745
 21
1579.080609593058
 31
0.0
  0
LINE
  5
7C68
330
19
100
AcDbEntity
  8
1
100
AcDbLine
 10
1899.942655936846
 20
1409.966957127298
 30
0.0
 11
1899.942655936846
 21
1536.217336958276
 31
0.0
  0
LINE
  5
7C69
330
19
100
AcDbEntity
  8
1
100
AcDbLine
 10
1935.549476950859
 20
1409.966957127298
 30
0.0
 11
1935.549476950859
 21
1536.217336958276
 31
0.0
  0
LINE
  5
7C6A
330
19
100
AcDbEntity
  8
1
100
AcDbLine
 10
1983.900310617746
 20
1576.803684492516
 30
0.0
 11
1983.900310617741
 21
1353.080609593058
 31
0.0
  0
LINE
  5
7C6B
330
19
100
AcDbEntity
  8
1
100
AcDbLine
 10
1882.139245429839
 20
1388.326604700678
 30
0.0
 11
1951.81811069002
 21
1388.326604700679
 31
0.0
  0
LINE
  5
7C6C
330
19
100
AcDbEntity
  8
1
100
AcDbLine
 10
1899.942655936846
 20
1409.966957127298
 30
0.0
 11
1935.549476950859
 21
1409.966957127298
 31
0.0
  0
LINE
  5
7C6D
330
19
100
AcDbEntity
  8
1
100
AcDbLine
 10
1951.81811069002
 20
1388.326604700679
 30
0.0
 11
1951.81811069002
 21
1453.427785307519
 31
0.0
  0
LINE
  5
7C6E
330
19
100
AcDbEntity
  8
1
100
AcDbLine
 10
1935.549476950859
 20
1563.226600553925
 30
0.0
 11
1935.549476950859
 21
1702.934618632192
 31
0.0
  0
LINE
  5
7C6F
330
19
100
AcDbEntity
  8
1
100
AcDbLine
 10
1899.942655936846
 20
1563.226600553925
 30
0.0
 11
1899.942655936846
 21
1702.934618632192
 31
0.0
  0
LINE
  5
7C70
330
19
100
AcDbEntity
  8
2
100
AcDbLine
 10
2016.313537544553
 20
1463.103684492516
 30
0.0
 11
1868.333022507606
 21
1463.103684492516
 31
0.0
  0
LINE
  5
7C71
330
19
100
AcDbEntity
  8
1
100
AcDbLine
 10
1899.942655936846
 20
1516.240411857734
 30
0.0
 11
1935.549476950859
 21
1516.240411857734
 31
0.0
  0
LINE
  5
7C72
330
19
100
AcDbEntity
  8
1
100
AcDbLine
 10
1899.942655936846
 20
1563.226600553925
 30
0.0
 11
1935.549476950859
 21
1563.226600553925
 31
0.0
  0
LINE
  5
7C73
330
19
100
AcDbEntity
  8
1
100
AcDbLine
 10
1978.900310617745
 20
1579.080609593058
 30
0.0
 11
1978.900310617746
 21
1576.803684492516
 31
0.0
  0
LINE
  5
7C74
330
19
100
AcDbEntity
  8
1
100
AcDbLine
 10
1899.942655936846
 20
1702.934618632192
 30
0.0
 11
1935.549476950859
 21
1702.934618632192
 31
0.0
  0
LINE
  5
7C75
330
19
100
AcDbEntity
  8
1
100
AcDbLine
 10
1935.549476950859
 20
1621.080609593058
 30
0.0
 11
1949.900310617746
 21
1621.080609593058
 31
0.0
  0
LINE
  5
7C76
330
19
100
AcDbEntity
  8
1
100
AcDbLine
 10
1935.549476950859
 20
1645.080609593058
 30
0.0
 11
1949.900310617745
 21
1645.080609593058
 31
0.0
  0
LINE
  5
7C77
330
19
100
AcDbEntity
  8
1
100
AcDbLine
 10
1951.900310617745
 20
1650.580609593058
 30
0.0
 11
2291.900310617745
 21
1650.580609593059
 31
0.0
  0
LINE
  5
7C78
330
19
100
AcDbEntity
  8
1
100
AcDbLine
 10
1951.900310617745
 20
1615.580609593058
 30
0.0
 11
2291.900310617746
 21
1615.580609593058
 31
0.0
  0
LINE
  5
7C79
330
19
100
AcDbEntity
  8
1
100
AcDbLine
 10
1951.900310617745
 20
1619.080609593058
 30
0.0
 11
1951.900310617745
 21
1615.580609593058
 31
0.0
  0
ARC
  5
7C7A
330
19
100
AcDbEntity
  8
1
100
AcDbCircle
 10
1949.900310617746
 20
1619.080609593058
 30
0.0
 40
2.0
100
AcDbArc
 50
0.0000000000002036
 51
90.0
  0
ARC
  5
7C7B
330
19
100
AcDbEntity
  8
1
100
AcDbCircle
 10
1949.900310617745
 20
1647.080609593058
 30
0.0
 40
2.0
100
AcDbArc
 50
270.0
 51
0.0
  0
LINE
  5
7C7C
330
19
100
AcDbEntity
  8
1
100
AcDbLine
 10
1951.900310617746
 20
1650.580609593058
 30
0.0
 11
1951.900310617745
 21
1647.080609593058
 31
0.0
  0
LINE
  5
7C7D
330
19
100
AcDbEntity
  8
1
100
AcDbLine
 10
2291.900310617744
 20
1684.103684492516
 30
0.0
 11
2316.900310617745
 21
1684.103684492516
 31
0.0
  0
LINE
  5
7C7E
330
19
100
AcDbEntity
  8
1
100
AcDbLine
 10
1882.139245429839
 20
1725.649314796304
 30
0.0
 11
1951.81811069002
 21
1725.649314796303
 31
0.0
  0
LINE
  5
7C7F
330
19
100
AcDbEntity
  8
1
100
AcDbLine
 10
2528.900310617746
 20
1506.080609593058
 30
0.0
 11
2528.900310617746
 21
1760.080609593058
 31
0.0
  0
LINE
  5
7C80
330
19
100
AcDbEntity
  8
1
100
AcDbLine
 10
2499.900310617745
 20
1789.080609593058
 30
0.0
 11
2499.900310617746
 21
1656.080609593059
 31
0.0
  0
LINE
  5
7C82
330
19
100
AcDbEntity
  8
1
100
AcDbLine
 10
2499.900310617745
 20
1810.080609593058
 30
0.0
 11
2499.900310617746
 21
1656.080609593058
 31
0.0
  0
LINE
  5
7C83
330
19
100
AcDbEntity
  8
1
100
AcDbLine
 10
2499.900310617745
 20
1631.080609593059
 30
0.0
 11
2499.900310617745
 21
1395.080609593058
 31
0.0
  0
LINE
  5
7C85
330
19
100
AcDbEntity
  8
2
100
AcDbLine
 10
880.3481754396571
 20
3254.00444036199
 30
0.0
 11
880.3481754396571
 21
2609.174230566271
 31
0.0
  0
LINE
  5
7C87
330
19
100
AcDbEntity
  8
1
100
AcDbLine
 10
420.3481754396579
 20
3091.480463127331
 30
0.0
 11
420.3481754396571
 21
2646.480463127331
 31
0.0
  0
LINE
  5
7C88
330
19
100
AcDbEntity
  8
1
100
AcDbLine
 10
1080.348175439657
 20
3262.480463127332
 30
0.0
 11
1080.348175439657
 21
2646.480463127331
 31
0.0
  0
LINE
  5
7C89
330
19
100
AcDbEntity
  8
1
100
AcDbLine
 10
380.3481754396571
 20
3091.480463127331
 30
0.0
 11
380.348175439658
 21
2646.480463127331
 31
0.0
  0
LINE
  5
7C91
330
19
100
AcDbEntity
  8
1
100
AcDbLine
 10
1908.900310617745
 20
1313.080609593058
 30
0.0
 11
1908.900310617744
 21
1353.080609593058
 31
0.0
  0
LINE
  5
7C92
330
19
100
AcDbEntity
  8
1
100
AcDbLine
 10
2353.900310617746
 20
1313.080609593058
 30
0.0
 11
2353.900310617746
 21
1353.080609593058
 31
0.0
  0
LINE
  5
7C99
330
19
100
AcDbEntity
  8
1
100
AcDbLine
 10
675.3481754396575
 20
3091.480463127331
 30
0.0
 11
380.3481754396571
 21
3091.480463127331
 31
0.0
  0
LINE
  5
7C9A
330
19
100
AcDbEntity
  8
1
100
AcDbLine
 10
1080.348175439657
 20
2646.480463127331
 30
0.0
 11
380.3481754396581
 21
2646.480463127331
 31
0.0
  0
LINE
  5
7C9F
330
19
100
AcDbEntity
  8
2
100
AcDbLine
 10
1092.400369853374
 20
3147.480463127331
 30
0.0
 11
662.3169810587987
 21
3147.480463127331
 31
0.0
  0
LWPOLYLINE
  5
7CA0
330
19
100
AcDbEntity
  8
1
100
AcDbPolyline
 90
        2
 70
     0
 43
0.0
 10
2291.900310617745
 20
1684.103684492516
 10
2291.900310617745
 20
1434.103684492515
  0
ARC
  5
7CA4
330
19
100
AcDbEntity
  8
1
100
AcDbCircle
 10
2526.900310617746
 20
1761.080609593058
 30
0.0
 40
2.0
100
AcDbArc
 50
0.0
 51
60.00000000002852
  0
LINE
  5
7CA5
330
19
100
AcDbEntity
  8
1
100
AcDbLine
 10
2528.900310617746
 20
1761.080609593058
 30
0.0
 11
2528.900310617746
 21
1760.080609593058
 31
0.0
  0
LINE
  5
7CA6
330
19
100
AcDbEntity
  8
1
100
AcDbLine
 10
2528.900310617746
 20
1760.080609593058
 30
0.0
 11
2527.900310617746
 21
1760.080609593058
 31
0.0
  0
DIMENSION
  5
7CA7
330
19
100
AcDbEntity
  8
3
100
AcDbDimension
280
     0
  2
*D2
 10
1164.498734065981
 20
1635.103684492516
 30
0.0
 11
1126.998734065981
 21
1515.103684492516
 31
0.0
 12
-261.5330162201826
 22
0.0
 32
0.0
 70
    32
 71
     5
 42
-1.0
 73
     0
 74
     0
 75
     0
  3
IGA
100
AcDbAlignedDimension
 13
1080.348175439657
 23
1395.103684492517
 33
0.0
 14
1080.348175439657
 24
1635.103684492516
 34
0.0
 50
90.0
100
AcDbRotatedDimension
1001
ACAD
1000
DSTYLE
1002
{
1070
    40
1040
15.0
1070
   143
1040
0.039
1070
   172
1070
     1
1070
   271
1070
     0
1070
   279
1070
     0
1070
   288
1070
     1
1002
}
  0
DIMENSION
  5
7CA8
330
19
100
AcDbEntity
  8
3
100
AcDbDimension
280
     0
  2
*D3
 10
1245.948013340967
 20
1633.103684492516
 30
0.0
 11
1208.448013340967
 21
1514.103684492517
 31
0.0
 12
-261.5330162201826
 22
0.0
 32
0.0
 70
    32
 71
     5
 42
-1.0
 73
     0
 74
     0
 75
     0
  3
IGA
100
AcDbAlignedDimension
 13
1080.348175439657
 23
1395.103684492517
 33
0.0
 14
1167.543998437219
 24
1633.103684492516
 34
0.0
 50
90.0
100
AcDbRotatedDimension
1001
ACAD
1000
DSTYLE
1002
{
1070
    40
1040
15.0
1070
   143
1040
0.039
1070
   172
1070
     1
1070
   271
1070
     0
1070
   279
1070
     0
1070
   288
1070
     1
1002
}
  0
DIMENSION
  5
7CA9
330
19
100
AcDbEntity
  8
3
100
AcDbDimension
280
     0
  2
*D4
 10
2409.900310617745
 20
1971.217627399088
 30
0.0
 11
2456.400310617745
 21
2009.5834653972
 31
0.0
 70
   160
  1
94
 71
     5
 42
-1.0
 73
     0
 74
     0
 75
     0
  3
IGA
100
AcDbAlignedDimension
 13
2502.900310617745
 23
1788.924034412644
 33
0.0
 14
2409.900310617745
 24
1918.233828620519
 34
0.0
100
AcDbRotatedDimension
1001
ACAD
1000
DSTYLE
1002
{
1070
   288
1070
     1
1070
   172
1070
     1
1070
    40
1040
15.0
1070
   271
1070
     0
1070
   143
1040
0.039
1002
}
  0
DIMENSION
  5
7CAA
330
19
100
AcDbEntity
  8
3
100
AcDbDimension
280
     0
  2
*D5
 10
1882.139245429839
 20
1971.217627399088
 30
0.0
 11
2146.019778023792
 21
2058.003341684802
 31
0.0
 70
    32
  1
\P(600)
 71
     5
 42
527.7610651879058
 73
     0
 74
     0
 75
     0
  3
IGA
100
AcDbAlignedDimension
 13
2409.900310617745
 23
1918.233828620519
 33
0.0
 14
1882.139245429839
 24
1725.649314796304
 34
0.0
100
AcDbRotatedDimension
1001
ACAD
1000
DSTYLE
1002
{
1070
    40
1040
15.0
1070
   143
1040
0.039
1070
   172
1070
     1
1070
   271
1070
     0
1070
   279
1070
     0
1070
   288
1070
     1
1002
}
  0
LINE
  5
7CAB
330
19
100
AcDbEntity
  8
1
100
AcDbLine
 10
1055.348175439657
 20
3237.480463127332
 30
0.0
 11
675.348175439657
 21
3237.480463127331
 31
0.0
  0
LINE
  5
7CAC
330
19
100
AcDbEntity
  8
1
100
AcDbLine
 10
1055.348175439657
 20
3057.480463127331
 30
0.0
 11
675.348175439657
 21
3057.480463127331
 31
0.0
  0
LINE
  5
7CAD
330
19
100
AcDbEntity
  8
1
100
AcDbLine
 10
1040.348175439657
 20
2694.980463127331
 30
0.0
 11
1040.348175439657
 21
2646.480463127331
 31
0.0
  0
LINE
  5
7CAE
330
19
100
AcDbEntity
  8
1
100
AcDbLine
 10
1983.900310617745
 20
1537.903672492516
 30
0.0
 11
1972.746066443852
 21
1537.903672492516
 31
0.0
  0
LINE
  5
7CAF
330
19
100
AcDbEntity
  8
1
100
AcDbLine
 10
1972.746066443852
 20
1385.103684492516
 30
0.0
 11
1983.900310617741
 21
1385.103684492516
 31
0.0
  0
LINE
  5
7CB1
330
19
100
AcDbEntity
  8
1
100
AcDbLine
 10
1962.746066443852
 20
1429.603684492516
 30
0.0
 11
1962.746066443852
 21
1496.603684492516
 31
0.0
  0
LINE
  5
7CB2
330
19
100
AcDbEntity
  8
1
100
AcDbLine
 10
1972.746066443852
 20
1385.103684492516
 30
0.0
 11
1972.746066443852
 21
1537.903672492516
 31
0.0
  0
LINE
  5
7CB5
330
19
100
AcDbEntity
  8
1
100
AcDbLine
 10
1957.746066443852
 20
1473.603684492516
 30
0.0
 11
1962.746066443852
 21
1473.603684492516
 31
0.0
  0
LINE
  5
7CB6
330
19
100
AcDbEntity
  8
1
100
AcDbLine
 10
1957.746066443852
 20
1452.603684492516
 30
0.0
 11
1962.746066443852
 21
1452.603684492516
 31
0.0
  0
LINE
  5
7CB7
330
19
100
AcDbEntity
  8
1
100
AcDbLine
 10
1972.746066443852
 20
1429.603684492516
 30
0.0
 11
1962.746066443852
 21
1429.603684492516
 31
0.0
  0
LINE
  5
7CB8
330
19
100
AcDbEntity
  8
1
100
AcDbLine
 10
1972.746066443852
 20
1433.168687492516
 30
0.0
 11
1972.746066443852
 21
1424.538682492516
 31
0.0
  0
LINE
  5
7CB9
330
19
100
AcDbEntity
  8
1
100
AcDbLine
 10
1972.746066443852
 20
1435.353745492516
 30
0.0
 11
1972.746066443852
 21
1423.089811492516
 31
0.0
  0
LINE
  5
7CBA
330
19
100
AcDbEntity
  8
1
100
AcDbLine
 10
1972.746066443852
 20
1424.419480492516
 30
0.0
 11
1972.746066443852
 21
1433.419480492516
 31
0.0
  0
LINE
  5
7CBB
330
19
100
AcDbEntity
  8
1
100
AcDbLine
 10
1957.746066443852
 20
1472.603684492516
 30
0.0
 11
1935.549476950859
 21
1472.603684492516
 31
0.0
  0
LINE
  5
7CBC
330
19
100
AcDbEntity
  8
1
100
AcDbLine
 10
1935.549476950859
 20
1453.603684492516
 30
0.0
 11
1957.746066443852
 21
1453.603684492516
 31
0.0
  0
LINE
  5
7CBD
330
19
100
AcDbEntity
  8
1
100
AcDbLine
 10
1957.746066443852
 20
1452.603684492516
 30
0.0
 11
1957.746066443852
 21
1473.603684492516
 31
0.0
  0
LINE
  5
7CBE
330
19
100
AcDbEntity
  8
1
100
AcDbLine
 10
1962.746066443852
 20
1496.603684492516
 30
0.0
 11
1972.746066443852
 21
1496.603684492516
 31
0.0
  0
LINE
  5
7CBF
330
19
100
AcDbEntity
  8
1
100
AcDbLine
 10
1972.746066443852
 20
1535.918687492516
 30
0.0
 11
1972.746066443852
 21
1527.288682492516
 31
0.0
  0
LINE
  5
7CC0
330
19
100
AcDbEntity
  8
1
100
AcDbLine
 10
1972.746066443852
 20
1527.169480492516
 30
0.0
 11
1972.746066443852
 21
1536.169480492516
 31
0.0
  0
LINE
  5
7CC1
330
19
100
AcDbEntity
  8
1
100
AcDbLine
 10
605.1481634396577
 20
2927.98046312733
 30
0.0
 11
452.3481754396571
 21
2927.98046312733
 31
0.0
  0
LINE
  5
7CC2
330
19
100
AcDbEntity
  8
1
100
AcDbLine
 10
452.348175439658
 20
2710.326218953438
 30
0.0
 11
452.3481754396571
 21
2927.98046312733
 31
0.0
  0
LINE
  5
7CC3
330
19
100
AcDbEntity
  8
1
100
AcDbLine
 10
605.1481634396577
 20
2927.98046312733
 30
0.0
 11
605.1481634396568
 21
2710.326218953438
 31
0.0
  0
LINE
  5
7CC4
330
19
100
AcDbEntity
  8
1
100
AcDbLine
 10
520.8481754396579
 20
2673.129629460444
 30
0.0
 11
520.848175439657
 21
2694.98046312733
 31
0.0
  0
LINE
  5
7CC5
330
19
100
AcDbEntity
  8
1
100
AcDbLine
 10
539.8481754396571
 20
2694.98046312733
 30
0.0
 11
539.8481754396571
 21
2673.129629460444
 31
0.0
  0
LINE
  5
7CC6
330
19
100
AcDbEntity
  8
1
100
AcDbLine
 10
519.8481754396571
 20
2694.98046312733
 30
0.0
 11
520.8481754396579
 21
2694.98046312733
 31
0.0
  0
LINE
  5
7CC7
330
19
100
AcDbEntity
  8
1
100
AcDbLine
 10
496.848175439657
 20
2709.98046312733
 30
0.0
 11
496.848175439657
 21
2700.326218953439
 31
0.0
  0
LINE
  5
7CC8
330
19
100
AcDbEntity
  8
1
100
AcDbLine
 10
519.8481754396571
 20
2694.98046312733
 30
0.0
 11
519.8481754396571
 21
2699.98046312733
 31
0.0
  0
LINE
  5
7CC9
330
19
100
AcDbEntity
  8
1
100
AcDbLine
 10
540.8481754396571
 20
2694.98046312733
 30
0.0
 11
540.8481754396571
 21
2699.98046312733
 31
0.0
  0
LINE
  5
7CCA
330
19
100
AcDbEntity
  8
1
100
AcDbLine
 10
563.8481754396571
 20
2700.326218953439
 30
0.0
 11
563.8481754396571
 21
2709.98046312733
 31
0.0
  0
LINE
  5
7CCB
330
19
100
AcDbEntity
  8
1
100
AcDbLine
 10
455.5710956478196
 20
2619.719397939425
 30
0.0
 11
972.9168806429024
 21
2619.719397939425
 31
0.0
  0
LINE
  5
7CCC
330
19
100
AcDbEntity
  8
1
100
AcDbLine
 10
520.848175439657
 20
2673.129629460444
 30
0.0
 11
520.848175439657
 21
2695.326218953438
 31
0.0
  0
LINE
  5
7CCD
330
19
100
AcDbEntity
  8
1
100
AcDbLine
 10
539.8481754396571
 20
2695.326218953438
 30
0.0
 11
539.848175439658
 21
2673.129629460444
 31
0.0
  0
LINE
  5
7CCE
330
19
100
AcDbEntity
  8
2
100
AcDbLine
 10
530.348175439657
 20
2944.11907294165
 30
0.0
 11
530.348175439657
 21
2612.881807819207
 31
0.0
  0
LINE
  5
7CCF
330
19
100
AcDbEntity
  8
1
100
AcDbLine
 10
455.5710956478196
 20
2619.719397939425
 30
0.0
 11
455.5710956478206
 21
2689.398263199606
 31
0.0
  0
LINE
  5
7CD0
330
19
100
AcDbEntity
  8
1
100
AcDbLine
 10
477.2114480744403
 20
2673.129629460444
 30
0.0
 11
583.4849028048751
 21
2673.129629460444
 31
0.0
  0
LINE
  5
7CD1
330
19
100
AcDbEntity
  8
1
100
AcDbLine
 10
477.2114480744403
 20
2637.522808446433
 30
0.0
 11
583.4849028048751
 21
2637.522808446432
 31
0.0
  0
LINE
  5
7CD2
330
19
100
AcDbEntity
  8
1
100
AcDbLine
 10
477.2114480744394
 20
2637.522808446432
 30
0.0
 11
477.2114480744394
 21
2673.129629460444
 31
0.0
  0
LINE
  5
7CD3
330
19
100
AcDbEntity
  8
1
100
AcDbLine
 10
583.4849028048747
 20
2637.522808446432
 30
0.0
 11
583.4849028048747
 21
2673.129629460444
 31
0.0
  0
LINE
  5
7CD4
330
19
100
AcDbEntity
  8
1
100
AcDbLine
 10
519.8481754396571
 20
2695.326218953438
 30
0.0
 11
540.8481754396571
 21
2695.326218953438
 31
0.0
  0
LINE
  5
7CD5
330
19
100
AcDbEntity
  8
1
100
AcDbLine
 10
452.3481754396571
 20
2710.326218953438
 30
0.0
 11
605.1481634396577
 21
2710.326218953438
 31
0.0
  0
LINE
  5
7CD6
330
19
100
AcDbEntity
  8
1
100
AcDbLine
 10
496.848175439657
 20
2700.326218953438
 30
0.0
 11
563.8481754396571
 21
2700.326218953438
 31
0.0
  0
LINE
  5
7CD7
330
19
100
AcDbEntity
  8
1
100
AcDbLine
 10
455.5710956478206
 20
2689.398263199606
 30
0.0
 11
972.9168806429015
 21
2689.398263199606
 31
0.0
  0
LINE
  5
7CD8
330
19
100
AcDbEntity
  8
1
100
AcDbLine
 10
452.3481754396571
 20
2710.326218953438
 30
0.0
 11
452.3481754396571
 21
2721.480463127332
 31
0.0
  0
LINE
  5
7CD9
330
19
100
AcDbEntity
  8
1
100
AcDbLine
 10
519.8481754396571
 20
2695.326218953438
 30
0.0
 11
519.8481754396571
 21
2700.326218953438
 31
0.0
  0
LINE
  5
7CDA
330
19
100
AcDbEntity
  8
1
100
AcDbLine
 10
491.6639714396579
 20
2710.326218953438
 30
0.0
 11
500.6639714396579
 21
2710.326218953438
 31
0.0
  0
LINE
  5
7CDB
330
19
100
AcDbEntity
  8
1
100
AcDbLine
 10
502.5982364396577
 20
2710.326218953438
 30
0.0
 11
490.3343024396572
 21
2710.326218953438
 31
0.0
  0
LINE
  5
7CDC
330
19
100
AcDbEntity
  8
1
100
AcDbLine
 10
500.4131784396577
 20
2710.326218953438
 30
0.0
 11
491.7831734396577
 21
2710.326218953438
 31
0.0
  0
LINE
  5
7CDD
330
19
100
AcDbEntity
  8
1
100
AcDbLine
 10
496.848175439657
 20
2710.326218953438
 30
0.0
 11
496.848175439657
 21
2700.326218953438
 31
0.0
  0
LINE
  5
7CDE
330
19
100
AcDbEntity
  8
1
100
AcDbLine
 10
563.8481754396571
 20
2700.326218953438
 30
0.0
 11
563.8481754396571
 21
2710.326218953438
 31
0.0
  0
LINE
  5
7CDF
330
19
100
AcDbEntity
  8
1
100
AcDbLine
 10
540.8481754396571
 20
2695.326218953438
 30
0.0
 11
540.8481754396571
 21
2700.326218953438
 31
0.0
  0
LINE
  5
7CE0
330
19
100
AcDbEntity
  8
1
100
AcDbLine
 10
594.4139714396579
 20
2710.326218953438
 30
0.0
 11
603.4139714396578
 21
2710.326218953438
 31
0.0
  0
LINE
  5
7CE1
330
19
100
AcDbEntity
  8
1
100
AcDbLine
 10
603.1631784396576
 20
2710.326218953438
 30
0.0
 11
594.5331734396577
 21
2710.326218953438
 31
0.0
  0
LINE
  5
7CE2
330
19
100
AcDbEntity
  8
1
100
AcDbLine
 10
605.1481634396577
 20
2721.480463127332
 30
0.0
 11
605.1481634396577
 21
2710.326218953438
 31
0.0
  0
LINE
  5
7CE3
330
19
100
AcDbEntity
  8
1
100
AcDbLine
 10
972.9168806429024
 20
2619.719397939425
 30
0.0
 11
972.9168806429024
 21
2689.398263199606
 31
0.0
  0
LINE
  5
7CE4
330
19
100
AcDbEntity
  8
1
100
AcDbLine
 10
810.4941664005242
 20
2637.522808446432
 30
0.0
 11
950.2021844787904
 21
2637.522808446432
 31
0.0
  0
LINE
  5
7CE5
330
19
100
AcDbEntity
  8
1
100
AcDbLine
 10
810.4941664005242
 20
2673.129629460444
 30
0.0
 11
950.2021844787904
 21
2673.129629460444
 31
0.0
  0
LINE
  5
7CE6
330
19
100
AcDbEntity
  8
1
100
AcDbLine
 10
950.2021844787904
 20
2637.522808446432
 30
0.0
 11
950.2021844787904
 21
2673.129629460444
 31
0.0
  0
LINE
  5
7CE8
330
19
100
AcDbEntity
  8
1
100
AcDbLine
 10
810.4941664005236
 20
2637.522808446432
 30
0.0
 11
810.4941664005236
 21
2673.129629460444
 31
0.0
  0
LINE
  5
7CE9
330
19
100
AcDbEntity
  8
1
100
AcDbLine
 10
710.3481754396575
 20
2694.980463127331
 30
0.0
 11
1050.348175439657
 21
2694.980463127331
 31
0.0
  0
LINE
  5
7CEA
330
19
100
AcDbEntity
  8
1
100
AcDbLine
 10
539.8481754396571
 20
2694.98046312733
 30
0.0
 11
540.8481754396571
 21
2694.98046312733
 31
0.0
  0
LINE
  5
7CEB
330
19
100
AcDbEntity
  8
1
100
AcDbLine
 10
1050.348175439658
 20
3057.480463127331
 30
0.0
 11
1050.348175439658
 21
2694.980463127331
 31
0.0
  0
LINE
  5
7CEC
330
19
100
AcDbEntity
  8
1
100
AcDbLine
 10
710.3481754396575
 20
3057.480463127331
 30
0.0
 11
710.3481754396575
 21
2694.980463127331
 31
0.0
  0
LINE
  5
7CEE
330
19
100
AcDbEntity
  8
1
100
AcDbLine
 10
897.848175439657
 20
3057.480463127331
 30
0.0
 11
897.848175439657
 21
2694.980463127331
 31
0.0
  0
LINE
  5
7CEF
330
19
100
AcDbEntity
  8
1
100
AcDbLine
 10
862.8481754396553
 20
3057.480463127331
 30
0.0
 11
862.848175439657
 21
2694.980463127331
 31
0.0
  0
DIMENSION
  5
7CF0
330
19
100
AcDbEntity
  8
3
100
AcDbDimension
280
     0
  2
*D6
 10
2628.602584843691
 20
1506.080609593058
 30
0.0
 11
2589.271260048791
 21
1633.080609593058
 31
0.0
 70
   160
 71
     5
 42
-1.0
 73
     0
 74
     0
 75
     0
  3
IGA
100
AcDbAlignedDimension
 13
2528.900310617746
 23
1760.080609593058
 33
0.0
 14
2528.900310617746
 24
1506.080609593058
 34
0.0
 50
90.0
100
AcDbRotatedDimension
1001
ACAD
1000
DSTYLE
1002
{
1070
   288
1070
     1
1070
   172
1070
     1
1070
    40
1040
15.0
1070
     3
1000
φ<>
1070
   271
1070
     0
1070
   143
1040
0.039
1002
}
  0
LWPOLYLINE
  5
7CF1
330
19
100
AcDbEntity
  8
1
100
AcDbPolyline
 90
        2
 70
     0
 43
0.0
 10
2319.900310617745
 20
1631.080609593059
 10
2319.900310617744
 20
1395.080609593058
  0
LINE
  5
7CF5
330
19
100
AcDbEntity
  8
1
100
AcDbLine
 10
2503.900310617747
 20
1656.080609593058
 30
0.0
 11
2503.900310617746
 21
1789.080609593058
 31
0.0
  0
LINE
  5
7CF6
330
19
100
AcDbEntity
  8
1
100
AcDbLine
 10
2528.900310617746
 20
1760.080609593059
 30
0.0
 11
2528.900310617746
 21
1506.080609593059
 31
0.0
  0
LINE
  5
7CF8
330
19
100
AcDbEntity
  8
1
100
AcDbLine
 10
2499.900310617745
 20
1789.080609593058
 30
0.0
 11
2503.900310617746
 21
1789.080609593058
 31
0.0
  0
LINE
  5
7CF9
330
19
100
AcDbEntity
  8
1
100
AcDbLine
 10
2504.900310617745
 20
1760.080609593059
 30
0.0
 11
2526.900310617746
 21
1760.080609593059
 31
0.0
  0
LWPOLYLINE
  5
7CFA
330
19
100
AcDbEntity
  8
1
100
AcDbPolyline
 90
        9
 70
     1
 43
0.0
 10
2503.900310617746
 20
1760.080609593059
 10
2503.900310617746
 20
1785.080609593058
 10
2504.900310617746
 20
1785.080609593058
 42
-0.4142135623730951
 10
2506.900310617746
 20
1783.080609593058
 10
2506.900310617746
 20
1767.080609593058
 42
0.4142135623730951
 10
2510.900310617746
 20
1763.080609593059
 10
2526.900310617746
 20
1763.080609593059
 42
-0.4142135623730951
 10
2528.900310617746
 20
1761.080609593059
 10
2528.900310617746
 20
1760.080609593059
  0
DIMENSION
  5
7D05
330
19
100
AcDbEntity
  8
3
100
AcDbDimension
280
     0
  2
*D7
 10
880.3481754396571
 20
1905.199369376761
 30
0.0
 11
980.3481754396571
 21
1939.624084435285
 31
0.0
 70
   160
 71
     5
 42
-1.0
 73
     0
 74
     0
 75
     0
  3
IGA
100
AcDbAlignedDimension
 13
1080.348175439657
 23
1662.103684492517
 33
0.0
 14
880.3481754396571
 24
1872.310054853586
 34
0.0
100
AcDbRotatedDimension
1001
ACAD
1000
DSTYLE
1002
{
1070
   288
1070
     1
1070
   172
1070
     1
1070
    40
1040
15.0
1070
   271
1070
     0
1070
   143
1040
0.039
1002
}
  0
DIMENSION
  5
7D06
330
19
100
AcDbEntity
  8
3
100
AcDbDimension
280
     0
  2
*D8
 10
675.3481754396561
 20
1905.199369376761
 30
0.0
 11
777.8481754396566
 21
1939.624084435285
 31
0.0
 70
   160
 71
     5
 42
-1.0
 73
     0
 74
     0
 75
     0
  3
IGA
100
AcDbAlignedDimension
 13
880.3481754396571
 23
1872.310054853586
 33
0.0
 14
675.3481754396561
 24
1619.103684492517
 34
0.0
100
AcDbRotatedDimension
1001
ACAD
1000
DSTYLE
1002
{
1070
   288
1070
     1
1070
   172
1070
     1
1070
    40
1040
15.0
1070
   271
1070
     0
1070
   143
1040
0.039
1002
}
  0
DIMENSION
  5
7D07
330
19
100
AcDbEntity
  8
3
100
AcDbDimension
280
     0
  2
*D9
 10
1337.319700656047
 20
1633.103684492516
 30
0.0
 11
1304.095585878538
 21
1721.603684492517
 31
0.0
 70
   160
 71
     5
 42
-1.0
 73
     0
 74
     0
 75
     0
  3
IGA
100
AcDbAlignedDimension
 13
866.3481754396562
 23
1810.103684492517
 33
0.0
 14
1167.543998437219
 24
1633.103684492516
 34
0.0
 50
270.0
100
AcDbRotatedDimension
1001
ACAD
1000
DSTYLE
1002
{
1070
   288
1070
     1
1070
   172
1070
     1
1070
    40
1040
15.0
1070
   271
1070
     0
1070
   143
1040
0.039
1002
}
  0
DIMENSION
  5
7D08
330
19
100
AcDbEntity
  8
3
100
AcDbDimension
280
     0
  2
*D10
 10
1337.319700656047
 20
1313.103684492516
 30
0.0
 11
1299.819700656047
 21
1473.103684492516
 31
0.0
 12
-261.5330162201826
 22
0.0
 32
0.0
 70
    32
 71
     5
 42
-1.0
 73
     0
 74
     0
 75
     0
  3
IGA
100
AcDbAlignedDimension
 13
1167.543998437219
 23
1633.103684492516
 33
0.0
 14
1080.348175439657
 24
1313.103684492516
 34
0.0
 50
270.0
100
AcDbRotatedDimension
1001
ACAD
1000
DSTYLE
1002
{
1070
    40
1040
15.0
1070
   143
1040
0.039
1070
   172
1070
     1
1070
   271
1070
     0
1070
   279
1070
     0
1070
   288
1070
     1
1002
}
  0
DIMENSION
  5
7D0C
330
19
100
AcDbEntity
  8
3
100
AcDbDimension
280
     0
  2
*D11
 10
380.3481754396562
 20
2022.970819652687
 30
0.0
 11
730.3481754396566
 21
2060.470819652687
 31
0.0
 12
-261.5330162201826
 22
0.0
 32
0.0
 70
    32
 71
     5
 42
-1.0
 73
     0
 74
     0
 75
     0
  3
IGA
100
AcDbAlignedDimension
 13
1080.348175439657
 23
1662.103684492517
 33
0.0
 14
380.3481754396562
 24
1353.103684492516
 34
0.0
100
AcDbRotatedDimension
1001
ACAD
1000
DSTYLE
1002
{
1070
    40
1040
15.0
1070
   143
1040
0.039
1070
   172
1070
     1
1070
   271
1070
     0
1070
   279
1070
     0
1070
   288
1070
     1
1002
}
  0
LINE
  5
7D0D
330
19
100
AcDbEntity
  8
1
100
AcDbLine
 10
675.348175439657
 20
3237.48046312733
 30
0.0
 11
675.3481754396575
 21
3057.480463127331
 31
0.0
  0
LINE
  5
7D0E
330
19
100
AcDbEntity
  8
1
100
AcDbLine
 10
1055.348175439656
 20
3262.480463127332
 30
0.0
 11
1055.348175439657
 21
3032.480463127331
 31
0.0
  0
LINE
  5
7D0F
330
19
100
AcDbEntity
  8
1
100
AcDbLine
 10
1080.348175439657
 20
3262.480463127332
 30
0.0
 11
1055.348175439657
 21
3262.480463127332
 31
0.0
  0
LINE
  5
7D10
330
19
100
AcDbEntity
  8
1
100
AcDbLine
 10
1080.348175439657
 20
3032.480463127331
 30
0.0
 11
1055.348175439657
 21
3032.480463127331
 31
0.0
  0
LINE
  5
7D12
330
19
100
AcDbEntity
  8
1
100
AcDbLine
 10
2316.900310617746
 20
1810.080609593058
 30
0.0
 11
2502.900310617746
 21
1810.080609593058
 31
0.0
  0
LINE
  5
7D13
330
19
100
AcDbEntity
  8
1
100
AcDbLine
 10
2319.900310617744
 20
1395.080609593058
 30
0.0
 11
2499.900310617745
 21
1395.080609593058
 31
0.0
  0
LINE
  5
7D14
330
19
100
AcDbEntity
  8
1
100
AcDbLine
 10
2291.900310617744
 20
1370.080609593058
 30
0.0
 11
2527.900310617746
 21
1370.080609593058
 31
0.0
  0
LINE
  5
7D15
330
19
100
AcDbEntity
  8
1
100
AcDbLine
 10
2527.900310617746
 20
1656.080609593059
 30
0.0
 11
2527.900310617746
 21
1370.080609593058
 31
0.0
  0
LINE
  5
7D16
330
19
100
AcDbEntity
  8
1
100
AcDbLine
 10
2499.900310617745
 20
1631.080609593059
 30
0.0
 11
2319.900310617744
 21
1395.080609593058
 31
0.0
  0
LINE
  5
7D17
330
19
100
AcDbEntity
  8
1
100
AcDbLine
 10
2319.900310617745
 20
1631.080609593058
 30
0.0
 11
2499.900310617745
 21
1395.080609593058
 31
0.0
  0
LINE
  5
7D18
330
19
100
AcDbEntity
  8
1
100
AcDbLine
 10
2291.900310617744
 20
1656.080609593058
 30
0.0
 11
2527.900310617746
 21
1656.080609593059
 31
0.0
  0
LWPOLYLINE
  5
7D19
330
19
100
AcDbEntity
  8
1
100
AcDbPolyline
 90
        2
 70
     0
 43
0.0
 10
2291.900310617744
 20
1656.080609593058
 10
2291.900310617744
 20
1370.080609593058
  0
LWPOLYLINE
  5
7D21
330
19
100
AcDbEntity
  8
1
100
AcDbPolyline
 90
        2
 70
     0
 43
0.0
 10
2319.900310617746
 20
1810.080609593058
 10
2319.900310617745
 20
1656.080609593059
  0
ARC
  5
7D29
330
19
100
AcDbEntity
  8
1
100
AcDbCircle
 10
2526.900310617746
 20
1505.080609593058
 30
0.0
 40
2.0
100
AcDbArc
 50
299.9999999999715
 51
0.0
  0
LINE
  5
7D2A
330
19
100
AcDbEntity
  8
1
100
AcDbLine
 10
2528.900310617746
 20
1505.080609593058
 30
0.0
 11
2528.900310617746
 21
1506.080609593058
 31
0.0
  0
LINE
  5
7D2B
330
19
100
AcDbEntity
  8
1
100
AcDbLine
 10
2528.900310617746
 20
1506.080609593058
 30
0.0
 11
2527.900310617746
 21
1506.080609593058
 31
0.0
  0
LWPOLYLINE
  5
7D2C
330
19
100
AcDbEntity
  8
1
100
AcDbPolyline
 90
        2
 70
     0
 43
0.0
 10
2316.900310617746
 20
1370.080609593058
 10
2316.900310617745
 20
1353.080609593058
  0
LINE
  5
82C2
330
19
100
AcDbEntity
  8
4
100
AcDbLine
 10
2775.0
 20
750.0
 30
0.0
 11
2775.0
 21
450.0
 31
0.0
  0
LINE
  5
82C3
330
19
100
AcDbEntity
  8
4
100
AcDbLine
 10
1725.0
 20
750.0
 30
0.0
 11
1725.0
 21
450.0
 31
0.0
  0
LINE
  5
82C4
330
19
100
AcDbEntity
  8
4
100
AcDbLine
 10
975.0
 20
750.0
 30
0.0
 11
975.0
 21
450.0
 31
0.0
  0
LINE
  5
82C7
330
19
100
AcDbEntity
  8
4
100
AcDbLine
 10
975.0
 20
450.0
 30
0.0
 11
2775.0
 21
450.0
 31
0.0
  0
LINE
  5
82C8
330
19
100
AcDbEntity
  8
4
100
AcDbLine
 10
975.0
 20
600.0
 30
0.0
 11
2775.0
 21
600.0
 31
0.0
  0
TEXT
  5
82C9
330
19
100
AcDbEntity
  8
4
100
AcDbText
 10
1032.753121270352
 20
647.3145387999193
 30
0.0
 40
75.0
  1
機器名称
100
AcDbText
  0
TEXT
  5
82CA
330
19
100
AcDbEntity
  8
4
100
AcDbText
 10
1029.387159037196
 20
482.4677350980164
 30
0.0
 40
75.0
  1
機器型番
100
AcDbText
  0
TEXT
  5
82CB
330
19
100
AcDbEntity
  8
4
100
AcDbText
 10
1766.518118231497
 20
633.8576534363528
 30
0.0
 40
75.0
  1
ミツヤ多翼送風機
100
AcDbText
  0
TEXT
  5
82CC
330
19
100
AcDbEntity
  8
4
100
AcDbText
 10
1779.981743378221
 20
475.739376419915
 30
0.0
 40
75.0
  1
MF#1 1/2-1
100
AcDbText
  0
TEXT
  5
82CE
330
19
100
AcDbEntity
  8
4
100
AcDbText
 10
1121.79892478152
 20
3575.143261998774
 30
0.0
 40
80.99999999999999
  1
床置防振ベット
100
AcDbText
  0
TEXT
  5
82CF
330
19
100
AcDbEntity
  8
4
100
AcDbText
 10
474.2513899941696
 20
3800.821464298947
 30
0.0
 40
108.0
  1
遠心式片吸込片持多翼ファン
100
AcDbText
  0
LINE
  5
82D0
330
19
100
AcDbEntity
  8
4
100
AcDbLine
 10
375.0
 20
3704.113131397207
 30
0.0
 11
2775.0
 21
3704.113131397207
 31
0.0
  0
LINE
  5
82D1
330
19
100
AcDbEntity
  8
4
100
AcDbLine
 10
375.0
 20
4004.113131397207
 30
0.0
 11
2775.0
 21
4004.113131397207
 31
0.0
  0
LINE
  5
82D2
330
19
100
AcDbEntity
  8
4
100
AcDbLine
 10
975.0
 20
750.0
 30
0.0
 11
2775.0
 21
750.0
 31
0.0
  0
LINE
  5
82D3
330
19
100
AcDbEntity
  8
4
100
AcDbLine
 10
375.0
 20
4004.113131397207
 30
0.0
 11
375.0
 21
3704.113131397207
 31
0.0
  0
TEXT
  5
82D4
330
19
100
AcDbEntity
  8
4
100
AcDbText
 10
468.010676417467
 20
3573.479216319515
 30
0.0
 40
80.99999999999999
  1
左回転右横向
100
AcDbText
  0
TEXT
  5
82D5
330
19
100
AcDbEntity
  8
4
100
AcDbText
 10
2203.454338873935
 20
4059.091622242963
 30
0.0
 40
84.00000000000002
  1
No.
100
AcDbText
  0
TEXT
  5
82D6
330
19
100
AcDbEntity
  8
4
100
AcDbText
 10
1966.94409390002
 20
3575.143261998774
 30
0.0
 40
80.99999999999999
  1
縮尺：1/15
100
AcDbText
  0
LINE
  5
82D7
330
19
100
AcDbEntity
  8
4
100
AcDbLine
 10
2775.0
 20
4004.113131397207
 30
0.0
 11
2775.0
 21
3704.113131397207
 31
0.0
  0
LINE
  5
82D8
330
19
100
AcDbEntity
  8
4
100
AcDbLine
 10
3150.0
 20
4425.0
 30
0.0
 11
3150.0
 21
4425.0
 31
0.0
  0
LINE
  5
82D9
330
19
100
AcDbEntity
  8
4
100
AcDbLine
 10
2160.926133539797
 20
4021.895374688102
 30
0.0
 11
2160.926133539797
 21
4179.978392324628
 31
0.0
  0
LINE
  5
82DA
330
19
100
AcDbEntity
  8
4
100
AcDbLine
 10
2160.926133539797
 20
4179.978392324628
 30
0.0
 11
2775.0
 21
4179.978392324628
 31
0.0
  0
LINE
  5
82DB
330
19
100
AcDbEntity
  8
4
100
AcDbLine
 10
2775.0
 20
4179.978392324628
 30
0.0
 11
2775.0
 21
4021.895374688102
 31
0.0
  0
LINE
  5
82DC
330
19
100
AcDbEntity
  8
4
100
AcDbLine
 10
2775.0
 20
4021.895374688102
 30
0.0
 11
2160.926133539797
 21
4021.895374688102
 31
0.0
  0
LINE
  5
82DD
330
19
100
AcDbEntity
  8
4
100
AcDbLine
 10
0.0
 20
0.0
 30
0.0
 11
0.0
 21
4425.0
 31
0.0
  0
LINE
  5
82DE
330
19
100
AcDbEntity
  8
4
100
AcDbLine
 10
0.0
 20
4425.0
 30
0.0
 11
3150.0
 21
4425.0
 31
0.0
  0
LINE
  5
82DF
330
19
100
AcDbEntity
  8
4
100
AcDbLine
 10
3150.0
 20
4425.0
 30
0.0
 11
3150.0
 21
0.0
 31
0.0
  0
LINE
  5
82E0
330
19
100
AcDbEntity
  8
4
100
AcDbLine
 10
3150.0
 20
0.0
 30
0.0
 11
0.0
 21
0.0
 31
0.0
  0
LINE
  5
837F
330
19
100
AcDbEntity
  8
1
100
AcDbLine
 10
710.3481754396575
 20
3051.480463127331
 30
0.0
 11
420.3481754396579
 21
3051.480463127331
 31
0.0
  0
LINE
  5
838B
330
19
100
AcDbEntity
  8
1
100
AcDbLine
 10
1040.348175439657
 20
2686.480463127331
 30
0.0
 11
420.3481754396571
 21
2686.480463127331
 31
0.0
  0
DIMENSION
  5
8398
330
19
100
AcDbEntity
  8
3
100
AcDbDimension
280
     0
  2
*D13
 10
302.1162107943055
 20
2646.480463127331
 30
0.0
 11
302.1162107943055
 21
2859.571621663239
 31
0.0
 70
   160
 71
     5
 42
-1.0
 73
     0
 74
     0
 75
     0
  3
IGA
100
AcDbAlignedDimension
 13
380.3481754396571
 23
3091.480463127331
 33
0.0
 14
380.348175439658
 24
2646.480463127331
 34
0.0
 50
90.0
100
AcDbRotatedDimension
1001
ACAD
1000
DSTYLE
1002
{
1070
    40
1040
15.0
1070
   143
1040
0.039
1070
   172
1070
     1
1070
   271
1070
     0
1070
   279
1070
     0
1070
   288
1070
     1
1002
}
  0
DIMENSION
  5
83B0
330
19
100
AcDbEntity
  8
3
100
AcDbDimension
280
     0
  2
*D14
 10
1080.348175439657
 20
2494.552879106072
 30
0.0
 11
694.6665839007437
 21
2494.552879106072
 31
0.0
 70
   160
 71
     5
 42
-1.0
 73
     0
 74
     0
 75
     0
  3
IGA
100
AcDbAlignedDimension
 13
380.348175439658
 23
2646.480463127331
 33
0.0
 14
1080.348175439657
 24
2646.480463127331
 34
0.0
100
AcDbRotatedDimension
1001
ACAD
1000
DSTYLE
1002
{
1070
    40
1040
15.0
1070
   143
1040
0.039
1070
   172
1070
     1
1070
   271
1070
     0
1070
   279
1070
     0
1070
   288
1070
     1
1002
}
  0
DIMENSION
  5
8446
330
19
100
AcDbEntity
  8
3
100
AcDbDimension
280
     0
  2
*D15
 10
880.3481754396571
 20
1085.022427699312
 30
0.0
 11
630.3481754396566
 21
1122.522427699312
 31
0.0
 70
    32
 71
     5
 42
500.0000000000008
 73
     0
 74
     0
 75
     0
  3
IGA
100
AcDbAlignedDimension
 13
380.3481754396562
 23
1203.103684492515
 33
0.0
 14
880.3481754396571
 24
1203.103684492515
 34
0.0
100
AcDbRotatedDimension
1001
ACAD
1000
DSTYLE
1002
{
1070
    40
1040
15.0
1070
   143
1040
0.039
1070
   172
1070
     1
1070
   271
1070
     0
1070
   279
1070
     0
1002
}
  0
DIMENSION
  5
8455
330
19
100
AcDbEntity
  8
3
100
AcDbDimension
280
     0
  2
*D16
 10
1080.348175439657
 20
1085.022427699312
 30
0.0
 11
980.3481754396571
 21
1122.522427699312
 31
0.0
 70
    32
 71
     5
 42
200.0
 73
     0
 74
     0
 75
     0
  3
IGA
100
AcDbAlignedDimension
 13
880.3481754396571
 23
1203.103684492515
 33
0.0
 14
1080.348175439657
 24
1203.103684492515
 34
0.0
100
AcDbRotatedDimension
1001
ACAD
1000
DSTYLE
1002
{
1070
    40
1040
15.0
1070
   143
1040
0.039
1070
   172
1070
     1
1070
   271
1070
     0
1070
   279
1070
     0
1002
}
  0
DIMENSION
  5
8462
330
19
100
AcDbEntity
  8
3
100
AcDbDimension
280
     0
  2
*D17
 10
2353.900310617746
 20
1085.022427699312
 30
0.0
 11
2131.400310617745
 21
1122.522427699312
 31
0.0
 70
    32
 71
     5
 42
445.0
 73
     0
 74
     0
 75
     0
  3
IGA
100
AcDbAlignedDimension
 13
1908.900310617745
 23
1203.080609593058
 33
0.0
 14
2353.900310617746
 24
1203.080609593058
 34
0.0
100
AcDbRotatedDimension
1001
ACAD
1000
DSTYLE
1002
{
1070
    40
1040
15.0
1070
   143
1040
0.039
1070
   172
1070
     1
1070
   271
1070
     0
1070
   279
1070
     0
1002
}
  0
DIMENSION
  5
8471
330
19
100
AcDbEntity
  8
3
100
AcDbDimension
280
     0
  2
*D18
 10
2409.900310617746
 20
1085.022427699312
 30
0.0
 11
2520.257453474889
 21
1122.522427699312
 31
0.0
 70
    32
 71
     5
 42
56.00000000000045
 73
     0
 74
     0
 75
     0
  3
IGA
100
AcDbAlignedDimension
 13
2353.900310617746
 23
1203.080609593058
 33
0.0
 14
2409.900310617746
 24
1203.080609593058
 34
0.0
100
AcDbRotatedDimension
1001
ACAD
1000
DSTYLE
1002
{
1070
    40
1040
15.0
1070
   143
1040
0.039
1070
   172
1070
     1
1070
   271
1070
     0
1070
   279
1070
     0
1002
}
  0
LINE
  5
8485
330
19
100
AcDbEntity
  8
1
100
AcDbLine
 10
1908.900310617744
 20
1243.080609593058
 30
0.0
 11
2353.900310617746
 21
1243.080609593058
 31
0.0
  0
LINE
  5
8486
330
19
100
AcDbEntity
  8
1
100
AcDbLine
 10
1908.900310617745
 20
1203.080609593058
 30
0.0
 11
2353.900310617746
 21
1203.080609593058
 31
0.0
  0
LINE
  5
8487
330
19
100
AcDbEntity
  8
1
100
AcDbLine
 10
2353.900310617746
 20
1203.080609593058
 30
0.0
 11
2353.900310617746
 21
1243.080609593058
 31
0.0
  0
LINE
  5
8488
330
19
100
AcDbEntity
  8
1
100
AcDbLine
 10
1908.900310617745
 20
1203.080609593058
 30
0.0
 11
1908.900310617744
 21
1243.080609593058
 31
0.0
  0
LINE
  5
8489
330
19
100
AcDbEntity
  8
1
100
AcDbLine
 10
1080.348175439657
 20
1243.103684492516
 30
0.0
 11
1080.348175439657
 21
1203.103684492515
 31
0.0
  0
LINE
  5
848A
330
19
100
AcDbEntity
  8
1
100
AcDbLine
 10
380.3481754396562
 20
1203.103684492516
 30
0.0
 11
1080.348175439657
 21
1203.103684492515
 31
0.0
  0
LINE
  5
848B
330
19
100
AcDbEntity
  8
1
100
AcDbLine
 10
380.3481754396562
 20
1243.103684492516
 30
0.0
 11
1080.348175439657
 21
1243.103684492516
 31
0.0
  0
LINE
  5
848C
330
19
100
AcDbEntity
  8
1
100
AcDbLine
 10
380.3481754396562
 20
1243.103684492516
 30
0.0
 11
380.3481754396562
 21
1203.103684492515
 31
0.0
  0
DIMENSION
  5
849C
330
19
100
AcDbEntity
  8
3
100
AcDbDimension
280
     0
  2
*D19
 10
1338.778217251418
 20
1203.103684492515
 30
0.0
 11
1301.278217251418
 21
1091.675113063944
 31
0.0
 70
    32
 71
     5
 42
40.00000000000045
 73
     0
 74
     0
 75
     0
  3
IGA
100
AcDbAlignedDimension
 13
1080.348175439657
 23
1243.103684492516
 33
0.0
 14
1080.348175439657
 24
1203.103684492515
 34
0.0
 50
90.0
100
AcDbRotatedDimension
1001
ACAD
1000
DSTYLE
1002
{
1070
    40
1040
15.0
1070
   143
1040
0.039
1070
   172
1070
     1
1070
   271
1070
     0
1070
   279
1070
     0
1070
   343
1005
819F
1002
}
  0
DIMENSION
  5
84C9
330
19
100
AcDbEntity
  8
3
100
AcDbDimension
280
     0
  2
*D20
 10
1337.713664124045
 20
1313.103684492516
 30
0.0
 11
1398.37646072069
 21
1279.90259231472
 31
0.0
 70
   160
 71
     5
 42
69.99999999999954
 73
     0
 74
     0
 75
     0
  3
IGA
100
AcDbAlignedDimension
 13
1080.348175439657
 23
1243.103684492516
 33
0.0
 14
1080.348175439657
 24
1313.103684492516
 34
0.0
 50
90.0
100
AcDbRotatedDimension
1001
ACAD
1000
DSTYLE
1002
{
1070
     3
1000
(<>)
1070
    40
1040
15.0
1070
   143
1040
0.039
1070
   172
1070
     1
1070
   271
1070
     0
1070
   343
1005
819F
1002
}
  0
DIMENSION
  5
84D6
330
19
100
AcDbEntity
  8
3
100
AcDbDimension
280
     0
  2
*D21
 10
1469.587788179133
 20
1203.103684492515
 30
0.0
 11
1420.302073893418
 21
1506.603684492517
 31
0.0
 70
    32
 71
     5
 42
607.0000000000018
 73
     0
 74
     0
 75
     0
  3
IGA
100
AcDbAlignedDimension
 13
873.8481754396561
 23
1810.103684492517
 33
0.0
 14
1080.348175439657
 24
1203.103684492515
 34
0.0
 50
90.0
100
AcDbRotatedDimension
1001
ACAD
1000
DSTYLE
1002
{
1070
   172
1070
     1
1070
    40
1040
15.0
1070
     3
1000
(<>)
1070
   271
1070
     0
1070
   143
1040
0.039
1002
}
  0
ENDSEC
  0
SECTION
  2
OBJECTS
  0
DICTIONARY
  5
C
330
0
100
AcDbDictionary
281
     1
  3
ACAD_CIP_PREVIOUS_PRODUCT_INFO
350
8538
  3
ACAD_COLOR
350
851B
  3
ACAD_DETAILVIEWSTYLE
350
8534
  3
ACAD_GROUP
350
D
  3
ACAD_LAYOUT
350
84DB
  3
ACAD_MATERIAL
350
84E9
  3
ACAD_MLEADERSTYLE
350
8530
  3
ACAD_MLINESTYLE
350
E
  3
ACAD_PLOTSETTINGS
350
84DC
  3
ACAD_PLOTSTYLENAME
350
84D9
  3
ACAD_SCALELIST
350
851E
  3
ACAD_SECTIONVIEWSTYLE
350
8532
  3
ACAD_TABLESTYLE
350
851C
  3
ACAD_VISUALSTYLE
350
8502
  3
ACDB_RECOMPOSE_DATA
350
8600
  3
AcDbVariableDictionary
350
85BB
  0
DICTIONARY
  5
858E
330
2
100
AcDbDictionary
280
     1
281
     1
  3
ACAD_LAYERSTATES
360
858F
  0
DICTIONARY
  5
8581
330
F
100
AcDbDictionary
280
     1
281
     1
  3
ADSK_XREC_LAYER_RECONCILED
360
8582
  0
DICTIONARY
  5
8583
330
31
100
AcDbDictionary
280
     1
281
     1
  3
ADSK_XREC_LAYER_RECONCILED
360
8584
  0
DICTIONARY
  5
8585
330
76D0
100
AcDbDictionary
280
     1
281
     1
  3
ADSK_XREC_LAYER_RECONCILED
360
8586
  0
DICTIONARY
  5
8587
330
76D1
100
AcDbDictionary
280
     1
281
     1
  3
ADSK_XREC_LAYER_RECONCILED
360
8588
  0
DICTIONARY
  5
8589
330
76D2
100
AcDbDictionary
280
     1
281
     1
  3
ADSK_XREC_LAYER_RECONCILED
360
858A
  0
DICTIONARY
  5
853A
330
19
100
AcDbDictionary
280
     1
281
     1
  3
ACAD_SORTENTS
360
853B
  0
XRECORD
  5
8538
102
{ACAD_REACTORS
330
C
102
}
330
C
100
AcDbXrecord
280
     1
300
ACDLT
300
2015
300
INVLTS_F_S
  0
DICTIONARY
  5
851B
102
{ACAD_REACTORS
330
C
102
}
330
C
100
AcDbDictionary
281
     1
  0
DICTIONARY
  5
8534
102
{ACAD_REACTORS
330
C
102
}
330
C
100
AcDbDictionary
281
     1
  3
Metric50
350
8535
  0
DICTIONARY
  5
D
102
{ACAD_REACTORS
330
C
102
}
330
C
100
AcDbDictionary
281
     1
  0
DICTIONARY
  5
84DB
102
{ACAD_REACTORS
330
C
102
}
330
C
100
AcDbDictionary
281
     1
  3
Model
350
84DD
  3
ﾚｲｱｳﾄ1
350
84DE
  0
DICTIONARY
  5
84E9
102
{ACAD_REACTORS
330
C
102
}
330
C
100
AcDbDictionary
281
     1
  3
ByBlock
350
84F2
  3
ByLayer
350
84EA
  3
Global
350
84FA
  0
DICTIONARY
  5
8530
102
{ACAD_REACTORS
330
C
102
}
330
C
100
AcDbDictionary
281
     1
  3
Standard
350
8531
  0
DICTIONARY
  5
E
102
{ACAD_REACTORS
330
C
102
}
330
C
100
AcDbDictionary
281
     1
  3
STANDARD
350
1C
  0
DICTIONARY
  5
84DC
102
{ACAD_REACTORS
330
C
102
}
330
C
100
AcDbDictionary
281
     1
  0
ACDBDICTIONARYWDFLT
  5
84D9
102
{ACAD_REACTORS
330
C
102
}
330
C
100
AcDbDictionary
281
     1
  3
Normal
350
84DA
100
AcDbDictionaryWithDefault
340
84DA
  0
DICTIONARY
  5
851E
102
{ACAD_REACTORS
330
C
102
}
330
C
100
AcDbDictionary
281
     1
  3
A0
350
851F
  3
A1
350
8520
  3
A2
350
8521
  3
A3
350
8522
  3
A4
350
8523
  3
A5
350
8524
  3
A6
350
8525
  3
A7
350
8526
  3
A8
350
8527
  3
A9
350
8528
  3
B0
350
8529
  3
B1
350
852A
  3
B2
350
852B
  3
B3
350
852C
  3
B4
350
852D
  3
B5
350
852E
  3
B6
350
852F
  0
DICTIONARY
  5
8532
102
{ACAD_REACTORS
330
C
102
}
330
C
100
AcDbDictionary
281
     1
  3
Metric50
350
8533
  0
DICTIONARY
  5
851C
102
{ACAD_REACTORS
330
C
102
}
330
C
100
AcDbDictionary
281
     1
  3
Standard
350
851D
  0
DICTIONARY
  5
8502
102
{ACAD_REACTORS
330
C
102
}
330
C
100
AcDbDictionary
281
     1
  3
2dWireframe
350
8508
  3
Basic
350
8507
  3
Brighten
350
850E
  3
ColorChange
350
8512
  3
Conceptual
350
850B
  3
Dim
350
850D
  3
EdgeColorOff
350
851A
  3
Facepattern
350
8511
  3
Flat
350
8503
  3
FlatWithEdges
350
8504
  3
Gouraud
350
8505
  3
GouraudWithEdges
350
8506
  3
Hidden
350
850A
  3
JitterOff
350
8518
  3
Linepattern
350
8510
  3
OverhangOff
350
8519
  3
Realistic
350
850C
  3
Shaded
350
8517
  3
Shaded with edges
350
8516
  3
Shades of Gray
350
8513
  3
Sketchy
350
8514
  3
Thicken
350
850F
  3
Wireframe
350
8509
  3
X-Ray
350
8515
  0
XRECORD
  5
8600
102
{ACAD_REACTORS
330
C
102
}
330
C
100
AcDbXrecord
280
     1
 90
        1
330
851D
330
8533
330
8535
  0
DICTIONARY
  5
85BB
102
{ACAD_REACTORS
330
C
102
}
330
C
100
AcDbDictionary
281
     1
  3
CANNOSCALE
350
85C1
  3
CMLEADERSTYLE
350
85BD
  3
CTABLESTYLE
350
85BC
  3
CVIEWDETAILSTYLE
350
85BE
  3
CVIEWSECTIONSTYLE
350
85BF
  3
LAYEREVAL
350
85C3
  3
LAYERNOTIFY
350
85C4
  3
LIGHTINGUNITS
350
85C2
  3
MSLTSCALE
350
85C0
  0
DICTIONARY
  5
858F
102
{ACAD_REACTORS
330
858E
102
}
330
858E
100
AcDbDictionary
281
     1
  0
XRECORD
  5
8582
102
{ACAD_REACTORS
330
8581
102
}
330
8581
100
AcDbXrecord
280
     1
290
     1
  0
XRECORD
  5
8584
102
{ACAD_REACTORS
330
8583
102
}
330
8583
100
AcDbXrecord
280
     1
290
     1
  0
XRECORD
  5
8586
102
{ACAD_REACTORS
330
8585
102
}
330
8585
100
AcDbXrecord
280
     1
290
     1
  0
XRECORD
  5
8588
102
{ACAD_REACTORS
330
8587
102
}
330
8587
100
AcDbXrecord
280
     1
290
     1
  0
XRECORD
  5
858A
102
{ACAD_REACTORS
330
8589
102
}
330
8589
100
AcDbXrecord
280
     1
290
     1
  0
SORTENTSTABLE
  5
853B
102
{ACAD_REACTORS
330
853A
102
}
330
853A
100
AcDbSortentsTable
330
19
331
7CC5
  5
7CC6
331
7CF8
  5
7CF9
331
82CF
  5
82D0
331
7C82
  5
7C83
331
7CC1
  5
7CC2
331
82CB
  5
82CC
331
7C4E
  5
7C4E
331
7C4A
  5
7C4A
331
7CBD
  5
7CBE
331
7C7E
  5
7C7F
331
7CB9
  5
7CBA
331
7CF0
  5
7CF1
331
82C7
  5
82C8
331
7C7A
  5
7C7B
331
7D2B
  5
7D2C
331
82C3
  5
82C4
331
7C76
  5
7C77
331
7CB5
  5
7CB6
331
7CEC
  5
7CEE
331
7CE8
  5
7CE9
331
7C72
  5
7C73
331
7CB1
  5
7CB2
331
7C46
  5
7C46
331
7C42
  5
7C42
331
7C3E
  5
7C3E
331
7CE4
  5
7CE5
331
7C6E
  5
7C6F
331
7CAD
  5
7CAE
331
7CA9
  5
7CAA
331
7CE0
  5
7CE1
331
7C6A
  5
7C6B
331
7C66
  5
7C67
331
7CA5
  5
7CA6
331
7CDC
  5
7CDD
331
7C62
  5
7C62
331
7CD8
  5
7CD9
331
7C36
  5
7C36
331
7C32
  5
7C32
331
7C2E
  5
7C2E
331
7C2A
  5
7C2A
331
7D17
  5
7D18
331
7CD4
  5
7CD5
331
7D13
  5
7D14
331
7C5E
  5
7C5E
331
7C99
  5
7C9A
331
7CD0
  5
7CD1
331
7D0F
  5
7D10
331
7C5A
  5
7C5A
331
7C56
  5
7C56
331
7CCC
  5
7CCD
331
848B
  5
848C
331
82DE
  5
82DF
331
7C52
  5
7C52
331
7C91
  5
7C92
331
7CC8
  5
7CC9
331
8487
  5
8488
331
82DA
  5
82DB
331
7C26
  5
7C26
331
82D6
  5
82D7
331
7C22
  5
7C22
331
83B0
  5
8446
331
82D2
  5
82D3
331
7D07
  5
7D08
331
7C89
  5
7C91
331
7C85
  5
7C87
331
7CC4
  5
7CC5
331
82CE
  5
82CF
331
7CC0
  5
7CC1
331
82CA
  5
82CB
331
7C4D
  5
7C4D
331
7C49
  5
7C49
331
7CBC
  5
7CBD
331
7C7D
  5
7C7E
331
7C79
  5
7C7A
331
7CB8
  5
7CB9
331
7CEF
  5
7CF0
331
7D2A
  5
7D2B
331
82C2
  5
82C3
331
7C75
  5
7C76
331
84D6
  5
8539
331
7CEB
  5
7CEC
331
7C71
  5
7C72
331
7C45
  5
7C45
331
7C41
  5
7C41
331
7C3D
  5
7C3D
331
8398
  5
83B0
331
7CAC
  5
7CAD
331
7CE3
  5
7CE4
331
7C6D
  5
7C6E
331
7CA8
  5
7CA9
331
7CDF
  5
7CE0
331
7C69
  5
7C6A
331
7C65
  5
7C65
331
7CA4
  5
7CA5
331
7CDB
  5
7CDC
331
7C61
  5
7C61
331
7CA0
  5
7CA4
331
7C35
  5
7C35
331
7C31
  5
7C31
331
7C2D
  5
7C2D
331
7C29
  5
7C29
331
7CD7
  5
7CD8
331
7D16
  5
7D17
331
7CD3
  5
7CD4
331
7D12
  5
7D13
331
7C5D
  5
7C5D
331
7CCF
  5
7CD0
331
7D0E
  5
7D0F
331
7C59
  5
7C59
331
7C55
  5
7C55
331
7CCB
  5
7CCC
331
848A
  5
848B
331
82DD
  5
82DE
331
7C51
  5
7C51
331
8486
  5
8487
331
82D9
  5
82DA
331
7C25
  5
7C25
331
82D5
  5
82D6
331
7C21
  5
7C21
331
82D1
  5
82D2
331
7D06
  5
7D07
331
7C88
  5
7C89
331
7CC7
  5
7CC8
331
7CC3
  5
7CC4
331
7CFA
  5
7D05
331
7C80
  5
7C82
331
82C9
  5
82CA
331
8462
  5
8471
331
7C4C
  5
7C4C
331
7CF6
  5
7CF8
331
7CBF
  5
7CC0
331
7CBB
  5
7CBC
331
7C7C
  5
7C7D
331
7C78
  5
7C79
331
7CB7
  5
7CB8
331
7CEE
  5
7CEF
331
7D29
  5
7D2A
331
7C74
  5
7C75
331
7CEA
  5
7CEB
331
7C70
  5
7C71
331
7C44
  5
7C44
331
7C40
  5
7C40
331
84C9
  5
84D6
331
7C3C
  5
7C3C
331
7C38
  5
7C38
331
7CE6
  5
7CE8
331
7CAF
  5
7CB0
331
7CAB
  5
7CAC
331
7CE2
  5
7CE3
331
7D21
  5
7D29
331
7C6C
  5
7C6D
331
7C68
  5
7C69
331
7CA7
  5
7CA8
331
7CDE
  5
7CDF
331
7D19
  5
7D21
331
8446
  5
8455
331
7CDA
  5
7CDB
331
7C60
  5
7C60
331
838B
  5
8398
331
7C34
  5
7C34
331
837F
  5
838B
331
7C30
  5
7C30
331
82E0
  5
837F
331
7C28
  5
7C28
331
7CD6
  5
7CD7
331
7D15
  5
7D16
331
7C9F
  5
7CA0
331
7CD2
  5
7CD3
331
7C5C
  5
7C5C
331
7CCE
  5
7CCF
331
7D0D
  5
7D0E
331
7C58
  5
7C58
331
7C54
  5
7C54
331
7CCA
  5
7CCB
331
8489
  5
848A
331
82DC
  5
82DD
331
7C50
  5
7C50
331
8485
  5
8486
331
82D8
  5
82D9
331
7C24
  5
7C24
331
82D4
  5
82D5
331
82D0
  5
82D1
331
7D05
  5
7D06
331
7C87
  5
7C88
331
7CC6
  5
7CC7
331
7CF9
  5
7CFA
331
7C83
  5
7C85
331
7CC2
  5
7CC3
331
8471
  5
8485
331
82CC
  5
82CE
331
82C8
  5
82C9
331
7C4F
  5
7C4F
331
7C4B
  5
7C4B
331
7CF5
  5
7CF6
331
7C7F
  5
7C80
331
7CBE
  5
7CBF
331
7CBA
  5
7CBB
331
7CF1
  5
7CF5
331
7C7B
  5
7C7C
331
7D2C
  5
82C2
331
7C77
  5
7C78
331
7CB6
  5
7CB7
331
82C4
  5
82C7
331
7C73
  5
7C74
331
7CB2
  5
7CB3
331
8455
  5
8462
331
7CE9
  5
7CEA
331
7C43
  5
7C43
331
7C3F
  5
7C3F
331
7CE5
  5
7CE6
331
7C6F
  5
7C70
331
7CAE
  5
7CAF
331
7CAA
  5
7CAB
331
7CE1
  5
7CE2
331
7C6B
  5
7C6C
331
7C67
  5
7C68
331
7CA6
  5
7CA7
331
7CDD
  5
7CDE
331
7D18
  5
7D19
331
7CD9
  5
7CDA
331
7C37
  5
7C37
331
849C
  5
84C9
331
7C33
  5
7C33
331
7C2F
  5
7C2F
331
7CD5
  5
7CD6
331
7D14
  5
7D15
331
7C5F
  5
7C5F
331
7C9A
  5
7C9F
331
7CD1
  5
7CD2
331
7D10
  5
7D11
331
7C5B
  5
7C5B
331
7C57
  5
7C57
331
7CCD
  5
7CCE
331
7D0C
  5
7D0D
331
7D08
  5
7D0C
331
848C
  5
849C
331
82DF
  5
82E0
331
7C53
  5
7C53
331
7C92
  5
7C99
331
7CC9
  5
7CCA
331
8488
  5
8489
331
82DB
  5
82DC
331
7C27
  5
7C27
331
82D7
  5
82D8
331
7C23
  5
7C23
331
82D3
  5
82D4
  0
ACDBDETAILVIEWSTYLE
  5
8535
102
{ACAD_XDICTIONARY
360
85B8
102
}
102
{ACAD_REACTORS
330
8534
102
}
330
8534
100
AcDbModelDocViewStyle
 70
     0
  3
Metric50
290
     0
100
AcDbDetailViewStyle
 70
     0
 71
     0
 90
        3
 71
     1
340
10
 62
   256
 40
5.0
340
0
 62
   256
 40
5.0
300

 40
0.0
280
     1
 71
     2
340
15
 90
       25
 62
   256
 71
     3
340
10
 62
   256
 40
5.0
 90
        0
 40
15.0
 90
        1
300
%<\AcVar ViewDetailId>% (%<\AcVar ViewScale \f "%sn">%)
 71
     4
340
15
 90
       25
 62
   256
340
15
 90
       25
 62
   256
280
     0
  0
LAYOUT
  5
84DD
102
{ACAD_REACTORS
330
84DB
102
}
330
84DB
100
AcDbPlotSettings
  1

  2
EPSON LP-9300
  4

  6

 40
0.0
 41
0.0
 42
0.0
 43
0.0
 44
0.0
 45
0.0
 46
0.0
 47
0.0
 48
0.0
 49
0.0
140
0.0
141
0.0
142
1.0
143
1.0
 70
  1712
 72
     0
 73
     0
 74
     0
  7

 75
     0
147
1.0
 76
     0
 77
     2
 78
   300
148
0.0
149
0.0
100
AcDbLayout
  1
Model
 70
     1
 71
     0
 10
0.0
 20
0.0
 11
12.0
 21
9.0
 12
0.0
 22
0.0
 32
0.0
 14
0.0
 24
0.0
 34
0.0
 15
0.0
 25
0.0
 35
0.0
146
0.0
 13
0.0
 23
0.0
 33
0.0
 16
1.0
 26
0.0
 36
0.0
 17
0.0
 27
1.0
 37
0.0
 76
     0
330
19
331
84E7
  0
LAYOUT
  5
84DE
102
{ACAD_REACTORS
330
84DB
102
}
330
84DB
100
AcDbPlotSettings
  1

  2
EPSON LP-9300
  4

  6

 40
0.0
 41
0.0
 42
0.0
 43
0.0
 44
0.0
 45
0.0
 46
0.0
 47
0.0
 48
0.0
 49
0.0
140
0.0
141
0.0
142
1.0
143
1.0
 70
   688
 72
     0
 73
     0
 74
     5
  7

 75
    16
147
1.0
 76
     0
 77
     2
 78
   300
148
0.0
149
0.0
100
AcDbLayout
  1
ﾚｲｱｳﾄ1
 70
     1
 71
     1
 10
0.0
 20
0.0
 11
12.0
 21
9.0
 12
0.0
 22
0.0
 32
0.0
 14
1.000000000000000E+20
 24
1.000000000000000E+20
 34
1.000000000000000E+20
 15
-1.000000000000000E+20
 25
-1.000000000000000E+20
 35
-1.000000000000000E+20
146
0.0
 13
0.0
 23
0.0
 33
0.0
 16
1.0
 26
0.0
 36
0.0
 17
0.0
 27
1.0
 37
0.0
 76
     0
330
16
  0
MATERIAL
  5
84F2
102
{ACAD_XDICTIONARY
360
84F3
102
}
102
{ACAD_REACTORS
330
84E9
102
}
330
84E9
100
AcDbMaterial
  1
ByBlock
 72
     0
 43
0.0208333333333333
 43
0.0
 43
0.0
 43
0.0
 43
0.0
 43
0.0208333333333333
 43
0.0
 43
0.0
 43
0.0
 43
0.0
 43
1.0
 43
0.0
 43
0.0
 43
0.0
 43
0.0
 43
1.0
 77
     0
 47
0.0208333333333333
 47
0.0
 47
0.0
 47
0.0
 47
0.0
 47
0.0208333333333333
 47
0.0
 47
0.0
 47
0.0
 47
0.0
 47
1.0
 47
0.0
 47
0.0
 47
0.0
 47
0.0
 47
1.0
171
     0
 49
0.0208333333333333
 49
0.0
 49
0.0
 49
0.0
 49
0.0
 49
0.0208333333333333
 49
0.0
 49
0.0
 49
0.0
 49
0.0
 49
1.0
 49
0.0
 49
0.0
 49
0.0
 49
0.0
 49
1.0
175
     0
142
0.0208333333333333
142
0.0
142
0.0
142
0.0
142
0.0
142
0.0208333333333333
142
0.0
142
0.0
142
0.0
142
0.0
142
1.0
142
0.0
142
0.0
142
0.0
142
0.0
142
1.0
179
     0
144
0.0208333333333333
144
0.0
144
0.0
144
0.0
144
0.0
144
0.0208333333333333
144
0.0
144
0.0
144
0.0
144
0.0
144
1.0
144
0.0
144
0.0
144
0.0
144
0.0
144
1.0
147
0.0208333333333333
147
0.0
147
0.0
147
0.0
147
0.0
147
0.0208333333333333
147
0.0
147
0.0
147
0.0
147
0.0
147
1.0
147
0.0
147
0.0
147
0.0
147
0.0
147
1.0
  0
MATERIAL
  5
84EA
102
{ACAD_XDICTIONARY
360
84EB
102
}
102
{ACAD_REACTORS
330
84E9
102
}
330
84E9
100
AcDbMaterial
  1
ByLayer
 72
     0
 43
0.0208333333333333
 43
0.0
 43
0.0
 43
0.0
 43
0.0
 43
0.0208333333333333
 43
0.0
 43
0.0
 43
0.0
 43
0.0
 43
1.0
 43
0.0
 43
0.0
 43
0.0
 43
0.0
 43
1.0
 77
     0
 47
0.0208333333333333
 47
0.0
 47
0.0
 47
0.0
 47
0.0
 47
0.0208333333333333
 47
0.0
 47
0.0
 47
0.0
 47
0.0
 47
1.0
 47
0.0
 47
0.0
 47
0.0
 47
0.0
 47
1.0
171
     0
 49
0.0208333333333333
 49
0.0
 49
0.0
 49
0.0
 49
0.0
 49
0.0208333333333333
 49
0.0
 49
0.0
 49
0.0
 49
0.0
 49
1.0
 49
0.0
 49
0.0
 49
0.0
 49
0.0
 49
1.0
175
     0
142
0.0208333333333333
142
0.0
142
0.0
142
0.0
142
0.0
142
0.0208333333333333
142
0.0
142
0.0
142
0.0
142
0.0
142
1.0
142
0.0
142
0.0
142
0.0
142
0.0
142
1.0
179
     0
144
0.0208333333333333
144
0.0
144
0.0
144
0.0
144
0.0
144
0.0208333333333333
144
0.0
144
0.0
144
0.0
144
0.0
144
1.0
144
0.0
144
0.0
144
0.0
144
0.0
144
1.0
147
0.0208333333333333
147
0.0
147
0.0
147
0.0
147
0.0
147
0.0208333333333333
147
0.0
147
0.0
147
0.0
147
0.0
147
1.0
147
0.0
147
0.0
147
0.0
147
0.0
147
1.0
  0
MATERIAL
  5
84FA
102
{ACAD_XDICTIONARY
360
84FB
102
}
102
{ACAD_REACTORS
330
84E9
102
}
330
84E9
100
AcDbMaterial
  1
Global
 72
     0
 43
0.0208333333333333
 43
0.0
 43
0.0
 43
0.0
 43
0.0
 43
0.0208333333333333
 43
0.0
 43
0.0
 43
0.0
 43
0.0
 43
1.0
 43
0.0
 43
0.0
 43
0.0
 43
0.0
 43
1.0
 77
     0
 47
0.0208333333333333
 47
0.0
 47
0.0
 47
0.0
 47
0.0
 47
0.0208333333333333
 47
0.0
 47
0.0
 47
0.0
 47
0.0
 47
1.0
 47
0.0
 47
0.0
 47
0.0
 47
0.0
 47
1.0
171
     0
 49
0.0208333333333333
 49
0.0
 49
0.0
 49
0.0
 49
0.0
 49
0.0208333333333333
 49
0.0
 49
0.0
 49
0.0
 49
0.0
 49
1.0
 49
0.0
 49
0.0
 49
0.0
 49
0.0
 49
1.0
175
     0
142
0.0208333333333333
142
0.0
142
0.0
142
0.0
142
0.0
142
0.0208333333333333
142
0.0
142
0.0
142
0.0
142
0.0
142
1.0
142
0.0
142
0.0
142
0.0
142
0.0
142
1.0
179
     0
144
0.0208333333333333
144
0.0
144
0.0
144
0.0
144
0.0
144
0.0208333333333333
144
0.0
144
0.0
144
0.0
144
0.0
144
1.0
144
0.0
144
0.0
144
0.0
144
0.0
144
1.0
147
0.0208333333333333
147
0.0
147
0.0
147
0.0
147
0.0
147
0.0208333333333333
147
0.0
147
0.0
147
0.0
147
0.0
147
1.0
147
0.0
147
0.0
147
0.0
147
0.0
147
1.0
  0
MLEADERSTYLE
  5
8531
102
{ACAD_REACTORS
330
8530
102
}
330
8530
100
AcDbMLeaderStyle
179
     2
170
     2
171
     1
172
     0
 90
        2
 40
0.0
 41
0.0
173
     1
 91
-1056964608
340
13
 92
       -2
290
     1
 42
2.0
291
     1
 43
0.36
  3
Standard
 44
4.0
300

342
10
174
     1
178
     6
175
     1
176
     0
 93
-1056964608
 45
4.0
292
     0
297
     0
 46
4.0
 94
-1056964608
 47
1.0
 49
1.0
140
1.0
293
     1
141
0.0
294
     1
177
     0
142
1.0
295
     1
296
     0
143
0.125
271
     0
272
     9
273
     9
298
     1
  0
MLINESTYLE
  5
1C
102
{ACAD_REACTORS
330
E
102
}
330
E
100
AcDbMlineStyle
  2
STANDARD
 70
     0
  3

 62
     0
 51
90.0
 52
90.0
 71
     2
 49
0.5
 62
   256
  6
BYLAYER
 49
-0.5
 62
   256
  6
BYLAYER
  0
ACDBPLACEHOLDER
  5
84DA
102
{ACAD_REACTORS
330
84D9
102
}
330
84D9
  0
SCALE
  5
851F
102
{ACAD_REACTORS
330
851E
102
}
330
851E
100
AcDbScale
 70
     0
300
1:1
140
1.0
141
1.0
290
     1
  0
SCALE
  5
8520
102
{ACAD_REACTORS
330
851E
102
}
330
851E
100
AcDbScale
 70
     0
300
1:2
140
1.0
141
2.0
290
     0
  0
SCALE
  5
8521
102
{ACAD_REACTORS
330
851E
102
}
330
851E
100
AcDbScale
 70
     0
300
1:4
140
1.0
141
4.0
290
     0
  0
SCALE
  5
8522
102
{ACAD_REACTORS
330
851E
102
}
330
851E
100
AcDbScale
 70
     0
300
1:5
140
1.0
141
5.0
290
     0
  0
SCALE
  5
8523
102
{ACAD_REACTORS
330
851E
102
}
330
851E
100
AcDbScale
 70
     0
300
1:8
140
1.0
141
8.0
290
     0
  0
SCALE
  5
8524
102
{ACAD_REACTORS
330
851E
102
}
330
851E
100
AcDbScale
 70
     0
300
1:10
140
1.0
141
10.0
290
     0
  0
SCALE
  5
8525
102
{ACAD_REACTORS
330
851E
102
}
330
851E
100
AcDbScale
 70
     0
300
1:16
140
1.0
141
16.0
290
     0
  0
SCALE
  5
8526
102
{ACAD_REACTORS
330
851E
102
}
330
851E
100
AcDbScale
 70
     0
300
1:20
140
1.0
141
20.0
290
     0
  0
SCALE
  5
8527
102
{ACAD_REACTORS
330
851E
102
}
330
851E
100
AcDbScale
 70
     0
300
1:30
140
1.0
141
30.0
290
     0
  0
SCALE
  5
8528
102
{ACAD_REACTORS
330
851E
102
}
330
851E
100
AcDbScale
 70
     0
300
1:40
140
1.0
141
40.0
290
     0
  0
SCALE
  5
8529
102
{ACAD_REACTORS
330
851E
102
}
330
851E
100
AcDbScale
 70
     0
300
1:50
140
1.0
141
50.0
290
     0
  0
SCALE
  5
852A
102
{ACAD_REACTORS
330
851E
102
}
330
851E
100
AcDbScale
 70
     0
300
1:100
140
1.0
141
100.0
290
     0
  0
SCALE
  5
852B
102
{ACAD_REACTORS
330
851E
102
}
330
851E
100
AcDbScale
 70
     0
300
2:1
140
2.0
141
1.0
290
     0
  0
SCALE
  5
852C
102
{ACAD_REACTORS
330
851E
102
}
330
851E
100
AcDbScale
 70
     0
300
4:1
140
4.0
141
1.0
290
     0
  0
SCALE
  5
852D
102
{ACAD_REACTORS
330
851E
102
}
330
851E
100
AcDbScale
 70
     0
300
8:1
140
8.0
141
1.0
290
     0
  0
SCALE
  5
852E
102
{ACAD_REACTORS
330
851E
102
}
330
851E
100
AcDbScale
 70
     0
300
10:1
140
10.0
141
1.0
290
     0
  0
SCALE
  5
852F
102
{ACAD_REACTORS
330
851E
102
}
330
851E
100
AcDbScale
 70
     0
300
100:1
140
100.0
141
1.0
290
     0
  0
ACDBSECTIONVIEWSTYLE
  5
8533
102
{ACAD_XDICTIONARY
360
85B6
102
}
102
{ACAD_REACTORS
330
8532
102
}
330
8532
100
AcDbModelDocViewStyle
 70
     0
  3
Metric50
290
     0
100
AcDbSectionViewStyle
 70
     0
 71
     0
 90
      102
 71
     1
340
10
 62
   256
 40
5.0
340
0
340
0
 62
   256
 40
5.0
300
I, O, Q, S, X, Z
 40
10.0
 90
        0
 40
2.5
 90
        0
 71
     2
340
15
 90
       25
 62
   256
340
15
 90
       50
 62
   256
 40
5.0
 40
2.5
 40
5.0
 71
     3
340
10
 62
   256
 40
5.0
 90
        0
 40
15.0
 90
        1
300
%<\AcVar ViewSectionStartId>%-%<\AcVar ViewSectionEndId>% (%<\AcVar ViewScale \f "%sn">%)
 71
     4
 62
   256
 62
   257
300
ANSI31
 40
1.0
 90
        0
290
     0
290
     0
 90
        6
 40
0.0
 40
1.570796326794896
 40
0.2617993877991494
 40
1.308996938995747
 40
-0.2617993877991494
 40
1.832595714594046
  0
TABLESTYLE
  5
851D
102
{ACAD_XDICTIONARY
360
85FC
102
}
102
{ACAD_REACTORS
330
851C
102
}
330
851C
100
AcDbTableStyle
280
     0
  3
Standard
 70
     0
 71
     0
 40
1.5
 41
1.5
280
     0
281
     0
  7
STANDARD
140
4.5
170
     2
 62
     0
 63
     7
283
     0
 90
      512
 91
        0
  1

274
    -2
284
     1
 64
     0
275
    -2
285
     1
 65
     0
276
    -2
286
     1
 66
     0
277
    -2
287
     1
 67
     0
278
    -2
288
     1
 68
     0
279
    -2
289
     1
 69
     0
  7
STANDARD
140
6.0
170
     5
 62
     0
 63
     7
283
     0
 90
      512
 91
        0
  1

274
    -2
284
     1
 64
     0
275
    -2
285
     1
 65
     0
276
    -2
286
     1
 66
     0
277
    -2
287
     1
 67
     0
278
    -2
288
     1
 68
     0
279
    -2
289
     1
 69
     0
  7
STANDARD
140
4.5
170
     5
 62
     0
 63
     7
283
     0
 90
      512
 91
        0
  1

274
    -2
284
     1
 64
     0
275
    -2
285
     1
 65
     0
276
    -2
286
     1
 66
     0
277
    -2
287
     1
 67
     0
278
    -2
288
     1
 68
     0
279
    -2
289
     1
 69
     0
  0
VISUALSTYLE
  5
8508
102
{ACAD_REACTORS
330
8502
102
}
330
8502
100
AcDbVisualStyle
  2
2dWireframe
 70
     4
177
     3
291
     0
 70
    58
 90
        0
176
     1
 90
        2
176
     1
 90
        0
176
     1
 90
        0
176
     1
 40
0.6
176
     1
 40
30.0
176
     1
 62
     7
420
 16777215
176
     1
 90
        1
176
     1
 90
        4
176
     1
 62
     7
176
     1
 62
   257
176
     1
 90
        1
176
     1
 90
        1
176
     1
 40
1.0
176
     1
 90
        0
176
     1
 62
   257
176
     1
 40
1.0
176
     1
 90
        1
176
     1
 90
        6
176
     1
 90
        2
176
     1
 62
     7
176
     1
 90
        5
176
     1
 90
        0
176
     1
 90
        0
176
     1
290
     0
176
     1
 90
        1
176
     1
 40
0.0
176
     1
 90
        0
176
     1
290
     1
176
     1
290
     1
176
     1
290
     0
176
     1
290
     0
176
     1
290
     0
176
     1
290
     0
176
     1
290
     0
176
     1
290
     0
176
     1
290
     0
176
     1
 90
       50
176
     1
 40
0.0
176
     1
 40
1.0
176
     1
 90
        0
176
     1
 62
    18
420
        0
176
     1
 90
       50
176
     1
 90
        3
176
     1
 62
     5
420
      255
176
     1
290
     0
176
     1
 90
       50
176
     1
 90
       50
176
     1
 90
       50
176
     1
290
     0
176
     1
 90
       50
176
     1
 62
   256
176
     0
 40
1.0
176
     0
 90
        2
176
     1
  1
strokes_ogs.tif
176
     1
290
     0
176
     1
 40
1.0
176
     1
 40
1.0
176
     1
  0
VISUALSTYLE
  5
8507
102
{ACAD_REACTORS
330
8502
102
}
330
8502
100
AcDbVisualStyle
  2
Basic
 70
     7
177
     3
291
     1
 70
    58
 90
        1
176
     1
 90
        0
176
     1
 90
        1
176
     1
 90
        0
176
     1
 40
0.6
176
     1
 40
30.0
176
     1
 62
     7
420
 16777215
176
     1
 90
        0
176
     1
 90
        4
176
     1
 62
     7
176
     1
 62
   257
176
     1
 90
        1
176
     1
 90
        1
176
     1
 40
1.0
176
     1
 90
        8
176
     1
 62
     7
176
     1
 40
1.0
176
     1
 90
        1
176
     1
 90
        6
176
     1
 90
        2
176
     1
 62
     7
176
     1
 90
        5
176
     1
 90
        0
176
     1
 90
        0
176
     1
290
     0
176
     1
 90
        1
176
     1
 40
0.0
176
     1
 90
        0
176
     1
290
     0
176
     1
290
     1
176
     1
290
     1
176
     1
290
     0
176
     1
290
     0
176
     1
290
     0
176
     1
290
     0
176
     1
290
     0
176
     1
290
     0
176
     1
 90
       50
176
     1
 40
0.0
176
     1
 40
1.0
176
     1
 90
        0
176
     1
 62
    18
420
        0
176
     1
 90
       50
176
     1
 90
        3
176
     1
 62
     5
420
      255
176
     1
290
     0
176
     1
 90
       50
176
     1
 90
       50
176
     1
 90
       50
176
     1
290
     0
176
     1
 90
       50
176
     1
 62
   256
176
     0
 40
1.0
176
     0
 90
        2
176
     1
  1
strokes_ogs.tif
176
     1
290
     0
176
     1
 40
1.0
176
     1
 40
1.0
176
     1
  0
VISUALSTYLE
  5
850E
102
{ACAD_REACTORS
330
8502
102
}
330
8502
100
AcDbVisualStyle
  2
Brighten
 70
    12
177
     3
291
     1
 70
    58
 90
        2
176
     1
 90
        2
176
     1
 90
        0
176
     1
 90
        0
176
     1
 40
0.6
176
     1
 40
30.0
176
     1
 62
     7
420
 16777215
176
     1
 90
        1
176
     1
 90
        4
176
     1
 62
     7
176
     1
 62
   257
176
     1
 90
        1
176
     1
 90
        1
176
     1
 40
1.0
176
     1
 90
        8
176
     1
 62
     7
176
     1
 40
1.0
176
     1
 90
        1
176
     1
 90
        6
176
     1
 90
        2
176
     1
 62
     7
176
     1
 90
        5
176
     1
 90
        0
176
     1
 90
        0
176
     1
290
     0
176
     1
 90
        1
176
     1
 40
50.0
176
     1
 90
        0
176
     1
290
     0
176
     1
290
     1
176
     1
290
     1
176
     1
290
     0
176
     1
290
     0
176
     1
290
     0
176
     1
290
     0
176
     1
290
     0
176
     1
290
     0
176
     1
 90
       50
176
     1
 40
0.0
176
     1
 40
1.0
176
     1
 90
        0
176
     1
 62
    18
420
        0
176
     1
 90
       50
176
     1
 90
        3
176
     1
 62
     5
420
      255
176
     1
290
     0
176
     1
 90
       50
176
     1
 90
       50
176
     1
 90
       50
176
     1
290
     0
176
     1
 90
       50
176
     1
 62
   256
176
     0
 40
1.0
176
     0
 90
        2
176
     1
  1
strokes_ogs.tif
176
     1
290
     0
176
     1
 40
1.0
176
     1
 40
1.0
176
     1
  0
VISUALSTYLE
  5
8512
102
{ACAD_REACTORS
330
8502
102
}
330
8502
100
AcDbVisualStyle
  2
ColorChange
 70
    16
177
     3
291
     1
 70
    58
 90
        2
176
     1
 90
        2
176
     1
 90
        3
176
     1
 90
        0
176
     1
 40
0.6
176
     1
 40
30.0
176
     1
 62
     8
420
  8421504
176
     1
 90
        1
176
     1
 90
        4
176
     1
 62
     7
176
     1
 62
   257
176
     1
 90
        1
176
     1
 90
        1
176
     1
 40
1.0
176
     1
 90
        8
176
     1
 62
     8
420
  8421504
176
     1
 40
1.0
176
     1
 90
        1
176
     1
 90
        6
176
     1
 90
        2
176
     1
 62
     7
176
     1
 90
        5
176
     1
 90
        0
176
     1
 90
        0
176
     1
290
     0
176
     1
 90
        1
176
     1
 40
0.0
176
     1
 90
        0
176
     1
290
     0
176
     1
290
     1
176
     1
290
     1
176
     1
290
     0
176
     1
290
     0
176
     1
290
     0
176
     1
290
     0
176
     1
290
     0
176
     1
290
     0
176
     1
 90
       50
176
     1
 40
0.0
176
     1
 40
1.0
176
     1
 90
        0
176
     1
 62
    18
420
        0
176
     1
 90
       50
176
     1
 90
        3
176
     1
 62
     5
420
      255
176
     1
290
     0
176
     1
 90
       50
176
     1
 90
       50
176
     1
 90
       50
176
     1
290
     0
176
     1
 90
       50
176
     1
 62
   256
176
     0
 40
1.0
176
     0
 90
        2
176
     1
  1
strokes_ogs.tif
176
     1
290
     0
176
     1
 40
1.0
176
     1
 40
1.0
176
     1
  0
VISUALSTYLE
  5
850B
102
{ACAD_REACTORS
330
8502
102
}
330
8502
100
AcDbVisualStyle
  2
Conceptual
 70
     9
177
     3
291
     0
 70
    58
 90
        3
176
     1
 90
        2
176
     1
 90
        0
176
     1
 90
        0
176
     1
 40
0.6
176
     1
 40
30.0
176
     1
 62
     7
420
 16777215
176
     1
 90
        2
176
     1
 90
        2
176
     1
 62
     7
176
     1
 62
   257
176
     1
 90
        1
176
     1
 90
        1
176
     1
 40
179.0
176
     1
 90
        8
176
     1
 62
     7
176
     1
 40
1.0
176
     1
 90
        1
176
     1
 90
        6
176
     1
 90
        2
176
     1
 62
     7
176
     1
 90
        3
176
     1
 90
        0
176
     1
 90
        0
176
     1
290
     0
176
     1
 90
        1
176
     1
 40
0.0
176
     1
 90
        0
176
     1
290
     0
176
     1
290
     1
176
     1
290
     1
176
     1
290
     0
176
     1
290
     0
176
     1
290
     0
176
     1
290
     0
176
     1
290
     0
176
     1
290
     0
176
     1
 90
       50
176
     1
 40
0.0
176
     1
 40
1.0
176
     1
 90
        0
176
     1
 62
    18
420
        0
176
     1
 90
       50
176
     1
 90
        3
176
     1
 62
     5
420
      255
176
     1
290
     0
176
     1
 90
       50
176
     1
 90
       50
176
     1
 90
       50
176
     1
290
     0
176
     1
 90
       50
176
     1
 62
   256
176
     0
 40
1.0
176
     0
 90
        2
176
     1
  1
strokes_ogs.tif
176
     1
290
     0
176
     1
 40
1.0
176
     1
 40
1.0
176
     1
  0
VISUALSTYLE
  5
850D
102
{ACAD_REACTORS
330
8502
102
}
330
8502
100
AcDbVisualStyle
  2
Dim
 70
    11
177
     3
291
     1
 70
    58
 90
        2
176
     1
 90
        2
176
     1
 90
        0
176
     1
 90
        0
176
     1
 40
0.6
176
     1
 40
30.0
176
     1
 62
     7
420
 16777215
176
     1
 90
        1
176
     1
 90
        4
176
     1
 62
     7
176
     1
 62
   257
176
     1
 90
        1
176
     1
 90
        1
176
     1
 40
1.0
176
     1
 90
        8
176
     1
 62
     7
176
     1
 40
1.0
176
     1
 90
        1
176
     1
 90
        6
176
     1
 90
        2
176
     1
 62
     7
176
     1
 90
        5
176
     1
 90
        0
176
     1
 90
        0
176
     1
290
     0
176
     1
 90
        1
176
     1
 40
-50.0
176
     1
 90
        0
176
     1
290
     0
176
     1
290
     1
176
     1
290
     1
176
     1
290
     0
176
     1
290
     0
176
     1
290
     0
176
     1
290
     0
176
     1
290
     0
176
     1
290
     0
176
     1
 90
       50
176
     1
 40
0.0
176
     1
 40
1.0
176
     1
 90
        0
176
     1
 62
    18
420
        0
176
     1
 90
       50
176
     1
 90
        3
176
     1
 62
     5
420
      255
176
     1
290
     0
176
     1
 90
       50
176
     1
 90
       50
176
     1
 90
       50
176
     1
290
     0
176
     1
 90
       50
176
     1
 62
   256
176
     0
 40
1.0
176
     0
 90
        2
176
     1
  1
strokes_ogs.tif
176
     1
290
     0
176
     1
 40
1.0
176
     1
 40
1.0
176
     1
  0
VISUALSTYLE
  5
851A
102
{ACAD_REACTORS
330
8502
102
}
330
8502
100
AcDbVisualStyle
  2
EdgeColorOff
 70
    22
177
     3
291
     1
 70
    58
 90
        2
176
     0
 90
        2
176
     0
 90
        0
176
     0
 90
        0
176
     0
 40
0.6
176
     0
 40
30.0
176
     0
 62
     7
420
 16777215
176
     0
 90
        1
176
     0
 90
        4
176
     0
 62
     7
176
     0
 62
   257
176
     0
 90
        1
176
     0
 90
        1
176
     0
 40
1.0
176
     0
 90
        8
176
     2
 62
     7
176
     0
 40
1.0
176
     0
 90
        1
176
     0
 90
        6
176
     0
 90
        2
176
     0
 62
     7
176
     0
 90
        5
176
     0
 90
        0
176
     0
 90
        0
176
     0
290
     0
176
     0
 90
        1
176
     0
 40
0.0
176
     0
 90
        0
176
     0
290
     0
176
     0
290
     1
176
     0
290
     1
176
     0
290
     0
176
     0
290
     0
176
     0
290
     0
176
     0
290
     0
176
     0
290
     0
176
     0
290
     0
176
     0
 90
       50
176
     0
 40
0.0
176
     0
 40
1.0
176
     0
 90
        0
176
     0
 62
    18
420
        0
176
     0
 90
       50
176
     0
 90
        3
176
     0
 62
     5
420
      255
176
     0
290
     0
176
     0
 90
       50
176
     0
 90
       50
176
     0
 90
       50
176
     0
290
     0
176
     0
 90
       50
176
     0
 62
   256
176
     0
 40
1.0
176
     0
 90
        2
176
     0
  1
strokes_ogs.tif
176
     0
290
     0
176
     0
 40
1.0
176
     0
 40
1.0
176
     0
  0
VISUALSTYLE
  5
8511
102
{ACAD_REACTORS
330
8502
102
}
330
8502
100
AcDbVisualStyle
  2
Facepattern
 70
    15
177
     3
291
     1
 70
    58
 90
        2
176
     1
 90
        2
176
     1
 90
        0
176
     1
 90
        0
176
     1
 40
0.6
176
     1
 40
30.0
176
     1
 62
     7
420
 16777215
176
     1
 90
        1
176
     1
 90
        4
176
     1
 62
     7
176
     1
 62
   257
176
     1
 90
        1
176
     1
 90
        1
176
     1
 40
1.0
176
     1
 90
        8
176
     1
 62
     7
176
     1
 40
1.0
176
     1
 90
        1
176
     1
 90
        6
176
     1
 90
        2
176
     1
 62
     7
176
     1
 90
        5
176
     1
 90
        0
176
     1
 90
        0
176
     1
290
     0
176
     1
 90
        1
176
     1
 40
0.0
176
     1
 90
        0
176
     1
290
     0
176
     1
290
     1
176
     1
290
     1
176
     1
290
     0
176
     1
290
     0
176
     1
290
     0
176
     1
290
     0
176
     1
290
     0
176
     1
290
     0
176
     1
 90
       50
176
     1
 40
0.0
176
     1
 40
1.0
176
     1
 90
        0
176
     1
 62
    18
420
        0
176
     1
 90
       50
176
     1
 90
        3
176
     1
 62
     5
420
      255
176
     1
290
     0
176
     1
 90
       50
176
     1
 90
       50
176
     1
 90
       50
176
     1
290
     0
176
     1
 90
       50
176
     1
 62
   256
176
     0
 40
1.0
176
     0
 90
        2
176
     1
  1
strokes_ogs.tif
176
     1
290
     0
176
     1
 40
1.0
176
     1
 40
1.0
176
     1
  0
VISUALSTYLE
  5
8503
102
{ACAD_REACTORS
330
8502
102
}
330
8502
100
AcDbVisualStyle
  2
Flat
 70
     0
177
     3
291
     1
 70
    58
 90
        2
176
     1
 90
        1
176
     1
 90
        1
176
     1
 90
        2
176
     1
 40
0.6
176
     1
 40
30.0
176
     1
 62
     7
420
 16777215
176
     1
 90
        0
176
     1
 90
        0
176
     1
 62
     7
176
     1
 62
   257
176
     1
 90
        1
176
     1
 90
        1
176
     1
 40
1.0
176
     1
 90
        8
176
     1
 62
     7
176
     1
 40
1.0
176
     1
 90
        1
176
     1
 90
        6
176
     1
 90
        2
176
     1
 62
     7
176
     1
 90
        5
176
     1
 90
        0
176
     1
 90
        0
176
     1
290
     0
176
     1
 90
       13
176
     1
 40
0.0
176
     1
 90
        0
176
     1
290
     0
176
     1
290
     1
176
     1
290
     1
176
     1
290
     0
176
     1
290
     0
176
     1
290
     0
176
     1
290
     0
176
     1
290
     0
176
     1
290
     0
176
     1
 90
       50
176
     1
 40
0.0
176
     1
 40
1.0
176
     1
 90
        0
176
     1
 62
    18
420
        0
176
     1
 90
       50
176
     1
 90
        3
176
     1
 62
     5
420
      255
176
     1
290
     0
176
     1
 90
       50
176
     1
 90
       50
176
     1
 90
       50
176
     1
290
     0
176
     1
 90
       50
176
     1
 62
   256
176
     0
 40
1.0
176
     0
 90
        2
176
     1
  1
strokes_ogs.tif
176
     1
290
     0
176
     1
 40
1.0
176
     1
 40
1.0
176
     1
  0
VISUALSTYLE
  5
8504
102
{ACAD_REACTORS
330
8502
102
}
330
8502
100
AcDbVisualStyle
  2
FlatWithEdges
 70
     1
177
     3
291
     1
 70
    58
 90
        2
176
     1
 90
        1
176
     1
 90
        1
176
     1
 90
        2
176
     1
 40
0.6
176
     1
 40
30.0
176
     1
 62
     7
420
 16777215
176
     1
 90
        1
176
     1
 90
        0
176
     1
 62
     7
176
     1
 62
   257
176
     1
 90
        1
176
     1
 90
        1
176
     1
 40
1.0
176
     1
 90
        0
176
     1
 62
   257
176
     1
 40
1.0
176
     1
 90
        1
176
     1
 90
        6
176
     1
 90
        2
176
     1
 62
     7
176
     1
 90
        5
176
     1
 90
        0
176
     1
 90
        0
176
     1
290
     0
176
     1
 90
       13
176
     1
 40
0.0
176
     1
 90
        0
176
     1
290
     0
176
     1
290
     1
176
     1
290
     1
176
     1
290
     0
176
     1
290
     0
176
     1
290
     0
176
     1
290
     0
176
     1
290
     0
176
     1
290
     0
176
     1
 90
       50
176
     1
 40
0.0
176
     1
 40
1.0
176
     1
 90
        0
176
     1
 62
    18
420
        0
176
     1
 90
       50
176
     1
 90
        3
176
     1
 62
     5
420
      255
176
     1
290
     0
176
     1
 90
       50
176
     1
 90
       50
176
     1
 90
       50
176
     1
290
     0
176
     1
 90
       50
176
     1
 62
   256
176
     0
 40
1.0
176
     0
 90
        2
176
     1
  1
strokes_ogs.tif
176
     1
290
     0
176
     1
 40
1.0
176
     1
 40
1.0
176
     1
  0
VISUALSTYLE
  5
8505
102
{ACAD_REACTORS
330
8502
102
}
330
8502
100
AcDbVisualStyle
  2
Gouraud
 70
     2
177
     3
291
     1
 70
    58
 90
        2
176
     1
 90
        2
176
     1
 90
        1
176
     1
 90
        2
176
     1
 40
0.6
176
     1
 40
30.0
176
     1
 62
     7
420
 16777215
176
     1
 90
        0
176
     1
 90
        0
176
     1
 62
     7
176
     1
 62
   257
176
     1
 90
        1
176
     1
 90
        1
176
     1
 40
1.0
176
     1
 90
        0
176
     1
 62
     7
176
     1
 40
1.0
176
     1
 90
        1
176
     1
 90
        6
176
     1
 90
        2
176
     1
 62
     7
176
     1
 90
        5
176
     1
 90
        0
176
     1
 90
        0
176
     1
290
     0
176
     1
 90
       13
176
     1
 40
0.0
176
     1
 90
        0
176
     1
290
     0
176
     1
290
     1
176
     1
290
     1
176
     1
290
     0
176
     1
290
     0
176
     1
290
     0
176
     1
290
     0
176
     1
290
     0
176
     1
290
     0
176
     1
 90
       50
176
     1
 40
0.0
176
     1
 40
1.0
176
     1
 90
        0
176
     1
 62
    18
420
        0
176
     1
 90
       50
176
     1
 90
        3
176
     1
 62
     5
420
      255
176
     1
290
     0
176
     1
 90
       50
176
     1
 90
       50
176
     1
 90
       50
176
     1
290
     0
176
     1
 90
       50
176
     1
 62
   256
176
     0
 40
1.0
176
     0
 90
        2
176
     1
  1
strokes_ogs.tif
176
     1
290
     0
176
     1
 40
1.0
176
     1
 40
1.0
176
     1
  0
VISUALSTYLE
  5
8506
102
{ACAD_REACTORS
330
8502
102
}
330
8502
100
AcDbVisualStyle
  2
GouraudWithEdges
 70
     3
177
     3
291
     1
 70
    58
 90
        2
176
     1
 90
        2
176
     1
 90
        1
176
     1
 90
        2
176
     1
 40
0.6
176
     1
 40
30.0
176
     1
 62
     7
420
 16777215
176
     1
 90
        1
176
     1
 90
        0
176
     1
 62
     7
176
     1
 62
   257
176
     1
 90
        1
176
     1
 90
        1
176
     1
 40
1.0
176
     1
 90
        0
176
     1
 62
   257
176
     1
 40
1.0
176
     1
 90
        1
176
     1
 90
        6
176
     1
 90
        2
176
     1
 62
     7
176
     1
 90
        5
176
     1
 90
        0
176
     1
 90
        0
176
     1
290
     0
176
     1
 90
       13
176
     1
 40
0.0
176
     1
 90
        0
176
     1
290
     0
176
     1
290
     1
176
     1
290
     1
176
     1
290
     0
176
     1
290
     0
176
     1
290
     0
176
     1
290
     0
176
     1
290
     0
176
     1
290
     0
176
     1
 90
       50
176
     1
 40
0.0
176
     1
 40
1.0
176
     1
 90
        0
176
     1
 62
    18
420
        0
176
     1
 90
       50
176
     1
 90
        3
176
     1
 62
     5
420
      255
176
     1
290
     0
176
     1
 90
       50
176
     1
 90
       50
176
     1
 90
       50
176
     1
290
     0
176
     1
 90
       50
176
     1
 62
   256
176
     0
 40
1.0
176
     0
 90
        2
176
     1
  1
strokes_ogs.tif
176
     1
290
     0
176
     1
 40
1.0
176
     1
 40
1.0
176
     1
  0
VISUALSTYLE
  5
850A
102
{ACAD_REACTORS
330
8502
102
}
330
8502
100
AcDbVisualStyle
  2
Hidden
 70
     6
177
     3
291
     0
 70
    58
 90
        1
176
     1
 90
        2
176
     1
 90
        2
176
     1
 90
        0
176
     1
 40
0.6
176
     1
 40
30.0
176
     1
 62
     7
420
 16777215
176
     1
 90
        2
176
     1
 90
        2
176
     1
 62
     7
176
     1
 62
   257
176
     1
 90
        2
176
     1
 90
        1
176
     1
 40
40.0
176
     1
 90
        0
176
     1
 62
   257
176
     1
 40
1.0
176
     1
 90
        1
176
     1
 90
        6
176
     1
 90
        2
176
     1
 62
     7
176
     1
 90
        3
176
     1
 90
        0
176
     1
 90
        0
176
     1
290
     0
176
     1
 90
        1
176
     1
 40
0.0
176
     1
 90
        0
176
     1
290
     0
176
     1
290
     1
176
     1
290
     1
176
     1
290
     0
176
     1
290
     0
176
     1
290
     0
176
     1
290
     0
176
     1
290
     0
176
     1
290
     0
176
     1
 90
       50
176
     1
 40
0.0
176
     1
 40
1.0
176
     1
 90
        0
176
     1
 62
    18
420
        0
176
     1
 90
       50
176
     1
 90
        3
176
     1
 62
     5
420
      255
176
     1
290
     0
176
     1
 90
       50
176
     1
 90
       50
176
     1
 90
       50
176
     1
290
     0
176
     1
 90
       50
176
     1
 62
   256
176
     0
 40
1.0
176
     0
 90
        2
176
     1
  1
strokes_ogs.tif
176
     1
290
     0
176
     1
 40
1.0
176
     1
 40
1.0
176
     1
  0
VISUALSTYLE
  5
8518
102
{ACAD_REACTORS
330
8502
102
}
330
8502
100
AcDbVisualStyle
  2
JitterOff
 70
    20
177
     3
291
     1
 70
    58
 90
        2
176
     0
 90
        2
176
     0
 90
        0
176
     0
 90
        0
176
     0
 40
0.6
176
     0
 40
30.0
176
     0
 62
     7
420
 16777215
176
     0
 90
        1
176
     0
 90
        4
176
     0
 62
     7
176
     0
 62
   257
176
     0
 90
        1
176
     0
 90
        1
176
     0
 40
1.0
176
     0
 90
       10
176
     2
 62
     7
176
     0
 40
1.0
176
     0
 90
        1
176
     0
 90
        6
176
     0
 90
        2
176
     0
 62
     7
176
     0
 90
        5
176
     0
 90
        0
176
     0
 90
        0
176
     0
290
     0
176
     0
 90
        1
176
     0
 40
0.0
176
     0
 90
        0
176
     0
290
     0
176
     0
290
     1
176
     0
290
     1
176
     0
290
     0
176
     0
290
     0
176
     0
290
     0
176
     0
290
     0
176
     0
290
     0
176
     0
290
     0
176
     0
 90
       50
176
     0
 40
0.0
176
     0
 40
1.0
176
     0
 90
        0
176
     0
 62
    18
420
        0
176
     0
 90
       50
176
     0
 90
        3
176
     0
 62
     5
420
      255
176
     0
290
     0
176
     0
 90
       50
176
     0
 90
       50
176
     0
 90
       50
176
     0
290
     0
176
     0
 90
       50
176
     0
 62
   256
176
     0
 40
1.0
176
     0
 90
        2
176
     0
  1
strokes_ogs.tif
176
     0
290
     0
176
     0
 40
1.0
176
     0
 40
1.0
176
     0
  0
VISUALSTYLE
  5
8510
102
{ACAD_REACTORS
330
8502
102
}
330
8502
100
AcDbVisualStyle
  2
Linepattern
 70
    14
177
     3
291
     1
 70
    58
 90
        2
176
     1
 90
        2
176
     1
 90
        0
176
     1
 90
        0
176
     1
 40
0.6
176
     1
 40
30.0
176
     1
 62
     7
420
 16777215
176
     1
 90
        1
176
     1
 90
        4
176
     1
 62
     7
176
     1
 62
   257
176
     1
 90
        7
176
     1
 90
        7
176
     1
 40
1.0
176
     1
 90
        8
176
     1
 62
     7
176
     1
 40
1.0
176
     1
 90
        1
176
     1
 90
        6
176
     1
 90
        2
176
     1
 62
     7
176
     1
 90
        5
176
     1
 90
        0
176
     1
 90
        0
176
     1
290
     0
176
     1
 90
        1
176
     1
 40
0.0
176
     1
 90
        0
176
     1
290
     0
176
     1
290
     1
176
     1
290
     1
176
     1
290
     0
176
     1
290
     0
176
     1
290
     0
176
     1
290
     0
176
     1
290
     0
176
     1
290
     0
176
     1
 90
       50
176
     1
 40
0.0
176
     1
 40
1.0
176
     1
 90
        0
176
     1
 62
    18
420
        0
176
     1
 90
       50
176
     1
 90
        3
176
     1
 62
     5
420
      255
176
     1
290
     0
176
     1
 90
       50
176
     1
 90
       50
176
     1
 90
       50
176
     1
290
     0
176
     1
 90
       50
176
     1
 62
   256
176
     0
 40
1.0
176
     0
 90
        2
176
     1
  1
strokes_ogs.tif
176
     1
290
     0
176
     1
 40
1.0
176
     1
 40
1.0
176
     1
  0
VISUALSTYLE
  5
8519
102
{ACAD_REACTORS
330
8502
102
}
330
8502
100
AcDbVisualStyle
  2
OverhangOff
 70
    21
177
     3
291
     1
 70
    58
 90
        2
176
     0
 90
        2
176
     0
 90
        0
176
     0
 90
        0
176
     0
 40
0.6
176
     0
 40
30.0
176
     0
 62
     7
420
 16777215
176
     0
 90
        1
176
     0
 90
        4
176
     0
 62
     7
176
     0
 62
   257
176
     0
 90
        1
176
     0
 90
        1
176
     0
 40
1.0
176
     0
 90
        9
176
     2
 62
     7
176
     0
 40
1.0
176
     0
 90
        1
176
     0
 90
        6
176
     0
 90
        2
176
     0
 62
     7
176
     0
 90
        5
176
     0
 90
        0
176
     0
 90
        0
176
     0
290
     0
176
     0
 90
        1
176
     0
 40
0.0
176
     0
 90
        0
176
     0
290
     0
176
     0
290
     1
176
     0
290
     1
176
     0
290
     0
176
     0
290
     0
176
     0
290
     0
176
     0
290
     0
176
     0
290
     0
176
     0
290
     0
176
     0
 90
       50
176
     0
 40
0.0
176
     0
 40
1.0
176
     0
 90
        0
176
     0
 62
    18
420
        0
176
     0
 90
       50
176
     0
 90
        3
176
     0
 62
     5
420
      255
176
     0
290
     0
176
     0
 90
       50
176
     0
 90
       50
176
     0
 90
       50
176
     0
290
     0
176
     0
 90
       50
176
     0
 62
   256
176
     0
 40
1.0
176
     0
 90
        2
176
     0
  1
strokes_ogs.tif
176
     0
290
     0
176
     0
 40
1.0
176
     0
 40
1.0
176
     0
  0
VISUALSTYLE
  5
850C
102
{ACAD_REACTORS
330
8502
102
}
330
8502
100
AcDbVisualStyle
  2
Realistic
 70
     8
177
     3
291
     0
 70
    58
 90
        2
176
     1
 90
        3
176
     1
 90
        0
176
     1
 90
        2
176
     1
 40
0.6
176
     1
 40
30.0
176
     1
 62
     7
420
 16777215
176
     1
 90
        0
176
     1
 90
        0
176
     1
 62
     7
176
     1
 62
   257
176
     1
 90
        1
176
     1
 90
        1
176
     1
 40
1.0
176
     1
 90
        8
176
     1
 62
   257
176
     1
 40
1.0
176
     1
 90
        1
176
     1
 90
        6
176
     1
 90
        2
176
     1
 62
     7
176
     1
 90
        3
176
     1
 90
        0
176
     1
 90
        0
176
     1
290
     0
176
     1
 90
       13
176
     1
 40
0.0
176
     1
 90
        0
176
     1
290
     0
176
     1
290
     1
176
     1
290
     1
176
     1
290
     0
176
     1
290
     0
176
     1
290
     0
176
     1
290
     0
176
     1
290
     0
176
     1
290
     0
176
     1
 90
       50
176
     1
 40
0.0
176
     1
 40
1.0
176
     1
 90
        0
176
     1
 62
    18
420
        0
176
     1
 90
       50
176
     1
 90
        3
176
     1
 62
     5
420
      255
176
     1
290
     0
176
     1
 90
       50
176
     1
 90
       50
176
     1
 90
       50
176
     1
290
     0
176
     1
 90
       50
176
     1
 62
   256
176
     0
 40
1.0
176
     0
 90
        2
176
     1
  1
strokes_ogs.tif
176
     1
290
     0
176
     1
 40
1.0
176
     1
 40
1.0
176
     1
  0
VISUALSTYLE
  5
8517
102
{ACAD_REACTORS
330
8502
102
}
330
8502
100
AcDbVisualStyle
  2
Shaded
 70
    27
177
     3
291
     0
 70
    58
 90
        2
176
     1
 90
        2
176
     1
 90
        1
176
     1
 90
        2
176
     1
 40
0.6
176
     1
 40
30.0
176
     1
 62
     7
420
 16777215
176
     1
 90
        0
176
     1
 90
        4
176
     1
 62
     7
176
     1
 62
   257
176
     1
 90
        1
176
     1
 90
        1
176
     1
 40
1.0
176
     1
 90
        8
176
     1
 62
   257
176
     1
 40
1.0
176
     1
 90
        1
176
     1
 90
        6
176
     1
 90
        2
176
     1
 62
     8
420
  7895160
176
     1
 90
        3
176
     1
 90
        0
176
     1
 90
        0
176
     1
290
     0
176
     1
 90
        5
176
     1
 40
0.0
176
     1
 90
        0
176
     1
290
     0
176
     1
290
     1
176
     1
290
     1
176
     1
290
     0
176
     1
290
     0
176
     1
290
     0
176
     1
290
     0
176
     1
290
     0
176
     1
290
     0
176
     1
 90
       50
176
     1
 40
0.0
176
     1
 40
1.0
176
     1
 90
        0
176
     1
 62
    18
420
        0
176
     1
 90
       50
176
     1
 90
        3
176
     1
 62
     5
420
      255
176
     1
290
     0
176
     1
 90
       50
176
     1
 90
       50
176
     1
 90
       50
176
     1
290
     0
176
     1
 90
       50
176
     1
 62
   256
176
     0
 40
1.0
176
     0
 90
        2
176
     1
  1
strokes_ogs.tif
176
     1
290
     0
176
     1
 40
1.0
176
     1
 40
1.0
176
     1
  0
VISUALSTYLE
  5
8516
102
{ACAD_REACTORS
330
8502
102
}
330
8502
100
AcDbVisualStyle
  2
Shaded with edges
 70
    26
177
     3
291
     0
 70
    58
 90
        2
176
     1
 90
        2
176
     1
 90
        1
176
     1
 90
        2
176
     1
 40
0.6
176
     1
 40
30.0
176
     1
 62
     7
420
 16777215
176
     1
 90
        1
176
     1
 90
       10
176
     1
 62
     7
176
     1
 62
   257
176
     1
 90
        2
176
     1
 90
        1
176
     1
 40
1.0
176
     1
 90
        8
176
     1
 62
   257
176
     1
 40
1.0
176
     1
 90
        1
176
     1
 90
        6
176
     1
 90
        2
176
     1
 62
     7
176
     1
 90
        3
176
     1
 90
        0
176
     1
 90
        0
176
     1
290
     0
176
     1
 90
        5
176
     1
 40
0.0
176
     1
 90
        0
176
     1
290
     0
176
     1
290
     1
176
     1
290
     1
176
     1
290
     0
176
     1
290
     0
176
     1
290
     0
176
     1
290
     0
176
     1
290
     0
176
     1
290
     0
176
     1
 90
       50
176
     1
 40
0.0
176
     1
 40
1.0
176
     1
 90
        0
176
     1
 62
    18
420
        0
176
     1
 90
       50
176
     1
 90
        3
176
     1
 62
     5
420
      255
176
     1
290
     0
176
     1
 90
       50
176
     1
 90
       50
176
     1
 90
       50
176
     1
290
     0
176
     1
 90
       50
176
     1
 62
   256
176
     0
 40
1.0
176
     0
 90
        2
176
     1
  1
strokes_ogs.tif
176
     1
290
     0
176
     1
 40
1.0
176
     1
 40
1.0
176
     1
  0
VISUALSTYLE
  5
8513
102
{ACAD_REACTORS
330
8502
102
}
330
8502
100
AcDbVisualStyle
  2
Shades of Gray
 70
    23
177
     3
291
     0
 70
    58
 90
        2
176
     1
 90
        2
176
     1
 90
        3
176
     1
 90
        0
176
     1
 40
0.6
176
     1
 40
30.0
176
     1
 62
     7
420
 16777215
176
     1
 90
        2
176
     1
 90
        2
176
     1
 62
     7
176
     1
 62
     7
176
     1
 90
        1
176
     1
 90
        1
176
     1
 40
40.0
176
     1
 90
        8
176
     1
 62
     7
176
     1
 40
1.0
176
     1
 90
        1
176
     1
 90
        6
176
     1
 90
        2
176
     1
 62
     7
176
     1
 90
        3
176
     1
 90
        0
176
     1
 90
        0
176
     1
290
     0
176
     1
 90
        1
176
     1
 40
0.0
176
     1
 90
        0
176
     1
290
     0
176
     1
290
     1
176
     1
290
     1
176
     1
290
     0
176
     1
290
     0
176
     1
290
     0
176
     1
290
     0
176
     1
290
     0
176
     1
290
     0
176
     1
 90
       50
176
     1
 40
0.0
176
     1
 40
1.0
176
     1
 90
        0
176
     1
 62
    18
420
        0
176
     1
 90
       50
176
     1
 90
        3
176
     1
 62
     5
420
      255
176
     1
290
     0
176
     1
 90
       50
176
     1
 90
       50
176
     1
 90
       50
176
     1
290
     0
176
     1
 90
       50
176
     1
 62
   256
176
     0
 40
1.0
176
     0
 90
        2
176
     1
  1
strokes_ogs.tif
176
     1
290
     0
176
     1
 40
1.0
176
     1
 40
1.0
176
     1
  0
VISUALSTYLE
  5
8514
102
{ACAD_REACTORS
330
8502
102
}
330
8502
100
AcDbVisualStyle
  2
Sketchy
 70
    24
177
     3
291
     0
 70
    58
 90
        1
176
     1
 90
        2
176
     1
 90
        2
176
     1
 90
        0
176
     1
 40
0.6
176
     1
 40
30.0
176
     1
 62
     7
420
 16777215
176
     1
 90
        2
176
     1
 90
        2
176
     1
 62
     7
176
     1
 62
     7
176
     1
 90
        1
176
     1
 90
        1
176
     1
 40
40.0
176
     1
 90
       11
176
     1
 62
     7
176
     1
 40
1.0
176
     1
 90
        1
176
     1
 90
        6
176
     1
 90
        2
176
     1
 62
     7
176
     1
 90
        6
176
     1
 90
        0
176
     1
 90
        0
176
     1
290
     0
176
     1
 90
        1
176
     1
 40
0.0
176
     1
 90
        0
176
     1
290
     0
176
     1
290
     1
176
     1
290
     1
176
     1
290
     0
176
     1
290
     0
176
     1
290
     0
176
     1
290
     0
176
     1
290
     0
176
     1
290
     0
176
     1
 90
       50
176
     1
 40
0.0
176
     1
 40
1.0
176
     1
 90
        0
176
     1
 62
    18
420
        0
176
     1
 90
       50
176
     1
 90
        3
176
     1
 62
     5
420
      255
176
     1
290
     0
176
     1
 90
       50
176
     1
 90
       50
176
     1
 90
       50
176
     1
290
     0
176
     1
 90
       50
176
     1
 62
   256
176
     0
 40
1.0
176
     0
 90
        2
176
     1
  1
strokes_ogs.tif
176
     1
290
     0
176
     1
 40
1.0
176
     1
 40
1.0
176
     1
  0
VISUALSTYLE
  5
850F
102
{ACAD_REACTORS
330
8502
102
}
330
8502
100
AcDbVisualStyle
  2
Thicken
 70
    13
177
     3
291
     1
 70
    58
 90
        2
176
     1
 90
        2
176
     1
 90
        0
176
     1
 90
        0
176
     1
 40
0.6
176
     1
 40
30.0
176
     1
 62
     7
420
 16777215
176
     1
 90
        1
176
     1
 90
        4
176
     1
 62
     7
176
     1
 62
   257
176
     1
 90
        1
176
     1
 90
        1
176
     1
 40
1.0
176
     1
 90
       12
176
     1
 62
     7
176
     1
 40
1.0
176
     1
 90
        1
176
     1
 90
        6
176
     1
 90
        2
176
     1
 62
     7
176
     1
 90
        5
176
     1
 90
        0
176
     1
 90
        0
176
     1
290
     0
176
     1
 90
        1
176
     1
 40
0.0
176
     1
 90
        0
176
     1
290
     0
176
     1
290
     1
176
     1
290
     1
176
     1
290
     0
176
     1
290
     0
176
     1
290
     0
176
     1
290
     0
176
     1
290
     0
176
     1
290
     0
176
     1
 90
       50
176
     1
 40
0.0
176
     1
 40
1.0
176
     1
 90
        0
176
     1
 62
    18
420
        0
176
     1
 90
       50
176
     1
 90
        3
176
     1
 62
     5
420
      255
176
     1
290
     0
176
     1
 90
       50
176
     1
 90
       50
176
     1
 90
       50
176
     1
290
     0
176
     1
 90
       50
176
     1
 62
   256
176
     0
 40
1.0
176
     0
 90
        2
176
     1
  1
strokes_ogs.tif
176
     1
290
     0
176
     1
 40
1.0
176
     1
 40
1.0
176
     1
  0
VISUALSTYLE
  5
8509
102
{ACAD_REACTORS
330
8502
102
}
330
8502
100
AcDbVisualStyle
  2
Wireframe
 70
     5
177
     3
291
     0
 70
    58
 90
        0
176
     1
 90
        2
176
     1
 90
        0
176
     1
 90
        0
176
     1
 40
0.6
176
     1
 40
30.0
176
     1
 62
     7
420
 16777215
176
     1
 90
        1
176
     1
 90
        4
176
     1
 62
     7
176
     1
 62
   257
176
     1
 90
        1
176
     1
 90
        1
176
     1
 40
1.0
176
     1
 90
        0
176
     1
 62
   257
176
     1
 40
1.0
176
     1
 90
        1
176
     1
 90
        6
176
     1
 90
        2
176
     1
 62
     7
176
     1
 90
        3
176
     1
 90
        0
176
     1
 90
        0
176
     1
290
     0
176
     1
 90
        1
176
     1
 40
0.0
176
     1
 90
        0
176
     1
290
     0
176
     1
290
     1
176
     1
290
     1
176
     1
290
     0
176
     1
290
     0
176
     1
290
     0
176
     1
290
     0
176
     1
290
     0
176
     1
290
     0
176
     1
 90
       50
176
     1
 40
0.0
176
     1
 40
1.0
176
     1
 90
        0
176
     1
 62
    18
420
        0
176
     1
 90
       50
176
     1
 90
        3
176
     1
 62
     5
420
      255
176
     1
290
     0
176
     1
 90
       50
176
     1
 90
       50
176
     1
 90
       50
176
     1
290
     0
176
     1
 90
       50
176
     1
 62
   256
176
     0
 40
1.0
176
     0
 90
        2
176
     1
  1
strokes_ogs.tif
176
     1
290
     0
176
     1
 40
1.0
176
     1
 40
1.0
176
     1
  0
VISUALSTYLE
  5
8515
102
{ACAD_REACTORS
330
8502
102
}
330
8502
100
AcDbVisualStyle
  2
X-Ray
 70
    25
177
     3
291
     0
 70
    58
 90
        2
176
     1
 90
        2
176
     1
 90
        1
176
     1
 90
        1
176
     1
 40
0.5
176
     1
 40
30.0
176
     1
 62
     7
420
 16777215
176
     1
 90
        1
176
     1
 90
        0
176
     1
 62
     7
176
     1
 62
   257
176
     1
 90
        1
176
     1
 90
        1
176
     1
 40
1.0
176
     1
 90
        8
176
     1
 62
     7
176
     1
 40
1.0
176
     1
 90
        1
176
     1
 90
        6
176
     1
 90
        2
176
     1
 62
     7
176
     1
 90
        3
176
     1
 90
        0
176
     1
 90
        0
176
     1
290
     0
176
     1
 90
       13
176
     1
 40
0.0
176
     1
 90
        0
176
     1
290
     0
176
     1
290
     1
176
     1
290
     1
176
     1
290
     0
176
     1
290
     0
176
     1
290
     0
176
     1
290
     0
176
     1
290
     0
176
     1
290
     0
176
     1
 90
       50
176
     1
 40
0.0
176
     1
 40
1.0
176
     1
 90
        0
176
     1
 62
    18
420
        0
176
     1
 90
       50
176
     1
 90
        3
176
     1
 62
     5
420
      255
176
     1
290
     0
176
     1
 90
       50
176
     1
 90
       50
176
     1
 90
       50
176
     1
290
     0
176
     1
 90
       50
176
     1
 62
   256
176
     0
 40
1.0
176
     0
 90
        2
176
     1
  1
strokes_ogs.tif
176
     1
290
     0
176
     1
 40
1.0
176
     1
 40
1.0
176
     1
  0
DICTIONARYVAR
  5
85C1
102
{ACAD_REACTORS
330
85BB
102
}
330
85BB
100
DictionaryVariables
280
     0
  1
1:1
  0
DICTIONARYVAR
  5
85BD
102
{ACAD_REACTORS
330
85BB
102
}
330
85BB
100
DictionaryVariables
280
     0
  1
STANDARD
  0
DICTIONARYVAR
  5
85BC
102
{ACAD_REACTORS
330
85BB
102
}
330
85BB
100
DictionaryVariables
280
     0
  1
STANDARD
  0
DICTIONARYVAR
  5
85BE
102
{ACAD_REACTORS
330
85BB
102
}
330
85BB
100
DictionaryVariables
280
     0
  1
Metric50
  0
DICTIONARYVAR
  5
85BF
102
{ACAD_REACTORS
330
85BB
102
}
330
85BB
100
DictionaryVariables
280
     0
  1
Metric50
  0
DICTIONARYVAR
  5
85C3
102
{ACAD_REACTORS
330
85BB
102
}
330
85BB
100
DictionaryVariables
280
     0
  1
1
  0
DICTIONARYVAR
  5
85C4
102
{ACAD_REACTORS
330
85BB
102
}
330
85BB
100
DictionaryVariables
280
     0
  1
15
  0
DICTIONARYVAR
  5
85C2
102
{ACAD_REACTORS
330
85BB
102
}
330
85BB
100
DictionaryVariables
280
     0
  1
0
  0
DICTIONARYVAR
  5
85C0
102
{ACAD_REACTORS
330
85BB
102
}
330
85BB
100
DictionaryVariables
280
     0
  1
0
  0
DICTIONARY
  5
85B8
330
8535
100
AcDbDictionary
280
     1
281
     1
  3
ACAD_XREC_ROUNDTRIP
360
85FF
  0
DICTIONARY
  5
84F3
330
84F2
100
AcDbDictionary
280
     1
281
     1
  3
BUMPTILE
360
84F5
  3
DIFFUSETILE
360
84F4
  3
OPACITYTILE
360
84F8
  3
REFLECTIONTILE
360
84F7
  3
REFRACTIONTILE
360
84F9
  3
SPECULARTILE
360
84F6
  0
DICTIONARY
  5
84EB
330
84EA
100
AcDbDictionary
280
     1
281
     1
  3
BUMPTILE
360
84ED
  3
DIFFUSETILE
360
84EC
  3
OPACITYTILE
360
84F0
  3
REFLECTIONTILE
360
84EF
  3
REFRACTIONTILE
360
84F1
  3
SPECULARTILE
360
84EE
  0
DICTIONARY
  5
84FB
330
84FA
100
AcDbDictionary
280
     1
281
     1
  3
BUMPTILE
360
84FD
  3
DIFFUSETILE
360
84FC
  3
OPACITYTILE
360
8500
  3
REFLECTIONTILE
360
84FF
  3
REFRACTIONTILE
360
8501
  3
SPECULARTILE
360
84FE
  0
DICTIONARY
  5
85B6
330
8533
100
AcDbDictionary
280
     1
281
     1
  3
ACAD_XREC_ROUNDTRIP
360
85FE
  0
DICTIONARY
  5
85FC
330
851D
100
AcDbDictionary
280
     1
281
     1
  3
ACAD_ROUNDTRIP_2008_TABLESTYLE_CELLSTYLEMAP
360
85FD
  0
XRECORD
  5
85FF
102
{ACAD_REACTORS
330
85B8
102
}
330
85B8
100
AcDbXrecord
280
     1
102
DISPLAYNAME
  1
Metric50
102
FLAGS
 90
        0
  0
XRECORD
  5
84F5
102
{ACAD_REACTORS
330
84F3
102
}
330
84F3
100
AcDbXrecord
280
     1
270
     1
271
     1
  0
XRECORD
  5
84F4
102
{ACAD_REACTORS
330
84F3
102
}
330
84F3
100
AcDbXrecord
280
     1
270
     1
271
     1
  0
XRECORD
  5
84F8
102
{ACAD_REACTORS
330
84F3
102
}
330
84F3
100
AcDbXrecord
280
     1
270
     1
271
     1
  0
XRECORD
  5
84F7
102
{ACAD_REACTORS
330
84F3
102
}
330
84F3
100
AcDbXrecord
280
     1
270
     1
271
     1
  0
XRECORD
  5
84F9
102
{ACAD_REACTORS
330
84F3
102
}
330
84F3
100
AcDbXrecord
280
     1
270
     1
271
     1
  0
XRECORD
  5
84F6
102
{ACAD_REACTORS
330
84F3
102
}
330
84F3
100
AcDbXrecord
280
     1
270
     1
271
     1
  0
XRECORD
  5
84ED
102
{ACAD_REACTORS
330
84EB
102
}
330
84EB
100
AcDbXrecord
280
     1
270
     1
271
     1
  0
XRECORD
  5
84EC
102
{ACAD_REACTORS
330
84EB
102
}
330
84EB
100
AcDbXrecord
280
     1
270
     1
271
     1
  0
XRECORD
  5
84F0
102
{ACAD_REACTORS
330
84EB
102
}
330
84EB
100
AcDbXrecord
280
     1
270
     1
271
     1
  0
XRECORD
  5
84EF
102
{ACAD_REACTORS
330
84EB
102
}
330
84EB
100
AcDbXrecord
280
     1
270
     1
271
     1
  0
XRECORD
  5
84F1
102
{ACAD_REACTORS
330
84EB
102
}
330
84EB
100
AcDbXrecord
280
     1
270
     1
271
     1
  0
XRECORD
  5
84EE
102
{ACAD_REACTORS
330
84EB
102
}
330
84EB
100
AcDbXrecord
280
     1
270
     1
271
     1
  0
XRECORD
  5
84FD
102
{ACAD_REACTORS
330
84FB
102
}
330
84FB
100
AcDbXrecord
280
     1
270
     1
271
     1
  0
XRECORD
  5
84FC
102
{ACAD_REACTORS
330
84FB
102
}
330
84FB
100
AcDbXrecord
280
     1
270
     1
271
     1
  0
XRECORD
  5
8500
102
{ACAD_REACTORS
330
84FB
102
}
330
84FB
100
AcDbXrecord
280
     1
270
     1
271
     1
  0
XRECORD
  5
84FF
102
{ACAD_REACTORS
330
84FB
102
}
330
84FB
100
AcDbXrecord
280
     1
270
     1
271
     1
  0
XRECORD
  5
8501
102
{ACAD_REACTORS
330
84FB
102
}
330
84FB
100
AcDbXrecord
280
     1
270
     1
271
     1
  0
XRECORD
  5
84FE
102
{ACAD_REACTORS
330
84FB
102
}
330
84FB
100
AcDbXrecord
280
     1
270
     1
271
     1
  0
XRECORD
  5
85FE
102
{ACAD_REACTORS
330
85B6
102
}
330
85B6
100
AcDbXrecord
280
     1
102
DISPLAYNAME
  1
Metric50
102
FLAGS
 90
        0
  0
CELLSTYLEMAP
  5
85FD
102
{ACAD_REACTORS
330
85FC
102
}
330
85FC
100
AcDbCellStyleMap
 90
        3
300
CELLSTYLE
  1
TABLEFORMAT_BEGIN
 90
        5
170
     1
 91
        0
 92
    32768
 62
   257
 93
        1
300
CONTENTFORMAT
  1
CONTENTFORMAT_BEGIN
 90
        0
 91
        0
 92
      512
 93
        0
300

 40
0.0
140
1.0
 94
        5
 62
     0
340
10
144
6.0
309
CONTENTFORMAT_END
171
     1
301
MARGIN
  1
CELLMARGIN_BEGIN
 40
1.5
 40
1.5
 40
1.5
 40
1.5
 40
4.5
 40
4.5
309
CELLMARGIN_END
 94
        6
 95
        1
302
GRIDFORMAT
  1
GRIDFORMAT_BEGIN
 90
        0
 91
        1
 62
     0
 92
       -2
340
0
 93
        0
 40
1.125
309
GRIDFORMAT_END
 95
        2
302
GRIDFORMAT
  1
GRIDFORMAT_BEGIN
 90
        0
 91
        1
 62
     0
 92
       -2
340
0
 93
        0
 40
1.125
309
GRIDFORMAT_END
 95
        4
302
GRIDFORMAT
  1
GRIDFORMAT_BEGIN
 90
        0
 91
        1
 62
     0
 92
       -2
340
0
 93
        0
 40
1.125
309
GRIDFORMAT_END
 95
        8
302
GRIDFORMAT
  1
GRIDFORMAT_BEGIN
 90
        0
 91
        1
 62
     0
 92
       -2
340
0
 93
        0
 40
1.125
309
GRIDFORMAT_END
 95
       16
302
GRIDFORMAT
  1
GRIDFORMAT_BEGIN
 90
        0
 91
        1
 62
     0
 92
       -2
340
0
 93
        0
 40
1.125
309
GRIDFORMAT_END
 95
       32
302
GRIDFORMAT
  1
GRIDFORMAT_BEGIN
 90
        0
 91
        1
 62
     0
 92
       -2
340
0
 93
        0
 40
1.125
309
GRIDFORMAT_END
309
TABLEFORMAT_END
  1
CELLSTYLE_BEGIN
 90
        1
 91
        1
300
_TITLE
309
CELLSTYLE_END
300
CELLSTYLE
  1
TABLEFORMAT_BEGIN
 90
        5
170
     1
 91
        0
 92
        0
 62
   257
 93
        1
300
CONTENTFORMAT
  1
CONTENTFORMAT_BEGIN
 90
        0
 91
        0
 92
      512
 93
        0
300

 40
0.0
140
1.0
 94
        5
 62
     0
340
10
144
4.5
309
CONTENTFORMAT_END
171
     1
301
MARGIN
  1
CELLMARGIN_BEGIN
 40
1.5
 40
1.5
 40
1.5
 40
1.5
 40
4.5
 40
4.5
309
CELLMARGIN_END
 94
        6
 95
        1
302
GRIDFORMAT
  1
GRIDFORMAT_BEGIN
 90
        0
 91
        1
 62
     0
 92
       -2
340
0
 93
        0
 40
1.125
309
GRIDFORMAT_END
 95
        2
302
GRIDFORMAT
  1
GRIDFORMAT_BEGIN
 90
        0
 91
        1
 62
     0
 92
       -2
340
0
 93
        0
 40
1.125
309
GRIDFORMAT_END
 95
        4
302
GRIDFORMAT
  1
GRIDFORMAT_BEGIN
 90
        0
 91
        1
 62
     0
 92
       -2
340
0
 93
        0
 40
1.125
309
GRIDFORMAT_END
 95
        8
302
GRIDFORMAT
  1
GRIDFORMAT_BEGIN
 90
        0
 91
        1
 62
     0
 92
       -2
340
0
 93
        0
 40
1.125
309
GRIDFORMAT_END
 95
       16
302
GRIDFORMAT
  1
GRIDFORMAT_BEGIN
 90
        0
 91
        1
 62
     0
 92
       -2
340
0
 93
        0
 40
1.125
309
GRIDFORMAT_END
 95
       32
302
GRIDFORMAT
  1
GRIDFORMAT_BEGIN
 90
        0
 91
        1
 62
     0
 92
       -2
340
0
 93
        0
 40
1.125
309
GRIDFORMAT_END
309
TABLEFORMAT_END
  1
CELLSTYLE_BEGIN
 90
        2
 91
        1
300
_HEADER
309
CELLSTYLE_END
300
CELLSTYLE
  1
TABLEFORMAT_BEGIN
 90
        5
170
     1
 91
        0
 92
        0
 62
   257
 93
        1
300
CONTENTFORMAT
  1
CONTENTFORMAT_BEGIN
 90
        0
 91
        0
 92
      512
 93
        0
300

 40
0.0
140
1.0
 94
        2
 62
     0
340
10
144
4.5
309
CONTENTFORMAT_END
171
     1
301
MARGIN
  1
CELLMARGIN_BEGIN
 40
1.5
 40
1.5
 40
1.5
 40
1.5
 40
4.5
 40
4.5
309
CELLMARGIN_END
 94
        6
 95
        1
302
GRIDFORMAT
  1
GRIDFORMAT_BEGIN
 90
        0
 91
        1
 62
     0
 92
       -2
340
0
 93
        0
 40
1.125
309
GRIDFORMAT_END
 95
        2
302
GRIDFORMAT
  1
GRIDFORMAT_BEGIN
 90
        0
 91
        1
 62
     0
 92
       -2
340
0
 93
        0
 40
1.125
309
GRIDFORMAT_END
 95
        4
302
GRIDFORMAT
  1
GRIDFORMAT_BEGIN
 90
        0
 91
        1
 62
     0
 92
       -2
340
0
 93
        0
 40
1.125
309
GRIDFORMAT_END
 95
        8
302
GRIDFORMAT
  1
GRIDFORMAT_BEGIN
 90
        0
 91
        1
 62
     0
 92
       -2
340
0
 93
        0
 40
1.125
309
GRIDFORMAT_END
 95
       16
302
GRIDFORMAT
  1
GRIDFORMAT_BEGIN
 90
        0
 91
        1
 62
     0
 92
       -2
340
0
 93
        0
 40
1.125
309
GRIDFORMAT_END
 95
       32
302
GRIDFORMAT
  1
GRIDFORMAT_BEGIN
 90
        0
 91
        1
 62
     0
 92
       -2
340
0
 93
        0
 40
1.125
309
GRIDFORMAT_END
309
TABLEFORMAT_END
  1
CELLSTYLE_BEGIN
 90
        3
 91
        2
300
_DATA
309
CELLSTYLE_END
  0
ENDSEC
  0
SECTION
  2
ACDSDATA
 70
     2
 71
     8
  0
ACDSSCHEMA
 90
        0
  1
AcDb_Thumbnail_Schema
  2
AcDbDs::ID
280
    10
 91
        8
  2
Thumbnail_Data
280
    15
 91
        0
101
ACDSRECORD
 95
        0
 90
        1
  2
AcDbDs::TreatedAsObjectData
280
     1
291
     1
101
ACDSRECORD
 95
        0
 90
        2
  2
AcDbDs::Legacy
280
     1
291
     1
101
ACDSRECORD
  1
AcDbDs::ID
 90
        3
  2
AcDs:Indexable
280
     1
291
     1
101
ACDSRECORD
  1
AcDbDs::ID
 90
        4
  2
AcDbDs::HandleAttribute
280
     7
282
     1
  0
ACDSSCHEMA
 90
        1
  1
AcDbDs::TreatedAsObjectDataSchema
  2
AcDbDs::TreatedAsObjectData
280
     1
 91
        0
  0
ACDSSCHEMA
 90
        2
  1
AcDbDs::LegacySchema
  2
AcDbDs::Legacy
280
     1
 91
        0
  0
ACDSSCHEMA
 90
        3
  1
AcDbDs::IndexedPropertySchema
  2
AcDs:Indexable
280
     1
 91
        0
  0
ACDSSCHEMA
 90
        4
  1
AcDbDs::HandleAttributeSchema
  2
AcDbDs::HandleAttribute
280
     7
 91
        1
284
     1
  0
ACDSRECORD
 90
        0
  2
AcDbDs::ID
280
    10
320
84DD
  2
Thumbnail_Data
280
    15
 94
     1662
310
89504E470D0A1A0A0000000D49484452000001000000007C0803000000B13B9E5A00000300504C5445000000000000C8C8C80000000000000000000000000000000000000000000000000000330000660000990000CC0000FF0033000033330033660033990033CC0033FF0066000066330066660066990066CC0066FF0099
310
000099330099660099990099CC0099FF00CC0000CC3300CC6600CC9900CCCC00CCFF00FF0000FF3300FF6600FF9900FFCC00FFFF3300003300333300663300993300CC3300FF3333003333333333663333993333CC3333FF3366003366333366663366993366CC3366FF3399003399333399663399993399CC3399FF33CC00
310
33CC3333CC6633CC9933CCCC33CCFF33FF0033FF3333FF6633FF9933FFCC33FFFF6600006600336600666600996600CC6600FF6633006633336633666633996633CC6633FF6666006666336666666666996666CC6666FF6699006699336699666699996699CC6699FF66CC0066CC3366CC6666CC9966CCCC66CCFF66FF0066
310
FF3366FF6666FF9966FFCC66FFFF9900009900339900669900999900CC9900FF9933009933339933669933999933CC9933FF9966009966339966669966999966CC9966FF9999009999339999669999999999CC9999FF99CC0099CC3399CC6699CC9999CCCC99CCFF99FF0099FF3399FF6699FF9999FFCC99FFFFCC0000CC00
310
33CC0066CC0099CC00CCCC00FFCC3300CC3333CC3366CC3399CC33CCCC33FFCC6600CC6633CC6666CC6699CC66CCCC66FFCC9900CC9933CC9966CC9999CC99CCCC99FFCCCC00CCCC33CCCC66CCCC99CCCCCCCCCCFFCCFF00CCFF33CCFF66CCFF99CCFFCCCCFFFFFF0000FF0033FF0066FF0099FF00CCFF00FFFF3300FF3333
310
FF3366FF3399FF33CCFF33FFFF6600FF6633FF6666FF6699FF66CCFF66FFFF9900FF9933FF9966FF9999FF99CCFF99FFFFCC00FFCC33FFCC66FFCC99FFCCCCFFCCFFFFFF00FFFF33FFFF66FFFF99FFFFCCFFFFFF0000000D0D0D1A1A1A2828283535354343435050505D5D5D6B6B6B787878868686939393A1A1A1AEAEAEBB
310
BBBBC9C9C9D6D6D6E4E4E4F1F1F1FFFFFF00000000000000000000000000000000000000000000000000000000000008F1915C000002E84944415478DAEDDD594EC4300C06601F272FB9FF657C8DBC33599AAD4E8AC48C98D87F11039452E1AFC6D9AA42F4812D7C68A353B670D46901000000000000DFF39B6E1A3F2B00D3
310
8F079319601A8046017300EB1D2702BC75047024C0979D0C00FF0050F2B87D28EF24247A1082D40040A5B2D7602B448D3E919034E4D79101631E0CC9106A42680608B59317684C8274C82E3C1441F4032C0E8783A2E1F0FD82DE2E70E88ECC4D61298A6A01C69D57AC0D601E102902A031034A43510FA4EE4D0BC0FB7E1E73
310
8200000000000000001C09E0FBCD24407A75D9020016015CDDBCB303C0CCC3DFBDB90CE0B1F8D92B82DC2EB7AF171F00E6009C558057094C35C0C5900D03BC32C0280059074006100000809E601772F9D414401B0C751B5B1A0E8FC13A619F0D008E4DA28C6224037A015B00D26609E084D3020000000000000000000000E0
310
93BFE95F7AC03A86C39DC046A28D155838CCC060A80360D695013905F2CB26F6AD9312804506F0FCA52E80E73F01BEA5832E80DBEB0EE015BD5309E07E0B100F55071027C43785AE8F77B180723680CF19E0CBBE1CFC0A201E9ABCF400E455C1B448B800E8AE7801205500BEAE8CC900FE0EC0DA005254575C02C06D0D4D0D
310
80F31C6F158AB789A69B866A015C03384500EE7E616364532B30ADA02B02F0A5F65D9FB4C69066805603F232BA0A007FC51DF33A4527F70326003545B0DE23DE6E999401E2216ECA00151DA1AEFDAB778B333D6440AE019A00C8B73AD705BF04D0D3155EDF2435CF8D3CDF4C7522C0D5A4DF9A41E62D00B9ED69CF01183737
310
4D7A6CE647B50078B9876B2703F600BC066025002CCCFA30891343E394902E806EB2BFE63D8B00B5796461654009C06AE183A90D901401AC56860480C7A51165ABC3FC99D39E03400000000000000000580330FF44C94564F911ABE2770D01C8175E1B0009FF36E97AD0A2B50CB05903E40CA0F6886DEA9FB36AA50684F199
310
EB4600849D5D86106A80E9274BA32B0C000000000000000000000000001C0970D0BFDEFE01245A7C15689E2D8D0000000049454E44AE426082AE426082C63E2FAD560BA0FD470B446BDD6B064005806A0560797DE4020000000000000000000000000000005A017CB5BC7EB97F00136DFA5F027DF7DC0000000049454E44AE
310
42608249454E44AE426082
  0
ENDSEC
  0
EOF
