  0
SECTION
  2
HEADER
  9
$ACADVER
  1
AC1027
  9
$ACADMAINTVER
 70
    81
  9
$DWGCODEPAGE
  3
ANSI_932
  9
$LASTSAVEDBY
  1
reiko.miyawaki
  9
$REQUIREDVERSIONS
160
                 0
  9
$INSBASE
 10
0.0
 20
0.0
 30
0.0
  9
$EXTMIN
 10
0.0
 20
0.0
 30
0.0
  9
$EXTMAX
 10
3150.0
 20
4425.0
 30
0.0
  9
$LIMMIN
 10
0.0
 20
0.0
  9
$LIMMAX
 10
297.0
 20
210.0
  9
$ORTHOMODE
 70
     0
  9
$REGENMODE
 70
     1
  9
$FILLMODE
 70
     0
  9
$QTEXTMODE
 70
     0
  9
$MIRRTEXT
 70
     1
  9
$LTSCALE
 40
100.0
  9
$ATTMODE
 70
     1
  9
$TEXTSIZE
 40
180.0
  9
$TRACEWID
 40
0.05
  9
$TEXTSTYLE
  7
STANDARD
  9
$CLAYER
  8
3
  9
$CELTYPE
  6
BYLAYER
  9
$CECOLOR
 62
   256
  9
$CELTSCALE
 40
1.0
  9
$DISPSILH
 70
     0
  9
$DIMSCALE
 40
15.0
  9
$DIMASZ
 40
2.0
  9
$DIMEXO
 40
0.5
  9
$DIMDLI
 40
10.0
  9
$DIMRND
 40
0.0
  9
$DIMDLE
 40
0.0
  9
$DIMEXE
 40
1.0
  9
$DIMTP
 40
1.0
  9
$DIMTM
 40
1.0
  9
$DIMTXT
 40
3.0
  9
$DIMCEN
 40
0.0
  9
$DIMTSZ
 40
0.0
  9
$DIMTOL
 70
     0
  9
$DIMLIM
 70
     0
  9
$DIMTIH
 70
     0
  9
$DIMTOH
 70
     0
  9
$DIMSE1
 70
     0
  9
$DIMSE2
 70
     0
  9
$DIMTAD
 70
     1
  9
$DIMZIN
 70
     8
  9
$DIMBLK
  1

  9
$DIMASO
 70
     1
  9
$DIMSHO
 70
     1
  9
$DIMPOST
  1
(<>)
  9
$DIMAPOST
  1

  9
$DIMALT
 70
     0
  9
$DIMALTD
 70
     2
  9
$DIMALTF
 40
0.039
  9
$DIMLFAC
 40
1.0
  9
$DIMTOFL
 70
     1
  9
$DIMTVP
 40
0.0
  9
$DIMTIX
 70
     0
  9
$DIMSOXD
 70
     0
  9
$DIMSAH
 70
     1
  9
$DIMBLK1
  1
OPEN
  9
$DIMBLK2
  1
OPEN
  9
$DIMSTYLE
  2
IGA
  9
$DIMCLRD
 70
     0
  9
$DIMCLRE
 70
     0
  9
$DIMCLRT
 70
     0
  9
$DIMTFAC
 40
10.0
  9
$DIMGAP
 40
1.0
  9
$DIMJUST
 70
     0
  9
$DIMSD1
 70
     0
  9
$DIMSD2
 70
     0
  9
$DIMTOLJ
 70
     1
  9
$DIMTZIN
 70
     8
  9
$DIMALTZ
 70
     0
  9
$DIMALTTZ
 70
     0
  9
$DIMUPT
 70
     0
  9
$DIMDEC
 70
     0
  9
$DIMTDEC
 70
     0
  9
$DIMALTU
 70
     2
  9
$DIMALTTD
 70
     2
  9
$DIMTXSTY
  7
STANDARD
  9
$DIMAUNIT
 70
     0
  9
$DIMADEC
 70
     0
  9
$DIMALTRND
 40
0.0
  9
$DIMAZIN
 70
     0
  9
$DIMDSEP
 70
    46
  9
$DIMATFIT
 70
     3
  9
$DIMFRAC
 70
     0
  9
$DIMLDRBLK
  1
OPEN
  9
$DIMLUNIT
 70
     2
  9
$DIMLWD
 70
    -2
  9
$DIMLWE
 70
    -2
  9
$DIMTMOVE
 70
     2
  9
$DIMFXL
 40
1.0
  9
$DIMFXLON
 70
     0
  9
$DIMJOGANG
 40
0.7853981633974483
  9
$DIMTFILL
 70
     0
  9
$DIMTFILLCLR
 70
     0
  9
$DIMARCSYM
 70
     0
  9
$DIMLTYPE
  6

  9
$DIMLTEX1
  6

  9
$DIMLTEX2
  6

  9
$DIMTXTDIRECTION
 70
     0
  9
$LUNITS
 70
     2
  9
$LUPREC
 70
     3
  9
$SKETCHINC
 40
0.1
  9
$FILLETRAD
 40
50.0
  9
$AUNITS
 70
     0
  9
$AUPREC
 70
     0
  9
$MENU
  1
acad
  9
$ELEVATION
 40
0.0
  9
$PELEVATION
 40
0.0
  9
$THICKNESS
 40
0.0
  9
$LIMCHECK
 70
     0
  9
$CHAMFERA
 40
0.5
  9
$CHAMFERB
 40
0.5
  9
$CHAMFERC
 40
20.0
  9
$CHAMFERD
 40
0.0
  9
$SKPOLY
 70
     0
  9
$TDCREATE
 40
2451936.564658796
  9
$TDUCREATE
 40
2451936.189658797
  9
$TDUPDATE
 40
2459024.490255012
  9
$TDUUPDATE
 40
2459024.115255012
  9
$TDINDWG
 40
0.0366314815
  9
$TDUSRTIMER
 40
0.0366314815
  9
$USRTIMER
 70
     1
  9
$ANGBASE
 50
0.0
  9
$ANGDIR
 70
     0
  9
$PDMODE
 70
     0
  9
$PDSIZE
 40
0.0
  9
$PLINEWID
 40
0.0
  9
$SPLFRAME
 70
     0
  9
$SPLINETYPE
 70
     6
  9
$SPLINESEGS
 70
     8
  9
$HANDSEED
  5
8595
  9
$SURFTAB1
 70
     6
  9
$SURFTAB2
 70
     6
  9
$SURFTYPE
 70
     6
  9
$SURFU
 70
     6
  9
$SURFV
 70
     6
  9
$UCSBASE
  2

  9
$UCSNAME
  2

  9
$UCSORG
 10
0.0
 20
0.0
 30
0.0
  9
$UCSXDIR
 10
1.0
 20
0.0
 30
0.0
  9
$UCSYDIR
 10
0.0
 20
1.0
 30
0.0
  9
$UCSORTHOREF
  2

  9
$UCSORTHOVIEW
 70
     0
  9
$UCSORGTOP
 10
0.0
 20
0.0
 30
0.0
  9
$UCSORGBOTTOM
 10
0.0
 20
0.0
 30
0.0
  9
$UCSORGLEFT
 10
0.0
 20
0.0
 30
0.0
  9
$UCSORGRIGHT
 10
0.0
 20
0.0
 30
0.0
  9
$UCSORGFRONT
 10
0.0
 20
0.0
 30
0.0
  9
$UCSORGBACK
 10
0.0
 20
0.0
 30
0.0
  9
$PUCSBASE
  2

  9
$PUCSNAME
  2

  9
$PUCSORG
 10
0.0
 20
0.0
 30
0.0
  9
$PUCSXDIR
 10
1.0
 20
0.0
 30
0.0
  9
$PUCSYDIR
 10
0.0
 20
1.0
 30
0.0
  9
$PUCSORTHOREF
  2

  9
$PUCSORTHOVIEW
 70
     0
  9
$PUCSORGTOP
 10
0.0
 20
0.0
 30
0.0
  9
$PUCSORGBOTTOM
 10
0.0
 20
0.0
 30
0.0
  9
$PUCSORGLEFT
 10
0.0
 20
0.0
 30
0.0
  9
$PUCSORGRIGHT
 10
0.0
 20
0.0
 30
0.0
  9
$PUCSORGFRONT
 10
0.0
 20
0.0
 30
0.0
  9
$PUCSORGBACK
 10
0.0
 20
0.0
 30
0.0
  9
$USERI1
 70
     0
  9
$USERI2
 70
     0
  9
$USERI3
 70
     0
  9
$USERI4
 70
     0
  9
$USERI5
 70
     0
  9
$USERR1
 40
0.0
  9
$USERR2
 40
0.0
  9
$USERR3
 40
0.0
  9
$USERR4
 40
0.0
  9
$USERR5
 40
0.0
  9
$WORLDVIEW
 70
     1
  9
$SHADEDGE
 70
     3
  9
$SHADEDIF
 70
    70
  9
$TILEMODE
 70
     1
  9
$MAXACTVP
 70
    16
  9
$PINSBASE
 10
0.0
 20
0.0
 30
0.0
  9
$PLIMCHECK
 70
     0
  9
$PEXTMIN
 10
1.000000000000000E+20
 20
1.000000000000000E+20
 30
1.000000000000000E+20
  9
$PEXTMAX
 10
-1.000000000000000E+20
 20
-1.000000000000000E+20
 30
-1.000000000000000E+20
  9
$PLIMMIN
 10
0.0
 20
0.0
  9
$PLIMMAX
 10
12.0
 20
9.0
  9
$UNITMODE
 70
     0
  9
$VISRETAIN
 70
     0
  9
$PLINEGEN
 70
     0
  9
$PSLTSCALE
 70
     1
  9
$TREEDEPTH
 70
  3020
  9
$CMLSTYLE
  2
STANDARD
  9
$CMLJUST
 70
     0
  9
$CMLSCALE
 40
20.0
  9
$PROXYGRAPHICS
 70
     1
  9
$MEASUREMENT
 70
     1
  9
$CELWEIGHT
370
    -1
  9
$ENDCAPS
280
     0
  9
$JOINSTYLE
280
     0
  9
$LWDISPLAY
290
     0
  9
$INSUNITS
 70
     0
  9
$HYPERLINKBASE
  1

  9
$STYLESHEET
  1

  9
$XEDIT
290
     1
  9
$CEPSNTYPE
380
     0
  9
$PSTYLEMODE
290
     1
  9
$FINGERPRINTGUID
  2
{F9DC2A43-951D-468A-B751-1AE4839202C2}
  9
$VERSIONGUID
  2
{8AAEA06D-9548-4405-B385-893E1E6B719F}
  9
$EXTNAMES
290
     1
  9
$PSVPSCALE
 40
0.0
  9
$OLESTARTUP
290
     0
  9
$SORTENTS
280
   127
  9
$INDEXCTL
280
     0
  9
$HIDETEXT
280
     0
  9
$XCLIPFRAME
280
     2
  9
$HALOGAP
280
     0
  9
$OBSCOLOR
 70
   257
  9
$OBSLTYPE
280
     0
  9
$INTERSECTIONDISPLAY
280
     0
  9
$INTERSECTIONCOLOR
 70
   257
  9
$DIMASSOC
280
     1
  9
$PROJECTNAME
  1

  9
$CAMERADISPLAY
290
     0
  9
$LENSLENGTH
 40
50.0
  9
$CAMERAHEIGHT
 40
0.0
  9
$STEPSPERSEC
 40
2.0
  9
$STEPSIZE
 40
6.0
  9
$3DDWFPREC
 40
2.0
  9
$PSOLWIDTH
 40
0.25
  9
$PSOLHEIGHT
 40
4.0
  9
$LOFTANG1
 40
1.570796326794896
  9
$LOFTANG2
 40
1.570796326794896
  9
$LOFTMAG1
 40
0.0
  9
$LOFTMAG2
 40
0.0
  9
$LOFTPARAM
 70
     7
  9
$LOFTNORMALS
280
     1
  9
$LATITUDE
 40
37.795
  9
$LONGITUDE
 40
-122.394
  9
$NORTHDIRECTION
 40
0.0
  9
$TIMEZONE
 70
 -8000
  9
$LIGHTGLYPHDISPLAY
280
     1
  9
$TILEMODELIGHTSYNCH
280
     1
  9
$CMATERIAL
347
8484
  9
$SOLIDHIST
280
     0
  9
$SHOWHIST
280
     1
  9
$DWFFRAME
280
     2
  9
$DGNFRAME
280
     0
  9
$REALWORLDSCALE
290
     1
  9
$INTERFERECOLOR
 62
     1
  9
$INTERFEREOBJVS
345
84A6
  9
$INTERFEREVPVS
346
84A3
  9
$CSHADOW
280
     0
  9
$SHADOWPLANELOCATION
 40
0.0
  0
ENDSEC
  0
SECTION
  2
CLASSES
  0
CLASS
  1
ACDBDICTIONARYWDFLT
  2
AcDbDictionaryWithDefault
  3
ObjectDBX Classes
 90
        0
 91
        1
280
     0
281
     0
  0
CLASS
  1
MATERIAL
  2
AcDbMaterial
  3
ObjectDBX Classes
 90
     1153
 91
        3
280
     0
281
     0
  0
CLASS
  1
VISUALSTYLE
  2
AcDbVisualStyle
  3
ObjectDBX Classes
 90
     4095
 91
       24
280
     0
281
     0
  0
CLASS
  1
TABLESTYLE
  2
AcDbTableStyle
  3
ObjectDBX Classes
 90
     4095
 91
        1
280
     0
281
     0
  0
CLASS
  1
SCALE
  2
AcDbScale
  3
ObjectDBX Classes
 90
     1153
 91
       17
280
     0
281
     0
  0
CLASS
  1
MLEADERSTYLE
  2
AcDbMLeaderStyle
  3
ACDB_MLEADERSTYLE_CLASS
 90
     4095
 91
        1
280
     0
281
     0
  0
CLASS
  1
ACDBSECTIONVIEWSTYLE
  2
AcDbSectionViewStyle
  3
ObjectDBX Classes
 90
     1025
 91
        1
280
     0
281
     0
  0
CLASS
  1
ACDBDETAILVIEWSTYLE
  2
AcDbDetailViewStyle
  3
ObjectDBX Classes
 90
     1025
 91
        1
280
     0
281
     0
  0
CLASS
  1
SORTENTSTABLE
  2
AcDbSortentsTable
  3
ObjectDBX Classes
 90
        0
 91
        1
280
     0
281
     0
  0
CLASS
  1
DICTIONARYVAR
  2
AcDbDictionaryVar
  3
ObjectDBX Classes
 90
        0
 91
        9
280
     0
281
     0
  0
CLASS
  1
CELLSTYLEMAP
  2
AcDbCellStyleMap
  3
ObjectDBX Classes
 90
     1152
 91
        1
280
     0
281
     0
  0
ENDSEC
  0
SECTION
  2
TABLES
  0
TABLE
  2
VPORT
  5
8
330
0
100
AcDbSymbolTable
 70
     1
  0
VPORT
  5
8481
330
8
100
AcDbSymbolTableRecord
100
AcDbViewportTableRecord
  2
*Active
 70
     0
 10
0.0
 20
0.0
 11
1.0
 21
1.0
 12
1575.000022003839
 22
2318.432906054561
 13
0.0
 23
0.0
 14
10.0
 24
10.0
 15
10.0
 25
10.0
 16
0.0
 26
0.0
 36
1.0
 17
0.0
 27
0.0
 37
0.0
 40
4665.336734169487
 41
1.957107843137254
 42
50.0
 43
0.0
 44
0.0
 50
0.0
 51
0.0
 71
     0
 72
   100
 73
     1
 74
     0
 75
     0
 76
     0
 77
     0
 78
     0
281
     0
 65
     1
110
0.0
120
0.0
130
0.0
111
1.0
121
0.0
131
0.0
112
0.0
122
1.0
132
0.0
 79
     0
146
0.0
348
84A2
 60
     3
 61
     5
292
     1
282
     1
141
0.0
142
0.0
 63
   250
421
  3355443
1001
ACAD_NAV_VCDISPLAY
1070
     3
  0
ENDTAB
  0
TABLE
  2
LTYPE
  5
5
330
0
100
AcDbSymbolTable
 70
     2
  0
LTYPE
  5
13
330
5
100
AcDbSymbolTableRecord
100
AcDbLinetypeTableRecord
  2
BYBLOCK
 70
     0
  3

 72
    65
 73
     0
 40
0.0
  0
LTYPE
  5
14
330
5
100
AcDbSymbolTableRecord
100
AcDbLinetypeTableRecord
  2
BYLAYER
 70
     0
  3

 72
    65
 73
     0
 40
0.0
  0
LTYPE
  5
15
330
5
100
AcDbSymbolTableRecord
100
AcDbLinetypeTableRecord
  2
CONTINUOUS
 70
     0
  3
Solid line
 72
    65
 73
     0
 40
0.0
  0
LTYPE
  5
1F
330
5
100
AcDbSymbolTableRecord
100
AcDbLinetypeTableRecord
  2
CENTER
 70
     0
  3
____ _ ____ _ ____ _ ____ _ ____ _ ____ _ ____ 
 72
    65
 73
     4
 40
2.0
 49
1.25
 74
     0
 49
-0.25
 74
     0
 49
0.25
 74
     0
 49
-0.25
 74
     0
  0
ENDTAB
  0
TABLE
  2
LAYER
  5
2
102
{ACAD_XDICTIONARY
360
8528
102
}
330
0
100
AcDbSymbolTable
 70
     6
  0
LAYER
  5
F
102
{ACAD_XDICTIONARY
360
851B
102
}
330
2
100
AcDbSymbolTableRecord
100
AcDbLayerTableRecord
  2
0
 70
     0
 62
     7
  6
CONTINUOUS
370
    -3
390
8474
347
8494
348
0
  0
LAYER
  5
31
102
{ACAD_XDICTIONARY
360
851D
102
}
330
2
100
AcDbSymbolTableRecord
100
AcDbLayerTableRecord
  2
3
 70
     0
 62
     2
  6
CONTINUOUS
370
    -3
390
8474
347
8494
348
0
  0
LAYER
  5
76D0
102
{ACAD_XDICTIONARY
360
851F
102
}
330
2
100
AcDbSymbolTableRecord
100
AcDbLayerTableRecord
  2
2
 70
     0
 62
     3
  6
CENTER
370
    -3
390
8474
347
8494
348
0
  0
LAYER
  5
76D1
102
{ACAD_XDICTIONARY
360
8521
102
}
330
2
100
AcDbSymbolTableRecord
100
AcDbLayerTableRecord
  2
1
 70
     0
 62
     4
  6
CONTINUOUS
370
    -3
390
8474
347
8494
348
0
  0
LAYER
  5
76D2
102
{ACAD_XDICTIONARY
360
8523
102
}
330
2
100
AcDbSymbolTableRecord
100
AcDbLayerTableRecord
  2
4
 70
     0
 62
     7
  6
CONTINUOUS
370
    -3
390
8474
347
8494
348
0
  0
LAYER
  5
7B08
330
2
100
AcDbSymbolTableRecord
100
AcDbLayerTableRecord
  2
DEFPOINTS
 70
     0
 62
     7
  6
CONTINUOUS
290
     0
370
    -3
390
8474
347
8494
348
0
  0
ENDTAB
  0
TABLE
  2
STYLE
  5
3
330
0
100
AcDbSymbolTable
 70
     1
  0
STYLE
  5
10
330
3
100
AcDbSymbolTableRecord
100
AcDbTextStyleTableRecord
  2
STANDARD
 70
     0
 40
0.0
 41
1.0
 50
0.0
 71
     0
 42
180.0
  3
simplex.shx
  4
extfont.shx
  0
ENDTAB
  0
TABLE
  2
VIEW
  5
6
330
0
100
AcDbSymbolTable
 70
     0
  0
ENDTAB
  0
TABLE
  2
UCS
  5
7
330
0
100
AcDbSymbolTable
 70
     0
  0
ENDTAB
  0
TABLE
  2
APPID
  5
9
330
0
100
AcDbSymbolTable
 70
     4
  0
APPID
  5
11
330
9
100
AcDbSymbolTableRecord
100
AcDbRegAppTableRecord
  2
ACAD
 70
     0
  0
APPID
  5
852E
330
9
100
AcDbSymbolTableRecord
100
AcDbRegAppTableRecord
  2
ACAD_NAV_VCDISPLAY
 70
     0
  0
APPID
  5
856D
330
9
100
AcDbSymbolTableRecord
100
AcDbRegAppTableRecord
  2
AcadAnnoMonitorAlertIconDisabled
 70
     0
  0
APPID
  5
856E
330
9
100
AcDbSymbolTableRecord
100
AcDbRegAppTableRecord
  2
ACAD_EXEMPT_FROM_CAD_STANDARDS
 70
     0
  0
ENDTAB
  0
TABLE
  2
DIMSTYLE
  5
A
330
0
100
AcDbSymbolTable
 70
     1
100
AcDbDimStyleTable
 71
     1
340
1D
  0
DIMSTYLE
105
1D
102
{ACAD_REACTORS
330
7C74
330
7CCA
330
7CCB
330
7CE5
330
7CE6
330
7CE7
330
7CEA
330
7CEB
330
7D31
330
7D32
330
7D33
330
7D35
330
83C7
330
83D4
330
8418
330
8427
330
8436
330
8463
330
8470
102
}
330
A
100
AcDbSymbolTableRecord
100
AcDbDimStyleTableRecord
  2
IGA
 70
     0
 40
2.0
 41
2.0
 42
0.5
 43
10.0
 44
1.0
 47
1.0
 48
1.0
 73
     0
 74
     0
 77
     1
 78
     8
140
3.0
141
0.0
143
0.03937
146
10.0
147
1.0
173
     1
271
     1
272
     0
279
     2
284
     8
340
10
341
79FC
343
79FC
344
79FC
  0
ENDTAB
  0
TABLE
  2
BLOCK_RECORD
  5
1
330
0
100
AcDbSymbolTable
 70
    21
  0
BLOCK_RECORD
  5
19
102
{ACAD_XDICTIONARY
360
84D4
102
}
330
1
100
AcDbSymbolTableRecord
100
AcDbBlockTableRecord
  2
*MODEL_SPACE
340
8477
 70
     0
280
     1
281
     0
  0
BLOCK_RECORD
  5
16
330
1
100
AcDbSymbolTableRecord
100
AcDbBlockTableRecord
  2
*PAPER_SPACE
340
8478
 70
     0
280
     1
281
     0
  0
BLOCK_RECORD
  5
79FC
330
1
100
AcDbSymbolTableRecord
100
AcDbBlockTableRecord
  2
_OPEN
340
0
102
{BLKREFS
331
8048
331
8049
331
80B3
331
80B4
331
80D4
331
80D5
331
80DF
331
80E0
331
80EB
331
80EC
331
81CA
331
81CB
331
8262
331
8263
331
8283
331
8284
331
82A1
331
82A2
331
834F
331
8350
331
835B
331
835C
331
84D9
331
84DA
331
84E2
331
84E3
331
84EB
331
84EC
331
84F6
331
84F7
331
8502
331
8515
331
8516
331
8545
331
857C
331
857D
102
}
 70
     0
280
     1
281
     0
  0
BLOCK_RECORD
  5
7AAA
330
1
100
AcDbSymbolTableRecord
100
AcDbBlockTableRecord
  2
_DOT
340
0
102
{BLKREFS
331
8501
331
8544
102
}
 70
     0
280
     1
281
     0
  0
BLOCK_RECORD
  5
7D64
330
1
100
AcDbSymbolTableRecord
100
AcDbBlockTableRecord
  2
*D2
340
0
 70
     0
280
     1
281
     0
  0
BLOCK_RECORD
  5
7DB6
330
1
100
AcDbSymbolTableRecord
100
AcDbBlockTableRecord
  2
*D3
340
0
 70
     0
280
     1
281
     0
  0
BLOCK_RECORD
  5
7DC2
330
1
100
AcDbSymbolTableRecord
100
AcDbBlockTableRecord
  2
*D4
340
0
 70
     0
280
     1
281
     0
  0
BLOCK_RECORD
  5
7DCE
330
1
100
AcDbSymbolTableRecord
100
AcDbBlockTableRecord
  2
*D5
340
0
 70
     0
280
     1
281
     0
  0
BLOCK_RECORD
  5
7DDA
330
1
100
AcDbSymbolTableRecord
100
AcDbBlockTableRecord
  2
*D6
340
0
 70
     0
280
     1
281
     0
  0
BLOCK_RECORD
  5
7DE6
330
1
100
AcDbSymbolTableRecord
100
AcDbBlockTableRecord
  2
*D7
340
0
 70
     0
280
     1
281
     0
  0
BLOCK_RECORD
  5
7E0C
330
1
100
AcDbSymbolTableRecord
100
AcDbBlockTableRecord
  2
*D8
340
0
 70
     0
280
     1
281
     0
  0
BLOCK_RECORD
  5
7E18
330
1
100
AcDbSymbolTableRecord
100
AcDbBlockTableRecord
  2
*D9
340
0
 70
     0
280
     1
281
     0
  0
BLOCK_RECORD
  5
7E23
330
1
100
AcDbSymbolTableRecord
100
AcDbBlockTableRecord
  2
*D10
340
0
 70
     0
280
     1
281
     0
  0
BLOCK_RECORD
  5
7E2F
330
1
100
AcDbSymbolTableRecord
100
AcDbBlockTableRecord
  2
*D11
340
0
 70
     0
280
     1
281
     0
  0
BLOCK_RECORD
  5
7E3A
330
1
100
AcDbSymbolTableRecord
100
AcDbBlockTableRecord
  2
*D12
340
0
 70
     0
280
     1
281
     0
  0
BLOCK_RECORD
  5
7E52
330
1
100
AcDbSymbolTableRecord
100
AcDbBlockTableRecord
  2
*D13
340
0
 70
     0
280
     1
281
     0
  0
BLOCK_RECORD
  5
83B9
330
1
100
AcDbSymbolTableRecord
100
AcDbBlockTableRecord
  2
*D14
340
0
 70
     0
280
     1
281
     0
  0
BLOCK_RECORD
  5
83C8
330
1
100
AcDbSymbolTableRecord
100
AcDbBlockTableRecord
  2
*D15
340
0
 70
     0
280
     1
281
     0
  0
BLOCK_RECORD
  5
840C
330
1
100
AcDbSymbolTableRecord
100
AcDbBlockTableRecord
  2
*D16
340
0
 70
     0
280
     1
281
     0
  0
BLOCK_RECORD
  5
8419
330
1
100
AcDbSymbolTableRecord
100
AcDbBlockTableRecord
  2
*D17
340
0
 70
     0
280
     1
281
     0
  0
BLOCK_RECORD
  5
8428
330
1
100
AcDbSymbolTableRecord
100
AcDbBlockTableRecord
  2
*D18
340
0
 70
     0
280
     1
281
     0
  0
BLOCK_RECORD
  5
8455
330
1
100
AcDbSymbolTableRecord
100
AcDbBlockTableRecord
  2
*D19
340
0
 70
     0
280
     1
281
     0
  0
BLOCK_RECORD
  5
8464
330
1
100
AcDbSymbolTableRecord
100
AcDbBlockTableRecord
  2
*D20
340
0
 70
     0
280
     1
281
     0
  0
ENDTAB
  0
ENDSEC
  0
SECTION
  2
BLOCKS
  0
BLOCK
  5
1A
330
19
100
AcDbEntity
  8
0
100
AcDbBlockBegin
  2
*MODEL_SPACE
 70
     0
 10
0.0
 20
0.0
 30
0.0
  3
*MODEL_SPACE
  1

  0
ENDBLK
  5
1B
330
19
100
AcDbEntity
  8
0
100
AcDbBlockEnd
  0
BLOCK
  5
17
330
16
100
AcDbEntity
 67
     1
  8
0
100
AcDbBlockBegin
  2
*PAPER_SPACE
 70
     0
 10
0.0
 20
0.0
 30
0.0
  3
*PAPER_SPACE
  1

  0
ENDBLK
  5
18
330
16
100
AcDbEntity
 67
     1
  8
0
100
AcDbBlockEnd
  0
BLOCK
  5
7A00
330
79FC
100
AcDbEntity
  8
0
100
AcDbBlockBegin
  2
_OPEN
 70
     0
 10
0.0
 20
0.0
 30
0.0
  3
_OPEN
  1

  0
LINE
  5
79FD
330
79FC
100
AcDbEntity
  8
0
  6
ByBlock
 62
     0
100
AcDbLine
 10
-1.0
 20
0.1666666666666666
 30
0.0
 11
0.0
 21
0.0
 31
0.0
  0
LINE
  5
79FE
330
79FC
100
AcDbEntity
  8
0
  6
ByBlock
 62
     0
100
AcDbLine
 10
0.0
 20
0.0
 30
0.0
 11
-1.0
 21
-0.1666666666666666
 31
0.0
  0
LINE
  5
79FF
330
79FC
100
AcDbEntity
  8
0
  6
ByBlock
 62
     0
100
AcDbLine
 10
0.0
 20
0.0
 30
0.0
 11
-1.0
 21
0.0
 31
0.0
  0
ENDBLK
  5
7A01
330
79FC
100
AcDbEntity
  8
0
100
AcDbBlockEnd
  0
BLOCK
  5
7AB0
330
7AAA
100
AcDbEntity
  8
0
100
AcDbBlockBegin
  2
_DOT
 70
     0
 10
0.0
 20
0.0
 30
0.0
  3
_DOT
  1

  0
LINE
  5
8240
330
7AAA
100
AcDbEntity
  8
0
  6
ByBlock
 62
     0
100
AcDbLine
 10
0.0
 20
0.0
 30
0.0
 11
-1.0
 21
-0.0000000000000284
 31
0.0
  0
LWPOLYLINE
  5
8241
330
7AAA
100
AcDbEntity
  8
0
  6
ByBlock
 62
     0
100
AcDbPolyline
 90
        2
 70
     1
 43
0.1666666666666666
 10
-0.0833333333333286
 20
-0.0000000000000284
 42
1.0
 10
0.0833333333333286
 20
-0.0000000000000284
 42
1.0
  0
ENDBLK
  5
7AB1
330
7AAA
100
AcDbEntity
  8
0
100
AcDbBlockEnd
  0
BLOCK
  5
827E
330
7D64
100
AcDbEntity
  8
0
100
AcDbBlockBegin
  2
*D2
 70
     1
 10
0.0
 20
0.0
 30
0.0
  3
*D2
  1

  0
LINE
  5
827F
330
7D64
100
AcDbEntity
  8
0
  6
ByBlock
 62
     0
440
 16777216
100
AcDbLine
 10
2267.779778314986
 20
1854.778051035038
 30
0.0
 11
2267.779778314986
 21
1953.144908744669
 31
0.0
  0
LINE
  5
8280
330
7D64
100
AcDbEntity
  8
0
  6
ByBlock
 62
     0
440
 16777216
100
AcDbLine
 10
2447.779778314986
 20
1855.038803486421
 30
0.0
 11
2447.779778314986
 21
1953.144908744669
 31
0.0
  0
LINE
  5
8281
330
7D64
100
AcDbEntity
  8
0
  6
ByBlock
 62
     0
440
 16777216
100
AcDbLine
 10
2297.779778314986
 20
1938.144908744669
 30
0.0
 11
2417.779778314987
 21
1938.144908744669
 31
0.0
  0
MTEXT
  5
8282
330
7D64
100
AcDbEntity
  8
0
  6
ByBlock
 62
     0
440
 16777216
100
AcDbMText
 10
2357.448558591641
 20
1966.747727720529
 30
0.0
 40
45.0
 41
0.0
 46
0.0
 71
     5
 72
     5
  1
\A1;180
 73
     1
 44
1.0
  0
INSERT
  5
8283
330
7D64
100
AcDbEntity
  8
0
  6
ByBlock
 62
     0
440
 16777216
100
AcDbBlockReference
  2
_OPEN
 10
2267.779778314986
 20
1938.144908744669
 30
0.0
 41
30.0
 42
30.0
 43
30.0
 50
180.0
  0
INSERT
  5
8284
330
7D64
100
AcDbEntity
  8
0
  6
ByBlock
 62
     0
440
 16777216
100
AcDbBlockReference
  2
_OPEN
 10
2447.779778314986
 20
1938.144908744669
 30
0.0
 41
30.0
 42
30.0
 43
30.0
  0
POINT
  5
8285
330
7D64
100
AcDbEntity
  8
DEFPOINTS
  6
ByBlock
 62
     0
440
 16777216
100
AcDbPoint
 10
2267.779778314986
 20
1847.278051035038
 30
0.0
  0
POINT
  5
8286
330
7D64
100
AcDbEntity
  8
DEFPOINTS
  6
ByBlock
 62
     0
440
 16777216
100
AcDbPoint
 10
2447.779778314986
 20
1847.538803486421
 30
0.0
  0
POINT
  5
8287
330
7D64
100
AcDbEntity
  8
DEFPOINTS
  6
ByBlock
 62
     0
440
 16777216
100
AcDbPoint
 10
2447.779778314986
 20
1938.144908744669
 30
0.0
  0
ENDBLK
  5
8288
330
7D64
100
AcDbEntity
  8
0
100
AcDbBlockEnd
  0
BLOCK
  5
834B
330
7DB6
100
AcDbEntity
  8
0
100
AcDbBlockBegin
  2
*D3
 70
     1
 10
0.0
 20
0.0
 30
0.0
  3
*D3
  1

  0
LINE
  5
834C
330
7DB6
100
AcDbEntity
  8
0
  6
ByBlock
 62
     0
440
 16777216
100
AcDbLine
 10
751.1174068211484
 20
3130.538868589276
 30
0.0
 11
630.5508969124657
 21
3130.538868589276
 31
0.0
  0
LINE
  5
834D
330
7DB6
100
AcDbEntity
  8
0
  6
ByBlock
 62
     0
440
 16777216
100
AcDbLine
 10
751.1174068211484
 20
2685.538868589276
 30
0.0
 11
630.5508969124657
 21
2685.538868589276
 31
0.0
  0
LINE
  5
834E
330
7DB6
100
AcDbEntity
  8
0
  6
ByBlock
 62
     0
440
 16777216
100
AcDbLine
 10
645.5508969124657
 20
3100.538868589276
 30
0.0
 11
645.5508969124657
 21
2715.538868589276
 31
0.0
  0
INSERT
  5
834F
330
7DB6
100
AcDbEntity
  8
0
  6
ByBlock
 62
     0
440
 16777216
100
AcDbBlockReference
  2
_OPEN
 10
645.5508969124657
 20
3130.538868589276
 30
0.0
 41
30.0
 42
30.0
 43
30.0
 50
90.0
  0
INSERT
  5
8350
330
7DB6
100
AcDbEntity
  8
0
  6
ByBlock
 62
     0
440
 16777216
100
AcDbBlockReference
  2
_OPEN
 10
645.5508969124657
 20
2685.538868589276
 30
0.0
 41
30.0
 42
30.0
 43
30.0
 50
270.0
  0
MTEXT
  5
8351
330
7DB6
100
AcDbEntity
  8
0
  6
ByBlock
 62
     0
440
 16777216
100
AcDbMText
 10
608.0508969124657
 20
2908.038868589276
 30
0.0
 40
45.0
 41
0.0
 46
0.0
 71
     5
 72
     5
  1
\A1;445
 11
0.0
 21
1.0
 31
0.0
 73
     1
 44
1.0
  0
POINT
  5
8352
330
7DB6
100
AcDbEntity
  8
DEFPOINTS
  6
ByBlock
 62
     0
440
 16777216
100
AcDbPoint
 10
758.6174068211485
 20
3130.538868589276
 30
0.0
  0
POINT
  5
8353
330
7DB6
100
AcDbEntity
  8
DEFPOINTS
  6
ByBlock
 62
     0
440
 16777216
100
AcDbPoint
 10
758.6174068211485
 20
2685.538868589276
 30
0.0
  0
POINT
  5
8354
330
7DB6
100
AcDbEntity
  8
DEFPOINTS
  6
ByBlock
 62
     0
440
 16777216
100
AcDbPoint
 10
645.5508969124657
 20
2685.538868589276
 30
0.0
  0
ENDBLK
  5
8355
330
7DB6
100
AcDbEntity
  8
0
100
AcDbBlockEnd
  0
BLOCK
  5
8357
330
7DC2
100
AcDbEntity
  8
0
100
AcDbBlockBegin
  2
*D4
 70
     1
 10
0.0
 20
0.0
 30
0.0
  3
*D4
  1

  0
LINE
  5
8358
330
7DC2
100
AcDbEntity
  8
0
  6
ByBlock
 62
     0
440
 16777216
100
AcDbLine
 10
1458.617406821147
 20
2678.038868589276
 30
0.0
 11
1458.617406821147
 21
2490.991998174919
 31
0.0
  0
LINE
  5
8359
330
7DC2
100
AcDbEntity
  8
0
  6
ByBlock
 62
     0
440
 16777216
100
AcDbLine
 10
758.6174068211485
 20
2678.038868589276
 30
0.0
 11
758.6174068211485
 21
2490.991998174919
 31
0.0
  0
LINE
  5
835A
330
7DC2
100
AcDbEntity
  8
0
  6
ByBlock
 62
     0
440
 16777216
100
AcDbLine
 10
1428.617406821147
 20
2505.991998174919
 30
0.0
 11
788.6174068211484
 21
2505.991998174919
 31
0.0
  0
INSERT
  5
835B
330
7DC2
100
AcDbEntity
  8
0
  6
ByBlock
 62
     0
440
 16777216
100
AcDbBlockReference
  2
_OPEN
 10
1458.617406821147
 20
2505.991998174919
 30
0.0
 41
30.0
 42
30.0
 43
30.0
  0
INSERT
  5
835C
330
7DC2
100
AcDbEntity
  8
0
  6
ByBlock
 62
     0
440
 16777216
100
AcDbBlockReference
  2
_OPEN
 10
758.6174068211485
 20
2505.991998174919
 30
0.0
 41
30.0
 42
30.0
 43
30.0
 50
180.0
  0
MTEXT
  5
835D
330
7DC2
100
AcDbEntity
  8
0
  6
ByBlock
 62
     0
440
 16777216
100
AcDbMText
 10
1108.617406821148
 20
2543.491998174919
 30
0.0
 40
45.0
 41
0.0
 46
0.0
 71
     5
 72
     5
  1
\A1;700
 73
     1
 44
1.0
  0
POINT
  5
835E
330
7DC2
100
AcDbEntity
  8
DEFPOINTS
  6
ByBlock
 62
     0
440
 16777216
100
AcDbPoint
 10
1458.617406821147
 20
2685.538868589276
 30
0.0
  0
POINT
  5
835F
330
7DC2
100
AcDbEntity
  8
DEFPOINTS
  6
ByBlock
 62
     0
440
 16777216
100
AcDbPoint
 10
758.6174068211485
 20
2685.538868589276
 30
0.0
  0
POINT
  5
8360
330
7DC2
100
AcDbEntity
  8
DEFPOINTS
  6
ByBlock
 62
     0
440
 16777216
100
AcDbPoint
 10
758.6174068211485
 20
2505.991998174919
 30
0.0
  0
ENDBLK
  5
8361
330
7DC2
100
AcDbEntity
  8
0
100
AcDbBlockEnd
  0
BLOCK
  5
80DB
330
7DCE
100
AcDbEntity
  8
0
100
AcDbBlockBegin
  2
*D5
 70
     1
 10
0.0
 20
0.0
 30
0.0
  3
*D5
  1

  0
LINE
  5
80DC
330
7DCE
100
AcDbEntity
  8
0
  6
ByBlock
 62
     0
440
 16777216
100
AcDbLine
 10
1196.617406821147
 20
1879.662089954461
 30
0.0
 11
1196.617406821147
 21
1942.784560483514
 31
0.0
  0
LINE
  5
80DD
330
7DCE
100
AcDbEntity
  8
0
  6
ByBlock
 62
     0
440
 16777216
100
AcDbLine
 10
956.6174068211484
 20
1879.662089954461
 30
0.0
 11
956.6174068211484
 21
1942.784560483514
 31
0.0
  0
LINE
  5
80DE
330
7DCE
100
AcDbEntity
  8
0
  6
ByBlock
 62
     0
440
 16777216
100
AcDbLine
 10
1166.617406821147
 20
1927.784560483514
 30
0.0
 11
986.6174068211485
 21
1927.784560483514
 31
0.0
  0
INSERT
  5
80DF
330
7DCE
100
AcDbEntity
  8
0
  6
ByBlock
 62
     0
440
 16777216
100
AcDbBlockReference
  2
_OPEN
 10
1196.617406821147
 20
1927.784560483514
 30
0.0
 41
30.0
 42
30.0
 43
30.0
  0
INSERT
  5
80E0
330
7DCE
100
AcDbEntity
  8
0
  6
ByBlock
 62
     0
440
 16777216
100
AcDbBlockReference
  2
_OPEN
 10
956.6174068211484
 20
1927.784560483514
 30
0.0
 41
30.0
 42
30.0
 43
30.0
 50
180.0
  0
MTEXT
  5
80E1
330
7DCE
100
AcDbEntity
  8
0
  6
ByBlock
 62
     0
440
 16777216
100
AcDbMText
 10
1076.617406821148
 20
1965.284560483514
 30
0.0
 40
45.0
 41
0.0
 46
0.0
 71
     5
 72
     5
  1
\A1;240
 73
     1
 44
1.0
  0
POINT
  5
80E2
330
7DCE
100
AcDbEntity
  8
DEFPOINTS
  6
ByBlock
 62
     0
440
 16777216
100
AcDbPoint
 10
1196.617406821147
 20
1872.162089954461
 30
0.0
  0
POINT
  5
80E3
330
7DCE
100
AcDbEntity
  8
DEFPOINTS
  6
ByBlock
 62
     0
440
 16777216
100
AcDbPoint
 10
956.6174068211484
 20
1872.162089954461
 30
0.0
  0
POINT
  5
80E4
330
7DCE
100
AcDbEntity
  8
DEFPOINTS
  6
ByBlock
 62
     0
440
 16777216
100
AcDbPoint
 10
956.6174068211484
 20
1927.784560483514
 30
0.0
  0
ENDBLK
  5
80E5
330
7DCE
100
AcDbEntity
  8
0
100
AcDbBlockEnd
  0
BLOCK
  5
80D0
330
7DDA
100
AcDbEntity
  8
0
100
AcDbBlockBegin
  2
*D6
 70
     1
 10
0.0
 20
0.0
 30
0.0
  3
*D6
  1

  0
LINE
  5
80D1
330
7DDA
100
AcDbEntity
  8
0
  6
ByBlock
 62
     0
440
 16777216
100
AcDbLine
 10
1196.617406821147
 20
1879.662089954461
 30
0.0
 11
1196.617406821147
 21
2022.721089774404
 31
0.0
  0
LINE
  5
80D2
330
7DDA
100
AcDbEntity
  8
0
  6
ByBlock
 62
     0
440
 16777216
100
AcDbLine
 10
958.6174068211485
 20
1938.329824854752
 30
0.0
 11
958.6174068211485
 21
2022.721089774404
 31
0.0
  0
LINE
  5
80D3
330
7DDA
100
AcDbEntity
  8
0
  6
ByBlock
 62
     0
440
 16777216
100
AcDbLine
 10
1166.617406821147
 20
2007.721089774403
 30
0.0
 11
988.6174068211484
 21
2007.721089774403
 31
0.0
  0
INSERT
  5
80D4
330
7DDA
100
AcDbEntity
  8
0
  6
ByBlock
 62
     0
440
 16777216
100
AcDbBlockReference
  2
_OPEN
 10
1196.617406821147
 20
2007.721089774403
 30
0.0
 41
30.0
 42
30.0
 43
30.0
  0
INSERT
  5
80D5
330
7DDA
100
AcDbEntity
  8
0
  6
ByBlock
 62
     0
440
 16777216
100
AcDbBlockReference
  2
_OPEN
 10
958.6174068211485
 20
2007.721089774403
 30
0.0
 41
30.0
 42
30.0
 43
30.0
 50
180.0
  0
MTEXT
  5
80D6
330
7DDA
100
AcDbEntity
  8
0
  6
ByBlock
 62
     0
440
 16777216
100
AcDbMText
 10
1077.617406821148
 20
2045.221089774404
 30
0.0
 40
45.0
 41
0.0
 46
0.0
 71
     5
 72
     5
  1
\A1;238
 73
     1
 44
1.0
  0
POINT
  5
80D7
330
7DDA
100
AcDbEntity
  8
DEFPOINTS
  6
ByBlock
 62
     0
440
 16777216
100
AcDbPoint
 10
1196.617406821147
 20
1872.162089954461
 30
0.0
  0
POINT
  5
80D8
330
7DDA
100
AcDbEntity
  8
DEFPOINTS
  6
ByBlock
 62
     0
440
 16777216
100
AcDbPoint
 10
958.6174068211485
 20
1930.829824854751
 30
0.0
  0
POINT
  5
80D9
330
7DDA
100
AcDbEntity
  8
DEFPOINTS
  6
ByBlock
 62
     0
440
 16777216
100
AcDbPoint
 10
958.6174068211485
 20
2007.721089774403
 30
0.0
  0
ENDBLK
  5
80DA
330
7DDA
100
AcDbEntity
  8
0
100
AcDbBlockEnd
  0
BLOCK
  5
8044
330
7DE6
100
AcDbEntity
  8
0
100
AcDbBlockBegin
  2
*D7
 70
     1
 10
0.0
 20
0.0
 30
0.0
  3
*D7
  1

  0
LINE
  5
8045
330
7DE6
100
AcDbEntity
  8
0
  6
ByBlock
 62
     0
440
 16777216
100
AcDbLine
 10
700.4744267459281
 20
1672.162089954461
 30
0.0
 11
572.2784415634232
 21
1672.162089954461
 31
0.0
  0
LINE
  5
8046
330
7DE6
100
AcDbEntity
  8
0
  6
ByBlock
 62
     0
440
 16777216
100
AcDbLine
 10
751.1174068211484
 20
1352.16208995446
 30
0.0
 11
572.2784415634232
 21
1352.16208995446
 31
0.0
  0
LINE
  5
8047
330
7DE6
100
AcDbEntity
  8
0
  6
ByBlock
 62
     0
440
 16777216
100
AcDbLine
 10
587.2784415634233
 20
1642.162089954461
 30
0.0
 11
587.2784415634233
 21
1382.16208995446
 31
0.0
  0
INSERT
  5
8048
330
7DE6
100
AcDbEntity
  8
0
  6
ByBlock
 62
     0
440
 16777216
100
AcDbBlockReference
  2
_OPEN
 10
587.2784415634233
 20
1672.162089954461
 30
0.0
 41
30.0
 42
30.0
 43
30.0
 50
90.0
  0
INSERT
  5
8049
330
7DE6
100
AcDbEntity
  8
0
  6
ByBlock
 62
     0
440
 16777216
100
AcDbBlockReference
  2
_OPEN
 10
587.2784415634233
 20
1352.16208995446
 30
0.0
 41
30.0
 42
30.0
 43
30.0
 50
270.0
  0
MTEXT
  5
804A
330
7DE6
100
AcDbEntity
  8
0
  6
ByBlock
 62
     0
440
 16777216
100
AcDbMText
 10
549.7784415634233
 20
1512.162089954461
 30
0.0
 40
45.0
 41
0.0
 46
0.0
 71
     5
 72
     5
  1
\A1;320
 11
0.0
 21
1.0
 31
0.0
 73
     1
 44
1.0
  0
POINT
  5
804B
330
7DE6
100
AcDbEntity
  8
DEFPOINTS
  6
ByBlock
 62
     0
440
 16777216
100
AcDbPoint
 10
707.9744267459282
 20
1672.162089954461
 30
0.0
  0
POINT
  5
804C
330
7DE6
100
AcDbEntity
  8
DEFPOINTS
  6
ByBlock
 62
     0
440
 16777216
100
AcDbPoint
 10
758.6174068211485
 20
1352.16208995446
 30
0.0
  0
POINT
  5
804D
330
7DE6
100
AcDbEntity
  8
DEFPOINTS
  6
ByBlock
 62
     0
440
 16777216
100
AcDbPoint
 10
587.2784415634233
 20
1352.16208995446
 30
0.0
  0
ENDBLK
  5
804E
330
7DE6
100
AcDbEntity
  8
0
100
AcDbBlockEnd
  0
BLOCK
  5
829C
330
7E0C
100
AcDbEntity
  8
0
100
AcDbBlockBegin
  2
*D8
 70
     1
 10
0.0
 20
0.0
 30
0.0
  3
*D8
  1

  0
LINE
  5
829D
330
7E0C
100
AcDbEntity
  8
0
  6
ByBlock
 62
     0
440
 16777216
100
AcDbLine
 10
2450.779778314986
 20
1835.589044368209
 30
0.0
 11
2450.779778314986
 21
2060.049977304849
 31
0.0
  0
LINE
  5
829E
330
7E0C
100
AcDbEntity
  8
0
  6
ByBlock
 62
     0
440
 16777216
100
AcDbLine
 10
2357.779778314986
 20
2008.50821862552
 30
0.0
 11
2357.779778314986
 21
2060.049977304849
 31
0.0
  0
LINE
  5
829F
330
7E0C
100
AcDbEntity
  8
0
  6
ByBlock
 62
     0
440
 16777216
100
AcDbLine
 10
2420.779778314987
 20
2045.049977304849
 30
0.0
 11
2387.779778314986
 21
2045.049977304849
 31
0.0
  0
MTEXT
  5
82A0
330
7E0C
100
AcDbEntity
  8
0
  6
ByBlock
 62
     0
440
 16777216
100
AcDbMText
 10
2400.337660825601
 20
2081.703375501517
 30
0.0
 40
45.0
 41
0.0
 46
0.0
 71
     5
 72
     5
  1
\A1;94
 73
     1
 44
1.0
  0
INSERT
  5
82A1
330
7E0C
100
AcDbEntity
  8
0
  6
ByBlock
 62
     0
440
 16777216
100
AcDbBlockReference
  2
_OPEN
 10
2450.779778314986
 20
2045.049977304849
 30
0.0
 41
30.0
 42
30.0
 43
30.0
  0
INSERT
  5
82A2
330
7E0C
100
AcDbEntity
  8
0
  6
ByBlock
 62
     0
440
 16777216
100
AcDbBlockReference
  2
_OPEN
 10
2357.779778314986
 20
2045.049977304849
 30
0.0
 41
30.0
 42
30.0
 43
30.0
 50
180.0
  0
POINT
  5
82A3
330
7E0C
100
AcDbEntity
  8
DEFPOINTS
  6
ByBlock
 62
     0
440
 16777216
100
AcDbPoint
 10
2450.779778314986
 20
1828.089044368209
 30
0.0
  0
POINT
  5
82A4
330
7E0C
100
AcDbEntity
  8
DEFPOINTS
  6
ByBlock
 62
     0
440
 16777216
100
AcDbPoint
 10
2357.779778314986
 20
2001.00821862552
 30
0.0
  0
POINT
  5
82A5
330
7E0C
100
AcDbEntity
  8
DEFPOINTS
  6
ByBlock
 62
     0
440
 16777216
100
AcDbPoint
 10
2357.779778314986
 20
2045.049977304849
 30
0.0
  0
ENDBLK
  5
82A6
330
7E0C
100
AcDbEntity
  8
0
100
AcDbBlockEnd
  0
BLOCK
  5
8291
330
7E18
100
AcDbEntity
  8
0
100
AcDbBlockBegin
  2
*D9
 70
     1
 10
0.0
 20
0.0
 30
0.0
  3
*D9
  1

  0
LINE
  5
8579
330
7E18
100
AcDbEntity
  8
3
 62
     0
440
 16777216
370
    -2
100
AcDbLine
 10
2357.779778314986
 20
2008.50821862552
 30
0.0
 11
2357.779778314986
 21
2060.049977304849
 31
0.0
  0
LINE
  5
857A
330
7E18
100
AcDbEntity
  8
3
 62
     0
440
 16777216
370
    -2
100
AcDbLine
 10
1830.01871312708
 20
1772.207720258248
 30
0.0
 11
1830.01871312708
 21
2060.049977304849
 31
0.0
  0
LINE
  5
857B
330
7E18
100
AcDbEntity
  8
3
 62
     0
440
 16777216
370
    -2
100
AcDbLine
 10
2327.779778314987
 20
2045.049977304849
 30
0.0
 11
1860.01871312708
 21
2045.049977304849
 31
0.0
  0
INSERT
  5
857C
330
7E18
100
AcDbEntity
  8
3
 62
     0
440
 16777216
370
    -2
100
AcDbBlockReference
  2
_OPEN
 10
2357.779778314986
 20
2045.049977304849
 30
0.0
 41
30.0
 42
30.0
 43
30.0
  0
INSERT
  5
857D
330
7E18
100
AcDbEntity
  8
3
 62
     0
440
 16777216
370
    -2
100
AcDbBlockReference
  2
_OPEN
 10
1830.01871312708
 20
2045.049977304849
 30
0.0
 41
30.0
 42
30.0
 43
30.0
 50
180.0
  0
MTEXT
  5
857E
330
7E18
100
AcDbEntity
  8
3
 62
     0
440
 16777216
100
AcDbMText
 10
2093.899245721033
 20
2131.835691590563
 30
0.0
 40
45.0
 41
0.0
 46
0.0
 71
     5
 72
     1
  1
\A1;\P(600)
 73
     1
 44
1.0
  0
POINT
  5
857F
330
7E18
100
AcDbEntity
  8
DEFPOINTS
 62
     0
440
 16777216
100
AcDbPoint
 10
2357.779778314986
 20
2001.00821862552
 30
0.0
  0
POINT
  5
8580
330
7E18
100
AcDbEntity
  8
DEFPOINTS
 62
     0
440
 16777216
100
AcDbPoint
 10
1830.01871312708
 20
1764.707720258249
 30
0.0
  0
POINT
  5
8581
330
7E18
100
AcDbEntity
  8
DEFPOINTS
 62
     0
440
 16777216
100
AcDbPoint
 10
1830.01871312708
 20
2045.049977304849
 30
0.0
  0
ENDBLK
  5
829B
330
7E18
100
AcDbEntity
  8
0
100
AcDbBlockEnd
  0
BLOCK
  5
81C5
330
7E23
100
AcDbEntity
  8
0
100
AcDbBlockBegin
  2
*D10
 70
     1
 10
0.0
 20
0.0
 30
0.0
  3
*D10
  1

  0
LINE
  5
81C6
330
7E23
100
AcDbEntity
  8
0
  6
ByBlock
 62
     0
440
 16777216
100
AcDbLine
 10
922.1174068211476
 20
1872.162089954461
 30
0.0
 11
571.9815640914657
 21
1872.162089954461
 31
0.0
  0
LINE
  5
81C7
330
7E23
100
AcDbEntity
  8
0
  6
ByBlock
 62
     0
440
 16777216
100
AcDbLine
 10
700.4744267459281
 20
1672.162089954461
 30
0.0
 11
571.9815640914657
 21
1672.162089954461
 31
0.0
  0
LINE
  5
81C8
330
7E23
100
AcDbEntity
  8
0
  6
ByBlock
 62
     0
440
 16777216
100
AcDbLine
 10
586.9815640914658
 20
1842.162089954461
 30
0.0
 11
586.9815640914658
 21
1702.162089954461
 31
0.0
  0
MTEXT
  5
81C9
330
7E23
100
AcDbEntity
  8
0
  6
ByBlock
 62
     0
440
 16777216
100
AcDbMText
 10
550.4548963379748
 20
1772.162089954461
 30
0.0
 40
45.0
 41
0.0
 46
0.0
 71
     5
 72
     5
  1
\A1;200
 11
0.0
 21
1.0
 31
0.0
 73
     1
 44
1.0
  0
INSERT
  5
81CA
330
7E23
100
AcDbEntity
  8
0
  6
ByBlock
 62
     0
440
 16777216
100
AcDbBlockReference
  2
_OPEN
 10
586.9815640914658
 20
1872.162089954461
 30
0.0
 41
30.0
 42
30.0
 43
30.0
 50
90.0
  0
INSERT
  5
81CB
330
7E23
100
AcDbEntity
  8
0
  6
ByBlock
 62
     0
440
 16777216
100
AcDbBlockReference
  2
_OPEN
 10
586.9815640914658
 20
1672.162089954461
 30
0.0
 41
30.0
 42
30.0
 43
30.0
 50
270.0
  0
POINT
  5
81CC
330
7E23
100
AcDbEntity
  8
DEFPOINTS
  6
ByBlock
 62
     0
440
 16777216
100
AcDbPoint
 10
929.6174068211476
 20
1872.162089954461
 30
0.0
  0
POINT
  5
81CD
330
7E23
100
AcDbEntity
  8
DEFPOINTS
  6
ByBlock
 62
     0
440
 16777216
100
AcDbPoint
 10
707.9744267459282
 20
1672.162089954461
 30
0.0
  0
POINT
  5
81CE
330
7E23
100
AcDbEntity
  8
DEFPOINTS
  6
ByBlock
 62
     0
440
 16777216
100
AcDbPoint
 10
586.9815640914658
 20
1672.162089954461
 30
0.0
  0
ENDBLK
  5
81CF
330
7E23
100
AcDbEntity
  8
0
100
AcDbBlockEnd
  0
BLOCK
  5
80E6
330
7E2F
100
AcDbEntity
  8
0
100
AcDbBlockBegin
  2
*D11
 70
     1
 10
0.0
 20
0.0
 30
0.0
  3
*D11
  1

  0
LINE
  5
80E7
330
7E2F
100
AcDbEntity
  8
0
  6
ByBlock
 62
     0
440
 16777216
100
AcDbLine
 10
958.6174068211485
 20
1938.329824854752
 30
0.0
 11
958.6174068211485
 21
2022.721089774404
 31
0.0
  0
LINE
  5
80E8
330
7E2F
100
AcDbEntity
  8
0
  6
ByBlock
 62
     0
440
 16777216
100
AcDbLine
 10
781.6174068211475
 20
1665.66208995446
 30
0.0
 11
781.6174068211475
 21
2022.721089774404
 31
0.0
  0
LINE
  5
80E9
330
7E2F
100
AcDbEntity
  8
0
  6
ByBlock
 62
     0
440
 16777216
100
AcDbLine
 10
928.6174068211485
 20
2007.721089774403
 30
0.0
 11
811.6174068211476
 21
2007.721089774403
 31
0.0
  0
MTEXT
  5
80EA
330
7E2F
100
AcDbEntity
  8
0
  6
ByBlock
 62
     0
440
 16777216
100
AcDbMText
 10
863.6767399559866
 20
2044.254516216928
 30
0.0
 40
45.0
 41
0.0
 46
0.0
 71
     5
 72
     5
  1
\A1;177
 73
     1
 44
1.0
  0
INSERT
  5
80EB
330
7E2F
100
AcDbEntity
  8
0
  6
ByBlock
 62
     0
440
 16777216
100
AcDbBlockReference
  2
_OPEN
 10
958.6174068211485
 20
2007.721089774403
 30
0.0
 41
30.0
 42
30.0
 43
30.0
  0
INSERT
  5
80EC
330
7E2F
100
AcDbEntity
  8
0
  6
ByBlock
 62
     0
440
 16777216
100
AcDbBlockReference
  2
_OPEN
 10
781.6174068211475
 20
2007.721089774403
 30
0.0
 41
30.0
 42
30.0
 43
30.0
 50
180.0
  0
POINT
  5
80ED
330
7E2F
100
AcDbEntity
  8
DEFPOINTS
  6
ByBlock
 62
     0
440
 16777216
100
AcDbPoint
 10
958.6174068211485
 20
1930.829824854751
 30
0.0
  0
POINT
  5
80EE
330
7E2F
100
AcDbEntity
  8
DEFPOINTS
  6
ByBlock
 62
     0
440
 16777216
100
AcDbPoint
 10
781.6174068211475
 20
1658.16208995446
 30
0.0
  0
POINT
  5
80EF
330
7E2F
100
AcDbEntity
  8
DEFPOINTS
  6
ByBlock
 62
     0
440
 16777216
100
AcDbPoint
 10
781.6174068211475
 20
2007.721089774403
 30
0.0
  0
ENDBLK
  5
80F0
330
7E2F
100
AcDbEntity
  8
0
100
AcDbBlockEnd
  0
BLOCK
  5
80AF
330
7E3A
100
AcDbEntity
  8
0
100
AcDbBlockBegin
  2
*D12
 70
     1
 10
0.0
 20
0.0
 30
0.0
  3
*D12
  1

  0
LINE
  5
80B0
330
7E3A
100
AcDbEntity
  8
0
  6
ByBlock
 62
     0
440
 16777216
100
AcDbLine
 10
781.6174068211475
 20
1665.66208995446
 30
0.0
 11
781.6174068211475
 21
2107.128178114277
 31
0.0
  0
LINE
  5
80B1
330
7E3A
100
AcDbEntity
  8
0
  6
ByBlock
 62
     0
440
 16777216
100
AcDbLine
 10
1458.617406821149
 20
1399.662089954461
 30
0.0
 11
1458.617406821149
 21
2107.128178114277
 31
0.0
  0
LINE
  5
80B2
330
7E3A
100
AcDbEntity
  8
0
  6
ByBlock
 62
     0
440
 16777216
100
AcDbLine
 10
811.6174068211476
 20
2092.128178114277
 30
0.0
 11
1428.617406821149
 21
2092.128178114277
 31
0.0
  0
INSERT
  5
80B3
330
7E3A
100
AcDbEntity
  8
0
  6
ByBlock
 62
     0
440
 16777216
100
AcDbBlockReference
  2
_OPEN
 10
781.6174068211475
 20
2092.128178114277
 30
0.0
 41
30.0
 42
30.0
 43
30.0
 50
180.0
  0
INSERT
  5
80B4
330
7E3A
100
AcDbEntity
  8
0
  6
ByBlock
 62
     0
440
 16777216
100
AcDbBlockReference
  2
_OPEN
 10
1458.617406821149
 20
2092.128178114277
 30
0.0
 41
30.0
 42
30.0
 43
30.0
  0
MTEXT
  5
80B5
330
7E3A
100
AcDbEntity
  8
0
  6
ByBlock
 62
     0
440
 16777216
100
AcDbMText
 10
1120.117406821148
 20
2129.628178114277
 30
0.0
 40
45.0
 41
0.0
 46
0.0
 71
     5
 72
     5
  1
\A1;677
 73
     1
 44
1.0
  0
POINT
  5
80B6
330
7E3A
100
AcDbEntity
  8
DEFPOINTS
  6
ByBlock
 62
     0
440
 16777216
100
AcDbPoint
 10
781.6174068211475
 20
1658.16208995446
 30
0.0
  0
POINT
  5
80B7
330
7E3A
100
AcDbEntity
  8
DEFPOINTS
  6
ByBlock
 62
     0
440
 16777216
100
AcDbPoint
 10
1458.617406821149
 20
1392.162089954461
 30
0.0
  0
POINT
  5
80B8
330
7E3A
100
AcDbEntity
  8
DEFPOINTS
  6
ByBlock
 62
     0
440
 16777216
100
AcDbPoint
 10
1458.617406821149
 20
2092.128178114277
 30
0.0
  0
ENDBLK
  5
80B9
330
7E3A
100
AcDbEntity
  8
0
100
AcDbBlockEnd
  0
BLOCK
  5
825D
330
7E52
100
AcDbEntity
  8
0
100
AcDbBlockBegin
  2
*D13
 70
     1
 10
0.0
 20
0.0
 30
0.0
  3
*D13
  1

  0
LINE
  5
825E
330
7E52
100
AcDbEntity
  8
0
  6
ByBlock
 62
     0
440
 16777216
100
AcDbLine
 10
2484.279778314987
 20
1799.139015055003
 30
0.0
 11
2591.482052540933
 21
1799.139015055003
 31
0.0
  0
LINE
  5
825F
330
7E52
100
AcDbEntity
  8
0
  6
ByBlock
 62
     0
440
 16777216
100
AcDbLine
 10
2484.279778314987
 20
1545.139015055003
 30
0.0
 11
2591.482052540933
 21
1545.139015055003
 31
0.0
  0
LINE
  5
8260
330
7E52
100
AcDbEntity
  8
0
  6
ByBlock
 62
     0
440
 16777216
100
AcDbLine
 10
2576.482052540932
 20
1769.139015055003
 30
0.0
 11
2576.482052540932
 21
1575.139015055003
 31
0.0
  0
MTEXT
  5
8261
330
7E52
100
AcDbEntity
  8
0
  6
ByBlock
 62
     0
440
 16777216
100
AcDbMText
 10
2543.42268360969
 20
1672.139015055003
 30
0.0
 40
45.0
 41
0.0
 46
0.0
 71
     5
 72
     5
  1
\A1;φ254
 11
0.0
 21
1.0
 31
0.0
 73
     1
 44
1.0
  0
INSERT
  5
8262
330
7E52
100
AcDbEntity
  8
0
  6
ByBlock
 62
     0
440
 16777216
100
AcDbBlockReference
  2
_OPEN
 10
2576.482052540932
 20
1799.139015055003
 30
0.0
 41
30.0
 42
30.0
 43
30.0
 50
90.0
  0
INSERT
  5
8263
330
7E52
100
AcDbEntity
  8
0
  6
ByBlock
 62
     0
440
 16777216
100
AcDbBlockReference
  2
_OPEN
 10
2576.482052540932
 20
1545.139015055003
 30
0.0
 41
30.0
 42
30.0
 43
30.0
 50
270.0
  0
POINT
  5
8264
330
7E52
100
AcDbEntity
  8
DEFPOINTS
  6
ByBlock
 62
     0
440
 16777216
100
AcDbPoint
 10
2476.779778314988
 20
1799.139015055003
 30
0.0
  0
POINT
  5
8265
330
7E52
100
AcDbEntity
  8
DEFPOINTS
  6
ByBlock
 62
     0
440
 16777216
100
AcDbPoint
 10
2476.779778314988
 20
1545.139015055003
 30
0.0
  0
POINT
  5
8266
330
7E52
100
AcDbEntity
  8
DEFPOINTS
  6
ByBlock
 62
     0
440
 16777216
100
AcDbPoint
 10
2576.482052540932
 20
1545.139015055003
 30
0.0
  0
ENDBLK
  5
8267
330
7E52
100
AcDbEntity
  8
0
100
AcDbBlockEnd
  0
BLOCK
  5
83BA
330
83B9
100
AcDbEntity
  8
0
100
AcDbBlockBegin
  2
*D14
 70
     1
 10
0.0
 20
0.0
 30
0.0
  3
*D14
  1

  0
LINE
  5
84D6
330
83B9
100
AcDbEntity
  8
3
 62
     0
440
 16777216
370
    -2
100
AcDbLine
 10
758.6174068211485
 20
1234.66208995446
 30
0.0
 11
758.6174068211485
 21
1113.064612000538
 31
0.0
  0
LINE
  5
84D7
330
83B9
100
AcDbEntity
  8
3
 62
     0
440
 16777216
370
    -2
100
AcDbLine
 10
958.6174068211485
 20
1234.66208995446
 30
0.0
 11
958.6174068211485
 21
1113.064612000538
 31
0.0
  0
LINE
  5
84D8
330
83B9
100
AcDbEntity
  8
3
 62
     0
440
 16777216
370
    -2
100
AcDbLine
 10
788.6174068211484
 20
1128.064612000538
 30
0.0
 11
928.6174068211485
 21
1128.064612000538
 31
0.0
  0
INSERT
  5
84D9
330
83B9
100
AcDbEntity
  8
3
 62
     0
440
 16777216
370
    -2
100
AcDbBlockReference
  2
_OPEN
 10
758.6174068211485
 20
1128.064612000538
 30
0.0
 41
30.0
 42
30.0
 43
30.0
 50
180.0
  0
INSERT
  5
84DA
330
83B9
100
AcDbEntity
  8
3
 62
     0
440
 16777216
370
    -2
100
AcDbBlockReference
  2
_OPEN
 10
958.6174068211485
 20
1128.064612000538
 30
0.0
 41
30.0
 42
30.0
 43
30.0
  0
MTEXT
  5
84DB
330
83B9
100
AcDbEntity
  8
3
 62
     0
440
 16777216
100
AcDbMText
 10
858.6174068211485
 20
1165.564612000538
 30
0.0
 40
45.0
 41
0.0
 46
0.0
 71
     5
 72
     1
  1
\A1;200
 73
     1
 44
1.0
  0
POINT
  5
84DC
330
83B9
100
AcDbEntity
  8
DEFPOINTS
 62
     0
440
 16777216
100
AcDbPoint
 10
758.6174068211485
 20
1242.16208995446
 30
0.0
  0
POINT
  5
84DD
330
83B9
100
AcDbEntity
  8
DEFPOINTS
 62
     0
440
 16777216
100
AcDbPoint
 10
958.6174068211485
 20
1242.16208995446
 30
0.0
  0
POINT
  5
84DE
330
83B9
100
AcDbEntity
  8
DEFPOINTS
 62
     0
440
 16777216
100
AcDbPoint
 10
958.6174068211485
 20
1128.064612000538
 30
0.0
  0
ENDBLK
  5
83C6
330
83B9
100
AcDbEntity
  8
0
100
AcDbBlockEnd
  0
BLOCK
  5
83C9
330
83C8
100
AcDbEntity
  8
0
100
AcDbBlockBegin
  2
*D15
 70
     1
 10
0.0
 20
0.0
 30
0.0
  3
*D15
  1

  0
LINE
  5
84DF
330
83C8
100
AcDbEntity
  8
3
 62
     0
440
 16777216
370
    -2
100
AcDbLine
 10
958.6174068211485
 20
1234.66208995446
 30
0.0
 11
958.6174068211485
 21
1113.064612000538
 31
0.0
  0
LINE
  5
84E0
330
83C8
100
AcDbEntity
  8
3
 62
     0
440
 16777216
370
    -2
100
AcDbLine
 10
1458.617406821149
 20
1234.66208995446
 30
0.0
 11
1458.617406821149
 21
1113.064612000538
 31
0.0
  0
LINE
  5
84E1
330
83C8
100
AcDbEntity
  8
3
 62
     0
440
 16777216
370
    -2
100
AcDbLine
 10
988.6174068211484
 20
1128.064612000538
 30
0.0
 11
1428.617406821149
 21
1128.064612000538
 31
0.0
  0
INSERT
  5
84E2
330
83C8
100
AcDbEntity
  8
3
 62
     0
440
 16777216
370
    -2
100
AcDbBlockReference
  2
_OPEN
 10
958.6174068211485
 20
1128.064612000538
 30
0.0
 41
30.0
 42
30.0
 43
30.0
 50
180.0
  0
INSERT
  5
84E3
330
83C8
100
AcDbEntity
  8
3
 62
     0
440
 16777216
370
    -2
100
AcDbBlockReference
  2
_OPEN
 10
1458.617406821149
 20
1128.064612000538
 30
0.0
 41
30.0
 42
30.0
 43
30.0
  0
MTEXT
  5
84E4
330
83C8
100
AcDbEntity
  8
3
 62
     0
440
 16777216
100
AcDbMText
 10
1208.617406821149
 20
1165.564612000538
 30
0.0
 40
45.0
 41
0.0
 46
0.0
 71
     5
 72
     1
  1
\A1;500
 73
     1
 44
1.0
  0
POINT
  5
84E5
330
83C8
100
AcDbEntity
  8
DEFPOINTS
 62
     0
440
 16777216
100
AcDbPoint
 10
958.6174068211485
 20
1242.16208995446
 30
0.0
  0
POINT
  5
84E6
330
83C8
100
AcDbEntity
  8
DEFPOINTS
 62
     0
440
 16777216
100
AcDbPoint
 10
1458.617406821149
 20
1242.16208995446
 30
0.0
  0
POINT
  5
84E7
330
83C8
100
AcDbEntity
  8
DEFPOINTS
 62
     0
440
 16777216
100
AcDbPoint
 10
1458.617406821149
 20
1128.064612000538
 30
0.0
  0
ENDBLK
  5
83D3
330
83C8
100
AcDbEntity
  8
0
100
AcDbBlockEnd
  0
BLOCK
  5
840D
330
840C
100
AcDbEntity
  8
0
100
AcDbBlockBegin
  2
*D16
 70
     1
 10
0.0
 20
0.0
 30
0.0
  3
*D16
  1

  0
LINE
  5
84E8
330
840C
100
AcDbEntity
  8
3
 62
     0
440
 16777216
370
    -2
100
AcDbLine
 10
1856.779778314986
 20
1234.639015055003
 30
0.0
 11
1856.779778314986
 21
1114.714858817831
 31
0.0
  0
LINE
  5
84E9
330
840C
100
AcDbEntity
  8
3
 62
     0
440
 16777216
370
    -2
100
AcDbLine
 10
2301.779778314986
 20
1234.639015055003
 30
0.0
 11
2301.779778314986
 21
1114.714858817831
 31
0.0
  0
LINE
  5
84EA
330
840C
100
AcDbEntity
  8
3
 62
     0
440
 16777216
370
    -2
100
AcDbLine
 10
1886.779778314986
 20
1129.714858817831
 30
0.0
 11
2271.779778314986
 21
1129.714858817831
 31
0.0
  0
INSERT
  5
84EB
330
840C
100
AcDbEntity
  8
3
 62
     0
440
 16777216
370
    -2
100
AcDbBlockReference
  2
_OPEN
 10
1856.779778314986
 20
1129.714858817831
 30
0.0
 41
30.0
 42
30.0
 43
30.0
 50
180.0
  0
INSERT
  5
84EC
330
840C
100
AcDbEntity
  8
3
 62
     0
440
 16777216
370
    -2
100
AcDbBlockReference
  2
_OPEN
 10
2301.779778314986
 20
1129.714858817831
 30
0.0
 41
30.0
 42
30.0
 43
30.0
  0
MTEXT
  5
84ED
330
840C
100
AcDbEntity
  8
3
 62
     0
440
 16777216
100
AcDbMText
 10
2079.279778314986
 20
1167.214858817831
 30
0.0
 40
45.0
 41
0.0
 46
0.0
 71
     5
 72
     1
  1
\A1;445
 73
     1
 44
1.0
  0
POINT
  5
84EE
330
840C
100
AcDbEntity
  8
DEFPOINTS
 62
     0
440
 16777216
100
AcDbPoint
 10
1856.779778314986
 20
1242.139015055003
 30
0.0
  0
POINT
  5
84EF
330
840C
100
AcDbEntity
  8
DEFPOINTS
 62
     0
440
 16777216
100
AcDbPoint
 10
2301.779778314986
 20
1242.139015055003
 30
0.0
  0
POINT
  5
84F0
330
840C
100
AcDbEntity
  8
DEFPOINTS
 62
     0
440
 16777216
100
AcDbPoint
 10
2301.779778314986
 20
1129.714858817831
 30
0.0
  0
ENDBLK
  5
8417
330
840C
100
AcDbEntity
  8
0
100
AcDbBlockEnd
  0
BLOCK
  5
841A
330
8419
100
AcDbEntity
  8
0
100
AcDbBlockBegin
  2
*D17
 70
     1
 10
0.0
 20
0.0
 30
0.0
  3
*D17
  1

  0
LINE
  5
84F1
330
8419
100
AcDbEntity
  8
3
 62
     0
440
 16777216
370
    -2
100
AcDbLine
 10
2301.779778314986
 20
1234.639015055003
 30
0.0
 11
2301.779778314986
 21
1114.714858817831
 31
0.0
  0
LINE
  5
84F2
330
8419
100
AcDbEntity
  8
3
 62
     0
440
 16777216
370
    -2
100
AcDbLine
 10
2357.779778314987
 20
1234.639015055003
 30
0.0
 11
2357.779778314987
 21
1114.714858817831
 31
0.0
  0
LINE
  5
84F3
330
8419
100
AcDbEntity
  8
3
 62
     0
440
 16777216
370
    -2
100
AcDbLine
 10
2271.779778314986
 20
1129.714858817831
 30
0.0
 11
2241.779778314986
 21
1129.714858817831
 31
0.0
  0
LINE
  5
84F4
330
8419
100
AcDbEntity
  8
3
 62
     0
440
 16777216
370
    -2
100
AcDbLine
 10
2387.779778314987
 20
1129.714858817831
 30
0.0
 11
2518.494064029273
 21
1129.714858817831
 31
0.0
  0
LINE
  5
84F5
330
8419
100
AcDbEntity
  8
3
 62
     0
440
 16777216
370
    -2
100
AcDbLine
 10
2301.779778314986
 20
1129.714858817831
 30
0.0
 11
2357.779778314987
 21
1129.714858817831
 31
0.0
  0
INSERT
  5
84F6
330
8419
100
AcDbEntity
  8
3
 62
     0
440
 16777216
370
    -2
100
AcDbBlockReference
  2
_OPEN
 10
2301.779778314986
 20
1129.714858817831
 30
0.0
 41
30.0
 42
30.0
 43
30.0
  0
INSERT
  5
84F7
330
8419
100
AcDbEntity
  8
3
 62
     0
440
 16777216
370
    -2
100
AcDbBlockReference
  2
_OPEN
 10
2357.779778314987
 20
1129.714858817831
 30
0.0
 41
30.0
 42
30.0
 43
30.0
 50
180.0
  0
MTEXT
  5
84F8
330
8419
100
AcDbEntity
  8
3
 62
     0
440
 16777216
100
AcDbMText
 10
2468.13692117213
 20
1167.214858817831
 30
0.0
 40
45.0
 41
0.0
 46
0.0
 71
     5
 72
     1
  1
\A1;56
 73
     1
 44
1.0
  0
POINT
  5
84F9
330
8419
100
AcDbEntity
  8
DEFPOINTS
 62
     0
440
 16777216
100
AcDbPoint
 10
2301.779778314986
 20
1242.139015055003
 30
0.0
  0
POINT
  5
84FA
330
8419
100
AcDbEntity
  8
DEFPOINTS
 62
     0
440
 16777216
100
AcDbPoint
 10
2357.779778314987
 20
1242.139015055003
 30
0.0
  0
POINT
  5
84FB
330
8419
100
AcDbEntity
  8
DEFPOINTS
 62
     0
440
 16777216
100
AcDbPoint
 10
2357.779778314987
 20
1129.714858817831
 30
0.0
  0
ENDBLK
  5
8426
330
8419
100
AcDbEntity
  8
0
100
AcDbBlockEnd
  0
BLOCK
  5
8429
330
8428
100
AcDbEntity
  8
0
100
AcDbBlockBegin
  2
*D18
 70
     1
 10
0.0
 20
0.0
 30
0.0
  3
*D18
  1

  0
LINE
  5
84FC
330
8428
100
AcDbEntity
  8
3
 62
     0
440
 16777216
370
    -2
100
AcDbLine
 10
751.1174068211484
 20
1282.162089954461
 30
0.0
 11
570.4204346643911
 21
1282.162089954461
 31
0.0
  0
LINE
  5
84FD
330
8428
100
AcDbEntity
  8
3
 62
     0
440
 16777216
370
    -2
100
AcDbLine
 10
751.1174068211484
 20
1242.16208995446
 30
0.0
 11
570.4204346643909
 21
1242.16208995446
 31
0.0
  0
LINE
  5
84FE
330
8428
100
AcDbEntity
  8
3
 62
     0
440
 16777216
370
    -2
100
AcDbLine
 10
585.4204346643911
 20
1312.162089954461
 30
0.0
 11
585.4204346643911
 21
1342.162089954461
 31
0.0
  0
LINE
  5
84FF
330
8428
100
AcDbEntity
  8
3
 62
     0
440
 16777216
370
    -2
100
AcDbLine
 10
585.420434664391
 20
1212.16208995446
 30
0.0
 11
585.420434664391
 21
1079.304947097317
 31
0.0
  0
LINE
  5
8500
330
8428
100
AcDbEntity
  8
3
 62
     0
440
 16777216
370
    -2
100
AcDbLine
 10
585.4204346643911
 20
1282.162089954461
 30
0.0
 11
585.420434664391
 21
1242.16208995446
 31
0.0
  0
INSERT
  5
8501
330
8428
100
AcDbEntity
  8
3
 62
     0
440
 16777216
370
    -2
100
AcDbBlockReference
  2
_DOT
 10
585.4204346643911
 20
1282.162089954461
 30
0.0
 41
30.0
 42
30.0
 43
30.0
 50
270.0
  0
INSERT
  5
8502
330
8428
100
AcDbEntity
  8
3
 62
     0
440
 16777216
370
    -2
100
AcDbBlockReference
  2
_OPEN
 10
585.420434664391
 20
1242.16208995446
 30
0.0
 41
30.0
 42
30.0
 43
30.0
 50
90.0
  0
MTEXT
  5
8503
330
8428
100
AcDbEntity
  8
3
 62
     0
440
 16777216
100
AcDbMText
 10
547.9204346643909
 20
1130.733518525889
 30
0.0
 40
45.0
 41
0.0
 46
0.0
 71
     5
 72
     1
  1
\A1;40
 11
0.0000000000000001
 21
1.0
 31
0.0
 73
     1
 44
1.0
  0
POINT
  5
8504
330
8428
100
AcDbEntity
  8
DEFPOINTS
 62
     0
440
 16777216
100
AcDbPoint
 10
758.6174068211485
 20
1282.162089954461
 30
0.0
  0
POINT
  5
8505
330
8428
100
AcDbEntity
  8
DEFPOINTS
 62
     0
440
 16777216
100
AcDbPoint
 10
758.6174068211485
 20
1242.16208995446
 30
0.0
  0
POINT
  5
8506
330
8428
100
AcDbEntity
  8
DEFPOINTS
 62
     0
440
 16777216
100
AcDbPoint
 10
585.420434664391
 20
1242.16208995446
 30
0.0
  0
ENDBLK
  5
8435
330
8428
100
AcDbEntity
  8
0
100
AcDbBlockEnd
  0
BLOCK
  5
8456
330
8455
100
AcDbEntity
  8
0
100
AcDbBlockBegin
  2
*D19
 70
     1
 10
0.0
 20
0.0
 30
0.0
  3
*D19
  1

  0
LINE
  5
853E
330
8455
100
AcDbEntity
  8
3
 62
     0
440
 16777216
370
    -2
100
AcDbLine
 10
751.1174068211484
 20
1282.162089954461
 30
0.0
 11
570.8248146087189
 21
1282.162089954461
 31
0.0
  0
LINE
  5
853F
330
8455
100
AcDbEntity
  8
3
 62
     0
440
 16777216
370
    -2
100
AcDbLine
 10
751.1174068211484
 20
1352.16208995446
 30
0.0
 11
570.8248146087189
 21
1352.16208995446
 31
0.0
  0
LINE
  5
8540
330
8455
100
AcDbEntity
  8
3
 62
     0
440
 16777216
370
    -2
100
AcDbLine
 10
585.8248146087188
 20
1252.162089954461
 30
0.0
 11
585.8248146087188
 21
1222.162089954461
 31
0.0
  0
LINE
  5
8541
330
8455
100
AcDbEntity
  8
3
 62
     0
440
 16777216
370
    -2
100
AcDbLine
 10
585.824814608719
 20
1382.16208995446
 30
0.0
 11
585.824814608719
 21
1412.16208995446
 31
0.0
  0
MTEXT
  5
8542
330
8455
100
AcDbEntity
  8
3
 62
     0
440
 16777216
100
AcDbMText
 10
540.5736425298164
 20
1325.558504917368
 30
0.0
 40
45.0
 41
0.0
 46
0.0
 71
     5
 72
     1
  1
\A1;(70)
 11
0.0000000000000001
 21
1.0
 31
0.0
 73
     1
 44
1.0
  0
LINE
  5
8543
330
8455
100
AcDbEntity
  8
3
 62
     0
440
 16777216
370
    -2
100
AcDbLine
 10
585.824814608719
 20
1282.162089954461
 30
0.0
 11
585.824814608719
 21
1352.16208995446
 31
0.0
  0
INSERT
  5
8544
330
8455
100
AcDbEntity
  8
3
 62
     0
440
 16777216
370
    -2
100
AcDbBlockReference
  2
_DOT
 10
585.824814608719
 20
1282.162089954461
 30
0.0
 41
30.0
 42
30.0
 43
30.0
 50
90.0
  0
INSERT
  5
8545
330
8455
100
AcDbEntity
  8
3
 62
     0
440
 16777216
370
    -2
100
AcDbBlockReference
  2
_OPEN
 10
585.824814608719
 20
1352.16208995446
 30
0.0
 41
30.0
 42
30.0
 43
30.0
 50
270.0
  0
POINT
  5
8546
330
8455
100
AcDbEntity
  8
DEFPOINTS
 62
     0
440
 16777216
100
AcDbPoint
 10
758.6174068211485
 20
1282.162089954461
 30
0.0
  0
POINT
  5
8547
330
8455
100
AcDbEntity
  8
DEFPOINTS
 62
     0
440
 16777216
100
AcDbPoint
 10
758.6174068211485
 20
1352.16208995446
 30
0.0
  0
POINT
  5
8548
330
8455
100
AcDbEntity
  8
DEFPOINTS
 62
     0
440
 16777216
100
AcDbPoint
 10
585.824814608719
 20
1352.16208995446
 30
0.0
  0
ENDBLK
  5
8462
330
8455
100
AcDbEntity
  8
0
100
AcDbBlockEnd
  0
BLOCK
  5
8465
330
8464
100
AcDbEntity
  8
0
100
AcDbBlockBegin
  2
*D20
 70
     1
 10
0.0
 20
0.0
 30
0.0
  3
*D20
  1

  0
LINE
  5
8512
330
8464
100
AcDbEntity
  8
3
 62
     0
440
 16777216
370
    -2
100
AcDbLine
 10
922.1174068211476
 20
1872.162089954461
 30
0.0
 11
422.2807321982055
 21
1872.162089954462
 31
0.0
  0
LINE
  5
8513
330
8464
100
AcDbEntity
  8
3
 62
     0
440
 16777216
370
    -2
100
AcDbLine
 10
751.1174068211484
 20
1242.16208995446
 30
0.0
 11
422.2807321982054
 21
1242.16208995446
 31
0.0
  0
LINE
  5
8514
330
8464
100
AcDbEntity
  8
3
 62
     0
440
 16777216
370
    -2
100
AcDbLine
 10
437.2807321982056
 20
1842.162089954461
 30
0.0
 11
437.2807321982054
 21
1272.162089954461
 31
0.0
  0
INSERT
  5
8515
330
8464
100
AcDbEntity
  8
3
 62
     0
440
 16777216
370
    -2
100
AcDbBlockReference
  2
_OPEN
 10
437.2807321982056
 20
1872.162089954462
 30
0.0
 41
30.0
 42
30.0
 43
30.0
 50
90.0
  0
INSERT
  5
8516
330
8464
100
AcDbEntity
  8
3
 62
     0
440
 16777216
370
    -2
100
AcDbBlockReference
  2
_OPEN
 10
437.2807321982054
 20
1242.16208995446
 30
0.0
 41
30.0
 42
30.0
 43
30.0
 50
270.0
  0
MTEXT
  5
8517
330
8464
100
AcDbEntity
  8
3
 62
     0
440
 16777216
100
AcDbMText
 10
387.995017912491
 20
1557.162089954461
 30
0.0
 40
45.0
 41
0.0
 46
0.0
 71
     5
 72
     1
  1
\A1;(630)
 11
0.0000000000000001
 21
1.0
 31
0.0
 73
     1
 44
1.0
  0
POINT
  5
8518
330
8464
100
AcDbEntity
  8
DEFPOINTS
 62
     0
440
 16777216
100
AcDbPoint
 10
929.6174068211476
 20
1872.162089954461
 30
0.0
  0
POINT
  5
8519
330
8464
100
AcDbEntity
  8
DEFPOINTS
 62
     0
440
 16777216
100
AcDbPoint
 10
758.6174068211485
 20
1242.16208995446
 30
0.0
  0
POINT
  5
851A
330
8464
100
AcDbEntity
  8
DEFPOINTS
 62
     0
440
 16777216
100
AcDbPoint
 10
437.2807321982054
 20
1242.16208995446
 30
0.0
  0
ENDBLK
  5
846F
330
8464
100
AcDbEntity
  8
0
100
AcDbBlockEnd
  0
ENDSEC
  0
SECTION
  2
ENTITIES
  0
LINE
  5
7C39
330
19
100
AcDbEntity
  8
2
100
AcDbLine
 10
1241.91167527016
 20
1672.162089954461
 30
0.0
 11
707.9744267459282
 21
1672.162089954461
 31
0.0
  0
LINE
  5
7C3A
330
19
100
AcDbEntity
  8
2
100
AcDbLine
 10
958.6174068211485
 20
1919.3932151406
 30
0.0
 11
958.6174068211484
 21
1242.16208995446
 31
0.0
  0
LINE
  5
7C3B
330
19
100
AcDbEntity
  8
1
100
AcDbLine
 10
1337.455211352297
 20
1571.154790235129
 30
0.0
 11
994.3165573333644
 21
1757.570144818809
 31
0.0
  0
ARC
  5
7C3C
330
19
100
AcDbEntity
  8
1
100
AcDbCircle
 10
958.6174068211485
 20
1672.162089954461
 30
0.0
 40
92.56870520324515
100
AcDbArc
 50
67.31588132660307
 51
252.037845014071
  0
LINE
  5
7C3D
330
19
100
AcDbEntity
  8
1
100
AcDbLine
 10
1223.617406821148
 20
1847.162089954461
 30
0.0
 11
929.6174068211476
 21
1847.162089954461
 31
0.0
  0
LINE
  5
7C3E
330
19
100
AcDbEntity
  8
1
100
AcDbLine
 10
1223.617406821148
 20
1872.162089954461
 30
0.0
 11
929.6174068211476
 21
1872.162089954461
 31
0.0
  0
ARC
  5
7C3F
330
19
100
AcDbEntity
  8
1
100
AcDbCircle
 10
974.6174068211475
 20
1688.16208995446
 30
0.0
 40
221.0
100
AcDbArc
 50
269.7312905277521
 51
359.6896226643565
  0
LINE
  5
7C40
330
19
100
AcDbEntity
  8
1
100
AcDbLine
 10
930.8256926793456
 20
1608.074624690966
 30
0.0
 11
1287.47673418577
 21
1453.4118719487
 31
0.0
  0
LINE
  5
7C41
330
19
100
AcDbEntity
  8
1
100
AcDbLine
 10
1285.556997772333
 20
1431.029613569225
 30
0.0
 11
930.0702609169693
 21
1584.105144494544
 31
0.0
  0
LINE
  5
7C42
330
19
100
AcDbEntity
  8
1
100
AcDbLine
 10
1328.987485440326
 20
1551.239291302276
 30
0.0
 11
985.3960912932244
 21
1736.679410394668
 31
0.0
  0
LINE
  5
7C45
330
19
100
AcDbEntity
  8
1
100
AcDbLine
 10
1458.617406821149
 20
1352.162089954461
 30
0.0
 11
758.6174068211485
 21
1352.16208995446
 31
0.0
  0
LINE
  5
7C46
330
19
100
AcDbEntity
  8
1
100
AcDbLine
 10
1458.617406821149
 20
1392.162089954461
 30
0.0
 11
758.6174068211485
 21
1392.162089954461
 31
0.0
  0
ARC
  5
7C47
330
19
100
AcDbEntity
  8
1
100
AcDbCircle
 10
972.6174068211475
 20
1658.16208995446
 30
0.0
 40
191.0
100
AcDbArc
 50
166.7801999432786
 51
270.2890430236556
  0
LINE
  5
7C48
330
19
100
AcDbEntity
  8
2
100
AcDbLine
 10
1308.617406821148
 20
1607.832024579128
 30
0.0
 11
1308.617406821148
 21
1375.722579164804
 31
0.0
  0
ARC
  5
7C49
330
19
100
AcDbEntity
  8
1
100
AcDbCircle
 10
1308.617406821148
 20
1502.162089954461
 30
0.0
 40
74.77707979183754
100
AcDbArc
 50
252.037845014071
 51
67.3158813266031
  0
CIRCLE
  5
7C4A
330
19
100
AcDbEntity
  8
1
100
AcDbCircle
 10
1308.617406821148
 20
1502.162089954461
 30
0.0
 40
53.13672736521761
  0
ARC
  5
7C4B
330
19
100
AcDbEntity
  8
1
100
AcDbCircle
 10
1308.617406821148
 20
1502.162089954461
 30
0.0
 40
85.0
100
AcDbArc
 50
298.8779990926557
 51
241.1220009073442
  0
LINE
  5
7C4C
330
19
100
AcDbEntity
  8
2
100
AcDbLine
 10
1429.617406821149
 20
1502.162089954461
 30
0.0
 11
1187.617406821148
 21
1502.162089954461
 31
0.0
  0
LINE
  5
7C4D
330
19
100
AcDbEntity
  8
1
100
AcDbLine
 10
1211.117406821148
 20
1422.162089954461
 30
0.0
 11
1406.117406821148
 21
1422.162089954461
 31
0.0
  0
LINE
  5
7C4E
330
19
100
AcDbEntity
  8
1
100
AcDbLine
 10
1416.117406821149
 20
1392.162089954461
 30
0.0
 11
1201.117406821148
 21
1392.162089954461
 31
0.0
  0
LINE
  5
7C4F
330
19
100
AcDbEntity
  8
1
100
AcDbLine
 10
1458.617406821149
 20
1392.162089954461
 30
0.0
 11
1458.617406821149
 21
1352.16208995446
 31
0.0
  0
LINE
  5
7C50
330
19
100
AcDbEntity
  8
1
100
AcDbLine
 10
1406.117406821148
 20
1422.162089954461
 30
0.0
 11
1416.117406821149
 21
1392.162089954461
 31
0.0
  0
LINE
  5
7C54
330
19
100
AcDbEntity
  8
1
100
AcDbLine
 10
1370.117406821149
 20
1352.162089954469
 30
0.0
 11
1397.117406821148
 21
1352.162089954469
 31
0.0
  0
LINE
  5
7C55
330
19
100
AcDbEntity
  8
1
100
AcDbLine
 10
1349.667832080638
 20
1427.731836790751
 30
0.0
 11
1267.566981561652
 21
1427.731836790751
 31
0.0
  0
LINE
  5
7C56
330
19
100
AcDbEntity
  8
1
100
AcDbLine
 10
1388.978243047417
 20
1422.162089954461
 30
0.0
 11
1377.952922310913
 21
1452.993133368327
 31
0.0
  0
LINE
  5
7C57
330
19
100
AcDbEntity
  8
1
100
AcDbLine
 10
1386.117406821148
 20
1422.162089954461
 30
0.0
 11
1351.117406821148
 21
1422.162089954461
 31
0.0
  0
LINE
  5
7C58
330
19
100
AcDbEntity
  8
1
100
AcDbLine
 10
1228.256570594881
 20
1422.162089954461
 30
0.0
 11
1239.281891331384
 21
1452.993133368327
 31
0.0
  0
LINE
  5
7C59
330
19
100
AcDbEntity
  8
1
100
AcDbLine
 10
1231.117406821148
 20
1422.162089954461
 30
0.0
 11
1266.117406821148
 21
1422.162089954461
 31
0.0
  0
LINE
  5
7C5A
330
19
100
AcDbEntity
  8
1
100
AcDbLine
 10
1201.117406821148
 20
1392.162089954461
 30
0.0
 11
1211.117406821148
 21
1422.162089954461
 31
0.0
  0
LINE
  5
7C5B
330
19
100
AcDbEntity
  8
1
100
AcDbLine
 10
793.4174068211486
 20
1615.86208995446
 30
0.0
 11
793.4174068211486
 21
1392.162089954461
 31
0.0
  0
LINE
  5
7C5C
330
19
100
AcDbEntity
  8
1
100
AcDbLine
 10
1123.817406821148
 20
1615.862089954461
 30
0.0
 11
1123.817406821148
 21
1392.162089954461
 31
0.0
  0
ARC
  5
7C5D
330
19
100
AcDbEntity
  8
1
100
AcDbCircle
 10
947.6174068211475
 20
1661.162089954461
 30
0.0
 40
166.0
100
AcDbArc
 50
72.58821622952128
 51
165.8148644018642
  0
LINE
  5
7C5E
330
19
100
AcDbEntity
  8
1
100
AcDbLine
 10
758.6174068211485
 20
1392.162089954461
 30
0.0
 11
758.6174068211485
 21
1352.16208995446
 31
0.0
  0
LINE
  5
7C61
330
19
100
AcDbEntity
  8
1
100
AcDbLine
 10
820.1174068211495
 20
1352.162089954475
 30
0.0
 11
847.1174068211494
 21
1352.162089954475
 31
0.0
  0
LINE
  5
7C62
330
19
100
AcDbEntity
  8
1
100
AcDbLine
 10
1128.817406821148
 20
1615.862089954461
 30
0.0
 11
788.4174068211486
 21
1615.86208995446
 31
0.0
  0
LINE
  5
7C63
330
19
100
AcDbEntity
  8
1
100
AcDbLine
 10
1128.817406821148
 20
1618.162089954461
 30
0.0
 11
788.4174068211486
 21
1618.16208995446
 31
0.0
  0
CIRCLE
  5
7C64
330
19
100
AcDbEntity
  8
1
100
AcDbCircle
 10
958.6174068211485
 20
1672.162089954461
 30
0.0
 40
69.85400903913341
  0
LINE
  5
7C65
330
19
100
AcDbEntity
  8
1
100
AcDbLine
 10
1058.617406821148
 20
1618.562089954461
 30
0.0
 11
858.6174068211494
 21
1618.562089954461
 31
0.0
  0
LINE
  5
7C66
330
19
100
AcDbEntity
  8
1
100
AcDbLine
 10
1112.817406821148
 20
1723.16208995446
 30
0.0
 11
1112.817406821148
 21
1618.162089954461
 31
0.0
  0
LINE
  5
7C67
330
19
100
AcDbEntity
  8
1
100
AcDbLine
 10
1118.817406821148
 20
1723.16208995446
 30
0.0
 11
1118.817406821148
 21
1618.162089954461
 31
0.0
  0
LINE
  5
7C68
330
19
100
AcDbEntity
  8
1
100
AcDbLine
 10
1128.817406821148
 20
1618.162089954461
 30
0.0
 11
1128.817406821148
 21
1615.862089954461
 31
0.0
  0
LINE
  5
7C69
330
19
100
AcDbEntity
  8
1
100
AcDbLine
 10
1112.817406821148
 20
1723.162089954461
 30
0.0
 11
1118.817406821148
 21
1723.162089954461
 31
0.0
  0
LINE
  5
7C6A
330
19
100
AcDbEntity
  8
1
100
AcDbLine
 10
804.4174068211486
 20
1723.162089954461
 30
0.0
 11
804.4174068211486
 21
1618.16208995446
 31
0.0
  0
LINE
  5
7C6B
330
19
100
AcDbEntity
  8
1
100
AcDbLine
 10
798.4174068211487
 20
1723.16208995446
 30
0.0
 11
798.4174068211487
 21
1618.16208995446
 31
0.0
  0
LINE
  5
7C6C
330
19
100
AcDbEntity
  8
1
100
AcDbLine
 10
788.4174068211486
 20
1618.16208995446
 30
0.0
 11
788.4174068211486
 21
1615.86208995446
 31
0.0
  0
LINE
  5
7C6D
330
19
100
AcDbEntity
  8
1
100
AcDbLine
 10
956.6174068211484
 20
1826.917934496969
 30
0.0
 11
956.6174068211484
 21
1872.162089954461
 31
0.0
  0
LINE
  5
7C6E
330
19
100
AcDbEntity
  8
1
100
AcDbLine
 10
929.6174068211476
 20
1847.162089954461
 30
0.0
 11
929.6174068211476
 21
1872.162089954461
 31
0.0
  0
LINE
  5
7C6F
330
19
100
AcDbEntity
  8
1
100
AcDbLine
 10
804.4174068211486
 20
1723.162089954461
 30
0.0
 11
798.4174068211487
 21
1723.16208995446
 31
0.0
  0
CIRCLE
  5
7C70
330
19
100
AcDbEntity
  8
1
100
AcDbCircle
 10
1023.617406821147
 20
1816.895407035559
 30
0.0
 40
8.0
  0
ARC
  5
7C71
330
19
100
AcDbEntity
  8
1
100
AcDbCircle
 10
950.6174068211477
 20
1680.162089954461
 30
0.0
 40
147.0
100
AcDbArc
 50
61.90286689023418
 51
71.48784848817084
  0
LINE
  5
7C72
330
19
100
AcDbEntity
  8
1
100
AcDbLine
 10
1195.614164201928
 20
1686.96491528852
 30
0.0
 11
1196.617406821147
 21
1872.162089954461
 31
0.0
  0
LINE
  5
7C73
330
19
100
AcDbEntity
  8
1
100
AcDbLine
 10
1223.617406821147
 20
1847.162089954461
 30
0.0
 11
1223.617406821147
 21
1872.162089954461
 31
0.0
  0
DIMENSION
  5
7C74
330
19
100
AcDbEntity
  8
3
100
AcDbDimension
280
     0
  2
*D2
 10
2447.779778314986
 20
1938.144908744669
 30
0.0
 11
2357.448558591641
 21
1966.747727720529
 31
0.0
 70
   160
 71
     5
 42
-1.0
 73
     0
 74
     0
 75
     0
  3
IGA
100
AcDbAlignedDimension
 13
2267.779778314986
 23
1847.278051035038
 33
0.0
 14
2447.779778314986
 24
1847.538803486421
 34
0.0
100
AcDbRotatedDimension
1001
ACAD
1000
DSTYLE
1002
{
1070
   288
1070
     1
1070
   172
1070
     1
1070
    40
1040
15.0
1070
   271
1070
     0
1070
   143
1040
0.039
1002
}
  0
LINE
  5
7C75
330
19
100
AcDbEntity
  8
2
100
AcDbLine
 10
1815.507239167636
 20
1672.139015055003
 30
0.0
 11
2508.915539377238
 21
1672.139015055003
 31
0.0
  0
LINE
  5
7C77
330
19
100
AcDbEntity
  8
1
100
AcDbLine
 10
2267.779778314985
 20
1467.16208995446
 30
0.0
 11
2447.779778314985
 21
1467.16208995446
 31
0.0
  0
LINE
  5
7C78
330
19
100
AcDbEntity
  8
2
100
AcDbLine
 10
2357.779778314986
 20
1932.804802746358
 30
0.0
 11
2357.779778314987
 21
1242.139015055003
 31
0.0
  0
LINE
  5
7C79
330
19
100
AcDbEntity
  8
1
100
AcDbLine
 10
1899.697578387261
 20
1717.720742267489
 30
0.0
 11
1899.697578387261
 21
1764.707720258249
 31
0.0
  0
LINE
  5
7C7A
330
19
100
AcDbEntity
  8
1
100
AcDbLine
 10
1830.01871312708
 20
1427.385010162623
 30
0.0
 11
1830.01871312708
 21
1764.707720258249
 31
0.0
  0
LINE
  5
7C7B
330
19
100
AcDbEntity
  8
1
100
AcDbLine
 10
1926.779778314986
 20
1615.862089954461
 30
0.0
 11
2239.779778314986
 21
1615.862089954461
 31
0.0
  0
LINE
  5
7C7E
330
19
100
AcDbEntity
  8
1
100
AcDbLine
 10
1856.779778314986
 20
1352.139015055003
 30
0.0
 11
2301.779778314986
 21
1352.139015055003
 31
0.0
  0
LINE
  5
7C7F
330
19
100
AcDbEntity
  8
1
100
AcDbLine
 10
1856.779778314985
 20
1392.139015055003
 30
0.0
 11
2301.779778314986
 21
1392.139015055003
 31
0.0
  0
LINE
  5
7C80
330
19
100
AcDbEntity
  8
1
100
AcDbLine
 10
1926.779778314986
 20
1618.139015055003
 30
0.0
 11
2239.779778314986
 21
1618.139015055003
 31
0.0
  0
LINE
  5
7C81
330
19
100
AcDbEntity
  8
1
100
AcDbLine
 10
1847.822123634088
 20
1449.025362589243
 30
0.0
 11
1847.822123634086
 21
1602.28500601587
 31
0.0
  0
LINE
  5
7C82
330
19
100
AcDbEntity
  8
1
100
AcDbLine
 10
1883.4289446481
 20
1449.025362589243
 30
0.0
 11
1883.4289446481
 21
1602.28500601587
 31
0.0
  0
LINE
  5
7C83
330
19
100
AcDbEntity
  8
1
100
AcDbLine
 10
1931.779778314987
 20
1615.862089954461
 30
0.0
 11
1931.779778314986
 21
1576.962077954461
 31
0.0
  0
LINE
  5
7C84
330
19
100
AcDbEntity
  8
1
100
AcDbLine
 10
1830.01871312708
 20
1427.385010162623
 30
0.0
 11
1899.697578387261
 21
1427.385010162623
 31
0.0
  0
LINE
  5
7C85
330
19
100
AcDbEntity
  8
1
100
AcDbLine
 10
1847.822123634086
 20
1449.025362589243
 30
0.0
 11
1883.4289446481
 21
1449.025362589243
 31
0.0
  0
LINE
  5
7C86
330
19
100
AcDbEntity
  8
1
100
AcDbLine
 10
1899.697578387261
 20
1427.385010162623
 30
0.0
 11
1899.697578387261
 21
1492.486190769464
 31
0.0
  0
LINE
  5
7C87
330
19
100
AcDbEntity
  8
1
100
AcDbLine
 10
1883.4289446481
 20
1602.28500601587
 30
0.0
 11
1883.4289446481
 21
1741.993024094137
 31
0.0
  0
LINE
  5
7C88
330
19
100
AcDbEntity
  8
1
100
AcDbLine
 10
1847.822123634086
 20
1602.28500601587
 30
0.0
 11
1847.822123634086
 21
1741.993024094137
 31
0.0
  0
LINE
  5
7C89
330
19
100
AcDbEntity
  8
2
100
AcDbLine
 10
2161.23271876411
 20
1502.162089954461
 30
0.0
 11
1823.181123006862
 21
1502.162089954461
 31
0.0
  0
LINE
  5
7C8A
330
19
100
AcDbEntity
  8
1
100
AcDbLine
 10
1847.822123634086
 20
1555.298817319678
 30
0.0
 11
1883.4289446481
 21
1555.298817319678
 31
0.0
  0
LINE
  5
7C8B
330
19
100
AcDbEntity
  8
1
100
AcDbLine
 10
1847.822123634086
 20
1602.28500601587
 30
0.0
 11
1883.4289446481
 21
1602.28500601587
 31
0.0
  0
LINE
  5
7C8C
330
19
100
AcDbEntity
  8
1
100
AcDbLine
 10
1926.779778314986
 20
1618.139015055003
 30
0.0
 11
1926.779778314987
 21
1615.862089954461
 31
0.0
  0
LINE
  5
7C8D
330
19
100
AcDbEntity
  8
1
100
AcDbLine
 10
1847.822123634086
 20
1741.993024094137
 30
0.0
 11
1883.4289446481
 21
1741.993024094137
 31
0.0
  0
LINE
  5
7C8E
330
19
100
AcDbEntity
  8
1
100
AcDbLine
 10
1883.4289446481
 20
1660.139015055003
 30
0.0
 11
1897.779778314987
 21
1660.139015055003
 31
0.0
  0
LINE
  5
7C8F
330
19
100
AcDbEntity
  8
1
100
AcDbLine
 10
1883.4289446481
 20
1684.139015055003
 30
0.0
 11
1897.779778314986
 21
1684.139015055003
 31
0.0
  0
LINE
  5
7C90
330
19
100
AcDbEntity
  8
1
100
AcDbLine
 10
1899.779778314986
 20
1689.639015055003
 30
0.0
 11
2239.779778314986
 21
1689.639015055004
 31
0.0
  0
LINE
  5
7C91
330
19
100
AcDbEntity
  8
1
100
AcDbLine
 10
1899.779778314986
 20
1654.639015055003
 30
0.0
 11
2239.779778314987
 21
1654.639015055003
 31
0.0
  0
LINE
  5
7C92
330
19
100
AcDbEntity
  8
1
100
AcDbLine
 10
1899.779778314986
 20
1658.139015055003
 30
0.0
 11
1899.779778314986
 21
1654.639015055003
 31
0.0
  0
ARC
  5
7C93
330
19
100
AcDbEntity
  8
1
100
AcDbCircle
 10
1897.779778314987
 20
1658.139015055003
 30
0.0
 40
2.0
100
AcDbArc
 50
0.0000000000002036
 51
90.0
  0
ARC
  5
7C94
330
19
100
AcDbEntity
  8
1
100
AcDbCircle
 10
1897.779778314986
 20
1686.139015055003
 30
0.0
 40
2.0
100
AcDbArc
 50
270.0
 51
0.0
  0
LINE
  5
7C95
330
19
100
AcDbEntity
  8
1
100
AcDbLine
 10
1899.779778314987
 20
1689.639015055003
 30
0.0
 11
1899.779778314986
 21
1686.139015055003
 31
0.0
  0
LINE
  5
7C9A
330
19
100
AcDbEntity
  8
1
100
AcDbLine
 10
2239.779778314986
 20
1723.162089954461
 30
0.0
 11
2267.779778314986
 21
1723.162089954461
 31
0.0
  0
LINE
  5
7C9B
330
19
100
AcDbEntity
  8
1
100
AcDbLine
 10
1830.01871312708
 20
1764.707720258249
 30
0.0
 11
1899.697578387261
 21
1764.707720258248
 31
0.0
  0
LINE
  5
7C9C
330
19
100
AcDbEntity
  8
1
100
AcDbLine
 10
2476.779778314988
 20
1545.139015055003
 30
0.0
 11
2476.779778314988
 21
1799.139015055003
 31
0.0
  0
LINE
  5
7C9D
330
19
100
AcDbEntity
  8
1
100
AcDbLine
 10
2447.779778314986
 20
1828.139015055003
 30
0.0
 11
2447.779778314986
 21
1672.139015055003
 31
0.0
  0
LINE
  5
7C9E
330
19
100
AcDbEntity
  8
1
100
AcDbLine
 10
2475.779778314985
 20
1872.139015055003
 30
0.0
 11
2475.779778314987
 21
1847.162089954461
 31
0.0
  0
LINE
  5
7CA0
330
19
100
AcDbEntity
  8
1
100
AcDbLine
 10
2447.779778314986
 20
1847.162089954461
 30
0.0
 11
2447.779778314986
 21
1670.139015055003
 31
0.0
  0
LINE
  5
7CA1
330
19
100
AcDbEntity
  8
1
100
AcDbLine
 10
2447.779778314985
 20
1670.139015055003
 30
0.0
 11
2447.779778314985
 21
1467.16208995446
 31
0.0
  0
LINE
  5
7CA3
330
19
100
AcDbEntity
  8
1
100
AcDbLine
 10
2451.779778314988
 20
1672.139015055003
 30
0.0
 11
2451.779778314988
 21
1516.139015055003
 31
0.0
  0
LWPOLYLINE
  5
7CA4
330
19
100
AcDbEntity
  8
1
100
AcDbPolyline
 90
        9
 70
     1
 43
0.0
 10
2451.779778314988
 20
1545.139015055003
 10
2451.779778314988
 20
1520.139015055003
 10
2452.779778314987
 20
1520.139015055003
 42
0.4142135623730951
 10
2454.779778314987
 20
1522.139015055003
 10
2454.779778314987
 20
1538.139015055003
 42
-0.4142135623730951
 10
2458.779778314987
 20
1542.139015055003
 10
2474.779778314987
 20
1542.139015055003
 42
0.4142135623730951
 10
2476.779778314988
 20
1544.139015055003
 10
2476.779778314988
 20
1545.139015055003
  0
LINE
  5
7CAF
330
19
100
AcDbEntity
  8
1
100
AcDbLine
 10
2452.779778314987
 20
1545.139015055003
 30
0.0
 11
2474.779778314987
 21
1545.139015055003
 31
0.0
  0
LINE
  5
7CB0
330
19
100
AcDbEntity
  8
1
100
AcDbLine
 10
2447.779778314985
 20
1516.139015055003
 30
0.0
 11
2451.779778314988
 21
1516.139015055003
 31
0.0
  0
LINE
  5
7CB2
330
19
100
AcDbEntity
  8
2
100
AcDbLine
 10
958.6174068211485
 20
3293.062845823935
 30
0.0
 11
958.6174068211485
 21
2648.232636028216
 31
0.0
  0
LINE
  5
7CB4
330
19
100
AcDbEntity
  8
1
100
AcDbLine
 10
1418.617406821147
 20
3130.538868589276
 30
0.0
 11
1418.617406821148
 21
2685.538868589276
 31
0.0
  0
LINE
  5
7CB5
330
19
100
AcDbEntity
  8
1
100
AcDbLine
 10
758.6174068211485
 20
3130.538868589276
 30
0.0
 11
758.6174068211485
 21
2685.538868589276
 31
0.0
  0
LINE
  5
7CB6
330
19
100
AcDbEntity
  8
1
100
AcDbLine
 10
1458.617406821148
 20
3130.538868589276
 30
0.0
 11
1458.617406821147
 21
2685.538868589276
 31
0.0
  0
LINE
  5
7CBE
330
19
100
AcDbEntity
  8
1
100
AcDbLine
 10
1856.779778314986
 20
1352.139015055003
 30
0.0
 11
1856.779778314985
 21
1392.139015055003
 31
0.0
  0
LINE
  5
7CBF
330
19
100
AcDbEntity
  8
1
100
AcDbLine
 10
2301.779778314986
 20
1352.139015055003
 30
0.0
 11
2301.779778314986
 21
1392.139015055003
 31
0.0
  0
LINE
  5
7CC7
330
19
100
AcDbEntity
  8
1
100
AcDbLine
 10
758.6174068211485
 20
2685.538868589276
 30
0.0
 11
1458.617406821148
 21
2685.538868589276
 31
0.0
  0
LINE
  5
7CC8
330
19
100
AcDbEntity
  8
1
100
AcDbLine
 10
758.6174068211484
 20
3130.538868589284
 30
0.0
 11
781.6174068211479
 21
3130.538868589284
 31
0.0
  0
DIMENSION
  5
7CCA
330
19
100
AcDbEntity
  8
3
100
AcDbDimension
280
     0
  2
*D3
 10
645.5508969124657
 20
2685.538868589276
 30
0.0
 11
608.0508969124657
 21
2908.038868589276
 31
0.0
 70
    32
 71
     5
 42
-1.0
 73
     0
 74
     0
 75
     0
  3
IGA
100
AcDbAlignedDimension
 13
758.6174068211485
 23
3130.538868589276
 33
0.0
 14
758.6174068211485
 24
2685.538868589276
 34
0.0
 50
270.0
100
AcDbRotatedDimension
1001
ACAD
1000
DSTYLE
1002
{
1070
    40
1040
15.0
1070
   143
1040
0.039
1070
   172
1070
     1
1070
   271
1070
     0
1070
   279
1070
     0
1070
   288
1070
     1
1002
}
  0
DIMENSION
  5
7CCB
330
19
100
AcDbEntity
  8
3
100
AcDbDimension
280
     0
  2
*D4
 10
758.6174068211485
 20
2505.991998174919
 30
0.0
 11
1108.617406821148
 21
2505.991998174919
 31
0.0
 70
   160
 71
     5
 42
-1.0
 73
     0
 74
     0
 75
     0
  3
IGA
100
AcDbAlignedDimension
 13
1458.617406821147
 23
2685.538868589276
 33
0.0
 14
758.6174068211485
 24
2685.538868589276
 34
0.0
100
AcDbRotatedDimension
1001
ACAD
1000
DSTYLE
1002
{
1070
    40
1040
15.0
1070
   143
1040
0.039
1070
   172
1070
     1
1070
   271
1070
     0
1070
   279
1070
     0
1070
   288
1070
     1
1002
}
  0
LINE
  5
7CCC
330
19
100
AcDbEntity
  8
2
100
AcDbLine
 10
746.5652124074313
 20
3186.538868589276
 30
0.0
 11
1234.777278554669
 21
3186.538868589276
 31
0.0
  0
LINE
  5
7CCD
330
19
100
AcDbEntity
  8
1
100
AcDbLine
 10
2239.779778314986
 20
1473.162089954461
 30
0.0
 11
2267.779778314986
 21
1473.162089954461
 31
0.0
  0
LWPOLYLINE
  5
7CCE
330
19
100
AcDbEntity
  8
1
100
AcDbPolyline
 90
        2
 70
     0
 43
0.0
 10
2239.779778314986
 20
1723.162089954461
 10
2239.779778314986
 20
1473.16208995446
  0
ARC
  5
7CD2
330
19
100
AcDbEntity
  8
1
100
AcDbCircle
 10
2474.779778314987
 20
1800.139015055003
 30
0.0
 40
2.0
100
AcDbArc
 50
0.0
 51
60.00000000002852
  0
LINE
  5
7CD3
330
19
100
AcDbEntity
  8
1
100
AcDbLine
 10
2476.779778314988
 20
1800.139015055003
 30
0.0
 11
2476.779778314988
 21
1799.139015055003
 31
0.0
  0
LINE
  5
7CD4
330
19
100
AcDbEntity
  8
1
100
AcDbLine
 10
2476.779778314988
 20
1799.139015055003
 30
0.0
 11
2475.779778314987
 21
1799.139015055003
 31
0.0
  0
LINE
  5
7CD5
330
19
100
AcDbEntity
  8
1
100
AcDbLine
 10
1910.625534141093
 20
1468.662089954461
 30
0.0
 11
1910.625534141093
 21
1535.662089954461
 31
0.0
  0
LINE
  5
7CD6
330
19
100
AcDbEntity
  8
1
100
AcDbLine
 10
1920.625534141093
 20
1424.16208995446
 30
0.0
 11
1920.625534141093
 21
1576.962077954461
 31
0.0
  0
LINE
  5
7CD7
330
19
100
AcDbEntity
  8
1
100
AcDbLine
 10
1920.625534141093
 20
1424.162089954461
 30
0.0
 11
1931.779778314987
 21
1424.162089954461
 31
0.0
  0
LINE
  5
7CD8
330
19
100
AcDbEntity
  8
1
100
AcDbLine
 10
1920.625534141093
 20
1468.662089954461
 30
0.0
 11
1910.625534141093
 21
1468.662089954461
 31
0.0
  0
LINE
  5
7CD9
330
19
100
AcDbEntity
  8
1
100
AcDbLine
 10
1920.625534141093
 20
1472.227092954461
 30
0.0
 11
1920.625534141093
 21
1463.597087954461
 31
0.0
  0
LINE
  5
7CDA
330
19
100
AcDbEntity
  8
1
100
AcDbLine
 10
1920.625534141093
 20
1474.412150954461
 30
0.0
 11
1920.625534141093
 21
1462.148216954461
 31
0.0
  0
LINE
  5
7CDB
330
19
100
AcDbEntity
  8
1
100
AcDbLine
 10
1920.625534141093
 20
1463.477885954461
 30
0.0
 11
1920.625534141093
 21
1472.477885954461
 31
0.0
  0
LINE
  5
7CDC
330
19
100
AcDbEntity
  8
1
100
AcDbLine
 10
1905.625534141093
 20
1511.662089954461
 30
0.0
 11
1883.4289446481
 21
1511.662089954461
 31
0.0
  0
LINE
  5
7CDD
330
19
100
AcDbEntity
  8
1
100
AcDbLine
 10
1883.4289446481
 20
1492.662089954461
 30
0.0
 11
1905.625534141093
 21
1492.662089954461
 31
0.0
  0
LINE
  5
7CDE
330
19
100
AcDbEntity
  8
1
100
AcDbLine
 10
1905.625534141093
 20
1512.662089954461
 30
0.0
 11
1910.625534141093
 21
1512.662089954461
 31
0.0
  0
LINE
  5
7CDF
330
19
100
AcDbEntity
  8
1
100
AcDbLine
 10
1905.625534141093
 20
1491.662089954461
 30
0.0
 11
1910.625534141093
 21
1491.662089954461
 31
0.0
  0
LINE
  5
7CE0
330
19
100
AcDbEntity
  8
1
100
AcDbLine
 10
1905.625534141093
 20
1491.662089954461
 30
0.0
 11
1905.625534141093
 21
1512.662089954461
 31
0.0
  0
LINE
  5
7CE1
330
19
100
AcDbEntity
  8
1
100
AcDbLine
 10
1931.779778314987
 20
1576.962077954461
 30
0.0
 11
1920.625534141093
 21
1576.962077954461
 31
0.0
  0
LINE
  5
7CE2
330
19
100
AcDbEntity
  8
1
100
AcDbLine
 10
1910.625534141093
 20
1535.662089954461
 30
0.0
 11
1920.625534141093
 21
1535.662089954461
 31
0.0
  0
LINE
  5
7CE3
330
19
100
AcDbEntity
  8
1
100
AcDbLine
 10
1920.625534141093
 20
1574.977092954461
 30
0.0
 11
1920.625534141093
 21
1566.347087954461
 31
0.0
  0
LINE
  5
7CE4
330
19
100
AcDbEntity
  8
1
100
AcDbLine
 10
1920.625534141093
 20
1566.227885954461
 30
0.0
 11
1920.625534141093
 21
1575.227885954461
 31
0.0
  0
DIMENSION
  5
7CE5
330
19
100
AcDbEntity
  8
3
100
AcDbDimension
280
     0
  2
*D5
 10
956.6174068211484
 20
1927.784560483514
 30
0.0
 11
1076.617406821148
 21
1965.284560483514
 31
0.0
 70
    32
 71
     5
 42
-1.0
 73
     0
 74
     0
 75
     0
  3
IGA
100
AcDbAlignedDimension
 13
1196.617406821147
 23
1872.162089954461
 33
0.0
 14
956.6174068211484
 24
1872.162089954461
 34
0.0
 50
180.0
100
AcDbRotatedDimension
1001
ACAD
1000
DSTYLE
1002
{
1070
    40
1040
15.0
1070
   143
1040
0.039
1070
   172
1070
     1
1070
   271
1070
     0
1070
   279
1070
     0
1070
   288
1070
     1
1002
}
  0
DIMENSION
  5
7CE6
330
19
100
AcDbEntity
  8
3
100
AcDbDimension
280
     0
  2
*D6
 10
958.6174068211485
 20
2007.721089774403
 30
0.0
 11
1077.617406821148
 21
2045.221089774404
 31
0.0
 70
    32
 71
     5
 42
-1.0
 73
     0
 74
     0
 75
     0
  3
IGA
100
AcDbAlignedDimension
 13
1196.617406821147
 23
1872.162089954461
 33
0.0
 14
958.6174068211485
 24
1930.829824854751
 34
0.0
 50
180.0
100
AcDbRotatedDimension
1001
ACAD
1000
DSTYLE
1002
{
1070
   288
1070
     1
1070
   172
1070
     1
1070
    40
1040
15.0
1070
   271
1070
     0
1070
   143
1040
0.039
1002
}
  0
DIMENSION
  5
7CE7
330
19
100
AcDbEntity
  8
3
100
AcDbDimension
280
     0
  2
*D7
 10
587.2784415634233
 20
1352.16208995446
 30
0.0
 11
549.7784415634233
 21
1512.162089954461
 31
0.0
 70
    32
 71
     5
 42
-1.0
 73
     0
 74
     0
 75
     0
  3
IGA
100
AcDbAlignedDimension
 13
707.9744267459282
 23
1672.162089954461
 33
0.0
 14
758.6174068211485
 24
1352.16208995446
 34
0.0
 50
270.0
100
AcDbRotatedDimension
1001
ACAD
1000
DSTYLE
1002
{
1070
    40
1040
15.0
1070
   143
1040
0.039
1070
   172
1070
     1
1070
   271
1070
     0
1070
   279
1070
     0
1070
   288
1070
     1
1002
}
  0
DIMENSION
  5
7CEA
330
19
100
AcDbEntity
  8
3
100
AcDbDimension
280
     0
  2
*D8
 10
2357.779778314986
 20
2045.049977304849
 30
0.0
 11
2400.337660825601
 21
2081.703375501517
 31
0.0
 70
   160
  1
94
 71
     5
 42
-1.0
 73
     0
 74
     0
 75
     0
  3
IGA
100
AcDbAlignedDimension
 13
2450.779778314986
 23
1828.089044368209
 33
0.0
 14
2357.779778314986
 24
2001.00821862552
 34
0.0
100
AcDbRotatedDimension
1001
ACAD
1000
DSTYLE
1002
{
1070
   288
1070
     1
1070
   172
1070
     1
1070
    40
1040
15.0
1070
   271
1070
     0
1070
   143
1040
0.039
1002
}
  0
DIMENSION
  5
7CEB
330
19
100
AcDbEntity
  8
3
100
AcDbDimension
280
     0
  2
*D9
 10
1830.01871312708
 20
2045.049977304849
 30
0.0
 11
2093.899245721033
 21
2131.835691590563
 31
0.0
 70
    32
  1
\P(600)
 71
     5
 42
527.7610651879058
 73
     0
 74
     0
 75
     0
  3
IGA
100
AcDbAlignedDimension
 13
2357.779778314986
 23
2001.00821862552
 33
0.0
 14
1830.01871312708
 24
1764.707720258249
 34
0.0
100
AcDbRotatedDimension
1001
ACAD
1000
DSTYLE
1002
{
1070
    40
1040
15.0
1070
   143
1040
0.039
1070
   172
1070
     1
1070
   271
1070
     0
1070
   279
1070
     0
1070
   288
1070
     1
1002
}
  0
LINE
  5
7CEC
330
19
100
AcDbEntity
  8
1
100
AcDbLine
 10
781.6174068211475
 20
3276.538868589277
 30
0.0
 11
931.6174068211484
 21
3276.538868589277
 31
0.0
  0
LINE
  5
7CED
330
19
100
AcDbEntity
  8
1
100
AcDbLine
 10
781.6174068211485
 20
3096.538868589276
 30
0.0
 11
931.6174068211475
 21
3096.538868589276
 31
0.0
  0
LINE
  5
7CEE
330
19
100
AcDbEntity
  8
1
100
AcDbLine
 10
798.6174068211485
 20
2734.038868589276
 30
0.0
 11
798.6174068211485
 21
2685.538868589276
 31
0.0
  0
LINE
  5
7CEF
330
19
100
AcDbEntity
  8
1
100
AcDbLine
 10
2138.625534141093
 20
1576.962077954461
 30
0.0
 11
1920.625534141093
 21
1576.962077954461
 31
0.0
  0
LINE
  5
7CF0
330
19
100
AcDbEntity
  8
1
100
AcDbLine
 10
1920.625534141093
 20
1424.162089954461
 30
0.0
 11
2138.625534141093
 21
1424.162089954461
 31
0.0
  0
LINE
  5
7CF1
330
19
100
AcDbEntity
  8
1
100
AcDbLine
 10
2138.625534141093
 20
1576.962077954461
 30
0.0
 11
2138.625534141093
 21
1424.162089954461
 31
0.0
  0
LINE
  5
7CF2
330
19
100
AcDbEntity
  8
1
100
AcDbLine
 10
1910.625534141093
 20
1468.662089954461
 30
0.0
 11
1910.625534141093
 21
1535.662089954461
 31
0.0
  0
LINE
  5
7CF3
330
19
100
AcDbEntity
  8
1
100
AcDbLine
 10
1920.625534141093
 20
1424.16208995446
 30
0.0
 11
1920.625534141093
 21
1576.962077954461
 31
0.0
  0
LINE
  5
7CF4
330
19
100
AcDbEntity
  8
1
100
AcDbLine
 10
2065.625534141093
 20
1424.162089954461
 30
0.0
 11
2065.625534141093
 21
1392.139015055003
 31
0.0
  0
LINE
  5
7CF5
330
19
100
AcDbEntity
  8
1
100
AcDbLine
 10
1945.625534141093
 20
1424.162089954461
 30
0.0
 11
1945.625534141093
 21
1392.139015055003
 31
0.0
  0
LINE
  5
7CF6
330
19
100
AcDbEntity
  8
1
100
AcDbLine
 10
1905.625534141093
 20
1512.662089954461
 30
0.0
 11
1910.625534141093
 21
1512.662089954461
 31
0.0
  0
LINE
  5
7CF7
330
19
100
AcDbEntity
  8
1
100
AcDbLine
 10
1905.625534141093
 20
1491.662089954461
 30
0.0
 11
1910.625534141093
 21
1491.662089954461
 31
0.0
  0
LINE
  5
7CF8
330
19
100
AcDbEntity
  8
1
100
AcDbLine
 10
1920.625534141093
 20
1468.662089954461
 30
0.0
 11
1910.625534141093
 21
1468.662089954461
 31
0.0
  0
LINE
  5
7CF9
330
19
100
AcDbEntity
  8
1
100
AcDbLine
 10
1920.625534141093
 20
1472.227092954461
 30
0.0
 11
1920.625534141093
 21
1463.597087954461
 31
0.0
  0
LINE
  5
7CFA
330
19
100
AcDbEntity
  8
1
100
AcDbLine
 10
1920.625534141093
 20
1474.412150954461
 30
0.0
 11
1920.625534141093
 21
1462.148216954461
 31
0.0
  0
LINE
  5
7CFB
330
19
100
AcDbEntity
  8
1
100
AcDbLine
 10
1920.625534141093
 20
1463.477885954461
 30
0.0
 11
1920.625534141093
 21
1472.477885954461
 31
0.0
  0
LINE
  5
7CFC
330
19
100
AcDbEntity
  8
1
100
AcDbLine
 10
1905.625534141093
 20
1511.662089954461
 30
0.0
 11
1883.4289446481
 21
1511.662089954461
 31
0.0
  0
LINE
  5
7CFD
330
19
100
AcDbEntity
  8
1
100
AcDbLine
 10
1883.4289446481
 20
1492.662089954461
 30
0.0
 11
1905.625534141093
 21
1492.662089954461
 31
0.0
  0
LINE
  5
7CFE
330
19
100
AcDbEntity
  8
1
100
AcDbLine
 10
1905.625534141093
 20
1491.662089954461
 30
0.0
 11
1905.625534141093
 21
1512.662089954461
 31
0.0
  0
LINE
  5
7CFF
330
19
100
AcDbEntity
  8
1
100
AcDbLine
 10
1910.625534141093
 20
1535.662089954461
 30
0.0
 11
1920.625534141093
 21
1535.662089954461
 31
0.0
  0
LINE
  5
7D00
330
19
100
AcDbEntity
  8
1
100
AcDbLine
 10
1920.625534141093
 20
1574.977092954461
 30
0.0
 11
1920.625534141093
 21
1566.347087954461
 31
0.0
  0
LINE
  5
7D01
330
19
100
AcDbEntity
  8
1
100
AcDbLine
 10
1920.625534141093
 20
1566.227885954461
 30
0.0
 11
1920.625534141093
 21
1575.227885954461
 31
0.0
  0
LINE
  5
7D02
330
19
100
AcDbEntity
  8
1
100
AcDbLine
 10
1233.817418821148
 20
2967.038868589275
 30
0.0
 11
1386.617406821148
 21
2967.038868589275
 31
0.0
  0
LINE
  5
7D03
330
19
100
AcDbEntity
  8
1
100
AcDbLine
 10
1386.617406821147
 20
2749.384624415383
 30
0.0
 11
1386.617406821148
 21
2967.038868589275
 31
0.0
  0
LINE
  5
7D04
330
19
100
AcDbEntity
  8
1
100
AcDbLine
 10
1233.817418821148
 20
2967.038868589275
 30
0.0
 11
1233.817418821149
 21
2749.384624415383
 31
0.0
  0
LINE
  5
7D05
330
19
100
AcDbEntity
  8
1
100
AcDbLine
 10
1318.117406821147
 20
2712.18803492239
 30
0.0
 11
1318.117406821148
 21
2734.038868589275
 31
0.0
  0
LINE
  5
7D06
330
19
100
AcDbEntity
  8
1
100
AcDbLine
 10
1299.117406821148
 20
2734.038868589275
 30
0.0
 11
1299.117406821148
 21
2712.18803492239
 31
0.0
  0
LINE
  5
7D07
330
19
100
AcDbEntity
  8
1
100
AcDbLine
 10
1319.117406821148
 20
2734.038868589275
 30
0.0
 11
1318.117406821147
 21
2734.038868589275
 31
0.0
  0
LINE
  5
7D08
330
19
100
AcDbEntity
  8
1
100
AcDbLine
 10
1342.117406821148
 20
2749.038868589275
 30
0.0
 11
1342.117406821148
 21
2739.384624415384
 31
0.0
  0
LINE
  5
7D09
330
19
100
AcDbEntity
  8
1
100
AcDbLine
 10
1319.117406821148
 20
2734.038868589275
 30
0.0
 11
1319.117406821148
 21
2739.038868589275
 31
0.0
  0
LINE
  5
7D0A
330
19
100
AcDbEntity
  8
1
100
AcDbLine
 10
1298.117406821148
 20
2734.038868589275
 30
0.0
 11
1298.117406821148
 21
2739.038868589275
 31
0.0
  0
LINE
  5
7D0B
330
19
100
AcDbEntity
  8
1
100
AcDbLine
 10
1275.117406821148
 20
2739.384624415384
 30
0.0
 11
1275.117406821148
 21
2749.038868589275
 31
0.0
  0
LINE
  5
7D0C
330
19
100
AcDbEntity
  8
1
100
AcDbLine
 10
1383.394486612986
 20
2658.77780340137
 30
0.0
 11
866.0487016179031
 21
2658.77780340137
 31
0.0
  0
LINE
  5
7D0D
330
19
100
AcDbEntity
  8
1
100
AcDbLine
 10
1318.117406821148
 20
2712.18803492239
 30
0.0
 11
1318.117406821148
 21
2734.384624415383
 31
0.0
  0
LINE
  5
7D0E
330
19
100
AcDbEntity
  8
1
100
AcDbLine
 10
1299.117406821148
 20
2734.384624415383
 30
0.0
 11
1299.117406821147
 21
2712.18803492239
 31
0.0
  0
LINE
  5
7D0F
330
19
100
AcDbEntity
  8
2
100
AcDbLine
 10
1308.617406821148
 20
2983.177478403595
 30
0.0
 11
1308.617406821148
 21
2651.940213281152
 31
0.0
  0
LINE
  5
7D10
330
19
100
AcDbEntity
  8
1
100
AcDbLine
 10
1383.394486612986
 20
2658.77780340137
 30
0.0
 11
1383.394486612985
 21
2728.456668661551
 31
0.0
  0
LINE
  5
7D11
330
19
100
AcDbEntity
  8
1
100
AcDbLine
 10
1361.754134186365
 20
2712.18803492239
 30
0.0
 11
1255.480679455931
 21
2712.18803492239
 31
0.0
  0
LINE
  5
7D12
330
19
100
AcDbEntity
  8
1
100
AcDbLine
 10
1361.754134186365
 20
2676.581213908378
 30
0.0
 11
1255.480679455931
 21
2676.581213908377
 31
0.0
  0
LINE
  5
7D13
330
19
100
AcDbEntity
  8
1
100
AcDbLine
 10
1361.754134186366
 20
2676.581213908376
 30
0.0
 11
1361.754134186366
 21
2712.18803492239
 31
0.0
  0
LINE
  5
7D14
330
19
100
AcDbEntity
  8
1
100
AcDbLine
 10
1255.480679455931
 20
2676.581213908376
 30
0.0
 11
1255.480679455931
 21
2712.18803492239
 31
0.0
  0
LINE
  5
7D15
330
19
100
AcDbEntity
  8
1
100
AcDbLine
 10
1319.117406821148
 20
2734.384624415383
 30
0.0
 11
1298.117406821148
 21
2734.384624415383
 31
0.0
  0
LINE
  5
7D16
330
19
100
AcDbEntity
  8
1
100
AcDbLine
 10
1386.617406821148
 20
2749.384624415383
 30
0.0
 11
1233.817418821148
 21
2749.384624415383
 31
0.0
  0
LINE
  5
7D17
330
19
100
AcDbEntity
  8
1
100
AcDbLine
 10
1342.117406821148
 20
2739.384624415383
 30
0.0
 11
1275.117406821148
 21
2739.384624415383
 31
0.0
  0
LINE
  5
7D18
330
19
100
AcDbEntity
  8
1
100
AcDbLine
 10
1383.394486612985
 20
2728.456668661551
 30
0.0
 11
866.0487016179031
 21
2728.456668661551
 31
0.0
  0
LINE
  5
7D19
330
19
100
AcDbEntity
  8
1
100
AcDbLine
 10
1386.617406821148
 20
2749.384624415383
 30
0.0
 11
1386.617406821148
 21
2760.538868589277
 31
0.0
  0
LINE
  5
7D1A
330
19
100
AcDbEntity
  8
1
100
AcDbLine
 10
1319.117406821148
 20
2734.384624415383
 30
0.0
 11
1319.117406821148
 21
2739.384624415383
 31
0.0
  0
LINE
  5
7D1B
330
19
100
AcDbEntity
  8
1
100
AcDbLine
 10
1347.301610821148
 20
2749.384624415383
 30
0.0
 11
1338.301610821148
 21
2749.384624415383
 31
0.0
  0
LINE
  5
7D1C
330
19
100
AcDbEntity
  8
1
100
AcDbLine
 10
1336.367345821148
 20
2749.384624415383
 30
0.0
 11
1348.631279821148
 21
2749.384624415383
 31
0.0
  0
LINE
  5
7D1D
330
19
100
AcDbEntity
  8
1
100
AcDbLine
 10
1338.552403821148
 20
2749.384624415383
 30
0.0
 11
1347.182408821148
 21
2749.384624415383
 31
0.0
  0
LINE
  5
7D1E
330
19
100
AcDbEntity
  8
1
100
AcDbLine
 10
1342.117406821148
 20
2749.384624415383
 30
0.0
 11
1342.117406821148
 21
2739.384624415383
 31
0.0
  0
LINE
  5
7D1F
330
19
100
AcDbEntity
  8
1
100
AcDbLine
 10
1275.117406821148
 20
2739.384624415383
 30
0.0
 11
1275.117406821148
 21
2749.384624415383
 31
0.0
  0
LINE
  5
7D20
330
19
100
AcDbEntity
  8
1
100
AcDbLine
 10
1298.117406821148
 20
2734.384624415383
 30
0.0
 11
1298.117406821148
 21
2739.384624415383
 31
0.0
  0
LINE
  5
7D21
330
19
100
AcDbEntity
  8
1
100
AcDbLine
 10
1244.551610821148
 20
2749.384624415383
 30
0.0
 11
1235.551610821147
 21
2749.384624415383
 31
0.0
  0
LINE
  5
7D22
330
19
100
AcDbEntity
  8
1
100
AcDbLine
 10
1235.802403821148
 20
2749.384624415383
 30
0.0
 11
1244.432408821148
 21
2749.384624415383
 31
0.0
  0
LINE
  5
7D23
330
19
100
AcDbEntity
  8
1
100
AcDbLine
 10
1233.817418821148
 20
2760.538868589277
 30
0.0
 11
1233.817418821148
 21
2749.384624415383
 31
0.0
  0
LINE
  5
7D24
330
19
100
AcDbEntity
  8
1
100
AcDbLine
 10
866.0487016179031
 20
2658.77780340137
 30
0.0
 11
866.0487016179031
 21
2728.456668661551
 31
0.0
  0
LINE
  5
7D25
330
19
100
AcDbEntity
  8
1
100
AcDbLine
 10
1028.471415860282
 20
2676.581213908376
 30
0.0
 11
888.7633977820151
 21
2676.581213908376
 31
0.0
  0
LINE
  5
7D26
330
19
100
AcDbEntity
  8
1
100
AcDbLine
 10
1028.471415860282
 20
2712.18803492239
 30
0.0
 11
888.7633977820151
 21
2712.18803492239
 31
0.0
  0
LINE
  5
7D27
330
19
100
AcDbEntity
  8
1
100
AcDbLine
 10
888.7633977820151
 20
2676.581213908376
 30
0.0
 11
888.7633977820151
 21
2712.18803492239
 31
0.0
  0
LINE
  5
7D29
330
19
100
AcDbEntity
  8
1
100
AcDbLine
 10
1028.471415860282
 20
2676.581213908376
 30
0.0
 11
1028.471415860282
 21
2712.18803492239
 31
0.0
  0
LINE
  5
7D2A
330
19
100
AcDbEntity
  8
1
100
AcDbLine
 10
1128.617406821147
 20
2734.038868589276
 30
0.0
 11
788.6174068211484
 21
2734.038868589276
 31
0.0
  0
LINE
  5
7D2B
330
19
100
AcDbEntity
  8
1
100
AcDbLine
 10
1299.117406821148
 20
2734.038868589275
 30
0.0
 11
1298.117406821148
 21
2734.038868589275
 31
0.0
  0
LINE
  5
7D2C
330
19
100
AcDbEntity
  8
1
100
AcDbLine
 10
788.6174068211476
 20
3096.538868589276
 30
0.0
 11
788.6174068211476
 21
2734.038868589276
 31
0.0
  0
LINE
  5
7D2D
330
19
100
AcDbEntity
  8
1
100
AcDbLine
 10
1128.617406821147
 20
3071.538868589276
 30
0.0
 11
1128.617406821147
 21
2734.038868589276
 31
0.0
  0
LINE
  5
7D2F
330
19
100
AcDbEntity
  8
1
100
AcDbLine
 10
941.1174068211485
 20
3071.538868589276
 30
0.0
 11
941.1174068211485
 21
2734.038868589276
 31
0.0
  0
LINE
  5
7D30
330
19
100
AcDbEntity
  8
1
100
AcDbLine
 10
976.1174068211502
 20
3071.538868589276
 30
0.0
 11
976.1174068211484
 21
2734.038868589276
 31
0.0
  0
DIMENSION
  5
7D31
330
19
100
AcDbEntity
  8
3
100
AcDbDimension
280
     0
  2
*D10
 10
586.9815640914658
 20
1672.162089954461
 30
0.0
 11
550.4548963379748
 21
1772.162089954461
 31
0.0
 70
   160
 71
     5
 42
-1.0
 73
     0
 74
     0
 75
     0
  3
IGA
100
AcDbAlignedDimension
 13
929.6174068211476
 23
1872.162089954461
 33
0.0
 14
707.9744267459282
 24
1672.162089954461
 34
0.0
 50
270.0
100
AcDbRotatedDimension
1001
ACAD
1000
DSTYLE
1002
{
1070
   288
1070
     1
1070
   172
1070
     1
1070
    40
1040
15.0
1070
   271
1070
     0
1070
   143
1040
0.039
1002
}
  0
DIMENSION
  5
7D32
330
19
100
AcDbEntity
  8
3
100
AcDbDimension
280
     0
  2
*D11
 10
781.6174068211475
 20
2007.721089774403
 30
0.0
 11
863.6767399559866
 21
2044.254516216928
 31
0.0
 70
   160
 71
     5
 42
-1.0
 73
     0
 74
     0
 75
     0
  3
IGA
100
AcDbAlignedDimension
 13
958.6174068211485
 23
1930.829824854751
 33
0.0
 14
781.6174068211475
 24
1658.16208995446
 34
0.0
100
AcDbRotatedDimension
1001
ACAD
1000
DSTYLE
1002
{
1070
   288
1070
     1
1070
   172
1070
     1
1070
    40
1040
15.0
1070
   271
1070
     0
1070
   143
1040
0.039
1002
}
  0
DIMENSION
  5
7D33
330
19
100
AcDbEntity
  8
3
100
AcDbDimension
280
     0
  2
*D12
 10
1458.617406821149
 20
2092.128178114277
 30
0.0
 11
1120.117406821148
 21
2129.628178114277
 31
0.0
 70
    32
 71
     5
 42
-1.0
 73
     0
 74
     0
 75
     0
  3
IGA
100
AcDbAlignedDimension
 13
781.6174068211475
 23
1658.16208995446
 33
0.0
 14
1458.617406821149
 24
1392.162089954461
 34
0.0
100
AcDbRotatedDimension
1001
ACAD
1000
DSTYLE
1002
{
1070
    40
1040
15.0
1070
   143
1040
0.039
1070
   172
1070
     1
1070
   271
1070
     0
1070
   279
1070
     0
1070
   288
1070
     1
1002
}
  0
DIMENSION
  5
7D35
330
19
100
AcDbEntity
  8
3
100
AcDbDimension
280
     0
  2
*D13
 10
2576.482052540932
 20
1545.139015055003
 30
0.0
 11
2543.42268360969
 21
1672.139015055003
 31
0.0
 70
   160
 71
     5
 42
-1.0
 73
     0
 74
     0
 75
     0
  3
IGA
100
AcDbAlignedDimension
 13
2476.779778314988
 23
1799.139015055003
 33
0.0
 14
2476.779778314988
 24
1545.139015055003
 34
0.0
 50
90.0
100
AcDbRotatedDimension
1001
ACAD
1000
DSTYLE
1002
{
1070
   288
1070
     1
1070
   172
1070
     1
1070
    40
1040
15.0
1070
     3
1000
φ<>
1070
   271
1070
     0
1070
   143
1040
0.039
1002
}
  0
LINE
  5
7D36
330
19
100
AcDbEntity
  8
1
100
AcDbLine
 10
2239.779778314987
 20
1872.139015055003
 30
0.0
 11
2475.779778314987
 21
1872.139015055003
 31
0.0
  0
LINE
  5
7D37
330
19
100
AcDbEntity
  8
1
100
AcDbLine
 10
2239.779778314986
 20
1847.162089954461
 30
0.0
 11
2475.779778314987
 21
1847.162089954461
 31
0.0
  0
LWPOLYLINE
  5
7D38
330
19
100
AcDbEntity
  8
1
100
AcDbPolyline
 90
        2
 70
     0
 43
0.0
 10
2267.779778314986
 20
1670.139015055003
 10
2267.779778314985
 20
1392.139015055003
  0
LWPOLYLINE
  5
7D3C
330
19
100
AcDbEntity
  8
1
100
AcDbPolyline
 90
        2
 70
     0
 43
0.0
 10
2239.779778314987
 20
1872.139015055003
 10
2239.779778314986
 20
1847.162089954461
  0
LINE
  5
7D40
330
19
100
AcDbEntity
  8
1
100
AcDbLine
 10
2451.779778314988
 20
1672.139015055003
 30
0.0
 11
2451.779778314988
 21
1828.139015055003
 31
0.0
  0
LINE
  5
7D41
330
19
100
AcDbEntity
  8
1
100
AcDbLine
 10
2476.779778314988
 20
1799.139015055003
 30
0.0
 11
2476.779778314988
 21
1545.139015055003
 31
0.0
  0
LINE
  5
7D43
330
19
100
AcDbEntity
  8
1
100
AcDbLine
 10
2447.779778314986
 20
1828.139015055003
 30
0.0
 11
2451.779778314988
 21
1828.139015055003
 31
0.0
  0
LINE
  5
7D44
330
19
100
AcDbEntity
  8
1
100
AcDbLine
 10
2452.779778314987
 20
1799.139015055003
 30
0.0
 11
2474.779778314987
 21
1799.139015055003
 31
0.0
  0
LWPOLYLINE
  5
7D45
330
19
100
AcDbEntity
  8
1
100
AcDbPolyline
 90
        9
 70
     1
 43
0.0
 10
2451.779778314988
 20
1799.139015055003
 10
2451.779778314988
 20
1824.139015055003
 10
2452.779778314987
 20
1824.139015055003
 42
-0.4142135623730951
 10
2454.779778314987
 20
1822.139015055003
 10
2454.779778314987
 20
1806.139015055003
 42
0.4142135623730951
 10
2458.779778314987
 20
1802.139015055004
 10
2474.779778314987
 20
1802.139015055004
 42
-0.4142135623730951
 10
2476.779778314988
 20
1800.139015055003
 10
2476.779778314988
 20
1799.139015055003
  0
LWPOLYLINE
  5
7D50
330
19
100
AcDbEntity
  8
1
100
AcDbPolyline
 90
        2
 70
     0
 43
0.0
 10
2267.779778314988
 20
1847.162089954461
 10
2267.779778314986
 20
1670.139015055003
  0
LINE
  5
7D58
330
19
100
AcDbEntity
  8
1
100
AcDbLine
 10
781.6174068211485
 20
3276.538868589277
 30
0.0
 11
781.6174068211475
 21
3096.538868589276
 31
0.0
  0
LINE
  5
7D59
330
19
100
AcDbEntity
  8
1
100
AcDbLine
 10
1196.617406821148
 20
3276.538868589276
 30
0.0
 11
1196.617406821147
 21
3096.538868589276
 31
0.0
  0
LINE
  5
7D5A
330
19
100
AcDbEntity
  8
1
100
AcDbLine
 10
956.6174068211484
 20
3276.538868589277
 30
0.0
 11
956.6174068211475
 21
3096.538868589276
 31
0.0
  0
LINE
  5
7D5B
330
19
100
AcDbEntity
  8
1
100
AcDbLine
 10
931.6174068211493
 20
3301.538868589277
 30
0.0
 11
1221.617406821149
 21
3301.538868589276
 31
0.0
  0
LINE
  5
7D5C
330
19
100
AcDbEntity
  8
1
100
AcDbLine
 10
1221.617406821149
 20
3301.538868589276
 30
0.0
 11
1221.617406821147
 21
3071.538868589276
 31
0.0
  0
LINE
  5
7D5D
330
19
100
AcDbEntity
  8
1
100
AcDbLine
 10
931.6174068211475
 20
3071.538868589276
 30
0.0
 11
1221.617406821147
 21
3071.538868589276
 31
0.0
  0
LINE
  5
7D5E
330
19
100
AcDbEntity
  8
1
100
AcDbLine
 10
931.6174068211493
 20
3301.538868589276
 30
0.0
 11
931.6174068211475
 21
3071.538868589275
 31
0.0
  0
LINE
  5
7D5F
330
19
100
AcDbEntity
  8
1
100
AcDbLine
 10
956.6174068211484
 20
3276.538868589277
 30
0.0
 11
1196.617406821148
 21
3276.538868589276
 31
0.0
  0
LINE
  5
7D60
330
19
100
AcDbEntity
  8
1
100
AcDbLine
 10
956.6174068211475
 20
3096.538868589276
 30
0.0
 11
1196.617406821148
 21
3096.538868589276
 31
0.0
  0
LINE
  5
7D61
330
19
100
AcDbEntity
  8
1
100
AcDbLine
 10
956.6174068211484
 20
3276.538868589277
 30
0.0
 11
1196.617406821147
 21
3096.538868589276
 31
0.0
  0
LINE
  5
7D62
330
19
100
AcDbEntity
  8
1
100
AcDbLine
 10
1196.617406821148
 20
3276.538868589276
 30
0.0
 11
956.6174068211475
 21
3096.538868589276
 31
0.0
  0
LINE
  5
7D63
330
19
100
AcDbEntity
  8
1
100
AcDbLine
 10
1931.779778314985
 20
1424.162089954461
 30
0.0
 11
1931.779778314986
 21
1392.139015055003
 31
0.0
  0
LINE
  5
81F5
330
19
100
AcDbEntity
  8
4
100
AcDbLine
 10
2775.0
 20
750.0
 30
0.0
 11
2775.0
 21
450.0
 31
0.0
  0
LINE
  5
81F6
330
19
100
AcDbEntity
  8
4
100
AcDbLine
 10
1725.0
 20
750.0
 30
0.0
 11
1725.0
 21
450.0
 31
0.0
  0
LINE
  5
81F7
330
19
100
AcDbEntity
  8
4
100
AcDbLine
 10
975.0
 20
750.0
 30
0.0
 11
975.0
 21
450.0
 31
0.0
  0
LINE
  5
81FA
330
19
100
AcDbEntity
  8
4
100
AcDbLine
 10
975.0
 20
450.0
 30
0.0
 11
2775.0
 21
450.0
 31
0.0
  0
LINE
  5
81FB
330
19
100
AcDbEntity
  8
4
100
AcDbLine
 10
975.0
 20
600.0
 30
0.0
 11
2775.0
 21
600.0
 31
0.0
  0
TEXT
  5
81FC
330
19
100
AcDbEntity
  8
4
100
AcDbText
 10
1032.753121270352
 20
647.3145387999193
 30
0.0
 40
75.0
  1
機器名称
100
AcDbText
  0
TEXT
  5
81FD
330
19
100
AcDbEntity
  8
4
100
AcDbText
 10
1029.387159037196
 20
482.4677350980164
 30
0.0
 40
75.0
  1
機器型番
100
AcDbText
  0
TEXT
  5
81FE
330
19
100
AcDbEntity
  8
4
100
AcDbText
 10
1766.518118231497
 20
633.8576534363528
 30
0.0
 40
75.0
  1
ミツヤ多翼送風機
100
AcDbText
  0
TEXT
  5
81FF
330
19
100
AcDbEntity
  8
4
100
AcDbText
 10
1779.981743378221
 20
475.739376419915
 30
0.0
 40
75.0
  1
MF#1 1/2-1
100
AcDbText
  0
TEXT
  5
8201
330
19
100
AcDbEntity
  8
4
100
AcDbText
 10
1121.79892478152
 20
3575.143261998774
 30
0.0
 40
80.99999999999999
  1
床置防振ベット
100
AcDbText
  0
TEXT
  5
8202
330
19
100
AcDbEntity
  8
4
100
AcDbText
 10
474.2513899941696
 20
3800.821464298947
 30
0.0
 40
108.0
  1
遠心式片吸込片持多翼ファン
100
AcDbText
  0
LINE
  5
8203
330
19
100
AcDbEntity
  8
4
100
AcDbLine
 10
375.0
 20
3704.113131397207
 30
0.0
 11
2775.0
 21
3704.113131397207
 31
0.0
  0
LINE
  5
8204
330
19
100
AcDbEntity
  8
4
100
AcDbLine
 10
375.0
 20
4004.113131397207
 30
0.0
 11
2775.0
 21
4004.113131397207
 31
0.0
  0
LINE
  5
8205
330
19
100
AcDbEntity
  8
4
100
AcDbLine
 10
975.0
 20
750.0
 30
0.0
 11
2775.0
 21
750.0
 31
0.0
  0
LINE
  5
8206
330
19
100
AcDbEntity
  8
4
100
AcDbLine
 10
375.0
 20
4004.113131397207
 30
0.0
 11
375.0
 21
3704.113131397207
 31
0.0
  0
TEXT
  5
8207
330
19
100
AcDbEntity
  8
4
100
AcDbText
 10
468.010676417467
 20
3573.479216319515
 30
0.0
 40
80.99999999999999
  1
左回転上向
100
AcDbText
  0
TEXT
  5
8208
330
19
100
AcDbEntity
  8
4
100
AcDbText
 10
2203.454338873935
 20
4059.091622242963
 30
0.0
 40
84.00000000000002
  1
No.
100
AcDbText
  0
TEXT
  5
8209
330
19
100
AcDbEntity
  8
4
100
AcDbText
 10
1966.94409390002
 20
3575.143261998774
 30
0.0
 40
80.99999999999999
  1
縮尺：1/15
100
AcDbText
  0
LINE
  5
820A
330
19
100
AcDbEntity
  8
4
100
AcDbLine
 10
2775.0
 20
4004.113131397207
 30
0.0
 11
2775.0
 21
3704.113131397207
 31
0.0
  0
LINE
  5
820B
330
19
100
AcDbEntity
  8
4
100
AcDbLine
 10
3150.0
 20
4425.0
 30
0.0
 11
3150.0
 21
4425.0
 31
0.0
  0
LINE
  5
820C
330
19
100
AcDbEntity
  8
4
100
AcDbLine
 10
2160.926133539797
 20
4021.895374688102
 30
0.0
 11
2160.926133539797
 21
4179.978392324628
 31
0.0
  0
LINE
  5
820D
330
19
100
AcDbEntity
  8
4
100
AcDbLine
 10
2160.926133539797
 20
4179.978392324628
 30
0.0
 11
2775.0
 21
4179.978392324628
 31
0.0
  0
LINE
  5
820E
330
19
100
AcDbEntity
  8
4
100
AcDbLine
 10
2775.0
 20
4179.978392324628
 30
0.0
 11
2775.0
 21
4021.895374688102
 31
0.0
  0
LINE
  5
820F
330
19
100
AcDbEntity
  8
4
100
AcDbLine
 10
2775.0
 20
4021.895374688102
 30
0.0
 11
2160.926133539797
 21
4021.895374688102
 31
0.0
  0
LINE
  5
8210
330
19
100
AcDbEntity
  8
4
100
AcDbLine
 10
0.0
 20
0.0
 30
0.0
 11
0.0
 21
4425.0
 31
0.0
  0
LINE
  5
8211
330
19
100
AcDbEntity
  8
4
100
AcDbLine
 10
0.0
 20
4425.0
 30
0.0
 11
3150.0
 21
4425.0
 31
0.0
  0
LINE
  5
8212
330
19
100
AcDbEntity
  8
4
100
AcDbLine
 10
3150.0
 20
4425.0
 30
0.0
 11
3150.0
 21
0.0
 31
0.0
  0
LINE
  5
8213
330
19
100
AcDbEntity
  8
4
100
AcDbLine
 10
3150.0
 20
0.0
 30
0.0
 11
0.0
 21
0.0
 31
0.0
  0
LINE
  5
8348
330
19
100
AcDbEntity
  8
1
100
AcDbLine
 10
788.6174068211476
 20
3090.538868589284
 30
0.0
 11
931.6174068211475
 21
3090.538868589282
 31
0.0
  0
LINE
  5
8349
330
19
100
AcDbEntity
  8
1
100
AcDbLine
 10
1221.617406821148
 20
3090.538868589278
 30
0.0
 11
1418.617406821147
 21
3090.538868589276
 31
0.0
  0
LINE
  5
834A
330
19
100
AcDbEntity
  8
1
100
AcDbLine
 10
1221.617406821148
 20
3130.538868589278
 30
0.0
 11
1458.617406821149
 21
3130.538868589276
 31
0.0
  0
LINE
  5
8356
330
19
100
AcDbEntity
  8
1
100
AcDbLine
 10
798.6174068211485
 20
2725.538868589276
 30
0.0
 11
1418.617406821148
 21
2725.538868589275
 31
0.0
  0
DIMENSION
  5
83C7
330
19
100
AcDbEntity
  8
3
100
AcDbDimension
280
     0
  2
*D14
 10
958.6174068211485
 20
1128.064612000538
 30
0.0
 11
858.6174068211485
 21
1165.564612000538
 31
0.0
 70
    32
 71
     5
 42
200.0
 73
     0
 74
     0
 75
     0
  3
IGA
100
AcDbAlignedDimension
 13
758.6174068211485
 23
1242.16208995446
 33
0.0
 14
958.6174068211485
 24
1242.16208995446
 34
0.0
100
AcDbRotatedDimension
1001
ACAD
1000
DSTYLE
1002
{
1070
    40
1040
15.0
1070
   143
1040
0.039
1070
   172
1070
     1
1070
   271
1070
     0
1070
   279
1070
     0
1002
}
  0
DIMENSION
  5
83D4
330
19
100
AcDbEntity
  8
3
100
AcDbDimension
280
     0
  2
*D15
 10
1458.617406821149
 20
1128.064612000538
 30
0.0
 11
1208.617406821149
 21
1165.564612000538
 31
0.0
 70
    32
 71
     5
 42
500.0000000000008
 73
     0
 74
     0
 75
     0
  3
IGA
100
AcDbAlignedDimension
 13
958.6174068211485
 23
1242.16208995446
 33
0.0
 14
1458.617406821149
 24
1242.16208995446
 34
0.0
100
AcDbRotatedDimension
1001
ACAD
1000
DSTYLE
1002
{
1070
    40
1040
15.0
1070
   143
1040
0.039
1070
   172
1070
     1
1070
   271
1070
     0
1070
   279
1070
     0
1002
}
  0
LINE
  5
8404
330
19
100
AcDbEntity
  8
1
100
AcDbLine
 10
1856.779778314985
 20
1282.139015055003
 30
0.0
 11
2301.779778314986
 21
1282.139015055003
 31
0.0
  0
LINE
  5
8405
330
19
100
AcDbEntity
  8
1
100
AcDbLine
 10
2301.779778314986
 20
1242.139015055003
 30
0.0
 11
2301.779778314986
 21
1282.139015055003
 31
0.0
  0
LINE
  5
8406
330
19
100
AcDbEntity
  8
1
100
AcDbLine
 10
1856.779778314986
 20
1242.139015055003
 30
0.0
 11
2301.779778314986
 21
1242.139015055003
 31
0.0
  0
LINE
  5
8407
330
19
100
AcDbEntity
  8
1
100
AcDbLine
 10
1856.779778314986
 20
1242.139015055003
 30
0.0
 11
1856.779778314985
 21
1282.139015055003
 31
0.0
  0
LINE
  5
8408
330
19
100
AcDbEntity
  8
1
100
AcDbLine
 10
1458.617406821149
 20
1242.162089954461
 30
0.0
 11
758.6174068211485
 21
1242.16208995446
 31
0.0
  0
LINE
  5
8409
330
19
100
AcDbEntity
  8
1
100
AcDbLine
 10
1458.617406821149
 20
1282.162089954461
 30
0.0
 11
1458.617406821149
 21
1242.16208995446
 31
0.0
  0
LINE
  5
840A
330
19
100
AcDbEntity
  8
1
100
AcDbLine
 10
1458.617406821149
 20
1282.162089954461
 30
0.0
 11
758.6174068211485
 21
1282.162089954461
 31
0.0
  0
LINE
  5
840B
330
19
100
AcDbEntity
  8
1
100
AcDbLine
 10
758.6174068211485
 20
1282.162089954461
 30
0.0
 11
758.6174068211485
 21
1242.16208995446
 31
0.0
  0
DIMENSION
  5
8418
330
19
100
AcDbEntity
  8
3
100
AcDbDimension
280
     0
  2
*D16
 10
2301.779778314986
 20
1129.714858817831
 30
0.0
 11
2079.279778314986
 21
1167.214858817831
 31
0.0
 70
    32
 71
     5
 42
445.0
 73
     0
 74
     0
 75
     0
  3
IGA
100
AcDbAlignedDimension
 13
1856.779778314986
 23
1242.139015055003
 33
0.0
 14
2301.779778314986
 24
1242.139015055003
 34
0.0
100
AcDbRotatedDimension
1001
ACAD
1000
DSTYLE
1002
{
1070
    40
1040
15.0
1070
   143
1040
0.039
1070
   172
1070
     1
1070
   271
1070
     0
1070
   279
1070
     0
1002
}
  0
DIMENSION
  5
8427
330
19
100
AcDbEntity
  8
3
100
AcDbDimension
280
     0
  2
*D17
 10
2357.779778314987
 20
1129.714858817831
 30
0.0
 11
2468.13692117213
 21
1167.214858817831
 31
0.0
 70
    32
 71
     5
 42
56.00000000000045
 73
     0
 74
     0
 75
     0
  3
IGA
100
AcDbAlignedDimension
 13
2301.779778314986
 23
1242.139015055003
 33
0.0
 14
2357.779778314987
 24
1242.139015055003
 34
0.0
100
AcDbRotatedDimension
1001
ACAD
1000
DSTYLE
1002
{
1070
    40
1040
15.0
1070
   143
1040
0.039
1070
   172
1070
     1
1070
   271
1070
     0
1070
   279
1070
     0
1002
}
  0
DIMENSION
  5
8436
330
19
100
AcDbEntity
  8
3
100
AcDbDimension
280
     0
  2
*D18
 10
585.420434664391
 20
1242.16208995446
 30
0.0
 11
547.9204346643909
 21
1130.733518525889
 31
0.0
 70
    32
 71
     5
 42
40.00000000000045
 73
     0
 74
     0
 75
     0
  3
IGA
100
AcDbAlignedDimension
 13
758.6174068211485
 23
1282.162089954461
 33
0.0
 14
758.6174068211485
 24
1242.16208995446
 34
0.0
 50
90.0
100
AcDbRotatedDimension
1001
ACAD
1000
DSTYLE
1002
{
1070
    40
1040
15.0
1070
   143
1040
0.039
1070
   172
1070
     1
1070
   271
1070
     0
1070
   279
1070
     0
1070
   343
1005
7AAA
1002
}
  0
DIMENSION
  5
8463
330
19
100
AcDbEntity
  8
3
100
AcDbDimension
280
     0
  2
*D19
 10
585.824814608719
 20
1352.16208995446
 30
0.0
 11
540.5736425298164
 21
1325.558504917368
 31
0.0
 70
   160
 71
     5
 42
69.99999999999954
 73
     0
 74
     0
 75
     0
  3
IGA
100
AcDbAlignedDimension
 13
758.6174068211485
 23
1282.162089954461
 33
0.0
 14
758.6174068211485
 24
1352.16208995446
 34
0.0
 50
90.0
100
AcDbRotatedDimension
1001
ACAD
1000
DSTYLE
1002
{
1070
     3
1000
(<>)
1070
    40
1040
15.0
1070
   143
1040
0.039
1070
   172
1070
     1
1070
   271
1070
     0
1070
   343
1005
7AAA
1002
}
  0
DIMENSION
  5
8470
330
19
100
AcDbEntity
  8
3
100
AcDbDimension
280
     0
  2
*D20
 10
437.2807321982054
 20
1242.16208995446
 30
0.0
 11
387.995017912491
 21
1557.162089954461
 31
0.0
 70
    32
 71
     5
 42
630.0000000000009
 73
     0
 74
     0
 75
     0
  3
IGA
100
AcDbAlignedDimension
 13
929.6174068211476
 23
1872.162089954461
 33
0.0
 14
758.6174068211485
 24
1242.16208995446
 34
0.0
 50
90.0
100
AcDbRotatedDimension
1001
ACAD
1000
DSTYLE
1002
{
1070
   172
1070
     1
1070
    40
1040
15.0
1070
     3
1000
(<>)
1070
   271
1070
     0
1070
   143
1040
0.039
1002
}
  0
ENDSEC
  0
SECTION
  2
OBJECTS
  0
DICTIONARY
  5
C
330
0
100
AcDbDictionary
281
     1
  3
ACAD_CIP_PREVIOUS_PRODUCT_INFO
350
84D2
  3
ACAD_COLOR
350
84B5
  3
ACAD_DETAILVIEWSTYLE
350
84CE
  3
ACAD_GROUP
350
D
  3
ACAD_LAYOUT
350
8475
  3
ACAD_MATERIAL
350
8483
  3
ACAD_MLEADERSTYLE
350
84CA
  3
ACAD_MLINESTYLE
350
E
  3
ACAD_PLOTSETTINGS
350
8476
  3
ACAD_PLOTSTYLENAME
350
8473
  3
ACAD_SCALELIST
350
84B8
  3
ACAD_SECTIONVIEWSTYLE
350
84CC
  3
ACAD_TABLESTYLE
350
84B6
  3
ACAD_VISUALSTYLE
350
849C
  3
ACDB_RECOMPOSE_DATA
350
8594
  3
AcDbVariableDictionary
350
8555
  0
DICTIONARY
  5
8528
330
2
100
AcDbDictionary
280
     1
281
     1
  3
ACAD_LAYERSTATES
360
8529
  0
DICTIONARY
  5
851B
330
F
100
AcDbDictionary
280
     1
281
     1
  3
ADSK_XREC_LAYER_RECONCILED
360
851C
  0
DICTIONARY
  5
851D
330
31
100
AcDbDictionary
280
     1
281
     1
  3
ADSK_XREC_LAYER_RECONCILED
360
851E
  0
DICTIONARY
  5
851F
330
76D0
100
AcDbDictionary
280
     1
281
     1
  3
ADSK_XREC_LAYER_RECONCILED
360
8520
  0
DICTIONARY
  5
8521
330
76D1
100
AcDbDictionary
280
     1
281
     1
  3
ADSK_XREC_LAYER_RECONCILED
360
8522
  0
DICTIONARY
  5
8523
330
76D2
100
AcDbDictionary
280
     1
281
     1
  3
ADSK_XREC_LAYER_RECONCILED
360
8524
  0
DICTIONARY
  5
84D4
330
19
100
AcDbDictionary
280
     1
281
     1
  3
ACAD_SORTENTS
360
84D5
  0
XRECORD
  5
84D2
102
{ACAD_REACTORS
330
C
102
}
330
C
100
AcDbXrecord
280
     1
300
ACDLT
300
2015
300
INVLTS_F_S
  0
DICTIONARY
  5
84B5
102
{ACAD_REACTORS
330
C
102
}
330
C
100
AcDbDictionary
281
     1
  0
DICTIONARY
  5
84CE
102
{ACAD_REACTORS
330
C
102
}
330
C
100
AcDbDictionary
281
     1
  3
Metric50
350
84CF
  0
DICTIONARY
  5
D
102
{ACAD_REACTORS
330
C
102
}
330
C
100
AcDbDictionary
281
     1
  0
DICTIONARY
  5
8475
102
{ACAD_REACTORS
330
C
102
}
330
C
100
AcDbDictionary
281
     1
  3
Model
350
8477
  3
ﾚｲｱｳﾄ1
350
8478
  0
DICTIONARY
  5
8483
102
{ACAD_REACTORS
330
C
102
}
330
C
100
AcDbDictionary
281
     1
  3
ByBlock
350
848C
  3
ByLayer
350
8484
  3
Global
350
8494
  0
DICTIONARY
  5
84CA
102
{ACAD_REACTORS
330
C
102
}
330
C
100
AcDbDictionary
281
     1
  3
Standard
350
84CB
  0
DICTIONARY
  5
E
102
{ACAD_REACTORS
330
C
102
}
330
C
100
AcDbDictionary
281
     1
  3
STANDARD
350
1C
  0
DICTIONARY
  5
8476
102
{ACAD_REACTORS
330
C
102
}
330
C
100
AcDbDictionary
281
     1
  0
ACDBDICTIONARYWDFLT
  5
8473
102
{ACAD_REACTORS
330
C
102
}
330
C
100
AcDbDictionary
281
     1
  3
Normal
350
8474
100
AcDbDictionaryWithDefault
340
8474
  0
DICTIONARY
  5
84B8
102
{ACAD_REACTORS
330
C
102
}
330
C
100
AcDbDictionary
281
     1
  3
A0
350
84B9
  3
A1
350
84BA
  3
A2
350
84BB
  3
A3
350
84BC
  3
A4
350
84BD
  3
A5
350
84BE
  3
A6
350
84BF
  3
A7
350
84C0
  3
A8
350
84C1
  3
A9
350
84C2
  3
B0
350
84C3
  3
B1
350
84C4
  3
B2
350
84C5
  3
B3
350
84C6
  3
B4
350
84C7
  3
B5
350
84C8
  3
B6
350
84C9
  0
DICTIONARY
  5
84CC
102
{ACAD_REACTORS
330
C
102
}
330
C
100
AcDbDictionary
281
     1
  3
Metric50
350
84CD
  0
DICTIONARY
  5
84B6
102
{ACAD_REACTORS
330
C
102
}
330
C
100
AcDbDictionary
281
     1
  3
Standard
350
84B7
  0
DICTIONARY
  5
849C
102
{ACAD_REACTORS
330
C
102
}
330
C
100
AcDbDictionary
281
     1
  3
2dWireframe
350
84A2
  3
Basic
350
84A1
  3
Brighten
350
84A8
  3
ColorChange
350
84AC
  3
Conceptual
350
84A5
  3
Dim
350
84A7
  3
EdgeColorOff
350
84B4
  3
Facepattern
350
84AB
  3
Flat
350
849D
  3
FlatWithEdges
350
849E
  3
Gouraud
350
849F
  3
GouraudWithEdges
350
84A0
  3
Hidden
350
84A4
  3
JitterOff
350
84B2
  3
Linepattern
350
84AA
  3
OverhangOff
350
84B3
  3
Realistic
350
84A6
  3
Shaded
350
84B1
  3
Shaded with edges
350
84B0
  3
Shades of Gray
350
84AD
  3
Sketchy
350
84AE
  3
Thicken
350
84A9
  3
Wireframe
350
84A3
  3
X-Ray
350
84AF
  0
XRECORD
  5
8594
102
{ACAD_REACTORS
330
C
102
}
330
C
100
AcDbXrecord
280
     1
 90
        1
330
84B7
330
84CD
330
84CF
  0
DICTIONARY
  5
8555
102
{ACAD_REACTORS
330
C
102
}
330
C
100
AcDbDictionary
281
     1
  3
CANNOSCALE
350
855B
  3
CMLEADERSTYLE
350
8557
  3
CTABLESTYLE
350
8556
  3
CVIEWDETAILSTYLE
350
8558
  3
CVIEWSECTIONSTYLE
350
8559
  3
LAYEREVAL
350
855D
  3
LAYERNOTIFY
350
855E
  3
LIGHTINGUNITS
350
855C
  3
MSLTSCALE
350
855A
  0
DICTIONARY
  5
8529
102
{ACAD_REACTORS
330
8528
102
}
330
8528
100
AcDbDictionary
281
     1
  0
XRECORD
  5
851C
102
{ACAD_REACTORS
330
851B
102
}
330
851B
100
AcDbXrecord
280
     1
290
     1
  0
XRECORD
  5
851E
102
{ACAD_REACTORS
330
851D
102
}
330
851D
100
AcDbXrecord
280
     1
290
     1
  0
XRECORD
  5
8520
102
{ACAD_REACTORS
330
851F
102
}
330
851F
100
AcDbXrecord
280
     1
290
     1
  0
XRECORD
  5
8522
102
{ACAD_REACTORS
330
8521
102
}
330
8521
100
AcDbXrecord
280
     1
290
     1
  0
XRECORD
  5
8524
102
{ACAD_REACTORS
330
8523
102
}
330
8523
100
AcDbXrecord
280
     1
290
     1
  0
SORTENTSTABLE
  5
84D5
102
{ACAD_REACTORS
330
84D4
102
}
330
84D4
100
AcDbSortentsTable
330
19
331
7D0E
  5
7D0F
331
820D
  5
820E
331
7C94
  5
7C95
331
7D0A
  5
7D0B
331
7D06
  5
7D07
331
7D45
  5
7D50
331
7C90
  5
7C91
331
8209
  5
820A
331
7D02
  5
7D03
331
7D41
  5
7D43
331
7C8C
  5
7C8D
331
7CCB
  5
7CCC
331
7C88
  5
7C89
331
7C55
  5
7C55
331
8205
  5
8206
331
8201
  5
8202
331
7CC7
  5
7CC8
331
7CFE
  5
7CFF
331
81FD
  5
81FE
331
840A
  5
840B
331
7C84
  5
7C85
331
7CFA
  5
7CFB
331
7D35
  5
7D36
331
7C80
  5
7C81
331
7CBF
  5
7CC7
331
7CF6
  5
7CF7
331
7CF2
  5
7CF3
331
7C4D
  5
7C4D
331
7D31
  5
7D32
331
7C49
  5
7C49
331
7C78
  5
7C78
331
7C45
  5
7C45
331
7C41
  5
7C41
331
8406
  5
8407
331
81F5
  5
81F6
331
7CEE
  5
7CEF
331
7D2D
  5
7D2F
331
7C74
  5
7C74
331
7CEA
  5
7CEB
331
7D29
  5
7D2A
331
7D25
  5
7D26
331
7C70
  5
7C70
331
7CAF
  5
7CB0
331
7CE6
  5
7CE7
331
7CE2
  5
7CE3
331
7D21
  5
7D22
331
7C3D
  5
7C3D
331
7C6C
  5
7C6C
331
7D60
  5
7D61
331
7C39
  5
7C39
331
7C68
  5
7C68
331
7D5C
  5
7D5D
331
7CDE
  5
7CDF
331
7D1D
  5
7D1E
331
7D58
  5
7D59
331
7C64
  5
7C64
331
7CA3
  5
7CA4
331
7CDA
  5
7CDB
331
7D19
  5
7D1A
331
7D15
  5
7D16
331
7CD6
  5
7CD7
331
8210
  5
8211
331
7CD2
  5
7CD3
331
7D11
  5
7D12
331
7C5C
  5
7C5C
331
7C9B
  5
7C9C
331
7D50
  5
7D58
331
7C58
  5
7C58
331
7D0D
  5
7D0E
331
820C
  5
820D
331
7C93
  5
7C94
331
7D09
  5
7D0A
331
7D05
  5
7D06
331
7D44
  5
7D45
331
7C8F
  5
7C90
331
7CCE
  5
7CD2
331
8208
  5
8209
331
7CCA
  5
7CCB
331
7D01
  5
7D02
331
7D40
  5
7D41
331
7C8B
  5
7C8C
331
7C54
  5
7C54
331
7C50
  5
7C50
331
8204
  5
8205
331
8470
  5
84D3
331
7CFD
  5
7CFE
331
7D3C
  5
7D40
331
7C87
  5
7C88
331
7D38
  5
7D3C
331
81FC
  5
81FD
331
8409
  5
840A
331
7C83
  5
7C84
331
7CF9
  5
7CFA
331
7CF5
  5
7CF6
331
7C7F
  5
7C80
331
7CBE
  5
7CBF
331
7CF1
  5
7CF2
331
7D30
  5
7D31
331
7C4C
  5
7C4C
331
7C7B
  5
7C7B
331
7C48
  5
7C48
331
7C40
  5
7C40
331
8356
  5
83C7
331
8405
  5
8406
331
7CB6
  5
7CBE
331
7CED
  5
7CEE
331
7D2C
  5
7D2D
331
7C77
  5
7C77
331
834A
  5
8356
331
7C73
  5
7C73
331
7CB2
  5
7CB4
331
7D24
  5
7D25
331
7D63
  5
81F5
331
7C6F
  5
7C6F
331
7CE5
  5
7CE6
331
7CE1
  5
7CE2
331
7D20
  5
7D21
331
7C3C
  5
7C3C
331
7C6B
  5
7C6B
331
7D5F
  5
7D60
331
7D5B
  5
7D5C
331
7CDD
  5
7CDE
331
7D1C
  5
7D1D
331
7C67
  5
7C67
331
8213
  5
8348
331
7C63
  5
7C63
331
7CD9
  5
7CDA
331
7D18
  5
7D19
331
7D14
  5
7D15
331
7C9E
  5
7CA0
331
7CD5
  5
7CD6
331
7D10
  5
7D11
331
7C5B
  5
7C5B
331
7C9A
  5
7C9B
331
820F
  5
8210
331
7D0C
  5
7D0D
331
820B
  5
820C
331
8418
  5
8427
331
7C92
  5
7C93
331
7D08
  5
7D09
331
7D04
  5
7D05
331
7D43
  5
7D44
331
7C8E
  5
7C8F
331
7CCD
  5
7CCE
331
7D00
  5
7D01
331
7C8A
  5
7C8B
331
7C57
  5
7C57
331
8207
  5
8208
331
8203
  5
8204
331
81FF
  5
8201
331
7C86
  5
7C87
331
7CFC
  5
7CFD
331
7D37
  5
7D38
331
81FB
  5
81FC
331
8408
  5
8409
331
7C82
  5
7C83
331
7CF8
  5
7CF9
331
7CF4
  5
7CF5
331
7D33
  5
7D35
331
7C4F
  5
7C4F
331
7C7E
  5
7C7E
331
7CF0
  5
7CF1
331
7C4B
  5
7C4B
331
7C7A
  5
7C7A
331
7C47
  5
7C47
331
8463
  5
8470
331
81F7
  5
81FA
331
8404
  5
8405
331
7D2F
  5
7D30
331
83D4
  5
8404
331
7CB5
  5
7CB6
331
7CEC
  5
7CED
331
7D2B
  5
7D2C
331
7D27
  5
7D29
331
7C72
  5
7C72
331
8349
  5
834A
331
7CE4
  5
7CE5
331
7D23
  5
7D24
331
7C3F
  5
7C3F
331
7C6E
  5
7C6E
331
7D62
  5
7D63
331
7CE0
  5
7CE1
331
7C3B
  5
7C3B
331
7C6A
  5
7C6A
331
7D5E
  5
7D5F
331
7D1F
  5
7D20
331
7D5A
  5
7D5B
331
7CDC
  5
7CDD
331
7D1B
  5
7D1C
331
7C66
  5
7C66
331
7D17
  5
7D18
331
7C62
  5
7C62
331
7CA1
  5
7CA3
331
7CD8
  5
7CD9
331
8212
  5
8213
331
7D13
  5
7D14
331
7C5E
  5
7C5E
331
7C9D
  5
7C9E
331
7CD4
  5
7CD5
331
7C5A
  5
7C5A
331
8427
  5
8436
331
7D0F
  5
7D10
331
820E
  5
820F
331
7C95
  5
7C9A
331
7D0B
  5
7D0C
331
820A
  5
820B
331
7C91
  5
7C92
331
7D07
  5
7D08
331
7D03
  5
7D04
331
7C8D
  5
7C8E
331
7CCC
  5
7CCD
331
7CC8
  5
7CCA
331
7C89
  5
7C8A
331
7C56
  5
7C56
331
8206
  5
8207
331
8202
  5
8203
331
7CFF
  5
7D00
331
81FE
  5
81FF
331
840B
  5
8418
331
7C85
  5
7C86
331
7CFB
  5
7CFC
331
7D36
  5
7D37
331
81FA
  5
81FB
331
7C81
  5
7C82
331
7CF7
  5
7CF8
331
7CF3
  5
7CF4
331
7C4E
  5
7C4E
331
7D32
  5
7D33
331
7C4A
  5
7C4A
331
7C79
  5
7C79
331
7C46
  5
7C46
331
7C42
  5
7C42
331
8407
  5
8408
331
81F6
  5
81F7
331
7CEF
  5
7CF0
331
7C75
  5
7C75
331
7CB4
  5
7CB5
331
7CEB
  5
7CEC
331
7D2A
  5
7D2B
331
7D26
  5
7D27
331
8348
  5
8349
331
7C71
  5
7C71
331
7CB0
  5
7CB2
331
7CE7
  5
7CEA
331
7CE3
  5
7CE4
331
7D22
  5
7D23
331
7C3E
  5
7C3E
331
7C6D
  5
7C6D
331
7D61
  5
7D62
331
7C3A
  5
7C3A
331
7C69
  5
7C69
331
8436
  5
8463
331
83C7
  5
83D4
331
7D5D
  5
7D5E
331
7CDF
  5
7CE0
331
7D1E
  5
7D1F
331
7D59
  5
7D5A
331
7CA4
  5
7CAF
331
7CDB
  5
7CDC
331
7D1A
  5
7D1B
331
7C65
  5
7C65
331
7D16
  5
7D17
331
7C61
  5
7C61
331
7CA0
  5
7CA1
331
7CD7
  5
7CD8
331
8211
  5
8212
331
7CD3
  5
7CD4
331
7D12
  5
7D13
331
7C5D
  5
7C5D
331
7C9C
  5
7C9D
331
7C59
  5
7C59
  0
ACDBDETAILVIEWSTYLE
  5
84CF
102
{ACAD_XDICTIONARY
360
8552
102
}
102
{ACAD_REACTORS
330
84CE
102
}
330
84CE
100
AcDbModelDocViewStyle
 70
     0
  3
Metric50
290
     0
100
AcDbDetailViewStyle
 70
     0
 71
     0
 90
        3
 71
     1
340
10
 62
   256
 40
5.0
340
0
 62
   256
 40
5.0
300

 40
0.0
280
     1
 71
     2
340
15
 90
       25
 62
   256
 71
     3
340
10
 62
   256
 40
5.0
 90
        0
 40
15.0
 90
        1
300
%<\AcVar ViewDetailId>% (%<\AcVar ViewScale \f "%sn">%)
 71
     4
340
15
 90
       25
 62
   256
340
15
 90
       25
 62
   256
280
     0
  0
LAYOUT
  5
8477
102
{ACAD_REACTORS
330
8475
102
}
330
8475
100
AcDbPlotSettings
  1

  2
EPSON LP-9300
  4

  6

 40
0.0
 41
0.0
 42
0.0
 43
0.0
 44
0.0
 45
0.0
 46
0.0
 47
0.0
 48
0.0
 49
0.0
140
0.0
141
0.0
142
1.0
143
1.0
 70
  1712
 72
     0
 73
     0
 74
     0
  7

 75
     0
147
1.0
 76
     0
 77
     2
 78
   300
148
0.0
149
0.0
100
AcDbLayout
  1
Model
 70
     1
 71
     0
 10
0.0
 20
0.0
 11
12.0
 21
9.0
 12
0.0
 22
0.0
 32
0.0
 14
0.0
 24
0.0
 34
0.0
 15
0.0
 25
0.0
 35
0.0
146
0.0
 13
0.0
 23
0.0
 33
0.0
 16
1.0
 26
0.0
 36
0.0
 17
0.0
 27
1.0
 37
0.0
 76
     0
330
19
331
8481
  0
LAYOUT
  5
8478
102
{ACAD_REACTORS
330
8475
102
}
330
8475
100
AcDbPlotSettings
  1

  2
EPSON LP-9300
  4

  6

 40
0.0
 41
0.0
 42
0.0
 43
0.0
 44
0.0
 45
0.0
 46
0.0
 47
0.0
 48
0.0
 49
0.0
140
0.0
141
0.0
142
1.0
143
1.0
 70
   688
 72
     0
 73
     0
 74
     5
  7

 75
    16
147
1.0
 76
     0
 77
     2
 78
   300
148
0.0
149
0.0
100
AcDbLayout
  1
ﾚｲｱｳﾄ1
 70
     1
 71
     1
 10
0.0
 20
0.0
 11
12.0
 21
9.0
 12
0.0
 22
0.0
 32
0.0
 14
1.000000000000000E+20
 24
1.000000000000000E+20
 34
1.000000000000000E+20
 15
-1.000000000000000E+20
 25
-1.000000000000000E+20
 35
-1.000000000000000E+20
146
0.0
 13
0.0
 23
0.0
 33
0.0
 16
1.0
 26
0.0
 36
0.0
 17
0.0
 27
1.0
 37
0.0
 76
     0
330
16
  0
MATERIAL
  5
848C
102
{ACAD_XDICTIONARY
360
848D
102
}
102
{ACAD_REACTORS
330
8483
102
}
330
8483
100
AcDbMaterial
  1
ByBlock
 72
     0
 43
0.0208333333333333
 43
0.0
 43
0.0
 43
0.0
 43
0.0
 43
0.0208333333333333
 43
0.0
 43
0.0
 43
0.0
 43
0.0
 43
1.0
 43
0.0
 43
0.0
 43
0.0
 43
0.0
 43
1.0
 77
     0
 47
0.0208333333333333
 47
0.0
 47
0.0
 47
0.0
 47
0.0
 47
0.0208333333333333
 47
0.0
 47
0.0
 47
0.0
 47
0.0
 47
1.0
 47
0.0
 47
0.0
 47
0.0
 47
0.0
 47
1.0
171
     0
 49
0.0208333333333333
 49
0.0
 49
0.0
 49
0.0
 49
0.0
 49
0.0208333333333333
 49
0.0
 49
0.0
 49
0.0
 49
0.0
 49
1.0
 49
0.0
 49
0.0
 49
0.0
 49
0.0
 49
1.0
175
     0
142
0.0208333333333333
142
0.0
142
0.0
142
0.0
142
0.0
142
0.0208333333333333
142
0.0
142
0.0
142
0.0
142
0.0
142
1.0
142
0.0
142
0.0
142
0.0
142
0.0
142
1.0
179
     0
144
0.0208333333333333
144
0.0
144
0.0
144
0.0
144
0.0
144
0.0208333333333333
144
0.0
144
0.0
144
0.0
144
0.0
144
1.0
144
0.0
144
0.0
144
0.0
144
0.0
144
1.0
147
0.0208333333333333
147
0.0
147
0.0
147
0.0
147
0.0
147
0.0208333333333333
147
0.0
147
0.0
147
0.0
147
0.0
147
1.0
147
0.0
147
0.0
147
0.0
147
0.0
147
1.0
  0
MATERIAL
  5
8484
102
{ACAD_XDICTIONARY
360
8485
102
}
102
{ACAD_REACTORS
330
8483
102
}
330
8483
100
AcDbMaterial
  1
ByLayer
 72
     0
 43
0.0208333333333333
 43
0.0
 43
0.0
 43
0.0
 43
0.0
 43
0.0208333333333333
 43
0.0
 43
0.0
 43
0.0
 43
0.0
 43
1.0
 43
0.0
 43
0.0
 43
0.0
 43
0.0
 43
1.0
 77
     0
 47
0.0208333333333333
 47
0.0
 47
0.0
 47
0.0
 47
0.0
 47
0.0208333333333333
 47
0.0
 47
0.0
 47
0.0
 47
0.0
 47
1.0
 47
0.0
 47
0.0
 47
0.0
 47
0.0
 47
1.0
171
     0
 49
0.0208333333333333
 49
0.0
 49
0.0
 49
0.0
 49
0.0
 49
0.0208333333333333
 49
0.0
 49
0.0
 49
0.0
 49
0.0
 49
1.0
 49
0.0
 49
0.0
 49
0.0
 49
0.0
 49
1.0
175
     0
142
0.0208333333333333
142
0.0
142
0.0
142
0.0
142
0.0
142
0.0208333333333333
142
0.0
142
0.0
142
0.0
142
0.0
142
1.0
142
0.0
142
0.0
142
0.0
142
0.0
142
1.0
179
     0
144
0.0208333333333333
144
0.0
144
0.0
144
0.0
144
0.0
144
0.0208333333333333
144
0.0
144
0.0
144
0.0
144
0.0
144
1.0
144
0.0
144
0.0
144
0.0
144
0.0
144
1.0
147
0.0208333333333333
147
0.0
147
0.0
147
0.0
147
0.0
147
0.0208333333333333
147
0.0
147
0.0
147
0.0
147
0.0
147
1.0
147
0.0
147
0.0
147
0.0
147
0.0
147
1.0
  0
MATERIAL
  5
8494
102
{ACAD_XDICTIONARY
360
8495
102
}
102
{ACAD_REACTORS
330
8483
102
}
330
8483
100
AcDbMaterial
  1
Global
 72
     0
 43
0.0208333333333333
 43
0.0
 43
0.0
 43
0.0
 43
0.0
 43
0.0208333333333333
 43
0.0
 43
0.0
 43
0.0
 43
0.0
 43
1.0
 43
0.0
 43
0.0
 43
0.0
 43
0.0
 43
1.0
 77
     0
 47
0.0208333333333333
 47
0.0
 47
0.0
 47
0.0
 47
0.0
 47
0.0208333333333333
 47
0.0
 47
0.0
 47
0.0
 47
0.0
 47
1.0
 47
0.0
 47
0.0
 47
0.0
 47
0.0
 47
1.0
171
     0
 49
0.0208333333333333
 49
0.0
 49
0.0
 49
0.0
 49
0.0
 49
0.0208333333333333
 49
0.0
 49
0.0
 49
0.0
 49
0.0
 49
1.0
 49
0.0
 49
0.0
 49
0.0
 49
0.0
 49
1.0
175
     0
142
0.0208333333333333
142
0.0
142
0.0
142
0.0
142
0.0
142
0.0208333333333333
142
0.0
142
0.0
142
0.0
142
0.0
142
1.0
142
0.0
142
0.0
142
0.0
142
0.0
142
1.0
179
     0
144
0.0208333333333333
144
0.0
144
0.0
144
0.0
144
0.0
144
0.0208333333333333
144
0.0
144
0.0
144
0.0
144
0.0
144
1.0
144
0.0
144
0.0
144
0.0
144
0.0
144
1.0
147
0.0208333333333333
147
0.0
147
0.0
147
0.0
147
0.0
147
0.0208333333333333
147
0.0
147
0.0
147
0.0
147
0.0
147
1.0
147
0.0
147
0.0
147
0.0
147
0.0
147
1.0
  0
MLEADERSTYLE
  5
84CB
102
{ACAD_REACTORS
330
84CA
102
}
330
84CA
100
AcDbMLeaderStyle
179
     2
170
     2
171
     1
172
     0
 90
        2
 40
0.0
 41
0.0
173
     1
 91
-1056964608
340
13
 92
       -2
290
     1
 42
2.0
291
     1
 43
0.36
  3
Standard
 44
4.0
300

342
10
174
     1
178
     6
175
     1
176
     0
 93
-1056964608
 45
4.0
292
     0
297
     0
 46
4.0
 94
-1056964608
 47
1.0
 49
1.0
140
1.0
293
     1
141
0.0
294
     1
177
     0
142
1.0
295
     1
296
     0
143
0.125
271
     0
272
     9
273
     9
298
     1
  0
MLINESTYLE
  5
1C
102
{ACAD_REACTORS
330
E
102
}
330
E
100
AcDbMlineStyle
  2
STANDARD
 70
     0
  3

 62
     0
 51
90.0
 52
90.0
 71
     2
 49
0.5
 62
   256
  6
BYLAYER
 49
-0.5
 62
   256
  6
BYLAYER
  0
ACDBPLACEHOLDER
  5
8474
102
{ACAD_REACTORS
330
8473
102
}
330
8473
  0
SCALE
  5
84B9
102
{ACAD_REACTORS
330
84B8
102
}
330
84B8
100
AcDbScale
 70
     0
300
1:1
140
1.0
141
1.0
290
     1
  0
SCALE
  5
84BA
102
{ACAD_REACTORS
330
84B8
102
}
330
84B8
100
AcDbScale
 70
     0
300
1:2
140
1.0
141
2.0
290
     0
  0
SCALE
  5
84BB
102
{ACAD_REACTORS
330
84B8
102
}
330
84B8
100
AcDbScale
 70
     0
300
1:4
140
1.0
141
4.0
290
     0
  0
SCALE
  5
84BC
102
{ACAD_REACTORS
330
84B8
102
}
330
84B8
100
AcDbScale
 70
     0
300
1:5
140
1.0
141
5.0
290
     0
  0
SCALE
  5
84BD
102
{ACAD_REACTORS
330
84B8
102
}
330
84B8
100
AcDbScale
 70
     0
300
1:8
140
1.0
141
8.0
290
     0
  0
SCALE
  5
84BE
102
{ACAD_REACTORS
330
84B8
102
}
330
84B8
100
AcDbScale
 70
     0
300
1:10
140
1.0
141
10.0
290
     0
  0
SCALE
  5
84BF
102
{ACAD_REACTORS
330
84B8
102
}
330
84B8
100
AcDbScale
 70
     0
300
1:16
140
1.0
141
16.0
290
     0
  0
SCALE
  5
84C0
102
{ACAD_REACTORS
330
84B8
102
}
330
84B8
100
AcDbScale
 70
     0
300
1:20
140
1.0
141
20.0
290
     0
  0
SCALE
  5
84C1
102
{ACAD_REACTORS
330
84B8
102
}
330
84B8
100
AcDbScale
 70
     0
300
1:30
140
1.0
141
30.0
290
     0
  0
SCALE
  5
84C2
102
{ACAD_REACTORS
330
84B8
102
}
330
84B8
100
AcDbScale
 70
     0
300
1:40
140
1.0
141
40.0
290
     0
  0
SCALE
  5
84C3
102
{ACAD_REACTORS
330
84B8
102
}
330
84B8
100
AcDbScale
 70
     0
300
1:50
140
1.0
141
50.0
290
     0
  0
SCALE
  5
84C4
102
{ACAD_REACTORS
330
84B8
102
}
330
84B8
100
AcDbScale
 70
     0
300
1:100
140
1.0
141
100.0
290
     0
  0
SCALE
  5
84C5
102
{ACAD_REACTORS
330
84B8
102
}
330
84B8
100
AcDbScale
 70
     0
300
2:1
140
2.0
141
1.0
290
     0
  0
SCALE
  5
84C6
102
{ACAD_REACTORS
330
84B8
102
}
330
84B8
100
AcDbScale
 70
     0
300
4:1
140
4.0
141
1.0
290
     0
  0
SCALE
  5
84C7
102
{ACAD_REACTORS
330
84B8
102
}
330
84B8
100
AcDbScale
 70
     0
300
8:1
140
8.0
141
1.0
290
     0
  0
SCALE
  5
84C8
102
{ACAD_REACTORS
330
84B8
102
}
330
84B8
100
AcDbScale
 70
     0
300
10:1
140
10.0
141
1.0
290
     0
  0
SCALE
  5
84C9
102
{ACAD_REACTORS
330
84B8
102
}
330
84B8
100
AcDbScale
 70
     0
300
100:1
140
100.0
141
1.0
290
     0
  0
ACDBSECTIONVIEWSTYLE
  5
84CD
102
{ACAD_XDICTIONARY
360
8550
102
}
102
{ACAD_REACTORS
330
84CC
102
}
330
84CC
100
AcDbModelDocViewStyle
 70
     0
  3
Metric50
290
     0
100
AcDbSectionViewStyle
 70
     0
 71
     0
 90
      102
 71
     1
340
10
 62
   256
 40
5.0
340
0
340
0
 62
   256
 40
5.0
300
I, O, Q, S, X, Z
 40
10.0
 90
        0
 40
2.5
 90
        0
 71
     2
340
15
 90
       25
 62
   256
340
15
 90
       50
 62
   256
 40
5.0
 40
2.5
 40
5.0
 71
     3
340
10
 62
   256
 40
5.0
 90
        0
 40
15.0
 90
        1
300
%<\AcVar ViewSectionStartId>%-%<\AcVar ViewSectionEndId>% (%<\AcVar ViewScale \f "%sn">%)
 71
     4
 62
   256
 62
   257
300
ANSI31
 40
1.0
 90
        0
290
     0
290
     0
 90
        6
 40
0.0
 40
1.570796326794896
 40
0.2617993877991494
 40
1.308996938995747
 40
-0.2617993877991494
 40
1.832595714594046
  0
TABLESTYLE
  5
84B7
102
{ACAD_XDICTIONARY
360
8590
102
}
102
{ACAD_REACTORS
330
84B6
102
}
330
84B6
100
AcDbTableStyle
280
     0
  3
Standard
 70
     0
 71
     0
 40
1.5
 41
1.5
280
     0
281
     0
  7
STANDARD
140
4.5
170
     2
 62
     0
 63
     7
283
     0
 90
      512
 91
        0
  1

274
    -2
284
     1
 64
     0
275
    -2
285
     1
 65
     0
276
    -2
286
     1
 66
     0
277
    -2
287
     1
 67
     0
278
    -2
288
     1
 68
     0
279
    -2
289
     1
 69
     0
  7
STANDARD
140
6.0
170
     5
 62
     0
 63
     7
283
     0
 90
      512
 91
        0
  1

274
    -2
284
     1
 64
     0
275
    -2
285
     1
 65
     0
276
    -2
286
     1
 66
     0
277
    -2
287
     1
 67
     0
278
    -2
288
     1
 68
     0
279
    -2
289
     1
 69
     0
  7
STANDARD
140
4.5
170
     5
 62
     0
 63
     7
283
     0
 90
      512
 91
        0
  1

274
    -2
284
     1
 64
     0
275
    -2
285
     1
 65
     0
276
    -2
286
     1
 66
     0
277
    -2
287
     1
 67
     0
278
    -2
288
     1
 68
     0
279
    -2
289
     1
 69
     0
  0
VISUALSTYLE
  5
84A2
102
{ACAD_REACTORS
330
849C
102
}
330
849C
100
AcDbVisualStyle
  2
2dWireframe
 70
     4
177
     3
291
     0
 70
    58
 90
        0
176
     1
 90
        2
176
     1
 90
        0
176
     1
 90
        0
176
     1
 40
0.6
176
     1
 40
30.0
176
     1
 62
     7
420
 16777215
176
     1
 90
        1
176
     1
 90
        4
176
     1
 62
     7
176
     1
 62
   257
176
     1
 90
        1
176
     1
 90
        1
176
     1
 40
1.0
176
     1
 90
        0
176
     1
 62
   257
176
     1
 40
1.0
176
     1
 90
        1
176
     1
 90
        6
176
     1
 90
        2
176
     1
 62
     7
176
     1
 90
        5
176
     1
 90
        0
176
     1
 90
        0
176
     1
290
     0
176
     1
 90
        1
176
     1
 40
0.0
176
     1
 90
        0
176
     1
290
     1
176
     1
290
     1
176
     1
290
     0
176
     1
290
     0
176
     1
290
     0
176
     1
290
     0
176
     1
290
     0
176
     1
290
     0
176
     1
290
     0
176
     1
 90
       50
176
     1
 40
0.0
176
     1
 40
1.0
176
     1
 90
        0
176
     1
 62
    18
420
        0
176
     1
 90
       50
176
     1
 90
        3
176
     1
 62
     5
420
      255
176
     1
290
     0
176
     1
 90
       50
176
     1
 90
       50
176
     1
 90
       50
176
     1
290
     0
176
     1
 90
       50
176
     1
 62
   256
176
     0
 40
1.0
176
     0
 90
        2
176
     1
  1
strokes_ogs.tif
176
     1
290
     0
176
     1
 40
1.0
176
     1
 40
1.0
176
     1
  0
VISUALSTYLE
  5
84A1
102
{ACAD_REACTORS
330
849C
102
}
330
849C
100
AcDbVisualStyle
  2
Basic
 70
     7
177
     3
291
     1
 70
    58
 90
        1
176
     1
 90
        0
176
     1
 90
        1
176
     1
 90
        0
176
     1
 40
0.6
176
     1
 40
30.0
176
     1
 62
     7
420
 16777215
176
     1
 90
        0
176
     1
 90
        4
176
     1
 62
     7
176
     1
 62
   257
176
     1
 90
        1
176
     1
 90
        1
176
     1
 40
1.0
176
     1
 90
        8
176
     1
 62
     7
176
     1
 40
1.0
176
     1
 90
        1
176
     1
 90
        6
176
     1
 90
        2
176
     1
 62
     7
176
     1
 90
        5
176
     1
 90
        0
176
     1
 90
        0
176
     1
290
     0
176
     1
 90
        1
176
     1
 40
0.0
176
     1
 90
        0
176
     1
290
     0
176
     1
290
     1
176
     1
290
     1
176
     1
290
     0
176
     1
290
     0
176
     1
290
     0
176
     1
290
     0
176
     1
290
     0
176
     1
290
     0
176
     1
 90
       50
176
     1
 40
0.0
176
     1
 40
1.0
176
     1
 90
        0
176
     1
 62
    18
420
        0
176
     1
 90
       50
176
     1
 90
        3
176
     1
 62
     5
420
      255
176
     1
290
     0
176
     1
 90
       50
176
     1
 90
       50
176
     1
 90
       50
176
     1
290
     0
176
     1
 90
       50
176
     1
 62
   256
176
     0
 40
1.0
176
     0
 90
        2
176
     1
  1
strokes_ogs.tif
176
     1
290
     0
176
     1
 40
1.0
176
     1
 40
1.0
176
     1
  0
VISUALSTYLE
  5
84A8
102
{ACAD_REACTORS
330
849C
102
}
330
849C
100
AcDbVisualStyle
  2
Brighten
 70
    12
177
     3
291
     1
 70
    58
 90
        2
176
     1
 90
        2
176
     1
 90
        0
176
     1
 90
        0
176
     1
 40
0.6
176
     1
 40
30.0
176
     1
 62
     7
420
 16777215
176
     1
 90
        1
176
     1
 90
        4
176
     1
 62
     7
176
     1
 62
   257
176
     1
 90
        1
176
     1
 90
        1
176
     1
 40
1.0
176
     1
 90
        8
176
     1
 62
     7
176
     1
 40
1.0
176
     1
 90
        1
176
     1
 90
        6
176
     1
 90
        2
176
     1
 62
     7
176
     1
 90
        5
176
     1
 90
        0
176
     1
 90
        0
176
     1
290
     0
176
     1
 90
        1
176
     1
 40
50.0
176
     1
 90
        0
176
     1
290
     0
176
     1
290
     1
176
     1
290
     1
176
     1
290
     0
176
     1
290
     0
176
     1
290
     0
176
     1
290
     0
176
     1
290
     0
176
     1
290
     0
176
     1
 90
       50
176
     1
 40
0.0
176
     1
 40
1.0
176
     1
 90
        0
176
     1
 62
    18
420
        0
176
     1
 90
       50
176
     1
 90
        3
176
     1
 62
     5
420
      255
176
     1
290
     0
176
     1
 90
       50
176
     1
 90
       50
176
     1
 90
       50
176
     1
290
     0
176
     1
 90
       50
176
     1
 62
   256
176
     0
 40
1.0
176
     0
 90
        2
176
     1
  1
strokes_ogs.tif
176
     1
290
     0
176
     1
 40
1.0
176
     1
 40
1.0
176
     1
  0
VISUALSTYLE
  5
84AC
102
{ACAD_REACTORS
330
849C
102
}
330
849C
100
AcDbVisualStyle
  2
ColorChange
 70
    16
177
     3
291
     1
 70
    58
 90
        2
176
     1
 90
        2
176
     1
 90
        3
176
     1
 90
        0
176
     1
 40
0.6
176
     1
 40
30.0
176
     1
 62
     8
420
  8421504
176
     1
 90
        1
176
     1
 90
        4
176
     1
 62
     7
176
     1
 62
   257
176
     1
 90
        1
176
     1
 90
        1
176
     1
 40
1.0
176
     1
 90
        8
176
     1
 62
     8
420
  8421504
176
     1
 40
1.0
176
     1
 90
        1
176
     1
 90
        6
176
     1
 90
        2
176
     1
 62
     7
176
     1
 90
        5
176
     1
 90
        0
176
     1
 90
        0
176
     1
290
     0
176
     1
 90
        1
176
     1
 40
0.0
176
     1
 90
        0
176
     1
290
     0
176
     1
290
     1
176
     1
290
     1
176
     1
290
     0
176
     1
290
     0
176
     1
290
     0
176
     1
290
     0
176
     1
290
     0
176
     1
290
     0
176
     1
 90
       50
176
     1
 40
0.0
176
     1
 40
1.0
176
     1
 90
        0
176
     1
 62
    18
420
        0
176
     1
 90
       50
176
     1
 90
        3
176
     1
 62
     5
420
      255
176
     1
290
     0
176
     1
 90
       50
176
     1
 90
       50
176
     1
 90
       50
176
     1
290
     0
176
     1
 90
       50
176
     1
 62
   256
176
     0
 40
1.0
176
     0
 90
        2
176
     1
  1
strokes_ogs.tif
176
     1
290
     0
176
     1
 40
1.0
176
     1
 40
1.0
176
     1
  0
VISUALSTYLE
  5
84A5
102
{ACAD_REACTORS
330
849C
102
}
330
849C
100
AcDbVisualStyle
  2
Conceptual
 70
     9
177
     3
291
     0
 70
    58
 90
        3
176
     1
 90
        2
176
     1
 90
        0
176
     1
 90
        0
176
     1
 40
0.6
176
     1
 40
30.0
176
     1
 62
     7
420
 16777215
176
     1
 90
        2
176
     1
 90
        2
176
     1
 62
     7
176
     1
 62
   257
176
     1
 90
        1
176
     1
 90
        1
176
     1
 40
179.0
176
     1
 90
        8
176
     1
 62
     7
176
     1
 40
1.0
176
     1
 90
        1
176
     1
 90
        6
176
     1
 90
        2
176
     1
 62
     7
176
     1
 90
        3
176
     1
 90
        0
176
     1
 90
        0
176
     1
290
     0
176
     1
 90
        1
176
     1
 40
0.0
176
     1
 90
        0
176
     1
290
     0
176
     1
290
     1
176
     1
290
     1
176
     1
290
     0
176
     1
290
     0
176
     1
290
     0
176
     1
290
     0
176
     1
290
     0
176
     1
290
     0
176
     1
 90
       50
176
     1
 40
0.0
176
     1
 40
1.0
176
     1
 90
        0
176
     1
 62
    18
420
        0
176
     1
 90
       50
176
     1
 90
        3
176
     1
 62
     5
420
      255
176
     1
290
     0
176
     1
 90
       50
176
     1
 90
       50
176
     1
 90
       50
176
     1
290
     0
176
     1
 90
       50
176
     1
 62
   256
176
     0
 40
1.0
176
     0
 90
        2
176
     1
  1
strokes_ogs.tif
176
     1
290
     0
176
     1
 40
1.0
176
     1
 40
1.0
176
     1
  0
VISUALSTYLE
  5
84A7
102
{ACAD_REACTORS
330
849C
102
}
330
849C
100
AcDbVisualStyle
  2
Dim
 70
    11
177
     3
291
     1
 70
    58
 90
        2
176
     1
 90
        2
176
     1
 90
        0
176
     1
 90
        0
176
     1
 40
0.6
176
     1
 40
30.0
176
     1
 62
     7
420
 16777215
176
     1
 90
        1
176
     1
 90
        4
176
     1
 62
     7
176
     1
 62
   257
176
     1
 90
        1
176
     1
 90
        1
176
     1
 40
1.0
176
     1
 90
        8
176
     1
 62
     7
176
     1
 40
1.0
176
     1
 90
        1
176
     1
 90
        6
176
     1
 90
        2
176
     1
 62
     7
176
     1
 90
        5
176
     1
 90
        0
176
     1
 90
        0
176
     1
290
     0
176
     1
 90
        1
176
     1
 40
-50.0
176
     1
 90
        0
176
     1
290
     0
176
     1
290
     1
176
     1
290
     1
176
     1
290
     0
176
     1
290
     0
176
     1
290
     0
176
     1
290
     0
176
     1
290
     0
176
     1
290
     0
176
     1
 90
       50
176
     1
 40
0.0
176
     1
 40
1.0
176
     1
 90
        0
176
     1
 62
    18
420
        0
176
     1
 90
       50
176
     1
 90
        3
176
     1
 62
     5
420
      255
176
     1
290
     0
176
     1
 90
       50
176
     1
 90
       50
176
     1
 90
       50
176
     1
290
     0
176
     1
 90
       50
176
     1
 62
   256
176
     0
 40
1.0
176
     0
 90
        2
176
     1
  1
strokes_ogs.tif
176
     1
290
     0
176
     1
 40
1.0
176
     1
 40
1.0
176
     1
  0
VISUALSTYLE
  5
84B4
102
{ACAD_REACTORS
330
849C
102
}
330
849C
100
AcDbVisualStyle
  2
EdgeColorOff
 70
    22
177
     3
291
     1
 70
    58
 90
        2
176
     0
 90
        2
176
     0
 90
        0
176
     0
 90
        0
176
     0
 40
0.6
176
     0
 40
30.0
176
     0
 62
     7
420
 16777215
176
     0
 90
        1
176
     0
 90
        4
176
     0
 62
     7
176
     0
 62
   257
176
     0
 90
        1
176
     0
 90
        1
176
     0
 40
1.0
176
     0
 90
        8
176
     2
 62
     7
176
     0
 40
1.0
176
     0
 90
        1
176
     0
 90
        6
176
     0
 90
        2
176
     0
 62
     7
176
     0
 90
        5
176
     0
 90
        0
176
     0
 90
        0
176
     0
290
     0
176
     0
 90
        1
176
     0
 40
0.0
176
     0
 90
        0
176
     0
290
     0
176
     0
290
     1
176
     0
290
     1
176
     0
290
     0
176
     0
290
     0
176
     0
290
     0
176
     0
290
     0
176
     0
290
     0
176
     0
290
     0
176
     0
 90
       50
176
     0
 40
0.0
176
     0
 40
1.0
176
     0
 90
        0
176
     0
 62
    18
420
        0
176
     0
 90
       50
176
     0
 90
        3
176
     0
 62
     5
420
      255
176
     0
290
     0
176
     0
 90
       50
176
     0
 90
       50
176
     0
 90
       50
176
     0
290
     0
176
     0
 90
       50
176
     0
 62
   256
176
     0
 40
1.0
176
     0
 90
        2
176
     0
  1
strokes_ogs.tif
176
     0
290
     0
176
     0
 40
1.0
176
     0
 40
1.0
176
     0
  0
VISUALSTYLE
  5
84AB
102
{ACAD_REACTORS
330
849C
102
}
330
849C
100
AcDbVisualStyle
  2
Facepattern
 70
    15
177
     3
291
     1
 70
    58
 90
        2
176
     1
 90
        2
176
     1
 90
        0
176
     1
 90
        0
176
     1
 40
0.6
176
     1
 40
30.0
176
     1
 62
     7
420
 16777215
176
     1
 90
        1
176
     1
 90
        4
176
     1
 62
     7
176
     1
 62
   257
176
     1
 90
        1
176
     1
 90
        1
176
     1
 40
1.0
176
     1
 90
        8
176
     1
 62
     7
176
     1
 40
1.0
176
     1
 90
        1
176
     1
 90
        6
176
     1
 90
        2
176
     1
 62
     7
176
     1
 90
        5
176
     1
 90
        0
176
     1
 90
        0
176
     1
290
     0
176
     1
 90
        1
176
     1
 40
0.0
176
     1
 90
        0
176
     1
290
     0
176
     1
290
     1
176
     1
290
     1
176
     1
290
     0
176
     1
290
     0
176
     1
290
     0
176
     1
290
     0
176
     1
290
     0
176
     1
290
     0
176
     1
 90
       50
176
     1
 40
0.0
176
     1
 40
1.0
176
     1
 90
        0
176
     1
 62
    18
420
        0
176
     1
 90
       50
176
     1
 90
        3
176
     1
 62
     5
420
      255
176
     1
290
     0
176
     1
 90
       50
176
     1
 90
       50
176
     1
 90
       50
176
     1
290
     0
176
     1
 90
       50
176
     1
 62
   256
176
     0
 40
1.0
176
     0
 90
        2
176
     1
  1
strokes_ogs.tif
176
     1
290
     0
176
     1
 40
1.0
176
     1
 40
1.0
176
     1
  0
VISUALSTYLE
  5
849D
102
{ACAD_REACTORS
330
849C
102
}
330
849C
100
AcDbVisualStyle
  2
Flat
 70
     0
177
     3
291
     1
 70
    58
 90
        2
176
     1
 90
        1
176
     1
 90
        1
176
     1
 90
        2
176
     1
 40
0.6
176
     1
 40
30.0
176
     1
 62
     7
420
 16777215
176
     1
 90
        0
176
     1
 90
        0
176
     1
 62
     7
176
     1
 62
   257
176
     1
 90
        1
176
     1
 90
        1
176
     1
 40
1.0
176
     1
 90
        8
176
     1
 62
     7
176
     1
 40
1.0
176
     1
 90
        1
176
     1
 90
        6
176
     1
 90
        2
176
     1
 62
     7
176
     1
 90
        5
176
     1
 90
        0
176
     1
 90
        0
176
     1
290
     0
176
     1
 90
       13
176
     1
 40
0.0
176
     1
 90
        0
176
     1
290
     0
176
     1
290
     1
176
     1
290
     1
176
     1
290
     0
176
     1
290
     0
176
     1
290
     0
176
     1
290
     0
176
     1
290
     0
176
     1
290
     0
176
     1
 90
       50
176
     1
 40
0.0
176
     1
 40
1.0
176
     1
 90
        0
176
     1
 62
    18
420
        0
176
     1
 90
       50
176
     1
 90
        3
176
     1
 62
     5
420
      255
176
     1
290
     0
176
     1
 90
       50
176
     1
 90
       50
176
     1
 90
       50
176
     1
290
     0
176
     1
 90
       50
176
     1
 62
   256
176
     0
 40
1.0
176
     0
 90
        2
176
     1
  1
strokes_ogs.tif
176
     1
290
     0
176
     1
 40
1.0
176
     1
 40
1.0
176
     1
  0
VISUALSTYLE
  5
849E
102
{ACAD_REACTORS
330
849C
102
}
330
849C
100
AcDbVisualStyle
  2
FlatWithEdges
 70
     1
177
     3
291
     1
 70
    58
 90
        2
176
     1
 90
        1
176
     1
 90
        1
176
     1
 90
        2
176
     1
 40
0.6
176
     1
 40
30.0
176
     1
 62
     7
420
 16777215
176
     1
 90
        1
176
     1
 90
        0
176
     1
 62
     7
176
     1
 62
   257
176
     1
 90
        1
176
     1
 90
        1
176
     1
 40
1.0
176
     1
 90
        0
176
     1
 62
   257
176
     1
 40
1.0
176
     1
 90
        1
176
     1
 90
        6
176
     1
 90
        2
176
     1
 62
     7
176
     1
 90
        5
176
     1
 90
        0
176
     1
 90
        0
176
     1
290
     0
176
     1
 90
       13
176
     1
 40
0.0
176
     1
 90
        0
176
     1
290
     0
176
     1
290
     1
176
     1
290
     1
176
     1
290
     0
176
     1
290
     0
176
     1
290
     0
176
     1
290
     0
176
     1
290
     0
176
     1
290
     0
176
     1
 90
       50
176
     1
 40
0.0
176
     1
 40
1.0
176
     1
 90
        0
176
     1
 62
    18
420
        0
176
     1
 90
       50
176
     1
 90
        3
176
     1
 62
     5
420
      255
176
     1
290
     0
176
     1
 90
       50
176
     1
 90
       50
176
     1
 90
       50
176
     1
290
     0
176
     1
 90
       50
176
     1
 62
   256
176
     0
 40
1.0
176
     0
 90
        2
176
     1
  1
strokes_ogs.tif
176
     1
290
     0
176
     1
 40
1.0
176
     1
 40
1.0
176
     1
  0
VISUALSTYLE
  5
849F
102
{ACAD_REACTORS
330
849C
102
}
330
849C
100
AcDbVisualStyle
  2
Gouraud
 70
     2
177
     3
291
     1
 70
    58
 90
        2
176
     1
 90
        2
176
     1
 90
        1
176
     1
 90
        2
176
     1
 40
0.6
176
     1
 40
30.0
176
     1
 62
     7
420
 16777215
176
     1
 90
        0
176
     1
 90
        0
176
     1
 62
     7
176
     1
 62
   257
176
     1
 90
        1
176
     1
 90
        1
176
     1
 40
1.0
176
     1
 90
        0
176
     1
 62
     7
176
     1
 40
1.0
176
     1
 90
        1
176
     1
 90
        6
176
     1
 90
        2
176
     1
 62
     7
176
     1
 90
        5
176
     1
 90
        0
176
     1
 90
        0
176
     1
290
     0
176
     1
 90
       13
176
     1
 40
0.0
176
     1
 90
        0
176
     1
290
     0
176
     1
290
     1
176
     1
290
     1
176
     1
290
     0
176
     1
290
     0
176
     1
290
     0
176
     1
290
     0
176
     1
290
     0
176
     1
290
     0
176
     1
 90
       50
176
     1
 40
0.0
176
     1
 40
1.0
176
     1
 90
        0
176
     1
 62
    18
420
        0
176
     1
 90
       50
176
     1
 90
        3
176
     1
 62
     5
420
      255
176
     1
290
     0
176
     1
 90
       50
176
     1
 90
       50
176
     1
 90
       50
176
     1
290
     0
176
     1
 90
       50
176
     1
 62
   256
176
     0
 40
1.0
176
     0
 90
        2
176
     1
  1
strokes_ogs.tif
176
     1
290
     0
176
     1
 40
1.0
176
     1
 40
1.0
176
     1
  0
VISUALSTYLE
  5
84A0
102
{ACAD_REACTORS
330
849C
102
}
330
849C
100
AcDbVisualStyle
  2
GouraudWithEdges
 70
     3
177
     3
291
     1
 70
    58
 90
        2
176
     1
 90
        2
176
     1
 90
        1
176
     1
 90
        2
176
     1
 40
0.6
176
     1
 40
30.0
176
     1
 62
     7
420
 16777215
176
     1
 90
        1
176
     1
 90
        0
176
     1
 62
     7
176
     1
 62
   257
176
     1
 90
        1
176
     1
 90
        1
176
     1
 40
1.0
176
     1
 90
        0
176
     1
 62
   257
176
     1
 40
1.0
176
     1
 90
        1
176
     1
 90
        6
176
     1
 90
        2
176
     1
 62
     7
176
     1
 90
        5
176
     1
 90
        0
176
     1
 90
        0
176
     1
290
     0
176
     1
 90
       13
176
     1
 40
0.0
176
     1
 90
        0
176
     1
290
     0
176
     1
290
     1
176
     1
290
     1
176
     1
290
     0
176
     1
290
     0
176
     1
290
     0
176
     1
290
     0
176
     1
290
     0
176
     1
290
     0
176
     1
 90
       50
176
     1
 40
0.0
176
     1
 40
1.0
176
     1
 90
        0
176
     1
 62
    18
420
        0
176
     1
 90
       50
176
     1
 90
        3
176
     1
 62
     5
420
      255
176
     1
290
     0
176
     1
 90
       50
176
     1
 90
       50
176
     1
 90
       50
176
     1
290
     0
176
     1
 90
       50
176
     1
 62
   256
176
     0
 40
1.0
176
     0
 90
        2
176
     1
  1
strokes_ogs.tif
176
     1
290
     0
176
     1
 40
1.0
176
     1
 40
1.0
176
     1
  0
VISUALSTYLE
  5
84A4
102
{ACAD_REACTORS
330
849C
102
}
330
849C
100
AcDbVisualStyle
  2
Hidden
 70
     6
177
     3
291
     0
 70
    58
 90
        1
176
     1
 90
        2
176
     1
 90
        2
176
     1
 90
        0
176
     1
 40
0.6
176
     1
 40
30.0
176
     1
 62
     7
420
 16777215
176
     1
 90
        2
176
     1
 90
        2
176
     1
 62
     7
176
     1
 62
   257
176
     1
 90
        2
176
     1
 90
        1
176
     1
 40
40.0
176
     1
 90
        0
176
     1
 62
   257
176
     1
 40
1.0
176
     1
 90
        1
176
     1
 90
        6
176
     1
 90
        2
176
     1
 62
     7
176
     1
 90
        3
176
     1
 90
        0
176
     1
 90
        0
176
     1
290
     0
176
     1
 90
        1
176
     1
 40
0.0
176
     1
 90
        0
176
     1
290
     0
176
     1
290
     1
176
     1
290
     1
176
     1
290
     0
176
     1
290
     0
176
     1
290
     0
176
     1
290
     0
176
     1
290
     0
176
     1
290
     0
176
     1
 90
       50
176
     1
 40
0.0
176
     1
 40
1.0
176
     1
 90
        0
176
     1
 62
    18
420
        0
176
     1
 90
       50
176
     1
 90
        3
176
     1
 62
     5
420
      255
176
     1
290
     0
176
     1
 90
       50
176
     1
 90
       50
176
     1
 90
       50
176
     1
290
     0
176
     1
 90
       50
176
     1
 62
   256
176
     0
 40
1.0
176
     0
 90
        2
176
     1
  1
strokes_ogs.tif
176
     1
290
     0
176
     1
 40
1.0
176
     1
 40
1.0
176
     1
  0
VISUALSTYLE
  5
84B2
102
{ACAD_REACTORS
330
849C
102
}
330
849C
100
AcDbVisualStyle
  2
JitterOff
 70
    20
177
     3
291
     1
 70
    58
 90
        2
176
     0
 90
        2
176
     0
 90
        0
176
     0
 90
        0
176
     0
 40
0.6
176
     0
 40
30.0
176
     0
 62
     7
420
 16777215
176
     0
 90
        1
176
     0
 90
        4
176
     0
 62
     7
176
     0
 62
   257
176
     0
 90
        1
176
     0
 90
        1
176
     0
 40
1.0
176
     0
 90
       10
176
     2
 62
     7
176
     0
 40
1.0
176
     0
 90
        1
176
     0
 90
        6
176
     0
 90
        2
176
     0
 62
     7
176
     0
 90
        5
176
     0
 90
        0
176
     0
 90
        0
176
     0
290
     0
176
     0
 90
        1
176
     0
 40
0.0
176
     0
 90
        0
176
     0
290
     0
176
     0
290
     1
176
     0
290
     1
176
     0
290
     0
176
     0
290
     0
176
     0
290
     0
176
     0
290
     0
176
     0
290
     0
176
     0
290
     0
176
     0
 90
       50
176
     0
 40
0.0
176
     0
 40
1.0
176
     0
 90
        0
176
     0
 62
    18
420
        0
176
     0
 90
       50
176
     0
 90
        3
176
     0
 62
     5
420
      255
176
     0
290
     0
176
     0
 90
       50
176
     0
 90
       50
176
     0
 90
       50
176
     0
290
     0
176
     0
 90
       50
176
     0
 62
   256
176
     0
 40
1.0
176
     0
 90
        2
176
     0
  1
strokes_ogs.tif
176
     0
290
     0
176
     0
 40
1.0
176
     0
 40
1.0
176
     0
  0
VISUALSTYLE
  5
84AA
102
{ACAD_REACTORS
330
849C
102
}
330
849C
100
AcDbVisualStyle
  2
Linepattern
 70
    14
177
     3
291
     1
 70
    58
 90
        2
176
     1
 90
        2
176
     1
 90
        0
176
     1
 90
        0
176
     1
 40
0.6
176
     1
 40
30.0
176
     1
 62
     7
420
 16777215
176
     1
 90
        1
176
     1
 90
        4
176
     1
 62
     7
176
     1
 62
   257
176
     1
 90
        7
176
     1
 90
        7
176
     1
 40
1.0
176
     1
 90
        8
176
     1
 62
     7
176
     1
 40
1.0
176
     1
 90
        1
176
     1
 90
        6
176
     1
 90
        2
176
     1
 62
     7
176
     1
 90
        5
176
     1
 90
        0
176
     1
 90
        0
176
     1
290
     0
176
     1
 90
        1
176
     1
 40
0.0
176
     1
 90
        0
176
     1
290
     0
176
     1
290
     1
176
     1
290
     1
176
     1
290
     0
176
     1
290
     0
176
     1
290
     0
176
     1
290
     0
176
     1
290
     0
176
     1
290
     0
176
     1
 90
       50
176
     1
 40
0.0
176
     1
 40
1.0
176
     1
 90
        0
176
     1
 62
    18
420
        0
176
     1
 90
       50
176
     1
 90
        3
176
     1
 62
     5
420
      255
176
     1
290
     0
176
     1
 90
       50
176
     1
 90
       50
176
     1
 90
       50
176
     1
290
     0
176
     1
 90
       50
176
     1
 62
   256
176
     0
 40
1.0
176
     0
 90
        2
176
     1
  1
strokes_ogs.tif
176
     1
290
     0
176
     1
 40
1.0
176
     1
 40
1.0
176
     1
  0
VISUALSTYLE
  5
84B3
102
{ACAD_REACTORS
330
849C
102
}
330
849C
100
AcDbVisualStyle
  2
OverhangOff
 70
    21
177
     3
291
     1
 70
    58
 90
        2
176
     0
 90
        2
176
     0
 90
        0
176
     0
 90
        0
176
     0
 40
0.6
176
     0
 40
30.0
176
     0
 62
     7
420
 16777215
176
     0
 90
        1
176
     0
 90
        4
176
     0
 62
     7
176
     0
 62
   257
176
     0
 90
        1
176
     0
 90
        1
176
     0
 40
1.0
176
     0
 90
        9
176
     2
 62
     7
176
     0
 40
1.0
176
     0
 90
        1
176
     0
 90
        6
176
     0
 90
        2
176
     0
 62
     7
176
     0
 90
        5
176
     0
 90
        0
176
     0
 90
        0
176
     0
290
     0
176
     0
 90
        1
176
     0
 40
0.0
176
     0
 90
        0
176
     0
290
     0
176
     0
290
     1
176
     0
290
     1
176
     0
290
     0
176
     0
290
     0
176
     0
290
     0
176
     0
290
     0
176
     0
290
     0
176
     0
290
     0
176
     0
 90
       50
176
     0
 40
0.0
176
     0
 40
1.0
176
     0
 90
        0
176
     0
 62
    18
420
        0
176
     0
 90
       50
176
     0
 90
        3
176
     0
 62
     5
420
      255
176
     0
290
     0
176
     0
 90
       50
176
     0
 90
       50
176
     0
 90
       50
176
     0
290
     0
176
     0
 90
       50
176
     0
 62
   256
176
     0
 40
1.0
176
     0
 90
        2
176
     0
  1
strokes_ogs.tif
176
     0
290
     0
176
     0
 40
1.0
176
     0
 40
1.0
176
     0
  0
VISUALSTYLE
  5
84A6
102
{ACAD_REACTORS
330
849C
102
}
330
849C
100
AcDbVisualStyle
  2
Realistic
 70
     8
177
     3
291
     0
 70
    58
 90
        2
176
     1
 90
        3
176
     1
 90
        0
176
     1
 90
        2
176
     1
 40
0.6
176
     1
 40
30.0
176
     1
 62
     7
420
 16777215
176
     1
 90
        0
176
     1
 90
        0
176
     1
 62
     7
176
     1
 62
   257
176
     1
 90
        1
176
     1
 90
        1
176
     1
 40
1.0
176
     1
 90
        8
176
     1
 62
   257
176
     1
 40
1.0
176
     1
 90
        1
176
     1
 90
        6
176
     1
 90
        2
176
     1
 62
     7
176
     1
 90
        3
176
     1
 90
        0
176
     1
 90
        0
176
     1
290
     0
176
     1
 90
       13
176
     1
 40
0.0
176
     1
 90
        0
176
     1
290
     0
176
     1
290
     1
176
     1
290
     1
176
     1
290
     0
176
     1
290
     0
176
     1
290
     0
176
     1
290
     0
176
     1
290
     0
176
     1
290
     0
176
     1
 90
       50
176
     1
 40
0.0
176
     1
 40
1.0
176
     1
 90
        0
176
     1
 62
    18
420
        0
176
     1
 90
       50
176
     1
 90
        3
176
     1
 62
     5
420
      255
176
     1
290
     0
176
     1
 90
       50
176
     1
 90
       50
176
     1
 90
       50
176
     1
290
     0
176
     1
 90
       50
176
     1
 62
   256
176
     0
 40
1.0
176
     0
 90
        2
176
     1
  1
strokes_ogs.tif
176
     1
290
     0
176
     1
 40
1.0
176
     1
 40
1.0
176
     1
  0
VISUALSTYLE
  5
84B1
102
{ACAD_REACTORS
330
849C
102
}
330
849C
100
AcDbVisualStyle
  2
Shaded
 70
    27
177
     3
291
     0
 70
    58
 90
        2
176
     1
 90
        2
176
     1
 90
        1
176
     1
 90
        2
176
     1
 40
0.6
176
     1
 40
30.0
176
     1
 62
     7
420
 16777215
176
     1
 90
        0
176
     1
 90
        4
176
     1
 62
     7
176
     1
 62
   257
176
     1
 90
        1
176
     1
 90
        1
176
     1
 40
1.0
176
     1
 90
        8
176
     1
 62
   257
176
     1
 40
1.0
176
     1
 90
        1
176
     1
 90
        6
176
     1
 90
        2
176
     1
 62
     8
420
  7895160
176
     1
 90
        3
176
     1
 90
        0
176
     1
 90
        0
176
     1
290
     0
176
     1
 90
        5
176
     1
 40
0.0
176
     1
 90
        0
176
     1
290
     0
176
     1
290
     1
176
     1
290
     1
176
     1
290
     0
176
     1
290
     0
176
     1
290
     0
176
     1
290
     0
176
     1
290
     0
176
     1
290
     0
176
     1
 90
       50
176
     1
 40
0.0
176
     1
 40
1.0
176
     1
 90
        0
176
     1
 62
    18
420
        0
176
     1
 90
       50
176
     1
 90
        3
176
     1
 62
     5
420
      255
176
     1
290
     0
176
     1
 90
       50
176
     1
 90
       50
176
     1
 90
       50
176
     1
290
     0
176
     1
 90
       50
176
     1
 62
   256
176
     0
 40
1.0
176
     0
 90
        2
176
     1
  1
strokes_ogs.tif
176
     1
290
     0
176
     1
 40
1.0
176
     1
 40
1.0
176
     1
  0
VISUALSTYLE
  5
84B0
102
{ACAD_REACTORS
330
849C
102
}
330
849C
100
AcDbVisualStyle
  2
Shaded with edges
 70
    26
177
     3
291
     0
 70
    58
 90
        2
176
     1
 90
        2
176
     1
 90
        1
176
     1
 90
        2
176
     1
 40
0.6
176
     1
 40
30.0
176
     1
 62
     7
420
 16777215
176
     1
 90
        1
176
     1
 90
       10
176
     1
 62
     7
176
     1
 62
   257
176
     1
 90
        2
176
     1
 90
        1
176
     1
 40
1.0
176
     1
 90
        8
176
     1
 62
   257
176
     1
 40
1.0
176
     1
 90
        1
176
     1
 90
        6
176
     1
 90
        2
176
     1
 62
     7
176
     1
 90
        3
176
     1
 90
        0
176
     1
 90
        0
176
     1
290
     0
176
     1
 90
        5
176
     1
 40
0.0
176
     1
 90
        0
176
     1
290
     0
176
     1
290
     1
176
     1
290
     1
176
     1
290
     0
176
     1
290
     0
176
     1
290
     0
176
     1
290
     0
176
     1
290
     0
176
     1
290
     0
176
     1
 90
       50
176
     1
 40
0.0
176
     1
 40
1.0
176
     1
 90
        0
176
     1
 62
    18
420
        0
176
     1
 90
       50
176
     1
 90
        3
176
     1
 62
     5
420
      255
176
     1
290
     0
176
     1
 90
       50
176
     1
 90
       50
176
     1
 90
       50
176
     1
290
     0
176
     1
 90
       50
176
     1
 62
   256
176
     0
 40
1.0
176
     0
 90
        2
176
     1
  1
strokes_ogs.tif
176
     1
290
     0
176
     1
 40
1.0
176
     1
 40
1.0
176
     1
  0
VISUALSTYLE
  5
84AD
102
{ACAD_REACTORS
330
849C
102
}
330
849C
100
AcDbVisualStyle
  2
Shades of Gray
 70
    23
177
     3
291
     0
 70
    58
 90
        2
176
     1
 90
        2
176
     1
 90
        3
176
     1
 90
        0
176
     1
 40
0.6
176
     1
 40
30.0
176
     1
 62
     7
420
 16777215
176
     1
 90
        2
176
     1
 90
        2
176
     1
 62
     7
176
     1
 62
     7
176
     1
 90
        1
176
     1
 90
        1
176
     1
 40
40.0
176
     1
 90
        8
176
     1
 62
     7
176
     1
 40
1.0
176
     1
 90
        1
176
     1
 90
        6
176
     1
 90
        2
176
     1
 62
     7
176
     1
 90
        3
176
     1
 90
        0
176
     1
 90
        0
176
     1
290
     0
176
     1
 90
        1
176
     1
 40
0.0
176
     1
 90
        0
176
     1
290
     0
176
     1
290
     1
176
     1
290
     1
176
     1
290
     0
176
     1
290
     0
176
     1
290
     0
176
     1
290
     0
176
     1
290
     0
176
     1
290
     0
176
     1
 90
       50
176
     1
 40
0.0
176
     1
 40
1.0
176
     1
 90
        0
176
     1
 62
    18
420
        0
176
     1
 90
       50
176
     1
 90
        3
176
     1
 62
     5
420
      255
176
     1
290
     0
176
     1
 90
       50
176
     1
 90
       50
176
     1
 90
       50
176
     1
290
     0
176
     1
 90
       50
176
     1
 62
   256
176
     0
 40
1.0
176
     0
 90
        2
176
     1
  1
strokes_ogs.tif
176
     1
290
     0
176
     1
 40
1.0
176
     1
 40
1.0
176
     1
  0
VISUALSTYLE
  5
84AE
102
{ACAD_REACTORS
330
849C
102
}
330
849C
100
AcDbVisualStyle
  2
Sketchy
 70
    24
177
     3
291
     0
 70
    58
 90
        1
176
     1
 90
        2
176
     1
 90
        2
176
     1
 90
        0
176
     1
 40
0.6
176
     1
 40
30.0
176
     1
 62
     7
420
 16777215
176
     1
 90
        2
176
     1
 90
        2
176
     1
 62
     7
176
     1
 62
     7
176
     1
 90
        1
176
     1
 90
        1
176
     1
 40
40.0
176
     1
 90
       11
176
     1
 62
     7
176
     1
 40
1.0
176
     1
 90
        1
176
     1
 90
        6
176
     1
 90
        2
176
     1
 62
     7
176
     1
 90
        6
176
     1
 90
        0
176
     1
 90
        0
176
     1
290
     0
176
     1
 90
        1
176
     1
 40
0.0
176
     1
 90
        0
176
     1
290
     0
176
     1
290
     1
176
     1
290
     1
176
     1
290
     0
176
     1
290
     0
176
     1
290
     0
176
     1
290
     0
176
     1
290
     0
176
     1
290
     0
176
     1
 90
       50
176
     1
 40
0.0
176
     1
 40
1.0
176
     1
 90
        0
176
     1
 62
    18
420
        0
176
     1
 90
       50
176
     1
 90
        3
176
     1
 62
     5
420
      255
176
     1
290
     0
176
     1
 90
       50
176
     1
 90
       50
176
     1
 90
       50
176
     1
290
     0
176
     1
 90
       50
176
     1
 62
   256
176
     0
 40
1.0
176
     0
 90
        2
176
     1
  1
strokes_ogs.tif
176
     1
290
     0
176
     1
 40
1.0
176
     1
 40
1.0
176
     1
  0
VISUALSTYLE
  5
84A9
102
{ACAD_REACTORS
330
849C
102
}
330
849C
100
AcDbVisualStyle
  2
Thicken
 70
    13
177
     3
291
     1
 70
    58
 90
        2
176
     1
 90
        2
176
     1
 90
        0
176
     1
 90
        0
176
     1
 40
0.6
176
     1
 40
30.0
176
     1
 62
     7
420
 16777215
176
     1
 90
        1
176
     1
 90
        4
176
     1
 62
     7
176
     1
 62
   257
176
     1
 90
        1
176
     1
 90
        1
176
     1
 40
1.0
176
     1
 90
       12
176
     1
 62
     7
176
     1
 40
1.0
176
     1
 90
        1
176
     1
 90
        6
176
     1
 90
        2
176
     1
 62
     7
176
     1
 90
        5
176
     1
 90
        0
176
     1
 90
        0
176
     1
290
     0
176
     1
 90
        1
176
     1
 40
0.0
176
     1
 90
        0
176
     1
290
     0
176
     1
290
     1
176
     1
290
     1
176
     1
290
     0
176
     1
290
     0
176
     1
290
     0
176
     1
290
     0
176
     1
290
     0
176
     1
290
     0
176
     1
 90
       50
176
     1
 40
0.0
176
     1
 40
1.0
176
     1
 90
        0
176
     1
 62
    18
420
        0
176
     1
 90
       50
176
     1
 90
        3
176
     1
 62
     5
420
      255
176
     1
290
     0
176
     1
 90
       50
176
     1
 90
       50
176
     1
 90
       50
176
     1
290
     0
176
     1
 90
       50
176
     1
 62
   256
176
     0
 40
1.0
176
     0
 90
        2
176
     1
  1
strokes_ogs.tif
176
     1
290
     0
176
     1
 40
1.0
176
     1
 40
1.0
176
     1
  0
VISUALSTYLE
  5
84A3
102
{ACAD_REACTORS
330
849C
102
}
330
849C
100
AcDbVisualStyle
  2
Wireframe
 70
     5
177
     3
291
     0
 70
    58
 90
        0
176
     1
 90
        2
176
     1
 90
        0
176
     1
 90
        0
176
     1
 40
0.6
176
     1
 40
30.0
176
     1
 62
     7
420
 16777215
176
     1
 90
        1
176
     1
 90
        4
176
     1
 62
     7
176
     1
 62
   257
176
     1
 90
        1
176
     1
 90
        1
176
     1
 40
1.0
176
     1
 90
        0
176
     1
 62
   257
176
     1
 40
1.0
176
     1
 90
        1
176
     1
 90
        6
176
     1
 90
        2
176
     1
 62
     7
176
     1
 90
        3
176
     1
 90
        0
176
     1
 90
        0
176
     1
290
     0
176
     1
 90
        1
176
     1
 40
0.0
176
     1
 90
        0
176
     1
290
     0
176
     1
290
     1
176
     1
290
     1
176
     1
290
     0
176
     1
290
     0
176
     1
290
     0
176
     1
290
     0
176
     1
290
     0
176
     1
290
     0
176
     1
 90
       50
176
     1
 40
0.0
176
     1
 40
1.0
176
     1
 90
        0
176
     1
 62
    18
420
        0
176
     1
 90
       50
176
     1
 90
        3
176
     1
 62
     5
420
      255
176
     1
290
     0
176
     1
 90
       50
176
     1
 90
       50
176
     1
 90
       50
176
     1
290
     0
176
     1
 90
       50
176
     1
 62
   256
176
     0
 40
1.0
176
     0
 90
        2
176
     1
  1
strokes_ogs.tif
176
     1
290
     0
176
     1
 40
1.0
176
     1
 40
1.0
176
     1
  0
VISUALSTYLE
  5
84AF
102
{ACAD_REACTORS
330
849C
102
}
330
849C
100
AcDbVisualStyle
  2
X-Ray
 70
    25
177
     3
291
     0
 70
    58
 90
        2
176
     1
 90
        2
176
     1
 90
        1
176
     1
 90
        1
176
     1
 40
0.5
176
     1
 40
30.0
176
     1
 62
     7
420
 16777215
176
     1
 90
        1
176
     1
 90
        0
176
     1
 62
     7
176
     1
 62
   257
176
     1
 90
        1
176
     1
 90
        1
176
     1
 40
1.0
176
     1
 90
        8
176
     1
 62
     7
176
     1
 40
1.0
176
     1
 90
        1
176
     1
 90
        6
176
     1
 90
        2
176
     1
 62
     7
176
     1
 90
        3
176
     1
 90
        0
176
     1
 90
        0
176
     1
290
     0
176
     1
 90
       13
176
     1
 40
0.0
176
     1
 90
        0
176
     1
290
     0
176
     1
290
     1
176
     1
290
     1
176
     1
290
     0
176
     1
290
     0
176
     1
290
     0
176
     1
290
     0
176
     1
290
     0
176
     1
290
     0
176
     1
 90
       50
176
     1
 40
0.0
176
     1
 40
1.0
176
     1
 90
        0
176
     1
 62
    18
420
        0
176
     1
 90
       50
176
     1
 90
        3
176
     1
 62
     5
420
      255
176
     1
290
     0
176
     1
 90
       50
176
     1
 90
       50
176
     1
 90
       50
176
     1
290
     0
176
     1
 90
       50
176
     1
 62
   256
176
     0
 40
1.0
176
     0
 90
        2
176
     1
  1
strokes_ogs.tif
176
     1
290
     0
176
     1
 40
1.0
176
     1
 40
1.0
176
     1
  0
DICTIONARYVAR
  5
855B
102
{ACAD_REACTORS
330
8555
102
}
330
8555
100
DictionaryVariables
280
     0
  1
1:1
  0
DICTIONARYVAR
  5
8557
102
{ACAD_REACTORS
330
8555
102
}
330
8555
100
DictionaryVariables
280
     0
  1
STANDARD
  0
DICTIONARYVAR
  5
8556
102
{ACAD_REACTORS
330
8555
102
}
330
8555
100
DictionaryVariables
280
     0
  1
STANDARD
  0
DICTIONARYVAR
  5
8558
102
{ACAD_REACTORS
330
8555
102
}
330
8555
100
DictionaryVariables
280
     0
  1
Metric50
  0
DICTIONARYVAR
  5
8559
102
{ACAD_REACTORS
330
8555
102
}
330
8555
100
DictionaryVariables
280
     0
  1
Metric50
  0
DICTIONARYVAR
  5
855D
102
{ACAD_REACTORS
330
8555
102
}
330
8555
100
DictionaryVariables
280
     0
  1
1
  0
DICTIONARYVAR
  5
855E
102
{ACAD_REACTORS
330
8555
102
}
330
8555
100
DictionaryVariables
280
     0
  1
15
  0
DICTIONARYVAR
  5
855C
102
{ACAD_REACTORS
330
8555
102
}
330
8555
100
DictionaryVariables
280
     0
  1
0
  0
DICTIONARYVAR
  5
855A
102
{ACAD_REACTORS
330
8555
102
}
330
8555
100
DictionaryVariables
280
     0
  1
0
  0
DICTIONARY
  5
8552
330
84CF
100
AcDbDictionary
280
     1
281
     1
  3
ACAD_XREC_ROUNDTRIP
360
8593
  0
DICTIONARY
  5
848D
330
848C
100
AcDbDictionary
280
     1
281
     1
  3
BUMPTILE
360
848F
  3
DIFFUSETILE
360
848E
  3
OPACITYTILE
360
8492
  3
REFLECTIONTILE
360
8491
  3
REFRACTIONTILE
360
8493
  3
SPECULARTILE
360
8490
  0
DICTIONARY
  5
8485
330
8484
100
AcDbDictionary
280
     1
281
     1
  3
BUMPTILE
360
8487
  3
DIFFUSETILE
360
8486
  3
OPACITYTILE
360
848A
  3
REFLECTIONTILE
360
8489
  3
REFRACTIONTILE
360
848B
  3
SPECULARTILE
360
8488
  0
DICTIONARY
  5
8495
330
8494
100
AcDbDictionary
280
     1
281
     1
  3
BUMPTILE
360
8497
  3
DIFFUSETILE
360
8496
  3
OPACITYTILE
360
849A
  3
REFLECTIONTILE
360
8499
  3
REFRACTIONTILE
360
849B
  3
SPECULARTILE
360
8498
  0
DICTIONARY
  5
8550
330
84CD
100
AcDbDictionary
280
     1
281
     1
  3
ACAD_XREC_ROUNDTRIP
360
8592
  0
DICTIONARY
  5
8590
330
84B7
100
AcDbDictionary
280
     1
281
     1
  3
ACAD_ROUNDTRIP_2008_TABLESTYLE_CELLSTYLEMAP
360
8591
  0
XRECORD
  5
8593
102
{ACAD_REACTORS
330
8552
102
}
330
8552
100
AcDbXrecord
280
     1
102
DISPLAYNAME
  1
Metric50
102
FLAGS
 90
        0
  0
XRECORD
  5
848F
102
{ACAD_REACTORS
330
848D
102
}
330
848D
100
AcDbXrecord
280
     1
270
     1
271
     1
  0
XRECORD
  5
848E
102
{ACAD_REACTORS
330
848D
102
}
330
848D
100
AcDbXrecord
280
     1
270
     1
271
     1
  0
XRECORD
  5
8492
102
{ACAD_REACTORS
330
848D
102
}
330
848D
100
AcDbXrecord
280
     1
270
     1
271
     1
  0
XRECORD
  5
8491
102
{ACAD_REACTORS
330
848D
102
}
330
848D
100
AcDbXrecord
280
     1
270
     1
271
     1
  0
XRECORD
  5
8493
102
{ACAD_REACTORS
330
848D
102
}
330
848D
100
AcDbXrecord
280
     1
270
     1
271
     1
  0
XRECORD
  5
8490
102
{ACAD_REACTORS
330
848D
102
}
330
848D
100
AcDbXrecord
280
     1
270
     1
271
     1
  0
XRECORD
  5
8487
102
{ACAD_REACTORS
330
8485
102
}
330
8485
100
AcDbXrecord
280
     1
270
     1
271
     1
  0
XRECORD
  5
8486
102
{ACAD_REACTORS
330
8485
102
}
330
8485
100
AcDbXrecord
280
     1
270
     1
271
     1
  0
XRECORD
  5
848A
102
{ACAD_REACTORS
330
8485
102
}
330
8485
100
AcDbXrecord
280
     1
270
     1
271
     1
  0
XRECORD
  5
8489
102
{ACAD_REACTORS
330
8485
102
}
330
8485
100
AcDbXrecord
280
     1
270
     1
271
     1
  0
XRECORD
  5
848B
102
{ACAD_REACTORS
330
8485
102
}
330
8485
100
AcDbXrecord
280
     1
270
     1
271
     1
  0
XRECORD
  5
8488
102
{ACAD_REACTORS
330
8485
102
}
330
8485
100
AcDbXrecord
280
     1
270
     1
271
     1
  0
XRECORD
  5
8497
102
{ACAD_REACTORS
330
8495
102
}
330
8495
100
AcDbXrecord
280
     1
270
     1
271
     1
  0
XRECORD
  5
8496
102
{ACAD_REACTORS
330
8495
102
}
330
8495
100
AcDbXrecord
280
     1
270
     1
271
     1
  0
XRECORD
  5
849A
102
{ACAD_REACTORS
330
8495
102
}
330
8495
100
AcDbXrecord
280
     1
270
     1
271
     1
  0
XRECORD
  5
8499
102
{ACAD_REACTORS
330
8495
102
}
330
8495
100
AcDbXrecord
280
     1
270
     1
271
     1
  0
XRECORD
  5
849B
102
{ACAD_REACTORS
330
8495
102
}
330
8495
100
AcDbXrecord
280
     1
270
     1
271
     1
  0
XRECORD
  5
8498
102
{ACAD_REACTORS
330
8495
102
}
330
8495
100
AcDbXrecord
280
     1
270
     1
271
     1
  0
XRECORD
  5
8592
102
{ACAD_REACTORS
330
8550
102
}
330
8550
100
AcDbXrecord
280
     1
102
DISPLAYNAME
  1
Metric50
102
FLAGS
 90
        0
  0
CELLSTYLEMAP
  5
8591
102
{ACAD_REACTORS
330
8590
102
}
330
8590
100
AcDbCellStyleMap
 90
        3
300
CELLSTYLE
  1
TABLEFORMAT_BEGIN
 90
        5
170
     1
 91
        0
 92
    32768
 62
   257
 93
        1
300
CONTENTFORMAT
  1
CONTENTFORMAT_BEGIN
 90
        0
 91
        0
 92
      512
 93
        0
300

 40
0.0
140
1.0
 94
        5
 62
     0
340
10
144
6.0
309
CONTENTFORMAT_END
171
     1
301
MARGIN
  1
CELLMARGIN_BEGIN
 40
1.5
 40
1.5
 40
1.5
 40
1.5
 40
4.5
 40
4.5
309
CELLMARGIN_END
 94
        6
 95
        1
302
GRIDFORMAT
  1
GRIDFORMAT_BEGIN
 90
        0
 91
        1
 62
     0
 92
       -2
340
0
 93
        0
 40
1.125
309
GRIDFORMAT_END
 95
        2
302
GRIDFORMAT
  1
GRIDFORMAT_BEGIN
 90
        0
 91
        1
 62
     0
 92
       -2
340
0
 93
        0
 40
1.125
309
GRIDFORMAT_END
 95
        4
302
GRIDFORMAT
  1
GRIDFORMAT_BEGIN
 90
        0
 91
        1
 62
     0
 92
       -2
340
0
 93
        0
 40
1.125
309
GRIDFORMAT_END
 95
        8
302
GRIDFORMAT
  1
GRIDFORMAT_BEGIN
 90
        0
 91
        1
 62
     0
 92
       -2
340
0
 93
        0
 40
1.125
309
GRIDFORMAT_END
 95
       16
302
GRIDFORMAT
  1
GRIDFORMAT_BEGIN
 90
        0
 91
        1
 62
     0
 92
       -2
340
0
 93
        0
 40
1.125
309
GRIDFORMAT_END
 95
       32
302
GRIDFORMAT
  1
GRIDFORMAT_BEGIN
 90
        0
 91
        1
 62
     0
 92
       -2
340
0
 93
        0
 40
1.125
309
GRIDFORMAT_END
309
TABLEFORMAT_END
  1
CELLSTYLE_BEGIN
 90
        1
 91
        1
300
_TITLE
309
CELLSTYLE_END
300
CELLSTYLE
  1
TABLEFORMAT_BEGIN
 90
        5
170
     1
 91
        0
 92
        0
 62
   257
 93
        1
300
CONTENTFORMAT
  1
CONTENTFORMAT_BEGIN
 90
        0
 91
        0
 92
      512
 93
        0
300

 40
0.0
140
1.0
 94
        5
 62
     0
340
10
144
4.5
309
CONTENTFORMAT_END
171
     1
301
MARGIN
  1
CELLMARGIN_BEGIN
 40
1.5
 40
1.5
 40
1.5
 40
1.5
 40
4.5
 40
4.5
309
CELLMARGIN_END
 94
        6
 95
        1
302
GRIDFORMAT
  1
GRIDFORMAT_BEGIN
 90
        0
 91
        1
 62
     0
 92
       -2
340
0
 93
        0
 40
1.125
309
GRIDFORMAT_END
 95
        2
302
GRIDFORMAT
  1
GRIDFORMAT_BEGIN
 90
        0
 91
        1
 62
     0
 92
       -2
340
0
 93
        0
 40
1.125
309
GRIDFORMAT_END
 95
        4
302
GRIDFORMAT
  1
GRIDFORMAT_BEGIN
 90
        0
 91
        1
 62
     0
 92
       -2
340
0
 93
        0
 40
1.125
309
GRIDFORMAT_END
 95
        8
302
GRIDFORMAT
  1
GRIDFORMAT_BEGIN
 90
        0
 91
        1
 62
     0
 92
       -2
340
0
 93
        0
 40
1.125
309
GRIDFORMAT_END
 95
       16
302
GRIDFORMAT
  1
GRIDFORMAT_BEGIN
 90
        0
 91
        1
 62
     0
 92
       -2
340
0
 93
        0
 40
1.125
309
GRIDFORMAT_END
 95
       32
302
GRIDFORMAT
  1
GRIDFORMAT_BEGIN
 90
        0
 91
        1
 62
     0
 92
       -2
340
0
 93
        0
 40
1.125
309
GRIDFORMAT_END
309
TABLEFORMAT_END
  1
CELLSTYLE_BEGIN
 90
        2
 91
        1
300
_HEADER
309
CELLSTYLE_END
300
CELLSTYLE
  1
TABLEFORMAT_BEGIN
 90
        5
170
     1
 91
        0
 92
        0
 62
   257
 93
        1
300
CONTENTFORMAT
  1
CONTENTFORMAT_BEGIN
 90
        0
 91
        0
 92
      512
 93
        0
300

 40
0.0
140
1.0
 94
        2
 62
     0
340
10
144
4.5
309
CONTENTFORMAT_END
171
     1
301
MARGIN
  1
CELLMARGIN_BEGIN
 40
1.5
 40
1.5
 40
1.5
 40
1.5
 40
4.5
 40
4.5
309
CELLMARGIN_END
 94
        6
 95
        1
302
GRIDFORMAT
  1
GRIDFORMAT_BEGIN
 90
        0
 91
        1
 62
     0
 92
       -2
340
0
 93
        0
 40
1.125
309
GRIDFORMAT_END
 95
        2
302
GRIDFORMAT
  1
GRIDFORMAT_BEGIN
 90
        0
 91
        1
 62
     0
 92
       -2
340
0
 93
        0
 40
1.125
309
GRIDFORMAT_END
 95
        4
302
GRIDFORMAT
  1
GRIDFORMAT_BEGIN
 90
        0
 91
        1
 62
     0
 92
       -2
340
0
 93
        0
 40
1.125
309
GRIDFORMAT_END
 95
        8
302
GRIDFORMAT
  1
GRIDFORMAT_BEGIN
 90
        0
 91
        1
 62
     0
 92
       -2
340
0
 93
        0
 40
1.125
309
GRIDFORMAT_END
 95
       16
302
GRIDFORMAT
  1
GRIDFORMAT_BEGIN
 90
        0
 91
        1
 62
     0
 92
       -2
340
0
 93
        0
 40
1.125
309
GRIDFORMAT_END
 95
       32
302
GRIDFORMAT
  1
GRIDFORMAT_BEGIN
 90
        0
 91
        1
 62
     0
 92
       -2
340
0
 93
        0
 40
1.125
309
GRIDFORMAT_END
309
TABLEFORMAT_END
  1
CELLSTYLE_BEGIN
 90
        3
 91
        2
300
_DATA
309
CELLSTYLE_END
  0
ENDSEC
  0
SECTION
  2
ACDSDATA
 70
     2
 71
     8
  0
ACDSSCHEMA
 90
        0
  1
AcDb_Thumbnail_Schema
  2
AcDbDs::ID
280
    10
 91
        8
  2
Thumbnail_Data
280
    15
 91
        0
101
ACDSRECORD
 95
        0
 90
        1
  2
AcDbDs::TreatedAsObjectData
280
     1
291
     1
101
ACDSRECORD
 95
        0
 90
        2
  2
AcDbDs::Legacy
280
     1
291
     1
101
ACDSRECORD
  1
AcDbDs::ID
 90
        3
  2
AcDs:Indexable
280
     1
291
     1
101
ACDSRECORD
  1
AcDbDs::ID
 90
        4
  2
AcDbDs::HandleAttribute
280
     7
282
     1
  0
ACDSSCHEMA
 90
        1
  1
AcDbDs::TreatedAsObjectDataSchema
  2
AcDbDs::TreatedAsObjectData
280
     1
 91
        0
  0
ACDSSCHEMA
 90
        2
  1
AcDbDs::LegacySchema
  2
AcDbDs::Legacy
280
     1
 91
        0
  0
ACDSSCHEMA
 90
        3
  1
AcDbDs::IndexedPropertySchema
  2
AcDs:Indexable
280
     1
 91
        0
  0
ACDSSCHEMA
 90
        4
  1
AcDbDs::HandleAttributeSchema
  2
AcDbDs::HandleAttribute
280
     7
 91
        1
284
     1
  0
ACDSRECORD
 90
        0
  2
AcDbDs::ID
280
    10
320
8477
  2
Thumbnail_Data
280
    15
 94
     1672
310
89504E470D0A1A0A0000000D49484452000001000000007C0803000000B13B9E5A00000300504C5445000000000000C8C8C80000000000000000000000000000000000000000000000000000330000660000990000CC0000FF0033000033330033660033990033CC0033FF0066000066330066660066990066CC0066FF0099
310
000099330099660099990099CC0099FF00CC0000CC3300CC6600CC9900CCCC00CCFF00FF0000FF3300FF6600FF9900FFCC00FFFF3300003300333300663300993300CC3300FF3333003333333333663333993333CC3333FF3366003366333366663366993366CC3366FF3399003399333399663399993399CC3399FF33CC00
310
33CC3333CC6633CC9933CCCC33CCFF33FF0033FF3333FF6633FF9933FFCC33FFFF6600006600336600666600996600CC6600FF6633006633336633666633996633CC6633FF6666006666336666666666996666CC6666FF6699006699336699666699996699CC6699FF66CC0066CC3366CC6666CC9966CCCC66CCFF66FF0066
310
FF3366FF6666FF9966FFCC66FFFF9900009900339900669900999900CC9900FF9933009933339933669933999933CC9933FF9966009966339966669966999966CC9966FF9999009999339999669999999999CC9999FF99CC0099CC3399CC6699CC9999CCCC99CCFF99FF0099FF3399FF6699FF9999FFCC99FFFFCC0000CC00
310
33CC0066CC0099CC00CCCC00FFCC3300CC3333CC3366CC3399CC33CCCC33FFCC6600CC6633CC6666CC6699CC66CCCC66FFCC9900CC9933CC9966CC9999CC99CCCC99FFCCCC00CCCC33CCCC66CCCC99CCCCCCCCCCFFCCFF00CCFF33CCFF66CCFF99CCFFCCCCFFFFFF0000FF0033FF0066FF0099FF00CCFF00FFFF3300FF3333
310
FF3366FF3399FF33CCFF33FFFF6600FF6633FF6666FF6699FF66CCFF66FFFF9900FF9933FF9966FF9999FF99CCFF99FFFFCC00FFCC33FFCC66FFCC99FFCCCCFFCCFFFFFF00FFFF33FFFF66FFFF99FFFFCCFFFFFF0000000D0D0D1A1A1A2828283535354343435050505D5D5D6B6B6B787878868686939393A1A1A1AEAEAEBB
310
BBBBC9C9C9D6D6D6E4E4E4F1F1F1FFFFFF00000000000000000000000000000000000000000000000000000000000008F1915C000002FD4944415478DAEDDD5B7283300C05502DC73FDEFF66B40DFF97F801921124EDA46D2C5DB749670861C2892C6CD050A25F68E5971AADD2CA529B050000000000007CCE27BD39F84501
310
98DE5E4246406800D202E100AE17AC08F0D619C092001FB63100FC03408FE3E34F7F9011E8C5D8490F00D433FBBEB33BC4BEF79584AC29BF8F08D071A082A1EC01E119A0EC83BC423A08EA2A77BB8724887140C4E97071341D56A9DF088B63FD7D351A49D119C07EB49FC6000A868E4CE90C400C77E6AFFF584CE2C70BC0FB
310
DE8F73820000000000B038401E2D2040562D224057681461011EBBDF1ED100524E5BDB9E727D0403E0ADE92EF0934CB034C09C04830110F77EAF763D26C04887E101522400E619603B1444CA0106C01601000877180C0C40000040EC9120D7C9C0A971A8E9F03908281CC00B8B00E01F80EBB0282280D182013C5FE21AE063
310
370B000000000000000000FEEC937E7F0418672E700C8F4D23FF730109C03E01740FE03B1EDF11700698BB0BFBCC01DC22E00980D3089061700BC09C1C03C81C7F05F0B874EC05604E6DFD7C78BE01B8BC68B06604F038A4E9D3E22101F2A32C6254CBDD7481DCAA274E7960750051226900886FDC2F40AF0BC9068008F9DC
310
014E79705580960813E75A2BD9FA779A0092BA66564B2A333B00E8877C1101246B858DCCD722A477015F00B240B4C7807F80DAFF47326B45D2EDB7F5790B40E6007606906B5FA7BD5CD84A820280DD018CE35BCB725B134930F5858F2CD156733114E65317D8BFFE741301F568E96532249220D502D91A0AA712193946CE6D
310
356F43E17C5B23A45F70076014494DB5C2CE018E64F7DA062244400E1201A773211700EAD58B2B270B578BEB27EB24C07452D415C0980EABCB1E6C02F071CED04070017075F1E3951AB2E501E62B5E1A406338CC01EFDFEC3A000400000000000000000000F0A35B4CFA0510EBB75BAC9AAF0602B0BF786F0064FCDBA432EE
310
AE1B2C0262E6003B02E8B8C536C9FBAC46C90145DF733D0880B1504408210784BEB33486C200000000000000000000000000C092000BFDEBED2FA9FC54DD73AF642A0000000049454E44AE426082AE4260826D16A0FD8F1688CEE3DE3200ED00A62300B7D7C75A0000000000000000000000000000B00AF0ABEDF597FB0525
310
17DC14A6647C610000000049454E44AE4260826082
  0
ENDSEC
  0
EOF
