  0
SECTION
  2
HEADER
  9
$ACADVER
  1
AC1009
  9
$INSBASE
 10
0.0
 20
0.0
 30
0.0
  9
$EXTMIN
 10
0.0
 20
0.0
 30
0.0
  9
$EXTMAX
 10
3150.0
 20
4425.0
 30
0.0
  9
$LIMMIN
 10
0.0
 20
0.0
  9
$LIMMAX
 10
297.0
 20
210.0
  9
$ORTHOMODE
 70
     0
  9
$REGENMODE
 70
     1
  9
$FILLMODE
 70
     0
  9
$QTEXTMODE
 70
     0
  9
$MIRRTEXT
 70
     1
  9
$DRAGMODE
 70
     2
  9
$LTSCALE
 40
100.0
  9
$OSMODE
 70
    37
  9
$ATTMODE
 70
     1
  9
$TEXTSIZE
 40
180.0
  9
$TRACEWID
 40
0.05
  9
$TEXTSTYLE
  7
STANDARD
  9
$CLAYER
  8
3
  9
$CELTYPE
  6
BYLAYER
  9
$CECOLOR
 62
   256
  9
$DIMSCALE
 40
15.0
  9
$DIMASZ
 40
2.0
  9
$DIMEXO
 40
0.5
  9
$DIMDLI
 40
10.0
  9
$DIMRND
 40
0.0
  9
$DIMDLE
 40
0.0
  9
$DIMEXE
 40
1.0
  9
$DIMTP
 40
1.0
  9
$DIMTM
 40
1.0
  9
$DIMTXT
 40
3.0
  9
$DIMCEN
 40
0.0
  9
$DIMTSZ
 40
0.0
  9
$DIMTOL
 70
     0
  9
$DIMLIM
 70
     0
  9
$DIMTIH
 70
     0
  9
$DIMTOH
 70
     0
  9
$DIMSE1
 70
     0
  9
$DIMSE2
 70
     0
  9
$DIMTAD
 70
     1
  9
$DIMZIN
 70
     8
  9
$DIMBLK
  1

  9
$DIMASO
 70
     1
  9
$DIMSHO
 70
     1
  9
$DIMPOST
  1
(<>)
  9
$DIMAPOST
  1

  9
$DIMALT
 70
     0
  9
$DIMALTD
 70
     2
  9
$DIMALTF
 40
0.039
  9
$DIMLFAC
 40
1.0
  9
$DIMTOFL
 70
     1
  9
$DIMTVP
 40
0.0
  9
$DIMTIX
 70
     0
  9
$DIMSOXD
 70
     0
  9
$DIMSAH
 70
     1
  9
$DIMBLK1
  1
OPEN
  9
$DIMBLK2
  1
OPEN
  9
$DIMSTYLE
  2
IGA
  9
$DIMCLRD
 70
     0
  9
$DIMCLRE
 70
     0
  9
$DIMCLRT
 70
     0
  9
$DIMTFAC
 40
10.0
  9
$DIMGAP
 40
1.0
  9
$LUNITS
 70
     2
  9
$LUPREC
 70
     3
  9
$SKETCHINC
 40
0.1
  9
$FILLETRAD
 40
50.0
  9
$AUNITS
 70
     0
  9
$AUPREC
 70
     0
  9
$MENU
  1
acad
  9
$ELEVATION
 40
0.0
  9
$PELEVATION
 40
0.0
  9
$THICKNESS
 40
0.0
  9
$LIMCHECK
 70
     0
  9
$BLIPMODE
 70
     0
  9
$CHAMFERA
 40
0.5
  9
$CHAMFERB
 40
0.5
  9
$SKPOLY
 70
     0
  9
$TDCREATE
 40
2451936.4950680551
  9
$TDUPDATE
 40
2454953.7517247112
  9
$TDINDWG
 40
0.0860401736
  9
$TDUSRTIMER
 40
0.0860401736
  9
$USRTIMER
 70
     1
  9
$ANGBASE
 50
0.0
  9
$ANGDIR
 70
     0
  9
$PDMODE
 70
     0
  9
$PDSIZE
 40
0.0
  9
$PLINEWID
 40
0.0
  9
$COORDS
 70
     1
  9
$SPLFRAME
 70
     0
  9
$SPLINETYPE
 70
     6
  9
$SPLINESEGS
 70
     8
  9
$ATTDIA
 70
     0
  9
$ATTREQ
 70
     1
  9
$HANDLING
 70
 10241
  9
$HANDSEED
  5
8721
  9
$SURFTAB1
 70
     6
  9
$SURFTAB2
 70
     6
  9
$SURFTYPE
 70
     6
  9
$SURFU
 70
     6
  9
$SURFV
 70
     6
  9
$UCSNAME
  2

  9
$UCSORG
 10
0.0
 20
0.0
 30
0.0
  9
$UCSXDIR
 10
1.0
 20
0.0
 30
0.0
  9
$UCSYDIR
 10
0.0
 20
1.0
 30
0.0
  9
$PUCSNAME
  2

  9
$PUCSORG
 10
0.0
 20
0.0
 30
0.0
  9
$PUCSXDIR
 10
1.0
 20
0.0
 30
0.0
  9
$PUCSYDIR
 10
0.0
 20
1.0
 30
0.0
  9
$USERI1
 70
     0
  9
$USERI2
 70
     0
  9
$USERI3
 70
     0
  9
$USERI4
 70
     0
  9
$USERI5
 70
     0
  9
$USERR1
 40
0.0
  9
$USERR2
 40
0.0
  9
$USERR3
 40
0.0
  9
$USERR4
 40
0.0
  9
$USERR5
 40
0.0
  9
$WORLDVIEW
 70
     1
  9
$SHADEDGE
 70
     3
  9
$SHADEDIF
 70
    70
  9
$TILEMODE
 70
     1
  9
$MAXACTVP
 70
    16
  9
$PLIMCHECK
 70
     0
  9
$PEXTMIN
 10
1.0000000000000000E+020
 20
1.0000000000000000E+020
 30
1.0000000000000000E+020
  9
$PEXTMAX
 10
-1.0000000000000000E+020
 20
-1.0000000000000000E+020
 30
-1.0000000000000000E+020
  9
$PLIMMIN
 10
0.0
 20
0.0
  9
$PLIMMAX
 10
12.0
 20
9.0
  9
$UNITMODE
 70
     0
  9
$VISRETAIN
 70
     0
  9
$PLINEGEN
 70
     0
  9
$PSLTSCALE
 70
     1
  0
ENDSEC
  0
SECTION
  2
TABLES
  0
TABLE
  2
VPORT
 70
     2
  0
VPORT
  2
*ACTIVE
 70
     0
 10
0.0
 20
0.0
 11
1.0
 21
1.0
 12
5304.9149382770529
 22
2212.5000103027569
 13
0.0
 23
0.0
 14
10.0
 24
10.0
 15
10.0
 25
10.0
 16
0.0
 26
0.0
 36
1.0
 17
0.0
 27
0.0
 37
0.0
 40
4458.9223245254034
 41
3.1666666666666661
 42
50.0
 43
0.0
 44
0.0
 50
0.0
 51
0.0
 71
     0
 72
   100
 73
     1
 74
     0
 75
     0
 76
     0
 77
     0
 78
     0
  0
ENDTAB
  0
TABLE
  2
LTYPE
 70
     2
  0
LTYPE
  2
CONTINUOUS
 70
     0
  3
Solid line
 72
    65
 73
     0
 40
0.0
  0
LTYPE
  2
CENTER
 70
     0
  3
____ _ ____ _ ____ _ ____ _ ____ _ ____ _ ____ 
 72
    65
 73
     4
 40
2.0
 49
1.25
 49
-0.25
 49
0.25
 49
-0.25
  0
ENDTAB
  0
TABLE
  2
LAYER
 70
     6
  0
LAYER
  2
0
 70
     0
 62
     7
  6
CONTINUOUS
  0
LAYER
  2
3
 70
     0
 62
     2
  6
CONTINUOUS
  0
LAYER
  2
2
 70
     0
 62
     3
  6
CENTER
  0
LAYER
  2
1
 70
     0
 62
     4
  6
CONTINUOUS
  0
LAYER
  2
4
 70
     0
 62
     7
  6
CONTINUOUS
  0
LAYER
  2
DEFPOINTS
 70
     0
 62
     7
  6
CONTINUOUS
  0
ENDTAB
  0
TABLE
  2
STYLE
 70
     1
  0
STYLE
  2
STANDARD
 70
     0
 40
0.0
 41
1.0
 50
0.0
 71
     0
 42
180.0
  3
simplex.shx
  4
extfont.shx
  0
ENDTAB
  0
TABLE
  2
VIEW
 70
     0
  0
ENDTAB
  0
TABLE
  2
UCS
 70
     0
  0
ENDTAB
  0
TABLE
  2
APPID
 70
     1
  0
APPID
  2
ACAD
 70
     0
  0
ENDTAB
  0
TABLE
  2
DIMSTYLE
 70
     1
  0
DIMSTYLE
  2
IGA
 70
     0
  3

  4

  5

  6
OPEN
  7
OPEN
 40
2.0
 41
2.0
 42
0.5
 43
10.0
 44
1.0
 45
0.0
 46
0.0
 47
1.0
 48
1.0
140
3.0
141
0.0
142
0.0
143
0.03937
144
1.0
145
0.0
146
10.0
147
1.0
 71
     0
 72
     0
 73
     0
 74
     0
 75
     0
 76
     0
 77
     1
 78
     8
170
     0
171
     2
172
     0
173
     1
174
     0
175
     0
176
     0
177
     0
178
     0
  0
ENDTAB
  0
ENDSEC
  0
SECTION
  2
BLOCKS
  0
BLOCK
  8
0
  2
$MODEL_SPACE
 70
     0
 10
0.0
 20
0.0
 30
0.0
  3
$MODEL_SPACE
  1

  0
ENDBLK
  5
1B
  8
0
  0
BLOCK
 67
     1
  8
0
  2
$PAPER_SPACE
 70
     0
 10
0.0
 20
0.0
 30
0.0
  3
$PAPER_SPACE
  1

  0
ENDBLK
  5
18
 67
     1
  8
0
  0
BLOCK
  8
0
  2
_OPEN
 70
     0
 10
0.0
 20
0.0
 30
0.0
  3
_OPEN
  1

  0
LINE
  5
7C25
  8
0
  6
BYBLOCK
 62
     0
 10
-1.0
 20
0.1666666666666666
 30
0.0
 11
0.0
 21
0.0
 31
0.0
  0
LINE
  5
7C26
  8
0
  6
BYBLOCK
 62
     0
 10
0.0
 20
0.0
 30
0.0
 11
-1.0
 21
-0.1666666666666666
 31
0.0
  0
LINE
  5
7C27
  8
0
  6
BYBLOCK
 62
     0
 10
0.0
 20
0.0
 30
0.0
 11
-1.0
 21
0.0
 31
0.0
  0
ENDBLK
  5
7C29
  8
0
  0
BLOCK
  8
0
  2
*D1
 70
     1
 10
0.0
 20
0.0
 30
0.0
  3
*D1
  1

  0
LINE
  5
83EF
  8
0
  6
BYBLOCK
 62
     0
 10
2387.5688610787679
 20
1735.922690128551
 30
0.0
 11
2387.5688610787679
 21
1819.4795427416859
 31
0.0
  0
LINE
  5
83F0
  8
0
  6
BYBLOCK
 62
     0
 10
2567.5688610787679
 20
1737.5865076190989
 30
0.0
 11
2567.5688610787679
 21
1819.4795427416859
 31
0.0
  0
LINE
  5
83F1
  8
0
  6
BYBLOCK
 62
     0
 10
2417.5688610787679
 20
1804.4795427416859
 30
0.0
 11
2537.5688610787679
 21
1804.4795427416859
 31
0.0
  0
TEXT
  5
83F2
  8
3
 62
     0
 10
2428.515453075473
 20
1813.773625846972
 30
0.0
 40
45.0
  1
180
  0
INSERT
  5
83F3
  8
0
  6
BYBLOCK
 62
     0
  2
_OPEN
 10
2387.5688610787679
 20
1804.4795427416859
 30
0.0
 41
30.0
 42
30.0
 43
30.0
 50
180.0
  0
INSERT
  5
83F4
  8
0
  6
BYBLOCK
 62
     0
  2
_OPEN
 10
2567.5688610787679
 20
1804.4795427416859
 30
0.0
 41
30.0
 42
30.0
 43
30.0
  0
POINT
  5
83F5
  8
DEFPOINTS
  6
BYBLOCK
 62
     0
 10
2387.5688610787679
 20
1728.422690128551
 30
0.0
  0
POINT
  5
83F6
  8
DEFPOINTS
  6
BYBLOCK
 62
     0
 10
2567.5688610787679
 20
1730.0865076190989
 30
0.0
  0
POINT
  5
83F7
  8
DEFPOINTS
  6
BYBLOCK
 62
     0
 10
2567.5688610787679
 20
1804.4795427416859
 30
0.0
  0
ENDBLK
  5
83F8
  8
0
  0
BLOCK
  8
0
  2
*D2
 70
     1
 10
0.0
 20
0.0
 30
0.0
  3
*D2
  1

  0
LINE
  5
8691
  8
3
 62
     0
 10
761.01126116446255
 20
1323.3406642144821
 30
0.0
 11
705.91354546048024
 21
1323.3406642144821
 31
0.0
  0
LINE
  5
8692
  8
3
 62
     0
 10
761.01126116446255
 20
1563.340664214481
 30
0.0
 11
705.91354546048024
 21
1563.340664214481
 31
0.0
  0
LINE
  5
8693
  8
3
 62
     0
 10
720.91354546048024
 20
1353.3406642144821
 30
0.0
 11
720.91354546048024
 21
1533.3406642144821
 31
0.0
  0
INSERT
  5
8694
  8
3
 62
     0
  2
_OPEN
 10
720.91354546048024
 20
1323.3406642144821
 30
0.0
 41
30.0
 42
30.0
 43
30.0
 50
270.0
  0
INSERT
  5
8695
  8
3
 62
     0
  2
_OPEN
 10
720.91354546048024
 20
1563.340664214481
 30
0.0
 41
30.0
 42
30.0
 43
30.0
 50
90.0
  0
TEXT
  8
3
  40
45
  5
8714
  62
0
  72
0
  71
0
 10
593.414
 20
1363.69
 30
0.000000
  1
240
  0
POINT
  5
8697
  8
DEFPOINTS
 62
     0
 10
768.51126116446255
 20
1323.3406642144821
 30
0.0
  0
POINT
  5
8698
  8
DEFPOINTS
 62
     0
 10
768.51126116446255
 20
1563.340664214481
 30
0.0
  0
POINT
  5
8699
  8
DEFPOINTS
 62
     0
 10
720.91354546048024
 20
1563.340664214481
 30
0.0
  0
ENDBLK
  5
81EF
  8
0
  0
BLOCK
  8
0
  2
*D3
 70
     1
 10
0.0
 20
0.0
 30
0.0
  3
*D3
  1

  0
LINE
  5
869A
  8
3
 62
     0
 10
761.01126116446255
 20
1323.3406642144821
 30
0.0
 11
622.27624538848056
 21
1323.3406642144821
 31
0.0
  0
LINE
  5
869B
  8
3
 62
     0
 10
710.36828108924226
 20
1561.3406642144821
 30
0.0
 11
622.27624538848056
 21
1561.3406642144821
 31
0.0
  0
LINE
  5
869C
  8
3
 62
     0
 10
637.27624538848056
 20
1353.3406642144821
 30
0.0
 11
637.27624538848056
 21
1531.340664214481
 31
0.0
  0
INSERT
  5
869D
  8
3
 62
     0
  2
_OPEN
 10
637.27624538848056
 20
1323.3406642144821
 30
0.0
 41
30.0
 42
30.0
 43
30.0
 50
270.0
  0
INSERT
  5
869E
  8
3
 62
     0
  2
_OPEN
 10
637.27624538848056
 20
1561.3406642144821
 30
0.0
 41
30.0
 42
30.0
 43
30.0
 50
90.0
  0
TEXT
  8
3
  40
45
  5
8715
  62
0
  72
0
  71
0
 10
509.776
 20
1362.69
 30
0.000000
  1
238
  0
POINT
  5
86A0
  8
DEFPOINTS
 62
     0
 10
768.51126116446255
 20
1323.3406642144821
 30
0.0
  0
POINT
  5
86A1
  8
DEFPOINTS
 62
     0
 10
717.86828108924226
 20
1561.3406642144821
 30
0.0
  0
POINT
  5
86A2
  8
DEFPOINTS
 62
     0
 10
637.27624538848056
 20
1561.3406642144821
 30
0.0
  0
ENDBLK
  5
835B
  8
0
  0
BLOCK
  8
0
  2
*D4
 70
     1
 10
0.0
 20
0.0
 30
0.0
  3
*D4
  1

  0
LINE
  5
84ED
  8
0
  6
BYBLOCK
 62
     0
 10
2570.5688610787679
 20
1724.7944530714699
 30
0.0
 11
2570.5688610787679
 21
1944.913201006897
 31
0.0
  0
LINE
  5
84EE
  8
0
  6
BYBLOCK
 62
     0
 10
2477.5688610787679
 20
1877.699766803019
 30
0.0
 11
2477.5688610787679
 21
1944.913201006897
 31
0.0
  0
LINE
  5
84EF
  8
0
  6
BYBLOCK
 62
     0
 10
2540.5688610787679
 20
1929.913201006897
 30
0.0
 11
2507.5688610787679
 21
1929.913201006897
 31
0.0
  0
TEXT
  5
84F0
  8
3
 62
     0
 10
2487.7718897624291
 20
1953.3754646937591
 30
0.0
 40
45.0
  1
94
  0
INSERT
  5
84F1
  8
0
  6
BYBLOCK
 62
     0
  2
_OPEN
 10
2570.5688610787679
 20
1929.913201006897
 30
0.0
 41
30.0
 42
30.0
 43
30.0
  0
INSERT
  5
84F2
  8
0
  6
BYBLOCK
 62
     0
  2
_OPEN
 10
2477.5688610787679
 20
1929.913201006897
 30
0.0
 41
30.0
 42
30.0
 43
30.0
 50
180.0
  0
POINT
  5
84F3
  8
DEFPOINTS
  6
BYBLOCK
 62
     0
 10
2570.5688610787679
 20
1717.2944530714699
 30
0.0
  0
POINT
  5
84F4
  8
DEFPOINTS
  6
BYBLOCK
 62
     0
 10
2477.5688610787679
 20
1870.199766803019
 30
0.0
  0
POINT
  5
84F5
  8
DEFPOINTS
  6
BYBLOCK
 62
     0
 10
2477.5688610787679
 20
1929.913201006897
 30
0.0
  0
ENDBLK
  5
84F6
  8
0
  0
BLOCK
  8
0
  2
*D5
 70
     1
 10
0.0
 20
0.0
 30
0.0
  3
*D5
  1

  0
LINE
  5
86A3
  8
3
 62
     0
 10
2477.5688610787679
 20
1875.9188621555111
 30
0.0
 11
2477.5688610787679
 21
1944.913201006897
 31
0.0
  0
LINE
  5
86A4
  8
3
 62
     0
 10
1949.8077958908621
 20
1661.3862945182691
 30
0.0
 11
1949.8077958908621
 21
1944.913201006897
 31
0.0
  0
LINE
  5
86A5
  8
3
 62
     0
 10
2447.5688610787679
 20
1929.913201006897
 30
0.0
 11
1979.8077958908621
 21
1929.913201006897
 31
0.0
  0
INSERT
  5
86A6
  8
3
 62
     0
  2
_OPEN
 10
2477.5688610787679
 20
1929.913201006897
 30
0.0
 41
30.0
 42
30.0
 43
30.0
  0
INSERT
  5
86A7
  8
3
 62
     0
  2
_OPEN
 10
1949.8077958908621
 20
1929.913201006897
 30
0.0
 41
30.0
 42
30.0
 43
30.0
 50
180.0
  0
TEXT
  8
3
  40
45
  5
8716
  62
0
  72
0
  71
0
 10
2123.69
 20
1925.26
 30
0.000000
  1
MAX
  0
TEXT
  8
3
  40
45
  5
8717
  62
0
  72
0
  71
0
 10
2123.69
 20
1866.76
 30
0.000000
  1
600
  0
POINT
  5
86A9
  8
DEFPOINTS
 62
     0
 10
2477.5688610787679
 20
1868.4188621555111
 30
0.0
  0
POINT
  5
86AA
  8
DEFPOINTS
 62
     0
 10
1949.8077958908621
 20
1653.8862945182691
 30
0.0
  0
POINT
  5
86AB
  8
DEFPOINTS
 62
     0
 10
1949.8077958908621
 20
1929.913201006897
 30
0.0
  0
ENDBLK
  5
84C8
  8
0
  0
BLOCK
  8
0
  2
*D6
 70
     1
 10
0.0
 20
0.0
 30
0.0
  3
*D6
  1

  0
LINE
  5
84E2
  8
0
  6
BYBLOCK
 62
     0
 10
2604.0688610787688
 20
1688.317589315023
 30
0.0
 11
2711.2711353047139
 21
1688.317589315023
 31
0.0
  0
LINE
  5
84E3
  8
0
  6
BYBLOCK
 62
     0
 10
2604.0688610787688
 20
1434.317589315023
 30
0.0
 11
2711.2711353047139
 21
1434.317589315023
 31
0.0
  0
LINE
  5
84E4
  8
0
  6
BYBLOCK
 62
     0
 10
2696.2711353047139
 20
1658.317589315023
 30
0.0
 11
2696.2711353047139
 21
1464.317589315023
 31
0.0
  0
TEXT
  5
84E5
  8
3
 62
     0
 10
2680.407837213977
 20
1479.8890178864519
 30
0.0
 40
45.0
  1
φ254
 50
90.0
  0
INSERT
  5
84E6
  8
0
  6
BYBLOCK
 62
     0
  2
_OPEN
 10
2696.2711353047139
 20
1688.317589315023
 30
0.0
 41
30.0
 42
30.0
 43
30.0
 50
90.0
  0
INSERT
  5
84E7
  8
0
  6
BYBLOCK
 62
     0
  2
_OPEN
 10
2696.2711353047139
 20
1434.317589315023
 30
0.0
 41
30.0
 42
30.0
 43
30.0
 50
270.0
  0
POINT
  5
84E8
  8
DEFPOINTS
  6
BYBLOCK
 62
     0
 10
2596.5688610787688
 20
1688.317589315023
 30
0.0
  0
POINT
  5
84E9
  8
DEFPOINTS
  6
BYBLOCK
 62
     0
 10
2596.5688610787688
 20
1434.317589315023
 30
0.0
  0
POINT
  5
84EA
  8
DEFPOINTS
  6
BYBLOCK
 62
     0
 10
2696.2711353047139
 20
1434.317589315023
 30
0.0
  0
ENDBLK
  5
84EB
  8
0
  0
BLOCK
  8
0
  2
*D7
 70
     1
 10
0.0
 20
0.0
 30
0.0
  3
*D7
  1

  0
LINE
  5
82AA
  8
0
  6
BYBLOCK
 62
     0
 10
611.28091847410997
 20
1597.8406642144821
 30
0.0
 11
611.28091847410997
 21
1848.4363490987259
 31
0.0
  0
LINE
  5
82AB
  8
0
  6
BYBLOCK
 62
     0
 10
811.28091847410985
 20
1808.0470345755509
 30
0.0
 11
811.28091847410985
 21
1848.4363490987259
 31
0.0
  0
LINE
  5
82AC
  8
0
  6
BYBLOCK
 62
     0
 10
641.28091847410985
 20
1833.4363490987259
 30
0.0
 11
781.28091847410985
 21
1833.4363490987259
 31
0.0
  0
TEXT
  5
82AD
  8
3
 62
     0
 10
653.70483604537571
 20
1849.599553796786
 30
0.0
 40
45.0
  1
200
  0
INSERT
  5
82AE
  8
0
  6
BYBLOCK
 62
     0
  2
_OPEN
 10
611.28091847410997
 20
1833.4363490987259
 30
0.0
 41
30.0
 42
30.0
 43
30.0
 50
180.0
  0
INSERT
  5
82AF
  8
0
  6
BYBLOCK
 62
     0
  2
_OPEN
 10
811.28091847410985
 20
1833.4363490987259
 30
0.0
 41
30.0
 42
30.0
 43
30.0
  0
POINT
  5
82B0
  8
DEFPOINTS
  6
BYBLOCK
 62
     0
 10
611.28091847410997
 20
1590.3406642144821
 30
0.0
  0
POINT
  5
82B1
  8
DEFPOINTS
  6
BYBLOCK
 62
     0
 10
811.28091847410985
 20
1800.5470345755509
 30
0.0
  0
POINT
  5
82B2
  8
DEFPOINTS
  6
BYBLOCK
 62
     0
 10
811.28091847410985
 20
1833.4363490987259
 30
0.0
  0
ENDBLK
  5
82B3
  8
0
  0
BLOCK
  8
0
  2
*D8
 70
     1
 10
0.0
 20
0.0
 30
0.0
  3
*D8
  1

  0
LINE
  5
829F
  8
0
  6
BYBLOCK
 62
     0
 10
811.28091847410985
 20
1808.0470345755509
 30
0.0
 11
811.28091847410985
 21
1848.4363490987259
 31
0.0
  0
LINE
  5
82A0
  8
0
  6
BYBLOCK
 62
     0
 10
1016.28091847411
 20
1554.8406642144821
 30
0.0
 11
1016.28091847411
 21
1848.4363490987259
 31
0.0
  0
LINE
  5
82A1
  8
0
  6
BYBLOCK
 62
     0
 10
841.28091847410985
 20
1833.4363490987259
 30
0.0
 11
986.28091847411076
 21
1833.4363490987259
 31
0.0
  0
TEXT
  5
82A2
  8
3
 62
     0
 10
856.89059573453073
 20
1852.1372977442909
 30
0.0
 40
45.0
  1
205
  0
INSERT
  5
82A3
  8
0
  6
BYBLOCK
 62
     0
  2
_OPEN
 10
811.28091847410985
 20
1833.4363490987259
 30
0.0
 41
30.0
 42
30.0
 43
30.0
 50
180.0
  0
INSERT
  5
82A4
  8
0
  6
BYBLOCK
 62
     0
  2
_OPEN
 10
1016.28091847411
 20
1833.4363490987259
 30
0.0
 41
30.0
 42
30.0
 43
30.0
  0
POINT
  5
82A5
  8
DEFPOINTS
  6
BYBLOCK
 62
     0
 10
811.28091847410985
 20
1800.5470345755509
 30
0.0
  0
POINT
  5
82A6
  8
DEFPOINTS
  6
BYBLOCK
 62
     0
 10
1016.28091847411
 20
1547.3406642144821
 30
0.0
  0
POINT
  5
82A7
  8
DEFPOINTS
  6
BYBLOCK
 62
     0
 10
1016.28091847411
 20
1833.4363490987259
 30
0.0
  0
ENDBLK
  5
82A8
  8
0
  0
BLOCK
  8
0
  2
*D9
 70
     1
 10
0.0
 20
0.0
 30
0.0
  3
*D9
  1

  0
LINE
  5
8347
  8
0
  6
BYBLOCK
 62
     0
 10
817.78091847411088
 20
1738.3406642144821
 30
0.0
 11
377.2247331889825
 21
1738.3406642144821
 31
0.0
  0
LINE
  5
8348
  8
0
  6
BYBLOCK
 62
     0
 10
553.13793839888956
 20
1561.3406642144821
 30
0.0
 11
377.2247331889825
 21
1561.3406642144821
 31
0.0
  0
LINE
  5
8349
  8
0
  6
BYBLOCK
 62
     0
 10
392.2247331889825
 20
1708.340664214483
 30
0.0
 11
392.2247331889825
 21
1591.3406642144821
 31
0.0
  0
TEXT
  5
834A
  8
3
 62
     0
 10
354.7247331889825
 20
1596.269235643053
 30
0.0
 40
45.0
  1
177
 50
90.0
  0
INSERT
  5
834B
  8
0
  6
BYBLOCK
 62
     0
  2
_OPEN
 10
392.2247331889825
 20
1738.3406642144821
 30
0.0
 41
30.0
 42
30.0
 43
30.0
 50
90.0
  0
INSERT
  5
834C
  8
0
  6
BYBLOCK
 62
     0
  2
_OPEN
 10
392.2247331889825
 20
1561.3406642144821
 30
0.0
 41
30.0
 42
30.0
 43
30.0
 50
270.0
  0
POINT
  5
834D
  8
DEFPOINTS
  6
BYBLOCK
 62
     0
 10
825.28091847411076
 20
1738.3406642144821
 30
0.0
  0
POINT
  5
834E
  8
DEFPOINTS
  6
BYBLOCK
 62
     0
 10
560.63793839888967
 20
1561.3406642144821
 30
0.0
  0
POINT
  5
834F
  8
DEFPOINTS
  6
BYBLOCK
 62
     0
 10
392.2247331889825
 20
1561.3406642144821
 30
0.0
  0
ENDBLK
  5
8350
  8
0
  0
BLOCK
  8
0
  2
*D10
 70
     1
 10
0.0
 20
0.0
 30
0.0
  3
*D10
  1

  0
LINE
  5
86BC
  8
3
 62
     0
 10
710.36828108924226
 20
1561.3406642144821
 30
0.0
 11
534.45507587933525
 21
1561.3406642144821
 31
0.0
  0
LINE
  5
86BD
  8
3
 62
     0
 10
761.01126116446255
 20
1241.340664214481
 30
0.0
 11
534.45507587933525
 21
1241.340664214481
 31
0.0
  0
LINE
  5
86BE
  8
3
 62
     0
 10
549.45507587933525
 20
1531.340664214481
 30
0.0
 11
549.45507587933525
 21
1271.340664214481
 31
0.0
  0
INSERT
  5
86BF
  8
3
 62
     0
  2
_OPEN
 10
549.45507587933525
 20
1561.3406642144821
 30
0.0
 41
30.0
 42
30.0
 43
30.0
 50
90.0
  0
INSERT
  5
86C0
  8
3
 62
     0
  2
_OPEN
 10
549.45507587933525
 20
1241.340664214481
 30
0.0
 41
30.0
 42
30.0
 43
30.0
 50
270.0
  0
TEXT
  8
3
  40
45
  5
8718
  62
0
  72
0
  71
0
 10
421.955
 20
1321.69
 30
0.000000
  1
320
  0
POINT
  5
86C2
  8
DEFPOINTS
 62
     0
 10
717.86828108924226
 20
1561.3406642144821
 30
0.0
  0
POINT
  5
86C3
  8
DEFPOINTS
 62
     0
 10
768.51126116446255
 20
1241.340664214481
 30
0.0
  0
POINT
  5
86C4
  8
DEFPOINTS
 62
     0
 10
549.45507587933525
 20
1241.340664214481
 30
0.0
  0
ENDBLK
  5
8320
  8
0
  0
BLOCK
  8
0
  2
*D11
 70
     1
 10
0.0
 20
0.0
 30
0.0
  3
*D11
  1

  0
LINE
  5
86C5
  8
3
 62
     0
 10
768.51126116446255
 20
1597.8406642144821
 30
0.0
 11
768.51126116446255
 21
1953.4505044932539
 31
0.0
  0
LINE
  5
86C6
  8
3
 62
     0
 10
1468.5112611644629
 20
1288.840664214481
 30
0.0
 11
1468.5112611644629
 21
1953.4505044932539
 31
0.0
  0
LINE
  5
86C7
  8
3
 62
     0
 10
798.51126116446255
 20
1938.4505044932539
 30
0.0
 11
1438.5112611644629
 21
1938.4505044932539
 31
0.0
  0
INSERT
  5
86C8
  8
3
 62
     0
  2
_OPEN
 10
768.51126116446255
 20
1938.4505044932539
 30
0.0
 41
30.0
 42
30.0
 43
30.0
 50
180.0
  0
INSERT
  5
86C9
  8
3
 62
     0
  2
_OPEN
 10
1468.5112611644629
 20
1938.4505044932539
 30
0.0
 41
30.0
 42
30.0
 43
30.0
  0
TEXT
  8
3
  40
45
  5
8719
  62
0
  72
0
  71
0
 10
1028.51
 20
1896.30
 30
0.000000
  1
700
  0
POINT
  5
86CB
  8
DEFPOINTS
 62
     0
 10
768.51126116446255
 20
1590.3406642144821
 30
0.0
  0
POINT
  5
86CC
  8
DEFPOINTS
 62
     0
 10
1468.5112611644629
 20
1281.340664214481
 30
0.0
  0
POINT
  5
86CD
  8
DEFPOINTS
 62
     0
 10
1468.5112611644629
 20
1938.4505044932539
 30
0.0
  0
ENDBLK
  5
8287
  8
0
  0
BLOCK
  8
0
  2
_DOT
 70
     0
 10
0.0
 20
0.0
 30
0.0
  3
_DOT
  1

  0
LINE
  5
84B9
  8
0
  6
BYBLOCK
 62
     0
 10
0.0
 20
0.0
 30
0.0
 11
-1.0
 21
-0.0000000000000284
 31
0.0
  0
POLYLINE
  5
84BA
  8
0
  6
BYBLOCK
 62
     0
 66
     1
 10
0.0
 20
0.0
 30
0.0
 70
     1
 40
0.1666666666666666
 41
0.1666666666666666
  0
VERTEX
  5
86CE
  8
0
  6
BYBLOCK
 62
     0
 10
-0.0833333333333286
 20
-0.0000000000000284
 30
0.0
 42
1.0
  0
VERTEX
  5
86CF
  8
0
  6
BYBLOCK
 62
     0
 10
0.0833333333333286
 20
-0.0000000000000284
 30
0.0
 42
1.0
  0
SEQEND
  5
86D0
  8
0
  6
BYBLOCK
 62
     0
  0
ENDBLK
  5
8391
  8
0
  0
BLOCK
  8
0
  2
*D13
 70
     1
 10
0.0
 20
0.0
 30
0.0
  3
*D13
  1

  0
LINE
  5
86D1
  8
3
 62
     0
 10
1476.011261164462
 20
3019.7174428492949
 30
0.0
 11
1579.1488270351731
 21
3019.7174428492949
 31
0.0
  0
LINE
  5
86D2
  8
3
 62
     0
 10
1476.0112611644611
 20
2574.7174428492958
 30
0.0
 11
1579.1488270351731
 21
2574.7174428492958
 31
0.0
  0
LINE
  5
86D3
  8
3
 62
     0
 10
1564.1488270351731
 20
2989.7174428492949
 30
0.0
 11
1564.1488270351731
 21
2604.7174428492958
 31
0.0
  0
INSERT
  5
86D4
  8
3
 62
     0
  2
_OPEN
 10
1564.1488270351731
 20
3019.7174428492949
 30
0.0
 41
30.0
 42
30.0
 43
30.0
 50
90.0
  0
INSERT
  5
86D5
  8
3
 62
     0
  2
_OPEN
 10
1564.1488270351731
 20
2574.7174428492958
 30
0.0
 41
30.0
 42
30.0
 43
30.0
 50
270.0
  0
TEXT
  8
3
  40
45
  5
871A
  62
0
  72
0
  71
0
 10
1436.65
 20
2709.64
 30
0.000000
  1
445
  0
POINT
  5
86D7
  8
DEFPOINTS
 62
     0
 10
1468.511261164462
 20
3019.7174428492949
 30
0.0
  0
POINT
  5
86D8
  8
DEFPOINTS
 62
     0
 10
1468.5112611644611
 20
2574.7174428492958
 30
0.0
  0
POINT
  5
86D9
  8
DEFPOINTS
 62
     0
 10
1564.1488270351731
 20
2574.7174428492958
 30
0.0
  0
ENDBLK
  5
857E
  8
0
  0
BLOCK
  8
0
  2
*D14
 70
     1
 10
0.0
 20
0.0
 30
0.0
  3
*D14
  1

  0
LINE
  5
86DA
  8
3
 62
     0
 10
768.51126116446255
 20
2567.2174428492958
 30
0.0
 11
768.51126116446255
 21
2423.0769724788402
 31
0.0
  0
LINE
  5
86DB
  8
3
 62
     0
 10
1468.5112611644611
 20
2567.2174428492958
 30
0.0
 11
1468.5112611644611
 21
2423.0769724788402
 31
0.0
  0
LINE
  5
86DC
  8
3
 62
     0
 10
798.51126116446255
 20
2438.0769724788411
 30
0.0
 11
1438.5112611644611
 21
2438.0769724788411
 31
0.0
  0
INSERT
  5
86DD
  8
3
 62
     0
  2
_OPEN
 10
768.51126116446255
 20
2438.0769724788411
 30
0.0
 41
30.0
 42
30.0
 43
30.0
 50
180.0
  0
INSERT
  5
86DE
  8
3
 62
     0
  2
_OPEN
 10
1468.5112611644611
 20
2438.0769724788411
 30
0.0
 41
30.0
 42
30.0
 43
30.0
  0
TEXT
  8
3
  40
45
  5
871B
  62
0
  72
0
  71
0
 10
1021.53
 20
2395.93
 30
0.000000
  1
700
  0
POINT
  5
86E0
  8
DEFPOINTS
 62
     0
 10
768.51126116446255
 20
2574.7174428492958
 30
0.0
  0
POINT
  5
86E1
  8
DEFPOINTS
 62
     0
 10
1468.5112611644611
 20
2574.7174428492958
 30
0.0
  0
POINT
  5
86E2
  8
DEFPOINTS
 62
     0
 10
1468.5112611644611
 20
2438.0769724788411
 30
0.0
  0
ENDBLK
  5
8598
  8
0
  0
BLOCK
  8
0
  2
*D15
 70
     1
 10
0.0
 20
0.0
 30
0.0
  3
*D15
  1

  0
LINE
  5
86E3
  8
3
 62
     0
 10
768.51126116446255
 20
1171.8406642144801
 30
0.0
 11
768.51126116446255
 21
1049.765123843692
 31
0.0
  0
LINE
  5
86E4
  8
3
 62
     0
 10
968.51126116446255
 20
1171.8406642144801
 30
0.0
 11
968.51126116446255
 21
1049.765123843692
 31
0.0
  0
LINE
  5
86E5
  8
3
 62
     0
 10
798.51126116446255
 20
1064.7651238436911
 30
0.0
 11
938.51126116446267
 21
1064.7651238436911
 31
0.0
  0
INSERT
  5
86E6
  8
3
 62
     0
  2
_OPEN
 10
768.51126116446255
 20
1064.7651238436911
 30
0.0
 41
30.0
 42
30.0
 43
30.0
 50
180.0
  0
INSERT
  5
86E7
  8
3
 62
     0
  2
_OPEN
 10
968.51126116446255
 20
1064.7651238436911
 30
0.0
 41
30.0
 42
30.0
 43
30.0
  0
TEXT
  8
3
  40
45
  5
871C
  62
0
  72
0
  71
0
 10
778.511
 20
1022.62
 30
0.000000
  1
200
  0
POINT
  5
86E9
  8
DEFPOINTS
 62
     0
 10
768.51126116446255
 20
1179.340664214481
 30
0.0
  0
POINT
  5
86EA
  8
DEFPOINTS
 62
     0
 10
968.51126116446255
 20
1179.340664214481
 30
0.0
  0
POINT
  5
86EB
  8
DEFPOINTS
 62
     0
 10
968.51126116446255
 20
1064.7651238436911
 30
0.0
  0
ENDBLK
  5
85F9
  8
0
  0
BLOCK
  8
0
  2
*D16
 70
     1
 10
0.0
 20
0.0
 30
0.0
  3
*D16
  1

  0
LINE
  5
86EC
  8
3
 62
     0
 10
968.51126116446255
 20
1171.8406642144801
 30
0.0
 11
968.51126116446255
 21
1049.765123843692
 31
0.0
  0
LINE
  5
86ED
  8
3
 62
     0
 10
1468.5112611644629
 20
1171.8406642144801
 30
0.0
 11
1468.5112611644629
 21
1049.765123843692
 31
0.0
  0
LINE
  5
86EE
  8
3
 62
     0
 10
998.51126116446267
 20
1064.7651238436911
 30
0.0
 11
1438.5112611644629
 21
1064.7651238436911
 31
0.0
  0
INSERT
  5
86EF
  8
3
 62
     0
  2
_OPEN
 10
968.51126116446255
 20
1064.7651238436911
 30
0.0
 41
30.0
 42
30.0
 43
30.0
 50
180.0
  0
INSERT
  5
86F0
  8
3
 62
     0
  2
_OPEN
 10
1468.5112611644629
 20
1064.7651238436911
 30
0.0
 41
30.0
 42
30.0
 43
30.0
  0
TEXT
  8
3
  40
45
  5
871D
  62
0
  72
0
  71
0
 10
1128.51
 20
1022.62
 30
0.000000
  1
500
  0
POINT
  5
86F2
  8
DEFPOINTS
 62
     0
 10
968.51126116446255
 20
1179.340664214481
 30
0.0
  0
POINT
  5
86F3
  8
DEFPOINTS
 62
     0
 10
1468.5112611644629
 20
1179.340664214481
 30
0.0
  0
POINT
  5
86F4
  8
DEFPOINTS
 62
     0
 10
1468.5112611644629
 20
1064.7651238436911
 30
0.0
  0
ENDBLK
  5
8606
  8
0
  0
BLOCK
  8
0
  2
*D17
 70
     1
 10
0.0
 20
0.0
 30
0.0
  3
*D17
  1

  0
LINE
  5
86F5
  8
3
 62
     0
 10
1976.5688610787679
 20
1171.817589315023
 30
0.0
 11
1976.5688610787679
 21
1049.765123843692
 31
0.0
  0
LINE
  5
86F6
  8
3
 62
     0
 10
2421.5688610787679
 20
1171.817589315023
 30
0.0
 11
2421.5688610787679
 21
1049.765123843692
 31
0.0
  0
LINE
  5
86F7
  8
3
 62
     0
 10
2006.5688610787679
 20
1064.7651238436911
 30
0.0
 11
2391.5688610787679
 21
1064.7651238436911
 31
0.0
  0
INSERT
  5
86F8
  8
3
 62
     0
  2
_OPEN
 10
1976.5688610787679
 20
1064.7651238436911
 30
0.0
 41
30.0
 42
30.0
 43
30.0
 50
180.0
  0
INSERT
  5
86F9
  8
3
 62
     0
  2
_OPEN
 10
2421.5688610787679
 20
1064.7651238436911
 30
0.0
 41
30.0
 42
30.0
 43
30.0
  0
TEXT
  8
3
  40
45
  5
871E
  62
0
  72
0
  71
0
 10
2109.07
 20
1022.62
 30
0.000000
  1
445
  0
POINT
  5
86FB
  8
DEFPOINTS
 62
     0
 10
1976.5688610787679
 20
1179.317589315023
 30
0.0
  0
POINT
  5
86FC
  8
DEFPOINTS
 62
     0
 10
2421.5688610787679
 20
1179.317589315023
 30
0.0
  0
POINT
  5
86FD
  8
DEFPOINTS
 62
     0
 10
2421.5688610787679
 20
1064.7651238436911
 30
0.0
  0
ENDBLK
  5
8613
  8
0
  0
BLOCK
  8
0
  2
*D18
 70
     1
 10
0.0
 20
0.0
 30
0.0
  3
*D18
  1

  0
LINE
  5
86FE
  8
3
 62
     0
 10
2421.5688610787679
 20
1171.817589315023
 30
0.0
 11
2421.5688610787679
 21
1049.765123843692
 31
0.0
  0
LINE
  5
86FF
  8
3
 62
     0
 10
2477.5688610787679
 20
1171.817589315023
 30
0.0
 11
2477.5688610787679
 21
1049.765123843692
 31
0.0
  0
LINE
  5
8700
  8
3
 62
     0
 10
2391.5688610787679
 20
1064.7651238436911
 30
0.0
 11
2361.5688610787679
 21
1064.7651238436911
 31
0.0
  0
LINE
  5
8701
  8
3
 62
     0
 10
2507.5688610787679
 20
1064.7651238436911
 30
0.0
 11
2638.2831467930541
 21
1064.7651238436911
 31
0.0
  0
LINE
  5
8702
  8
3
 62
     0
 10
2421.5688610787679
 20
1064.7651238436911
 30
0.0
 11
2477.5688610787679
 21
1064.7651238436911
 31
0.0
  0
INSERT
  5
8703
  8
3
 62
     0
  2
_OPEN
 10
2421.5688610787679
 20
1064.7651238436911
 30
0.0
 41
30.0
 42
30.0
 43
30.0
  0
INSERT
  5
8704
  8
3
 62
     0
  2
_OPEN
 10
2477.5688610787679
 20
1064.7651238436911
 30
0.0
 41
30.0
 42
30.0
 43
30.0
 50
180.0
  0
TEXT
  8
3
  40
45
  5
871F
  62
0
  72
0
  71
0
 10
2497.93
 20
1022.62
 30
0.000000
  1
56
  0
POINT
  5
8706
  8
DEFPOINTS
 62
     0
 10
2421.5688610787679
 20
1179.317589315023
 30
0.0
  0
POINT
  5
8707
  8
DEFPOINTS
 62
     0
 10
2477.5688610787679
 20
1179.317589315023
 30
0.0
  0
POINT
  5
8708
  8
DEFPOINTS
 62
     0
 10
2477.5688610787679
 20
1064.7651238436911
 30
0.0
  0
ENDBLK
  5
8622
  8
0
  0
BLOCK
  8
0
  2
*D19
 70
     1
 10
0.0
 20
0.0
 30
0.0
  3
*D19
  1

  0
LINE
  5
8709
  8
3
 62
     0
 10
761.01126116446255
 20
1219.340664214481
 30
0.0
 11
535.97471075780595
 21
1219.340664214481
 31
0.0
  0
LINE
  5
870A
  8
3
 62
     0
 10
761.01126116446255
 20
1179.340664214481
 30
0.0
 11
535.97471075780595
 21
1179.340664214481
 31
0.0
  0
LINE
  5
870B
  8
3
 62
     0
 10
550.97471075780595
 20
1249.340664214481
 30
0.0
 11
550.97471075780595
 21
1279.340664214481
 31
0.0
  0
LINE
  5
870C
  8
3
 62
     0
 10
550.97471075780595
 20
1149.340664214481
 30
0.0
 11
550.97471075780595
 21
1016.483521357338
 31
0.0
  0
LINE
  5
870D
  8
3
 62
     0
 10
550.97471075780595
 20
1219.340664214481
 30
0.0
 11
550.97471075780595
 21
1179.340664214481
 31
0.0
  0
INSERT
  5
870E
  8
3
 62
     0
  2
_DOT
 10
550.97471075780595
 20
1219.340664214481
 30
0.0
 41
30.0
 42
30.0
 43
30.0
 50
270.0
  0
INSERT
  5
870F
  8
3
 62
     0
  2
_OPEN
 10
550.97471075780595
 20
1179.340664214481
 30
0.0
 41
30.0
 42
30.0
 43
30.0
 50
90.0
  0
TEXT
  8
3
  40
45
  5
8720
  62
0
  72
0
  71
0
 10
423.475
 20
988.262
 30
0.000000
  1
40
  0
POINT
  5
8711
  8
DEFPOINTS
 62
     0
 10
768.51126116446255
 20
1219.340664214481
 30
0.0
  0
POINT
  5
8712
  8
DEFPOINTS
 62
     0
 10
768.51126116446255
 20
1179.340664214481
 30
0.0
  0
POINT
  5
8713
  8
DEFPOINTS
 62
     0
 10
550.97471075780595
 20
1179.340664214481
 30
0.0
  0
ENDBLK
  5
864C
  8
0
  0
BLOCK
  8
0
  2
*D20
 70
     1
 10
0.0
 20
0.0
 30
0.0
  3
*D20
  1

  0
LINE
  5
8650
  8
0
  6
BYBLOCK
 62
     0
 10
761.01126116446255
 20
1219.340664214481
 30
0.0
 11
535.97471075780595
 21
1219.340664214481
 31
0.0
  0
LINE
  5
8651
  8
0
  6
BYBLOCK
 62
     0
 10
761.01126116446255
 20
1241.340664214481
 30
0.0
 11
535.97471075780595
 21
1241.340664214481
 31
0.0
  0
LINE
  5
8652
  8
0
  6
BYBLOCK
 62
     0
 10
550.97471075780595
 20
1189.340664214481
 30
0.0
 11
550.97471075780595
 21
1159.340664214481
 31
0.0
  0
LINE
  5
8653
  8
0
  6
BYBLOCK
 62
     0
 10
550.97471075780595
 20
1271.340664214481
 30
0.0
 11
550.97471075780595
 21
1301.340664214481
 31
0.0
  0
TEXT
  5
8654
  8
3
 62
     0
 10
494.18899647209167
 20
1164.9835213573381
 30
0.0
 40
45.0
  1
(22)
 50
90.0
  0
LINE
  5
8655
  8
0
  6
BYBLOCK
 62
     0
 10
550.97471075780595
 20
1219.340664214481
 30
0.0
 11
550.97471075780595
 21
1241.340664214481
 31
0.0
  0
INSERT
  5
8656
  8
0
  6
BYBLOCK
 62
     0
  2
_DOT
 10
550.97471075780595
 20
1219.340664214481
 30
0.0
 41
30.0
 42
30.0
 43
30.0
 50
90.0
  0
INSERT
  5
8657
  8
0
  6
BYBLOCK
 62
     0
  2
_OPEN
 10
550.97471075780595
 20
1241.340664214481
 30
0.0
 41
30.0
 42
30.0
 43
30.0
 50
270.0
  0
POINT
  5
8658
  8
DEFPOINTS
  6
BYBLOCK
 62
     0
 10
768.51126116446255
 20
1219.340664214481
 30
0.0
  0
POINT
  5
8659
  8
DEFPOINTS
  6
BYBLOCK
 62
     0
 10
768.51126116446255
 20
1241.340664214481
 30
0.0
  0
POINT
  5
865A
  8
DEFPOINTS
  6
BYBLOCK
 62
     0
 10
550.97471075780595
 20
1241.340664214481
 30
0.0
  0
ENDBLK
  5
865B
  8
0
  0
BLOCK
  8
0
  2
*D21
 70
     1
 10
0.0
 20
0.0
 30
0.0
  3
*D21
  1

  0
LINE
  5
865F
  8
0
  6
BYBLOCK
 62
     0
 10
967.51126116446346
 20
1738.3406642144821
 30
0.0
 11
393.71900940697918
 21
1738.3406642144821
 31
0.0
  0
LINE
  5
8660
  8
0
  6
BYBLOCK
 62
     0
 10
761.01126116446255
 20
1179.340664214481
 30
0.0
 11
393.71900940697918
 21
1179.340664214481
 31
0.0
  0
LINE
  5
8661
  8
0
  6
BYBLOCK
 62
     0
 10
408.71900940697918
 20
1708.340664214483
 30
0.0
 11
408.71900940697918
 21
1209.340664214481
 31
0.0
  0
INSERT
  5
8662
  8
0
  6
BYBLOCK
 62
     0
  2
_OPEN
 10
408.71900940697918
 20
1738.3406642144821
 30
0.0
 41
30.0
 42
30.0
 43
30.0
 50
90.0
  0
INSERT
  5
8663
  8
0
  6
BYBLOCK
 62
     0
  2
_OPEN
 10
408.71900940697918
 20
1179.340664214481
 30
0.0
 41
30.0
 42
30.0
 43
30.0
 50
270.0
  0
TEXT
  5
8664
  8
3
 62
     0
 10
374.4332951212649
 20
1372.054949928767
 30
0.0
 40
45.0
  1
(559)
 50
90.0
  0
POINT
  5
8665
  8
DEFPOINTS
  6
BYBLOCK
 62
     0
 10
975.01126116446358
 20
1738.3406642144821
 30
0.0
  0
POINT
  5
8666
  8
DEFPOINTS
  6
BYBLOCK
 62
     0
 10
768.51126116446255
 20
1179.340664214481
 30
0.0
  0
POINT
  5
8667
  8
DEFPOINTS
  6
BYBLOCK
 62
     0
 10
408.71900940697918
 20
1179.340664214481
 30
0.0
  0
ENDBLK
  5
8668
  8
0
  0
ENDSEC
  0
SECTION
  2
ENTITIES
  0
LINE
  5
7E4D
  8
2
 10
1251.8055296134739
 20
1561.3406642144821
 30
0.0
 11
717.86828108924226
 21
1561.3406642144821
 31
0.0
  0
LINE
  5
7E4E
  8
2
 10
968.51126116446255
 20
1800.5470345755509
 30
0.0
 11
968.51126116446278
 21
1179.340664214481
 31
0.0
  0
LINE
  5
7E4F
  8
1
 10
1347.349065695611
 20
1460.333364495149
 30
0.0
 11
1004.2104116766779
 21
1646.748719078829
 31
0.0
  0
ARC
  5
7E50
  8
1
 10
968.51126116446255
 20
1561.3406642144821
 30
0.0
 40
92.568705203245145
 50
67.315881326603076
 51
252.03784501407091
  0
LINE
  5
7E51
  8
1
 10
793.51126116446255
 20
1296.340664214481
 30
0.0
 11
793.51126116446255
 21
1590.3406642144821
 31
0.0
  0
LINE
  5
7E52
  8
1
 10
768.51126116446255
 20
1296.340664214481
 30
0.0
 11
768.51126116446255
 21
1590.3406642144821
 31
0.0
  0
ARC
  5
7E53
  8
1
 10
952.51126116446346
 20
1545.3406642144821
 30
0.0
 40
221.0
 50
270.31037733564341
 51
0.2687094722478278
  0
LINE
  5
7E54
  8
1
 10
940.71954702265964
 20
1497.2531989509871
 30
0.0
 11
1297.370588529084
 21
1342.5904462087201
 31
0.0
  0
LINE
  5
7E55
  8
1
 10
1295.450852115647
 20
1320.2081878292449
 30
0.0
 11
939.96411526028362
 21
1473.283718754564
 31
0.0
  0
LINE
  5
7E56
  8
1
 10
1338.88133978364
 20
1440.417865562297
 30
0.0
 11
995.28994563653839
 21
1625.8579846546879
 31
0.0
  0
LINE
  5
7E59
  8
1
 10
1468.5112611644629
 20
1241.340664214481
 30
0.0
 11
768.51126116446255
 21
1241.340664214481
 31
0.0
  0
LINE
  5
7E5A
  8
1
 10
1468.5112611644629
 20
1281.340664214481
 30
0.0
 11
768.51126116446255
 21
1281.340664214481
 31
0.0
  0
ARC
  5
7E5B
  8
1
 10
982.51126116446358
 20
1547.3406642144821
 30
0.0
 40
191.0
 50
359.71095697634439
 51
103.2198000567213
  0
LINE
  5
7E5C
  8
2
 10
1318.511261164462
 20
1497.0105988391481
 30
0.0
 11
1318.511261164462
 21
1264.9011534248241
 31
0.0
  0
ARC
  5
7E5D
  8
1
 10
1318.511261164462
 20
1391.340664214481
 30
0.0
 40
74.777079791837537
 50
252.037845014071
 51
67.315881326603105
  0
CIRCLE
  5
7E5E
  8
1
 10
1318.511261164462
 20
1391.340664214481
 30
0.0
 40
53.13672736521761
  0
ARC
  5
7E5F
  8
1
 10
1318.511261164462
 20
1391.340664214481
 30
0.0
 40
85.0
 50
298.87799909265573
 51
241.12200090734419
  0
LINE
  5
7E60
  8
2
 10
1439.5112611644629
 20
1391.340664214481
 30
0.0
 11
1197.511261164462
 21
1391.340664214481
 31
0.0
  0
LINE
  5
7E61
  8
1
 10
1221.011261164462
 20
1311.340664214481
 30
0.0
 11
1416.011261164462
 21
1311.340664214481
 31
0.0
  0
LINE
  5
7E62
  8
1
 10
1426.0112611644629
 20
1281.340664214481
 30
0.0
 11
1211.011261164462
 21
1281.340664214481
 31
0.0
  0
LINE
  5
7E63
  8
1
 10
1468.5112611644629
 20
1281.340664214481
 30
0.0
 11
1468.5112611644629
 21
1241.340664214481
 31
0.0
  0
LINE
  5
7E64
  8
1
 10
1416.011261164462
 20
1311.340664214481
 30
0.0
 11
1426.0112611644629
 21
1281.340664214481
 31
0.0
  0
LINE
  5
7E69
  8
1
 10
1359.561686423951
 20
1316.910411050771
 30
0.0
 11
1277.460835904966
 21
1316.9104110507719
 31
0.0
  0
LINE
  5
7E6A
  8
1
 10
1398.8720973907309
 20
1311.340664214481
 30
0.0
 11
1387.8467766542269
 21
1342.1717076283469
 31
0.0
  0
LINE
  5
7E6B
  8
1
 10
1396.011261164462
 20
1311.340664214481
 30
0.0
 11
1361.011261164462
 21
1311.340664214481
 31
0.0
  0
LINE
  5
7E6C
  8
1
 10
1238.1504249381951
 20
1311.340664214481
 30
0.0
 11
1249.175745674698
 21
1342.1717076283469
 31
0.0
  0
LINE
  5
7E6D
  8
1
 10
1241.011261164462
 20
1311.340664214481
 30
0.0
 11
1276.011261164462
 21
1311.340664214481
 31
0.0
  0
LINE
  5
7E6E
  8
1
 10
1211.011261164462
 20
1281.340664214481
 30
0.0
 11
1221.011261164462
 21
1311.340664214481
 31
0.0
  0
LINE
  5
7E6F
  8
1
 10
803.31126116446285
 20
1505.0406642144801
 30
0.0
 11
803.31126116446285
 21
1281.340664214481
 31
0.0
  0
LINE
  5
7E70
  8
1
 10
1133.711261164462
 20
1505.040664214481
 30
0.0
 11
1133.711261164462
 21
1281.340664214481
 31
0.0
  0
ARC
  5
7E71
  8
1
 10
979.51126116446255
 20
1572.340664214483
 30
0.0
 40
166.0
 50
104.1851355981358
 51
197.41178377047871
  0
LINE
  5
7E72
  8
1
 10
768.51126116446255
 20
1281.340664214481
 30
0.0
 11
768.51126116446255
 21
1241.340664214481
 31
0.0
  0
LINE
  5
7E76
  8
1
 10
1138.711261164462
 20
1505.040664214481
 30
0.0
 11
798.31126116446285
 21
1505.0406642144801
 31
0.0
  0
LINE
  5
7E77
  8
1
 10
1138.711261164462
 20
1507.340664214481
 30
0.0
 11
798.31126116446285
 21
1507.340664214481
 31
0.0
  0
CIRCLE
  5
7E78
  8
1
 10
968.51126116446255
 20
1561.3406642144821
 30
0.0
 40
69.854009039133416
  0
LINE
  5
7E79
  8
1
 10
1068.511261164462
 20
1507.7406642144811
 30
0.0
 11
868.51126116446346
 21
1507.7406642144811
 31
0.0
  0
LINE
  5
7E7A
  8
1
 10
1122.711261164462
 20
1612.340664214481
 30
0.0
 11
1122.711261164462
 21
1507.340664214481
 31
0.0
  0
LINE
  5
7E7B
  8
1
 10
1128.711261164462
 20
1612.340664214481
 30
0.0
 11
1128.711261164462
 21
1507.340664214481
 31
0.0
  0
LINE
  5
7E7C
  8
1
 10
1138.711261164462
 20
1507.340664214481
 30
0.0
 11
1138.711261164462
 21
1505.040664214481
 31
0.0
  0
LINE
  5
7E7D
  8
1
 10
1122.711261164462
 20
1612.3406642144821
 30
0.0
 11
1128.711261164462
 21
1612.3406642144821
 31
0.0
  0
LINE
  5
7E7E
  8
1
 10
814.31126116446285
 20
1612.3406642144821
 30
0.0
 11
814.31126116446285
 21
1507.340664214481
 31
0.0
  0
LINE
  5
7E7F
  8
1
 10
808.31126116446285
 20
1612.340664214481
 30
0.0
 11
808.31126116446285
 21
1507.340664214481
 31
0.0
  0
LINE
  5
7E80
  8
1
 10
798.31126116446285
 20
1507.340664214481
 30
0.0
 11
798.31126116446285
 21
1505.0406642144801
 31
0.0
  0
LINE
  5
7E81
  8
1
 10
813.75541662195508
 20
1563.340664214481
 30
0.0
 11
768.51126116446255
 21
1563.340664214481
 31
0.0
  0
LINE
  5
7E82
  8
1
 10
793.51126116446255
 20
1590.3406642144821
 30
0.0
 11
768.51126116446255
 21
1590.3406642144821
 31
0.0
  0
LINE
  5
7E83
  8
1
 10
814.31126116446285
 20
1612.3406642144821
 30
0.0
 11
808.31126116446285
 21
1612.340664214481
 31
0.0
  0
CIRCLE
  5
7E84
  8
1
 10
823.77794408336456
 20
1496.3406642144821
 30
0.0
 40
8.0
  0
ARC
  5
7E85
  8
1
 10
960.51126116446255
 20
1569.3406642144821
 30
0.0
 40
147.0
 50
198.51215151182919
 51
208.09713310976579
  0
LINE
  5
7E86
  8
1
 10
953.70843583040369
 20
1324.343906833702
 30
0.0
 11
768.51126116446255
 21
1323.3406642144821
 31
0.0
  0
LINE
  5
7E87
  8
1
 10
793.51126116446255
 20
1296.3406642144821
 30
0.0
 11
768.51126116446255
 21
1296.3406642144821
 31
0.0
  0
DIMENSION
  5
7E88
  8
3
  2
*D1
 10
2567.5688610787679
 20
1804.4795427416859
 30
0.0
 11
2482.086881646901
 21
1836.273625846972
 31
0.0
 70
   128
 13
2387.5688610787679
 23
1728.422690128551
 33
0.0
 14
2567.5688610787679
 24
1730.0865076190989
 34
0.0
1001
ACAD
1000
DSTYLE
1002
{
1070
   288
1070
     1
1070
   172
1070
     1
1070
    40
1040
15.0
1070
   271
1070
     0
1070
   143
1040
0.039
1002
}
  0
LINE
  5
7E89
  8
2
 10
1935.2963219314181
 20
1561.317589315024
 30
0.0
 11
2628.7046221410201
 21
1561.317589315024
 31
0.0
  0
LINE
  5
7E8A
  8
1
 10
2387.5688610787679
 20
1559.317589315023
 30
0.0
 11
2567.568861078767
 21
1559.317589315024
 31
0.0
  0
LINE
  5
7E8B
  8
2
 10
2477.5688610787679
 20
1799.139436743375
 30
0.0
 11
2477.5688610787679
 21
1179.317589315023
 31
0.0
  0
LINE
  5
7E8C
  8
1
 10
2019.4866611510431
 20
1606.899316527509
 30
0.0
 11
2019.4866611510431
 21
1653.8862945182691
 31
0.0
  0
LINE
  5
7E8D
  8
1
 10
1949.8077958908621
 20
1316.5635844226431
 30
0.0
 11
1949.8077958908621
 21
1653.8862945182691
 31
0.0
  0
LINE
  5
7E8E
  8
1
 10
2046.5688610787679
 20
1505.040664214481
 30
0.0
 11
2359.5688610787679
 21
1505.040664214481
 31
0.0
  0
LINE
  5
7E91
  8
1
 10
1976.5688610787679
 20
1241.317589315023
 30
0.0
 11
2421.5688610787679
 21
1241.317589315023
 31
0.0
  0
LINE
  5
7E92
  8
1
 10
1976.568861078767
 20
1281.317589315023
 30
0.0
 11
2421.5688610787679
 21
1281.317589315023
 31
0.0
  0
LINE
  5
7E93
  8
1
 10
2046.5688610787679
 20
1507.317589315023
 30
0.0
 11
2359.5688610787679
 21
1507.317589315023
 31
0.0
  0
LINE
  5
7E94
  8
1
 10
1967.6112063978701
 20
1338.2039368492631
 30
0.0
 11
1967.611206397869
 21
1491.4635802758901
 31
0.0
  0
LINE
  5
7E95
  8
1
 10
2003.2180274118821
 20
1338.2039368492631
 30
0.0
 11
2003.2180274118821
 21
1491.4635802758901
 31
0.0
  0
LINE
  5
7E96
  8
1
 10
2051.5688610787688
 20
1505.040664214481
 30
0.0
 11
2051.5688610787679
 21
1466.140652214481
 31
0.0
  0
LINE
  5
7E97
  8
1
 10
1949.8077958908621
 20
1316.5635844226431
 30
0.0
 11
2019.4866611510431
 21
1316.5635844226431
 31
0.0
  0
LINE
  5
7E98
  8
1
 10
1967.611206397869
 20
1338.2039368492631
 30
0.0
 11
2003.2180274118821
 21
1338.2039368492631
 31
0.0
  0
LINE
  5
7E99
  8
1
 10
2019.4866611510431
 20
1316.5635844226431
 30
0.0
 11
2019.4866611510431
 21
1381.664765029484
 31
0.0
  0
LINE
  5
7E9A
  8
1
 10
2003.2180274118821
 20
1491.4635802758901
 30
0.0
 11
2003.2180274118821
 21
1631.1715983541569
 31
0.0
  0
LINE
  5
7E9B
  8
1
 10
1967.611206397869
 20
1491.4635802758901
 30
0.0
 11
1967.611206397869
 21
1631.1715983541569
 31
0.0
  0
LINE
  5
7E9C
  8
2
 10
2267.2449871362992
 20
1391.340664214481
 30
0.0
 11
1936.001572968629
 21
1391.340664214481
 31
0.0
  0
LINE
  5
7E9D
  8
1
 10
1967.611206397869
 20
1444.4773915796991
 30
0.0
 11
2003.2180274118821
 21
1444.4773915796991
 31
0.0
  0
LINE
  5
7E9E
  8
1
 10
1967.611206397869
 20
1491.4635802758901
 30
0.0
 11
2003.2180274118821
 21
1491.4635802758901
 31
0.0
  0
LINE
  5
7E9F
  8
1
 10
2046.5688610787679
 20
1507.317589315023
 30
0.0
 11
2046.568861078769
 21
1505.040664214481
 31
0.0
  0
LINE
  5
7EA0
  8
1
 10
1967.611206397869
 20
1631.1715983541569
 30
0.0
 11
2003.2180274118821
 21
1631.1715983541569
 31
0.0
  0
LINE
  5
7EA1
  8
1
 10
2003.2180274118821
 20
1549.317589315023
 30
0.0
 11
2017.568861078769
 21
1549.317589315023
 31
0.0
  0
LINE
  5
7EA2
  8
1
 10
2003.2180274118821
 20
1573.317589315023
 30
0.0
 11
2017.5688610787679
 21
1573.317589315023
 31
0.0
  0
LINE
  5
7EA3
  8
1
 10
2019.5688610787679
 20
1578.817589315023
 30
0.0
 11
2359.5688610787679
 21
1578.817589315024
 31
0.0
  0
LINE
  5
7EA4
  8
1
 10
2019.5688610787679
 20
1543.817589315023
 30
0.0
 11
2359.5688610787688
 21
1543.817589315023
 31
0.0
  0
LINE
  5
7EA5
  8
1
 10
2019.5688610787679
 20
1547.317589315023
 30
0.0
 11
2019.5688610787679
 21
1543.817589315023
 31
0.0
  0
ARC
  5
7EA6
  8
1
 10
2017.568861078769
 20
1547.317589315023
 30
0.0
 40
2.0
 50
0.0000000000002036
 51
90.0
  0
ARC
  5
7EA7
  8
1
 10
2017.5688610787679
 20
1575.317589315023
 30
0.0
 40
2.0
 50
270.0
 51
0.0
  0
LINE
  5
7EA8
  8
1
 10
2019.568861078769
 20
1578.817589315023
 30
0.0
 11
2019.5688610787679
 21
1575.317589315023
 31
0.0
  0
LINE
  5
7EAD
  8
1
 10
2359.568861078767
 20
1612.340664214481
 30
0.0
 11
2387.5688610787679
 21
1612.340664214481
 31
0.0
  0
LINE
  5
7EAE
  8
1
 10
1949.8077958908621
 20
1653.8862945182691
 30
0.0
 11
2019.4866611510431
 21
1653.8862945182691
 31
0.0
  0
LINE
  5
7EAF
  8
1
 10
2596.5688610787688
 20
1434.317589315023
 30
0.0
 11
2596.5688610787688
 21
1688.317589315023
 31
0.0
  0
LINE
  5
7EB0
  8
1
 10
2567.5688610787679
 20
1717.317589315024
 30
0.0
 11
2567.5688610787679
 21
1561.317589315024
 31
0.0
  0
LINE
  5
7EB2
  8
1
 10
2567.5688610787679
 20
1738.317589315023
 30
0.0
 11
2567.5688610787679
 21
1559.317589315024
 31
0.0
  0
LINE
  5
7EB3
  8
1
 10
2567.568861078767
 20
1559.317589315024
 30
0.0
 11
2567.568861078767
 21
1323.317589315023
 31
0.0
  0
LINE
  5
7EB5
  8
1
 10
2571.5688610787702
 20
1561.317589315024
 30
0.0
 11
2571.5688610787688
 21
1405.317589315023
 31
0.0
  0
POLYLINE
  5
7EB6
  8
1
 66
     1
 10
0.0
 20
0.0
 30
0.0
 70
     1
  0
VERTEX
  5
8684
  8
1
 10
2571.5688610787688
 20
1434.317589315023
 30
0.0
  0
VERTEX
  5
8685
  8
1
 10
2571.5688610787688
 20
1409.317589315023
 30
0.0
  0
VERTEX
  5
8686
  8
1
 10
2572.5688610787688
 20
1409.317589315023
 30
0.0
 42
0.4142135623730951
  0
VERTEX
  5
8687
  8
1
 10
2574.5688610787688
 20
1411.317589315023
 30
0.0
  0
VERTEX
  5
8688
  8
1
 10
2574.5688610787688
 20
1427.317589315023
 30
0.0
 42
-0.4142135623730951
  0
VERTEX
  5
8689
  8
1
 10
2578.5688610787688
 20
1431.317589315023
 30
0.0
  0
VERTEX
  5
868A
  8
1
 10
2594.5688610787688
 20
1431.317589315023
 30
0.0
 42
0.4142135623730951
  0
VERTEX
  5
868B
  8
1
 10
2596.5688610787688
 20
1433.317589315023
 30
0.0
  0
VERTEX
  5
868C
  8
1
 10
2596.5688610787688
 20
1434.317589315023
 30
0.0
  0
SEQEND
  5
868D
  8
1
  0
LINE
  5
7EC1
  8
1
 10
2572.5688610787679
 20
1434.317589315023
 30
0.0
 11
2594.5688610787688
 21
1434.317589315023
 31
0.0
  0
LINE
  5
7EC2
  8
1
 10
2567.568861078767
 20
1405.317589315023
 30
0.0
 11
2571.5688610787688
 21
1405.317589315023
 31
0.0
  0
LINE
  5
7EC4
  8
2
 10
968.51126116446255
 20
3182.2414200839548
 30
0.0
 11
968.51126116446255
 21
2537.4112102882359
 31
0.0
  0
LINE
  5
7EC6
  8
1
 10
1428.5112611644611
 20
3019.7174428492949
 30
0.0
 11
1428.511261164462
 21
2574.7174428492958
 31
0.0
  0
LINE
  5
7EC7
  8
1
 10
768.51126116446255
 20
3190.7174428492972
 30
0.0
 11
768.51126116446255
 21
2574.7174428492958
 31
0.0
  0
LINE
  5
7EC8
  8
1
 10
1468.511261164462
 20
3019.7174428492949
 30
0.0
 11
1468.5112611644611
 21
2574.7174428492958
 31
0.0
  0
LINE
  5
7ED0
  8
1
 10
1976.5688610787679
 20
1241.317589315023
 30
0.0
 11
1976.568861078767
 21
1281.317589315023
 31
0.0
  0
LINE
  5
7ED1
  8
1
 10
2421.5688610787679
 20
1241.317589315023
 30
0.0
 11
2421.5688610787679
 21
1281.317589315023
 31
0.0
  0
LINE
  5
7ED8
  8
1
 10
1173.511261164462
 20
3019.7174428492958
 30
0.0
 11
1468.511261164462
 21
3019.7174428492949
 31
0.0
  0
LINE
  5
7EDB
  8
1
 10
768.51126116446255
 20
2574.7174428492958
 30
0.0
 11
1468.511261164462
 21
2574.7174428492958
 31
0.0
  0
LINE
  5
7EDE
  8
2
 10
756.45906675074536
 20
3075.7174428492958
 30
0.0
 11
1186.5424555453201
 21
3075.7174428492958
 31
0.0
  0
LINE
  5
7EDF
  8
1
 10
2359.568861078767
 20
1362.340664214481
 30
0.0
 11
2387.5688610787679
 21
1362.340664214481
 31
0.0
  0
POLYLINE
  5
7EE0
  8
1
 66
     1
 10
0.0
 20
0.0
 30
0.0
  0
VERTEX
  5
868E
  8
1
 10
2359.5688610787679
 20
1612.340664214481
 30
0.0
  0
VERTEX
  5
868F
  8
1
 10
2359.5688610787679
 20
1362.340664214481
 30
0.0
  0
SEQEND
  5
8690
  8
1
  0
ARC
  5
7EE4
  8
1
 10
2594.5688610787688
 20
1689.317589315023
 30
0.0
 40
2.0
 50
0.0
 51
60.000000000028521
  0
LINE
  5
7EE5
  8
1
 10
2596.5688610787688
 20
1689.317589315023
 30
0.0
 11
2596.5688610787688
 21
1688.317589315023
 31
0.0
  0
LINE
  5
7EE6
  8
1
 10
2596.5688610787688
 20
1688.317589315023
 30
0.0
 11
2595.5688610787679
 21
1688.317589315023
 31
0.0
  0
DIMENSION
  5
7EE7
  8
3
  2
*D2
 10
720.91354546048024
 20
1563.340664214481
 30
0.0
 11
683.4135454604799
 21
1443.3406642144821
 31
0.0
 70
     0
 13
768.51126116446255
 23
1323.3406642144821
 33
0.0
 14
768.51126116446255
 24
1563.340664214481
 34
0.0
 50
270.0
1001
ACAD
1000
DSTYLE
1002
{
1070
   287
1070
     3
1070
    40
1040
15.0
1070
   143
1040
0.039
1070
   172
1070
     1
1070
   271
1070
     0
1070
   279
1070
     0
1070
   288
1070
     1
1002
}
  0
DIMENSION
  5
7EE8
  8
3
  2
*D3
 10
637.27624538848056
 20
1561.3406642144821
 30
0.0
 11
599.77624538848045
 21
1442.3406642144821
 31
0.0
 70
     0
 13
768.51126116446255
 23
1323.3406642144821
 33
0.0
 14
717.86828108924226
 24
1561.3406642144821
 34
0.0
 50
270.0
1001
ACAD
1000
DSTYLE
1002
{
1070
   287
1070
     3
1070
    40
1040
15.0
1070
   143
1040
0.039
1070
   172
1070
     1
1070
   271
1070
     0
1070
   279
1070
     0
1070
   288
1070
     1
1002
}
  0
DIMENSION
  5
7EE9
  8
3
  2
*D4
 10
2477.5688610787679
 20
1929.913201006897
 30
0.0
 11
2525.2718897624291
 21
1975.8754646937591
 31
0.0
 70
   128
  1
94
 13
2570.5688610787679
 23
1717.2944530714699
 33
0.0
 14
2477.5688610787679
 24
1870.199766803019
 34
0.0
1001
ACAD
1000
DSTYLE
1002
{
1070
   288
1070
     1
1070
   172
1070
     1
1070
    40
1040
15.0
1070
   271
1070
     0
1070
   143
1040
0.039
1002
}
  0
DIMENSION
  5
7EEA
  8
3
  2
*D5
 10
1949.8077958908621
 20
1929.913201006897
 30
0.0
 11
2213.688328484815
 21
2004.913201006897
 31
0.0
 70
     0
  1
MAX\P600
 13
2477.5688610787679
 23
1868.4188621555111
 33
0.0
 14
1949.8077958908621
 24
1653.8862945182691
 34
0.0
1001
ACAD
1000
DSTYLE
1002
{
1070
   287
1070
     3
1070
    40
1040
15.0
1070
   143
1040
0.039
1070
   172
1070
     1
1070
   271
1070
     0
1070
   279
1070
     0
1070
   288
1070
     1
1002
}
  0
LINE
  5
7EEB
  8
1
 10
793.51126116446255
 20
3165.7174428492972
 30
0.0
 11
1173.511261164462
 21
3165.7174428492949
 31
0.0
  0
LINE
  5
7EEC
  8
1
 10
793.51126116446255
 20
2985.7174428492958
 30
0.0
 11
1173.511261164462
 21
2985.7174428492958
 31
0.0
  0
LINE
  5
7EED
  8
1
 10
808.51126116446267
 20
2623.2174428492949
 30
0.0
 11
808.51126116446267
 21
2574.7174428492958
 31
0.0
  0
LINE
  5
7EEE
  8
1
 10
2258.4146169048749
 20
1466.140652214481
 30
0.0
 11
2040.4146169048749
 21
1466.140652214481
 31
0.0
  0
LINE
  5
7EEF
  8
1
 10
2040.4146169048749
 20
1313.340664214481
 30
0.0
 11
2258.4146169048749
 21
1313.340664214481
 31
0.0
  0
LINE
  5
7EF0
  8
1
 10
2258.4146169048749
 20
1466.140652214481
 30
0.0
 11
2258.4146169048749
 21
1313.340664214481
 31
0.0
  0
LINE
  5
7EF1
  8
1
 10
2030.4146169048749
 20
1357.840664214481
 30
0.0
 11
2030.4146169048749
 21
1424.840664214481
 31
0.0
  0
LINE
  5
7EF2
  8
1
 10
2040.4146169048749
 20
1313.340664214481
 30
0.0
 11
2040.4146169048749
 21
1466.140652214481
 31
0.0
  0
LINE
  5
7EF3
  8
1
 10
2185.4146169048749
 20
1313.340664214481
 30
0.0
 11
2185.4146169048749
 21
1281.317589315023
 31
0.0
  0
LINE
  5
7EF4
  8
1
 10
2065.4146169048749
 20
1313.340664214481
 30
0.0
 11
2065.4146169048749
 21
1281.317589315023
 31
0.0
  0
LINE
  5
7EF5
  8
1
 10
2025.4146169048749
 20
1401.840664214481
 30
0.0
 11
2030.4146169048749
 21
1401.840664214481
 31
0.0
  0
LINE
  5
7EF6
  8
1
 10
2025.4146169048749
 20
1380.840664214481
 30
0.0
 11
2030.4146169048749
 21
1380.840664214481
 31
0.0
  0
LINE
  5
7EF7
  8
1
 10
2040.4146169048749
 20
1357.840664214481
 30
0.0
 11
2030.4146169048749
 21
1357.840664214481
 31
0.0
  0
LINE
  5
7EF8
  8
1
 10
2040.4146169048749
 20
1361.4056672144809
 30
0.0
 11
2040.4146169048749
 21
1352.7756622144809
 31
0.0
  0
LINE
  5
7EF9
  8
1
 10
2040.4146169048749
 20
1363.5907252144809
 30
0.0
 11
2040.4146169048749
 21
1351.3267912144811
 31
0.0
  0
LINE
  5
7EFA
  8
1
 10
2040.4146169048749
 20
1352.6564602144811
 30
0.0
 11
2040.4146169048749
 21
1361.6564602144811
 31
0.0
  0
LINE
  5
7EFB
  8
1
 10
2025.4146169048749
 20
1400.840664214481
 30
0.0
 11
2003.2180274118821
 21
1400.840664214481
 31
0.0
  0
LINE
  5
7EFC
  8
1
 10
2003.2180274118821
 20
1381.840664214481
 30
0.0
 11
2025.4146169048749
 21
1381.840664214481
 31
0.0
  0
LINE
  5
7EFD
  8
1
 10
2025.4146169048749
 20
1380.840664214481
 30
0.0
 11
2025.4146169048749
 21
1401.840664214481
 31
0.0
  0
LINE
  5
7EFE
  8
1
 10
2030.4146169048749
 20
1424.840664214481
 30
0.0
 11
2040.4146169048749
 21
1424.840664214481
 31
0.0
  0
LINE
  5
7EFF
  8
1
 10
2040.4146169048749
 20
1464.1556672144809
 30
0.0
 11
2040.4146169048749
 21
1455.5256622144809
 31
0.0
  0
LINE
  5
7F00
  8
1
 10
2040.4146169048749
 20
1455.4064602144811
 30
0.0
 11
2040.4146169048749
 21
1464.4064602144811
 31
0.0
  0
LINE
  5
7F01
  8
1
 10
1243.7112731644611
 20
2856.2174428492949
 30
0.0
 11
1396.511261164462
 21
2856.2174428492949
 31
0.0
  0
LINE
  5
7F02
  8
1
 10
1396.5112611644611
 20
2638.5631986754029
 30
0.0
 11
1396.511261164462
 21
2856.2174428492949
 31
0.0
  0
LINE
  5
7F03
  8
1
 10
1243.7112731644611
 20
2856.2174428492949
 30
0.0
 11
1243.7112731644629
 21
2638.5631986754029
 31
0.0
  0
LINE
  5
7F04
  8
1
 10
1328.0112611644611
 20
2601.3666091824089
 30
0.0
 11
1328.011261164462
 21
2623.2174428492949
 31
0.0
  0
LINE
  5
7F05
  8
1
 10
1309.011261164462
 20
2623.2174428492949
 30
0.0
 11
1309.011261164462
 21
2601.3666091824089
 31
0.0
  0
LINE
  5
7F06
  8
1
 10
1329.011261164462
 20
2623.2174428492949
 30
0.0
 11
1328.0112611644611
 21
2623.2174428492949
 31
0.0
  0
LINE
  5
7F07
  8
1
 10
1352.011261164462
 20
2638.2174428492949
 30
0.0
 11
1352.011261164462
 21
2628.5631986754029
 31
0.0
  0
LINE
  5
7F08
  8
1
 10
1329.011261164462
 20
2623.2174428492949
 30
0.0
 11
1329.011261164462
 21
2628.2174428492949
 31
0.0
  0
LINE
  5
7F09
  8
1
 10
1308.011261164462
 20
2623.2174428492949
 30
0.0
 11
1308.011261164462
 21
2628.2174428492949
 31
0.0
  0
LINE
  5
7F0A
  8
1
 10
1285.011261164462
 20
2628.5631986754029
 30
0.0
 11
1285.011261164462
 21
2638.2174428492949
 31
0.0
  0
LINE
  5
7F0B
  8
1
 10
1393.2883409563001
 20
2547.95637766139
 30
0.0
 11
875.94255596121729
 21
2547.95637766139
 31
0.0
  0
LINE
  5
7F0C
  8
1
 10
1328.011261164462
 20
2601.3666091824089
 30
0.0
 11
1328.011261164462
 21
2623.5631986754029
 31
0.0
  0
LINE
  5
7F0D
  8
1
 10
1309.011261164462
 20
2623.5631986754029
 30
0.0
 11
1309.0112611644611
 21
2601.3666091824089
 31
0.0
  0
LINE
  5
7F0E
  8
2
 10
1318.511261164462
 20
2872.3560526636152
 30
0.0
 11
1318.511261164462
 21
2541.118787541172
 31
0.0
  0
LINE
  5
7F0F
  8
1
 10
1393.2883409563001
 20
2547.95637766139
 30
0.0
 11
1393.288340956299
 21
2617.6352429215708
 31
0.0
  0
LINE
  5
7F10
  8
1
 10
1371.647988529679
 20
2601.3666091824089
 30
0.0
 11
1265.3745337992459
 21
2601.3666091824089
 31
0.0
  0
LINE
  5
7F11
  8
1
 10
1371.647988529679
 20
2565.7597881683978
 30
0.0
 11
1265.3745337992459
 21
2565.7597881683969
 31
0.0
  0
LINE
  5
7F12
  8
1
 10
1371.6479885296801
 20
2565.7597881683969
 30
0.0
 11
1371.6479885296801
 21
2601.3666091824089
 31
0.0
  0
LINE
  5
7F13
  8
1
 10
1265.374533799245
 20
2565.7597881683969
 30
0.0
 11
1265.374533799245
 21
2601.3666091824089
 31
0.0
  0
LINE
  5
7F14
  8
1
 10
1329.011261164462
 20
2623.5631986754029
 30
0.0
 11
1308.011261164462
 21
2623.5631986754029
 31
0.0
  0
LINE
  5
7F15
  8
1
 10
1396.511261164462
 20
2638.5631986754029
 30
0.0
 11
1243.7112731644611
 21
2638.5631986754029
 31
0.0
  0
LINE
  5
7F16
  8
1
 10
1352.011261164462
 20
2628.5631986754029
 30
0.0
 11
1285.011261164462
 21
2628.5631986754029
 31
0.0
  0
LINE
  5
7F17
  8
1
 10
1393.288340956299
 20
2617.6352429215708
 30
0.0
 11
875.94255596121684
 21
2617.6352429215708
 31
0.0
  0
LINE
  5
7F18
  8
1
 10
1396.511261164462
 20
2638.5631986754029
 30
0.0
 11
1396.511261164462
 21
2649.7174428492972
 31
0.0
  0
LINE
  5
7F19
  8
1
 10
1329.011261164462
 20
2623.5631986754029
 30
0.0
 11
1329.011261164462
 21
2628.5631986754029
 31
0.0
  0
LINE
  5
7F1A
  8
1
 10
1357.195465164461
 20
2638.5631986754029
 30
0.0
 11
1348.1954651644619
 21
2638.5631986754029
 31
0.0
  0
LINE
  5
7F1B
  8
1
 10
1346.261200164462
 20
2638.5631986754029
 30
0.0
 11
1358.5251341644621
 21
2638.5631986754029
 31
0.0
  0
LINE
  5
7F1C
  8
1
 10
1348.4462581644621
 20
2638.5631986754029
 30
0.0
 11
1357.076263164462
 21
2638.5631986754029
 31
0.0
  0
LINE
  5
7F1D
  8
1
 10
1352.011261164462
 20
2638.5631986754029
 30
0.0
 11
1352.011261164462
 21
2628.5631986754029
 31
0.0
  0
LINE
  5
7F1E
  8
1
 10
1285.011261164462
 20
2628.5631986754029
 30
0.0
 11
1285.011261164462
 21
2638.5631986754029
 31
0.0
  0
LINE
  5
7F1F
  8
1
 10
1308.011261164462
 20
2623.5631986754029
 30
0.0
 11
1308.011261164462
 21
2628.5631986754029
 31
0.0
  0
LINE
  5
7F20
  8
1
 10
1254.4454651644619
 20
2638.5631986754029
 30
0.0
 11
1245.445465164461
 21
2638.5631986754029
 31
0.0
  0
LINE
  5
7F21
  8
1
 10
1245.6962581644621
 20
2638.5631986754029
 30
0.0
 11
1254.326263164462
 21
2638.5631986754029
 31
0.0
  0
LINE
  5
7F22
  8
1
 10
1243.7112731644611
 20
2649.7174428492972
 30
0.0
 11
1243.7112731644611
 21
2638.5631986754029
 31
0.0
  0
LINE
  5
7F23
  8
1
 10
875.94255596121729
 20
2547.95637766139
 30
0.0
 11
875.94255596121729
 21
2617.6352429215708
 31
0.0
  0
LINE
  5
7F24
  8
1
 10
1038.3652702035949
 20
2565.7597881683969
 30
0.0
 11
898.65725212532914
 21
2565.7597881683969
 31
0.0
  0
LINE
  5
7F25
  8
1
 10
1038.3652702035949
 20
2601.3666091824089
 30
0.0
 11
898.65725212532914
 21
2601.3666091824089
 31
0.0
  0
LINE
  5
7F26
  8
1
 10
898.65725212532914
 20
2565.7597881683969
 30
0.0
 11
898.65725212532914
 21
2601.3666091824089
 31
0.0
  0
LINE
  5
7F28
  8
1
 10
1038.3652702035961
 20
2565.7597881683969
 30
0.0
 11
1038.3652702035961
 21
2601.3666091824089
 31
0.0
  0
LINE
  5
7F29
  8
1
 10
1138.511261164462
 20
2623.2174428492958
 30
0.0
 11
798.51126116446255
 21
2623.2174428492958
 31
0.0
  0
LINE
  5
7F2A
  8
1
 10
1309.011261164462
 20
2623.2174428492949
 30
0.0
 11
1308.011261164462
 21
2623.2174428492949
 31
0.0
  0
LINE
  5
7F2B
  8
1
 10
798.51126116446164
 20
2985.7174428492958
 30
0.0
 11
798.51126116446164
 21
2623.2174428492958
 31
0.0
  0
LINE
  5
7F2C
  8
1
 10
1138.511261164462
 20
2985.7174428492958
 30
0.0
 11
1138.511261164462
 21
2623.2174428492958
 31
0.0
  0
LINE
  5
7F2E
  8
1
 10
951.01126116446267
 20
2985.7174428492958
 30
0.0
 11
951.01126116446267
 21
2623.2174428492958
 31
0.0
  0
LINE
  5
7F2F
  8
1
 10
986.01126116446449
 20
2985.7174428492958
 30
0.0
 11
986.01126116446267
 21
2623.2174428492958
 31
0.0
  0
DIMENSION
  5
7F30
  8
3
  2
*D6
 10
2696.2711353047139
 20
1434.317589315023
 30
0.0
 11
2657.907837213977
 21
1561.317589315024
 31
0.0
 70
   128
 13
2596.5688610787688
 23
1688.317589315023
 33
0.0
 14
2596.5688610787688
 24
1434.317589315023
 34
0.0
 50
90.0
1001
ACAD
1000
DSTYLE
1002
{
1070
   288
1070
     1
1070
   172
1070
     1
1070
    40
1040
15.0
1070
     3
1000
φ<>
1070
   271
1070
     0
1070
   143
1040
0.039
1002
}
  0
POLYLINE
  5
7F31
  8
1
 66
     1
 10
0.0
 20
0.0
 30
0.0
  0
VERTEX
  5
86AC
  8
1
 10
2387.5688610787679
 20
1559.317589315024
 30
0.0
  0
VERTEX
  5
86AD
  8
1
 10
2387.568861078767
 20
1281.317589315023
 30
0.0
  0
SEQEND
  5
86AE
  8
1
  0
LINE
  5
7F35
  8
1
 10
2571.5688610787702
 20
1561.317589315024
 30
0.0
 11
2571.5688610787688
 21
1717.317589315023
 31
0.0
  0
LINE
  5
7F36
  8
1
 10
2596.5688610787688
 20
1688.317589315024
 30
0.0
 11
2596.5688610787688
 21
1434.317589315024
 31
0.0
  0
LINE
  5
7F38
  8
1
 10
2567.5688610787679
 20
1717.317589315023
 30
0.0
 11
2571.5688610787688
 21
1717.317589315023
 31
0.0
  0
LINE
  5
7F39
  8
1
 10
2572.5688610787679
 20
1688.317589315024
 30
0.0
 11
2594.5688610787688
 21
1688.317589315024
 31
0.0
  0
POLYLINE
  5
7F3A
  8
1
 66
     1
 10
0.0
 20
0.0
 30
0.0
 70
     1
  0
VERTEX
  5
86AF
  8
1
 10
2571.5688610787688
 20
1688.317589315024
 30
0.0
  0
VERTEX
  5
86B0
  8
1
 10
2571.5688610787688
 20
1713.317589315024
 30
0.0
  0
VERTEX
  5
86B1
  8
1
 10
2572.5688610787688
 20
1713.317589315024
 30
0.0
 42
-0.4142135623730951
  0
VERTEX
  5
86B2
  8
1
 10
2574.5688610787688
 20
1711.317589315023
 30
0.0
  0
VERTEX
  5
86B3
  8
1
 10
2574.5688610787688
 20
1695.317589315023
 30
0.0
 42
0.4142135623730951
  0
VERTEX
  5
86B4
  8
1
 10
2578.5688610787688
 20
1691.317589315024
 30
0.0
  0
VERTEX
  5
86B5
  8
1
 10
2594.5688610787688
 20
1691.317589315024
 30
0.0
 42
-0.4142135623730951
  0
VERTEX
  5
86B6
  8
1
 10
2596.5688610787688
 20
1689.317589315024
 30
0.0
  0
VERTEX
  5
86B7
  8
1
 10
2596.5688610787688
 20
1688.317589315024
 30
0.0
  0
SEQEND
  5
86B8
  8
1
  0
POLYLINE
  5
7F45
  8
1
 66
     1
 10
0.0
 20
0.0
 30
0.0
  0
VERTEX
  5
86B9
  8
1
 10
2387.5688610787688
 20
1738.317589315023
 30
0.0
  0
VERTEX
  5
86BA
  8
1
 10
2387.5688610787679
 20
1559.317589315023
 30
0.0
  0
SEQEND
  5
86BB
  8
1
  0
DIMENSION
  5
7F4D
  8
3
  2
*D7
 10
968.51126116446255
 20
1833.4363490987259
 30
0.0
 11
868.79232159287119
 21
1872.099553796786
 31
0.0
 12
157.23034269035259
 22
0.0
 32
0.0
 70
   128
 13
768.51126116446255
 23
1590.3406642144821
 33
0.0
 14
968.51126116446255
 24
1800.5470345755509
 34
0.0
1001
ACAD
1000
DSTYLE
1002
{
1070
   288
1070
     1
1070
   172
1070
     1
1070
    40
1040
15.0
1070
   271
1070
     0
1070
   143
1040
0.039
1002
}
  0
DIMENSION
  5
7F4E
  8
3
  2
*D8
 10
1173.5112611644629
 20
1833.4363490987259
 30
0.0
 11
1071.9780812820261
 21
1874.6372977442909
 31
0.0
 12
157.23034269035259
 22
0.0
 32
0.0
 70
   128
 13
968.51126116446255
 23
1800.5470345755509
 33
0.0
 14
1173.5112611644629
 24
1547.3406642144821
 34
0.0
1001
ACAD
1000
DSTYLE
1002
{
1070
   288
1070
     1
1070
   172
1070
     1
1070
    40
1040
15.0
1070
   271
1070
     0
1070
   143
1040
0.039
1002
}
  0
DIMENSION
  5
7F4F
  8
3
  2
*D9
 10
549.45507587933525
 20
1561.3406642144821
 30
0.0
 11
489.4550758793352
 21
1649.8406642144821
 31
0.0
 12
157.23034269035259
 22
0.0
 32
0.0
 70
     0
 13
982.51126116446358
 23
1738.3406642144821
 33
0.0
 14
717.86828108924226
 24
1561.3406642144821
 34
0.0
 50
90.0
1001
ACAD
1000
DSTYLE
1002
{
1070
   288
1070
     1
1070
   172
1070
     1
1070
    40
1040
15.0
1070
   271
1070
     0
1070
   143
1040
0.039
1002
}
  0
DIMENSION
  5
7F50
  8
3
  2
*D10
 10
549.45507587933525
 20
1241.340664214481
 30
0.0
 11
511.95507587933508
 21
1401.340664214481
 31
0.0
 70
     0
 13
717.86828108924226
 23
1561.3406642144821
 33
0.0
 14
768.51126116446255
 24
1241.340664214481
 34
0.0
 50
90.0
1001
ACAD
1000
DSTYLE
1002
{
1070
   287
1070
     3
1070
    40
1040
15.0
1070
   143
1040
0.039
1070
   172
1070
     1
1070
   271
1070
     0
1070
   279
1070
     0
1070
   288
1070
     1
1002
}
  0
DIMENSION
  5
7F54
  8
3
  2
*D11
 10
1468.5112611644629
 20
1938.4505044932539
 30
0.0
 11
1118.5112611644629
 21
1975.950504493255
 31
0.0
 70
     0
 13
768.51126116446255
 23
1590.3406642144821
 33
0.0
 14
1468.5112611644629
 24
1281.340664214481
 34
0.0
1001
ACAD
1000
DSTYLE
1002
{
1070
   287
1070
     3
1070
    40
1040
15.0
1070
   143
1040
0.039
1070
   172
1070
     1
1070
   271
1070
     0
1070
   279
1070
     0
1070
   288
1070
     1
1002
}
  0
LINE
  5
7F55
  8
1
 10
1173.511261164462
 20
3165.7174428492949
 30
0.0
 11
1173.511261164462
 21
2985.7174428492958
 31
0.0
  0
LINE
  5
7F56
  8
1
 10
793.51126116446312
 20
3190.7174428492972
 30
0.0
 11
793.51126116446255
 21
2960.7174428492949
 31
0.0
  0
LINE
  5
7F57
  8
1
 10
768.51126116446255
 20
3190.7174428492972
 30
0.0
 11
793.51126116446255
 21
3190.7174428492972
 31
0.0
  0
LINE
  5
7F58
  8
1
 10
768.51126116446255
 20
2960.7174428492949
 30
0.0
 11
793.51126116446255
 21
2960.7174428492949
 31
0.0
  0
LINE
  5
7F59
  8
1
 10
2051.568861078767
 20
1313.340664214481
 30
0.0
 11
2051.5688610787679
 21
1281.317589315023
 31
0.0
  0
LINE
  5
7F5A
  8
1
 10
2384.5688610787688
 20
1738.317589315023
 30
0.0
 11
2570.5688610787688
 21
1738.317589315023
 31
0.0
  0
LINE
  5
7F5B
  8
1
 10
2387.5688610787679
 20
1323.317589315023
 30
0.0
 11
2567.568861078767
 21
1323.317589315023
 31
0.0
  0
LINE
  5
7F5C
  8
1
 10
2387.5688610787679
 20
1298.317589315023
 30
0.0
 11
2595.5688610787679
 21
1298.317589315023
 31
0.0
  0
LINE
  5
7F5D
  8
1
 10
2595.5688610787679
 20
1431.585538507454
 30
0.0
 11
2595.5688610787679
 21
1298.317589315023
 31
0.0
  0
LINE
  5
7F5E
  8
1
 10
2567.568861078767
 20
1559.317589315024
 30
0.0
 11
2387.568861078767
 21
1323.317589315023
 31
0.0
  0
LINE
  5
7F5F
  8
1
 10
2387.5688610787679
 20
1559.317589315023
 30
0.0
 11
2567.568861078767
 21
1323.317589315023
 31
0.0
  0
LINE
  5
845D
  8
4
 10
2775.0
 20
750.0
 30
0.0
 11
2775.0
 21
450.0
 31
0.0
  0
LINE
  5
845E
  8
4
 10
1725.0
 20
750.0
 30
0.0
 11
1725.0
 21
450.0
 31
0.0
  0
LINE
  5
845F
  8
4
 10
975.0
 20
750.0
 30
0.0
 11
975.0
 21
450.0
 31
0.0
  0
LINE
  5
8462
  8
4
 10
975.0
 20
450.0
 30
0.0
 11
2775.0
 21
450.0
 31
0.0
  0
LINE
  5
8463
  8
4
 10
975.0
 20
600.0
 30
0.0
 11
2775.0
 21
600.0
 31
0.0
  0
TEXT
  5
8464
  8
4
 10
1032.753121270352
 20
647.31453879991932
 30
0.0
 40
75.0
  1
機器名称
  0
TEXT
  5
8465
  8
4
 10
1029.3871590371959
 20
482.46773509801642
 30
0.0
 40
75.0
  1
機器型番
  0
TEXT
  5
8466
  8
4
 10
1766.5181182314971
 20
633.85765343635285
 30
0.0
 40
75.0
  1
ミツヤ多翼送風機
  0
TEXT
  5
8467
  8
4
 10
1779.9817433782209
 20
475.739376419915
 30
0.0
 40
75.0
  1
MF#1 1/2-1
  0
TEXT
  5
8469
  8
4
 10
1113.081166393501
 20
3575.1432619987731
 30
0.0
 40
80.999999999999986
  1
床置防振ベット
  0
TEXT
  5
846A
  8
4
 10
474.25138999416959
 20
3800.8214642989469
 30
0.0
 40
108.0
  1
遠心式片吸込片持多翼ファン
  0
LINE
  5
846B
  8
4
 10
375.0
 20
3704.1131313972069
 30
0.0
 11
2775.0
 21
3704.1131313972069
 31
0.0
  0
LINE
  5
846C
  8
4
 10
375.0
 20
4004.1131313972069
 30
0.0
 11
2775.0
 21
4004.1131313972069
 31
0.0
  0
LINE
  5
846D
  8
4
 10
975.0
 20
750.0
 30
0.0
 11
2775.0
 21
750.0
 31
0.0
  0
LINE
  5
846E
  8
4
 10
375.0
 20
4004.1131313972069
 30
0.0
 11
375.0
 21
3704.1131313972069
 31
0.0
  0
TEXT
  5
846F
  8
4
 10
459.29291802944857
 20
3573.4792163195152
 30
0.0
 40
80.999999999999986
  1
右回転左横向
  0
TEXT
  5
8470
  8
4
 10
2203.4543388739339
 20
4059.0916222429628
 30
0.0
 40
84.000000000000014
  1
No.
  0
TEXT
  5
8471
  8
4
 10
1966.944093900019
 20
3575.1432619987731
 30
0.0
 40
80.999999999999986
  1
縮尺：1/15
  0
LINE
  5
8472
  8
4
 10
2775.0
 20
4004.1131313972069
 30
0.0
 11
2775.0
 21
3704.1131313972069
 31
0.0
  0
LINE
  5
8473
  8
4
 10
3150.0
 20
4425.0
 30
0.0
 11
3150.0
 21
4425.0
 31
0.0
  0
LINE
  5
8474
  8
4
 10
2160.9261335397969
 20
4021.895374688102
 30
0.0
 11
2160.9261335397969
 21
4179.9783923246277
 31
0.0
  0
LINE
  5
8475
  8
4
 10
2160.9261335397969
 20
4179.9783923246277
 30
0.0
 11
2775.0
 21
4179.9783923246277
 31
0.0
  0
LINE
  5
8476
  8
4
 10
2775.0
 20
4179.9783923246277
 30
0.0
 11
2775.0
 21
4021.895374688102
 31
0.0
  0
LINE
  5
8477
  8
4
 10
2775.0
 20
4021.895374688102
 30
0.0
 11
2160.9261335397969
 21
4021.895374688102
 31
0.0
  0
LINE
  5
8478
  8
4
 10
0.0
 20
0.0
 30
0.0
 11
0.0
 21
4425.0
 31
0.0
  0
LINE
  5
8479
  8
4
 10
0.0
 20
4425.0
 30
0.0
 11
3150.0
 21
4425.0
 31
0.0
  0
LINE
  5
847A
  8
4
 10
3150.0
 20
4425.0
 30
0.0
 11
3150.0
 21
0.0
 31
0.0
  0
LINE
  5
847B
  8
4
 10
3150.0
 20
0.0
 30
0.0
 11
0.0
 21
0.0
 31
0.0
  0
LINE
  5
8565
  8
1
 10
1138.511261164462
 20
2979.7174428492958
 30
0.0
 11
1428.5112611644611
 21
2979.7174428492949
 31
0.0
  0
LINE
  5
8566
  8
1
 10
808.51126116446255
 20
2614.7174428492958
 30
0.0
 11
1428.511261164462
 21
2614.7174428492958
 31
0.0
  0
DIMENSION
  5
8573
  8
3
  2
*D13
 10
1564.1488270351731
 20
2574.7174428492958
 30
0.0
 11
1564.1488270351731
 21
2789.2893832368218
 31
0.0
 70
   128
 13
1468.511261164462
 23
3019.7174428492949
 33
0.0
 14
1468.5112611644611
 24
2574.7174428492958
 34
0.0
 50
90.0
1001
ACAD
1000
DSTYLE
1002
{
1070
   287
1070
     3
1070
    40
1040
15.0
1070
   143
1040
0.039
1070
   172
1070
     1
1070
   271
1070
     0
1070
   279
1070
     0
1070
   288
1070
     1
1002
}
  0
DIMENSION
  5
858B
  8
3
  2
*D14
 10
1468.5112611644611
 20
2438.0769724788411
 30
0.0
 11
1111.52919901974
 21
2438.0769724788411
 31
0.0
 70
   128
 13
768.51126116446255
 23
2574.7174428492958
 33
0.0
 14
1468.5112611644611
 24
2574.7174428492958
 34
0.0
1001
ACAD
1000
DSTYLE
1002
{
1070
   287
1070
     3
1070
    40
1040
15.0
1070
   143
1040
0.039
1070
   172
1070
     1
1070
   271
1070
     0
1070
   279
1070
     0
1070
   288
1070
     1
1002
}
  0
DIMENSION
  5
85FA
  8
3
  2
*D15
 10
968.51126116446255
 20
1064.7651238436911
 30
0.0
 11
868.51126116446255
 21
1102.265123843692
 31
0.0
 70
     0
 13
768.51126116446255
 23
1179.340664214481
 33
0.0
 14
968.51126116446255
 24
1179.340664214481
 34
0.0
1001
ACAD
1000
DSTYLE
1002
{
1070
   287
1070
     3
1070
    40
1040
15.0
1070
   143
1040
0.039
1070
   172
1070
     1
1070
   271
1070
     0
1070
   279
1070
     0
1002
}
  0
DIMENSION
  5
8607
  8
3
  2
*D16
 10
1468.5112611644629
 20
1064.7651238436911
 30
0.0
 11
1218.5112611644629
 21
1102.265123843692
 31
0.0
 70
     0
 13
968.51126116446255
 23
1179.340664214481
 33
0.0
 14
1468.5112611644629
 24
1179.340664214481
 34
0.0
1001
ACAD
1000
DSTYLE
1002
{
1070
   287
1070
     3
1070
    40
1040
15.0
1070
   143
1040
0.039
1070
   172
1070
     1
1070
   271
1070
     0
1070
   279
1070
     0
1002
}
  0
DIMENSION
  5
8614
  8
3
  2
*D17
 10
2421.5688610787679
 20
1064.7651238436911
 30
0.0
 11
2199.0688610787679
 21
1102.265123843692
 31
0.0
 70
     0
 13
1976.5688610787679
 23
1179.317589315023
 33
0.0
 14
2421.5688610787679
 24
1179.317589315023
 34
0.0
1001
ACAD
1000
DSTYLE
1002
{
1070
   287
1070
     3
1070
    40
1040
15.0
1070
   143
1040
0.039
1070
   172
1070
     1
1070
   271
1070
     0
1070
   279
1070
     0
1002
}
  0
DIMENSION
  5
8623
  8
3
  2
*D18
 10
2477.5688610787679
 20
1064.7651238436911
 30
0.0
 11
2587.926003935911
 21
1102.265123843692
 31
0.0
 70
     0
 13
2421.5688610787679
 23
1179.317589315023
 33
0.0
 14
2477.5688610787679
 24
1179.317589315023
 34
0.0
1001
ACAD
1000
DSTYLE
1002
{
1070
   287
1070
     3
1070
    40
1040
15.0
1070
   143
1040
0.039
1070
   172
1070
     1
1070
   271
1070
     0
1070
   279
1070
     0
1002
}
  0
LINE
  5
8636
  8
1
 10
1976.568861078767
 20
1219.317589315023
 30
0.0
 11
2421.5688610787679
 21
1219.317589315023
 31
0.0
  0
LINE
  5
8637
  8
1
 10
1976.5688610787679
 20
1179.317589315023
 30
0.0
 11
2421.5688610787679
 21
1179.317589315023
 31
0.0
  0
LINE
  5
8638
  8
1
 10
2421.5688610787679
 20
1179.317589315023
 30
0.0
 11
2421.5688610787679
 21
1219.317589315023
 31
0.0
  0
LINE
  5
8639
  8
1
 10
1976.5688610787679
 20
1179.317589315023
 30
0.0
 11
1976.568861078767
 21
1219.317589315023
 31
0.0
  0
LINE
  5
863A
  8
1
 10
1468.5112611644629
 20
1179.340664214481
 30
0.0
 11
768.51126116446255
 21
1179.340664214481
 31
0.0
  0
LINE
  5
863B
  8
1
 10
1468.5112611644629
 20
1219.340664214481
 30
0.0
 11
1468.5112611644629
 21
1179.340664214481
 31
0.0
  0
LINE
  5
863C
  8
1
 10
1468.5112611644629
 20
1219.340664214481
 30
0.0
 11
768.51126116446255
 21
1219.340664214481
 31
0.0
  0
LINE
  5
863D
  8
1
 10
768.51126116446255
 20
1219.340664214481
 30
0.0
 11
768.51126116446255
 21
1179.340664214481
 31
0.0
  0
DIMENSION
  5
864D
  8
3
  2
*D19
 10
550.97471075780595
 20
1179.340664214481
 30
0.0
 11
513.47471075780584
 21
1067.9120927859101
 31
0.0
 70
     0
 13
768.51126116446255
 23
1219.340664214481
 33
0.0
 14
768.51126116446255
 24
1179.340664214481
 34
0.0
 50
90.0
1001
ACAD
1000
DSTYLE
1002
{
1070
   287
1070
     3
1070
    40
1040
15.0
1070
   143
1040
0.039
1070
   172
1070
     1
1070
   271
1070
     0
1070
   279
1070
     0
1070
     6
1000
DOT
1002
}
  0
DIMENSION
  5
865C
  8
3
  2
*D20
 10
550.97471075780595
 20
1241.340664214481
 30
0.0
 11
479.18899647209162
 21
1230.340664214481
 31
0.0
 70
     0
 13
768.51126116446255
 23
1219.340664214481
 33
0.0
 14
768.51126116446255
 24
1241.340664214481
 34
0.0
 50
90.0
1001
ACAD
1000
DSTYLE
1002
{
1070
   172
1070
     1
1070
    40
1040
15.0
1070
     3
1000
(<>)
1070
   271
1070
     0
1070
     6
1000
_DOT
1070
   143
1040
0.039
1002
}
  0
DIMENSION
  5
8669
  8
3
  2
*D21
 10
408.71900940697918
 20
1179.340664214481
 30
0.0
 11
359.4332951212649
 21
1458.840664214481
 31
0.0
 70
     0
 13
975.01126116446358
 23
1738.3406642144821
 33
0.0
 14
768.51126116446255
 24
1179.340664214481
 34
0.0
 50
90.0
1001
ACAD
1000
DSTYLE
1002
{
1070
   172
1070
     1
1070
    40
1040
15.0
1070
     3
1000
(<>)
1070
   271
1070
     0
1070
   143
1040
0.039
1002
}
  0
ENDSEC
  0
EOF
