  0
SECTION
  2
HEADER
  9
$ACADVER
  1
AC1009
  9
$INSBASE
 10
0.0
 20
0.0
 30
0.0
  9
$EXTMIN
 10
0.0
 20
0.0
 30
0.0
  9
$EXTMAX
 10
3150.0
 20
4425.0
 30
0.0
  9
$LIMMIN
 10
0.0
 20
0.0
  9
$LIMMAX
 10
297.0
 20
210.0
  9
$ORTHOMODE
 70
     0
  9
$REGENMODE
 70
     1
  9
$FILLMODE
 70
     0
  9
$QTEXTMODE
 70
     0
  9
$MIRRTEXT
 70
     1
  9
$DRAGMODE
 70
     2
  9
$LTSCALE
 40
100.0
  9
$OSMODE
 70
    37
  9
$ATTMODE
 70
     1
  9
$TEXTSIZE
 40
180.0
  9
$TRACEWID
 40
0.05
  9
$TEXTSTYLE
  7
STANDARD
  9
$CLAYER
  8
3
  9
$CELTYPE
  6
BYLAYER
  9
$CECOLOR
 62
   256
  9
$DIMSCALE
 40
15.0
  9
$DIMASZ
 40
2.0
  9
$DIMEXO
 40
0.5
  9
$DIMDLI
 40
10.0
  9
$DIMRND
 40
0.0
  9
$DIMDLE
 40
0.0
  9
$DIMEXE
 40
1.0
  9
$DIMTP
 40
1.0
  9
$DIMTM
 40
1.0
  9
$DIMTXT
 40
3.0
  9
$DIMCEN
 40
0.0
  9
$DIMTSZ
 40
0.0
  9
$DIMTOL
 70
     0
  9
$DIMLIM
 70
     0
  9
$DIMTIH
 70
     0
  9
$DIMTOH
 70
     0
  9
$DIMSE1
 70
     0
  9
$DIMSE2
 70
     0
  9
$DIMTAD
 70
     1
  9
$DIMZIN
 70
     8
  9
$DIMBLK
  1

  9
$DIMASO
 70
     1
  9
$DIMSHO
 70
     1
  9
$DIMPOST
  1
(<>)
  9
$DIMAPOST
  1

  9
$DIMALT
 70
     0
  9
$DIMALTD
 70
     2
  9
$DIMALTF
 40
0.039
  9
$DIMLFAC
 40
1.0
  9
$DIMTOFL
 70
     1
  9
$DIMTVP
 40
0.0
  9
$DIMTIX
 70
     0
  9
$DIMSOXD
 70
     0
  9
$DIMSAH
 70
     1
  9
$DIMBLK1
  1
OPEN
  9
$DIMBLK2
  1
OPEN
  9
$DIMSTYLE
  2
IGA
  9
$DIMCLRD
 70
     0
  9
$DIMCLRE
 70
     0
  9
$DIMCLRT
 70
     0
  9
$DIMTFAC
 40
10.0
  9
$DIMGAP
 40
1.0
  9
$LUNITS
 70
     2
  9
$LUPREC
 70
     3
  9
$SKETCHINC
 40
0.1
  9
$FILLETRAD
 40
50.0
  9
$AUNITS
 70
     0
  9
$AUPREC
 70
     0
  9
$MENU
  1
acad
  9
$ELEVATION
 40
0.0
  9
$PELEVATION
 40
0.0
  9
$THICKNESS
 40
0.0
  9
$LIMCHECK
 70
     0
  9
$BLIPMODE
 70
     0
  9
$CHAMFERA
 40
0.5
  9
$CHAMFERB
 40
0.5
  9
$SKPOLY
 70
     0
  9
$TDCREATE
 40
2451936.5726141199
  9
$TDUPDATE
 40
2454953.7515704511
  9
$TDINDWG
 40
0.0432488773
  9
$TDUSRTIMER
 40
0.0432488773
  9
$USRTIMER
 70
     1
  9
$ANGBASE
 50
0.0
  9
$ANGDIR
 70
     0
  9
$PDMODE
 70
     0
  9
$PDSIZE
 40
0.0
  9
$PLINEWID
 40
0.0
  9
$COORDS
 70
     1
  9
$SPLFRAME
 70
     0
  9
$SPLINETYPE
 70
     6
  9
$SPLINESEGS
 70
     8
  9
$ATTDIA
 70
     0
  9
$ATTREQ
 70
     1
  9
$HANDLING
 70
 10241
  9
$HANDSEED
  5
856C
  9
$SURFTAB1
 70
     6
  9
$SURFTAB2
 70
     6
  9
$SURFTYPE
 70
     6
  9
$SURFU
 70
     6
  9
$SURFV
 70
     6
  9
$UCSNAME
  2

  9
$UCSORG
 10
0.0
 20
0.0
 30
0.0
  9
$UCSXDIR
 10
1.0
 20
0.0
 30
0.0
  9
$UCSYDIR
 10
0.0
 20
1.0
 30
0.0
  9
$PUCSNAME
  2

  9
$PUCSORG
 10
0.0
 20
0.0
 30
0.0
  9
$PUCSXDIR
 10
1.0
 20
0.0
 30
0.0
  9
$PUCSYDIR
 10
0.0
 20
1.0
 30
0.0
  9
$USERI1
 70
     0
  9
$USERI2
 70
     0
  9
$USERI3
 70
     0
  9
$USERI4
 70
     0
  9
$USERI5
 70
     0
  9
$USERR1
 40
0.0
  9
$USERR2
 40
0.0
  9
$USERR3
 40
0.0
  9
$USERR4
 40
0.0
  9
$USERR5
 40
0.0
  9
$WORLDVIEW
 70
     1
  9
$SHADEDGE
 70
     3
  9
$SHADEDIF
 70
    70
  9
$TILEMODE
 70
     1
  9
$MAXACTVP
 70
    16
  9
$PLIMCHECK
 70
     0
  9
$PEXTMIN
 10
1.0000000000000000E+020
 20
1.0000000000000000E+020
 30
1.0000000000000000E+020
  9
$PEXTMAX
 10
-1.0000000000000000E+020
 20
-1.0000000000000000E+020
 30
-1.0000000000000000E+020
  9
$PLIMMIN
 10
0.0
 20
0.0
  9
$PLIMMAX
 10
12.0
 20
9.0
  9
$UNITMODE
 70
     0
  9
$VISRETAIN
 70
     0
  9
$PLINEGEN
 70
     0
  9
$PSLTSCALE
 70
     1
  0
ENDSEC
  0
SECTION
  2
TABLES
  0
TABLE
  2
VPORT
 70
     2
  0
VPORT
  2
*ACTIVE
 70
     0
 10
0.0
 20
0.0
 11
1.0
 21
1.0
 12
5304.9149382770529
 22
2212.5000103027569
 13
0.0
 23
0.0
 14
10.0
 24
10.0
 15
10.0
 25
10.0
 16
0.0
 26
0.0
 36
1.0
 17
0.0
 27
0.0
 37
0.0
 40
4458.9223245254034
 41
3.1666666666666661
 42
50.0
 43
0.0
 44
0.0
 50
0.0
 51
0.0
 71
     0
 72
   100
 73
     1
 74
     0
 75
     0
 76
     0
 77
     0
 78
     0
  0
ENDTAB
  0
TABLE
  2
LTYPE
 70
     2
  0
LTYPE
  2
CONTINUOUS
 70
     0
  3
Solid line
 72
    65
 73
     0
 40
0.0
  0
LTYPE
  2
CENTER
 70
     0
  3
____ _ ____ _ ____ _ ____ _ ____ _ ____ _ ____ 
 72
    65
 73
     4
 40
2.0
 49
1.25
 49
-0.25
 49
0.25
 49
-0.25
  0
ENDTAB
  0
TABLE
  2
LAYER
 70
     6
  0
LAYER
  2
0
 70
     0
 62
     7
  6
CONTINUOUS
  0
LAYER
  2
3
 70
     0
 62
     2
  6
CONTINUOUS
  0
LAYER
  2
2
 70
     0
 62
     3
  6
CENTER
  0
LAYER
  2
1
 70
     0
 62
     4
  6
CONTINUOUS
  0
LAYER
  2
4
 70
     0
 62
     7
  6
CONTINUOUS
  0
LAYER
  2
DEFPOINTS
 70
     0
 62
     7
  6
CONTINUOUS
  0
ENDTAB
  0
TABLE
  2
STYLE
 70
     1
  0
STYLE
  2
STANDARD
 70
     0
 40
0.0
 41
1.0
 50
0.0
 71
     0
 42
180.0
  3
simplex.shx
  4
extfont.shx
  0
ENDTAB
  0
TABLE
  2
VIEW
 70
     0
  0
ENDTAB
  0
TABLE
  2
UCS
 70
     0
  0
ENDTAB
  0
TABLE
  2
APPID
 70
     1
  0
APPID
  2
ACAD
 70
     0
  0
ENDTAB
  0
TABLE
  2
DIMSTYLE
 70
     1
  0
DIMSTYLE
  2
IGA
 70
     0
  3

  4

  5

  6
OPEN
  7
OPEN
 40
2.0
 41
2.0
 42
0.5
 43
10.0
 44
1.0
 45
0.0
 46
0.0
 47
1.0
 48
1.0
140
3.0
141
0.0
142
0.0
143
0.03937
144
1.0
145
0.0
146
10.0
147
1.0
 71
     0
 72
     0
 73
     0
 74
     0
 75
     0
 76
     0
 77
     1
 78
     8
170
     0
171
     2
172
     0
173
     1
174
     0
175
     0
176
     0
177
     0
178
     0
  0
ENDTAB
  0
ENDSEC
  0
SECTION
  2
BLOCKS
  0
BLOCK
  8
0
  2
$MODEL_SPACE
 70
     0
 10
0.0
 20
0.0
 30
0.0
  3
$MODEL_SPACE
  1

  0
ENDBLK
  5
1B
  8
0
  0
BLOCK
 67
     1
  8
0
  2
$PAPER_SPACE
 70
     0
 10
0.0
 20
0.0
 30
0.0
  3
$PAPER_SPACE
  1

  0
ENDBLK
  5
18
 67
     1
  8
0
  0
BLOCK
  8
0
  2
_OPEN
 70
     0
 10
0.0
 20
0.0
 30
0.0
  3
_OPEN
  1

  0
LINE
  5
79FD
  8
0
  6
BYBLOCK
 62
     0
 10
-1.0
 20
0.1666666666666666
 30
0.0
 11
0.0
 21
0.0
 31
0.0
  0
LINE
  5
79FE
  8
0
  6
BYBLOCK
 62
     0
 10
0.0
 20
0.0
 30
0.0
 11
-1.0
 21
-0.1666666666666666
 31
0.0
  0
LINE
  5
79FF
  8
0
  6
BYBLOCK
 62
     0
 10
0.0
 20
0.0
 30
0.0
 11
-1.0
 21
0.0
 31
0.0
  0
ENDBLK
  5
7A01
  8
0
  0
BLOCK
  8
0
  2
*D1
 70
     1
 10
0.0
 20
0.0
 30
0.0
  3
*D1
  1

  0
LINE
  5
8297
  8
0
  6
BYBLOCK
 62
     0
 10
2319.9003106177452
 20
1807.6857104065859
 30
0.0
 11
2319.9003106177452
 21
1872.933916549591
 31
0.0
  0
LINE
  5
8298
  8
0
  6
BYBLOCK
 62
     0
 10
2499.9003106177452
 20
1809.3495278971329
 30
0.0
 11
2499.9003106177452
 21
1872.933916549591
 31
0.0
  0
LINE
  5
8299
  8
0
  6
BYBLOCK
 62
     0
 10
2349.9003106177452
 20
1857.933916549591
 30
0.0
 11
2469.9003106177452
 21
1857.933916549591
 31
0.0
  0
TEXT
  5
829A
  8
3
 62
     0
 10
2356.3288820463158
 20
1866.369226090721
 30
0.0
 40
45.0
  1
180
  0
INSERT
  5
829B
  8
0
  6
BYBLOCK
 62
     0
  2
_OPEN
 10
2319.9003106177452
 20
1857.933916549591
 30
0.0
 41
30.0
 42
30.0
 43
30.0
 50
180.0
  0
INSERT
  5
829C
  8
0
  6
BYBLOCK
 62
     0
  2
_OPEN
 10
2499.9003106177452
 20
1857.933916549591
 30
0.0
 41
30.0
 42
30.0
 43
30.0
  0
POINT
  5
829D
  8
DEFPOINTS
  6
BYBLOCK
 62
     0
 10
2319.9003106177452
 20
1800.185710406585
 30
0.0
  0
POINT
  5
829E
  8
DEFPOINTS
  6
BYBLOCK
 62
     0
 10
2499.9003106177452
 20
1801.8495278971329
 30
0.0
  0
POINT
  5
829F
  8
DEFPOINTS
  6
BYBLOCK
 62
     0
 10
2499.9003106177452
 20
1857.933916549591
 30
0.0
  0
ENDBLK
  5
82A0
  8
0
  0
BLOCK
  8
0
  2
*D2
 70
     1
 10
0.0
 20
0.0
 30
0.0
  3
*D2
  1

  0
LINE
  5
84D6
  8
3
 62
     0
 10
1087.8481754396571
 20
1395.103684492517
 30
0.0
 11
1179.49873406598
 21
1395.103684492517
 31
0.0
  0
LINE
  5
84D7
  8
3
 62
     0
 10
1087.8481754396571
 20
1635.1036844925161
 30
0.0
 11
1179.49873406598
 21
1635.1036844925161
 31
0.0
  0
LINE
  5
84D8
  8
3
 62
     0
 10
1164.49873406598
 20
1425.103684492517
 30
0.0
 11
1164.49873406598
 21
1605.1036844925161
 31
0.0
  0
INSERT
  5
84D9
  8
3
 62
     0
  2
_OPEN
 10
1164.49873406598
 20
1395.103684492517
 30
0.0
 41
30.0
 42
30.0
 43
30.0
 50
270.0
  0
INSERT
  5
84DA
  8
3
 62
     0
  2
_OPEN
 10
1164.49873406598
 20
1635.1036844925161
 30
0.0
 41
30.0
 42
30.0
 43
30.0
 50
90.0
  0
TEXT
  8
3
  40
45
  5
855F
  62
0
  72
0
  71
0
 10
1037.00
 20
1435.45
 30
0.000000
  1
240
  0
POINT
  5
84DC
  8
DEFPOINTS
 62
     0
 10
1080.3481754396571
 20
1395.103684492517
 30
0.0
  0
POINT
  5
84DD
  8
DEFPOINTS
 62
     0
 10
1080.3481754396571
 20
1635.1036844925161
 30
0.0
  0
POINT
  5
84DE
  8
DEFPOINTS
 62
     0
 10
1164.49873406598
 20
1635.1036844925161
 30
0.0
  0
ENDBLK
  5
803E
  8
0
  0
BLOCK
  8
0
  2
*D3
 70
     1
 10
0.0
 20
0.0
 30
0.0
  3
*D3
  1

  0
LINE
  5
84DF
  8
3
 62
     0
 10
1087.8481754396571
 20
1395.103684492517
 30
0.0
 11
1260.9480133409661
 21
1395.103684492517
 31
0.0
  0
LINE
  5
84E0
  8
3
 62
     0
 10
1175.0439984372181
 20
1633.1036844925161
 30
0.0
 11
1260.948013340967
 21
1633.1036844925161
 31
0.0
  0
LINE
  5
84E1
  8
3
 62
     0
 10
1245.9480133409661
 20
1425.103684492517
 30
0.0
 11
1245.948013340967
 21
1603.1036844925161
 31
0.0
  0
INSERT
  5
84E2
  8
3
 62
     0
  2
_OPEN
 10
1245.9480133409661
 20
1395.103684492517
 30
0.0
 41
30.0
 42
30.0
 43
30.0
 50
270.0
  0
INSERT
  5
84E3
  8
3
 62
     0
  2
_OPEN
 10
1245.948013340967
 20
1633.1036844925161
 30
0.0
 41
30.0
 42
30.0
 43
30.0
 50
90.0
  0
TEXT
  8
3
  40
45
  5
8560
  62
0
  72
0
  71
0
 10
1118.45
 20
1434.45
 30
0.000000
  1
238
  0
POINT
  5
84E5
  8
DEFPOINTS
 62
     0
 10
1080.3481754396571
 20
1395.103684492517
 30
0.0
  0
POINT
  5
84E6
  8
DEFPOINTS
 62
     0
 10
1167.5439984372181
 20
1633.1036844925161
 30
0.0
  0
POINT
  5
84E7
  8
DEFPOINTS
 62
     0
 10
1245.948013340967
 20
1633.1036844925161
 30
0.0
  0
ENDBLK
  5
80A7
  8
0
  0
BLOCK
  8
0
  2
*D4
 70
     1
 10
0.0
 20
0.0
 30
0.0
  3
*D4
  1

  0
LINE
  5
8342
  8
0
  6
BYBLOCK
 62
     0
 10
2502.9003106177452
 20
1796.4240344126449
 30
0.0
 11
2502.9003106177452
 21
1986.2176273990881
 31
0.0
  0
LINE
  5
8343
  8
0
  6
BYBLOCK
 62
     0
 10
2409.9003106177452
 20
1925.733828620519
 30
0.0
 11
2409.9003106177452
 21
1986.2176273990881
 31
0.0
  0
LINE
  5
8344
  8
0
  6
BYBLOCK
 62
     0
 10
2472.9003106177452
 20
1971.2176273990881
 30
0.0
 11
2439.9003106177452
 21
1971.2176273990881
 31
0.0
  0
TEXT
  5
8345
  8
3
 62
     0
 10
2418.9003106177452
 20
1987.083465397199
 30
0.0
 40
45.0
  1
94
  0
INSERT
  5
8346
  8
0
  6
BYBLOCK
 62
     0
  2
_OPEN
 10
2502.9003106177452
 20
1971.2176273990881
 30
0.0
 41
30.0
 42
30.0
 43
30.0
  0
INSERT
  5
8347
  8
0
  6
BYBLOCK
 62
     0
  2
_OPEN
 10
2409.9003106177452
 20
1971.2176273990881
 30
0.0
 41
30.0
 42
30.0
 43
30.0
 50
180.0
  0
POINT
  5
8348
  8
DEFPOINTS
  6
BYBLOCK
 62
     0
 10
2502.9003106177452
 20
1788.924034412644
 30
0.0
  0
POINT
  5
8349
  8
DEFPOINTS
  6
BYBLOCK
 62
     0
 10
2409.9003106177452
 20
1918.233828620519
 30
0.0
  0
POINT
  5
834A
  8
DEFPOINTS
  6
BYBLOCK
 62
     0
 10
2409.9003106177452
 20
1971.2176273990881
 30
0.0
  0
ENDBLK
  5
834B
  8
0
  0
BLOCK
  8
0
  2
*D5
 70
     1
 10
0.0
 20
0.0
 30
0.0
  3
*D5
  1

  0
LINE
  5
84E8
  8
3
 62
     0
 10
2409.9003106177452
 20
1925.733828620519
 30
0.0
 11
2409.9003106177452
 21
1986.2176273990881
 31
0.0
  0
LINE
  5
84E9
  8
3
 62
     0
 10
1882.1392454298391
 20
1733.1493147963031
 30
0.0
 11
1882.1392454298391
 21
1986.2176273990881
 31
0.0
  0
LINE
  5
84EA
  8
3
 62
     0
 10
2379.9003106177452
 20
1971.2176273990881
 30
0.0
 11
1912.1392454298391
 21
1971.2176273990881
 31
0.0
  0
INSERT
  5
84EB
  8
3
 62
     0
  2
_OPEN
 10
2409.9003106177452
 20
1971.2176273990881
 30
0.0
 41
30.0
 42
30.0
 43
30.0
  0
INSERT
  5
84EC
  8
3
 62
     0
  2
_OPEN
 10
1882.1392454298391
 20
1971.2176273990881
 30
0.0
 41
30.0
 42
30.0
 43
30.0
 50
180.0
  0
TEXT
  8
3
  40
45
  5
8561
  62
0
  72
0
  71
0
 10
2056.02
 20
1966.57
 30
0.000000
  1
MAX
  0
TEXT
  8
3
  40
45
  5
8562
  62
0
  72
0
  71
0
 10
2056.02
 20
1908.07
 30
0.000000
  1
600
  0
POINT
  5
84EE
  8
DEFPOINTS
 62
     0
 10
2409.9003106177452
 20
1918.233828620519
 30
0.0
  0
POINT
  5
84EF
  8
DEFPOINTS
 62
     0
 10
1882.1392454298391
 20
1725.6493147963031
 30
0.0
  0
POINT
  5
84F0
  8
DEFPOINTS
 62
     0
 10
1882.1392454298391
 20
1971.2176273990881
 30
0.0
  0
ENDBLK
  5
831D
  8
0
  0
BLOCK
  8
0
  2
*D6
 70
     1
 10
0.0
 20
0.0
 30
0.0
  3
*D6
  1

  0
LINE
  5
8337
  8
0
  6
BYBLOCK
 62
     0
 10
2536.4003106177461
 20
1760.0806095930579
 30
0.0
 11
2643.6025848436911
 21
1760.0806095930579
 31
0.0
  0
LINE
  5
8338
  8
0
  6
BYBLOCK
 62
     0
 10
2536.4003106177461
 20
1506.0806095930579
 30
0.0
 11
2643.6025848436911
 21
1506.0806095930579
 31
0.0
  0
LINE
  5
8339
  8
0
  6
BYBLOCK
 62
     0
 10
2628.6025848436911
 20
1730.0806095930579
 30
0.0
 11
2628.6025848436911
 21
1536.0806095930579
 31
0.0
  0
TEXT
  5
833A
  8
3
 62
     0
 10
2611.7712600487898
 20
1551.6520381644859
 30
0.0
 40
45.0
  1
φ254
 50
90.0
  0
INSERT
  5
833B
  8
0
  6
BYBLOCK
 62
     0
  2
_OPEN
 10
2628.6025848436911
 20
1760.0806095930579
 30
0.0
 41
30.0
 42
30.0
 43
30.0
 50
90.0
  0
INSERT
  5
833C
  8
0
  6
BYBLOCK
 62
     0
  2
_OPEN
 10
2628.6025848436911
 20
1506.0806095930579
 30
0.0
 41
30.0
 42
30.0
 43
30.0
 50
270.0
  0
POINT
  5
833D
  8
DEFPOINTS
  6
BYBLOCK
 62
     0
 10
2528.9003106177461
 20
1760.0806095930579
 30
0.0
  0
POINT
  5
833E
  8
DEFPOINTS
  6
BYBLOCK
 62
     0
 10
2528.9003106177461
 20
1506.0806095930579
 30
0.0
  0
POINT
  5
833F
  8
DEFPOINTS
  6
BYBLOCK
 62
     0
 10
2628.6025848436911
 20
1506.0806095930579
 30
0.0
  0
ENDBLK
  5
8340
  8
0
  0
BLOCK
  8
0
  2
*D7
 70
     1
 10
0.0
 20
0.0
 30
0.0
  3
*D7
  1

  0
LINE
  5
81E4
  8
0
  6
BYBLOCK
 62
     0
 10
1080.3481754396571
 20
1669.603684492517
 30
0.0
 11
1080.3481754396571
 21
1920.1993693767599
 31
0.0
  0
LINE
  5
81E5
  8
0
  6
BYBLOCK
 62
     0
 10
880.3481754396571
 20
1879.8100548535861
 30
0.0
 11
880.3481754396571
 21
1920.1993693767599
 31
0.0
  0
LINE
  5
81E6
  8
0
  6
BYBLOCK
 62
     0
 10
1050.3481754396571
 20
1905.1993693767599
 30
0.0
 11
910.34817543965698
 21
1905.1993693767599
 31
0.0
  0
TEXT
  5
81E7
  8
3
 62
     0
 10
922.49103258251421
 20
1917.1240844352851
 30
0.0
 40
45.0
  1
200
  0
INSERT
  5
81E8
  8
0
  6
BYBLOCK
 62
     0
  2
_OPEN
 10
1080.3481754396571
 20
1905.1993693767599
 30
0.0
 41
30.0
 42
30.0
 43
30.0
  0
INSERT
  5
81E9
  8
0
  6
BYBLOCK
 62
     0
  2
_OPEN
 10
880.3481754396571
 20
1905.1993693767599
 30
0.0
 41
30.0
 42
30.0
 43
30.0
 50
180.0
  0
POINT
  5
81EA
  8
DEFPOINTS
  6
BYBLOCK
 62
     0
 10
1080.3481754396571
 20
1662.103684492517
 30
0.0
  0
POINT
  5
81EB
  8
DEFPOINTS
  6
BYBLOCK
 62
     0
 10
880.3481754396571
 20
1872.3100548535849
 30
0.0
  0
POINT
  5
81EC
  8
DEFPOINTS
  6
BYBLOCK
 62
     0
 10
880.3481754396571
 20
1905.1993693767599
 30
0.0
  0
ENDBLK
  5
81ED
  8
0
  0
BLOCK
  8
0
  2
*D8
 70
     1
 10
0.0
 20
0.0
 30
0.0
  3
*D8
  1

  0
LINE
  5
81D9
  8
0
  6
BYBLOCK
 62
     0
 10
880.3481754396571
 20
1879.8100548535861
 30
0.0
 11
880.3481754396571
 21
1920.1993693767599
 31
0.0
  0
LINE
  5
81DA
  8
0
  6
BYBLOCK
 62
     0
 10
675.34817543965607
 20
1626.603684492517
 30
0.0
 11
675.34817543965607
 21
1920.1993693767599
 31
0.0
  0
LINE
  5
81DB
  8
0
  6
BYBLOCK
 62
     0
 10
850.34817543965698
 20
1905.1993693767599
 30
0.0
 11
705.34817543965607
 21
1905.1993693767599
 31
0.0
  0
TEXT
  5
81DC
  8
3
 62
     0
 10
719.99103258251375
 20
1917.1240844352851
 30
0.0
 40
45.0
  1
205
  0
INSERT
  5
81DD
  8
0
  6
BYBLOCK
 62
     0
  2
_OPEN
 10
880.3481754396571
 20
1905.1993693767599
 30
0.0
 41
30.0
 42
30.0
 43
30.0
  0
INSERT
  5
81DE
  8
0
  6
BYBLOCK
 62
     0
  2
_OPEN
 10
675.34817543965607
 20
1905.1993693767599
 30
0.0
 41
30.0
 42
30.0
 43
30.0
 50
180.0
  0
POINT
  5
81DF
  8
DEFPOINTS
  6
BYBLOCK
 62
     0
 10
880.3481754396571
 20
1872.3100548535849
 30
0.0
  0
POINT
  5
81E0
  8
DEFPOINTS
  6
BYBLOCK
 62
     0
 10
675.34817543965607
 20
1619.103684492517
 30
0.0
  0
POINT
  5
81E1
  8
DEFPOINTS
  6
BYBLOCK
 62
     0
 10
675.34817543965607
 20
1905.1993693767599
 30
0.0
  0
ENDBLK
  5
81E2
  8
0
  0
BLOCK
  8
0
  2
*D9
 70
     1
 10
0.0
 20
0.0
 30
0.0
  3
*D9
  1

  0
LINE
  5
8130
  8
0
  6
BYBLOCK
 62
     0
 10
873.84817543965607
 20
1810.103684492517
 30
0.0
 11
1352.319700656047
 21
1810.103684492517
 31
0.0
  0
LINE
  5
8131
  8
0
  6
BYBLOCK
 62
     0
 10
1175.0439984372181
 20
1633.1036844925161
 30
0.0
 11
1352.319700656047
 21
1633.1036844925161
 31
0.0
  0
LINE
  5
8132
  8
0
  6
BYBLOCK
 62
     0
 10
1337.319700656047
 20
1780.103684492517
 30
0.0
 11
1337.319700656047
 21
1663.1036844925161
 31
0.0
  0
TEXT
  5
8133
  8
3
 62
     0
 10
1326.595585878538
 20
1668.0322559210881
 30
0.0
 40
45.0
  1
177
 50
90.0
  0
INSERT
  5
8134
  8
0
  6
BYBLOCK
 62
     0
  2
_OPEN
 10
1337.319700656047
 20
1810.103684492517
 30
0.0
 41
30.0
 42
30.0
 43
30.0
 50
90.0
  0
INSERT
  5
8135
  8
0
  6
BYBLOCK
 62
     0
  2
_OPEN
 10
1337.319700656047
 20
1633.1036844925161
 30
0.0
 41
30.0
 42
30.0
 43
30.0
 50
270.0
  0
POINT
  5
8136
  8
DEFPOINTS
  6
BYBLOCK
 62
     0
 10
866.34817543965619
 20
1810.103684492517
 30
0.0
  0
POINT
  5
8137
  8
DEFPOINTS
  6
BYBLOCK
 62
     0
 10
1167.5439984372181
 20
1633.1036844925161
 30
0.0
  0
POINT
  5
8138
  8
DEFPOINTS
  6
BYBLOCK
 62
     0
 10
1337.319700656047
 20
1633.1036844925161
 30
0.0
  0
ENDBLK
  5
8139
  8
0
  0
BLOCK
  8
0
  2
*D10
 70
     1
 10
0.0
 20
0.0
 30
0.0
  3
*D10
  1

  0
LINE
  5
84FE
  8
3
 62
     0
 10
1175.0439984372181
 20
1633.1036844925161
 30
0.0
 11
1352.3197006560481
 21
1633.1036844925161
 31
0.0
  0
LINE
  5
84FF
  8
3
 62
     0
 10
1087.8481754396571
 20
1313.103684492515
 30
0.0
 11
1352.319700656047
 21
1313.103684492515
 31
0.0
  0
LINE
  5
8500
  8
3
 62
     0
 10
1337.319700656047
 20
1603.1036844925161
 30
0.0
 11
1337.319700656047
 21
1343.103684492515
 31
0.0
  0
INSERT
  5
8501
  8
3
 62
     0
  2
_OPEN
 10
1337.319700656047
 20
1633.1036844925161
 30
0.0
 41
30.0
 42
30.0
 43
30.0
 50
90.0
  0
INSERT
  5
8502
  8
3
 62
     0
  2
_OPEN
 10
1337.319700656047
 20
1313.103684492515
 30
0.0
 41
30.0
 42
30.0
 43
30.0
 50
270.0
  0
TEXT
  8
3
  40
45
  5
8563
  62
0
  72
0
  71
0
 10
1209.82
 20
1393.45
 30
0.000000
  1
320
  0
POINT
  5
8504
  8
DEFPOINTS
 62
     0
 10
1167.5439984372181
 20
1633.1036844925161
 30
0.0
  0
POINT
  5
8505
  8
DEFPOINTS
 62
     0
 10
1080.3481754396571
 20
1313.103684492515
 30
0.0
  0
POINT
  5
8506
  8
DEFPOINTS
 62
     0
 10
1337.319700656047
 20
1313.103684492515
 30
0.0
  0
ENDBLK
  5
80D9
  8
0
  0
BLOCK
  8
0
  2
*D11
 70
     1
 10
0.0
 20
0.0
 30
0.0
  3
*D11
  1

  0
LINE
  5
8507
  8
3
 62
     0
 10
1080.3481754396571
 20
1669.603684492517
 30
0.0
 11
1080.3481754396571
 21
2037.9708196526869
 31
0.0
  0
LINE
  5
8508
  8
3
 62
     0
 10
380.34817543965607
 20
1360.6036844925161
 30
0.0
 11
380.34817543965619
 21
2037.9708196526869
 31
0.0
  0
LINE
  5
8509
  8
3
 62
     0
 10
1050.3481754396571
 20
2022.9708196526869
 30
0.0
 11
410.34817543965619
 21
2022.9708196526869
 31
0.0
  0
INSERT
  5
850A
  8
3
 62
     0
  2
_OPEN
 10
1080.3481754396571
 20
2022.9708196526869
 30
0.0
 41
30.0
 42
30.0
 43
30.0
  0
INSERT
  5
850B
  8
3
 62
     0
  2
_OPEN
 10
380.34817543965619
 20
2022.9708196526869
 30
0.0
 41
30.0
 42
30.0
 43
30.0
 50
180.0
  0
TEXT
  8
3
  40
45
  5
8564
  62
0
  72
0
  71
0
 10
640.348
 20
1980.82
 30
0.000000
  1
700
  0
POINT
  5
850D
  8
DEFPOINTS
 62
     0
 10
1080.3481754396571
 20
1662.103684492517
 30
0.0
  0
POINT
  5
850E
  8
DEFPOINTS
 62
     0
 10
380.34817543965607
 20
1353.1036844925161
 30
0.0
  0
POINT
  5
850F
  8
DEFPOINTS
 62
     0
 10
380.34817543965619
 20
2022.9708196526869
 30
0.0
  0
ENDBLK
  5
8033
  8
0
  0
BLOCK
  8
0
  2
_DOT
 70
     0
 10
0.0
 20
0.0
 30
0.0
  3
_DOT
  1

  0
LINE
  5
830E
  8
0
  6
BYBLOCK
 62
     0
 10
0.0
 20
0.0
 30
0.0
 11
-1.0
 21
-0.0000000000000284
 31
0.0
  0
POLYLINE
  5
830F
  8
0
  6
BYBLOCK
 62
     0
 66
     1
 10
0.0
 20
0.0
 30
0.0
 70
     1
 40
0.1666666666666666
 41
0.1666666666666666
  0
VERTEX
  5
8519
  8
0
  6
BYBLOCK
 62
     0
 10
-0.0833333333333286
 20
-0.0000000000000284
 30
0.0
 42
1.0
  0
VERTEX
  5
851A
  8
0
  6
BYBLOCK
 62
     0
 10
0.0833333333333286
 20
-0.0000000000000284
 30
0.0
 42
1.0
  0
SEQEND
  5
851B
  8
0
  6
BYBLOCK
 62
     0
  0
ENDBLK
  5
81A6
  8
0
  0
BLOCK
  8
0
  2
*D13
 70
     1
 10
0.0
 20
0.0
 30
0.0
  3
*D13
  1

  0
LINE
  5
851C
  8
3
 62
     0
 10
372.84817543965698
 20
3091.48046312733
 30
0.0
 11
287.11621079430603
 21
3091.48046312733
 31
0.0
  0
LINE
  5
851D
  8
3
 62
     0
 10
372.84817543965801
 20
2646.4804631273309
 30
0.0
 11
287.11621079430591
 21
2646.4804631273309
 31
0.0
  0
LINE
  5
851E
  8
3
 62
     0
 10
302.11621079430603
 20
3061.4804631273309
 30
0.0
 11
302.11621079430591
 21
2676.4804631273309
 31
0.0
  0
INSERT
  5
851F
  8
3
 62
     0
  2
_OPEN
 10
302.11621079430603
 20
3091.48046312733
 30
0.0
 41
30.0
 42
30.0
 43
30.0
 50
90.0
  0
INSERT
  5
8520
  8
3
 62
     0
  2
_OPEN
 10
302.11621079430591
 20
2646.4804631273309
 30
0.0
 41
30.0
 42
30.0
 43
30.0
 50
270.0
  0
TEXT
  8
3
  40
45
  5
8565
  62
0
  72
0
  71
0
 10
174.616
 20
2779.92
 30
0.000000
  1
445
  0
POINT
  5
8522
  8
DEFPOINTS
 62
     0
 10
380.3481754396571
 20
3091.48046312733
 30
0.0
  0
POINT
  5
8523
  8
DEFPOINTS
 62
     0
 10
380.34817543965801
 20
2646.4804631273309
 30
0.0
  0
POINT
  5
8524
  8
DEFPOINTS
 62
     0
 10
302.11621079430591
 20
2646.4804631273309
 30
0.0
  0
ENDBLK
  5
83BB
  8
0
  0
BLOCK
  8
0
  2
*D14
 70
     1
 10
0.0
 20
0.0
 30
0.0
  3
*D14
  1

  0
LINE
  5
8525
  8
3
 62
     0
 10
380.34817543965801
 20
2638.9804631273309
 30
0.0
 11
380.34817543965801
 21
2479.552879106071
 31
0.0
  0
LINE
  5
8526
  8
3
 62
     0
 10
1080.3481754396571
 20
2638.9804631273309
 30
0.0
 11
1080.3481754396571
 21
2479.552879106071
 31
0.0
  0
LINE
  5
8527
  8
3
 62
     0
 10
410.34817543965801
 20
2494.5528791060719
 30
0.0
 11
1050.3481754396571
 21
2494.5528791060719
 31
0.0
  0
INSERT
  5
8528
  8
3
 62
     0
  2
_OPEN
 10
380.34817543965801
 20
2494.5528791060719
 30
0.0
 41
30.0
 42
30.0
 43
30.0
 50
180.0
  0
INSERT
  5
8529
  8
3
 62
     0
  2
_OPEN
 10
1080.3481754396571
 20
2494.5528791060719
 30
0.0
 41
30.0
 42
30.0
 43
30.0
  0
TEXT
  8
3
  40
45
  5
8566
  62
0
  72
0
  71
0
 10
604.667
 20
2452.40
 30
0.000000
  1
700
  0
POINT
  5
852B
  8
DEFPOINTS
 62
     0
 10
380.34817543965801
 20
2646.4804631273309
 30
0.0
  0
POINT
  5
852C
  8
DEFPOINTS
 62
     0
 10
1080.3481754396571
 20
2646.4804631273309
 30
0.0
  0
POINT
  5
852D
  8
DEFPOINTS
 62
     0
 10
1080.3481754396571
 20
2494.5528791060719
 30
0.0
  0
ENDBLK
  5
83AF
  8
0
  0
BLOCK
  8
0
  2
*D15
 70
     1
 10
0.0
 20
0.0
 30
0.0
  3
*D15
  1

  0
LINE
  5
852E
  8
3
 62
     0
 10
380.34817543965607
 20
1243.603684492515
 30
0.0
 11
380.34817543965607
 21
1118.0224276993119
 31
0.0
  0
LINE
  5
852F
  8
3
 62
     0
 10
880.3481754396571
 20
1243.603684492515
 30
0.0
 11
880.3481754396571
 21
1118.0224276993119
 31
0.0
  0
LINE
  5
8530
  8
3
 62
     0
 10
410.34817543965607
 20
1133.0224276993119
 30
0.0
 11
850.34817543965698
 21
1133.0224276993119
 31
0.0
  0
INSERT
  5
8531
  8
3
 62
     0
  2
_OPEN
 10
380.34817543965607
 20
1133.0224276993119
 30
0.0
 41
30.0
 42
30.0
 43
30.0
 50
180.0
  0
INSERT
  5
8532
  8
3
 62
     0
  2
_OPEN
 10
880.3481754396571
 20
1133.0224276993119
 30
0.0
 41
30.0
 42
30.0
 43
30.0
  0
TEXT
  8
3
  40
45
  5
8567
  62
0
  72
0
  71
0
 10
540.348
 20
1090.87
 30
0.000000
  1
500
  0
POINT
  5
8534
  8
DEFPOINTS
 62
     0
 10
380.34817543965607
 20
1251.103684492515
 30
0.0
  0
POINT
  5
8535
  8
DEFPOINTS
 62
     0
 10
880.3481754396571
 20
1251.103684492515
 30
0.0
  0
POINT
  5
8536
  8
DEFPOINTS
 62
     0
 10
880.3481754396571
 20
1133.0224276993119
 30
0.0
  0
ENDBLK
  5
8445
  8
0
  0
BLOCK
  8
0
  2
*D16
 70
     1
 10
0.0
 20
0.0
 30
0.0
  3
*D16
  1

  0
LINE
  5
8537
  8
3
 62
     0
 10
880.3481754396571
 20
1243.603684492515
 30
0.0
 11
880.3481754396571
 21
1118.0224276993119
 31
0.0
  0
LINE
  5
8538
  8
3
 62
     0
 10
1080.3481754396571
 20
1243.603684492515
 30
0.0
 11
1080.3481754396571
 21
1118.0224276993119
 31
0.0
  0
LINE
  5
8539
  8
3
 62
     0
 10
910.34817543965698
 20
1133.0224276993119
 30
0.0
 11
1050.3481754396571
 21
1133.0224276993119
 31
0.0
  0
INSERT
  5
853A
  8
3
 62
     0
  2
_OPEN
 10
880.3481754396571
 20
1133.0224276993119
 30
0.0
 41
30.0
 42
30.0
 43
30.0
 50
180.0
  0
INSERT
  5
853B
  8
3
 62
     0
  2
_OPEN
 10
1080.3481754396571
 20
1133.0224276993119
 30
0.0
 41
30.0
 42
30.0
 43
30.0
  0
TEXT
  8
3
  40
45
  5
8568
  62
0
  72
0
  71
0
 10
890.348
 20
1090.87
 30
0.000000
  1
200
  0
POINT
  5
853D
  8
DEFPOINTS
 62
     0
 10
880.3481754396571
 20
1251.103684492515
 30
0.0
  0
POINT
  5
853E
  8
DEFPOINTS
 62
     0
 10
1080.3481754396571
 20
1251.103684492515
 30
0.0
  0
POINT
  5
853F
  8
DEFPOINTS
 62
     0
 10
1080.3481754396571
 20
1133.0224276993119
 30
0.0
  0
ENDBLK
  5
8454
  8
0
  0
BLOCK
  8
0
  2
*D17
 70
     1
 10
0.0
 20
0.0
 30
0.0
  3
*D17
  1

  0
LINE
  5
8540
  8
3
 62
     0
 10
1908.9003106177449
 20
1243.5806095930579
 30
0.0
 11
1908.9003106177449
 21
1118.0224276993119
 31
0.0
  0
LINE
  5
8541
  8
3
 62
     0
 10
2353.9003106177452
 20
1243.5806095930579
 30
0.0
 11
2353.9003106177452
 21
1118.0224276993119
 31
0.0
  0
LINE
  5
8542
  8
3
 62
     0
 10
1938.9003106177449
 20
1133.0224276993119
 30
0.0
 11
2323.9003106177452
 21
1133.0224276993119
 31
0.0
  0
INSERT
  5
8543
  8
3
 62
     0
  2
_OPEN
 10
1908.9003106177449
 20
1133.0224276993119
 30
0.0
 41
30.0
 42
30.0
 43
30.0
 50
180.0
  0
INSERT
  5
8544
  8
3
 62
     0
  2
_OPEN
 10
2353.9003106177452
 20
1133.0224276993119
 30
0.0
 41
30.0
 42
30.0
 43
30.0
  0
TEXT
  8
3
  40
45
  5
8569
  62
0
  72
0
  71
0
 10
2041.40
 20
1090.87
 30
0.000000
  1
445
  0
POINT
  5
8546
  8
DEFPOINTS
 62
     0
 10
1908.9003106177449
 20
1251.0806095930579
 30
0.0
  0
POINT
  5
8547
  8
DEFPOINTS
 62
     0
 10
2353.9003106177452
 20
1251.0806095930579
 30
0.0
  0
POINT
  5
8548
  8
DEFPOINTS
 62
     0
 10
2353.9003106177452
 20
1133.0224276993119
 30
0.0
  0
ENDBLK
  5
8461
  8
0
  0
BLOCK
  8
0
  2
*D18
 70
     1
 10
0.0
 20
0.0
 30
0.0
  3
*D18
  1

  0
LINE
  5
8549
  8
3
 62
     0
 10
2353.9003106177452
 20
1243.5806095930579
 30
0.0
 11
2353.9003106177452
 21
1118.0224276993119
 31
0.0
  0
LINE
  5
854A
  8
3
 62
     0
 10
2409.9003106177452
 20
1243.5806095930579
 30
0.0
 11
2409.9003106177452
 21
1118.0224276993119
 31
0.0
  0
LINE
  5
854B
  8
3
 62
     0
 10
2323.9003106177452
 20
1133.0224276993119
 30
0.0
 11
2293.9003106177452
 21
1133.0224276993119
 31
0.0
  0
LINE
  5
854C
  8
3
 62
     0
 10
2439.9003106177452
 20
1133.0224276993119
 30
0.0
 11
2570.6145963320309
 21
1133.0224276993119
 31
0.0
  0
LINE
  5
854D
  8
3
 62
     0
 10
2353.9003106177452
 20
1133.0224276993119
 30
0.0
 11
2409.9003106177452
 21
1133.0224276993119
 31
0.0
  0
INSERT
  5
854E
  8
3
 62
     0
  2
_OPEN
 10
2353.9003106177452
 20
1133.0224276993119
 30
0.0
 41
30.0
 42
30.0
 43
30.0
  0
INSERT
  5
854F
  8
3
 62
     0
  2
_OPEN
 10
2409.9003106177452
 20
1133.0224276993119
 30
0.0
 41
30.0
 42
30.0
 43
30.0
 50
180.0
  0
TEXT
  8
3
  40
45
  5
856A
  62
0
  72
0
  71
0
 10
2430.26
 20
1090.87
 30
0.000000
  1
56
  0
POINT
  5
8551
  8
DEFPOINTS
 62
     0
 10
2353.9003106177452
 20
1251.0806095930579
 30
0.0
  0
POINT
  5
8552
  8
DEFPOINTS
 62
     0
 10
2409.9003106177452
 20
1251.0806095930579
 30
0.0
  0
POINT
  5
8553
  8
DEFPOINTS
 62
     0
 10
2409.9003106177452
 20
1133.0224276993119
 30
0.0
  0
ENDBLK
  5
8470
  8
0
  0
BLOCK
  8
0
  2
*D19
 70
     1
 10
0.0
 20
0.0
 30
0.0
  3
*D19
  1

  0
LINE
  5
8554
  8
3
 62
     0
 10
1087.8481754396571
 20
1291.1036844925161
 30
0.0
 11
1353.778217251418
 21
1291.1036844925161
 31
0.0
  0
LINE
  5
8555
  8
3
 62
     0
 10
1087.8481754396571
 20
1251.103684492515
 30
0.0
 11
1353.778217251418
 21
1251.103684492515
 31
0.0
  0
LINE
  5
8556
  8
3
 62
     0
 10
1338.778217251418
 20
1321.1036844925161
 30
0.0
 11
1338.778217251418
 21
1351.1036844925161
 31
0.0
  0
LINE
  5
8557
  8
3
 62
     0
 10
1338.778217251418
 20
1221.103684492515
 30
0.0
 11
1338.778217251418
 21
1088.2465416353721
 31
0.0
  0
LINE
  5
8558
  8
3
 62
     0
 10
1338.778217251418
 20
1291.1036844925161
 30
0.0
 11
1338.778217251418
 21
1251.103684492515
 31
0.0
  0
INSERT
  5
8559
  8
3
 62
     0
  2
_DOT
 10
1338.778217251418
 20
1291.1036844925161
 30
0.0
 41
30.0
 42
30.0
 43
30.0
 50
270.0
  0
INSERT
  5
855A
  8
3
 62
     0
  2
_OPEN
 10
1338.778217251418
 20
1251.103684492515
 30
0.0
 41
30.0
 42
30.0
 43
30.0
 50
90.0
  0
TEXT
  8
3
  40
45
  5
856B
  62
0
  72
0
  71
0
 10
1211.28
 20
1060.03
 30
0.000000
  1
40
  0
POINT
  5
855C
  8
DEFPOINTS
 62
     0
 10
1080.3481754396571
 20
1291.1036844925161
 30
0.0
  0
POINT
  5
855D
  8
DEFPOINTS
 62
     0
 10
1080.3481754396571
 20
1251.103684492515
 30
0.0
  0
POINT
  5
855E
  8
DEFPOINTS
 62
     0
 10
1338.778217251418
 20
1251.103684492515
 30
0.0
  0
ENDBLK
  5
849B
  8
0
  0
BLOCK
  8
0
  2
*D20
 70
     1
 10
0.0
 20
0.0
 30
0.0
  3
*D20
  1

  0
LINE
  5
849F
  8
0
  6
BYBLOCK
 62
     0
 10
1087.8481754396571
 20
1291.1036844925161
 30
0.0
 11
1353.778217251418
 21
1291.1036844925161
 31
0.0
  0
LINE
  5
84A0
  8
0
  6
BYBLOCK
 62
     0
 10
1087.8481754396571
 20
1313.103684492515
 30
0.0
 11
1353.778217251418
 21
1313.103684492515
 31
0.0
  0
LINE
  5
84A1
  8
0
  6
BYBLOCK
 62
     0
 10
1338.778217251418
 20
1261.1036844925161
 30
0.0
 11
1338.778217251418
 21
1231.1036844925161
 31
0.0
  0
LINE
  5
84A2
  8
0
  6
BYBLOCK
 62
     0
 10
1338.778217251418
 20
1343.103684492515
 30
0.0
 11
1338.778217251418
 21
1373.103684492515
 31
0.0
  0
TEXT
  5
84A3
  8
3
 62
     0
 10
1425.563931537132
 20
1236.746541635373
 30
0.0
 40
45.0
  1
(22)
 50
90.0
  0
LINE
  5
84A4
  8
0
  6
BYBLOCK
 62
     0
 10
1338.778217251418
 20
1291.1036844925161
 30
0.0
 11
1338.778217251418
 21
1313.103684492515
 31
0.0
  0
INSERT
  5
84A5
  8
0
  6
BYBLOCK
 62
     0
  2
_DOT
 10
1338.778217251418
 20
1291.1036844925161
 30
0.0
 41
30.0
 42
30.0
 43
30.0
 50
90.0
  0
INSERT
  5
84A6
  8
0
  6
BYBLOCK
 62
     0
  2
_OPEN
 10
1338.778217251418
 20
1313.103684492515
 30
0.0
 41
30.0
 42
30.0
 43
30.0
 50
270.0
  0
POINT
  5
84A7
  8
DEFPOINTS
  6
BYBLOCK
 62
     0
 10
1080.3481754396571
 20
1291.1036844925161
 30
0.0
  0
POINT
  5
84A8
  8
DEFPOINTS
  6
BYBLOCK
 62
     0
 10
1080.3481754396571
 20
1313.103684492515
 30
0.0
  0
POINT
  5
84A9
  8
DEFPOINTS
  6
BYBLOCK
 62
     0
 10
1338.778217251418
 20
1313.103684492515
 30
0.0
  0
ENDBLK
  5
84AA
  8
0
  0
BLOCK
  8
0
  2
*D21
 70
     1
 10
0.0
 20
0.0
 30
0.0
  3
*D21
  1

  0
LINE
  5
84AE
  8
0
  6
BYBLOCK
 62
     0
 10
881.34817543965619
 20
1810.103684492517
 30
0.0
 11
1501.82714275233
 21
1810.103684492517
 31
0.0
  0
LINE
  5
84AF
  8
0
  6
BYBLOCK
 62
     0
 10
1087.8481754396571
 20
1251.103684492515
 30
0.0
 11
1501.82714275233
 21
1251.103684492515
 31
0.0
  0
LINE
  5
84B0
  8
0
  6
BYBLOCK
 62
     0
 10
1486.82714275233
 20
1780.103684492517
 30
0.0
 11
1486.82714275233
 21
1281.103684492515
 31
0.0
  0
INSERT
  5
84B1
  8
0
  6
BYBLOCK
 62
     0
  2
_OPEN
 10
1486.82714275233
 20
1810.103684492517
 30
0.0
 41
30.0
 42
30.0
 43
30.0
 50
90.0
  0
INSERT
  5
84B2
  8
0
  6
BYBLOCK
 62
     0
  2
_OPEN
 10
1486.82714275233
 20
1251.103684492515
 30
0.0
 41
30.0
 42
30.0
 43
30.0
 50
270.0
  0
TEXT
  5
84B3
  8
3
 62
     0
 10
1452.541428466616
 20
1443.8179702068021
 30
0.0
 40
45.0
  1
(559)
 50
90.0
  0
POINT
  5
84B4
  8
DEFPOINTS
  6
BYBLOCK
 62
     0
 10
873.84817543965607
 20
1810.103684492517
 30
0.0
  0
POINT
  5
84B5
  8
DEFPOINTS
  6
BYBLOCK
 62
     0
 10
1080.3481754396571
 20
1251.103684492515
 30
0.0
  0
POINT
  5
84B6
  8
DEFPOINTS
  6
BYBLOCK
 62
     0
 10
1486.82714275233
 20
1251.103684492515
 30
0.0
  0
ENDBLK
  5
84B7
  8
0
  0
ENDSEC
  0
SECTION
  2
ENTITIES
  0
LINE
  5
7C21
  8
2
 10
597.05390699064526
 20
1633.1036844925161
 30
0.0
 11
1167.5439984372181
 21
1633.1036844925161
 31
0.0
  0
LINE
  5
7C22
  8
2
 10
880.3481754396571
 20
1872.3100548535849
 30
0.0
 11
880.3481754396571
 21
1251.103684492515
 31
0.0
  0
LINE
  5
7C23
  8
1
 10
501.51037090850781
 20
1532.096384773183
 30
0.0
 11
844.64902492744113
 21
1718.5117393568639
 31
0.0
  0
ARC
  5
7C24
  8
1
 10
880.3481754396571
 20
1633.1036844925161
 30
0.0
 40
92.568705203245145
 50
287.96215498592898
 51
112.6841186733969
  0
LINE
  5
7C25
  8
1
 10
1055.3481754396571
 20
1368.1036844925161
 30
0.0
 11
1055.3481754396571
 21
1662.103684492517
 31
0.0
  0
LINE
  5
7C26
  8
1
 10
1080.3481754396571
 20
1368.1036844925161
 30
0.0
 11
1080.3481754396571
 21
1662.103684492517
 31
0.0
  0
ARC
  5
7C27
  8
1
 10
896.34817543965619
 20
1617.103684492517
 30
0.0
 40
221.0
 50
179.73129052775209
 51
269.68962266435648
  0
LINE
  5
7C28
  8
1
 10
908.1398895814599
 20
1569.016219229022
 30
0.0
 11
551.48884807503498
 21
1414.353466486755
 31
0.0
  0
LINE
  5
7C29
  8
1
 10
553.40858448847212
 20
1391.9712081072801
 30
0.0
 11
908.89532134383614
 21
1545.0467390325989
 31
0.0
  0
LINE
  5
7C2A
  8
1
 10
509.97809682047949
 20
1512.180885840331
 30
0.0
 11
853.56949096758126
 21
1697.6210049327231
 31
0.0
  0
LINE
  5
7C2D
  8
1
 10
380.34817543965607
 20
1313.1036844925161
 30
0.0
 11
1080.3481754396571
 21
1313.103684492515
 31
0.0
  0
LINE
  5
7C2E
  8
1
 10
380.34817543965607
 20
1353.1036844925161
 30
0.0
 11
1080.3481754396571
 21
1353.1036844925161
 31
0.0
  0
ARC
  5
7C2F
  8
1
 10
866.34817543965619
 20
1619.103684492517
 30
0.0
 40
191.0
 50
76.780199943278632
 51
180.28904302365561
  0
LINE
  5
7C30
  8
2
 10
530.34817543965698
 20
1568.773619117183
 30
0.0
 11
530.34817543965698
 21
1336.664173702859
 31
0.0
  0
ARC
  5
7C31
  8
1
 10
530.34817543965698
 20
1463.1036844925161
 30
0.0
 40
74.777079791837537
 50
112.6841186733968
 51
287.96215498592892
  0
CIRCLE
  5
7C32
  8
1
 10
530.34817543965698
 20
1463.1036844925161
 30
0.0
 40
53.13672736521761
  0
ARC
  5
7C33
  8
1
 10
530.34817543965698
 20
1463.1036844925161
 30
0.0
 40
85.0
 50
298.87799909265573
 51
241.1220009073443
  0
LINE
  5
7C34
  8
2
 10
409.34817543965607
 20
1463.1036844925161
 30
0.0
 11
651.3481754396571
 21
1463.1036844925161
 31
0.0
  0
LINE
  5
7C35
  8
1
 10
627.8481754396571
 20
1383.1036844925161
 30
0.0
 11
432.8481754396571
 21
1383.1036844925161
 31
0.0
  0
LINE
  5
7C36
  8
1
 10
422.84817543965607
 20
1353.1036844925161
 30
0.0
 11
637.84817543965698
 21
1353.1036844925161
 31
0.0
  0
LINE
  5
7C37
  8
1
 10
380.34817543965607
 20
1353.1036844925161
 30
0.0
 11
380.34817543965607
 21
1313.103684492515
 31
0.0
  0
LINE
  5
7C38
  8
1
 10
432.8481754396571
 20
1383.1036844925161
 30
0.0
 11
422.84817543965607
 21
1353.1036844925161
 31
0.0
  0
LINE
  5
7C3C
  8
1
 10
468.8481754396571
 20
1313.1036844925241
 30
0.0
 11
441.84817543965698
 21
1313.1036844925241
 31
0.0
  0
LINE
  5
7C3D
  8
1
 10
489.2977501801679
 20
1388.6734313288059
 30
0.0
 11
571.39860069915346
 21
1388.6734313288059
 31
0.0
  0
LINE
  5
7C3E
  8
1
 10
449.98733921338862
 20
1383.1036844925161
 30
0.0
 11
461.01265994989262
 21
1413.934727906382
 31
0.0
  0
LINE
  5
7C3F
  8
1
 10
452.8481754396571
 20
1383.1036844925161
 30
0.0
 11
487.84817543965698
 21
1383.1036844925161
 31
0.0
  0
LINE
  5
7C40
  8
1
 10
610.70901166592466
 20
1383.1036844925161
 30
0.0
 11
599.68369092942146
 21
1413.934727906382
 31
0.0
  0
LINE
  5
7C41
  8
1
 10
607.8481754396571
 20
1383.1036844925161
 30
0.0
 11
572.8481754396571
 21
1383.1036844925161
 31
0.0
  0
LINE
  5
7C42
  8
1
 10
637.84817543965698
 20
1353.1036844925161
 30
0.0
 11
627.8481754396571
 21
1383.1036844925161
 31
0.0
  0
LINE
  5
7C43
  8
1
 10
1045.548175439656
 20
1576.803684492515
 30
0.0
 11
1045.548175439656
 21
1353.1036844925161
 31
0.0
  0
LINE
  5
7C44
  8
1
 10
715.14817543965728
 20
1576.8036844925159
 30
0.0
 11
715.14817543965728
 21
1353.1036844925161
 31
0.0
  0
ARC
  5
7C45
  8
1
 10
869.34817543965698
 20
1644.103684492517
 30
0.0
 40
166.0
 50
342.58821622952121
 51
75.814864401864199
  0
LINE
  5
7C46
  8
1
 10
1080.3481754396571
 20
1353.1036844925161
 30
0.0
 11
1080.3481754396571
 21
1313.103684492515
 31
0.0
  0
LINE
  5
7C49
  8
1
 10
1018.848175439656
 20
1313.10368449253
 30
0.0
 11
991.84817543965619
 21
1313.10368449253
 31
0.0
  0
LINE
  5
7C4A
  8
1
 10
710.14817543965728
 20
1576.8036844925159
 30
0.0
 11
1050.5481754396569
 21
1576.803684492515
 31
0.0
  0
LINE
  5
7C4B
  8
1
 10
710.14817543965728
 20
1579.1036844925161
 30
0.0
 11
1050.5481754396569
 21
1579.103684492515
 31
0.0
  0
CIRCLE
  5
7C4C
  8
1
 10
880.3481754396571
 20
1633.1036844925161
 30
0.0
 40
69.854009039133416
  0
LINE
  5
7C4D
  8
1
 10
780.3481754396571
 20
1579.503684492516
 30
0.0
 11
980.34817543965619
 21
1579.503684492516
 31
0.0
  0
LINE
  5
7C4E
  8
1
 10
726.14817543965717
 20
1684.1036844925161
 30
0.0
 11
726.14817543965717
 21
1579.1036844925161
 31
0.0
  0
LINE
  5
7C4F
  8
1
 10
720.14817543965728
 20
1684.1036844925161
 30
0.0
 11
720.14817543965728
 21
1579.1036844925161
 31
0.0
  0
LINE
  5
7C50
  8
1
 10
710.14817543965728
 20
1579.1036844925161
 30
0.0
 11
710.14817543965728
 21
1576.8036844925159
 31
0.0
  0
LINE
  5
7C51
  8
1
 10
726.14817543965717
 20
1684.1036844925161
 30
0.0
 11
720.14817543965728
 21
1684.1036844925161
 31
0.0
  0
LINE
  5
7C52
  8
1
 10
1034.5481754396569
 20
1684.1036844925161
 30
0.0
 11
1034.5481754396569
 21
1579.103684492515
 31
0.0
  0
LINE
  5
7C53
  8
1
 10
1040.5481754396569
 20
1684.1036844925161
 30
0.0
 11
1040.5481754396569
 21
1579.103684492515
 31
0.0
  0
LINE
  5
7C54
  8
1
 10
1050.5481754396569
 20
1579.103684492515
 30
0.0
 11
1050.5481754396569
 21
1576.803684492515
 31
0.0
  0
LINE
  5
7C55
  8
1
 10
1035.1040199821639
 20
1635.1036844925161
 30
0.0
 11
1080.3481754396571
 21
1635.1036844925161
 31
0.0
  0
LINE
  5
7C56
  8
1
 10
1055.3481754396571
 20
1662.103684492517
 30
0.0
 11
1080.3481754396571
 21
1662.103684492517
 31
0.0
  0
LINE
  5
7C57
  8
1
 10
1034.5481754396569
 20
1684.1036844925161
 30
0.0
 11
1040.5481754396569
 21
1684.1036844925161
 31
0.0
  0
CIRCLE
  5
7C58
  8
1
 10
1025.0814925207551
 20
1568.103684492517
 30
0.0
 40
8.0
  0
ARC
  5
7C59
  8
1
 10
888.3481754396571
 20
1641.103684492517
 30
0.0
 40
147.0
 50
331.90286689023412
 51
341.4878484881707
  0
LINE
  5
7C5A
  8
1
 10
895.15100077371596
 20
1396.1069271117369
 30
0.0
 11
1080.3481754396571
 21
1395.103684492517
 31
0.0
  0
LINE
  5
7C5B
  8
1
 10
1055.3481754396571
 20
1368.103684492517
 30
0.0
 11
1080.3481754396571
 21
1368.103684492517
 31
0.0
  0
DIMENSION
  5
7C5C
  8
3
  2
*D1
 10
2499.9003106177452
 20
1857.933916549591
 30
0.0
 11
2409.9003106177452
 21
1888.8692260907201
 31
0.0
 70
   128
 13
2319.9003106177452
 23
1800.185710406585
 33
0.0
 14
2499.9003106177452
 24
1801.8495278971329
 34
0.0
1001
ACAD
1000
DSTYLE
1002
{
1070
   288
1070
     1
1070
   172
1070
     1
1070
    40
1040
15.0
1070
   271
1070
     0
1070
   143
1040
0.039
1002
}
  0
LINE
  5
7C5D
  8
2
 10
1867.627771470394
 20
1633.0806095930579
 30
0.0
 11
2561.0360716799969
 21
1633.0806095930579
 31
0.0
  0
LINE
  5
7C5E
  8
1
 10
2316.9003106177438
 20
1631.0806095930579
 30
0.0
 11
2502.9003106177452
 21
1631.0806095930579
 31
0.0
  0
LINE
  5
7C5F
  8
2
 10
2409.9003106177452
 20
1852.5938105512801
 30
0.0
 11
2409.9003106177461
 21
1251.0806095930579
 31
0.0
  0
LINE
  5
7C60
  8
1
 10
1951.8181106900199
 20
1678.6623368055441
 30
0.0
 11
1951.8181106900199
 21
1725.6493147963031
 31
0.0
  0
LINE
  5
7C61
  8
1
 10
1882.1392454298391
 20
1388.326604700678
 30
0.0
 11
1882.1392454298391
 21
1725.6493147963031
 31
0.0
  0
LINE
  5
7C62
  8
1
 10
1978.9003106177449
 20
1576.803684492515
 30
0.0
 11
2291.9003106177452
 21
1576.803684492515
 31
0.0
  0
LINE
  5
7C65
  8
1
 10
1908.9003106177449
 20
1313.0806095930579
 30
0.0
 11
2353.9003106177452
 21
1313.0806095930579
 31
0.0
  0
LINE
  5
7C66
  8
1
 10
1908.900310617744
 20
1353.0806095930579
 30
0.0
 11
2353.9003106177452
 21
1353.0806095930579
 31
0.0
  0
LINE
  5
7C67
  8
1
 10
1978.9003106177449
 20
1579.0806095930579
 30
0.0
 11
2291.9003106177452
 21
1579.0806095930579
 31
0.0
  0
LINE
  5
7C68
  8
1
 10
1899.942655936846
 20
1409.966957127298
 30
0.0
 11
1899.9426559368451
 21
1536.2173369582761
 31
0.0
  0
LINE
  5
7C69
  8
1
 10
1935.5494769508589
 20
1409.966957127298
 30
0.0
 11
1935.5494769508589
 21
1536.2173369582761
 31
0.0
  0
LINE
  5
7C6A
  8
1
 10
1983.9003106177461
 20
1576.803684492515
 30
0.0
 11
1983.9003106177449
 21
1537.9036724925149
 31
0.0
  0
LINE
  5
7C6B
  8
1
 10
1882.1392454298391
 20
1388.326604700678
 30
0.0
 11
1951.8181106900199
 21
1388.326604700678
 31
0.0
  0
LINE
  5
7C6C
  8
1
 10
1899.9426559368451
 20
1409.966957127298
 30
0.0
 11
1935.5494769508589
 21
1409.966957127298
 31
0.0
  0
LINE
  5
7C6D
  8
1
 10
1951.8181106900199
 20
1388.326604700678
 30
0.0
 11
1951.8181106900199
 21
1453.4277853075189
 31
0.0
  0
LINE
  5
7C6E
  8
1
 10
1935.5494769508589
 20
1563.226600553925
 30
0.0
 11
1935.5494769508589
 21
1702.934618632192
 31
0.0
  0
LINE
  5
7C6F
  8
1
 10
1899.9426559368451
 20
1563.226600553925
 30
0.0
 11
1899.9426559368451
 21
1702.934618632192
 31
0.0
  0
LINE
  5
7C70
  8
2
 10
2199.5764366752751
 20
1463.1036844925161
 30
0.0
 11
1868.3330225076061
 21
1463.1036844925161
 31
0.0
  0
LINE
  5
7C71
  8
1
 10
1899.9426559368451
 20
1516.2404118577331
 30
0.0
 11
1935.5494769508589
 21
1516.2404118577331
 31
0.0
  0
LINE
  5
7C72
  8
1
 10
1899.9426559368451
 20
1563.226600553925
 30
0.0
 11
1935.5494769508589
 21
1563.226600553925
 31
0.0
  0
LINE
  5
7C73
  8
1
 10
1978.9003106177449
 20
1579.0806095930579
 30
0.0
 11
1978.9003106177461
 21
1576.803684492515
 31
0.0
  0
LINE
  5
7C74
  8
1
 10
1899.9426559368451
 20
1702.934618632192
 30
0.0
 11
1935.5494769508589
 21
1702.934618632192
 31
0.0
  0
LINE
  5
7C75
  8
1
 10
1935.5494769508589
 20
1621.0806095930579
 30
0.0
 11
1949.9003106177461
 21
1621.0806095930579
 31
0.0
  0
LINE
  5
7C76
  8
1
 10
1935.5494769508589
 20
1645.0806095930579
 30
0.0
 11
1949.9003106177449
 21
1645.0806095930579
 31
0.0
  0
LINE
  5
7C77
  8
1
 10
1951.9003106177449
 20
1650.5806095930579
 30
0.0
 11
2291.9003106177452
 21
1650.5806095930579
 31
0.0
  0
LINE
  5
7C78
  8
1
 10
1951.9003106177449
 20
1615.5806095930579
 30
0.0
 11
2291.9003106177461
 21
1615.5806095930579
 31
0.0
  0
LINE
  5
7C79
  8
1
 10
1951.9003106177449
 20
1619.0806095930579
 30
0.0
 11
1951.9003106177449
 21
1615.5806095930579
 31
0.0
  0
ARC
  5
7C7A
  8
1
 10
1949.9003106177461
 20
1619.0806095930579
 30
0.0
 40
2.0
 50
0.0000000000002036
 51
90.0
  0
ARC
  5
7C7B
  8
1
 10
1949.9003106177449
 20
1647.0806095930579
 30
0.0
 40
2.0
 50
270.0
 51
0.0
  0
LINE
  5
7C7C
  8
1
 10
1951.9003106177461
 20
1650.5806095930579
 30
0.0
 11
1951.9003106177449
 21
1647.0806095930579
 31
0.0
  0
LINE
  5
7C7D
  8
1
 10
2291.9003106177438
 20
1684.1036844925161
 30
0.0
 11
2316.9003106177452
 21
1684.1036844925161
 31
0.0
  0
LINE
  5
7C7E
  8
1
 10
1882.1392454298391
 20
1725.6493147963031
 30
0.0
 11
1951.8181106900199
 21
1725.6493147963031
 31
0.0
  0
LINE
  5
7C7F
  8
1
 10
2528.9003106177461
 20
1506.0806095930579
 30
0.0
 11
2528.9003106177461
 21
1760.0806095930579
 31
0.0
  0
LINE
  5
7C80
  8
1
 10
2499.9003106177452
 20
1789.0806095930579
 30
0.0
 11
2499.9003106177461
 21
1656.0806095930579
 31
0.0
  0
LINE
  5
7C82
  8
1
 10
2499.9003106177452
 20
1810.0806095930579
 30
0.0
 11
2499.9003106177461
 21
1656.0806095930579
 31
0.0
  0
LINE
  5
7C83
  8
1
 10
2499.9003106177438
 20
1631.0806095930579
 30
0.0
 11
2499.9003106177438
 21
1395.0806095930579
 31
0.0
  0
LINE
  5
7C85
  8
2
 10
880.3481754396571
 20
3254.0044403619891
 30
0.0
 11
880.3481754396571
 21
2609.174230566271
 31
0.0
  0
LINE
  5
7C87
  8
1
 10
420.34817543965789
 20
3091.48046312733
 30
0.0
 11
420.3481754396571
 21
2646.4804631273309
 31
0.0
  0
LINE
  5
7C88
  8
1
 10
1080.3481754396571
 20
3262.4804631273319
 30
0.0
 11
1080.3481754396571
 21
2646.4804631273309
 31
0.0
  0
LINE
  5
7C89
  8
1
 10
380.3481754396571
 20
3091.48046312733
 30
0.0
 11
380.34817543965801
 21
2646.4804631273309
 31
0.0
  0
LINE
  5
7C91
  8
1
 10
1908.9003106177449
 20
1313.0806095930579
 30
0.0
 11
1908.900310617744
 21
1353.0806095930579
 31
0.0
  0
LINE
  5
7C92
  8
1
 10
2353.9003106177452
 20
1313.0806095930579
 30
0.0
 11
2353.9003106177452
 21
1353.0806095930579
 31
0.0
  0
LINE
  5
7C99
  8
1
 10
675.34817543965755
 20
3091.48046312733
 30
0.0
 11
380.3481754396571
 21
3091.48046312733
 31
0.0
  0
LINE
  5
7C9A
  8
1
 10
1080.3481754396571
 20
2646.4804631273309
 30
0.0
 11
380.34817543965801
 21
2646.4804631273309
 31
0.0
  0
LINE
  5
7C9F
  8
2
 10
1092.4003698533741
 20
3147.4804631273309
 30
0.0
 11
662.31698105879866
 21
3147.4804631273309
 31
0.0
  0
POLYLINE
  5
7CA0
  8
1
 66
     1
 10
0.0
 20
0.0
 30
0.0
  0
VERTEX
  5
84D3
  8
1
 10
2291.9003106177452
 20
1684.1036844925161
 30
0.0
  0
VERTEX
  5
84D4
  8
1
 10
2291.9003106177452
 20
1434.103684492515
 30
0.0
  0
SEQEND
  5
84D5
  8
1
  0
ARC
  5
7CA4
  8
1
 10
2526.9003106177461
 20
1761.0806095930579
 30
0.0
 40
2.0
 50
0.0
 51
60.000000000028521
  0
LINE
  5
7CA5
  8
1
 10
2528.9003106177461
 20
1761.0806095930579
 30
0.0
 11
2528.9003106177461
 21
1760.0806095930579
 31
0.0
  0
LINE
  5
7CA6
  8
1
 10
2528.9003106177461
 20
1760.0806095930579
 30
0.0
 11
2527.9003106177452
 21
1760.0806095930579
 31
0.0
  0
DIMENSION
  5
7CA7
  8
3
  2
*D2
 10
1164.49873406598
 20
1635.1036844925161
 30
0.0
 11
1126.99873406598
 21
1515.103684492517
 31
0.0
 70
     0
 13
1080.3481754396571
 23
1395.103684492517
 33
0.0
 14
1080.3481754396571
 24
1635.1036844925161
 34
0.0
 50
90.0
1001
ACAD
1000
DSTYLE
1002
{
1070
   287
1070
     3
1070
    40
1040
15.0
1070
   143
1040
0.039
1070
   172
1070
     1
1070
   271
1070
     0
1070
   279
1070
     0
1070
   288
1070
     1
1002
}
  0
DIMENSION
  5
7CA8
  8
3
  2
*D3
 10
1245.948013340967
 20
1633.1036844925161
 30
0.0
 11
1208.4480133409661
 21
1514.103684492517
 31
0.0
 70
     0
 13
1080.3481754396571
 23
1395.103684492517
 33
0.0
 14
1167.5439984372181
 24
1633.1036844925161
 34
0.0
 50
90.0
1001
ACAD
1000
DSTYLE
1002
{
1070
   287
1070
     3
1070
    40
1040
15.0
1070
   143
1040
0.039
1070
   172
1070
     1
1070
   271
1070
     0
1070
   279
1070
     0
1070
   288
1070
     1
1002
}
  0
DIMENSION
  5
7CA9
  8
3
  2
*D4
 10
2409.9003106177452
 20
1971.2176273990881
 30
0.0
 11
2456.4003106177452
 21
2009.5834653971999
 31
0.0
 70
   128
  1
94
 13
2502.9003106177452
 23
1788.924034412644
 33
0.0
 14
2409.9003106177452
 24
1918.233828620519
 34
0.0
1001
ACAD
1000
DSTYLE
1002
{
1070
   288
1070
     1
1070
   172
1070
     1
1070
    40
1040
15.0
1070
   271
1070
     0
1070
   143
1040
0.039
1002
}
  0
DIMENSION
  5
7CAA
  8
3
  2
*D5
 10
1882.1392454298391
 20
1971.2176273990881
 30
0.0
 11
2146.0197780237918
 21
2046.2176273990881
 31
0.0
 70
     0
  1
MAX\P600
 13
2409.9003106177452
 23
1918.233828620519
 33
0.0
 14
1882.1392454298391
 24
1725.6493147963031
 34
0.0
1001
ACAD
1000
DSTYLE
1002
{
1070
   287
1070
     3
1070
    40
1040
15.0
1070
   143
1040
0.039
1070
   172
1070
     1
1070
   271
1070
     0
1070
   279
1070
     0
1070
   288
1070
     1
1002
}
  0
LINE
  5
7CAB
  8
1
 10
1055.3481754396571
 20
3237.4804631273319
 30
0.0
 11
675.34817543965698
 21
3237.48046312733
 31
0.0
  0
LINE
  5
7CAC
  8
1
 10
1055.3481754396571
 20
3057.48046312733
 30
0.0
 11
675.34817543965698
 21
3057.48046312733
 31
0.0
  0
LINE
  5
7CAD
  8
1
 10
1040.3481754396571
 20
2694.98046312733
 30
0.0
 11
1040.3481754396571
 21
2646.4804631273309
 31
0.0
  0
LINE
  5
7CAE
  8
1
 10
2190.7460664438522
 20
1537.9036724925161
 30
0.0
 11
1972.746066443852
 21
1537.9036724925149
 31
0.0
  0
LINE
  5
7CAF
  8
1
 10
1972.746066443852
 20
1385.1036844925161
 30
0.0
 11
2190.7460664438522
 21
1385.1036844925161
 31
0.0
  0
LINE
  5
7CB0
  8
1
 10
2190.7460664438522
 20
1537.9036724925161
 30
0.0
 11
2190.7460664438522
 21
1385.1036844925161
 31
0.0
  0
LINE
  5
7CB1
  8
1
 10
1962.746066443852
 20
1429.6036844925161
 30
0.0
 11
1962.746066443852
 21
1496.6036844925161
 31
0.0
  0
LINE
  5
7CB2
  8
1
 10
1972.746066443852
 20
1385.103684492515
 30
0.0
 11
1972.746066443852
 21
1537.9036724925149
 31
0.0
  0
LINE
  5
7CB3
  8
1
 10
2117.7460664438522
 20
1385.1036844925161
 30
0.0
 11
2117.7460664438522
 21
1353.0806095930579
 31
0.0
  0
LINE
  5
7CB4
  8
1
 10
1997.746066443852
 20
1385.1036844925161
 30
0.0
 11
1997.746066443852
 21
1353.0806095930579
 31
0.0
  0
LINE
  5
7CB5
  8
1
 10
1957.746066443852
 20
1473.6036844925161
 30
0.0
 11
1962.746066443852
 21
1473.6036844925161
 31
0.0
  0
LINE
  5
7CB6
  8
1
 10
1957.746066443852
 20
1452.6036844925161
 30
0.0
 11
1962.746066443852
 21
1452.6036844925161
 31
0.0
  0
LINE
  5
7CB7
  8
1
 10
1972.746066443852
 20
1429.6036844925161
 30
0.0
 11
1962.746066443852
 21
1429.6036844925161
 31
0.0
  0
LINE
  5
7CB8
  8
1
 10
1972.746066443852
 20
1433.168687492516
 30
0.0
 11
1972.746066443852
 21
1424.538682492516
 31
0.0
  0
LINE
  5
7CB9
  8
1
 10
1972.746066443852
 20
1435.3537454925149
 30
0.0
 11
1972.746066443852
 21
1423.089811492516
 31
0.0
  0
LINE
  5
7CBA
  8
1
 10
1972.746066443852
 20
1424.419480492516
 30
0.0
 11
1972.746066443852
 21
1433.419480492516
 31
0.0
  0
LINE
  5
7CBB
  8
1
 10
1957.746066443852
 20
1472.6036844925161
 30
0.0
 11
1935.5494769508589
 21
1472.6036844925161
 31
0.0
  0
LINE
  5
7CBC
  8
1
 10
1935.5494769508589
 20
1453.6036844925161
 30
0.0
 11
1957.746066443852
 21
1453.6036844925161
 31
0.0
  0
LINE
  5
7CBD
  8
1
 10
1957.746066443852
 20
1452.6036844925161
 30
0.0
 11
1957.746066443852
 21
1473.6036844925161
 31
0.0
  0
LINE
  5
7CBE
  8
1
 10
1962.746066443852
 20
1496.6036844925161
 30
0.0
 11
1972.746066443852
 21
1496.6036844925161
 31
0.0
  0
LINE
  5
7CBF
  8
1
 10
1972.746066443852
 20
1535.918687492516
 30
0.0
 11
1972.746066443852
 21
1527.288682492516
 31
0.0
  0
LINE
  5
7CC0
  8
1
 10
1972.746066443852
 20
1527.169480492516
 30
0.0
 11
1972.746066443852
 21
1536.169480492516
 31
0.0
  0
LINE
  5
7CC1
  8
1
 10
605.14816343965765
 20
2927.98046312733
 30
0.0
 11
452.3481754396571
 21
2927.98046312733
 31
0.0
  0
LINE
  5
7CC2
  8
1
 10
452.34817543965801
 20
2710.326218953438
 30
0.0
 11
452.3481754396571
 21
2927.98046312733
 31
0.0
  0
LINE
  5
7CC3
  8
1
 10
605.14816343965765
 20
2927.98046312733
 30
0.0
 11
605.14816343965686
 21
2710.326218953438
 31
0.0
  0
LINE
  5
7CC4
  8
1
 10
520.84817543965789
 20
2673.129629460444
 30
0.0
 11
520.84817543965698
 21
2694.98046312733
 31
0.0
  0
LINE
  5
7CC5
  8
1
 10
539.8481754396571
 20
2694.98046312733
 30
0.0
 11
539.8481754396571
 21
2673.129629460444
 31
0.0
  0
LINE
  5
7CC6
  8
1
 10
519.8481754396571
 20
2694.98046312733
 30
0.0
 11
520.84817543965789
 21
2694.98046312733
 31
0.0
  0
LINE
  5
7CC7
  8
1
 10
496.84817543965698
 20
2709.98046312733
 30
0.0
 11
496.84817543965698
 21
2700.326218953438
 31
0.0
  0
LINE
  5
7CC8
  8
1
 10
519.8481754396571
 20
2694.98046312733
 30
0.0
 11
519.8481754396571
 21
2699.98046312733
 31
0.0
  0
LINE
  5
7CC9
  8
1
 10
540.8481754396571
 20
2694.98046312733
 30
0.0
 11
540.8481754396571
 21
2699.98046312733
 31
0.0
  0
LINE
  5
7CCA
  8
1
 10
563.8481754396571
 20
2700.326218953438
 30
0.0
 11
563.8481754396571
 21
2709.98046312733
 31
0.0
  0
LINE
  5
7CCB
  8
1
 10
455.57109564781962
 20
2619.7193979394251
 30
0.0
 11
972.91688064290236
 21
2619.7193979394251
 31
0.0
  0
LINE
  5
7CCC
  8
1
 10
520.84817543965698
 20
2673.129629460444
 30
0.0
 11
520.84817543965698
 21
2695.326218953438
 31
0.0
  0
LINE
  5
7CCD
  8
1
 10
539.8481754396571
 20
2695.326218953438
 30
0.0
 11
539.84817543965801
 21
2673.129629460444
 31
0.0
  0
LINE
  5
7CCE
  8
2
 10
530.34817543965698
 20
2944.1190729416489
 30
0.0
 11
530.34817543965698
 21
2612.8818078192071
 31
0.0
  0
LINE
  5
7CCF
  8
1
 10
455.57109564781962
 20
2619.7193979394251
 30
0.0
 11
455.57109564782058
 21
2689.3982631996059
 31
0.0
  0
LINE
  5
7CD0
  8
1
 10
477.21144807444028
 20
2673.129629460444
 30
0.0
 11
583.48490280487511
 21
2673.129629460444
 31
0.0
  0
LINE
  5
7CD1
  8
1
 10
477.21144807444028
 20
2637.522808446432
 30
0.0
 11
583.48490280487511
 21
2637.522808446432
 31
0.0
  0
LINE
  5
7CD2
  8
1
 10
477.21144807443937
 20
2637.5228084464311
 30
0.0
 11
477.21144807443937
 21
2673.129629460444
 31
0.0
  0
LINE
  5
7CD3
  8
1
 10
583.48490280487465
 20
2637.5228084464311
 30
0.0
 11
583.48490280487465
 21
2673.129629460444
 31
0.0
  0
LINE
  5
7CD4
  8
1
 10
519.8481754396571
 20
2695.326218953438
 30
0.0
 11
540.8481754396571
 21
2695.326218953438
 31
0.0
  0
LINE
  5
7CD5
  8
1
 10
452.3481754396571
 20
2710.326218953438
 30
0.0
 11
605.14816343965765
 21
2710.326218953438
 31
0.0
  0
LINE
  5
7CD6
  8
1
 10
496.84817543965698
 20
2700.326218953438
 30
0.0
 11
563.8481754396571
 21
2700.326218953438
 31
0.0
  0
LINE
  5
7CD7
  8
1
 10
455.57109564782058
 20
2689.3982631996059
 30
0.0
 11
972.91688064290145
 21
2689.3982631996059
 31
0.0
  0
LINE
  5
7CD8
  8
1
 10
452.3481754396571
 20
2710.326218953438
 30
0.0
 11
452.3481754396571
 21
2721.4804631273319
 31
0.0
  0
LINE
  5
7CD9
  8
1
 10
519.8481754396571
 20
2695.326218953438
 30
0.0
 11
519.8481754396571
 21
2700.326218953438
 31
0.0
  0
LINE
  5
7CDA
  8
1
 10
491.66397143965793
 20
2710.326218953438
 30
0.0
 11
500.66397143965793
 21
2710.326218953438
 31
0.0
  0
LINE
  5
7CDB
  8
1
 10
502.59823643965768
 20
2710.326218953438
 30
0.0
 11
490.33430243965722
 21
2710.326218953438
 31
0.0
  0
LINE
  5
7CDC
  8
1
 10
500.41317843965771
 20
2710.326218953438
 30
0.0
 11
491.78317343965767
 21
2710.326218953438
 31
0.0
  0
LINE
  5
7CDD
  8
1
 10
496.84817543965698
 20
2710.326218953438
 30
0.0
 11
496.84817543965698
 21
2700.326218953438
 31
0.0
  0
LINE
  5
7CDE
  8
1
 10
563.8481754396571
 20
2700.326218953438
 30
0.0
 11
563.8481754396571
 21
2710.326218953438
 31
0.0
  0
LINE
  5
7CDF
  8
1
 10
540.8481754396571
 20
2695.326218953438
 30
0.0
 11
540.8481754396571
 21
2700.326218953438
 31
0.0
  0
LINE
  5
7CE0
  8
1
 10
594.41397143965787
 20
2710.326218953438
 30
0.0
 11
603.41397143965776
 21
2710.326218953438
 31
0.0
  0
LINE
  5
7CE1
  8
1
 10
603.1631784396576
 20
2710.326218953438
 30
0.0
 11
594.53317343965773
 21
2710.326218953438
 31
0.0
  0
LINE
  5
7CE2
  8
1
 10
605.14816343965765
 20
2721.4804631273319
 30
0.0
 11
605.14816343965765
 21
2710.326218953438
 31
0.0
  0
LINE
  5
7CE3
  8
1
 10
972.91688064290236
 20
2619.7193979394251
 30
0.0
 11
972.91688064290236
 21
2689.3982631996059
 31
0.0
  0
LINE
  5
7CE4
  8
1
 10
810.49416640052425
 20
2637.5228084464311
 30
0.0
 11
950.2021844787904
 21
2637.5228084464311
 31
0.0
  0
LINE
  5
7CE5
  8
1
 10
810.49416640052425
 20
2673.129629460444
 30
0.0
 11
950.2021844787904
 21
2673.129629460444
 31
0.0
  0
LINE
  5
7CE6
  8
1
 10
950.2021844787904
 20
2637.5228084464311
 30
0.0
 11
950.2021844787904
 21
2673.129629460444
 31
0.0
  0
LINE
  5
7CE8
  8
1
 10
810.49416640052357
 20
2637.5228084464311
 30
0.0
 11
810.49416640052357
 21
2673.129629460444
 31
0.0
  0
LINE
  5
7CE9
  8
1
 10
710.34817543965755
 20
2694.9804631273309
 30
0.0
 11
1050.3481754396571
 21
2694.9804631273309
 31
0.0
  0
LINE
  5
7CEA
  8
1
 10
539.8481754396571
 20
2694.98046312733
 30
0.0
 11
540.8481754396571
 21
2694.98046312733
 31
0.0
  0
LINE
  5
7CEB
  8
1
 10
1050.3481754396571
 20
3057.48046312733
 30
0.0
 11
1050.3481754396571
 21
2694.9804631273309
 31
0.0
  0
LINE
  5
7CEC
  8
1
 10
710.34817543965755
 20
3057.48046312733
 30
0.0
 11
710.34817543965755
 21
2694.9804631273309
 31
0.0
  0
LINE
  5
7CEE
  8
1
 10
897.84817543965698
 20
3057.48046312733
 30
0.0
 11
897.84817543965698
 21
2694.9804631273309
 31
0.0
  0
LINE
  5
7CEF
  8
1
 10
862.84817543965528
 20
3057.48046312733
 30
0.0
 11
862.84817543965698
 21
2694.9804631273309
 31
0.0
  0
DIMENSION
  5
7CF0
  8
3
  2
*D6
 10
2628.6025848436911
 20
1506.0806095930579
 30
0.0
 11
2589.2712600487898
 21
1633.0806095930579
 31
0.0
 70
   128
 13
2528.9003106177461
 23
1760.0806095930579
 33
0.0
 14
2528.9003106177461
 24
1506.0806095930579
 34
0.0
 50
90.0
1001
ACAD
1000
DSTYLE
1002
{
1070
   288
1070
     1
1070
   172
1070
     1
1070
    40
1040
15.0
1070
     3
1000
φ<>
1070
   271
1070
     0
1070
   143
1040
0.039
1002
}
  0
POLYLINE
  5
7CF1
  8
1
 66
     1
 10
0.0
 20
0.0
 30
0.0
  0
VERTEX
  5
84F1
  8
1
 10
2319.9003106177452
 20
1631.0806095930579
 30
0.0
  0
VERTEX
  5
84F2
  8
1
 10
2319.9003106177438
 20
1395.0806095930579
 30
0.0
  0
SEQEND
  5
84F3
  8
1
  0
LINE
  5
7CF5
  8
1
 10
2503.900310617747
 20
1656.0806095930579
 30
0.0
 11
2503.9003106177461
 21
1789.0806095930579
 31
0.0
  0
LINE
  5
7CF6
  8
1
 10
2528.9003106177461
 20
1760.0806095930579
 30
0.0
 11
2528.9003106177461
 21
1506.0806095930579
 31
0.0
  0
LINE
  5
7CF8
  8
1
 10
2499.9003106177452
 20
1789.0806095930579
 30
0.0
 11
2503.9003106177461
 21
1789.0806095930579
 31
0.0
  0
LINE
  5
7CF9
  8
1
 10
2504.9003106177452
 20
1760.0806095930579
 30
0.0
 11
2526.9003106177461
 21
1760.0806095930579
 31
0.0
  0
POLYLINE
  5
7CFA
  8
1
 66
     1
 10
0.0
 20
0.0
 30
0.0
 70
     1
  0
VERTEX
  5
84F4
  8
1
 10
2503.9003106177461
 20
1760.0806095930579
 30
0.0
  0
VERTEX
  5
84F5
  8
1
 10
2503.9003106177461
 20
1785.0806095930579
 30
0.0
  0
VERTEX
  5
84F6
  8
1
 10
2504.9003106177461
 20
1785.0806095930579
 30
0.0
 42
-0.4142135623730951
  0
VERTEX
  5
84F7
  8
1
 10
2506.9003106177461
 20
1783.0806095930579
 30
0.0
  0
VERTEX
  5
84F8
  8
1
 10
2506.9003106177461
 20
1767.0806095930579
 30
0.0
 42
0.4142135623730951
  0
VERTEX
  5
84F9
  8
1
 10
2510.9003106177461
 20
1763.0806095930579
 30
0.0
  0
VERTEX
  5
84FA
  8
1
 10
2526.9003106177461
 20
1763.0806095930579
 30
0.0
 42
-0.4142135623730951
  0
VERTEX
  5
84FB
  8
1
 10
2528.9003106177461
 20
1761.0806095930579
 30
0.0
  0
VERTEX
  5
84FC
  8
1
 10
2528.9003106177461
 20
1760.0806095930579
 30
0.0
  0
SEQEND
  5
84FD
  8
1
  0
DIMENSION
  5
7D05
  8
3
  2
*D7
 10
880.3481754396571
 20
1905.1993693767599
 30
0.0
 11
980.3481754396571
 21
1939.6240844352851
 31
0.0
 70
   128
 13
1080.3481754396571
 23
1662.103684492517
 33
0.0
 14
880.3481754396571
 24
1872.3100548535849
 34
0.0
1001
ACAD
1000
DSTYLE
1002
{
1070
   288
1070
     1
1070
   172
1070
     1
1070
    40
1040
15.0
1070
   271
1070
     0
1070
   143
1040
0.039
1002
}
  0
DIMENSION
  5
7D06
  8
3
  2
*D8
 10
675.34817543965607
 20
1905.1993693767599
 30
0.0
 11
777.84817543965664
 21
1939.6240844352851
 31
0.0
 70
   128
 13
880.3481754396571
 23
1872.3100548535849
 33
0.0
 14
675.34817543965607
 24
1619.103684492517
 34
0.0
1001
ACAD
1000
DSTYLE
1002
{
1070
   288
1070
     1
1070
   172
1070
     1
1070
    40
1040
15.0
1070
   271
1070
     0
1070
   143
1040
0.039
1002
}
  0
DIMENSION
  5
7D07
  8
3
  2
*D9
 10
1337.319700656047
 20
1633.1036844925161
 30
0.0
 11
1304.095585878538
 21
1721.603684492517
 31
0.0
 70
   128
 13
866.34817543965619
 23
1810.103684492517
 33
0.0
 14
1167.5439984372181
 24
1633.1036844925161
 34
0.0
 50
270.0
1001
ACAD
1000
DSTYLE
1002
{
1070
   288
1070
     1
1070
   172
1070
     1
1070
    40
1040
15.0
1070
   271
1070
     0
1070
   143
1040
0.039
1002
}
  0
DIMENSION
  5
7D08
  8
3
  2
*D10
 10
1337.319700656047
 20
1313.103684492515
 30
0.0
 11
1299.819700656047
 21
1473.1036844925161
 31
0.0
 70
     0
 13
1167.5439984372181
 23
1633.1036844925161
 33
0.0
 14
1080.3481754396571
 24
1313.103684492515
 34
0.0
 50
270.0
1001
ACAD
1000
DSTYLE
1002
{
1070
   287
1070
     3
1070
    40
1040
15.0
1070
   143
1040
0.039
1070
   172
1070
     1
1070
   271
1070
     0
1070
   279
1070
     0
1070
   288
1070
     1
1002
}
  0
DIMENSION
  5
7D0C
  8
3
  2
*D11
 10
380.34817543965619
 20
2022.9708196526869
 30
0.0
 11
730.34817543965664
 21
2060.4708196526872
 31
0.0
 70
     0
 13
1080.3481754396571
 23
1662.103684492517
 33
0.0
 14
380.34817543965607
 24
1353.1036844925161
 34
0.0
1001
ACAD
1000
DSTYLE
1002
{
1070
   287
1070
     3
1070
    40
1040
15.0
1070
   143
1040
0.039
1070
   172
1070
     1
1070
   271
1070
     0
1070
   279
1070
     0
1070
   288
1070
     1
1002
}
  0
LINE
  5
7D0D
  8
1
 10
675.34817543965698
 20
3237.4804631273291
 30
0.0
 11
675.34817543965755
 21
3057.48046312733
 31
0.0
  0
LINE
  5
7D0E
  8
1
 10
1055.348175439656
 20
3262.4804631273319
 30
0.0
 11
1055.3481754396571
 21
3032.48046312733
 31
0.0
  0
LINE
  5
7D0F
  8
1
 10
1080.3481754396571
 20
3262.4804631273319
 30
0.0
 11
1055.3481754396571
 21
3262.4804631273319
 31
0.0
  0
LINE
  5
7D10
  8
1
 10
1080.3481754396571
 20
3032.48046312733
 30
0.0
 11
1055.3481754396571
 21
3032.48046312733
 31
0.0
  0
LINE
  5
7D11
  8
1
 10
1983.900310617744
 20
1385.1036844925161
 30
0.0
 11
1983.9003106177449
 21
1353.0806095930579
 31
0.0
  0
LINE
  5
7D12
  8
1
 10
2316.9003106177461
 20
1810.0806095930579
 30
0.0
 11
2502.9003106177461
 21
1810.0806095930579
 31
0.0
  0
LINE
  5
7D13
  8
1
 10
2319.9003106177438
 20
1395.0806095930579
 30
0.0
 11
2499.9003106177452
 21
1395.0806095930579
 31
0.0
  0
LINE
  5
7D14
  8
1
 10
2291.9003106177429
 20
1370.0806095930579
 30
0.0
 11
2527.9003106177452
 21
1370.0806095930579
 31
0.0
  0
LINE
  5
7D15
  8
1
 10
2527.9003106177452
 20
1656.0806095930579
 30
0.0
 11
2527.9003106177452
 21
1370.0806095930579
 31
0.0
  0
LINE
  5
7D16
  8
1
 10
2499.9003106177438
 20
1631.0806095930579
 30
0.0
 11
2319.9003106177438
 21
1395.0806095930579
 31
0.0
  0
LINE
  5
7D17
  8
1
 10
2319.9003106177452
 20
1631.0806095930579
 30
0.0
 11
2499.9003106177438
 21
1395.0806095930579
 31
0.0
  0
LINE
  5
7D18
  8
1
 10
2291.9003106177438
 20
1656.0806095930579
 30
0.0
 11
2527.9003106177452
 21
1656.0806095930579
 31
0.0
  0
POLYLINE
  5
7D19
  8
1
 66
     1
 10
0.0
 20
0.0
 30
0.0
  0
VERTEX
  5
8510
  8
1
 10
2291.9003106177438
 20
1656.0806095930579
 30
0.0
  0
VERTEX
  5
8511
  8
1
 10
2291.9003106177429
 20
1370.0806095930579
 30
0.0
  0
SEQEND
  5
8512
  8
1
  0
POLYLINE
  5
7D21
  8
1
 66
     1
 10
0.0
 20
0.0
 30
0.0
  0
VERTEX
  5
8513
  8
1
 10
2319.9003106177461
 20
1810.0806095930579
 30
0.0
  0
VERTEX
  5
8514
  8
1
 10
2319.9003106177452
 20
1656.0806095930579
 30
0.0
  0
SEQEND
  5
8515
  8
1
  0
ARC
  5
7D29
  8
1
 10
2526.9003106177461
 20
1505.0806095930579
 30
0.0
 40
2.0
 50
299.99999999997141
 51
0.0
  0
LINE
  5
7D2A
  8
1
 10
2528.9003106177461
 20
1505.0806095930579
 30
0.0
 11
2528.9003106177461
 21
1506.0806095930579
 31
0.0
  0
LINE
  5
7D2B
  8
1
 10
2528.9003106177461
 20
1506.0806095930579
 30
0.0
 11
2527.9003106177452
 21
1506.0806095930579
 31
0.0
  0
POLYLINE
  5
7D2C
  8
1
 66
     1
 10
0.0
 20
0.0
 30
0.0
  0
VERTEX
  5
8516
  8
1
 10
2316.9003106177461
 20
1370.0806095930579
 30
0.0
  0
VERTEX
  5
8517
  8
1
 10
2316.9003106177452
 20
1353.0806095930579
 30
0.0
  0
SEQEND
  5
8518
  8
1
  0
LINE
  5
82C2
  8
4
 10
2775.0
 20
750.0
 30
0.0
 11
2775.0
 21
450.0
 31
0.0
  0
LINE
  5
82C3
  8
4
 10
1725.0
 20
750.0
 30
0.0
 11
1725.0
 21
450.0
 31
0.0
  0
LINE
  5
82C4
  8
4
 10
975.0
 20
750.0
 30
0.0
 11
975.0
 21
450.0
 31
0.0
  0
LINE
  5
82C7
  8
4
 10
975.0
 20
450.0
 30
0.0
 11
2775.0
 21
450.0
 31
0.0
  0
LINE
  5
82C8
  8
4
 10
975.0
 20
600.0
 30
0.0
 11
2775.0
 21
600.0
 31
0.0
  0
TEXT
  5
82C9
  8
4
 10
1032.753121270352
 20
647.31453879991932
 30
0.0
 40
75.0
  1
機器名称
  0
TEXT
  5
82CA
  8
4
 10
1029.3871590371959
 20
482.46773509801642
 30
0.0
 40
75.0
  1
機器型番
  0
TEXT
  5
82CB
  8
4
 10
1766.5181182314971
 20
633.85765343635285
 30
0.0
 40
75.0
  1
ミツヤ多翼送風機
  0
TEXT
  5
82CC
  8
4
 10
1779.9817433782209
 20
475.739376419915
 30
0.0
 40
75.0
  1
MF#1 1/2-1
  0
TEXT
  5
82CE
  8
4
 10
1121.7989247815201
 20
3575.1432619987731
 30
0.0
 40
80.999999999999986
  1
床置防振ベット
  0
TEXT
  5
82CF
  8
4
 10
474.25138999416959
 20
3800.8214642989469
 30
0.0
 40
108.0
  1
遠心式片吸込片持多翼ファン
  0
LINE
  5
82D0
  8
4
 10
375.0
 20
3704.1131313972069
 30
0.0
 11
2775.0
 21
3704.1131313972069
 31
0.0
  0
LINE
  5
82D1
  8
4
 10
375.0
 20
4004.1131313972069
 30
0.0
 11
2775.0
 21
4004.1131313972069
 31
0.0
  0
LINE
  5
82D2
  8
4
 10
975.0
 20
750.0
 30
0.0
 11
2775.0
 21
750.0
 31
0.0
  0
LINE
  5
82D3
  8
4
 10
375.0
 20
4004.1131313972069
 30
0.0
 11
375.0
 21
3704.1131313972069
 31
0.0
  0
TEXT
  5
82D4
  8
4
 10
468.01067641746698
 20
3573.4792163195152
 30
0.0
 40
80.999999999999986
  1
左回転右横向
  0
TEXT
  5
82D5
  8
4
 10
2203.4543388739339
 20
4059.0916222429628
 30
0.0
 40
84.000000000000014
  1
No.
  0
TEXT
  5
82D6
  8
4
 10
1966.944093900019
 20
3575.1432619987731
 30
0.0
 40
80.999999999999986
  1
縮尺：1/15
  0
LINE
  5
82D7
  8
4
 10
2775.0
 20
4004.1131313972069
 30
0.0
 11
2775.0
 21
3704.1131313972069
 31
0.0
  0
LINE
  5
82D8
  8
4
 10
3150.0
 20
4425.0
 30
0.0
 11
3150.0
 21
4425.0
 31
0.0
  0
LINE
  5
82D9
  8
4
 10
2160.9261335397969
 20
4021.895374688102
 30
0.0
 11
2160.9261335397969
 21
4179.9783923246277
 31
0.0
  0
LINE
  5
82DA
  8
4
 10
2160.9261335397969
 20
4179.9783923246277
 30
0.0
 11
2775.0
 21
4179.9783923246277
 31
0.0
  0
LINE
  5
82DB
  8
4
 10
2775.0
 20
4179.9783923246277
 30
0.0
 11
2775.0
 21
4021.895374688102
 31
0.0
  0
LINE
  5
82DC
  8
4
 10
2775.0
 20
4021.895374688102
 30
0.0
 11
2160.9261335397969
 21
4021.895374688102
 31
0.0
  0
LINE
  5
82DD
  8
4
 10
0.0
 20
0.0
 30
0.0
 11
0.0
 21
4425.0
 31
0.0
  0
LINE
  5
82DE
  8
4
 10
0.0
 20
4425.0
 30
0.0
 11
3150.0
 21
4425.0
 31
0.0
  0
LINE
  5
82DF
  8
4
 10
3150.0
 20
4425.0
 30
0.0
 11
3150.0
 21
0.0
 31
0.0
  0
LINE
  5
82E0
  8
4
 10
3150.0
 20
0.0
 30
0.0
 11
0.0
 21
0.0
 31
0.0
  0
LINE
  5
837F
  8
1
 10
710.34817543965755
 20
3051.4804631273309
 30
0.0
 11
420.34817543965789
 21
3051.4804631273309
 31
0.0
  0
LINE
  5
838B
  8
1
 10
1040.3481754396571
 20
2686.48046312733
 30
0.0
 11
420.3481754396571
 21
2686.4804631273309
 31
0.0
  0
DIMENSION
  5
8398
  8
3
  2
*D13
 10
302.11621079430591
 20
2646.4804631273309
 30
0.0
 11
302.11621079430552
 21
2859.5716216632381
 31
0.0
 70
   128
 13
380.3481754396571
 23
3091.48046312733
 33
0.0
 14
380.34817543965801
 24
2646.4804631273309
 34
0.0
 50
90.0
1001
ACAD
1000
DSTYLE
1002
{
1070
   287
1070
     3
1070
    40
1040
15.0
1070
   143
1040
0.039
1070
   172
1070
     1
1070
   271
1070
     0
1070
   279
1070
     0
1070
   288
1070
     1
1002
}
  0
DIMENSION
  5
83B0
  8
3
  2
*D14
 10
1080.3481754396571
 20
2494.5528791060719
 30
0.0
 11
694.66658390074372
 21
2494.5528791060719
 31
0.0
 70
   128
 13
380.34817543965801
 23
2646.4804631273309
 33
0.0
 14
1080.3481754396571
 24
2646.4804631273309
 34
0.0
1001
ACAD
1000
DSTYLE
1002
{
1070
   287
1070
     3
1070
    40
1040
15.0
1070
   143
1040
0.039
1070
   172
1070
     1
1070
   271
1070
     0
1070
   279
1070
     0
1070
   288
1070
     1
1002
}
  0
DIMENSION
  5
8446
  8
3
  2
*D15
 10
880.3481754396571
 20
1133.0224276993119
 30
0.0
 11
630.34817543965664
 21
1170.5224276993119
 31
0.0
 70
     0
 13
380.34817543965607
 23
1251.103684492515
 33
0.0
 14
880.3481754396571
 24
1251.103684492515
 34
0.0
1001
ACAD
1000
DSTYLE
1002
{
1070
   287
1070
     3
1070
    40
1040
15.0
1070
   143
1040
0.039
1070
   172
1070
     1
1070
   271
1070
     0
1070
   279
1070
     0
1002
}
  0
DIMENSION
  5
8455
  8
3
  2
*D16
 10
1080.3481754396571
 20
1133.0224276993119
 30
0.0
 11
980.3481754396571
 21
1170.5224276993119
 31
0.0
 70
     0
 13
880.3481754396571
 23
1251.103684492515
 33
0.0
 14
1080.3481754396571
 24
1251.103684492515
 34
0.0
1001
ACAD
1000
DSTYLE
1002
{
1070
   287
1070
     3
1070
    40
1040
15.0
1070
   143
1040
0.039
1070
   172
1070
     1
1070
   271
1070
     0
1070
   279
1070
     0
1002
}
  0
DIMENSION
  5
8462
  8
3
  2
*D17
 10
2353.9003106177452
 20
1133.0224276993119
 30
0.0
 11
2131.4003106177452
 21
1170.5224276993119
 31
0.0
 70
     0
 13
1908.9003106177449
 23
1251.0806095930579
 33
0.0
 14
2353.9003106177452
 24
1251.0806095930579
 34
0.0
1001
ACAD
1000
DSTYLE
1002
{
1070
   287
1070
     3
1070
    40
1040
15.0
1070
   143
1040
0.039
1070
   172
1070
     1
1070
   271
1070
     0
1070
   279
1070
     0
1002
}
  0
DIMENSION
  5
8471
  8
3
  2
*D18
 10
2409.9003106177452
 20
1133.0224276993119
 30
0.0
 11
2520.2574534748878
 21
1170.5224276993119
 31
0.0
 70
     0
 13
2353.9003106177452
 23
1251.0806095930579
 33
0.0
 14
2409.9003106177452
 24
1251.0806095930579
 34
0.0
1001
ACAD
1000
DSTYLE
1002
{
1070
   287
1070
     3
1070
    40
1040
15.0
1070
   143
1040
0.039
1070
   172
1070
     1
1070
   271
1070
     0
1070
   279
1070
     0
1002
}
  0
LINE
  5
8485
  8
1
 10
1908.900310617744
 20
1291.0806095930579
 30
0.0
 11
2353.9003106177452
 21
1291.0806095930579
 31
0.0
  0
LINE
  5
8486
  8
1
 10
1908.9003106177449
 20
1251.0806095930579
 30
0.0
 11
2353.9003106177452
 21
1251.0806095930579
 31
0.0
  0
LINE
  5
8487
  8
1
 10
2353.9003106177452
 20
1251.0806095930579
 30
0.0
 11
2353.9003106177452
 21
1291.0806095930579
 31
0.0
  0
LINE
  5
8488
  8
1
 10
1908.9003106177449
 20
1251.0806095930579
 30
0.0
 11
1908.900310617744
 21
1291.0806095930579
 31
0.0
  0
LINE
  5
8489
  8
1
 10
1080.3481754396571
 20
1291.1036844925161
 30
0.0
 11
1080.3481754396571
 21
1251.103684492515
 31
0.0
  0
LINE
  5
848A
  8
1
 10
380.34817543965607
 20
1251.1036844925161
 30
0.0
 11
1080.3481754396571
 21
1251.103684492515
 31
0.0
  0
LINE
  5
848B
  8
1
 10
380.34817543965607
 20
1291.1036844925161
 30
0.0
 11
1080.3481754396571
 21
1291.1036844925161
 31
0.0
  0
LINE
  5
848C
  8
1
 10
380.34817543965607
 20
1291.1036844925161
 30
0.0
 11
380.34817543965607
 21
1251.103684492515
 31
0.0
  0
DIMENSION
  5
849C
  8
3
  2
*D19
 10
1338.778217251418
 20
1251.103684492515
 30
0.0
 11
1301.2782172514169
 21
1139.6751130639441
 31
0.0
 70
     0
 13
1080.3481754396571
 23
1291.1036844925161
 33
0.0
 14
1080.3481754396571
 24
1251.103684492515
 34
0.0
 50
90.0
1001
ACAD
1000
DSTYLE
1002
{
1070
   287
1070
     3
1070
    40
1040
15.0
1070
   143
1040
0.039
1070
   172
1070
     1
1070
   271
1070
     0
1070
   279
1070
     0
1070
     6
1000
DOT
1002
}
  0
DIMENSION
  5
84AB
  8
3
  2
*D20
 10
1338.778217251418
 20
1313.103684492515
 30
0.0
 11
1410.563931537132
 21
1302.1036844925161
 31
0.0
 70
     0
 13
1080.3481754396571
 23
1291.1036844925161
 33
0.0
 14
1080.3481754396571
 24
1313.103684492515
 34
0.0
 50
90.0
1001
ACAD
1000
DSTYLE
1002
{
1070
   172
1070
     1
1070
    40
1040
15.0
1070
     3
1000
(<>)
1070
   271
1070
     0
1070
     6
1000
_DOT
1070
   143
1040
0.039
1002
}
  0
DIMENSION
  5
84B8
  8
3
  2
*D21
 10
1486.82714275233
 20
1251.103684492515
 30
0.0
 11
1437.541428466616
 21
1530.6036844925161
 31
0.0
 70
     0
 13
873.84817543965607
 23
1810.103684492517
 33
0.0
 14
1080.3481754396571
 24
1251.103684492515
 34
0.0
 50
90.0
1001
ACAD
1000
DSTYLE
1002
{
1070
   172
1070
     1
1070
    40
1040
15.0
1070
     3
1000
(<>)
1070
   271
1070
     0
1070
   143
1040
0.039
1002
}
  0
ENDSEC
  0
EOF
