  0
SECTION
  2
HEADER
  9
$ACADVER
  1
AC1009
  9
$INSBASE
 10
0.0
 20
0.0
 30
0.0
  9
$EXTMIN
 10
0.0
 20
0.0
 30
0.0
  9
$EXTMAX
 10
3150.0
 20
4425.0
 30
0.0
  9
$LIMMIN
 10
0.0
 20
0.0
  9
$LIMMAX
 10
297.0
 20
210.0
  9
$ORTHOMODE
 70
     0
  9
$REGENMODE
 70
     1
  9
$FILLMODE
 70
     0
  9
$QTEXTMODE
 70
     0
  9
$MIRRTEXT
 70
     1
  9
$DRAGMODE
 70
     2
  9
$LTSCALE
 40
100.0
  9
$OSMODE
 70
    37
  9
$ATTMODE
 70
     1
  9
$TEXTSIZE
 40
180.0
  9
$TRACEWID
 40
0.05
  9
$TEXTSTYLE
  7
STANDARD
  9
$CLAYER
  8
3
  9
$CELTYPE
  6
BYLAYER
  9
$CECOLOR
 62
   256
  9
$DIMSCALE
 40
15.0
  9
$DIMASZ
 40
2.0
  9
$DIMEXO
 40
0.5
  9
$DIMDLI
 40
10.0
  9
$DIMRND
 40
0.0
  9
$DIMDLE
 40
0.0
  9
$DIMEXE
 40
1.0
  9
$DIMTP
 40
1.0
  9
$DIMTM
 40
1.0
  9
$DIMTXT
 40
3.0
  9
$DIMCEN
 40
0.0
  9
$DIMTSZ
 40
0.0
  9
$DIMTOL
 70
     0
  9
$DIMLIM
 70
     0
  9
$DIMTIH
 70
     0
  9
$DIMTOH
 70
     0
  9
$DIMSE1
 70
     0
  9
$DIMSE2
 70
     0
  9
$DIMTAD
 70
     1
  9
$DIMZIN
 70
     8
  9
$DIMBLK
  1

  9
$DIMASO
 70
     1
  9
$DIMSHO
 70
     1
  9
$DIMPOST
  1
(<>)
  9
$DIMAPOST
  1

  9
$DIMALT
 70
     0
  9
$DIMALTD
 70
     2
  9
$DIMALTF
 40
0.039
  9
$DIMLFAC
 40
1.0
  9
$DIMTOFL
 70
     1
  9
$DIMTVP
 40
0.0
  9
$DIMTIX
 70
     0
  9
$DIMSOXD
 70
     0
  9
$DIMSAH
 70
     1
  9
$DIMBLK1
  1
OPEN
  9
$DIMBLK2
  1
OPEN
  9
$DIMSTYLE
  2
IGA
  9
$DIMCLRD
 70
     0
  9
$DIMCLRE
 70
     0
  9
$DIMCLRT
 70
     0
  9
$DIMTFAC
 40
10.0
  9
$DIMGAP
 40
1.0
  9
$LUNITS
 70
     2
  9
$LUPREC
 70
     3
  9
$SKETCHINC
 40
0.1
  9
$FILLETRAD
 40
50.0
  9
$AUNITS
 70
     0
  9
$AUPREC
 70
     0
  9
$MENU
  1
acad
  9
$ELEVATION
 40
0.0
  9
$PELEVATION
 40
0.0
  9
$THICKNESS
 40
0.0
  9
$LIMCHECK
 70
     0
  9
$BLIPMODE
 70
     0
  9
$CHAMFERA
 40
0.5
  9
$CHAMFERB
 40
0.5
  9
$SKPOLY
 70
     0
  9
$TDCREATE
 40
2451936.5646587959
  9
$TDUPDATE
 40
2454953.7515207171
  9
$TDINDWG
 40
0.0203387731
  9
$TDUSRTIMER
 40
0.0203387731
  9
$USRTIMER
 70
     1
  9
$ANGBASE
 50
0.0
  9
$ANGDIR
 70
     0
  9
$PDMODE
 70
     0
  9
$PDSIZE
 40
0.0
  9
$PLINEWID
 40
0.0
  9
$COORDS
 70
     1
  9
$SPLFRAME
 70
     0
  9
$SPLINETYPE
 70
     6
  9
$SPLINESEGS
 70
     8
  9
$ATTDIA
 70
     0
  9
$ATTREQ
 70
     1
  9
$HANDLING
 70
 10241
  9
$HANDSEED
  5
8503
  9
$SURFTAB1
 70
     6
  9
$SURFTAB2
 70
     6
  9
$SURFTYPE
 70
     6
  9
$SURFU
 70
     6
  9
$SURFV
 70
     6
  9
$UCSNAME
  2

  9
$UCSORG
 10
0.0
 20
0.0
 30
0.0
  9
$UCSXDIR
 10
1.0
 20
0.0
 30
0.0
  9
$UCSYDIR
 10
0.0
 20
1.0
 30
0.0
  9
$PUCSNAME
  2

  9
$PUCSORG
 10
0.0
 20
0.0
 30
0.0
  9
$PUCSXDIR
 10
1.0
 20
0.0
 30
0.0
  9
$PUCSYDIR
 10
0.0
 20
1.0
 30
0.0
  9
$USERI1
 70
     0
  9
$USERI2
 70
     0
  9
$USERI3
 70
     0
  9
$USERI4
 70
     0
  9
$USERI5
 70
     0
  9
$USERR1
 40
0.0
  9
$USERR2
 40
0.0
  9
$USERR3
 40
0.0
  9
$USERR4
 40
0.0
  9
$USERR5
 40
0.0
  9
$WORLDVIEW
 70
     1
  9
$SHADEDGE
 70
     3
  9
$SHADEDIF
 70
    70
  9
$TILEMODE
 70
     1
  9
$MAXACTVP
 70
    16
  9
$PLIMCHECK
 70
     0
  9
$PEXTMIN
 10
1.0000000000000000E+020
 20
1.0000000000000000E+020
 30
1.0000000000000000E+020
  9
$PEXTMAX
 10
-1.0000000000000000E+020
 20
-1.0000000000000000E+020
 30
-1.0000000000000000E+020
  9
$PLIMMIN
 10
0.0
 20
0.0
  9
$PLIMMAX
 10
12.0
 20
9.0
  9
$UNITMODE
 70
     0
  9
$VISRETAIN
 70
     0
  9
$PLINEGEN
 70
     0
  9
$PSLTSCALE
 70
     1
  0
ENDSEC
  0
SECTION
  2
TABLES
  0
TABLE
  2
VPORT
 70
     2
  0
VPORT
  2
*ACTIVE
 70
     0
 10
0.0
 20
0.0
 11
1.0
 21
1.0
 12
5304.9149382770529
 22
2212.5000103027569
 13
0.0
 23
0.0
 14
10.0
 24
10.0
 15
10.0
 25
10.0
 16
0.0
 26
0.0
 36
1.0
 17
0.0
 27
0.0
 37
0.0
 40
4458.9223245254034
 41
3.1666666666666661
 42
50.0
 43
0.0
 44
0.0
 50
0.0
 51
0.0
 71
     0
 72
   100
 73
     1
 74
     0
 75
     0
 76
     0
 77
     0
 78
     0
  0
ENDTAB
  0
TABLE
  2
LTYPE
 70
     2
  0
LTYPE
  2
CONTINUOUS
 70
     0
  3
Solid line
 72
    65
 73
     0
 40
0.0
  0
LTYPE
  2
CENTER
 70
     0
  3
____ _ ____ _ ____ _ ____ _ ____ _ ____ _ ____ 
 72
    65
 73
     4
 40
2.0
 49
1.25
 49
-0.25
 49
0.25
 49
-0.25
  0
ENDTAB
  0
TABLE
  2
LAYER
 70
     6
  0
LAYER
  2
0
 70
     0
 62
     7
  6
CONTINUOUS
  0
LAYER
  2
3
 70
     0
 62
     2
  6
CONTINUOUS
  0
LAYER
  2
2
 70
     0
 62
     3
  6
CENTER
  0
LAYER
  2
1
 70
     0
 62
     4
  6
CONTINUOUS
  0
LAYER
  2
4
 70
     0
 62
     7
  6
CONTINUOUS
  0
LAYER
  2
DEFPOINTS
 70
     0
 62
     7
  6
CONTINUOUS
  0
ENDTAB
  0
TABLE
  2
STYLE
 70
     1
  0
STYLE
  2
STANDARD
 70
     0
 40
0.0
 41
1.0
 50
0.0
 71
     0
 42
180.0
  3
simplex.shx
  4
extfont.shx
  0
ENDTAB
  0
TABLE
  2
VIEW
 70
     0
  0
ENDTAB
  0
TABLE
  2
UCS
 70
     0
  0
ENDTAB
  0
TABLE
  2
APPID
 70
     1
  0
APPID
  2
ACAD
 70
     0
  0
ENDTAB
  0
TABLE
  2
DIMSTYLE
 70
     1
  0
DIMSTYLE
  2
IGA
 70
     0
  3

  4

  5

  6
OPEN
  7
OPEN
 40
2.0
 41
2.0
 42
0.5
 43
10.0
 44
1.0
 45
0.0
 46
0.0
 47
1.0
 48
1.0
140
3.0
141
0.0
142
0.0
143
0.03937
144
1.0
145
0.0
146
10.0
147
1.0
 71
     0
 72
     0
 73
     0
 74
     0
 75
     0
 76
     0
 77
     1
 78
     8
170
     0
171
     2
172
     0
173
     1
174
     0
175
     0
176
     0
177
     0
178
     0
  0
ENDTAB
  0
ENDSEC
  0
SECTION
  2
BLOCKS
  0
BLOCK
  8
0
  2
$MODEL_SPACE
 70
     0
 10
0.0
 20
0.0
 30
0.0
  3
$MODEL_SPACE
  1

  0
ENDBLK
  5
1B
  8
0
  0
BLOCK
 67
     1
  8
0
  2
$PAPER_SPACE
 70
     0
 10
0.0
 20
0.0
 30
0.0
  3
$PAPER_SPACE
  1

  0
ENDBLK
  5
18
 67
     1
  8
0
  0
BLOCK
  8
0
  2
_OPEN
 70
     0
 10
0.0
 20
0.0
 30
0.0
  3
_OPEN
  1

  0
LINE
  5
79FD
  8
0
  6
BYBLOCK
 62
     0
 10
-1.0
 20
0.1666666666666666
 30
0.0
 11
0.0
 21
0.0
 31
0.0
  0
LINE
  5
79FE
  8
0
  6
BYBLOCK
 62
     0
 10
0.0
 20
0.0
 30
0.0
 11
-1.0
 21
-0.1666666666666666
 31
0.0
  0
LINE
  5
79FF
  8
0
  6
BYBLOCK
 62
     0
 10
0.0
 20
0.0
 30
0.0
 11
-1.0
 21
0.0
 31
0.0
  0
ENDBLK
  5
7A01
  8
0
  0
BLOCK
  8
0
  2
_DOT
 70
     0
 10
0.0
 20
0.0
 30
0.0
  3
_DOT
  1

  0
LINE
  5
8240
  8
0
  6
BYBLOCK
 62
     0
 10
0.0
 20
0.0
 30
0.0
 11
-1.0
 21
-0.0000000000000284
 31
0.0
  0
POLYLINE
  5
8241
  8
0
  6
BYBLOCK
 62
     0
 66
     1
 10
0.0
 20
0.0
 30
0.0
 70
     1
 40
0.1666666666666666
 41
0.1666666666666666
  0
VERTEX
  5
84C3
  8
0
  6
BYBLOCK
 62
     0
 10
-0.0833333333333286
 20
-0.0000000000000284
 30
0.0
 42
1.0
  0
VERTEX
  5
84C4
  8
0
  6
BYBLOCK
 62
     0
 10
0.0833333333333286
 20
-0.0000000000000284
 30
0.0
 42
1.0
  0
SEQEND
  5
84C5
  8
0
  6
BYBLOCK
 62
     0
  0
ENDBLK
  5
7AB1
  8
0
  0
BLOCK
  8
0
  2
*D2
 70
     1
 10
0.0
 20
0.0
 30
0.0
  3
*D2
  1

  0
LINE
  5
827F
  8
0
  6
BYBLOCK
 62
     0
 10
2267.7797783149858
 20
1854.7780510350381
 30
0.0
 11
2267.7797783149858
 21
1953.144908744669
 31
0.0
  0
LINE
  5
8280
  8
0
  6
BYBLOCK
 62
     0
 10
2447.7797783149858
 20
1855.03880348642
 30
0.0
 11
2447.7797783149858
 21
1953.144908744669
 31
0.0
  0
LINE
  5
8281
  8
0
  6
BYBLOCK
 62
     0
 10
2297.7797783149858
 20
1938.144908744669
 30
0.0
 11
2417.7797783149858
 21
1938.144908744669
 31
0.0
  0
TEXT
  5
8282
  8
3
 62
     0
 10
2303.877130020212
 20
1944.2477277205289
 30
0.0
 40
45.0
  1
180
  0
INSERT
  5
8283
  8
0
  6
BYBLOCK
 62
     0
  2
_OPEN
 10
2267.7797783149858
 20
1938.144908744669
 30
0.0
 41
30.0
 42
30.0
 43
30.0
 50
180.0
  0
INSERT
  5
8284
  8
0
  6
BYBLOCK
 62
     0
  2
_OPEN
 10
2447.7797783149858
 20
1938.144908744669
 30
0.0
 41
30.0
 42
30.0
 43
30.0
  0
POINT
  5
8285
  8
DEFPOINTS
  6
BYBLOCK
 62
     0
 10
2267.7797783149858
 20
1847.2780510350381
 30
0.0
  0
POINT
  5
8286
  8
DEFPOINTS
  6
BYBLOCK
 62
     0
 10
2447.7797783149858
 20
1847.53880348642
 30
0.0
  0
POINT
  5
8287
  8
DEFPOINTS
  6
BYBLOCK
 62
     0
 10
2447.7797783149858
 20
1938.144908744669
 30
0.0
  0
ENDBLK
  5
8288
  8
0
  0
BLOCK
  8
0
  2
*D3
 70
     1
 10
0.0
 20
0.0
 30
0.0
  3
*D3
  1

  0
LINE
  5
8477
  8
3
 62
     0
 10
751.11740682114839
 20
3130.5388685892758
 30
0.0
 11
630.55089691246587
 21
3130.5388685892758
 31
0.0
  0
LINE
  5
8478
  8
3
 62
     0
 10
751.11740682114839
 20
2685.5388685892758
 30
0.0
 11
630.55089691246565
 21
2685.5388685892758
 31
0.0
  0
LINE
  5
8479
  8
3
 62
     0
 10
645.55089691246576
 20
3100.5388685892749
 30
0.0
 11
645.55089691246565
 21
2715.5388685892758
 31
0.0
  0
INSERT
  5
847A
  8
3
 62
     0
  2
_OPEN
 10
645.55089691246576
 20
3130.5388685892758
 30
0.0
 41
30.0
 42
30.0
 43
30.0
 50
90.0
  0
INSERT
  5
847B
  8
3
 62
     0
  2
_OPEN
 10
645.55089691246565
 20
2685.5388685892758
 30
0.0
 41
30.0
 42
30.0
 43
30.0
 50
270.0
  0
TEXT
  8
3
  40
45
  5
84F7
  62
0
  72
0
  71
0
 10
518.051
 20
2828.39
 30
0.000000
  1
445
  0
POINT
  5
847D
  8
DEFPOINTS
 62
     0
 10
758.61740682114851
 20
3130.5388685892758
 30
0.0
  0
POINT
  5
847E
  8
DEFPOINTS
 62
     0
 10
758.61740682114851
 20
2685.5388685892758
 30
0.0
  0
POINT
  5
847F
  8
DEFPOINTS
 62
     0
 10
645.55089691246565
 20
2685.5388685892758
 30
0.0
  0
ENDBLK
  5
8355
  8
0
  0
BLOCK
  8
0
  2
*D4
 70
     1
 10
0.0
 20
0.0
 30
0.0
  3
*D4
  1

  0
LINE
  5
8480
  8
3
 62
     0
 10
1458.6174068211469
 20
2678.0388685892749
 30
0.0
 11
1458.6174068211469
 21
2490.991998174919
 31
0.0
  0
LINE
  5
8481
  8
3
 62
     0
 10
758.61740682114851
 20
2678.0388685892749
 30
0.0
 11
758.61740682114851
 21
2490.991998174919
 31
0.0
  0
LINE
  5
8482
  8
3
 62
     0
 10
1428.6174068211469
 20
2505.991998174919
 30
0.0
 11
788.61740682114839
 21
2505.991998174919
 31
0.0
  0
INSERT
  5
8483
  8
3
 62
     0
  2
_OPEN
 10
1458.6174068211469
 20
2505.991998174919
 30
0.0
 41
30.0
 42
30.0
 43
30.0
  0
INSERT
  5
8484
  8
3
 62
     0
  2
_OPEN
 10
758.61740682114851
 20
2505.991998174919
 30
0.0
 41
30.0
 42
30.0
 43
30.0
 50
180.0
  0
TEXT
  8
3
  40
45
  5
84F8
  62
0
  72
0
  71
0
 10
1018.62
 20
2463.84
 30
0.000000
  1
700
  0
POINT
  5
8486
  8
DEFPOINTS
 62
     0
 10
1458.6174068211469
 20
2685.5388685892758
 30
0.0
  0
POINT
  5
8487
  8
DEFPOINTS
 62
     0
 10
758.61740682114851
 20
2685.5388685892758
 30
0.0
  0
POINT
  5
8488
  8
DEFPOINTS
 62
     0
 10
758.61740682114851
 20
2505.991998174919
 30
0.0
  0
ENDBLK
  5
8361
  8
0
  0
BLOCK
  8
0
  2
*D5
 70
     1
 10
0.0
 20
0.0
 30
0.0
  3
*D5
  1

  0
LINE
  5
848C
  8
3
 62
     0
 10
1196.6174068211469
 20
1879.662089954461
 30
0.0
 11
1196.6174068211469
 21
1942.7845604835129
 31
0.0
  0
LINE
  5
848D
  8
3
 62
     0
 10
956.61740682114839
 20
1879.662089954461
 30
0.0
 11
956.61740682114839
 21
1942.7845604835129
 31
0.0
  0
LINE
  5
848E
  8
3
 62
     0
 10
1166.6174068211469
 20
1927.7845604835129
 30
0.0
 11
986.61740682114851
 21
1927.7845604835129
 31
0.0
  0
INSERT
  5
848F
  8
3
 62
     0
  2
_OPEN
 10
1196.6174068211469
 20
1927.7845604835129
 30
0.0
 41
30.0
 42
30.0
 43
30.0
  0
INSERT
  5
8490
  8
3
 62
     0
  2
_OPEN
 10
956.61740682114839
 20
1927.7845604835129
 30
0.0
 41
30.0
 42
30.0
 43
30.0
 50
180.0
  0
TEXT
  8
3
  40
45
  5
84F9
  62
0
  72
0
  71
0
 10
986.617
 20
1885.63
 30
0.000000
  1
240
  0
POINT
  5
8492
  8
DEFPOINTS
 62
     0
 10
1196.6174068211469
 20
1872.162089954461
 30
0.0
  0
POINT
  5
8493
  8
DEFPOINTS
 62
     0
 10
956.61740682114839
 20
1872.162089954461
 30
0.0
  0
POINT
  5
8494
  8
DEFPOINTS
 62
     0
 10
956.61740682114839
 20
1927.7845604835129
 30
0.0
  0
ENDBLK
  5
80E5
  8
0
  0
BLOCK
  8
0
  2
*D6
 70
     1
 10
0.0
 20
0.0
 30
0.0
  3
*D6
  1

  0
LINE
  5
80D1
  8
0
  6
BYBLOCK
 62
     0
 10
1196.6174068211469
 20
1879.662089954461
 30
0.0
 11
1196.6174068211469
 21
2022.721089774403
 31
0.0
  0
LINE
  5
80D2
  8
0
  6
BYBLOCK
 62
     0
 10
958.61740682114851
 20
1938.3298248547519
 30
0.0
 11
958.61740682114851
 21
2022.721089774403
 31
0.0
  0
LINE
  5
80D3
  8
0
  6
BYBLOCK
 62
     0
 10
1166.6174068211469
 20
2007.721089774403
 30
0.0
 11
988.61740682114839
 21
2007.721089774403
 31
0.0
  0
INSERT
  5
80D4
  8
0
  6
BYBLOCK
 62
     0
  2
_OPEN
 10
1196.6174068211469
 20
2007.721089774403
 30
0.0
 41
30.0
 42
30.0
 43
30.0
  0
INSERT
  5
80D5
  8
0
  6
BYBLOCK
 62
     0
  2
_OPEN
 10
958.61740682114851
 20
2007.721089774403
 30
0.0
 41
30.0
 42
30.0
 43
30.0
 50
180.0
  0
TEXT
  5
80D6
  8
3
 62
     0
 10
1019.760263964005
 20
2022.721089774403
 30
0.0
 40
45.0
  1
238
  0
POINT
  5
80D7
  8
DEFPOINTS
  6
BYBLOCK
 62
     0
 10
1196.6174068211469
 20
1872.162089954461
 30
0.0
  0
POINT
  5
80D8
  8
DEFPOINTS
  6
BYBLOCK
 62
     0
 10
958.61740682114851
 20
1930.829824854751
 30
0.0
  0
POINT
  5
80D9
  8
DEFPOINTS
  6
BYBLOCK
 62
     0
 10
958.61740682114851
 20
2007.721089774403
 30
0.0
  0
ENDBLK
  5
80DA
  8
0
  0
BLOCK
  8
0
  2
*D7
 70
     1
 10
0.0
 20
0.0
 30
0.0
  3
*D7
  1

  0
LINE
  5
8495
  8
3
 62
     0
 10
700.4744267459281
 20
1672.162089954461
 30
0.0
 11
572.27844156342314
 21
1672.162089954461
 31
0.0
  0
LINE
  5
8496
  8
3
 62
     0
 10
751.11740682114839
 20
1352.16208995446
 30
0.0
 11
572.27844156342314
 21
1352.16208995446
 31
0.0
  0
LINE
  5
8497
  8
3
 62
     0
 10
587.27844156342326
 20
1642.162089954461
 30
0.0
 11
587.27844156342326
 21
1382.16208995446
 31
0.0
  0
INSERT
  5
8498
  8
3
 62
     0
  2
_OPEN
 10
587.27844156342326
 20
1672.162089954461
 30
0.0
 41
30.0
 42
30.0
 43
30.0
 50
90.0
  0
INSERT
  5
8499
  8
3
 62
     0
  2
_OPEN
 10
587.27844156342326
 20
1352.16208995446
 30
0.0
 41
30.0
 42
30.0
 43
30.0
 50
270.0
  0
TEXT
  8
3
  40
45
  5
84FA
  62
0
  72
0
  71
0
 10
459.778
 20
1432.51
 30
0.000000
  1
320
  0
POINT
  5
849B
  8
DEFPOINTS
 62
     0
 10
707.97442674592821
 20
1672.162089954461
 30
0.0
  0
POINT
  5
849C
  8
DEFPOINTS
 62
     0
 10
758.61740682114851
 20
1352.16208995446
 30
0.0
  0
POINT
  5
849D
  8
DEFPOINTS
 62
     0
 10
587.27844156342326
 20
1352.16208995446
 30
0.0
  0
ENDBLK
  5
804E
  8
0
  0
BLOCK
  8
0
  2
*D8
 70
     1
 10
0.0
 20
0.0
 30
0.0
  3
*D8
  1

  0
LINE
  5
829D
  8
0
  6
BYBLOCK
 62
     0
 10
2450.7797783149858
 20
1835.589044368209
 30
0.0
 11
2450.7797783149858
 21
2060.0499773048482
 31
0.0
  0
LINE
  5
829E
  8
0
  6
BYBLOCK
 62
     0
 10
2357.7797783149858
 20
2008.5082186255199
 30
0.0
 11
2357.7797783149858
 21
2060.0499773048482
 31
0.0
  0
LINE
  5
829F
  8
0
  6
BYBLOCK
 62
     0
 10
2420.7797783149858
 20
2045.049977304848
 30
0.0
 11
2387.7797783149858
 21
2045.049977304848
 31
0.0
  0
TEXT
  5
82A0
  8
3
 62
     0
 10
2362.8376608255999
 20
2059.2033755015159
 30
0.0
 40
45.0
  1
94
  0
INSERT
  5
82A1
  8
0
  6
BYBLOCK
 62
     0
  2
_OPEN
 10
2450.7797783149858
 20
2045.049977304848
 30
0.0
 41
30.0
 42
30.0
 43
30.0
  0
INSERT
  5
82A2
  8
0
  6
BYBLOCK
 62
     0
  2
_OPEN
 10
2357.7797783149858
 20
2045.049977304848
 30
0.0
 41
30.0
 42
30.0
 43
30.0
 50
180.0
  0
POINT
  5
82A3
  8
DEFPOINTS
  6
BYBLOCK
 62
     0
 10
2450.7797783149858
 20
1828.089044368209
 30
0.0
  0
POINT
  5
82A4
  8
DEFPOINTS
  6
BYBLOCK
 62
     0
 10
2357.7797783149858
 20
2001.0082186255199
 30
0.0
  0
POINT
  5
82A5
  8
DEFPOINTS
  6
BYBLOCK
 62
     0
 10
2357.7797783149858
 20
2045.049977304848
 30
0.0
  0
ENDBLK
  5
82A6
  8
0
  0
BLOCK
  8
0
  2
*D9
 70
     1
 10
0.0
 20
0.0
 30
0.0
  3
*D9
  1

  0
LINE
  5
849E
  8
3
 62
     0
 10
2357.7797783149858
 20
2008.5082186255199
 30
0.0
 11
2357.7797783149858
 21
2060.0499773048482
 31
0.0
  0
LINE
  5
849F
  8
3
 62
     0
 10
1830.01871312708
 20
1772.2077202582479
 30
0.0
 11
1830.01871312708
 21
2060.0499773048482
 31
0.0
  0
LINE
  5
84A0
  8
3
 62
     0
 10
2327.7797783149858
 20
2045.049977304848
 30
0.0
 11
1860.01871312708
 21
2045.049977304848
 31
0.0
  0
INSERT
  5
84A1
  8
3
 62
     0
  2
_OPEN
 10
2357.7797783149858
 20
2045.049977304848
 30
0.0
 41
30.0
 42
30.0
 43
30.0
  0
INSERT
  5
84A2
  8
3
 62
     0
  2
_OPEN
 10
1830.01871312708
 20
2045.049977304848
 30
0.0
 41
30.0
 42
30.0
 43
30.0
 50
180.0
  0
TEXT
  8
3
  40
45
  5
84FB
  62
0
  72
0
  71
0
 10
2003.90
 20
2040.40
 30
0.000000
  1
MAX
  0
TEXT
  8
3
  40
45
  5
84FC
  62
0
  72
0
  71
0
 10
2003.90
 20
1981.90
 30
0.000000
  1
600
  0
POINT
  5
84A4
  8
DEFPOINTS
 62
     0
 10
2357.7797783149858
 20
2001.0082186255199
 30
0.0
  0
POINT
  5
84A5
  8
DEFPOINTS
 62
     0
 10
1830.01871312708
 20
1764.7077202582479
 30
0.0
  0
POINT
  5
84A6
  8
DEFPOINTS
 62
     0
 10
1830.01871312708
 20
2045.049977304848
 30
0.0
  0
ENDBLK
  5
829B
  8
0
  0
BLOCK
  8
0
  2
*D10
 70
     1
 10
0.0
 20
0.0
 30
0.0
  3
*D10
  1

  0
LINE
  5
81C6
  8
0
  6
BYBLOCK
 62
     0
 10
922.1174068211476
 20
1872.162089954461
 30
0.0
 11
571.98156409146566
 21
1872.162089954461
 31
0.0
  0
LINE
  5
81C7
  8
0
  6
BYBLOCK
 62
     0
 10
700.4744267459281
 20
1672.162089954461
 30
0.0
 11
571.98156409146566
 21
1672.162089954461
 31
0.0
  0
LINE
  5
81C8
  8
0
  6
BYBLOCK
 62
     0
 10
586.98156409146577
 20
1842.162089954461
 30
0.0
 11
586.98156409146577
 21
1702.162089954461
 31
0.0
  0
TEXT
  5
81C9
  8
3
 62
     0
 10
572.95489633797467
 20
1714.3049470973181
 30
0.0
 40
45.0
  1
200
 50
90.0
  0
INSERT
  5
81CA
  8
0
  6
BYBLOCK
 62
     0
  2
_OPEN
 10
586.98156409146577
 20
1872.162089954461
 30
0.0
 41
30.0
 42
30.0
 43
30.0
 50
90.0
  0
INSERT
  5
81CB
  8
0
  6
BYBLOCK
 62
     0
  2
_OPEN
 10
586.98156409146577
 20
1672.162089954461
 30
0.0
 41
30.0
 42
30.0
 43
30.0
 50
270.0
  0
POINT
  5
81CC
  8
DEFPOINTS
  6
BYBLOCK
 62
     0
 10
929.6174068211476
 20
1872.162089954461
 30
0.0
  0
POINT
  5
81CD
  8
DEFPOINTS
  6
BYBLOCK
 62
     0
 10
707.97442674592821
 20
1672.162089954461
 30
0.0
  0
POINT
  5
81CE
  8
DEFPOINTS
  6
BYBLOCK
 62
     0
 10
586.98156409146577
 20
1672.162089954461
 30
0.0
  0
ENDBLK
  5
81CF
  8
0
  0
BLOCK
  8
0
  2
*D11
 70
     1
 10
0.0
 20
0.0
 30
0.0
  3
*D11
  1

  0
LINE
  5
80E7
  8
0
  6
BYBLOCK
 62
     0
 10
958.61740682114851
 20
1938.3298248547519
 30
0.0
 11
958.61740682114851
 21
2022.721089774403
 31
0.0
  0
LINE
  5
80E8
  8
0
  6
BYBLOCK
 62
     0
 10
781.61740682114748
 20
1665.66208995446
 30
0.0
 11
781.61740682114748
 21
2022.721089774403
 31
0.0
  0
LINE
  5
80E9
  8
0
  6
BYBLOCK
 62
     0
 10
928.61740682114851
 20
2007.721089774403
 30
0.0
 11
811.6174068211476
 21
2007.721089774403
 31
0.0
  0
TEXT
  5
80EA
  8
3
 62
     0
 10
810.10531138455815
 20
2021.754516216927
 30
0.0
 40
45.0
  1
177
  0
INSERT
  5
80EB
  8
0
  6
BYBLOCK
 62
     0
  2
_OPEN
 10
958.61740682114851
 20
2007.721089774403
 30
0.0
 41
30.0
 42
30.0
 43
30.0
  0
INSERT
  5
80EC
  8
0
  6
BYBLOCK
 62
     0
  2
_OPEN
 10
781.61740682114748
 20
2007.721089774403
 30
0.0
 41
30.0
 42
30.0
 43
30.0
 50
180.0
  0
POINT
  5
80ED
  8
DEFPOINTS
  6
BYBLOCK
 62
     0
 10
958.61740682114851
 20
1930.829824854751
 30
0.0
  0
POINT
  5
80EE
  8
DEFPOINTS
  6
BYBLOCK
 62
     0
 10
781.61740682114748
 20
1658.16208995446
 30
0.0
  0
POINT
  5
80EF
  8
DEFPOINTS
  6
BYBLOCK
 62
     0
 10
781.61740682114748
 20
2007.721089774403
 30
0.0
  0
ENDBLK
  5
80F0
  8
0
  0
BLOCK
  8
0
  2
*D12
 70
     1
 10
0.0
 20
0.0
 30
0.0
  3
*D12
  1

  0
LINE
  5
84A7
  8
3
 62
     0
 10
781.61740682114748
 20
1665.66208995446
 30
0.0
 11
781.61740682114748
 21
2107.1281781142761
 31
0.0
  0
LINE
  5
84A8
  8
3
 62
     0
 10
1458.617406821149
 20
1399.66208995446
 30
0.0
 11
1458.617406821149
 21
2107.1281781142761
 31
0.0
  0
LINE
  5
84A9
  8
3
 62
     0
 10
811.6174068211476
 20
2092.128178114277
 30
0.0
 11
1428.617406821149
 21
2092.128178114277
 31
0.0
  0
INSERT
  5
84AA
  8
3
 62
     0
  2
_OPEN
 10
781.61740682114748
 20
2092.128178114277
 30
0.0
 41
30.0
 42
30.0
 43
30.0
 50
180.0
  0
INSERT
  5
84AB
  8
3
 62
     0
  2
_OPEN
 10
1458.617406821149
 20
2092.128178114277
 30
0.0
 41
30.0
 42
30.0
 43
30.0
  0
TEXT
  8
3
  40
45
  5
84FD
  62
0
  72
0
  71
0
 10
1030.12
 20
2049.98
 30
0.000000
  1
677
  0
POINT
  5
84AD
  8
DEFPOINTS
 62
     0
 10
781.61740682114748
 20
1658.16208995446
 30
0.0
  0
POINT
  5
84AE
  8
DEFPOINTS
 62
     0
 10
1458.617406821149
 20
1392.162089954461
 30
0.0
  0
POINT
  5
84AF
  8
DEFPOINTS
 62
     0
 10
1458.617406821149
 20
2092.128178114277
 30
0.0
  0
ENDBLK
  5
80B9
  8
0
  0
BLOCK
  8
0
  2
*D13
 70
     1
 10
0.0
 20
0.0
 30
0.0
  3
*D13
  1

  0
LINE
  5
825E
  8
0
  6
BYBLOCK
 62
     0
 10
2484.2797783149872
 20
1799.139015055003
 30
0.0
 11
2591.4820525409318
 21
1799.139015055003
 31
0.0
  0
LINE
  5
825F
  8
0
  6
BYBLOCK
 62
     0
 10
2484.2797783149872
 20
1545.139015055003
 30
0.0
 11
2591.4820525409318
 21
1545.139015055003
 31
0.0
  0
LINE
  5
8260
  8
0
  6
BYBLOCK
 62
     0
 10
2576.4820525409318
 20
1769.139015055003
 30
0.0
 11
2576.4820525409318
 21
1575.139015055003
 31
0.0
  0
TEXT
  5
8261
  8
3
 62
     0
 10
2565.9226836096891
 20
1590.710443626431
 30
0.0
 40
45.0
  1
φ254
 50
90.0
  0
INSERT
  5
8262
  8
0
  6
BYBLOCK
 62
     0
  2
_OPEN
 10
2576.4820525409318
 20
1799.139015055003
 30
0.0
 41
30.0
 42
30.0
 43
30.0
 50
90.0
  0
INSERT
  5
8263
  8
0
  6
BYBLOCK
 62
     0
  2
_OPEN
 10
2576.4820525409318
 20
1545.139015055003
 30
0.0
 41
30.0
 42
30.0
 43
30.0
 50
270.0
  0
POINT
  5
8264
  8
DEFPOINTS
  6
BYBLOCK
 62
     0
 10
2476.7797783149872
 20
1799.139015055003
 30
0.0
  0
POINT
  5
8265
  8
DEFPOINTS
  6
BYBLOCK
 62
     0
 10
2476.7797783149872
 20
1545.139015055003
 30
0.0
  0
POINT
  5
8266
  8
DEFPOINTS
  6
BYBLOCK
 62
     0
 10
2576.4820525409318
 20
1545.139015055003
 30
0.0
  0
ENDBLK
  5
8267
  8
0
  0
BLOCK
  8
0
  2
*D14
 70
     1
 10
0.0
 20
0.0
 30
0.0
  3
*D14
  1

  0
LINE
  5
84C6
  8
3
 62
     0
 10
758.61740682114851
 20
1282.66208995446
 30
0.0
 11
758.61740682114851
 21
1161.0646120005381
 31
0.0
  0
LINE
  5
84C7
  8
3
 62
     0
 10
958.61740682114851
 20
1282.66208995446
 30
0.0
 11
958.61740682114851
 21
1161.0646120005381
 31
0.0
  0
LINE
  5
84C8
  8
3
 62
     0
 10
788.61740682114839
 20
1176.0646120005381
 30
0.0
 11
928.61740682114851
 21
1176.0646120005381
 31
0.0
  0
INSERT
  5
84C9
  8
3
 62
     0
  2
_OPEN
 10
758.61740682114851
 20
1176.0646120005381
 30
0.0
 41
30.0
 42
30.0
 43
30.0
 50
180.0
  0
INSERT
  5
84CA
  8
3
 62
     0
  2
_OPEN
 10
958.61740682114851
 20
1176.0646120005381
 30
0.0
 41
30.0
 42
30.0
 43
30.0
  0
TEXT
  8
3
  40
45
  5
84FE
  62
0
  72
0
  71
0
 10
768.617
 20
1133.91
 30
0.000000
  1
200
  0
POINT
  5
84CC
  8
DEFPOINTS
 62
     0
 10
758.61740682114851
 20
1290.16208995446
 30
0.0
  0
POINT
  5
84CD
  8
DEFPOINTS
 62
     0
 10
958.61740682114851
 20
1290.16208995446
 30
0.0
  0
POINT
  5
84CE
  8
DEFPOINTS
 62
     0
 10
958.61740682114851
 20
1176.0646120005381
 30
0.0
  0
ENDBLK
  5
83C6
  8
0
  0
BLOCK
  8
0
  2
*D15
 70
     1
 10
0.0
 20
0.0
 30
0.0
  3
*D15
  1

  0
LINE
  5
84CF
  8
3
 62
     0
 10
958.61740682114851
 20
1282.66208995446
 30
0.0
 11
958.61740682114851
 21
1161.0646120005381
 31
0.0
  0
LINE
  5
84D0
  8
3
 62
     0
 10
1458.617406821149
 20
1282.66208995446
 30
0.0
 11
1458.617406821149
 21
1161.0646120005381
 31
0.0
  0
LINE
  5
84D1
  8
3
 62
     0
 10
988.61740682114839
 20
1176.0646120005381
 30
0.0
 11
1428.617406821149
 21
1176.0646120005381
 31
0.0
  0
INSERT
  5
84D2
  8
3
 62
     0
  2
_OPEN
 10
958.61740682114851
 20
1176.0646120005381
 30
0.0
 41
30.0
 42
30.0
 43
30.0
 50
180.0
  0
INSERT
  5
84D3
  8
3
 62
     0
  2
_OPEN
 10
1458.617406821149
 20
1176.0646120005381
 30
0.0
 41
30.0
 42
30.0
 43
30.0
  0
TEXT
  8
3
  40
45
  5
84FF
  62
0
  72
0
  71
0
 10
1118.62
 20
1133.91
 30
0.000000
  1
500
  0
POINT
  5
84D5
  8
DEFPOINTS
 62
     0
 10
958.61740682114851
 20
1290.16208995446
 30
0.0
  0
POINT
  5
84D6
  8
DEFPOINTS
 62
     0
 10
1458.617406821149
 20
1290.16208995446
 30
0.0
  0
POINT
  5
84D7
  8
DEFPOINTS
 62
     0
 10
1458.617406821149
 20
1176.0646120005381
 30
0.0
  0
ENDBLK
  5
83D3
  8
0
  0
BLOCK
  8
0
  2
*D16
 70
     1
 10
0.0
 20
0.0
 30
0.0
  3
*D16
  1

  0
LINE
  5
84D8
  8
3
 62
     0
 10
1856.7797783149861
 20
1282.639015055003
 30
0.0
 11
1856.7797783149861
 21
1162.7148588178311
 31
0.0
  0
LINE
  5
84D9
  8
3
 62
     0
 10
2301.7797783149858
 20
1282.639015055003
 30
0.0
 11
2301.7797783149858
 21
1162.7148588178311
 31
0.0
  0
LINE
  5
84DA
  8
3
 62
     0
 10
1886.7797783149861
 20
1177.7148588178311
 30
0.0
 11
2271.7797783149858
 21
1177.7148588178311
 31
0.0
  0
INSERT
  5
84DB
  8
3
 62
     0
  2
_OPEN
 10
1856.7797783149861
 20
1177.7148588178311
 30
0.0
 41
30.0
 42
30.0
 43
30.0
 50
180.0
  0
INSERT
  5
84DC
  8
3
 62
     0
  2
_OPEN
 10
2301.7797783149858
 20
1177.7148588178311
 30
0.0
 41
30.0
 42
30.0
 43
30.0
  0
TEXT
  8
3
  40
45
  5
8500
  62
0
  72
0
  71
0
 10
1989.28
 20
1135.56
 30
0.000000
  1
445
  0
POINT
  5
84DE
  8
DEFPOINTS
 62
     0
 10
1856.7797783149861
 20
1290.139015055003
 30
0.0
  0
POINT
  5
84DF
  8
DEFPOINTS
 62
     0
 10
2301.7797783149858
 20
1290.139015055003
 30
0.0
  0
POINT
  5
84E0
  8
DEFPOINTS
 62
     0
 10
2301.7797783149858
 20
1177.7148588178311
 30
0.0
  0
ENDBLK
  5
8417
  8
0
  0
BLOCK
  8
0
  2
*D17
 70
     1
 10
0.0
 20
0.0
 30
0.0
  3
*D17
  1

  0
LINE
  5
84E1
  8
3
 62
     0
 10
2301.7797783149858
 20
1282.639015055003
 30
0.0
 11
2301.7797783149858
 21
1162.7148588178311
 31
0.0
  0
LINE
  5
84E2
  8
3
 62
     0
 10
2357.7797783149858
 20
1282.639015055003
 30
0.0
 11
2357.7797783149858
 21
1162.7148588178311
 31
0.0
  0
LINE
  5
84E3
  8
3
 62
     0
 10
2271.7797783149858
 20
1177.7148588178311
 30
0.0
 11
2241.7797783149858
 21
1177.7148588178311
 31
0.0
  0
LINE
  5
84E4
  8
3
 62
     0
 10
2387.7797783149872
 20
1177.7148588178311
 30
0.0
 11
2518.494064029273
 21
1177.7148588178311
 31
0.0
  0
LINE
  5
84E5
  8
3
 62
     0
 10
2301.7797783149858
 20
1177.7148588178311
 30
0.0
 11
2357.7797783149858
 21
1177.7148588178311
 31
0.0
  0
INSERT
  5
84E6
  8
3
 62
     0
  2
_OPEN
 10
2301.7797783149858
 20
1177.7148588178311
 30
0.0
 41
30.0
 42
30.0
 43
30.0
  0
INSERT
  5
84E7
  8
3
 62
     0
  2
_OPEN
 10
2357.7797783149858
 20
1177.7148588178311
 30
0.0
 41
30.0
 42
30.0
 43
30.0
 50
180.0
  0
TEXT
  8
3
  40
45
  5
8501
  62
0
  72
0
  71
0
 10
2378.14
 20
1135.56
 30
0.000000
  1
56
  0
POINT
  5
84E9
  8
DEFPOINTS
 62
     0
 10
2301.7797783149858
 20
1290.139015055003
 30
0.0
  0
POINT
  5
84EA
  8
DEFPOINTS
 62
     0
 10
2357.7797783149858
 20
1290.139015055003
 30
0.0
  0
POINT
  5
84EB
  8
DEFPOINTS
 62
     0
 10
2357.7797783149858
 20
1177.7148588178311
 30
0.0
  0
ENDBLK
  5
8426
  8
0
  0
BLOCK
  8
0
  2
*D18
 70
     1
 10
0.0
 20
0.0
 30
0.0
  3
*D18
  1

  0
LINE
  5
84EC
  8
3
 62
     0
 10
751.11740682114839
 20
1330.162089954461
 30
0.0
 11
570.42043466439088
 21
1330.162089954461
 31
0.0
  0
LINE
  5
84ED
  8
3
 62
     0
 10
751.11740682114839
 20
1290.16208995446
 30
0.0
 11
570.42043466439088
 21
1290.16208995446
 31
0.0
  0
LINE
  5
84EE
  8
3
 62
     0
 10
585.420434664391
 20
1360.162089954461
 30
0.0
 11
585.420434664391
 21
1390.162089954461
 31
0.0
  0
LINE
  5
84EF
  8
3
 62
     0
 10
585.42043466439088
 20
1260.16208995446
 30
0.0
 11
585.42043466439088
 21
1127.3049470973169
 31
0.0
  0
LINE
  5
84F0
  8
3
 62
     0
 10
585.420434664391
 20
1330.162089954461
 30
0.0
 11
585.420434664391
 21
1290.16208995446
 31
0.0
  0
INSERT
  5
84F1
  8
3
 62
     0
  2
_DOT
 10
585.420434664391
 20
1330.162089954461
 30
0.0
 41
30.0
 42
30.0
 43
30.0
 50
270.0
  0
INSERT
  5
84F2
  8
3
 62
     0
  2
_OPEN
 10
585.420434664391
 20
1290.16208995446
 30
0.0
 41
30.0
 42
30.0
 43
30.0
 50
90.0
  0
TEXT
  8
3
  40
45
  5
8502
  62
0
  72
0
  71
0
 10
457.920
 20
1099.08
 30
0.000000
  1
40
  0
POINT
  5
84F4
  8
DEFPOINTS
 62
     0
 10
758.61740682114851
 20
1330.162089954461
 30
0.0
  0
POINT
  5
84F5
  8
DEFPOINTS
 62
     0
 10
758.61740682114851
 20
1290.16208995446
 30
0.0
  0
POINT
  5
84F6
  8
DEFPOINTS
 62
     0
 10
585.420434664391
 20
1290.16208995446
 30
0.0
  0
ENDBLK
  5
8435
  8
0
  0
BLOCK
  8
0
  2
*D19
 70
     1
 10
0.0
 20
0.0
 30
0.0
  3
*D19
  1

  0
LINE
  5
8439
  8
0
  6
BYBLOCK
 62
     0
 10
751.11740682114839
 20
1330.162089954461
 30
0.0
 11
570.42043466439088
 21
1330.162089954461
 31
0.0
  0
LINE
  5
843A
  8
0
  6
BYBLOCK
 62
     0
 10
751.11740682114839
 20
1352.16208995446
 30
0.0
 11
570.42043466439088
 21
1352.16208995446
 31
0.0
  0
LINE
  5
843B
  8
0
  6
BYBLOCK
 62
     0
 10
585.420434664391
 20
1300.162089954461
 30
0.0
 11
585.420434664391
 21
1270.162089954461
 31
0.0
  0
LINE
  5
843C
  8
0
  6
BYBLOCK
 62
     0
 10
585.420434664391
 20
1382.16208995446
 30
0.0
 11
585.420434664391
 21
1412.16208995446
 31
0.0
  0
TEXT
  5
843D
  8
3
 62
     0
 10
528.63472037867677
 20
1275.8049470973169
 30
0.0
 40
45.0
  1
(22)
 50
90.0
  0
LINE
  5
843E
  8
0
  6
BYBLOCK
 62
     0
 10
585.420434664391
 20
1330.162089954461
 30
0.0
 11
585.420434664391
 21
1352.16208995446
 31
0.0
  0
INSERT
  5
843F
  8
0
  6
BYBLOCK
 62
     0
  2
_DOT
 10
585.420434664391
 20
1330.162089954461
 30
0.0
 41
30.0
 42
30.0
 43
30.0
 50
90.0
  0
INSERT
  5
8440
  8
0
  6
BYBLOCK
 62
     0
  2
_OPEN
 10
585.420434664391
 20
1352.16208995446
 30
0.0
 41
30.0
 42
30.0
 43
30.0
 50
270.0
  0
POINT
  5
8441
  8
DEFPOINTS
  6
BYBLOCK
 62
     0
 10
758.61740682114851
 20
1330.162089954461
 30
0.0
  0
POINT
  5
8442
  8
DEFPOINTS
  6
BYBLOCK
 62
     0
 10
758.61740682114851
 20
1352.16208995446
 30
0.0
  0
POINT
  5
8443
  8
DEFPOINTS
  6
BYBLOCK
 62
     0
 10
585.420434664391
 20
1352.16208995446
 30
0.0
  0
ENDBLK
  5
8444
  8
0
  0
BLOCK
  8
0
  2
*D20
 70
     1
 10
0.0
 20
0.0
 30
0.0
  3
*D20
  1

  0
LINE
  5
8448
  8
0
  6
BYBLOCK
 62
     0
 10
922.1174068211476
 20
1872.162089954461
 30
0.0
 11
423.0317003614017
 21
1872.162089954461
 31
0.0
  0
LINE
  5
8449
  8
0
  6
BYBLOCK
 62
     0
 10
751.11740682114839
 20
1290.16208995446
 30
0.0
 11
423.0317003614017
 21
1290.16208995446
 31
0.0
  0
LINE
  5
844A
  8
0
  6
BYBLOCK
 62
     0
 10
438.03170036140182
 20
1842.162089954461
 30
0.0
 11
438.03170036140182
 21
1320.16208995446
 31
0.0
  0
INSERT
  5
844B
  8
0
  6
BYBLOCK
 62
     0
  2
_OPEN
 10
438.03170036140182
 20
1872.162089954461
 30
0.0
 41
30.0
 42
30.0
 43
30.0
 50
90.0
  0
INSERT
  5
844C
  8
0
  6
BYBLOCK
 62
     0
  2
_OPEN
 10
438.03170036140182
 20
1290.16208995446
 30
0.0
 41
30.0
 42
30.0
 43
30.0
 50
270.0
  0
TEXT
  5
844D
  8
3
 62
     0
 10
403.74598607568748
 20
1494.376375668746
 30
0.0
 40
45.0
  1
(582)
 50
90.0
  0
POINT
  5
844E
  8
DEFPOINTS
  6
BYBLOCK
 62
     0
 10
929.6174068211476
 20
1872.162089954461
 30
0.0
  0
POINT
  5
844F
  8
DEFPOINTS
  6
BYBLOCK
 62
     0
 10
758.61740682114851
 20
1290.16208995446
 30
0.0
  0
POINT
  5
8450
  8
DEFPOINTS
  6
BYBLOCK
 62
     0
 10
438.03170036140182
 20
1290.16208995446
 30
0.0
  0
ENDBLK
  5
8451
  8
0
  0
ENDSEC
  0
SECTION
  2
ENTITIES
  0
LINE
  5
7C39
  8
2
 10
1241.91167527016
 20
1672.162089954461
 30
0.0
 11
707.97442674592821
 21
1672.162089954461
 31
0.0
  0
LINE
  5
7C3A
  8
2
 10
958.61740682114851
 20
1919.3932151406
 30
0.0
 11
958.61740682114851
 21
1352.16208995446
 31
0.0
  0
LINE
  5
7C3B
  8
1
 10
1337.4552113522971
 20
1571.1547902351281
 30
0.0
 11
994.31655733336436
 21
1757.570144818809
 31
0.0
  0
ARC
  5
7C3C
  8
1
 10
958.61740682114851
 20
1672.162089954461
 30
0.0
 40
92.568705203245145
 50
67.315881326603076
 51
252.03784501407091
  0
LINE
  5
7C3D
  8
1
 10
1223.6174068211481
 20
1847.162089954461
 30
0.0
 11
929.6174068211476
 21
1847.162089954461
 31
0.0
  0
LINE
  5
7C3E
  8
1
 10
1223.6174068211481
 20
1872.162089954461
 30
0.0
 11
929.6174068211476
 21
1872.162089954461
 31
0.0
  0
ARC
  5
7C3F
  8
1
 10
974.61740682114748
 20
1688.16208995446
 30
0.0
 40
221.0
 50
269.73129052775209
 51
359.68962266435648
  0
LINE
  5
7C40
  8
1
 10
930.82569267934559
 20
1608.0746246909659
 30
0.0
 11
1287.4767341857701
 21
1453.4118719486989
 31
0.0
  0
LINE
  5
7C41
  8
1
 10
1285.556997772333
 20
1431.0296135692249
 30
0.0
 11
930.07026091696935
 21
1584.105144494544
 31
0.0
  0
LINE
  5
7C42
  8
1
 10
1328.9874854403261
 20
1551.2392913022759
 30
0.0
 11
985.39609129322434
 21
1736.6794103946679
 31
0.0
  0
LINE
  5
7C45
  8
1
 10
1458.617406821149
 20
1352.162089954461
 30
0.0
 11
758.61740682114851
 21
1352.16208995446
 31
0.0
  0
LINE
  5
7C46
  8
1
 10
1458.617406821149
 20
1392.162089954461
 30
0.0
 11
758.61740682114851
 21
1392.162089954461
 31
0.0
  0
ARC
  5
7C47
  8
1
 10
972.61740682114748
 20
1658.16208995446
 30
0.0
 40
191.0
 50
166.7801999432786
 51
270.28904302365561
  0
LINE
  5
7C48
  8
2
 10
1308.6174068211481
 20
1607.8320245791281
 30
0.0
 11
1308.6174068211481
 21
1375.7225791648041
 31
0.0
  0
ARC
  5
7C49
  8
1
 10
1308.6174068211481
 20
1502.16208995446
 30
0.0
 40
74.777079791837537
 50
252.037845014071
 51
67.315881326603105
  0
CIRCLE
  5
7C4A
  8
1
 10
1308.6174068211481
 20
1502.16208995446
 30
0.0
 40
53.13672736521761
  0
ARC
  5
7C4B
  8
1
 10
1308.6174068211481
 20
1502.16208995446
 30
0.0
 40
85.0
 50
298.87799909265573
 51
241.12200090734419
  0
LINE
  5
7C4C
  8
2
 10
1429.617406821149
 20
1502.16208995446
 30
0.0
 11
1187.6174068211481
 21
1502.16208995446
 31
0.0
  0
LINE
  5
7C4D
  8
1
 10
1211.1174068211481
 20
1422.16208995446
 30
0.0
 11
1406.1174068211481
 21
1422.16208995446
 31
0.0
  0
LINE
  5
7C4E
  8
1
 10
1416.117406821149
 20
1392.162089954461
 30
0.0
 11
1201.1174068211481
 21
1392.162089954461
 31
0.0
  0
LINE
  5
7C4F
  8
1
 10
1458.617406821149
 20
1392.162089954461
 30
0.0
 11
1458.617406821149
 21
1352.16208995446
 31
0.0
  0
LINE
  5
7C50
  8
1
 10
1406.1174068211481
 20
1422.16208995446
 30
0.0
 11
1416.117406821149
 21
1392.162089954461
 31
0.0
  0
LINE
  5
7C54
  8
1
 10
1370.1174068211481
 20
1352.1620899544689
 30
0.0
 11
1397.1174068211481
 21
1352.1620899544689
 31
0.0
  0
LINE
  5
7C55
  8
1
 10
1349.667832080637
 20
1427.7318367907501
 30
0.0
 11
1267.566981561652
 21
1427.731836790751
 31
0.0
  0
LINE
  5
7C56
  8
1
 10
1388.978243047417
 20
1422.16208995446
 30
0.0
 11
1377.952922310913
 21
1452.9931333683271
 31
0.0
  0
LINE
  5
7C57
  8
1
 10
1386.1174068211481
 20
1422.16208995446
 30
0.0
 11
1351.1174068211481
 21
1422.16208995446
 31
0.0
  0
LINE
  5
7C58
  8
1
 10
1228.2565705948809
 20
1422.16208995446
 30
0.0
 11
1239.281891331384
 21
1452.9931333683271
 31
0.0
  0
LINE
  5
7C59
  8
1
 10
1231.1174068211481
 20
1422.16208995446
 30
0.0
 11
1266.1174068211481
 21
1422.16208995446
 31
0.0
  0
LINE
  5
7C5A
  8
1
 10
1201.1174068211481
 20
1392.162089954461
 30
0.0
 11
1211.1174068211481
 21
1422.16208995446
 31
0.0
  0
LINE
  5
7C5B
  8
1
 10
793.41740682114857
 20
1615.8620899544601
 30
0.0
 11
793.41740682114857
 21
1392.162089954461
 31
0.0
  0
LINE
  5
7C5C
  8
1
 10
1123.8174068211481
 20
1615.862089954461
 30
0.0
 11
1123.8174068211481
 21
1392.162089954461
 31
0.0
  0
ARC
  5
7C5D
  8
1
 10
947.61740682114748
 20
1661.162089954461
 30
0.0
 40
166.0
 50
72.588216229521279
 51
165.8148644018641
  0
LINE
  5
7C5E
  8
1
 10
758.61740682114851
 20
1392.162089954461
 30
0.0
 11
758.61740682114851
 21
1352.16208995446
 31
0.0
  0
LINE
  5
7C61
  8
1
 10
820.11740682114953
 20
1352.1620899544751
 30
0.0
 11
847.11740682114942
 21
1352.1620899544751
 31
0.0
  0
LINE
  5
7C62
  8
1
 10
1128.8174068211481
 20
1615.862089954461
 30
0.0
 11
788.41740682114857
 21
1615.8620899544601
 31
0.0
  0
LINE
  5
7C63
  8
1
 10
1128.8174068211481
 20
1618.162089954461
 30
0.0
 11
788.41740682114857
 21
1618.16208995446
 31
0.0
  0
CIRCLE
  5
7C64
  8
1
 10
958.61740682114851
 20
1672.162089954461
 30
0.0
 40
69.854009039133416
  0
LINE
  5
7C65
  8
1
 10
1058.6174068211481
 20
1618.562089954461
 30
0.0
 11
858.61740682114942
 21
1618.562089954461
 31
0.0
  0
LINE
  5
7C66
  8
1
 10
1112.8174068211481
 20
1723.16208995446
 30
0.0
 11
1112.8174068211481
 21
1618.162089954461
 31
0.0
  0
LINE
  5
7C67
  8
1
 10
1118.8174068211481
 20
1723.16208995446
 30
0.0
 11
1118.8174068211481
 21
1618.162089954461
 31
0.0
  0
LINE
  5
7C68
  8
1
 10
1128.8174068211481
 20
1618.162089954461
 30
0.0
 11
1128.8174068211481
 21
1615.862089954461
 31
0.0
  0
LINE
  5
7C69
  8
1
 10
1112.8174068211481
 20
1723.162089954461
 30
0.0
 11
1118.8174068211481
 21
1723.162089954461
 31
0.0
  0
LINE
  5
7C6A
  8
1
 10
804.41740682114857
 20
1723.162089954461
 30
0.0
 11
804.41740682114857
 21
1618.16208995446
 31
0.0
  0
LINE
  5
7C6B
  8
1
 10
798.41740682114869
 20
1723.16208995446
 30
0.0
 11
798.41740682114869
 21
1618.16208995446
 31
0.0
  0
LINE
  5
7C6C
  8
1
 10
788.41740682114857
 20
1618.16208995446
 30
0.0
 11
788.41740682114857
 21
1615.8620899544601
 31
0.0
  0
LINE
  5
7C6D
  8
1
 10
956.61740682114839
 20
1826.917934496968
 30
0.0
 11
956.61740682114839
 21
1872.162089954461
 31
0.0
  0
LINE
  5
7C6E
  8
1
 10
929.6174068211476
 20
1847.162089954461
 30
0.0
 11
929.6174068211476
 21
1872.162089954461
 31
0.0
  0
LINE
  5
7C6F
  8
1
 10
804.41740682114857
 20
1723.162089954461
 30
0.0
 11
798.41740682114869
 21
1723.16208995446
 31
0.0
  0
CIRCLE
  5
7C70
  8
1
 10
1023.617406821147
 20
1816.8954070355589
 30
0.0
 40
8.0
  0
ARC
  5
7C71
  8
1
 10
950.61740682114771
 20
1680.162089954461
 30
0.0
 40
147.0
 50
61.902866890234179
 51
71.48784848817084
  0
LINE
  5
7C72
  8
1
 10
1195.6141642019279
 20
1686.9649152885199
 30
0.0
 11
1196.6174068211469
 21
1872.162089954461
 31
0.0
  0
LINE
  5
7C73
  8
1
 10
1223.6174068211469
 20
1847.162089954461
 30
0.0
 11
1223.6174068211469
 21
1872.162089954461
 31
0.0
  0
DIMENSION
  5
7C74
  8
3
  2
*D2
 10
2447.7797783149858
 20
1938.144908744669
 30
0.0
 11
2357.4485585916409
 21
1966.747727720528
 31
0.0
 70
   128
 13
2267.7797783149858
 23
1847.2780510350381
 33
0.0
 14
2447.7797783149858
 24
1847.53880348642
 34
0.0
1001
ACAD
1000
DSTYLE
1002
{
1070
   288
1070
     1
1070
   172
1070
     1
1070
    40
1040
15.0
1070
   271
1070
     0
1070
   143
1040
0.039
1002
}
  0
LINE
  5
7C75
  8
2
 10
1815.507239167636
 20
1672.139015055003
 30
0.0
 11
2508.9155393772371
 21
1672.139015055003
 31
0.0
  0
LINE
  5
7C77
  8
1
 10
2267.7797783149849
 20
1467.16208995446
 30
0.0
 11
2447.7797783149849
 21
1467.16208995446
 31
0.0
  0
LINE
  5
7C78
  8
2
 10
2357.7797783149858
 20
1932.8048027463581
 30
0.0
 11
2357.7797783149858
 21
1290.139015055003
 31
0.0
  0
LINE
  5
7C79
  8
1
 10
1899.697578387261
 20
1717.720742267489
 30
0.0
 11
1899.697578387261
 21
1764.7077202582479
 31
0.0
  0
LINE
  5
7C7A
  8
1
 10
1830.01871312708
 20
1427.3850101626231
 30
0.0
 11
1830.01871312708
 21
1764.7077202582479
 31
0.0
  0
LINE
  5
7C7B
  8
1
 10
1926.7797783149861
 20
1615.8620899544601
 30
0.0
 11
2239.7797783149858
 21
1615.8620899544601
 31
0.0
  0
LINE
  5
7C7E
  8
1
 10
1856.7797783149861
 20
1352.139015055003
 30
0.0
 11
2301.7797783149858
 21
1352.139015055003
 31
0.0
  0
LINE
  5
7C7F
  8
1
 10
1856.7797783149849
 20
1392.139015055003
 30
0.0
 11
2301.7797783149858
 21
1392.139015055003
 31
0.0
  0
LINE
  5
7C80
  8
1
 10
1926.7797783149861
 20
1618.139015055003
 30
0.0
 11
2239.7797783149858
 21
1618.139015055003
 31
0.0
  0
LINE
  5
7C81
  8
1
 10
1847.8221236340869
 20
1449.0253625892431
 30
0.0
 11
1847.822123634086
 21
1602.2850060158689
 31
0.0
  0
LINE
  5
7C82
  8
1
 10
1883.4289446480991
 20
1449.0253625892431
 30
0.0
 11
1883.4289446480991
 21
1602.2850060158689
 31
0.0
  0
LINE
  5
7C83
  8
1
 10
1931.779778314987
 20
1615.8620899544601
 30
0.0
 11
1931.7797783149861
 21
1576.96207795446
 31
0.0
  0
LINE
  5
7C84
  8
1
 10
1830.01871312708
 20
1427.3850101626231
 30
0.0
 11
1899.697578387261
 21
1427.3850101626231
 31
0.0
  0
LINE
  5
7C85
  8
1
 10
1847.822123634086
 20
1449.0253625892431
 30
0.0
 11
1883.4289446480991
 21
1449.0253625892431
 31
0.0
  0
LINE
  5
7C86
  8
1
 10
1899.697578387261
 20
1427.3850101626231
 30
0.0
 11
1899.697578387261
 21
1492.4861907694631
 31
0.0
  0
LINE
  5
7C87
  8
1
 10
1883.4289446480991
 20
1602.2850060158689
 30
0.0
 11
1883.4289446480991
 21
1741.9930240941369
 31
0.0
  0
LINE
  5
7C88
  8
1
 10
1847.822123634086
 20
1602.2850060158689
 30
0.0
 11
1847.822123634086
 21
1741.9930240941369
 31
0.0
  0
LINE
  5
7C89
  8
2
 10
2161.232718764109
 20
1502.16208995446
 30
0.0
 11
1823.181123006862
 21
1502.16208995446
 31
0.0
  0
LINE
  5
7C8A
  8
1
 10
1847.822123634086
 20
1555.2988173196779
 30
0.0
 11
1883.4289446480991
 21
1555.2988173196779
 31
0.0
  0
LINE
  5
7C8B
  8
1
 10
1847.822123634086
 20
1602.2850060158689
 30
0.0
 11
1883.4289446480991
 21
1602.2850060158689
 31
0.0
  0
LINE
  5
7C8C
  8
1
 10
1926.7797783149861
 20
1618.139015055003
 30
0.0
 11
1926.779778314987
 21
1615.8620899544601
 31
0.0
  0
LINE
  5
7C8D
  8
1
 10
1847.822123634086
 20
1741.9930240941369
 30
0.0
 11
1883.4289446480991
 21
1741.9930240941369
 31
0.0
  0
LINE
  5
7C8E
  8
1
 10
1883.4289446480991
 20
1660.139015055003
 30
0.0
 11
1897.779778314987
 21
1660.139015055003
 31
0.0
  0
LINE
  5
7C8F
  8
1
 10
1883.4289446480991
 20
1684.139015055003
 30
0.0
 11
1897.7797783149861
 21
1684.139015055003
 31
0.0
  0
LINE
  5
7C90
  8
1
 10
1899.7797783149861
 20
1689.639015055003
 30
0.0
 11
2239.7797783149858
 21
1689.639015055003
 31
0.0
  0
LINE
  5
7C91
  8
1
 10
1899.7797783149861
 20
1654.639015055003
 30
0.0
 11
2239.7797783149872
 21
1654.639015055003
 31
0.0
  0
LINE
  5
7C92
  8
1
 10
1899.7797783149861
 20
1658.139015055003
 30
0.0
 11
1899.7797783149861
 21
1654.639015055003
 31
0.0
  0
ARC
  5
7C93
  8
1
 10
1897.779778314987
 20
1658.139015055003
 30
0.0
 40
2.0
 50
0.0000000000002036
 51
90.0
  0
ARC
  5
7C94
  8
1
 10
1897.7797783149861
 20
1686.139015055003
 30
0.0
 40
2.0
 50
270.0
 51
0.0
  0
LINE
  5
7C95
  8
1
 10
1899.779778314987
 20
1689.639015055003
 30
0.0
 11
1899.7797783149861
 21
1686.139015055003
 31
0.0
  0
LINE
  5
7C9A
  8
1
 10
2239.7797783149849
 20
1723.162089954461
 30
0.0
 11
2267.7797783149858
 21
1723.162089954461
 31
0.0
  0
LINE
  5
7C9B
  8
1
 10
1830.01871312708
 20
1764.7077202582479
 30
0.0
 11
1899.697578387261
 21
1764.7077202582479
 31
0.0
  0
LINE
  5
7C9C
  8
1
 10
2476.7797783149872
 20
1545.139015055003
 30
0.0
 11
2476.7797783149872
 21
1799.139015055003
 31
0.0
  0
LINE
  5
7C9D
  8
1
 10
2447.7797783149858
 20
1828.139015055003
 30
0.0
 11
2447.7797783149858
 21
1672.139015055003
 31
0.0
  0
LINE
  5
7C9E
  8
1
 10
2475.7797783149849
 20
1872.139015055003
 30
0.0
 11
2475.7797783149858
 21
1847.162089954461
 31
0.0
  0
LINE
  5
7CA0
  8
1
 10
2447.7797783149858
 20
1847.162089954461
 30
0.0
 11
2447.7797783149858
 21
1670.139015055003
 31
0.0
  0
LINE
  5
7CA1
  8
1
 10
2447.7797783149849
 20
1670.139015055003
 30
0.0
 11
2447.7797783149849
 21
1467.16208995446
 31
0.0
  0
LINE
  5
7CA3
  8
1
 10
2451.7797783149881
 20
1672.139015055003
 30
0.0
 11
2451.7797783149872
 21
1516.139015055003
 31
0.0
  0
POLYLINE
  5
7CA4
  8
1
 66
     1
 10
0.0
 20
0.0
 30
0.0
 70
     1
  0
VERTEX
  5
846D
  8
1
 10
2451.7797783149872
 20
1545.139015055003
 30
0.0
  0
VERTEX
  5
846E
  8
1
 10
2451.7797783149872
 20
1520.139015055003
 30
0.0
  0
VERTEX
  5
846F
  8
1
 10
2452.7797783149872
 20
1520.139015055003
 30
0.0
 42
0.4142135623730951
  0
VERTEX
  5
8470
  8
1
 10
2454.7797783149872
 20
1522.139015055003
 30
0.0
  0
VERTEX
  5
8471
  8
1
 10
2454.7797783149872
 20
1538.139015055003
 30
0.0
 42
-0.4142135623730951
  0
VERTEX
  5
8472
  8
1
 10
2458.7797783149872
 20
1542.139015055003
 30
0.0
  0
VERTEX
  5
8473
  8
1
 10
2474.7797783149872
 20
1542.139015055003
 30
0.0
 42
0.4142135623730951
  0
VERTEX
  5
8474
  8
1
 10
2476.7797783149872
 20
1544.139015055003
 30
0.0
  0
VERTEX
  5
8475
  8
1
 10
2476.7797783149872
 20
1545.139015055003
 30
0.0
  0
SEQEND
  5
8476
  8
1
  0
LINE
  5
7CAF
  8
1
 10
2452.7797783149858
 20
1545.139015055003
 30
0.0
 11
2474.7797783149872
 21
1545.139015055003
 31
0.0
  0
LINE
  5
7CB0
  8
1
 10
2447.7797783149849
 20
1516.139015055003
 30
0.0
 11
2451.7797783149872
 21
1516.139015055003
 31
0.0
  0
LINE
  5
7CB2
  8
2
 10
958.61740682114851
 20
3293.0628458239339
 30
0.0
 11
958.61740682114851
 21
2648.2326360282159
 31
0.0
  0
LINE
  5
7CB4
  8
1
 10
1418.6174068211469
 20
3130.5388685892749
 30
0.0
 11
1418.6174068211481
 21
2685.5388685892758
 31
0.0
  0
LINE
  5
7CB5
  8
1
 10
758.61740682114851
 20
3130.5388685892749
 30
0.0
 11
758.61740682114851
 21
2685.5388685892758
 31
0.0
  0
LINE
  5
7CB6
  8
1
 10
1458.6174068211481
 20
3130.5388685892749
 30
0.0
 11
1458.6174068211469
 21
2685.5388685892758
 31
0.0
  0
LINE
  5
7CBE
  8
1
 10
1856.7797783149861
 20
1352.139015055003
 30
0.0
 11
1856.7797783149849
 21
1392.139015055003
 31
0.0
  0
LINE
  5
7CBF
  8
1
 10
2301.7797783149858
 20
1352.139015055003
 30
0.0
 11
2301.7797783149858
 21
1392.139015055003
 31
0.0
  0
LINE
  5
7CC7
  8
1
 10
758.61740682114851
 20
2685.5388685892758
 30
0.0
 11
1458.6174068211469
 21
2685.5388685892758
 31
0.0
  0
LINE
  5
7CC8
  8
1
 10
758.61740682114839
 20
3130.5388685892831
 30
0.0
 11
781.61740682114794
 21
3130.5388685892831
 31
0.0
  0
DIMENSION
  5
7CCA
  8
3
  2
*D3
 10
645.55089691246565
 20
2685.5388685892758
 30
0.0
 11
608.05089691246542
 21
2908.0388685892758
 31
0.0
 70
     0
 13
758.61740682114851
 23
3130.5388685892758
 33
0.0
 14
758.61740682114851
 24
2685.5388685892758
 34
0.0
 50
270.0
1001
ACAD
1000
DSTYLE
1002
{
1070
   287
1070
     3
1070
    40
1040
15.0
1070
   143
1040
0.039
1070
   172
1070
     1
1070
   271
1070
     0
1070
   279
1070
     0
1070
   288
1070
     1
1002
}
  0
DIMENSION
  5
7CCB
  8
3
  2
*D4
 10
758.61740682114851
 20
2505.991998174919
 30
0.0
 11
1108.6174068211481
 21
2505.991998174919
 31
0.0
 70
   128
 13
1458.6174068211469
 23
2685.5388685892758
 33
0.0
 14
758.61740682114851
 24
2685.5388685892758
 34
0.0
1001
ACAD
1000
DSTYLE
1002
{
1070
   287
1070
     3
1070
    40
1040
15.0
1070
   143
1040
0.039
1070
   172
1070
     1
1070
   271
1070
     0
1070
   279
1070
     0
1070
   288
1070
     1
1002
}
  0
LINE
  5
7CCC
  8
2
 10
746.56521240743132
 20
3186.5388685892749
 30
0.0
 11
1234.777278554669
 21
3186.5388685892749
 31
0.0
  0
LINE
  5
7CCD
  8
1
 10
2239.7797783149849
 20
1473.16208995446
 30
0.0
 11
2267.7797783149858
 21
1473.16208995446
 31
0.0
  0
POLYLINE
  5
7CCE
  8
1
 66
     1
 10
0.0
 20
0.0
 30
0.0
  0
VERTEX
  5
8489
  8
1
 10
2239.7797783149858
 20
1723.162089954461
 30
0.0
  0
VERTEX
  5
848A
  8
1
 10
2239.7797783149858
 20
1473.16208995446
 30
0.0
  0
SEQEND
  5
848B
  8
1
  0
ARC
  5
7CD2
  8
1
 10
2474.7797783149872
 20
1800.139015055003
 30
0.0
 40
2.0
 50
0.0
 51
60.000000000028521
  0
LINE
  5
7CD3
  8
1
 10
2476.7797783149872
 20
1800.139015055003
 30
0.0
 11
2476.7797783149872
 21
1799.139015055003
 31
0.0
  0
LINE
  5
7CD4
  8
1
 10
2476.7797783149872
 20
1799.139015055003
 30
0.0
 11
2475.7797783149858
 21
1799.139015055003
 31
0.0
  0
LINE
  5
7CD5
  8
1
 10
1910.6255341410931
 20
1468.66208995446
 30
0.0
 11
1910.6255341410931
 21
1535.662089954461
 31
0.0
  0
LINE
  5
7CD6
  8
1
 10
1920.6255341410931
 20
1424.16208995446
 30
0.0
 11
1920.6255341410931
 21
1576.96207795446
 31
0.0
  0
LINE
  5
7CD7
  8
1
 10
1920.6255341410931
 20
1424.162089954461
 30
0.0
 11
1931.779778314987
 21
1424.162089954461
 31
0.0
  0
LINE
  5
7CD8
  8
1
 10
1920.6255341410931
 20
1468.66208995446
 30
0.0
 11
1910.6255341410931
 21
1468.66208995446
 31
0.0
  0
LINE
  5
7CD9
  8
1
 10
1920.6255341410931
 20
1472.2270929544611
 30
0.0
 11
1920.6255341410931
 21
1463.5970879544609
 31
0.0
  0
LINE
  5
7CDA
  8
1
 10
1920.6255341410931
 20
1474.41215095446
 30
0.0
 11
1920.6255341410931
 21
1462.1482169544611
 31
0.0
  0
LINE
  5
7CDB
  8
1
 10
1920.6255341410931
 20
1463.477885954461
 30
0.0
 11
1920.6255341410931
 21
1472.477885954461
 31
0.0
  0
LINE
  5
7CDC
  8
1
 10
1905.6255341410931
 20
1511.662089954461
 30
0.0
 11
1883.4289446480991
 21
1511.662089954461
 31
0.0
  0
LINE
  5
7CDD
  8
1
 10
1883.4289446480991
 20
1492.66208995446
 30
0.0
 11
1905.6255341410931
 21
1492.66208995446
 31
0.0
  0
LINE
  5
7CDE
  8
1
 10
1905.6255341410931
 20
1512.662089954461
 30
0.0
 11
1910.6255341410931
 21
1512.662089954461
 31
0.0
  0
LINE
  5
7CDF
  8
1
 10
1905.6255341410931
 20
1491.662089954461
 30
0.0
 11
1910.6255341410931
 21
1491.662089954461
 31
0.0
  0
LINE
  5
7CE0
  8
1
 10
1905.6255341410931
 20
1491.662089954461
 30
0.0
 11
1905.6255341410931
 21
1512.662089954461
 31
0.0
  0
LINE
  5
7CE1
  8
1
 10
1931.779778314987
 20
1576.96207795446
 30
0.0
 11
1920.6255341410931
 21
1576.96207795446
 31
0.0
  0
LINE
  5
7CE2
  8
1
 10
1910.6255341410931
 20
1535.662089954461
 30
0.0
 11
1920.6255341410931
 21
1535.662089954461
 31
0.0
  0
LINE
  5
7CE3
  8
1
 10
1920.6255341410931
 20
1574.9770929544611
 30
0.0
 11
1920.6255341410931
 21
1566.34708795446
 31
0.0
  0
LINE
  5
7CE4
  8
1
 10
1920.6255341410931
 20
1566.227885954461
 30
0.0
 11
1920.6255341410931
 21
1575.227885954461
 31
0.0
  0
DIMENSION
  5
7CE5
  8
3
  2
*D5
 10
956.61740682114839
 20
1927.7845604835129
 30
0.0
 11
1076.6174068211481
 21
1965.284560483514
 31
0.0
 70
     0
 13
1196.6174068211469
 23
1872.162089954461
 33
0.0
 14
956.61740682114839
 24
1872.162089954461
 34
0.0
 50
180.0
1001
ACAD
1000
DSTYLE
1002
{
1070
   287
1070
     3
1070
    40
1040
15.0
1070
   143
1040
0.039
1070
   172
1070
     1
1070
   271
1070
     0
1070
   279
1070
     0
1070
   288
1070
     1
1002
}
  0
DIMENSION
  5
7CE6
  8
3
  2
*D6
 10
958.61740682114851
 20
2007.721089774403
 30
0.0
 11
1077.6174068211481
 21
2045.221089774403
 31
0.0
 70
     0
 13
1196.6174068211469
 23
1872.162089954461
 33
0.0
 14
958.61740682114851
 24
1930.829824854751
 34
0.0
 50
180.0
1001
ACAD
1000
DSTYLE
1002
{
1070
   288
1070
     1
1070
   172
1070
     1
1070
    40
1040
15.0
1070
   271
1070
     0
1070
   143
1040
0.039
1002
}
  0
DIMENSION
  5
7CE7
  8
3
  2
*D7
 10
587.27844156342326
 20
1352.16208995446
 30
0.0
 11
549.77844156342303
 21
1512.162089954461
 31
0.0
 70
     0
 13
707.97442674592821
 23
1672.162089954461
 33
0.0
 14
758.61740682114851
 24
1352.16208995446
 34
0.0
 50
270.0
1001
ACAD
1000
DSTYLE
1002
{
1070
   287
1070
     3
1070
    40
1040
15.0
1070
   143
1040
0.039
1070
   172
1070
     1
1070
   271
1070
     0
1070
   279
1070
     0
1070
   288
1070
     1
1002
}
  0
DIMENSION
  5
7CEA
  8
3
  2
*D8
 10
2357.7797783149858
 20
2045.049977304848
 30
0.0
 11
2400.3376608255999
 21
2081.7033755015159
 31
0.0
 70
   128
  1
94
 13
2450.7797783149858
 23
1828.089044368209
 33
0.0
 14
2357.7797783149858
 24
2001.0082186255199
 34
0.0
1001
ACAD
1000
DSTYLE
1002
{
1070
   288
1070
     1
1070
   172
1070
     1
1070
    40
1040
15.0
1070
   271
1070
     0
1070
   143
1040
0.039
1002
}
  0
DIMENSION
  5
7CEB
  8
3
  2
*D9
 10
1830.01871312708
 20
2045.049977304848
 30
0.0
 11
2093.8992457210329
 21
2120.0499773048482
 31
0.0
 70
     0
  1
MAX\P600
 13
2357.7797783149858
 23
2001.0082186255199
 33
0.0
 14
1830.01871312708
 24
1764.7077202582479
 34
0.0
1001
ACAD
1000
DSTYLE
1002
{
1070
   287
1070
     3
1070
    40
1040
15.0
1070
   143
1040
0.039
1070
   172
1070
     1
1070
   271
1070
     0
1070
   279
1070
     0
1070
   288
1070
     1
1002
}
  0
LINE
  5
7CEC
  8
1
 10
781.61740682114748
 20
3276.5388685892758
 30
0.0
 11
931.61740682114839
 21
3276.5388685892758
 31
0.0
  0
LINE
  5
7CED
  8
1
 10
781.61740682114851
 20
3096.5388685892749
 30
0.0
 11
931.61740682114748
 21
3096.5388685892749
 31
0.0
  0
LINE
  5
7CEE
  8
1
 10
798.61740682114851
 20
2734.0388685892749
 30
0.0
 11
798.61740682114851
 21
2685.5388685892758
 31
0.0
  0
LINE
  5
7CEF
  8
1
 10
2138.6255341410929
 20
1576.9620779544609
 30
0.0
 11
1920.6255341410931
 21
1576.96207795446
 31
0.0
  0
LINE
  5
7CF0
  8
1
 10
1920.6255341410931
 20
1424.162089954461
 30
0.0
 11
2138.6255341410929
 21
1424.162089954461
 31
0.0
  0
LINE
  5
7CF1
  8
1
 10
2138.6255341410929
 20
1576.9620779544609
 30
0.0
 11
2138.6255341410929
 21
1424.162089954461
 31
0.0
  0
LINE
  5
7CF2
  8
1
 10
1910.6255341410931
 20
1468.66208995446
 30
0.0
 11
1910.6255341410931
 21
1535.662089954461
 31
0.0
  0
LINE
  5
7CF3
  8
1
 10
1920.6255341410931
 20
1424.16208995446
 30
0.0
 11
1920.6255341410931
 21
1576.96207795446
 31
0.0
  0
LINE
  5
7CF4
  8
1
 10
2065.6255341410929
 20
1424.162089954461
 30
0.0
 11
2065.6255341410929
 21
1392.139015055003
 31
0.0
  0
LINE
  5
7CF5
  8
1
 10
1945.6255341410931
 20
1424.162089954461
 30
0.0
 11
1945.6255341410931
 21
1392.139015055003
 31
0.0
  0
LINE
  5
7CF6
  8
1
 10
1905.6255341410931
 20
1512.662089954461
 30
0.0
 11
1910.6255341410931
 21
1512.662089954461
 31
0.0
  0
LINE
  5
7CF7
  8
1
 10
1905.6255341410931
 20
1491.662089954461
 30
0.0
 11
1910.6255341410931
 21
1491.662089954461
 31
0.0
  0
LINE
  5
7CF8
  8
1
 10
1920.6255341410931
 20
1468.66208995446
 30
0.0
 11
1910.6255341410931
 21
1468.66208995446
 31
0.0
  0
LINE
  5
7CF9
  8
1
 10
1920.6255341410931
 20
1472.2270929544611
 30
0.0
 11
1920.6255341410931
 21
1463.5970879544609
 31
0.0
  0
LINE
  5
7CFA
  8
1
 10
1920.6255341410931
 20
1474.41215095446
 30
0.0
 11
1920.6255341410931
 21
1462.1482169544611
 31
0.0
  0
LINE
  5
7CFB
  8
1
 10
1920.6255341410931
 20
1463.477885954461
 30
0.0
 11
1920.6255341410931
 21
1472.477885954461
 31
0.0
  0
LINE
  5
7CFC
  8
1
 10
1905.6255341410931
 20
1511.662089954461
 30
0.0
 11
1883.4289446480991
 21
1511.662089954461
 31
0.0
  0
LINE
  5
7CFD
  8
1
 10
1883.4289446480991
 20
1492.66208995446
 30
0.0
 11
1905.6255341410931
 21
1492.66208995446
 31
0.0
  0
LINE
  5
7CFE
  8
1
 10
1905.6255341410931
 20
1491.662089954461
 30
0.0
 11
1905.6255341410931
 21
1512.662089954461
 31
0.0
  0
LINE
  5
7CFF
  8
1
 10
1910.6255341410931
 20
1535.662089954461
 30
0.0
 11
1920.6255341410931
 21
1535.662089954461
 31
0.0
  0
LINE
  5
7D00
  8
1
 10
1920.6255341410931
 20
1574.9770929544611
 30
0.0
 11
1920.6255341410931
 21
1566.3470879544609
 31
0.0
  0
LINE
  5
7D01
  8
1
 10
1920.6255341410931
 20
1566.227885954461
 30
0.0
 11
1920.6255341410931
 21
1575.227885954461
 31
0.0
  0
LINE
  5
7D02
  8
1
 10
1233.8174188211469
 20
2967.0388685892749
 30
0.0
 11
1386.6174068211481
 21
2967.0388685892749
 31
0.0
  0
LINE
  5
7D03
  8
1
 10
1386.6174068211469
 20
2749.3846244153829
 30
0.0
 11
1386.6174068211481
 21
2967.0388685892749
 31
0.0
  0
LINE
  5
7D04
  8
1
 10
1233.8174188211469
 20
2967.0388685892749
 30
0.0
 11
1233.8174188211481
 21
2749.3846244153829
 31
0.0
  0
LINE
  5
7D05
  8
1
 10
1318.1174068211469
 20
2712.1880349223889
 30
0.0
 11
1318.1174068211481
 21
2734.0388685892749
 31
0.0
  0
LINE
  5
7D06
  8
1
 10
1299.1174068211481
 20
2734.0388685892749
 30
0.0
 11
1299.1174068211481
 21
2712.1880349223889
 31
0.0
  0
LINE
  5
7D07
  8
1
 10
1319.1174068211481
 20
2734.0388685892749
 30
0.0
 11
1318.1174068211469
 21
2734.0388685892749
 31
0.0
  0
LINE
  5
7D08
  8
1
 10
1342.1174068211481
 20
2749.0388685892749
 30
0.0
 11
1342.1174068211481
 21
2739.3846244153829
 31
0.0
  0
LINE
  5
7D09
  8
1
 10
1319.1174068211481
 20
2734.0388685892749
 30
0.0
 11
1319.1174068211481
 21
2739.0388685892749
 31
0.0
  0
LINE
  5
7D0A
  8
1
 10
1298.1174068211481
 20
2734.0388685892749
 30
0.0
 11
1298.1174068211481
 21
2739.0388685892749
 31
0.0
  0
LINE
  5
7D0B
  8
1
 10
1275.1174068211481
 20
2739.3846244153829
 30
0.0
 11
1275.1174068211481
 21
2749.0388685892749
 31
0.0
  0
LINE
  5
7D0C
  8
1
 10
1383.3944866129859
 20
2658.77780340137
 30
0.0
 11
866.04870161790313
 21
2658.77780340137
 31
0.0
  0
LINE
  5
7D0D
  8
1
 10
1318.1174068211481
 20
2712.1880349223889
 30
0.0
 11
1318.1174068211481
 21
2734.3846244153829
 31
0.0
  0
LINE
  5
7D0E
  8
1
 10
1299.1174068211481
 20
2734.3846244153829
 30
0.0
 11
1299.1174068211469
 21
2712.1880349223889
 31
0.0
  0
LINE
  5
7D0F
  8
2
 10
1308.6174068211481
 20
2983.1774784035938
 30
0.0
 11
1308.6174068211481
 21
2651.940213281152
 31
0.0
  0
LINE
  5
7D10
  8
1
 10
1383.3944866129859
 20
2658.77780340137
 30
0.0
 11
1383.394486612985
 21
2728.4566686615508
 31
0.0
  0
LINE
  5
7D11
  8
1
 10
1361.754134186365
 20
2712.1880349223889
 30
0.0
 11
1255.4806794559311
 21
2712.1880349223889
 31
0.0
  0
LINE
  5
7D12
  8
1
 10
1361.754134186365
 20
2676.5812139083769
 30
0.0
 11
1255.4806794559311
 21
2676.5812139083769
 31
0.0
  0
LINE
  5
7D13
  8
1
 10
1361.7541341863659
 20
2676.581213908376
 30
0.0
 11
1361.7541341863659
 21
2712.1880349223889
 31
0.0
  0
LINE
  5
7D14
  8
1
 10
1255.4806794559311
 20
2676.581213908376
 30
0.0
 11
1255.4806794559311
 21
2712.1880349223889
 31
0.0
  0
LINE
  5
7D15
  8
1
 10
1319.1174068211481
 20
2734.3846244153829
 30
0.0
 11
1298.1174068211481
 21
2734.3846244153829
 31
0.0
  0
LINE
  5
7D16
  8
1
 10
1386.6174068211481
 20
2749.3846244153829
 30
0.0
 11
1233.8174188211469
 21
2749.3846244153829
 31
0.0
  0
LINE
  5
7D17
  8
1
 10
1342.1174068211481
 20
2739.3846244153819
 30
0.0
 11
1275.1174068211481
 21
2739.3846244153819
 31
0.0
  0
LINE
  5
7D18
  8
1
 10
1383.394486612985
 20
2728.4566686615508
 30
0.0
 11
866.04870161790313
 21
2728.4566686615499
 31
0.0
  0
LINE
  5
7D19
  8
1
 10
1386.6174068211481
 20
2749.3846244153829
 30
0.0
 11
1386.6174068211481
 21
2760.5388685892758
 31
0.0
  0
LINE
  5
7D1A
  8
1
 10
1319.1174068211481
 20
2734.3846244153829
 30
0.0
 11
1319.1174068211481
 21
2739.3846244153819
 31
0.0
  0
LINE
  5
7D1B
  8
1
 10
1347.3016108211471
 20
2749.3846244153829
 30
0.0
 11
1338.3016108211471
 21
2749.3846244153829
 31
0.0
  0
LINE
  5
7D1C
  8
1
 10
1336.3673458211481
 20
2749.3846244153829
 30
0.0
 11
1348.6312798211479
 21
2749.3846244153829
 31
0.0
  0
LINE
  5
7D1D
  8
1
 10
1338.5524038211479
 20
2749.3846244153829
 30
0.0
 11
1347.182408821147
 21
2749.3846244153829
 31
0.0
  0
LINE
  5
7D1E
  8
1
 10
1342.1174068211481
 20
2749.3846244153829
 30
0.0
 11
1342.1174068211481
 21
2739.3846244153819
 31
0.0
  0
LINE
  5
7D1F
  8
1
 10
1275.1174068211481
 20
2739.3846244153819
 30
0.0
 11
1275.1174068211481
 21
2749.3846244153829
 31
0.0
  0
LINE
  5
7D20
  8
1
 10
1298.1174068211481
 20
2734.3846244153829
 30
0.0
 11
1298.1174068211481
 21
2739.3846244153819
 31
0.0
  0
LINE
  5
7D21
  8
1
 10
1244.5516108211471
 20
2749.3846244153829
 30
0.0
 11
1235.5516108211471
 21
2749.3846244153829
 31
0.0
  0
LINE
  5
7D22
  8
1
 10
1235.802403821147
 20
2749.3846244153829
 30
0.0
 11
1244.4324088211481
 21
2749.3846244153829
 31
0.0
  0
LINE
  5
7D23
  8
1
 10
1233.8174188211469
 20
2760.5388685892758
 30
0.0
 11
1233.8174188211469
 21
2749.3846244153829
 31
0.0
  0
LINE
  5
7D24
  8
1
 10
866.04870161790313
 20
2658.77780340137
 30
0.0
 11
866.04870161790313
 21
2728.4566686615508
 31
0.0
  0
LINE
  5
7D25
  8
1
 10
1028.471415860281
 20
2676.581213908376
 30
0.0
 11
888.76339778201509
 21
2676.581213908376
 31
0.0
  0
LINE
  5
7D26
  8
1
 10
1028.471415860281
 20
2712.1880349223889
 30
0.0
 11
888.76339778201509
 21
2712.1880349223889
 31
0.0
  0
LINE
  5
7D27
  8
1
 10
888.76339778201509
 20
2676.581213908376
 30
0.0
 11
888.76339778201509
 21
2712.1880349223889
 31
0.0
  0
LINE
  5
7D29
  8
1
 10
1028.471415860281
 20
2676.581213908376
 30
0.0
 11
1028.471415860281
 21
2712.1880349223889
 31
0.0
  0
LINE
  5
7D2A
  8
1
 10
1128.6174068211469
 20
2734.0388685892758
 30
0.0
 11
788.61740682114839
 21
2734.0388685892758
 31
0.0
  0
LINE
  5
7D2B
  8
1
 10
1299.1174068211481
 20
2734.0388685892749
 30
0.0
 11
1298.1174068211481
 21
2734.0388685892749
 31
0.0
  0
LINE
  5
7D2C
  8
1
 10
788.6174068211476
 20
3096.5388685892749
 30
0.0
 11
788.6174068211476
 21
2734.0388685892758
 31
0.0
  0
LINE
  5
7D2D
  8
1
 10
1128.6174068211469
 20
3071.5388685892749
 30
0.0
 11
1128.6174068211469
 21
2734.0388685892758
 31
0.0
  0
LINE
  5
7D2F
  8
1
 10
941.11740682114851
 20
3071.5388685892749
 30
0.0
 11
941.11740682114851
 21
2734.0388685892758
 31
0.0
  0
LINE
  5
7D30
  8
1
 10
976.11740682115021
 20
3071.5388685892749
 30
0.0
 11
976.11740682114839
 21
2734.0388685892758
 31
0.0
  0
DIMENSION
  5
7D31
  8
3
  2
*D10
 10
586.98156409146577
 20
1672.162089954461
 30
0.0
 11
550.45489633797479
 21
1772.162089954461
 31
0.0
 70
   128
 13
929.6174068211476
 23
1872.162089954461
 33
0.0
 14
707.97442674592821
 24
1672.162089954461
 34
0.0
 50
270.0
1001
ACAD
1000
DSTYLE
1002
{
1070
   288
1070
     1
1070
   172
1070
     1
1070
    40
1040
15.0
1070
   271
1070
     0
1070
   143
1040
0.039
1002
}
  0
DIMENSION
  5
7D32
  8
3
  2
*D11
 10
781.61740682114748
 20
2007.721089774403
 30
0.0
 11
863.67673995598659
 21
2044.2545162169281
 31
0.0
 70
   128
 13
958.61740682114851
 23
1930.829824854751
 33
0.0
 14
781.61740682114748
 24
1658.16208995446
 34
0.0
1001
ACAD
1000
DSTYLE
1002
{
1070
   288
1070
     1
1070
   172
1070
     1
1070
    40
1040
15.0
1070
   271
1070
     0
1070
   143
1040
0.039
1002
}
  0
DIMENSION
  5
7D33
  8
3
  2
*D12
 10
1458.617406821149
 20
2092.128178114277
 30
0.0
 11
1120.1174068211481
 21
2129.6281781142761
 31
0.0
 70
     0
 13
781.61740682114748
 23
1658.16208995446
 33
0.0
 14
1458.617406821149
 24
1392.162089954461
 34
0.0
1001
ACAD
1000
DSTYLE
1002
{
1070
   287
1070
     3
1070
    40
1040
15.0
1070
   143
1040
0.039
1070
   172
1070
     1
1070
   271
1070
     0
1070
   279
1070
     0
1070
   288
1070
     1
1002
}
  0
DIMENSION
  5
7D35
  8
3
  2
*D13
 10
2576.4820525409318
 20
1545.139015055003
 30
0.0
 11
2543.4226836096891
 21
1672.139015055003
 31
0.0
 70
   128
 13
2476.7797783149872
 23
1799.139015055003
 33
0.0
 14
2476.7797783149872
 24
1545.139015055003
 34
0.0
 50
90.0
1001
ACAD
1000
DSTYLE
1002
{
1070
   288
1070
     1
1070
   172
1070
     1
1070
    40
1040
15.0
1070
     3
1000
φ<>
1070
   271
1070
     0
1070
   143
1040
0.039
1002
}
  0
LINE
  5
7D36
  8
1
 10
2239.7797783149872
 20
1872.139015055003
 30
0.0
 11
2475.7797783149858
 21
1872.139015055003
 31
0.0
  0
LINE
  5
7D37
  8
1
 10
2239.7797783149858
 20
1847.162089954461
 30
0.0
 11
2475.7797783149858
 21
1847.162089954461
 31
0.0
  0
POLYLINE
  5
7D38
  8
1
 66
     1
 10
0.0
 20
0.0
 30
0.0
  0
VERTEX
  5
84B0
  8
1
 10
2267.7797783149858
 20
1670.139015055003
 30
0.0
  0
VERTEX
  5
84B1
  8
1
 10
2267.7797783149849
 20
1392.139015055003
 30
0.0
  0
SEQEND
  5
84B2
  8
1
  0
POLYLINE
  5
7D3C
  8
1
 66
     1
 10
0.0
 20
0.0
 30
0.0
  0
VERTEX
  5
84B3
  8
1
 10
2239.7797783149872
 20
1872.139015055003
 30
0.0
  0
VERTEX
  5
84B4
  8
1
 10
2239.7797783149858
 20
1847.162089954461
 30
0.0
  0
SEQEND
  5
84B5
  8
1
  0
LINE
  5
7D40
  8
1
 10
2451.7797783149881
 20
1672.139015055003
 30
0.0
 11
2451.7797783149872
 21
1828.139015055003
 31
0.0
  0
LINE
  5
7D41
  8
1
 10
2476.7797783149872
 20
1799.139015055003
 30
0.0
 11
2476.7797783149872
 21
1545.139015055003
 31
0.0
  0
LINE
  5
7D43
  8
1
 10
2447.7797783149858
 20
1828.139015055003
 30
0.0
 11
2451.7797783149872
 21
1828.139015055003
 31
0.0
  0
LINE
  5
7D44
  8
1
 10
2452.7797783149858
 20
1799.139015055003
 30
0.0
 11
2474.7797783149872
 21
1799.139015055003
 31
0.0
  0
POLYLINE
  5
7D45
  8
1
 66
     1
 10
0.0
 20
0.0
 30
0.0
 70
     1
  0
VERTEX
  5
84B6
  8
1
 10
2451.7797783149872
 20
1799.139015055003
 30
0.0
  0
VERTEX
  5
84B7
  8
1
 10
2451.7797783149872
 20
1824.139015055003
 30
0.0
  0
VERTEX
  5
84B8
  8
1
 10
2452.7797783149872
 20
1824.139015055003
 30
0.0
 42
-0.4142135623730951
  0
VERTEX
  5
84B9
  8
1
 10
2454.7797783149872
 20
1822.139015055003
 30
0.0
  0
VERTEX
  5
84BA
  8
1
 10
2454.7797783149872
 20
1806.139015055003
 30
0.0
 42
0.4142135623730951
  0
VERTEX
  5
84BB
  8
1
 10
2458.7797783149872
 20
1802.139015055003
 30
0.0
  0
VERTEX
  5
84BC
  8
1
 10
2474.7797783149872
 20
1802.139015055003
 30
0.0
 42
-0.4142135623730951
  0
VERTEX
  5
84BD
  8
1
 10
2476.7797783149872
 20
1800.139015055003
 30
0.0
  0
VERTEX
  5
84BE
  8
1
 10
2476.7797783149872
 20
1799.139015055003
 30
0.0
  0
SEQEND
  5
84BF
  8
1
  0
POLYLINE
  5
7D50
  8
1
 66
     1
 10
0.0
 20
0.0
 30
0.0
  0
VERTEX
  5
84C0
  8
1
 10
2267.7797783149872
 20
1847.162089954461
 30
0.0
  0
VERTEX
  5
84C1
  8
1
 10
2267.7797783149858
 20
1670.139015055003
 30
0.0
  0
SEQEND
  5
84C2
  8
1
  0
LINE
  5
7D58
  8
1
 10
781.61740682114851
 20
3276.5388685892758
 30
0.0
 11
781.61740682114748
 21
3096.5388685892749
 31
0.0
  0
LINE
  5
7D59
  8
1
 10
1196.6174068211481
 20
3276.5388685892758
 30
0.0
 11
1196.6174068211469
 21
3096.5388685892749
 31
0.0
  0
LINE
  5
7D5A
  8
1
 10
956.61740682114839
 20
3276.5388685892758
 30
0.0
 11
956.61740682114748
 21
3096.5388685892758
 31
0.0
  0
LINE
  5
7D5B
  8
1
 10
931.6174068211493
 20
3301.5388685892758
 30
0.0
 11
1221.617406821149
 21
3301.5388685892749
 31
0.0
  0
LINE
  5
7D5C
  8
1
 10
1221.617406821149
 20
3301.5388685892749
 30
0.0
 11
1221.6174068211469
 21
3071.5388685892749
 31
0.0
  0
LINE
  5
7D5D
  8
1
 10
931.61740682114748
 20
3071.5388685892749
 30
0.0
 11
1221.6174068211469
 21
3071.5388685892749
 31
0.0
  0
LINE
  5
7D5E
  8
1
 10
931.6174068211493
 20
3301.5388685892749
 30
0.0
 11
931.61740682114748
 21
3071.5388685892749
 31
0.0
  0
LINE
  5
7D5F
  8
1
 10
956.61740682114839
 20
3276.5388685892758
 30
0.0
 11
1196.6174068211481
 21
3276.5388685892758
 31
0.0
  0
LINE
  5
7D60
  8
1
 10
956.61740682114748
 20
3096.5388685892749
 30
0.0
 11
1196.6174068211481
 21
3096.5388685892749
 31
0.0
  0
LINE
  5
7D61
  8
1
 10
956.61740682114839
 20
3276.5388685892758
 30
0.0
 11
1196.6174068211469
 21
3096.5388685892749
 31
0.0
  0
LINE
  5
7D62
  8
1
 10
1196.6174068211481
 20
3276.5388685892758
 30
0.0
 11
956.61740682114748
 21
3096.5388685892749
 31
0.0
  0
LINE
  5
7D63
  8
1
 10
1931.7797783149849
 20
1424.162089954461
 30
0.0
 11
1931.7797783149861
 21
1392.139015055003
 31
0.0
  0
LINE
  5
81F5
  8
4
 10
2775.0
 20
750.0
 30
0.0
 11
2775.0
 21
450.0
 31
0.0
  0
LINE
  5
81F6
  8
4
 10
1725.0
 20
750.0
 30
0.0
 11
1725.0
 21
450.0
 31
0.0
  0
LINE
  5
81F7
  8
4
 10
975.0
 20
750.0
 30
0.0
 11
975.0
 21
450.0
 31
0.0
  0
LINE
  5
81FA
  8
4
 10
975.0
 20
450.0
 30
0.0
 11
2775.0
 21
450.0
 31
0.0
  0
LINE
  5
81FB
  8
4
 10
975.0
 20
600.0
 30
0.0
 11
2775.0
 21
600.0
 31
0.0
  0
TEXT
  5
81FC
  8
4
 10
1032.753121270352
 20
647.31453879991932
 30
0.0
 40
75.0
  1
機器名称
  0
TEXT
  5
81FD
  8
4
 10
1029.3871590371959
 20
482.46773509801642
 30
0.0
 40
75.0
  1
機器型番
  0
TEXT
  5
81FE
  8
4
 10
1766.5181182314971
 20
633.85765343635285
 30
0.0
 40
75.0
  1
ミツヤ多翼送風機
  0
TEXT
  5
81FF
  8
4
 10
1779.9817433782209
 20
475.739376419915
 30
0.0
 40
75.0
  1
MF#1 1/2-1
  0
TEXT
  5
8201
  8
4
 10
1121.7989247815201
 20
3575.1432619987731
 30
0.0
 40
80.999999999999986
  1
床置防振ベット
  0
TEXT
  5
8202
  8
4
 10
474.25138999416959
 20
3800.8214642989469
 30
0.0
 40
108.0
  1
遠心式片吸込片持多翼ファン
  0
LINE
  5
8203
  8
4
 10
375.0
 20
3704.1131313972069
 30
0.0
 11
2775.0
 21
3704.1131313972069
 31
0.0
  0
LINE
  5
8204
  8
4
 10
375.0
 20
4004.1131313972069
 30
0.0
 11
2775.0
 21
4004.1131313972069
 31
0.0
  0
LINE
  5
8205
  8
4
 10
975.0
 20
750.0
 30
0.0
 11
2775.0
 21
750.0
 31
0.0
  0
LINE
  5
8206
  8
4
 10
375.0
 20
4004.1131313972069
 30
0.0
 11
375.0
 21
3704.1131313972069
 31
0.0
  0
TEXT
  5
8207
  8
4
 10
468.01067641746698
 20
3573.4792163195152
 30
0.0
 40
80.999999999999986
  1
左回転上向
  0
TEXT
  5
8208
  8
4
 10
2203.4543388739339
 20
4059.0916222429628
 30
0.0
 40
84.000000000000014
  1
No.
  0
TEXT
  5
8209
  8
4
 10
1966.944093900019
 20
3575.1432619987731
 30
0.0
 40
80.999999999999986
  1
縮尺：1/15
  0
LINE
  5
820A
  8
4
 10
2775.0
 20
4004.1131313972069
 30
0.0
 11
2775.0
 21
3704.1131313972069
 31
0.0
  0
LINE
  5
820B
  8
4
 10
3150.0
 20
4425.0
 30
0.0
 11
3150.0
 21
4425.0
 31
0.0
  0
LINE
  5
820C
  8
4
 10
2160.9261335397969
 20
4021.895374688102
 30
0.0
 11
2160.9261335397969
 21
4179.9783923246277
 31
0.0
  0
LINE
  5
820D
  8
4
 10
2160.9261335397969
 20
4179.9783923246277
 30
0.0
 11
2775.0
 21
4179.9783923246277
 31
0.0
  0
LINE
  5
820E
  8
4
 10
2775.0
 20
4179.9783923246277
 30
0.0
 11
2775.0
 21
4021.895374688102
 31
0.0
  0
LINE
  5
820F
  8
4
 10
2775.0
 20
4021.895374688102
 30
0.0
 11
2160.9261335397969
 21
4021.895374688102
 31
0.0
  0
LINE
  5
8210
  8
4
 10
0.0
 20
0.0
 30
0.0
 11
0.0
 21
4425.0
 31
0.0
  0
LINE
  5
8211
  8
4
 10
0.0
 20
4425.0
 30
0.0
 11
3150.0
 21
4425.0
 31
0.0
  0
LINE
  5
8212
  8
4
 10
3150.0
 20
4425.0
 30
0.0
 11
3150.0
 21
0.0
 31
0.0
  0
LINE
  5
8213
  8
4
 10
3150.0
 20
0.0
 30
0.0
 11
0.0
 21
0.0
 31
0.0
  0
LINE
  5
8348
  8
1
 10
788.6174068211476
 20
3090.5388685892831
 30
0.0
 11
931.61740682114748
 21
3090.5388685892808
 31
0.0
  0
LINE
  5
8349
  8
1
 10
1221.6174068211469
 20
3090.5388685892772
 30
0.0
 11
1418.6174068211469
 21
3090.5388685892749
 31
0.0
  0
LINE
  5
834A
  8
1
 10
1221.6174068211481
 20
3130.5388685892781
 30
0.0
 11
1458.617406821149
 21
3130.5388685892749
 31
0.0
  0
LINE
  5
8356
  8
1
 10
798.61740682114851
 20
2725.5388685892749
 30
0.0
 11
1418.6174068211481
 21
2725.5388685892749
 31
0.0
  0
DIMENSION
  5
83C7
  8
3
  2
*D14
 10
958.61740682114851
 20
1176.0646120005381
 30
0.0
 11
858.61740682114851
 21
1213.5646120005381
 31
0.0
 70
     0
 13
758.61740682114851
 23
1290.16208995446
 33
0.0
 14
958.61740682114851
 24
1290.16208995446
 34
0.0
1001
ACAD
1000
DSTYLE
1002
{
1070
   287
1070
     3
1070
    40
1040
15.0
1070
   143
1040
0.039
1070
   172
1070
     1
1070
   271
1070
     0
1070
   279
1070
     0
1002
}
  0
DIMENSION
  5
83D4
  8
3
  2
*D15
 10
1458.617406821149
 20
1176.0646120005381
 30
0.0
 11
1208.617406821149
 21
1213.5646120005381
 31
0.0
 70
     0
 13
958.61740682114851
 23
1290.16208995446
 33
0.0
 14
1458.617406821149
 24
1290.16208995446
 34
0.0
1001
ACAD
1000
DSTYLE
1002
{
1070
   287
1070
     3
1070
    40
1040
15.0
1070
   143
1040
0.039
1070
   172
1070
     1
1070
   271
1070
     0
1070
   279
1070
     0
1002
}
  0
LINE
  5
8404
  8
1
 10
1856.7797783149849
 20
1330.139015055003
 30
0.0
 11
2301.7797783149858
 21
1330.139015055003
 31
0.0
  0
LINE
  5
8405
  8
1
 10
2301.7797783149858
 20
1290.139015055003
 30
0.0
 11
2301.7797783149858
 21
1330.139015055003
 31
0.0
  0
LINE
  5
8406
  8
1
 10
1856.7797783149861
 20
1290.139015055003
 30
0.0
 11
2301.7797783149858
 21
1290.139015055003
 31
0.0
  0
LINE
  5
8407
  8
1
 10
1856.7797783149861
 20
1290.139015055003
 30
0.0
 11
1856.7797783149849
 21
1330.139015055003
 31
0.0
  0
LINE
  5
8408
  8
1
 10
1458.617406821149
 20
1290.162089954461
 30
0.0
 11
758.61740682114851
 21
1290.16208995446
 31
0.0
  0
LINE
  5
8409
  8
1
 10
1458.617406821149
 20
1330.162089954461
 30
0.0
 11
1458.617406821149
 21
1290.16208995446
 31
0.0
  0
LINE
  5
840A
  8
1
 10
1458.617406821149
 20
1330.162089954461
 30
0.0
 11
758.61740682114851
 21
1330.162089954461
 31
0.0
  0
LINE
  5
840B
  8
1
 10
758.61740682114851
 20
1330.162089954461
 30
0.0
 11
758.61740682114851
 21
1290.16208995446
 31
0.0
  0
DIMENSION
  5
8418
  8
3
  2
*D16
 10
2301.7797783149858
 20
1177.7148588178311
 30
0.0
 11
2079.2797783149858
 21
1215.2148588178311
 31
0.0
 70
     0
 13
1856.7797783149861
 23
1290.139015055003
 33
0.0
 14
2301.7797783149858
 24
1290.139015055003
 34
0.0
1001
ACAD
1000
DSTYLE
1002
{
1070
   287
1070
     3
1070
    40
1040
15.0
1070
   143
1040
0.039
1070
   172
1070
     1
1070
   271
1070
     0
1070
   279
1070
     0
1002
}
  0
DIMENSION
  5
8427
  8
3
  2
*D17
 10
2357.7797783149858
 20
1177.7148588178311
 30
0.0
 11
2468.136921172129
 21
1215.2148588178311
 31
0.0
 70
     0
 13
2301.7797783149858
 23
1290.139015055003
 33
0.0
 14
2357.7797783149858
 24
1290.139015055003
 34
0.0
1001
ACAD
1000
DSTYLE
1002
{
1070
   287
1070
     3
1070
    40
1040
15.0
1070
   143
1040
0.039
1070
   172
1070
     1
1070
   271
1070
     0
1070
   279
1070
     0
1002
}
  0
DIMENSION
  5
8436
  8
3
  2
*D18
 10
585.420434664391
 20
1290.16208995446
 30
0.0
 11
547.92043466439065
 21
1178.7335185258889
 31
0.0
 70
     0
 13
758.61740682114851
 23
1330.162089954461
 33
0.0
 14
758.61740682114851
 24
1290.16208995446
 34
0.0
 50
90.0
1001
ACAD
1000
DSTYLE
1002
{
1070
   287
1070
     3
1070
    40
1040
15.0
1070
   143
1040
0.039
1070
   172
1070
     1
1070
   271
1070
     0
1070
   279
1070
     0
1070
     6
1000
DOT
1002
}
  0
DIMENSION
  5
8445
  8
3
  2
*D19
 10
585.420434664391
 20
1352.16208995446
 30
0.0
 11
513.63472037867666
 21
1341.16208995446
 31
0.0
 70
     0
 13
758.61740682114851
 23
1330.162089954461
 33
0.0
 14
758.61740682114851
 24
1352.16208995446
 34
0.0
 50
90.0
1001
ACAD
1000
DSTYLE
1002
{
1070
   172
1070
     1
1070
    40
1040
15.0
1070
     3
1000
(<>)
1070
   271
1070
     0
1070
     6
1000
_DOT
1070
   143
1040
0.039
1002
}
  0
DIMENSION
  5
8452
  8
3
  2
*D20
 10
438.03170036140182
 20
1290.16208995446
 30
0.0
 11
388.74598607568748
 21
1581.16208995446
 31
0.0
 70
     0
 13
929.6174068211476
 23
1872.162089954461
 33
0.0
 14
758.61740682114851
 24
1290.16208995446
 34
0.0
 50
90.0
1001
ACAD
1000
DSTYLE
1002
{
1070
   172
1070
     1
1070
    40
1040
15.0
1070
     3
1000
(<>)
1070
   271
1070
     0
1070
   143
1040
0.039
1002
}
  0
ENDSEC
  0
EOF
