  0
SECTION
  2
HEADER
  9
$ACADVER
  1
AC1009
  9
$INSBASE
 10
0.0
 20
0.0
 30
0.0
  9
$EXTMIN
 10
0.0
 20
0.0
 30
0.0
  9
$EXTMAX
 10
3150.0
 20
4425.0
 30
0.0
  9
$LIMMIN
 10
0.0
 20
0.0
  9
$LIMMAX
 10
297.0
 20
210.0
  9
$ORTHOMODE
 70
     0
  9
$REGENMODE
 70
     1
  9
$FILLMODE
 70
     0
  9
$QTEXTMODE
 70
     0
  9
$MIRRTEXT
 70
     1
  9
$DRAGMODE
 70
     2
  9
$LTSCALE
 40
100.0
  9
$OSMODE
 70
    37
  9
$ATTMODE
 70
     1
  9
$TEXTSIZE
 40
180.0
  9
$TRACEWID
 40
0.05
  9
$TEXTSTYLE
  7
STANDARD
  9
$CLAYER
  8
3
  9
$CELTYPE
  6
BYLAYER
  9
$CECOLOR
 62
   256
  9
$DIMSCALE
 40
15.0
  9
$DIMASZ
 40
2.0
  9
$DIMEXO
 40
0.5
  9
$DIMDLI
 40
10.0
  9
$DIMRND
 40
0.0
  9
$DIMDLE
 40
0.0
  9
$DIMEXE
 40
1.0
  9
$DIMTP
 40
1.0
  9
$DIMTM
 40
1.0
  9
$DIMTXT
 40
3.0
  9
$DIMCEN
 40
0.0
  9
$DIMTSZ
 40
0.0
  9
$DIMTOL
 70
     0
  9
$DIMLIM
 70
     0
  9
$DIMTIH
 70
     0
  9
$DIMTOH
 70
     0
  9
$DIMSE1
 70
     0
  9
$DIMSE2
 70
     0
  9
$DIMTAD
 70
     1
  9
$DIMZIN
 70
     8
  9
$DIMBLK
  1

  9
$DIMASO
 70
     1
  9
$DIMSHO
 70
     1
  9
$DIMPOST
  1

  9
$DIMAPOST
  1

  9
$DIMALT
 70
     0
  9
$DIMALTD
 70
     2
  9
$DIMALTF
 40
0.039
  9
$DIMLFAC
 40
1.0
  9
$DIMTOFL
 70
     1
  9
$DIMTVP
 40
0.0
  9
$DIMTIX
 70
     0
  9
$DIMSOXD
 70
     0
  9
$DIMSAH
 70
     1
  9
$DIMBLK1
  1
OPEN
  9
$DIMBLK2
  1
OPEN
  9
$DIMSTYLE
  2
IGA
  9
$DIMCLRD
 70
     0
  9
$DIMCLRE
 70
     0
  9
$DIMCLRT
 70
     0
  9
$DIMTFAC
 40
10.0
  9
$DIMGAP
 40
1.0
  9
$LUNITS
 70
     2
  9
$LUPREC
 70
     3
  9
$SKETCHINC
 40
0.1
  9
$FILLETRAD
 40
50.0
  9
$AUNITS
 70
     0
  9
$AUPREC
 70
     0
  9
$MENU
  1
acad
  9
$ELEVATION
 40
0.0
  9
$PELEVATION
 40
0.0
  9
$THICKNESS
 40
0.0
  9
$LIMCHECK
 70
     0
  9
$BLIPMODE
 70
     0
  9
$CHAMFERA
 40
0.5
  9
$CHAMFERB
 40
0.5
  9
$SKPOLY
 70
     0
  9
$TDCREATE
 40
2451936.4822356482
  9
$TDUPDATE
 40
2454953.7513662721
  9
$TDINDWG
 40
0.1864848727
  9
$TDUSRTIMER
 40
0.1864848727
  9
$USRTIMER
 70
     1
  9
$ANGBASE
 50
0.0
  9
$ANGDIR
 70
     0
  9
$PDMODE
 70
     0
  9
$PDSIZE
 40
0.0
  9
$PLINEWID
 40
0.0
  9
$COORDS
 70
     1
  9
$SPLFRAME
 70
     0
  9
$SPLINETYPE
 70
     6
  9
$SPLINESEGS
 70
     8
  9
$ATTDIA
 70
     0
  9
$ATTREQ
 70
     1
  9
$HANDLING
 70
 10241
  9
$HANDSEED
  5
8485
  9
$SURFTAB1
 70
     6
  9
$SURFTAB2
 70
     6
  9
$SURFTYPE
 70
     6
  9
$SURFU
 70
     6
  9
$SURFV
 70
     6
  9
$UCSNAME
  2

  9
$UCSORG
 10
0.0
 20
0.0
 30
0.0
  9
$UCSXDIR
 10
1.0
 20
0.0
 30
0.0
  9
$UCSYDIR
 10
0.0
 20
1.0
 30
0.0
  9
$PUCSNAME
  2

  9
$PUCSORG
 10
0.0
 20
0.0
 30
0.0
  9
$PUCSXDIR
 10
1.0
 20
0.0
 30
0.0
  9
$PUCSYDIR
 10
0.0
 20
1.0
 30
0.0
  9
$USERI1
 70
     0
  9
$USERI2
 70
     0
  9
$USERI3
 70
     0
  9
$USERI4
 70
     0
  9
$USERI5
 70
     0
  9
$USERR1
 40
0.0
  9
$USERR2
 40
0.0
  9
$USERR3
 40
0.0
  9
$USERR4
 40
0.0
  9
$USERR5
 40
0.0
  9
$WORLDVIEW
 70
     1
  9
$SHADEDGE
 70
     3
  9
$SHADEDIF
 70
    70
  9
$TILEMODE
 70
     1
  9
$MAXACTVP
 70
    16
  9
$PLIMCHECK
 70
     0
  9
$PEXTMIN
 10
1.0000000000000000E+020
 20
1.0000000000000000E+020
 30
1.0000000000000000E+020
  9
$PEXTMAX
 10
-1.0000000000000000E+020
 20
-1.0000000000000000E+020
 30
-1.0000000000000000E+020
  9
$PLIMMIN
 10
0.0
 20
0.0
  9
$PLIMMAX
 10
12.0
 20
9.0
  9
$UNITMODE
 70
     0
  9
$VISRETAIN
 70
     0
  9
$PLINEGEN
 70
     0
  9
$PSLTSCALE
 70
     1
  0
ENDSEC
  0
SECTION
  2
TABLES
  0
TABLE
  2
VPORT
 70
     2
  0
VPORT
  2
*ACTIVE
 70
     0
 10
0.0
 20
0.0
 11
1.0
 21
1.0
 12
5304.9149382770529
 22
2212.5000103027569
 13
0.0
 23
0.0
 14
10.0
 24
10.0
 15
10.0
 25
10.0
 16
0.0
 26
0.0
 36
1.0
 17
0.0
 27
0.0
 37
0.0
 40
4458.9223245254034
 41
3.1666666666666661
 42
50.0
 43
0.0
 44
0.0
 50
0.0
 51
0.0
 71
     0
 72
   100
 73
     1
 74
     0
 75
     0
 76
     0
 77
     0
 78
     0
  0
ENDTAB
  0
TABLE
  2
LTYPE
 70
     2
  0
LTYPE
  2
CONTINUOUS
 70
     0
  3
Solid line
 72
    65
 73
     0
 40
0.0
  0
LTYPE
  2
CENTER
 70
     0
  3
____ _ ____ _ ____ _ ____ _ ____ _ ____ _ ____ 
 72
    65
 73
     4
 40
2.0
 49
1.25
 49
-0.25
 49
0.25
 49
-0.25
  0
ENDTAB
  0
TABLE
  2
LAYER
 70
     6
  0
LAYER
  2
0
 70
     0
 62
     7
  6
CONTINUOUS
  0
LAYER
  2
3
 70
     0
 62
     2
  6
CONTINUOUS
  0
LAYER
  2
2
 70
     0
 62
     3
  6
CENTER
  0
LAYER
  2
1
 70
     0
 62
     4
  6
CONTINUOUS
  0
LAYER
  2
4
 70
     0
 62
     7
  6
CONTINUOUS
  0
LAYER
  2
DEFPOINTS
 70
     0
 62
     7
  6
CONTINUOUS
  0
ENDTAB
  0
TABLE
  2
STYLE
 70
     1
  0
STYLE
  2
STANDARD
 70
     0
 40
0.0
 41
1.0
 50
0.0
 71
     0
 42
180.0
  3
simplex.shx
  4
extfont.shx
  0
ENDTAB
  0
TABLE
  2
VIEW
 70
     0
  0
ENDTAB
  0
TABLE
  2
UCS
 70
     0
  0
ENDTAB
  0
TABLE
  2
APPID
 70
     1
  0
APPID
  2
ACAD
 70
     0
  0
ENDTAB
  0
TABLE
  2
DIMSTYLE
 70
     1
  0
DIMSTYLE
  2
IGA
 70
     0
  3

  4

  5

  6
OPEN
  7
OPEN
 40
2.0
 41
2.0
 42
0.5
 43
10.0
 44
1.0
 45
0.0
 46
0.0
 47
1.0
 48
1.0
140
3.0
141
0.0
142
0.0
143
0.03937
144
1.0
145
0.0
146
10.0
147
1.0
 71
     0
 72
     0
 73
     0
 74
     0
 75
     0
 76
     0
 77
     1
 78
     8
170
     0
171
     2
172
     0
173
     1
174
     0
175
     0
176
     0
177
     0
178
     0
  0
ENDTAB
  0
ENDSEC
  0
SECTION
  2
BLOCKS
  0
BLOCK
  8
0
  2
$MODEL_SPACE
 70
     0
 10
0.0
 20
0.0
 30
0.0
  3
$MODEL_SPACE
  1

  0
ENDBLK
  5
1B
  8
0
  0
BLOCK
 67
     1
  8
0
  2
$PAPER_SPACE
 70
     0
 10
0.0
 20
0.0
 30
0.0
  3
$PAPER_SPACE
  1

  0
ENDBLK
  5
18
 67
     1
  8
0
  0
BLOCK
  8
0
  2
_OPEN
 70
     0
 10
0.0
 20
0.0
 30
0.0
  3
_OPEN
  1

  0
LINE
  5
79FD
  8
0
  6
BYBLOCK
 62
     0
 10
-1.0
 20
0.1666666666666666
 30
0.0
 11
0.0
 21
0.0
 31
0.0
  0
LINE
  5
79FE
  8
0
  6
BYBLOCK
 62
     0
 10
0.0
 20
0.0
 30
0.0
 11
-1.0
 21
-0.1666666666666666
 31
0.0
  0
LINE
  5
79FF
  8
0
  6
BYBLOCK
 62
     0
 10
0.0
 20
0.0
 30
0.0
 11
-1.0
 21
0.0
 31
0.0
  0
ENDBLK
  5
7A01
  8
0
  0
BLOCK
  8
0
  2
_DOT
 70
     0
 10
0.0
 20
0.0
 30
0.0
  3
_DOT
  1

  0
LINE
  5
8271
  8
0
  6
BYBLOCK
 62
     0
 10
0.0
 20
0.0
 30
0.0
 11
-1.0
 21
-0.0000000000000284
 31
0.0
  0
POLYLINE
  5
8272
  8
0
  6
BYBLOCK
 62
     0
 66
     1
 10
0.0
 20
0.0
 30
0.0
 70
     1
 40
0.1666666666666666
 41
0.1666666666666666
  0
VERTEX
  5
8446
  8
0
  6
BYBLOCK
 62
     0
 10
-0.0833333333333286
 20
-0.0000000000000284
 30
0.0
 42
1.0
  0
VERTEX
  5
8447
  8
0
  6
BYBLOCK
 62
     0
 10
0.0833333333333286
 20
-0.0000000000000284
 30
0.0
 42
1.0
  0
SEQEND
  5
8448
  8
0
  6
BYBLOCK
 62
     0
  0
ENDBLK
  5
7AB1
  8
0
  0
BLOCK
  8
0
  2
*D2
 70
     1
 10
0.0
 20
0.0
 30
0.0
  3
*D2
  1

  0
LINE
  5
81F6
  8
0
  6
BYBLOCK
 62
     0
 10
2433.5103709521868
 20
1781.6467734319549
 30
0.0
 11
2433.5103709521868
 21
1867.762779119543
 31
0.0
  0
LINE
  5
81F7
  8
0
  6
BYBLOCK
 62
     0
 10
2613.5103709521868
 20
1783.310590922503
 30
0.0
 11
2613.5103709521868
 21
1867.762779119543
 31
0.0
  0
LINE
  5
81F8
  8
0
  6
BYBLOCK
 62
     0
 10
2463.5103709521868
 20
1852.7627791195439
 30
0.0
 11
2583.5103709521868
 21
1852.7627791195439
 31
0.0
  0
TEXT
  5
81F9
  8
3
 62
     0
 10
2469.9389423807588
 20
1865.348995678683
 30
0.0
 40
45.0
  1
180
  0
INSERT
  5
81FA
  8
0
  6
BYBLOCK
 62
     0
  2
_OPEN
 10
2433.5103709521868
 20
1852.7627791195439
 30
0.0
 41
30.0
 42
30.0
 43
30.0
 50
180.0
  0
INSERT
  5
81FB
  8
0
  6
BYBLOCK
 62
     0
  2
_OPEN
 10
2613.5103709521868
 20
1852.7627791195439
 30
0.0
 41
30.0
 42
30.0
 43
30.0
  0
POINT
  5
81FC
  8
DEFPOINTS
  6
BYBLOCK
 62
     0
 10
2433.5103709521868
 20
1774.1467734319549
 30
0.0
  0
POINT
  5
81FD
  8
DEFPOINTS
  6
BYBLOCK
 62
     0
 10
2613.5103709521868
 20
1775.8105909225019
 30
0.0
  0
POINT
  5
81FE
  8
DEFPOINTS
  6
BYBLOCK
 62
     0
 10
2613.5103709521868
 20
1852.7627791195439
 30
0.0
  0
ENDBLK
  5
81FF
  8
0
  0
BLOCK
  8
0
  2
*D3
 70
     1
 10
0.0
 20
0.0
 30
0.0
  3
*D3
  1

  0
LINE
  5
83F1
  8
3
 62
     0
 10
1342.704108809442
 20
3065.4415261527001
 30
0.0
 11
1463.2706187181241
 21
3065.4415261527001
 31
0.0
  0
LINE
  5
83F2
  8
3
 62
     0
 10
1342.704108809442
 20
2620.4415261527001
 30
0.0
 11
1463.2706187181241
 21
2620.4415261527001
 31
0.0
  0
LINE
  5
83F3
  8
3
 62
     0
 10
1448.2706187181241
 20
3035.4415261527001
 30
0.0
 11
1448.2706187181241
 21
2650.4415261527001
 31
0.0
  0
INSERT
  5
83F4
  8
3
 62
     0
  2
_OPEN
 10
1448.2706187181241
 20
3065.4415261527001
 30
0.0
 41
30.0
 42
30.0
 43
30.0
 50
90.0
  0
INSERT
  5
83F5
  8
3
 62
     0
  2
_OPEN
 10
1448.2706187181241
 20
2620.4415261527001
 30
0.0
 41
30.0
 42
30.0
 43
30.0
 50
270.0
  0
TEXT
  8
3
  40
45
  5
8478
  62
0
  72
0
  71
0
 10
1320.77
 20
2763.29
 30
0.000000
  1
445
  0
POINT
  5
83F7
  8
DEFPOINTS
 62
     0
 10
1335.204108809442
 20
3065.4415261527001
 30
0.0
  0
POINT
  5
83F8
  8
DEFPOINTS
 62
     0
 10
1335.204108809442
 20
2620.4415261527001
 30
0.0
  0
POINT
  5
83F9
  8
DEFPOINTS
 62
     0
 10
1448.2706187181241
 20
2620.4415261527001
 30
0.0
  0
ENDBLK
  5
8328
  8
0
  0
BLOCK
  8
0
  2
*D4
 70
     1
 10
0.0
 20
0.0
 30
0.0
  3
*D4
  1

  0
LINE
  5
83FA
  8
3
 62
     0
 10
635.20410880944235
 20
2612.9415261527001
 30
0.0
 11
635.20410880944235
 21
2460.9869213050588
 31
0.0
  0
LINE
  5
83FB
  8
3
 62
     0
 10
1335.204108809442
 20
2612.9415261527001
 30
0.0
 11
1335.204108809442
 21
2460.9869213050588
 31
0.0
  0
LINE
  5
83FC
  8
3
 62
     0
 10
665.20410880944235
 20
2475.9869213050588
 30
0.0
 11
1305.204108809442
 21
2475.9869213050588
 31
0.0
  0
INSERT
  5
83FD
  8
3
 62
     0
  2
_OPEN
 10
635.20410880944235
 20
2475.9869213050588
 30
0.0
 41
30.0
 42
30.0
 43
30.0
 50
180.0
  0
INSERT
  5
83FE
  8
3
 62
     0
  2
_OPEN
 10
1335.204108809442
 20
2475.9869213050588
 30
0.0
 41
30.0
 42
30.0
 43
30.0
  0
TEXT
  8
3
  40
45
  5
8479
  62
0
  72
0
  71
0
 10
895.204
 20
2433.84
 30
0.000000
  1
700
  0
POINT
  5
8400
  8
DEFPOINTS
 62
     0
 10
635.20410880944235
 20
2620.4415261527001
 30
0.0
  0
POINT
  5
8401
  8
DEFPOINTS
 62
     0
 10
1335.204108809442
 20
2620.4415261527001
 30
0.0
  0
POINT
  5
8402
  8
DEFPOINTS
 62
     0
 10
1335.204108809442
 20
2475.9869213050588
 30
0.0
  0
ENDBLK
  5
8341
  8
0
  0
BLOCK
  8
0
  2
*D5
 70
     1
 10
0.0
 20
0.0
 30
0.0
  3
*D5
  1

  0
LINE
  5
8406
  8
3
 62
     0
 10
897.20410880944246
 20
1814.5647475178851
 30
0.0
 11
897.20410880944246
 21
1881.2537746022199
 31
0.0
  0
LINE
  5
8407
  8
3
 62
     0
 10
1137.204108809442
 20
1814.5647475178851
 30
0.0
 11
1137.204108809442
 21
1881.2537746022199
 31
0.0
  0
LINE
  5
8408
  8
3
 62
     0
 10
927.20410880944235
 20
1866.2537746022199
 30
0.0
 11
1107.204108809442
 21
1866.2537746022199
 31
0.0
  0
INSERT
  5
8409
  8
3
 62
     0
  2
_OPEN
 10
897.20410880944246
 20
1866.2537746022199
 30
0.0
 41
30.0
 42
30.0
 43
30.0
 50
180.0
  0
INSERT
  5
840A
  8
3
 62
     0
  2
_OPEN
 10
1137.204108809442
 20
1866.2537746022199
 30
0.0
 41
30.0
 42
30.0
 43
30.0
  0
TEXT
  8
3
  40
45
  5
847A
  62
0
  72
0
  71
0
 10
927.204
 20
1824.10
 30
0.000000
  1
240
  0
POINT
  5
840C
  8
DEFPOINTS
 62
     0
 10
897.20410880944246
 20
1807.064747517886
 30
0.0
  0
POINT
  5
840D
  8
DEFPOINTS
 62
     0
 10
1137.204108809442
 20
1807.064747517886
 30
0.0
  0
POINT
  5
840E
  8
DEFPOINTS
 62
     0
 10
1137.204108809442
 20
1866.2537746022199
 30
0.0
  0
ENDBLK
  5
80DD
  8
0
  0
BLOCK
  8
0
  2
*D6
 70
     1
 10
0.0
 20
0.0
 30
0.0
  3
*D6
  1

  0
LINE
  5
840F
  8
3
 62
     0
 10
897.20410880944246
 20
1814.5647475178851
 30
0.0
 11
897.20410880944246
 21
1960.2986724813561
 31
0.0
  0
LINE
  5
8410
  8
3
 62
     0
 10
1135.204108809442
 20
1876.7990389734589
 30
0.0
 11
1135.204108809442
 21
1960.2986724813561
 31
0.0
  0
LINE
  5
8411
  8
3
 62
     0
 10
927.20410880944235
 20
1945.2986724813561
 30
0.0
 11
1105.2041088094411
 21
1945.2986724813561
 31
0.0
  0
INSERT
  5
8412
  8
3
 62
     0
  2
_OPEN
 10
897.20410880944246
 20
1945.2986724813561
 30
0.0
 41
30.0
 42
30.0
 43
30.0
 50
180.0
  0
INSERT
  5
8413
  8
3
 62
     0
  2
_OPEN
 10
1135.204108809442
 20
1945.2986724813561
 30
0.0
 41
30.0
 42
30.0
 43
30.0
  0
TEXT
  8
3
  40
45
  5
847B
  62
0
  72
0
  71
0
 10
926.204
 20
1903.15
 30
0.000000
  1
238
  0
POINT
  5
8415
  8
DEFPOINTS
 62
     0
 10
897.20410880944246
 20
1807.064747517886
 30
0.0
  0
POINT
  5
8416
  8
DEFPOINTS
 62
     0
 10
1135.204108809442
 20
1869.299038973458
 30
0.0
  0
POINT
  5
8417
  8
DEFPOINTS
 62
     0
 10
1135.204108809442
 20
1945.2986724813561
 30
0.0
  0
ENDBLK
  5
8116
  8
0
  0
BLOCK
  8
0
  2
*D7
 70
     1
 10
0.0
 20
0.0
 30
0.0
  3
*D7
  1

  0
LINE
  5
8418
  8
3
 62
     0
 10
1393.3470888846621
 20
1607.064747517886
 30
0.0
 11
1501.0185545895849
 21
1607.064747517886
 31
0.0
  0
LINE
  5
8419
  8
3
 62
     0
 10
1342.704108809442
 20
1287.0647475178851
 30
0.0
 11
1501.0185545895849
 21
1287.0647475178851
 31
0.0
  0
LINE
  5
841A
  8
3
 62
     0
 10
1486.0185545895861
 20
1577.0647475178851
 30
0.0
 11
1486.0185545895849
 21
1317.0647475178851
 31
0.0
  0
INSERT
  5
841B
  8
3
 62
     0
  2
_OPEN
 10
1486.0185545895861
 20
1607.064747517886
 30
0.0
 41
30.0
 42
30.0
 43
30.0
 50
90.0
  0
INSERT
  5
841C
  8
3
 62
     0
  2
_OPEN
 10
1486.0185545895849
 20
1287.0647475178851
 30
0.0
 41
30.0
 42
30.0
 43
30.0
 50
270.0
  0
TEXT
  8
3
  40
45
  5
847C
  62
0
  72
0
  71
0
 10
1358.52
 20
1367.41
 30
0.000000
  1
320
  0
POINT
  5
841E
  8
DEFPOINTS
 62
     0
 10
1385.8470888846621
 20
1607.064747517886
 30
0.0
  0
POINT
  5
841F
  8
DEFPOINTS
 62
     0
 10
1335.204108809442
 20
1287.0647475178851
 30
0.0
  0
POINT
  5
8420
  8
DEFPOINTS
 62
     0
 10
1486.0185545895849
 20
1287.0647475178851
 30
0.0
  0
ENDBLK
  5
80A0
  8
0
  0
BLOCK
  8
0
  2
*D8
 70
     1
 10
0.0
 20
0.0
 30
0.0
  3
*D8
  1

  0
LINE
  5
81D5
  8
0
  6
BYBLOCK
 62
     0
 10
2616.5103709521868
 20
1783.310590922503
 30
0.0
 11
2616.5103709521868
 21
1992.0547992961151
 31
0.0
  0
LINE
  5
81D6
  8
0
  6
BYBLOCK
 62
     0
 10
2523.5103709521868
 20
1921.6429454589149
 30
0.0
 11
2523.5103709521868
 21
1992.0547992961151
 31
0.0
  0
LINE
  5
81D7
  8
0
  6
BYBLOCK
 62
     0
 10
2586.5103709521868
 20
1977.0547992961151
 30
0.0
 11
2553.5103709521868
 21
1977.0547992961151
 31
0.0
  0
TEXT
  5
81D8
  8
3
 62
     0
 10
2532.5103709521868
 20
2014.5547992961151
 30
0.0
 40
45.0
  1
94
  0
INSERT
  5
81D9
  8
0
  6
BYBLOCK
 62
     0
  2
_OPEN
 10
2616.5103709521868
 20
1977.0547992961151
 30
0.0
 41
30.0
 42
30.0
 43
30.0
  0
INSERT
  5
81DA
  8
0
  6
BYBLOCK
 62
     0
  2
_OPEN
 10
2523.5103709521868
 20
1977.0547992961151
 30
0.0
 41
30.0
 42
30.0
 43
30.0
 50
180.0
  0
POINT
  5
81DB
  8
DEFPOINTS
  6
BYBLOCK
 62
     0
 10
2616.5103709521868
 20
1775.8105909225019
 30
0.0
  0
POINT
  5
81DC
  8
DEFPOINTS
  6
BYBLOCK
 62
     0
 10
2523.5103709521868
 20
1914.1429454589149
 30
0.0
  0
POINT
  5
81DD
  8
DEFPOINTS
  6
BYBLOCK
 62
     0
 10
2523.5103709521868
 20
1977.0547992961151
 30
0.0
  0
ENDBLK
  5
81DE
  8
0
  0
BLOCK
  8
0
  2
*D9
 70
     1
 10
0.0
 20
0.0
 30
0.0
  3
*D9
  1

  0
LINE
  5
8421
  8
3
 62
     0
 10
2523.5103709521868
 20
1921.6429454589149
 30
0.0
 11
2523.5103709521868
 21
1992.0547992961151
 31
0.0
  0
LINE
  5
8422
  8
3
 62
     0
 10
1995.749305764281
 20
1707.110377821673
 30
0.0
 11
1995.749305764281
 21
1992.0547992961151
 31
0.0
  0
LINE
  5
8423
  8
3
 62
     0
 10
2493.5103709521868
 20
1977.0547992961151
 30
0.0
 11
2025.749305764281
 21
1977.0547992961151
 31
0.0
  0
INSERT
  5
8424
  8
3
 62
     0
  2
_OPEN
 10
2523.5103709521868
 20
1977.0547992961151
 30
0.0
 41
30.0
 42
30.0
 43
30.0
  0
INSERT
  5
8425
  8
3
 62
     0
  2
_OPEN
 10
1995.749305764281
 20
1977.0547992961151
 30
0.0
 41
30.0
 42
30.0
 43
30.0
 50
180.0
  0
TEXT
  8
3
  40
45
  5
847D
  62
0
  72
0
  71
0
 10
2169.63
 20
1972.40
 30
0.000000
  1
MAX
  0
TEXT
  8
3
  40
45
  5
847E
  62
0
  72
0
  71
0
 10
2169.63
 20
1913.90
 30
0.000000
  1
600
  0
POINT
  5
8427
  8
DEFPOINTS
 62
     0
 10
2523.5103709521868
 20
1914.1429454589149
 30
0.0
  0
POINT
  5
8428
  8
DEFPOINTS
 62
     0
 10
1995.749305764281
 20
1699.610377821672
 30
0.0
  0
POINT
  5
8429
  8
DEFPOINTS
 62
     0
 10
1995.749305764281
 20
1977.0547992961151
 30
0.0
  0
ENDBLK
  5
82A3
  8
0
  0
BLOCK
  8
0
  2
*D10
 70
     1
 10
0.0
 20
0.0
 30
0.0
  3
*D10
  1

  0
LINE
  5
8152
  8
0
  6
BYBLOCK
 62
     0
 10
1171.7041088094429
 20
1807.064747517886
 30
0.0
 11
1501.3154320615431
 21
1807.064747517886
 31
0.0
  0
LINE
  5
8153
  8
0
  6
BYBLOCK
 62
     0
 10
1393.3470888846621
 20
1607.064747517886
 30
0.0
 11
1501.3154320615431
 21
1607.064747517886
 31
0.0
  0
LINE
  5
8154
  8
0
  6
BYBLOCK
 62
     0
 10
1486.3154320615431
 20
1777.064747517886
 30
0.0
 11
1486.3154320615431
 21
1637.0647475178851
 31
0.0
  0
TEXT
  5
8155
  8
3
 62
     0
 10
1464.543941045205
 20
1649.2076046607431
 30
0.0
 40
45.0
  1
200
 50
90.0
  0
INSERT
  5
8156
  8
0
  6
BYBLOCK
 62
     0
  2
_OPEN
 10
1486.3154320615431
 20
1807.064747517886
 30
0.0
 41
30.0
 42
30.0
 43
30.0
 50
90.0
  0
INSERT
  5
8157
  8
0
  6
BYBLOCK
 62
     0
  2
_OPEN
 10
1486.3154320615431
 20
1607.064747517886
 30
0.0
 41
30.0
 42
30.0
 43
30.0
 50
270.0
  0
POINT
  5
8158
  8
DEFPOINTS
  6
BYBLOCK
 62
     0
 10
1164.204108809442
 20
1807.064747517886
 30
0.0
  0
POINT
  5
8159
  8
DEFPOINTS
  6
BYBLOCK
 62
     0
 10
1385.8470888846621
 20
1607.064747517886
 30
0.0
  0
POINT
  5
815A
  8
DEFPOINTS
  6
BYBLOCK
 62
     0
 10
1486.3154320615431
 20
1607.064747517886
 30
0.0
  0
ENDBLK
  5
815B
  8
0
  0
BLOCK
  8
0
  2
*D11
 70
     1
 10
0.0
 20
0.0
 30
0.0
  3
*D11
  1

  0
LINE
  5
813C
  8
0
  6
BYBLOCK
 62
     0
 10
1135.204108809442
 20
1876.7990389734589
 30
0.0
 11
1135.204108809442
 21
1960.2986724813561
 31
0.0
  0
LINE
  5
813D
  8
0
  6
BYBLOCK
 62
     0
 10
1312.204108809442
 20
1600.5647475178839
 30
0.0
 11
1312.204108809442
 21
1960.2986724813561
 31
0.0
  0
LINE
  5
813E
  8
0
  6
BYBLOCK
 62
     0
 10
1165.204108809442
 20
1945.2986724813561
 30
0.0
 11
1282.2041088094429
 21
1945.2986724813561
 31
0.0
  0
TEXT
  5
813F
  8
3
 62
     0
 10
1170.132680238014
 20
1958.0794764187449
 30
0.0
 40
45.0
  1
177
  0
INSERT
  5
8140
  8
0
  6
BYBLOCK
 62
     0
  2
_OPEN
 10
1135.204108809442
 20
1945.2986724813561
 30
0.0
 41
30.0
 42
30.0
 43
30.0
 50
180.0
  0
INSERT
  5
8141
  8
0
  6
BYBLOCK
 62
     0
  2
_OPEN
 10
1312.204108809442
 20
1945.2986724813561
 30
0.0
 41
30.0
 42
30.0
 43
30.0
  0
POINT
  5
8142
  8
DEFPOINTS
  6
BYBLOCK
 62
     0
 10
1135.204108809442
 20
1869.299038973458
 30
0.0
  0
POINT
  5
8143
  8
DEFPOINTS
  6
BYBLOCK
 62
     0
 10
1312.204108809442
 20
1593.0647475178839
 30
0.0
  0
POINT
  5
8144
  8
DEFPOINTS
  6
BYBLOCK
 62
     0
 10
1312.204108809442
 20
1945.2986724813561
 30
0.0
  0
ENDBLK
  5
8145
  8
0
  0
BLOCK
  8
0
  2
*D12
 70
     1
 10
0.0
 20
0.0
 30
0.0
  3
*D12
  1

  0
LINE
  5
842A
  8
3
 62
     0
 10
1312.204108809442
 20
1600.5647475178839
 30
0.0
 11
1312.204108809442
 21
2052.0617740576599
 31
0.0
  0
LINE
  5
842B
  8
3
 62
     0
 10
635.20410880944155
 20
1334.5647475178851
 30
0.0
 11
635.20410880944155
 21
2052.0617740576599
 31
0.0
  0
LINE
  5
842C
  8
3
 62
     0
 10
1282.2041088094429
 20
2037.0617740576611
 30
0.0
 11
665.20410880944155
 21
2037.0617740576611
 31
0.0
  0
INSERT
  5
842D
  8
3
 62
     0
  2
_OPEN
 10
1312.204108809442
 20
2037.0617740576611
 30
0.0
 41
30.0
 42
30.0
 43
30.0
  0
INSERT
  5
842E
  8
3
 62
     0
  2
_OPEN
 10
635.20410880944155
 20
2037.0617740576611
 30
0.0
 41
30.0
 42
30.0
 43
30.0
 50
180.0
  0
TEXT
  8
3
  40
45
  5
847F
  62
0
  72
0
  71
0
 10
883.704
 20
1994.91
 30
0.000000
  1
677
  0
POINT
  5
8430
  8
DEFPOINTS
 62
     0
 10
1312.204108809442
 20
1593.0647475178839
 30
0.0
  0
POINT
  5
8431
  8
DEFPOINTS
 62
     0
 10
635.20410880944155
 20
1327.0647475178851
 30
0.0
  0
POINT
  5
8432
  8
DEFPOINTS
 62
     0
 10
635.20410880944155
 20
2037.0617740576611
 30
0.0
  0
ENDBLK
  5
812F
  8
0
  0
BLOCK
  8
0
  2
*D13
 70
     1
 10
0.0
 20
0.0
 30
0.0
  3
*D13
  1

  0
LINE
  5
828F
  8
0
  6
BYBLOCK
 62
     0
 10
2650.0103709521882
 20
1734.0416726184269
 30
0.0
 11
2757.2126451781328
 21
1734.0416726184269
 31
0.0
  0
LINE
  5
8290
  8
0
  6
BYBLOCK
 62
     0
 10
2650.0103709521882
 20
1480.0416726184269
 30
0.0
 11
2757.2126451781328
 21
1480.0416726184269
 31
0.0
  0
LINE
  5
8291
  8
0
  6
BYBLOCK
 62
     0
 10
2742.2126451781328
 20
1704.0416726184269
 30
0.0
 11
2742.2126451781328
 21
1510.0416726184269
 31
0.0
  0
TEXT
  5
8292
  8
3
 62
     0
 10
2729.0571774019149
 20
1525.613101189856
 30
0.0
 40
45.0
  1
φ254
 50
90.0
  0
INSERT
  5
8293
  8
0
  6
BYBLOCK
 62
     0
  2
_OPEN
 10
2742.2126451781328
 20
1734.0416726184269
 30
0.0
 41
30.0
 42
30.0
 43
30.0
 50
90.0
  0
INSERT
  5
8294
  8
0
  6
BYBLOCK
 62
     0
  2
_OPEN
 10
2742.2126451781328
 20
1480.0416726184269
 30
0.0
 41
30.0
 42
30.0
 43
30.0
 50
270.0
  0
POINT
  5
8295
  8
DEFPOINTS
  6
BYBLOCK
 62
     0
 10
2642.5103709521882
 20
1734.0416726184269
 30
0.0
  0
POINT
  5
8296
  8
DEFPOINTS
  6
BYBLOCK
 62
     0
 10
2642.5103709521882
 20
1480.0416726184269
 30
0.0
  0
POINT
  5
8297
  8
DEFPOINTS
  6
BYBLOCK
 62
     0
 10
2742.2126451781328
 20
1480.0416726184269
 30
0.0
  0
ENDBLK
  5
8298
  8
0
  0
BLOCK
  8
0
  2
*D14
 70
     1
 10
0.0
 20
0.0
 30
0.0
  3
*D14
  1

  0
LINE
  5
8449
  8
3
 62
     0
 10
635.20410880944155
 20
1279.5647475178851
 30
0.0
 11
635.20410880944155
 21
1152.7706387350479
 31
0.0
  0
LINE
  5
844A
  8
3
 62
     0
 10
1135.204108809442
 20
1279.5647475178851
 30
0.0
 11
1135.204108809442
 21
1152.7706387350479
 31
0.0
  0
LINE
  5
844B
  8
3
 62
     0
 10
665.20410880944155
 20
1167.7706387350479
 30
0.0
 11
1105.2041088094411
 21
1167.7706387350479
 31
0.0
  0
INSERT
  5
844C
  8
3
 62
     0
  2
_OPEN
 10
635.20410880944155
 20
1167.7706387350479
 30
0.0
 41
30.0
 42
30.0
 43
30.0
 50
180.0
  0
INSERT
  5
844D
  8
3
 62
     0
  2
_OPEN
 10
1135.204108809442
 20
1167.7706387350479
 30
0.0
 41
30.0
 42
30.0
 43
30.0
  0
TEXT
  8
3
  40
45
  5
8480
  62
0
  72
0
  71
0
 10
795.204
 20
1125.62
 30
0.000000
  1
500
  0
POINT
  5
844F
  8
DEFPOINTS
 62
     0
 10
635.20410880944155
 20
1287.0647475178851
 30
0.0
  0
POINT
  5
8450
  8
DEFPOINTS
 62
     0
 10
1135.204108809442
 20
1287.0647475178851
 30
0.0
  0
POINT
  5
8451
  8
DEFPOINTS
 62
     0
 10
1135.204108809442
 20
1167.7706387350479
 30
0.0
  0
ENDBLK
  5
838F
  8
0
  0
BLOCK
  8
0
  2
*D15
 70
     1
 10
0.0
 20
0.0
 30
0.0
  3
*D15
  1

  0
LINE
  5
8452
  8
3
 62
     0
 10
1135.204108809442
 20
1279.5647475178851
 30
0.0
 11
1135.204108809442
 21
1152.7706387350479
 31
0.0
  0
LINE
  5
8453
  8
3
 62
     0
 10
1335.204108809442
 20
1279.5647475178851
 30
0.0
 11
1335.204108809442
 21
1152.7706387350479
 31
0.0
  0
LINE
  5
8454
  8
3
 62
     0
 10
1165.204108809442
 20
1167.7706387350479
 30
0.0
 11
1305.204108809442
 21
1167.7706387350479
 31
0.0
  0
INSERT
  5
8455
  8
3
 62
     0
  2
_OPEN
 10
1135.204108809442
 20
1167.7706387350479
 30
0.0
 41
30.0
 42
30.0
 43
30.0
 50
180.0
  0
INSERT
  5
8456
  8
3
 62
     0
  2
_OPEN
 10
1335.204108809442
 20
1167.7706387350479
 30
0.0
 41
30.0
 42
30.0
 43
30.0
  0
TEXT
  8
3
  40
45
  5
8481
  62
0
  72
0
  71
0
 10
1145.20
 20
1125.62
 30
0.000000
  1
200
  0
POINT
  5
8458
  8
DEFPOINTS
 62
     0
 10
1135.204108809442
 20
1287.0647475178851
 30
0.0
  0
POINT
  5
8459
  8
DEFPOINTS
 62
     0
 10
1335.204108809442
 20
1287.0647475178851
 30
0.0
  0
POINT
  5
845A
  8
DEFPOINTS
 62
     0
 10
1335.204108809442
 20
1167.7706387350479
 30
0.0
  0
ENDBLK
  5
839E
  8
0
  0
BLOCK
  8
0
  2
*D16
 70
     1
 10
0.0
 20
0.0
 30
0.0
  3
*D16
  1

  0
LINE
  5
845B
  8
3
 62
     0
 10
2022.510370952187
 20
1279.5416726184269
 30
0.0
 11
2022.510370952187
 21
1152.7706387350479
 31
0.0
  0
LINE
  5
845C
  8
3
 62
     0
 10
2467.5103709521868
 20
1279.5416726184269
 30
0.0
 11
2467.5103709521868
 21
1152.7706387350479
 31
0.0
  0
LINE
  5
845D
  8
3
 62
     0
 10
2052.5103709521868
 20
1167.7706387350479
 30
0.0
 11
2437.5103709521868
 21
1167.7706387350479
 31
0.0
  0
INSERT
  5
845E
  8
3
 62
     0
  2
_OPEN
 10
2022.510370952187
 20
1167.7706387350479
 30
0.0
 41
30.0
 42
30.0
 43
30.0
 50
180.0
  0
INSERT
  5
845F
  8
3
 62
     0
  2
_OPEN
 10
2467.5103709521868
 20
1167.7706387350479
 30
0.0
 41
30.0
 42
30.0
 43
30.0
  0
TEXT
  8
3
  40
45
  5
8482
  62
0
  72
0
  71
0
 10
2155.01
 20
1125.62
 30
0.000000
  1
445
  0
POINT
  5
8461
  8
DEFPOINTS
 62
     0
 10
2022.510370952187
 20
1287.0416726184269
 30
0.0
  0
POINT
  5
8462
  8
DEFPOINTS
 62
     0
 10
2467.5103709521868
 20
1287.0416726184269
 30
0.0
  0
POINT
  5
8463
  8
DEFPOINTS
 62
     0
 10
2467.5103709521868
 20
1167.7706387350479
 30
0.0
  0
ENDBLK
  5
83AB
  8
0
  0
BLOCK
  8
0
  2
*D17
 70
     1
 10
0.0
 20
0.0
 30
0.0
  3
*D17
  1

  0
LINE
  5
8464
  8
3
 62
     0
 10
2467.5103709521868
 20
1279.5416726184269
 30
0.0
 11
2467.5103709521868
 21
1152.7706387350479
 31
0.0
  0
LINE
  5
8465
  8
3
 62
     0
 10
2523.5103709521868
 20
1279.5416726184269
 30
0.0
 11
2523.5103709521868
 21
1152.7706387350479
 31
0.0
  0
LINE
  5
8466
  8
3
 62
     0
 10
2437.5103709521868
 20
1167.7706387350479
 30
0.0
 11
2407.5103709521868
 21
1167.7706387350479
 31
0.0
  0
LINE
  5
8467
  8
3
 62
     0
 10
2553.5103709521868
 20
1167.7706387350479
 30
0.0
 11
2684.224656666473
 21
1167.7706387350479
 31
0.0
  0
LINE
  5
8468
  8
3
 62
     0
 10
2467.5103709521868
 20
1167.7706387350479
 30
0.0
 11
2523.5103709521868
 21
1167.7706387350479
 31
0.0
  0
INSERT
  5
8469
  8
3
 62
     0
  2
_OPEN
 10
2467.5103709521868
 20
1167.7706387350479
 30
0.0
 41
30.0
 42
30.0
 43
30.0
  0
INSERT
  5
846A
  8
3
 62
     0
  2
_OPEN
 10
2523.5103709521868
 20
1167.7706387350479
 30
0.0
 41
30.0
 42
30.0
 43
30.0
 50
180.0
  0
TEXT
  8
3
  40
45
  5
8483
  62
0
  72
0
  71
0
 10
2543.87
 20
1125.62
 30
0.000000
  1
56
  0
POINT
  5
846C
  8
DEFPOINTS
 62
     0
 10
2467.5103709521868
 20
1287.0416726184269
 30
0.0
  0
POINT
  5
846D
  8
DEFPOINTS
 62
     0
 10
2523.5103709521868
 20
1287.0416726184269
 30
0.0
  0
POINT
  5
846E
  8
DEFPOINTS
 62
     0
 10
2523.5103709521868
 20
1167.7706387350479
 30
0.0
  0
ENDBLK
  5
83BA
  8
0
  0
BLOCK
  8
0
  2
*D18
 70
     1
 10
0.0
 20
0.0
 30
0.0
  3
*D18
  1

  0
LINE
  5
846F
  8
3
 62
     0
 10
1171.7041088094429
 20
1807.064747517886
 30
0.0
 11
1617.3531802596019
 21
1807.0647475178851
 31
0.0
  0
LINE
  5
8470
  8
3
 62
     0
 10
1342.704108809442
 20
1287.0647475178851
 30
0.0
 11
1617.3531802596019
 21
1287.0647475178839
 31
0.0
  0
LINE
  5
8471
  8
3
 62
     0
 10
1602.3531802596019
 20
1777.0647475178851
 30
0.0
 11
1602.3531802596019
 21
1317.0647475178839
 31
0.0
  0
INSERT
  5
8472
  8
3
 62
     0
  2
_OPEN
 10
1602.3531802596019
 20
1807.0647475178851
 30
0.0
 41
30.0
 42
30.0
 43
30.0
 50
90.0
  0
INSERT
  5
8473
  8
3
 62
     0
  2
_OPEN
 10
1602.3531802596019
 20
1287.0647475178839
 30
0.0
 41
30.0
 42
30.0
 43
30.0
 50
270.0
  0
TEXT
  8
3
  40
45
  5
8484
  62
0
  72
0
  71
0
 10
1474.85
 20
1467.41
 30
0.000000
  1
520
  0
POINT
  5
8475
  8
DEFPOINTS
 62
     0
 10
1164.204108809442
 20
1807.064747517886
 30
0.0
  0
POINT
  5
8476
  8
DEFPOINTS
 62
     0
 10
1335.204108809442
 20
1287.0647475178851
 30
0.0
  0
POINT
  5
8477
  8
DEFPOINTS
 62
     0
 10
1602.3531802596019
 20
1287.0647475178839
 30
0.0
  0
ENDBLK
  5
83C7
  8
0
  0
ENDSEC
  0
SECTION
  2
ENTITIES
  0
LINE
  5
7C41
  8
2
 10
851.90984036043028
 20
1607.0647475178851
 30
0.0
 11
1385.8470888846621
 21
1607.064747517886
 31
0.0
  0
LINE
  5
7C42
  8
2
 10
1135.204108809442
 20
1857.862429259307
 30
0.0
 11
1135.204108809442
 21
1287.0647475178851
 31
0.0
  0
LINE
  5
7C43
  8
1
 10
756.36630427829266
 20
1506.0574477985531
 30
0.0
 11
1099.504958297226
 21
1692.4728023822331
 31
0.0
  0
ARC
  5
7C44
  8
1
 10
1135.204108809442
 20
1607.0647475178851
 30
0.0
 40
92.568705203245145
 50
287.96215498592898
 51
112.6841186733969
  0
LINE
  5
7C45
  8
1
 10
870.204108809442
 20
1782.0647475178851
 30
0.0
 11
1164.204108809442
 21
1782.0647475178851
 31
0.0
  0
LINE
  5
7C46
  8
1
 10
870.204108809442
 20
1807.064747517886
 30
0.0
 11
1164.204108809442
 21
1807.064747517886
 31
0.0
  0
ARC
  5
7C47
  8
1
 10
1119.204108809442
 20
1623.0647475178851
 30
0.0
 40
221.0
 50
180.31037733564341
 51
270.26870947224779
  0
LINE
  5
7C48
  8
1
 10
1162.9958229512449
 20
1542.977282254391
 30
0.0
 11
806.34478144481989
 21
1388.314529512124
 31
0.0
  0
LINE
  5
7C49
  8
1
 10
808.26451785825702
 20
1365.932271132649
 30
0.0
 11
1163.7512547136209
 21
1519.0078020579681
 31
0.0
  0
LINE
  5
7C4A
  8
1
 10
764.83403019026434
 20
1486.1419488657
 30
0.0
 11
1108.4254243373659
 21
1671.582067958092
 31
0.0
  0
LINE
  5
7C4D
  8
1
 10
635.20410880944155
 20
1287.0647475178851
 30
0.0
 11
1335.204108809442
 21
1287.0647475178851
 31
0.0
  0
LINE
  5
7C4E
  8
1
 10
635.20410880944155
 20
1327.0647475178851
 30
0.0
 11
1335.204108809442
 21
1327.0647475178851
 31
0.0
  0
ARC
  5
7C4F
  8
1
 10
1121.204108809442
 20
1593.0647475178839
 30
0.0
 40
191.0
 50
269.71095697634439
 51
13.219800056721381
  0
LINE
  5
7C50
  8
2
 10
785.204108809442
 20
1542.7346821425519
 30
0.0
 11
785.204108809442
 21
1310.6252367282279
 31
0.0
  0
ARC
  5
7C51
  8
1
 10
785.204108809442
 20
1437.0647475178851
 30
0.0
 40
74.777079791837537
 50
112.6841186733968
 51
287.96215498592892
  0
CIRCLE
  5
7C52
  8
1
 10
785.204108809442
 20
1437.0647475178851
 30
0.0
 40
53.13672736521761
  0
ARC
  5
7C53
  8
1
 10
785.204108809442
 20
1437.0647475178851
 30
0.0
 40
85.0
 50
298.87799909265573
 51
241.1220009073443
  0
LINE
  5
7C54
  8
2
 10
664.20410880944155
 20
1437.0647475178851
 30
0.0
 11
906.20410880944189
 21
1437.0647475178851
 31
0.0
  0
LINE
  5
7C55
  8
1
 10
882.704108809442
 20
1357.0647475178851
 30
0.0
 11
687.70410880944189
 21
1357.0647475178851
 31
0.0
  0
LINE
  5
7C56
  8
1
 10
677.70410880944155
 20
1327.0647475178851
 30
0.0
 11
892.70410880944189
 21
1327.0647475178851
 31
0.0
  0
LINE
  5
7C57
  8
1
 10
635.20410880944155
 20
1327.0647475178851
 30
0.0
 11
635.20410880944155
 21
1287.0647475178851
 31
0.0
  0
LINE
  5
7C58
  8
1
 10
687.70410880944189
 20
1357.0647475178851
 30
0.0
 11
677.70410880944155
 21
1327.0647475178851
 31
0.0
  0
LINE
  5
7C5C
  8
1
 10
723.704108809442
 20
1287.0647475178939
 30
0.0
 11
696.70410880944189
 21
1287.0647475178939
 31
0.0
  0
LINE
  5
7C5D
  8
1
 10
744.1536835499528
 20
1362.6344943541751
 30
0.0
 11
826.25453406893848
 21
1362.6344943541751
 31
0.0
  0
LINE
  5
7C5E
  8
1
 10
704.84327258317387
 20
1357.0647475178851
 30
0.0
 11
715.86859331967753
 21
1387.895790931751
 31
0.0
  0
LINE
  5
7C5F
  8
1
 10
707.704108809442
 20
1357.0647475178851
 30
0.0
 11
742.70410880944189
 21
1357.0647475178851
 31
0.0
  0
LINE
  5
7C60
  8
1
 10
865.56494503570946
 20
1357.0647475178851
 30
0.0
 11
854.53962429920648
 21
1387.895790931751
 31
0.0
  0
LINE
  5
7C61
  8
1
 10
862.704108809442
 20
1357.0647475178851
 30
0.0
 11
827.70410880944189
 21
1357.0647475178851
 31
0.0
  0
LINE
  5
7C62
  8
1
 10
892.70410880944189
 20
1327.0647475178851
 30
0.0
 11
882.704108809442
 21
1357.0647475178851
 31
0.0
  0
LINE
  5
7C63
  8
1
 10
1300.4041088094409
 20
1550.764747517884
 30
0.0
 11
1300.4041088094409
 21
1327.0647475178851
 31
0.0
  0
LINE
  5
7C64
  8
1
 10
970.00410880944207
 20
1550.7647475178851
 30
0.0
 11
970.00410880944207
 21
1327.0647475178851
 31
0.0
  0
ARC
  5
7C65
  8
1
 10
1146.2041088094429
 20
1596.0647475178851
 30
0.0
 40
166.0
 50
14.185135598135799
 51
107.41178377047871
  0
LINE
  5
7C66
  8
1
 10
1335.204108809442
 20
1327.0647475178851
 30
0.0
 11
1335.204108809442
 21
1287.0647475178851
 31
0.0
  0
LINE
  5
7C69
  8
1
 10
1273.7041088094411
 20
1287.0647475179001
 30
0.0
 11
1246.7041088094411
 21
1287.0647475179001
 31
0.0
  0
LINE
  5
7C6A
  8
1
 10
965.00410880944219
 20
1550.7647475178851
 30
0.0
 11
1305.4041088094409
 21
1550.764747517884
 31
0.0
  0
LINE
  5
7C6B
  8
1
 10
965.00410880944219
 20
1553.0647475178851
 30
0.0
 11
1305.4041088094409
 21
1553.0647475178851
 31
0.0
  0
CIRCLE
  5
7C6C
  8
1
 10
1135.204108809442
 20
1607.0647475178851
 30
0.0
 40
69.854009039133416
  0
LINE
  5
7C6D
  8
1
 10
1035.204108809442
 20
1553.4647475178849
 30
0.0
 11
1235.2041088094411
 21
1553.4647475178849
 31
0.0
  0
LINE
  5
7C6E
  8
1
 10
981.00410880944219
 20
1658.0647475178851
 30
0.0
 11
981.00410880944219
 21
1553.0647475178851
 31
0.0
  0
LINE
  5
7C6F
  8
1
 10
975.00410880944207
 20
1658.0647475178851
 30
0.0
 11
975.00410880944207
 21
1553.0647475178851
 31
0.0
  0
LINE
  5
7C70
  8
1
 10
965.00410880944219
 20
1553.0647475178851
 30
0.0
 11
965.00410880944219
 21
1550.7647475178851
 31
0.0
  0
LINE
  5
7C71
  8
1
 10
981.00410880944219
 20
1658.0647475178851
 30
0.0
 11
975.00410880944207
 21
1658.0647475178851
 31
0.0
  0
LINE
  5
7C72
  8
1
 10
1289.4041088094409
 20
1658.0647475178851
 30
0.0
 11
1289.4041088094409
 21
1553.0647475178839
 31
0.0
  0
LINE
  5
7C73
  8
1
 10
1295.4041088094409
 20
1658.0647475178851
 30
0.0
 11
1295.4041088094409
 21
1553.0647475178839
 31
0.0
  0
LINE
  5
7C74
  8
1
 10
1305.4041088094409
 20
1553.0647475178851
 30
0.0
 11
1305.4041088094409
 21
1550.764747517884
 31
0.0
  0
LINE
  5
7C75
  8
1
 10
1137.204108809442
 20
1761.820592060393
 30
0.0
 11
1137.204108809442
 21
1807.064747517886
 31
0.0
  0
LINE
  5
7C76
  8
1
 10
1164.204108809442
 20
1782.0647475178851
 30
0.0
 11
1164.204108809442
 21
1807.064747517886
 31
0.0
  0
LINE
  5
7C77
  8
1
 10
1289.4041088094409
 20
1658.0647475178851
 30
0.0
 11
1295.4041088094409
 21
1658.0647475178851
 31
0.0
  0
CIRCLE
  5
7C78
  8
1
 10
1070.204108809442
 20
1751.798064598983
 30
0.0
 40
8.0
  0
ARC
  5
7C79
  8
1
 10
1143.204108809442
 20
1615.0647475178851
 30
0.0
 40
147.0
 50
108.5121515118291
 51
118.09713310976581
  0
LINE
  5
7C7A
  8
1
 10
898.20735142866249
 20
1621.867572851944
 30
0.0
 11
897.20410880944246
 21
1807.064747517886
 31
0.0
  0
LINE
  5
7C7B
  8
1
 10
870.20410880944246
 20
1782.0647475178851
 30
0.0
 11
870.20410880944246
 21
1807.064747517886
 31
0.0
  0
DIMENSION
  5
7C7C
  8
3
  2
*D2
 10
2613.5103709521868
 20
1852.7627791195439
 30
0.0
 11
2523.5103709521868
 21
1887.848995678683
 31
0.0
 70
   128
 13
2433.5103709521868
 23
1774.1467734319549
 33
0.0
 14
2613.5103709521868
 24
1775.8105909225019
 34
0.0
1001
ACAD
1000
DSTYLE
1002
{
1070
   288
1070
     1
1070
   172
1070
     1
1070
    40
1040
15.0
1070
   271
1070
     0
1070
   143
1040
0.039
1002
}
  0
LINE
  5
7C7D
  8
2
 10
1981.2378318048361
 20
1607.0416726184269
 30
0.0
 11
2674.646132014439
 21
1607.0416726184269
 31
0.0
  0
LINE
  5
7C7F
  8
1
 10
2433.5103709521859
 20
1402.0647475178839
 30
0.0
 11
2613.5103709521859
 21
1402.0647475178839
 31
0.0
  0
LINE
  5
7C80
  8
2
 10
2523.5103709521868
 20
1847.4226731212329
 30
0.0
 11
2523.5103709521868
 21
1287.0416726184269
 31
0.0
  0
LINE
  5
7C81
  8
1
 10
2065.4281710244618
 20
1652.6233998309131
 30
0.0
 11
2065.4281710244618
 21
1699.610377821672
 31
0.0
  0
LINE
  5
7C82
  8
1
 10
1995.749305764281
 20
1362.2876677260469
 30
0.0
 11
1995.749305764281
 21
1699.610377821672
 31
0.0
  0
LINE
  5
7C83
  8
1
 10
2092.5103709521868
 20
1550.7647475178851
 30
0.0
 11
2405.5103709521868
 21
1550.7647475178851
 31
0.0
  0
LINE
  5
7C86
  8
1
 10
2022.510370952187
 20
1287.0416726184269
 30
0.0
 11
2467.5103709521868
 21
1287.0416726184269
 31
0.0
  0
LINE
  5
7C87
  8
1
 10
2022.5103709521859
 20
1327.0416726184269
 30
0.0
 11
2467.5103709521868
 21
1327.0416726184269
 31
0.0
  0
LINE
  5
7C88
  8
1
 10
2092.5103709521868
 20
1553.0416726184269
 30
0.0
 11
2405.5103709521868
 21
1553.0416726184269
 31
0.0
  0
LINE
  5
7C89
  8
1
 10
2013.5527162712881
 20
1383.9280201526669
 30
0.0
 11
2013.552716271287
 21
1537.1876635792939
 31
0.0
  0
LINE
  5
7C8A
  8
1
 10
2049.1595372853012
 20
1383.9280201526669
 30
0.0
 11
2049.1595372853012
 21
1537.1876635792939
 31
0.0
  0
LINE
  5
7C8B
  8
1
 10
2097.5103709521882
 20
1550.7647475178851
 30
0.0
 11
2097.5103709521868
 21
1327.0416726184269
 31
0.0
  0
LINE
  5
7C8C
  8
1
 10
1995.749305764281
 20
1362.2876677260469
 30
0.0
 11
2065.4281710244618
 21
1362.2876677260481
 31
0.0
  0
LINE
  5
7C8D
  8
1
 10
2013.552716271287
 20
1383.9280201526669
 30
0.0
 11
2049.1595372853012
 21
1383.9280201526669
 31
0.0
  0
LINE
  5
7C8E
  8
1
 10
2065.4281710244618
 20
1362.2876677260481
 30
0.0
 11
2065.4281710244618
 21
1427.3888483328881
 31
0.0
  0
LINE
  5
7C8F
  8
1
 10
2049.1595372853012
 20
1537.1876635792939
 30
0.0
 11
2049.1595372853012
 21
1676.895681657561
 31
0.0
  0
LINE
  5
7C90
  8
1
 10
2013.552716271287
 20
1537.1876635792939
 30
0.0
 11
2013.552716271287
 21
1676.895681657561
 31
0.0
  0
LINE
  5
7C91
  8
2
 10
2209.844356260056
 20
1437.0647475178851
 30
0.0
 11
1988.911715644063
 21
1437.0647475178851
 31
0.0
  0
LINE
  5
7C92
  8
1
 10
2013.552716271287
 20
1490.2014748831029
 30
0.0
 11
2049.1595372853012
 21
1490.2014748831029
 31
0.0
  0
LINE
  5
7C93
  8
1
 10
2013.552716271287
 20
1537.1876635792939
 30
0.0
 11
2049.1595372853012
 21
1537.1876635792939
 31
0.0
  0
LINE
  5
7C94
  8
1
 10
2092.5103709521868
 20
1553.0416726184269
 30
0.0
 11
2092.5103709521882
 21
1550.7647475178851
 31
0.0
  0
LINE
  5
7C95
  8
1
 10
2013.552716271287
 20
1676.895681657561
 30
0.0
 11
2049.1595372853012
 21
1676.895681657561
 31
0.0
  0
LINE
  5
7C96
  8
1
 10
2049.1595372853012
 20
1595.0416726184269
 30
0.0
 11
2063.5103709521882
 21
1595.0416726184269
 31
0.0
  0
LINE
  5
7C97
  8
1
 10
2049.1595372853012
 20
1619.0416726184269
 30
0.0
 11
2063.5103709521868
 21
1619.0416726184269
 31
0.0
  0
LINE
  5
7C98
  8
1
 10
2065.5103709521868
 20
1624.5416726184269
 30
0.0
 11
2405.5103709521868
 21
1624.5416726184269
 31
0.0
  0
LINE
  5
7C99
  8
1
 10
2065.5103709521868
 20
1589.5416726184269
 30
0.0
 11
2405.5103709521882
 21
1589.5416726184269
 31
0.0
  0
LINE
  5
7C9A
  8
1
 10
2065.5103709521868
 20
1593.0416726184269
 30
0.0
 11
2065.5103709521868
 21
1589.5416726184269
 31
0.0
  0
ARC
  5
7C9B
  8
1
 10
2063.5103709521882
 20
1593.0416726184269
 30
0.0
 40
2.0
 50
0.0000000000002036
 51
90.0
  0
ARC
  5
7C9C
  8
1
 10
2063.5103709521868
 20
1621.0416726184269
 30
0.0
 40
2.0
 50
270.0
 51
0.0
  0
LINE
  5
7C9D
  8
1
 10
2065.5103709521882
 20
1624.5416726184269
 30
0.0
 11
2065.5103709521868
 21
1621.0416726184269
 31
0.0
  0
LINE
  5
7CA2
  8
1
 10
2405.5103709521859
 20
1658.0647475178851
 30
0.0
 11
2433.5103709521868
 21
1658.0647475178851
 31
0.0
  0
LINE
  5
7CA3
  8
1
 10
1995.749305764281
 20
1699.610377821672
 30
0.0
 11
2065.4281710244618
 21
1699.610377821672
 31
0.0
  0
LINE
  5
7CA4
  8
1
 10
2642.5103709521882
 20
1480.0416726184269
 30
0.0
 11
2642.5103709521882
 21
1734.0416726184269
 31
0.0
  0
LINE
  5
7CA5
  8
1
 10
2613.5103709521868
 20
1763.0416726184269
 30
0.0
 11
2613.5103709521868
 21
1607.0416726184269
 31
0.0
  0
LINE
  5
7CA6
  8
1
 10
2641.5103709521859
 20
1807.0416726184269
 30
0.0
 11
2641.5103709521868
 21
1782.0647475178851
 31
0.0
  0
LINE
  5
7CA8
  8
1
 10
2613.5103709521868
 20
1782.0647475178851
 30
0.0
 11
2613.5103709521868
 21
1605.041672618428
 31
0.0
  0
LINE
  5
7CA9
  8
1
 10
2613.5103709521859
 20
1605.041672618428
 30
0.0
 11
2613.5103709521859
 21
1402.0647475178839
 31
0.0
  0
LINE
  5
7CAB
  8
1
 10
2617.5103709521891
 20
1607.0416726184269
 30
0.0
 11
2617.5103709521882
 21
1451.0416726184269
 31
0.0
  0
POLYLINE
  5
7CAC
  8
1
 66
     1
 10
0.0
 20
0.0
 30
0.0
 70
     1
  0
VERTEX
  5
83E7
  8
1
 10
2617.5103709521882
 20
1480.0416726184269
 30
0.0
  0
VERTEX
  5
83E8
  8
1
 10
2617.5103709521882
 20
1455.0416726184269
 30
0.0
  0
VERTEX
  5
83E9
  8
1
 10
2618.5103709521882
 20
1455.0416726184269
 30
0.0
 42
0.4142135623730951
  0
VERTEX
  5
83EA
  8
1
 10
2620.5103709521882
 20
1457.0416726184269
 30
0.0
  0
VERTEX
  5
83EB
  8
1
 10
2620.5103709521882
 20
1473.0416726184269
 30
0.0
 42
-0.4142135623730951
  0
VERTEX
  5
83EC
  8
1
 10
2624.5103709521882
 20
1477.0416726184269
 30
0.0
  0
VERTEX
  5
83ED
  8
1
 10
2640.5103709521882
 20
1477.0416726184269
 30
0.0
 42
0.4142135623730951
  0
VERTEX
  5
83EE
  8
1
 10
2642.5103709521882
 20
1479.0416726184269
 30
0.0
  0
VERTEX
  5
83EF
  8
1
 10
2642.5103709521882
 20
1480.0416726184269
 30
0.0
  0
SEQEND
  5
83F0
  8
1
  0
LINE
  5
7CB7
  8
1
 10
2618.5103709521868
 20
1480.0416726184269
 30
0.0
 11
2640.5103709521882
 21
1480.0416726184269
 31
0.0
  0
LINE
  5
7CB8
  8
1
 10
2613.5103709521859
 20
1451.0416726184269
 30
0.0
 11
2617.5103709521882
 21
1451.0416726184269
 31
0.0
  0
LINE
  5
7CBA
  8
2
 10
1135.204108809442
 20
3227.9655033873591
 30
0.0
 11
1135.204108809442
 21
2583.1352935916402
 31
0.0
  0
LINE
  5
7CBC
  8
1
 10
675.20410880944235
 20
3065.4415261526992
 30
0.0
 11
675.20410880944189
 21
2620.4415261527001
 31
0.0
  0
LINE
  5
7CBD
  8
1
 10
1335.204108809442
 20
3065.4415261526992
 30
0.0
 11
1335.204108809442
 21
2620.4415261527001
 31
0.0
  0
LINE
  5
7CBE
  8
1
 10
635.204108809442
 20
3065.4415261526992
 30
0.0
 11
635.20410880944235
 21
2620.4415261527001
 31
0.0
  0
LINE
  5
7CC6
  8
1
 10
2022.510370952187
 20
1287.0416726184269
 30
0.0
 11
2022.5103709521859
 21
1327.0416726184269
 31
0.0
  0
LINE
  5
7CC7
  8
1
 10
2467.5103709521868
 20
1287.0416726184269
 30
0.0
 11
2467.5103709521868
 21
1327.0416726184269
 31
0.0
  0
LINE
  5
7CCE
  8
1
 10
1335.204108809442
 20
3065.4415261527001
 30
0.0
 11
1312.204108809442
 21
3065.4415261527001
 31
0.0
  0
LINE
  5
7CCF
  8
1
 10
1335.204108809442
 20
2620.4415261527001
 30
0.0
 11
675.20410880944189
 21
2620.4415261526992
 31
0.0
  0
LINE
  5
7CD1
  8
1
 10
675.20410880944189
 20
2620.4415261527001
 30
0.0
 11
635.204108809442
 21
2620.4415261527001
 31
0.0
  0
DIMENSION
  5
7CD2
  8
3
  2
*D3
 10
1448.2706187181241
 20
2620.4415261527001
 30
0.0
 11
1410.7706187181241
 21
2842.9415261527001
 31
0.0
 70
     0
 13
1335.204108809442
 23
3065.4415261527001
 33
0.0
 14
1335.204108809442
 24
2620.4415261527001
 34
0.0
 50
90.0
1001
ACAD
1000
DSTYLE
1002
{
1070
   287
1070
     3
1070
    40
1040
15.0
1070
   143
1040
0.039
1070
   172
1070
     1
1070
   271
1070
     0
1070
   279
1070
     0
1070
   288
1070
     1
1002
}
  0
DIMENSION
  5
7CD3
  8
3
  2
*D4
 10
1335.204108809442
 20
2475.9869213050588
 30
0.0
 11
985.20410880944223
 21
2475.9869213050588
 31
0.0
 70
   128
 13
635.20410880944235
 23
2620.4415261527001
 33
0.0
 14
1335.204108809442
 24
2620.4415261527001
 34
0.0
1001
ACAD
1000
DSTYLE
1002
{
1070
   287
1070
     3
1070
    40
1040
15.0
1070
   143
1040
0.039
1070
   172
1070
     1
1070
   271
1070
     0
1070
   279
1070
     0
1070
   288
1070
     1
1002
}
  0
LINE
  5
7CD4
  8
2
 10
1347.256303223159
 20
3121.4415261527001
 30
0.0
 11
917.17291442858368
 21
3121.4415261527001
 31
0.0
  0
LINE
  5
7CD5
  8
1
 10
2405.5103709521859
 20
1408.0647475178851
 30
0.0
 11
2433.5103709521859
 21
1408.0647475178851
 31
0.0
  0
POLYLINE
  5
7CD6
  8
1
 66
     1
 10
0.0
 20
0.0
 30
0.0
  0
VERTEX
  5
8403
  8
1
 10
2405.5103709521868
 20
1658.0647475178851
 30
0.0
  0
VERTEX
  5
8404
  8
1
 10
2405.5103709521868
 20
1408.0647475178839
 30
0.0
  0
SEQEND
  5
8405
  8
1
  0
ARC
  5
7CDA
  8
1
 10
2640.5103709521882
 20
1735.0416726184269
 30
0.0
 40
2.0
 50
0.0
 51
60.000000000028521
  0
LINE
  5
7CDB
  8
1
 10
2642.5103709521882
 20
1735.0416726184269
 30
0.0
 11
2642.5103709521882
 21
1734.0416726184269
 31
0.0
  0
LINE
  5
7CDC
  8
1
 10
2642.5103709521882
 20
1734.0416726184269
 30
0.0
 11
2641.5103709521868
 21
1734.0416726184269
 31
0.0
  0
LINE
  5
7CDD
  8
1
 10
2076.3561267782939
 20
1403.5647475178851
 30
0.0
 11
2076.3561267782939
 21
1470.5647475178851
 31
0.0
  0
LINE
  5
7CDE
  8
1
 10
2086.3561267782939
 20
1359.0647475178851
 30
0.0
 11
2086.3561267782939
 21
1511.864735517885
 31
0.0
  0
LINE
  5
7CDF
  8
1
 10
2086.3561267782939
 20
1359.0647475178851
 30
0.0
 11
2097.5103709521882
 21
1359.0647475178851
 31
0.0
  0
LINE
  5
7CE0
  8
1
 10
2086.3561267782939
 20
1403.5647475178851
 30
0.0
 11
2076.3561267782939
 21
1403.5647475178851
 31
0.0
  0
LINE
  5
7CE1
  8
1
 10
2086.3561267782939
 20
1407.129750517885
 30
0.0
 11
2086.3561267782939
 21
1398.499745517885
 31
0.0
  0
LINE
  5
7CE2
  8
1
 10
2086.3561267782939
 20
1409.314808517885
 30
0.0
 11
2086.3561267782939
 21
1397.0508745178849
 31
0.0
  0
LINE
  5
7CE3
  8
1
 10
2086.3561267782939
 20
1398.3805435178849
 30
0.0
 11
2086.3561267782939
 21
1407.3805435178849
 31
0.0
  0
LINE
  5
7CE4
  8
1
 10
2071.3561267782939
 20
1446.5647475178851
 30
0.0
 11
2049.1595372853012
 21
1446.5647475178851
 31
0.0
  0
LINE
  5
7CE5
  8
1
 10
2049.1595372853012
 20
1427.5647475178851
 30
0.0
 11
2071.3561267782939
 21
1427.5647475178851
 31
0.0
  0
LINE
  5
7CE6
  8
1
 10
2071.3561267782939
 20
1447.5647475178851
 30
0.0
 11
2076.3561267782939
 21
1447.5647475178851
 31
0.0
  0
LINE
  5
7CE7
  8
1
 10
2071.3561267782939
 20
1426.5647475178851
 30
0.0
 11
2076.3561267782939
 21
1426.5647475178851
 31
0.0
  0
LINE
  5
7CE8
  8
1
 10
2071.3561267782939
 20
1426.5647475178851
 30
0.0
 11
2071.3561267782939
 21
1447.5647475178851
 31
0.0
  0
LINE
  5
7CE9
  8
1
 10
2097.5103709521882
 20
1511.864735517885
 30
0.0
 11
2086.3561267782939
 21
1511.864735517885
 31
0.0
  0
LINE
  5
7CEA
  8
1
 10
2076.3561267782939
 20
1470.5647475178851
 30
0.0
 11
2086.3561267782939
 21
1470.5647475178851
 31
0.0
  0
LINE
  5
7CEB
  8
1
 10
2086.3561267782939
 20
1509.879750517885
 30
0.0
 11
2086.3561267782939
 21
1501.249745517885
 31
0.0
  0
LINE
  5
7CEC
  8
1
 10
2086.3561267782939
 20
1501.1305435178849
 30
0.0
 11
2086.3561267782939
 21
1510.1305435178849
 31
0.0
  0
DIMENSION
  5
7CED
  8
3
  2
*D5
 10
1137.204108809442
 20
1866.2537746022199
 30
0.0
 11
1017.204108809442
 21
1903.7537746022199
 31
0.0
 70
     0
 13
897.20410880944246
 23
1807.064747517886
 33
0.0
 14
1137.204108809442
 24
1807.064747517886
 34
0.0
 50
180.0
1001
ACAD
1000
DSTYLE
1002
{
1070
   287
1070
     3
1070
    40
1040
15.0
1070
   143
1040
0.039
1070
   172
1070
     1
1070
   271
1070
     0
1070
   279
1070
     0
1070
   288
1070
     1
1002
}
  0
DIMENSION
  5
7CEE
  8
3
  2
*D6
 10
1135.204108809442
 20
1945.2986724813561
 30
0.0
 11
1016.204108809442
 21
1982.7986724813561
 31
0.0
 70
     0
 13
897.20410880944246
 23
1807.064747517886
 33
0.0
 14
1135.204108809442
 24
1869.299038973458
 34
0.0
 50
180.0
1001
ACAD
1000
DSTYLE
1002
{
1070
   287
1070
     3
1070
    40
1040
15.0
1070
   143
1040
0.039
1070
   172
1070
     1
1070
   271
1070
     0
1070
   279
1070
     0
1070
   288
1070
     1
1002
}
  0
DIMENSION
  5
7CEF
  8
3
  2
*D7
 10
1486.0185545895849
 20
1287.0647475178851
 30
0.0
 11
1448.5185545895849
 21
1447.0647475178851
 31
0.0
 70
     0
 13
1385.8470888846621
 23
1607.064747517886
 33
0.0
 14
1335.204108809442
 24
1287.0647475178851
 34
0.0
 50
90.0
1001
ACAD
1000
DSTYLE
1002
{
1070
   287
1070
     3
1070
    40
1040
15.0
1070
   143
1040
0.039
1070
   172
1070
     1
1070
   271
1070
     0
1070
   279
1070
     0
1070
   288
1070
     1
1002
}
  0
DIMENSION
  5
7CF2
  8
3
  2
*D8
 10
2523.5103709521868
 20
1977.0547992961151
 30
0.0
 11
2570.0103709521868
 21
2037.0547992961151
 31
0.0
 70
     0
  1
94
 13
2616.5103709521868
 23
1775.8105909225019
 33
0.0
 14
2523.5103709521868
 24
1914.1429454589149
 34
0.0
1001
ACAD
1000
DSTYLE
1002
{
1070
   288
1070
     1
1070
   172
1070
     1
1070
    40
1040
15.0
1070
   271
1070
     0
1070
   143
1040
0.039
1002
}
  0
DIMENSION
  5
7CF3
  8
3
  2
*D9
 10
1995.749305764281
 20
1977.0547992961151
 30
0.0
 11
2259.6298383582339
 21
2052.0547992961151
 31
0.0
 70
     0
  1
MAX\P600
 13
2523.5103709521868
 23
1914.1429454589149
 33
0.0
 14
1995.749305764281
 24
1699.610377821672
 34
0.0
1001
ACAD
1000
DSTYLE
1002
{
1070
   287
1070
     3
1070
    40
1040
15.0
1070
   143
1040
0.039
1070
   172
1070
     1
1070
   271
1070
     0
1070
   279
1070
     0
1070
   288
1070
     1
1002
}
  0
LINE
  5
7CF4
  8
1
 10
1312.204108809442
 20
3211.4415261527001
 30
0.0
 11
1162.204108809442
 21
3211.4415261527001
 31
0.0
  0
LINE
  5
7CF5
  8
1
 10
1312.204108809442
 20
3031.4415261526992
 30
0.0
 11
1162.2041088094429
 21
3031.4415261526992
 31
0.0
  0
LINE
  5
7CF6
  8
1
 10
1295.204108809442
 20
2668.9415261526992
 30
0.0
 11
1295.204108809442
 21
2620.4415261527001
 31
0.0
  0
LINE
  5
7D13
  8
1
 10
860.00409680944267
 20
2901.9415261526992
 30
0.0
 11
707.204108809442
 21
2901.9415261526992
 31
0.0
  0
LINE
  5
7D14
  8
1
 10
707.20410880944235
 20
2684.2872819788072
 30
0.0
 11
707.204108809442
 21
2901.9415261526992
 31
0.0
  0
LINE
  5
7D15
  8
1
 10
860.00409680944267
 20
2901.9415261526992
 30
0.0
 11
860.00409680944165
 21
2684.2872819788072
 31
0.0
  0
LINE
  5
7D16
  8
1
 10
775.70410880944246
 20
2647.0906924858132
 30
0.0
 11
775.70410880944189
 21
2668.9415261526992
 31
0.0
  0
LINE
  5
7D17
  8
1
 10
794.704108809442
 20
2668.9415261526992
 30
0.0
 11
794.704108809442
 21
2647.0906924858132
 31
0.0
  0
LINE
  5
7D18
  8
1
 10
774.704108809442
 20
2668.9415261526992
 30
0.0
 11
775.70410880944291
 21
2668.9415261526992
 31
0.0
  0
LINE
  5
7D19
  8
1
 10
751.704108809442
 20
2683.9415261526992
 30
0.0
 11
751.704108809442
 21
2674.2872819788072
 31
0.0
  0
LINE
  5
7D1A
  8
1
 10
774.704108809442
 20
2668.9415261526992
 30
0.0
 11
774.704108809442
 21
2673.9415261526992
 31
0.0
  0
LINE
  5
7D1B
  8
1
 10
795.704108809442
 20
2668.9415261526992
 30
0.0
 11
795.704108809442
 21
2673.9415261526992
 31
0.0
  0
LINE
  5
7D1C
  8
1
 10
818.70410880944189
 20
2674.2872819788072
 30
0.0
 11
818.70410880944189
 21
2683.9415261526992
 31
0.0
  0
LINE
  5
7D1D
  8
1
 10
710.42702901760458
 20
2593.6804609647938
 30
0.0
 11
1227.7728140126869
 21
2593.6804609647938
 31
0.0
  0
LINE
  5
7D1E
  8
1
 10
775.70410880944189
 20
2647.0906924858132
 30
0.0
 11
775.70410880944189
 21
2669.2872819788072
 31
0.0
  0
LINE
  5
7D1F
  8
1
 10
794.704108809442
 20
2669.2872819788072
 30
0.0
 11
794.70410880944291
 21
2647.0906924858132
 31
0.0
  0
LINE
  5
7D20
  8
2
 10
785.204108809442
 20
2918.0801359670181
 30
0.0
 11
785.204108809442
 21
2586.8428708445758
 31
0.0
  0
LINE
  5
7D21
  8
1
 10
710.42702901760458
 20
2593.6804609647938
 30
0.0
 11
710.42702901760549
 21
2663.3593262249751
 31
0.0
  0
LINE
  5
7D22
  8
1
 10
732.06738144422525
 20
2647.0906924858132
 30
0.0
 11
838.34083617466013
 21
2647.0906924858132
 31
0.0
  0
LINE
  5
7D23
  8
1
 10
732.06738144422525
 20
2611.4838714718021
 30
0.0
 11
838.34083617466013
 21
2611.4838714718012
 31
0.0
  0
LINE
  5
7D24
  8
1
 10
732.06738144422434
 20
2611.4838714718012
 30
0.0
 11
732.06738144422434
 21
2647.0906924858132
 31
0.0
  0
LINE
  5
7D25
  8
1
 10
838.34083617465956
 20
2611.4838714718012
 30
0.0
 11
838.34083617465956
 21
2647.0906924858132
 31
0.0
  0
LINE
  5
7D26
  8
1
 10
774.704108809442
 20
2669.2872819788072
 30
0.0
 11
795.704108809442
 21
2669.2872819788072
 31
0.0
  0
LINE
  5
7D27
  8
1
 10
707.204108809442
 20
2684.2872819788072
 30
0.0
 11
860.00409680944267
 21
2684.2872819788072
 31
0.0
  0
LINE
  5
7D28
  8
1
 10
751.704108809442
 20
2674.2872819788072
 30
0.0
 11
818.70410880944189
 21
2674.2872819788072
 31
0.0
  0
LINE
  5
7D29
  8
1
 10
710.42702901760549
 20
2663.3593262249751
 30
0.0
 11
1227.7728140126869
 21
2663.3593262249751
 31
0.0
  0
LINE
  5
7D2A
  8
1
 10
707.204108809442
 20
2684.2872819788072
 30
0.0
 11
707.204108809442
 21
2695.441526152701
 31
0.0
  0
LINE
  5
7D2B
  8
1
 10
774.704108809442
 20
2669.2872819788072
 30
0.0
 11
774.704108809442
 21
2674.2872819788072
 31
0.0
  0
LINE
  5
7D2C
  8
1
 10
746.51990480944278
 20
2684.2872819788072
 30
0.0
 11
755.51990480944266
 21
2684.2872819788072
 31
0.0
  0
LINE
  5
7D2D
  8
1
 10
757.45416980944265
 20
2684.2872819788072
 30
0.0
 11
745.19023580944213
 21
2684.2872819788072
 31
0.0
  0
LINE
  5
7D2E
  8
1
 10
755.26911180944262
 20
2684.2872819788072
 30
0.0
 11
746.63910680944264
 21
2684.2872819788072
 31
0.0
  0
LINE
  5
7D2F
  8
1
 10
751.704108809442
 20
2684.2872819788072
 30
0.0
 11
751.704108809442
 21
2674.2872819788072
 31
0.0
  0
LINE
  5
7D30
  8
1
 10
818.70410880944189
 20
2674.2872819788072
 30
0.0
 11
818.70410880944189
 21
2684.2872819788072
 31
0.0
  0
LINE
  5
7D31
  8
1
 10
795.704108809442
 20
2669.2872819788072
 30
0.0
 11
795.704108809442
 21
2674.2872819788072
 31
0.0
  0
LINE
  5
7D32
  8
1
 10
849.26990480944266
 20
2684.2872819788072
 30
0.0
 11
858.26990480944266
 21
2684.2872819788072
 31
0.0
  0
LINE
  5
7D33
  8
1
 10
858.01911180944251
 20
2684.2872819788072
 30
0.0
 11
849.38910680944252
 21
2684.2872819788072
 31
0.0
  0
LINE
  5
7D34
  8
1
 10
860.00409680944267
 20
2695.441526152701
 30
0.0
 11
860.00409680944267
 21
2684.2872819788072
 31
0.0
  0
LINE
  5
7D35
  8
1
 10
1227.7728140126869
 20
2593.6804609647938
 30
0.0
 11
1227.7728140126869
 21
2663.3593262249751
 31
0.0
  0
LINE
  5
7D36
  8
1
 10
1065.350099770307
 20
2611.4838714718012
 30
0.0
 11
1205.058117848575
 21
2611.4838714718012
 31
0.0
  0
LINE
  5
7D37
  8
1
 10
1065.350099770307
 20
2647.0906924858132
 30
0.0
 11
1205.058117848575
 21
2647.0906924858132
 31
0.0
  0
LINE
  5
7D38
  8
1
 10
1205.058117848575
 20
2611.4838714718012
 30
0.0
 11
1205.058117848575
 21
2647.0906924858132
 31
0.0
  0
LINE
  5
7D3A
  8
1
 10
1065.3500997703079
 20
2611.4838714718012
 30
0.0
 11
1065.3500997703079
 21
2647.0906924858132
 31
0.0
  0
LINE
  5
7D3B
  8
1
 10
965.20410880944257
 20
2668.9415261527001
 30
0.0
 11
1305.204108809442
 21
2668.9415261527001
 31
0.0
  0
LINE
  5
7D3C
  8
1
 10
794.704108809442
 20
2668.9415261526992
 30
0.0
 11
795.704108809442
 21
2668.9415261526992
 31
0.0
  0
LINE
  5
7D3D
  8
1
 10
1305.2041088094429
 20
3031.4415261526992
 30
0.0
 11
1305.2041088094429
 21
2668.9415261527001
 31
0.0
  0
LINE
  5
7D3E
  8
1
 10
965.20410880944303
 20
3006.4415261527001
 30
0.0
 11
965.20410880944235
 21
2668.9415261527001
 31
0.0
  0
LINE
  5
7D40
  8
1
 10
1152.704108809442
 20
3006.4415261527001
 30
0.0
 11
1152.704108809442
 21
2668.9415261527001
 31
0.0
  0
LINE
  5
7D41
  8
1
 10
1117.70410880944
 20
3006.4415261527001
 30
0.0
 11
1117.7041088094411
 21
2668.9415261527001
 31
0.0
  0
DIMENSION
  5
7D42
  8
3
  2
*D10
 10
1486.3154320615431
 20
1607.064747517886
 30
0.0
 11
1442.043941045205
 21
1707.0647475178851
 31
0.0
 70
   128
 13
1164.204108809442
 23
1807.064747517886
 33
0.0
 14
1385.8470888846621
 24
1607.064747517886
 34
0.0
 50
90.0
1001
ACAD
1000
DSTYLE
1002
{
1070
   288
1070
     1
1070
   172
1070
     1
1070
    40
1040
15.0
1070
   271
1070
     0
1070
   143
1040
0.039
1002
}
  0
DIMENSION
  5
7D43
  8
3
  2
*D11
 10
1312.204108809442
 20
1945.2986724813561
 30
0.0
 11
1223.704108809442
 21
1980.579476418744
 31
0.0
 70
   128
 13
1135.204108809442
 23
1869.299038973458
 33
0.0
 14
1312.204108809442
 24
1593.0647475178839
 34
0.0
1001
ACAD
1000
DSTYLE
1002
{
1070
   288
1070
     1
1070
   172
1070
     1
1070
    40
1040
15.0
1070
   271
1070
     0
1070
   143
1040
0.039
1002
}
  0
DIMENSION
  5
7D44
  8
3
  2
*D12
 10
635.20410880944155
 20
2037.0617740576611
 30
0.0
 11
973.70410880944223
 21
2074.5617740576608
 31
0.0
 70
     0
 13
1312.204108809442
 23
1593.0647475178839
 33
0.0
 14
635.20410880944155
 24
1327.0647475178851
 34
0.0
1001
ACAD
1000
DSTYLE
1002
{
1070
   287
1070
     3
1070
    40
1040
15.0
1070
   143
1040
0.039
1070
   172
1070
     1
1070
   271
1070
     0
1070
   279
1070
     0
1070
   288
1070
     1
1002
}
  0
DIMENSION
  5
7D46
  8
3
  2
*D13
 10
2742.2126451781328
 20
1480.0416726184269
 30
0.0
 11
2706.5571774019149
 21
1607.0416726184269
 31
0.0
 70
   128
 13
2642.5103709521882
 23
1734.0416726184269
 33
0.0
 14
2642.5103709521882
 24
1480.0416726184269
 34
0.0
 50
90.0
1001
ACAD
1000
DSTYLE
1002
{
1070
   288
1070
     1
1070
   172
1070
     1
1070
    40
1040
15.0
1070
     3
1000
φ<>
1070
   271
1070
     0
1070
   143
1040
0.039
1002
}
  0
LINE
  5
7D47
  8
1
 10
2405.5103709521882
 20
1807.0416726184269
 30
0.0
 11
2641.5103709521868
 21
1807.0416726184269
 31
0.0
  0
LINE
  5
7D48
  8
1
 10
2405.5103709521868
 20
1782.0647475178851
 30
0.0
 11
2641.5103709521868
 21
1782.0647475178851
 31
0.0
  0
POLYLINE
  5
7D49
  8
1
 66
     1
 10
0.0
 20
0.0
 30
0.0
  0
VERTEX
  5
8433
  8
1
 10
2433.5103709521868
 20
1605.0416726184269
 30
0.0
  0
VERTEX
  5
8434
  8
1
 10
2433.5103709521859
 20
1327.0416726184269
 30
0.0
  0
SEQEND
  5
8435
  8
1
  0
POLYLINE
  5
7D4D
  8
1
 66
     1
 10
0.0
 20
0.0
 30
0.0
  0
VERTEX
  5
8436
  8
1
 10
2405.5103709521882
 20
1807.0416726184269
 30
0.0
  0
VERTEX
  5
8437
  8
1
 10
2405.5103709521868
 20
1782.0647475178851
 30
0.0
  0
SEQEND
  5
8438
  8
1
  0
LINE
  5
7D51
  8
1
 10
2617.5103709521891
 20
1607.0416726184269
 30
0.0
 11
2617.5103709521882
 21
1763.0416726184269
 31
0.0
  0
LINE
  5
7D52
  8
1
 10
2642.5103709521882
 20
1734.041672618428
 30
0.0
 11
2642.5103709521882
 21
1480.041672618428
 31
0.0
  0
LINE
  5
7D54
  8
1
 10
2613.5103709521868
 20
1763.0416726184269
 30
0.0
 11
2617.5103709521882
 21
1763.0416726184269
 31
0.0
  0
LINE
  5
7D55
  8
1
 10
2618.5103709521868
 20
1734.041672618428
 30
0.0
 11
2640.5103709521882
 21
1734.041672618428
 31
0.0
  0
POLYLINE
  5
7D56
  8
1
 66
     1
 10
0.0
 20
0.0
 30
0.0
 70
     1
  0
VERTEX
  5
8439
  8
1
 10
2617.5103709521882
 20
1734.041672618428
 30
0.0
  0
VERTEX
  5
843A
  8
1
 10
2617.5103709521882
 20
1759.041672618428
 30
0.0
  0
VERTEX
  5
843B
  8
1
 10
2618.5103709521882
 20
1759.041672618428
 30
0.0
 42
-0.4142135623730951
  0
VERTEX
  5
843C
  8
1
 10
2620.5103709521882
 20
1757.0416726184269
 30
0.0
  0
VERTEX
  5
843D
  8
1
 10
2620.5103709521882
 20
1741.0416726184269
 30
0.0
 42
0.4142135623730951
  0
VERTEX
  5
843E
  8
1
 10
2624.5103709521882
 20
1737.0416726184269
 30
0.0
  0
VERTEX
  5
843F
  8
1
 10
2640.5103709521882
 20
1737.0416726184269
 30
0.0
 42
-0.4142135623730951
  0
VERTEX
  5
8440
  8
1
 10
2642.5103709521882
 20
1735.0416726184269
 30
0.0
  0
VERTEX
  5
8441
  8
1
 10
2642.5103709521882
 20
1734.041672618428
 30
0.0
  0
SEQEND
  5
8442
  8
1
  0
POLYLINE
  5
7D61
  8
1
 66
     1
 10
0.0
 20
0.0
 30
0.0
  0
VERTEX
  5
8443
  8
1
 10
2433.5103709521882
 20
1782.0647475178851
 30
0.0
  0
VERTEX
  5
8444
  8
1
 10
2433.5103709521868
 20
1605.0416726184269
 30
0.0
  0
SEQEND
  5
8445
  8
1
  0
LINE
  5
7D69
  8
1
 10
1312.204108809442
 20
3211.4415261527001
 30
0.0
 11
1312.204108809442
 21
3031.4415261526992
 31
0.0
  0
LINE
  5
7D6A
  8
1
 10
897.20410880944189
 20
3211.4415261527001
 30
0.0
 11
897.20410880944246
 21
3031.4415261527001
 31
0.0
  0
LINE
  5
7D6B
  8
1
 10
1137.204108809442
 20
3211.4415261527001
 30
0.0
 11
1137.204108809442
 21
3031.441526152701
 31
0.0
  0
LINE
  5
7D6C
  8
1
 10
1162.2041088094411
 20
3236.441526152701
 30
0.0
 11
872.20410880944155
 21
3236.4415261527001
 31
0.0
  0
LINE
  5
7D6D
  8
1
 10
872.20410880944155
 20
3236.4415261527001
 30
0.0
 11
872.20410880944246
 21
3006.4415261527001
 31
0.0
  0
LINE
  5
7D6E
  8
1
 10
1162.2041088094429
 20
3006.4415261527001
 30
0.0
 11
872.20410880944246
 21
3006.4415261527001
 31
0.0
  0
LINE
  5
7D6F
  8
1
 10
1162.2041088094411
 20
3236.4415261527001
 30
0.0
 11
1162.2041088094429
 21
3006.4415261526992
 31
0.0
  0
LINE
  5
7D70
  8
1
 10
1137.204108809442
 20
3211.4415261527001
 30
0.0
 11
897.20410880944189
 21
3211.4415261527001
 31
0.0
  0
LINE
  5
7D71
  8
1
 10
1137.204108809442
 20
3031.4415261526992
 30
0.0
 11
897.20410880944189
 21
3031.4415261527001
 31
0.0
  0
LINE
  5
7D72
  8
1
 10
1137.204108809442
 20
3211.4415261527001
 30
0.0
 11
897.20410880944246
 21
3031.4415261527001
 31
0.0
  0
LINE
  5
7D73
  8
1
 10
897.20410880944189
 20
3211.4415261527001
 30
0.0
 11
1137.204108809442
 21
3031.4415261526992
 31
0.0
  0
LINE
  5
7F53
  8
4
 10
2775.0
 20
750.0
 30
0.0
 11
2775.0
 21
450.0
 31
0.0
  0
LINE
  5
7F54
  8
4
 10
1725.0
 20
750.0
 30
0.0
 11
1725.0
 21
450.0
 31
0.0
  0
LINE
  5
7F55
  8
4
 10
975.0
 20
750.0
 30
0.0
 11
975.0
 21
450.0
 31
0.0
  0
LINE
  5
7F58
  8
4
 10
975.0
 20
450.0
 30
0.0
 11
2775.0
 21
450.0
 31
0.0
  0
LINE
  5
7F59
  8
4
 10
975.0
 20
600.0
 30
0.0
 11
2775.0
 21
600.0
 31
0.0
  0
TEXT
  5
7F5A
  8
4
 10
1032.753121270352
 20
647.31453879991932
 30
0.0
 40
75.0
  1
機器名称
  0
TEXT
  5
7F5B
  8
4
 10
1029.3871590371959
 20
482.46773509801642
 30
0.0
 40
75.0
  1
機器型番
  0
TEXT
  5
7F5C
  8
4
 10
1766.5181182314971
 20
633.85765343635285
 30
0.0
 40
75.0
  1
ミツヤ多翼送風機
  0
TEXT
  5
7F5D
  8
4
 10
1779.9817433782209
 20
475.739376419915
 30
0.0
 40
75.0
  1
MF#1 1/2-1
  0
TEXT
  5
7F5F
  8
4
 10
1095.6456319788231
 20
3575.1432619987731
 30
0.0
 40
80.999999999999986
  1
床置ベット
  0
TEXT
  5
7F60
  8
4
 10
474.25138999416959
 20
3800.8214642989469
 30
0.0
 40
108.0
  1
遠心式片吸込片持多翼ファン
  0
LINE
  5
7F61
  8
4
 10
375.0
 20
3704.1131313972069
 30
0.0
 11
2775.0
 21
3704.1131313972069
 31
0.0
  0
LINE
  5
7F62
  8
4
 10
375.0
 20
4004.1131313972069
 30
0.0
 11
2775.0
 21
4004.1131313972069
 31
0.0
  0
LINE
  5
7F63
  8
4
 10
975.0
 20
750.0
 30
0.0
 11
2775.0
 21
750.0
 31
0.0
  0
LINE
  5
7F64
  8
4
 10
375.0
 20
4004.1131313972069
 30
0.0
 11
375.0
 21
3704.1131313972069
 31
0.0
  0
TEXT
  5
7F65
  8
4
 10
441.85738361476979
 20
3573.4792163195152
 30
0.0
 40
80.999999999999986
  1
右回転上向
  0
TEXT
  5
7F66
  8
4
 10
2203.4543388739339
 20
4059.0916222429628
 30
0.0
 40
84.000000000000014
  1
No.
  0
TEXT
  5
7F67
  8
4
 10
1966.944093900019
 20
3575.1432619987731
 30
0.0
 40
80.999999999999986
  1
縮尺：1/15
  0
LINE
  5
7F68
  8
4
 10
2775.0
 20
4004.1131313972069
 30
0.0
 11
2775.0
 21
3704.1131313972069
 31
0.0
  0
LINE
  5
7F69
  8
4
 10
3150.0
 20
4425.0
 30
0.0
 11
3150.0
 21
4425.0
 31
0.0
  0
LINE
  5
7F6A
  8
4
 10
2160.9261335397969
 20
4021.895374688102
 30
0.0
 11
2160.9261335397969
 21
4179.9783923246277
 31
0.0
  0
LINE
  5
7F6B
  8
4
 10
2160.9261335397969
 20
4179.9783923246277
 30
0.0
 11
2775.0
 21
4179.9783923246277
 31
0.0
  0
LINE
  5
7F6C
  8
4
 10
2775.0
 20
4179.9783923246277
 30
0.0
 11
2775.0
 21
4021.895374688102
 31
0.0
  0
LINE
  5
7F6D
  8
4
 10
2775.0
 20
4021.895374688102
 30
0.0
 11
2160.9261335397969
 21
4021.895374688102
 31
0.0
  0
LINE
  5
7F6E
  8
4
 10
0.0
 20
0.0
 30
0.0
 11
0.0
 21
4425.0
 31
0.0
  0
LINE
  5
7F6F
  8
4
 10
0.0
 20
4425.0
 30
0.0
 11
3150.0
 21
4425.0
 31
0.0
  0
LINE
  5
7F70
  8
4
 10
3150.0
 20
4425.0
 30
0.0
 11
3150.0
 21
0.0
 31
0.0
  0
LINE
  5
7F71
  8
4
 10
3150.0
 20
0.0
 30
0.0
 11
0.0
 21
0.0
 31
0.0
  0
LINE
  5
8329
  8
1
 10
1295.2041088094411
 20
2660.4415261527001
 30
0.0
 11
675.20410880944189
 21
2660.4415261527001
 31
0.0
  0
LINE
  5
832A
  8
1
 10
872.20410880944246
 20
3025.4415261527001
 30
0.0
 11
635.204108809442
 21
3025.4415261526992
 31
0.0
  0
LINE
  5
832B
  8
1
 10
872.20410880944246
 20
3065.4415261527001
 30
0.0
 11
635.204108809442
 21
3065.4415261526992
 31
0.0
  0
DIMENSION
  5
8390
  8
3
  2
*D14
 10
1135.204108809442
 20
1167.7706387350479
 30
0.0
 11
885.20410880944178
 21
1205.2706387350479
 31
0.0
 70
     0
 13
635.20410880944155
 23
1287.0647475178851
 33
0.0
 14
1135.204108809442
 24
1287.0647475178851
 34
0.0
1001
ACAD
1000
DSTYLE
1002
{
1070
   287
1070
     3
1070
    40
1040
15.0
1070
   143
1040
0.039
1070
   172
1070
     1
1070
   271
1070
     0
1070
   279
1070
     0
1002
}
  0
DIMENSION
  5
839F
  8
3
  2
*D15
 10
1335.204108809442
 20
1167.7706387350479
 30
0.0
 11
1235.204108809442
 21
1205.2706387350479
 31
0.0
 70
     0
 13
1135.204108809442
 23
1287.0647475178851
 33
0.0
 14
1335.204108809442
 24
1287.0647475178851
 34
0.0
1001
ACAD
1000
DSTYLE
1002
{
1070
   287
1070
     3
1070
    40
1040
15.0
1070
   143
1040
0.039
1070
   172
1070
     1
1070
   271
1070
     0
1070
   279
1070
     0
1002
}
  0
DIMENSION
  5
83AC
  8
3
  2
*D16
 10
2467.5103709521868
 20
1167.7706387350479
 30
0.0
 11
2245.0103709521868
 21
1205.2706387350479
 31
0.0
 70
     0
 13
2022.510370952187
 23
1287.0416726184269
 33
0.0
 14
2467.5103709521868
 24
1287.0416726184269
 34
0.0
1001
ACAD
1000
DSTYLE
1002
{
1070
   287
1070
     3
1070
    40
1040
15.0
1070
   143
1040
0.039
1070
   172
1070
     1
1070
   271
1070
     0
1070
   279
1070
     0
1002
}
  0
DIMENSION
  5
83BB
  8
3
  2
*D17
 10
2523.5103709521868
 20
1167.7706387350479
 30
0.0
 11
2633.8675138093299
 21
1205.2706387350479
 31
0.0
 70
     0
 13
2467.5103709521868
 23
1287.0416726184269
 33
0.0
 14
2523.5103709521868
 24
1287.0416726184269
 34
0.0
1001
ACAD
1000
DSTYLE
1002
{
1070
   287
1070
     3
1070
    40
1040
15.0
1070
   143
1040
0.039
1070
   172
1070
     1
1070
   271
1070
     0
1070
   279
1070
     0
1002
}
  0
DIMENSION
  5
83C8
  8
3
  2
*D18
 10
1602.3531802596019
 20
1287.0647475178839
 30
0.0
 11
1564.8531802596019
 21
1547.0647475178851
 31
0.0
 70
     0
 13
1164.204108809442
 23
1807.064747517886
 33
0.0
 14
1335.204108809442
 24
1287.0647475178851
 34
0.0
 50
90.0
1001
ACAD
1000
DSTYLE
1002
{
1070
   287
1070
     3
1070
    40
1040
15.0
1070
   143
1040
0.039
1070
   172
1070
     1
1070
   271
1070
     0
1070
   279
1070
     0
1002
}
  0
ENDSEC
  0
EOF
