  0
SECTION
  2
HEADER
  9
$ACADVER
  1
AC1009
  9
$INSBASE
 10
0.0
 20
0.0
 30
0.0
  9
$EXTMIN
 10
3791.5304363835421
 20
0.0000009706882338
 30
0.0
  9
$EXTMAX
 10
5891.530436383543
 20
2950.0000009706878
 30
0.0
  9
$LIMMIN
 10
0.0
 20
0.0
  9
$LIMMAX
 10
297.0
 20
210.0
  9
$ORTHOMODE
 70
     0
  9
$REGENMODE
 70
     1
  9
$FILLMODE
 70
     1
  9
$QTEXTMODE
 70
     0
  9
$MIRRTEXT
 70
     0
  9
$DRAGMODE
 70
     2
  9
$LTSCALE
 40
50.0
  9
$OSMODE
 70
   545
  9
$ATTMODE
 70
     1
  9
$TEXTSIZE
 40
3.5
  9
$TRACEWID
 40
0.05
  9
$TEXTSTYLE
  7
STANDARD
  9
$CLAYER
  8
SP
  9
$CELTYPE
  6
BYLAYER
  9
$CECOLOR
 62
   256
  9
$DIMSCALE
 40
10.0
  9
$DIMASZ
 40
2.5
  9
$DIMEXO
 40
1.0
  9
$DIMDLI
 40
7.0
  9
$DIMRND
 40
0.0
  9
$DIMDLE
 40
0.0
  9
$DIMEXE
 40
1.0
  9
$DIMTP
 40
0.0
  9
$DIMTM
 40
0.0
  9
$DIMTXT
 40
3.0
  9
$DIMCEN
 40
0.0
  9
$DIMTSZ
 40
0.0
  9
$DIMTOL
 70
     0
  9
$DIMLIM
 70
     0
  9
$DIMTIH
 70
     0
  9
$DIMTOH
 70
     0
  9
$DIMSE1
 70
     0
  9
$DIMSE2
 70
     0
  9
$DIMTAD
 70
     1
  9
$DIMZIN
 70
     8
  9
$DIMBLK
  1

  9
$DIMASO
 70
     1
  9
$DIMSHO
 70
     1
  9
$DIMPOST
  1

  9
$DIMAPOST
  1

  9
$DIMALT
 70
     0
  9
$DIMALTD
 70
     2
  9
$DIMALTF
 40
0.03937
  9
$DIMLFAC
 40
1.0
  9
$DIMTOFL
 70
     1
  9
$DIMTVP
 40
0.0
  9
$DIMTIX
 70
     0
  9
$DIMSOXD
 70
     0
  9
$DIMSAH
 70
     1
  9
$DIMBLK1
  1
OPEN
  9
$DIMBLK2
  1
OPEN
  9
$DIMSTYLE
  2
GOD
  9
$DIMCLRD
 70
   256
  9
$DIMCLRE
 70
   256
  9
$DIMCLRT
 70
   256
  9
$DIMTFAC
 40
1.0
  9
$DIMGAP
 40
1.0
  9
$LUNITS
 70
     2
  9
$LUPREC
 70
     3
  9
$SKETCHINC
 40
0.1
  9
$FILLETRAD
 40
0.0
  9
$AUNITS
 70
     0
  9
$AUPREC
 70
     2
  9
$MENU
  1
acad
  9
$ELEVATION
 40
0.0
  9
$PELEVATION
 40
0.0
  9
$THICKNESS
 40
0.0
  9
$LIMCHECK
 70
     0
  9
$BLIPMODE
 70
     0
  9
$CHAMFERA
 40
0.0
  9
$CHAMFERB
 40
0.0
  9
$SKPOLY
 70
     0
  9
$TDCREATE
 40
2454939.5747812148
  9
$TDUPDATE
 40
2454953.8291652198
  9
$TDINDWG
 40
0.0492827431
  9
$TDUSRTIMER
 40
0.0492827431
  9
$USRTIMER
 70
     1
  9
$ANGBASE
 50
0.0
  9
$ANGDIR
 70
     0
  9
$PDMODE
 70
     0
  9
$PDSIZE
 40
1.0
  9
$PLINEWID
 40
0.0
  9
$COORDS
 70
     2
  9
$SPLFRAME
 70
     0
  9
$SPLINETYPE
 70
     6
  9
$SPLINESEGS
 70
     8
  9
$ATTDIA
 70
     0
  9
$ATTREQ
 70
     1
  9
$HANDLING
 70
 22529
  9
$HANDSEED
  5
6CA3
  9
$SURFTAB1
 70
     6
  9
$SURFTAB2
 70
     6
  9
$SURFTYPE
 70
     6
  9
$SURFU
 70
     6
  9
$SURFV
 70
     6
  9
$UCSNAME
  2

  9
$UCSORG
 10
0.0
 20
0.0
 30
0.0
  9
$UCSXDIR
 10
1.0
 20
0.0
 30
0.0
  9
$UCSYDIR
 10
0.0
 20
1.0
 30
0.0
  9
$PUCSNAME
  2

  9
$PUCSORG
 10
0.0
 20
0.0
 30
0.0
  9
$PUCSXDIR
 10
1.0
 20
0.0
 30
0.0
  9
$PUCSYDIR
 10
0.0
 20
1.0
 30
0.0
  9
$USERI1
 70
     0
  9
$USERI2
 70
     0
  9
$USERI3
 70
     0
  9
$USERI4
 70
     0
  9
$USERI5
 70
     0
  9
$USERR1
 40
0.0
  9
$USERR2
 40
0.0
  9
$USERR3
 40
0.0
  9
$USERR4
 40
0.0
  9
$USERR5
 40
0.0
  9
$WORLDVIEW
 70
     1
  9
$SHADEDGE
 70
     3
  9
$SHADEDIF
 70
    70
  9
$TILEMODE
 70
     1
  9
$MAXACTVP
 70
    16
  9
$PLIMCHECK
 70
     0
  9
$PEXTMIN
 10
1.0000000000000000E+020
 20
1.0000000000000000E+020
 30
1.0000000000000000E+020
  9
$PEXTMAX
 10
-1.0000000000000000E+020
 20
-1.0000000000000000E+020
 30
-1.0000000000000000E+020
  9
$PLIMMIN
 10
0.0
 20
0.0
  9
$PLIMMAX
 10
12.0
 20
9.0
  9
$UNITMODE
 70
     0
  9
$VISRETAIN
 70
     0
  9
$PLINEGEN
 70
     0
  9
$PSLTSCALE
 70
     0
  0
ENDSEC
  0
SECTION
  2
TABLES
  0
TABLE
  2
VPORT
 70
     2
  0
VPORT
  2
*ACTIVE
 70
     0
 10
0.0
 20
0.0
 11
1.0
 21
1.0
 12
5028.1815087162304
 22
1474.9982158939581
 13
0.0
 23
0.0
 14
5.0
 24
5.0
 15
0.0
 25
0.0
 16
0.0
 26
0.0
 36
1.0
 17
0.0
 27
0.0
 37
0.0
 40
2974.454562686823
 41
1.6307901907356941
 42
50.0
 43
0.0
 44
0.0
 50
0.0
 51
0.0
 71
     0
 72
   100
 73
     1
 74
     0
 75
     0
 76
     0
 77
     0
 78
     0
  0
ENDTAB
  0
TABLE
  2
LTYPE
 70
     4
  0
LTYPE
  2
CONTINUOUS
 70
     0
  3
Solid line
 72
    65
 73
     0
 40
0.0
  0
LTYPE
  2
CENTER
 70
     0
  3
____ _ ____ _ ____ _ ____ _ ____ _ ____ _ ____ 
 72
    65
 73
     4
 40
2.0
 49
1.25
 49
-0.25
 49
0.25
 49
-0.25
  0
LTYPE
  2
HIDDEN
 70
     0
  3
__ __ __ __ __ __ __ __ __ __ __ __ __ __ __ __
 72
    65
 73
     2
 40
0.375
 49
0.25
 49
-0.125
  0
LTYPE
  2
PHANTOM
 70
     0
  3
______  __  __  ______  __  __  ______  __  __ 
 72
    65
 73
     6
 40
2.5
 49
1.25
 49
-0.25
 49
0.25
 49
-0.25
 49
0.25
 49
-0.25
  0
ENDTAB
  0
TABLE
  2
LAYER
 70
    13
  0
LAYER
  2
0
 70
     0
 62
     7
  6
CONTINUOUS
  0
LAYER
  2
CT
 70
     0
 62
     3
  6
CENTER
  0
LAYER
  2
FUTO
 70
     0
 62
     4
  6
CONTINUOUS
  0
LAYER
  2
HOSO
 70
     0
 62
     7
  6
CONTINUOUS
  0
LAYER
  2
KL
 70
     0
 62
     7
  6
HIDDEN
  0
LAYER
  2
MOJI
 70
     0
 62
     3
  6
CONTINUOUS
  0
LAYER
  2
SL
 70
     0
 62
     1
  6
PHANTOM
  0
LAYER
  2
SP
 70
     0
 62
     2
  6
CONTINUOUS
  0
LAYER
  2
DEFPOINTS
 70
     0
 62
     7
  6
CONTINUOUS
  0
LAYER
  2
1
 70
     0
 62
     4
  6
CONTINUOUS
  0
LAYER
  2
3
 70
     0
 62
     2
  6
CONTINUOUS
  0
LAYER
  2
2
 70
     0
 62
     3
  6
CENTER
  0
LAYER
  2
4
 70
     0
 62
     7
  6
CONTINUOUS
  0
ENDTAB
  0
TABLE
  2
STYLE
 70
     1
  0
STYLE
  2
STANDARD
 70
     0
 40
0.0
 41
1.0
 50
15.0
 71
     0
 42
3.5
  3
C:\Program Files\AutoCAD LT\simplex.shx
  4
C:\Program Files\AutoCAD LT\extfont.shx
  0
ENDTAB
  0
TABLE
  2
VIEW
 70
     0
  0
ENDTAB
  0
TABLE
  2
UCS
 70
     0
  0
ENDTAB
  0
TABLE
  2
APPID
 70
     1
  0
APPID
  2
ACAD
 70
     0
  0
ENDTAB
  0
TABLE
  2
DIMSTYLE
 70
     3
  0
DIMSTYLE
  2
STANDARD
 70
     0
  3

  4

  5

  6

  7

 40
1.0
 41
0.18
 42
0.0625
 43
0.38
 44
0.18
 45
0.0
 46
0.0
 47
0.0
 48
0.0
140
0.18
141
0.09
142
0.0
143
25.399999999999999
144
1.0
145
0.0
146
1.0
147
0.09
 71
     0
 72
     0
 73
     1
 74
     1
 75
     0
 76
     0
 77
     0
 78
     0
170
     0
171
     2
172
     0
173
     0
174
     0
175
     0
176
     0
177
     0
178
     0
  0
DIMSTYLE
  2
GOD
 70
     0
  3

  4

  5

  6
OPEN
  7
OPEN
 40
10.0
 41
2.5
 42
1.0
 43
7.0
 44
1.0
 45
0.0
 46
0.0
 47
0.0
 48
0.0
140
3.0
141
0.0
142
0.0
143
0.03937
144
1.0
145
0.0
146
1.0
147
1.0
 71
     0
 72
     0
 73
     0
 74
     0
 75
     0
 76
     0
 77
     1
 78
     8
170
     0
171
     2
172
     1
173
     1
174
     0
175
     0
176
   256
177
   256
178
   256
  0
DIMSTYLE
  2
DIA1
 70
     0
  3

  4

  5
ARROW
  6

  7

 40
1.0
 41
2.0
 42
1.0
 43
10.0
 44
1.0
 45
0.0
 46
0.0
 47
0.0
 48
0.0
140
2.5
141
0.0
142
0.0
143
25.399999999999999
144
1.0
145
0.0
146
1.0
147
0.09
 71
     0
 72
     0
 73
     0
 74
     0
 75
     0
 76
     0
 77
     1
 78
     8
170
     0
171
     2
172
     1
173
     0
174
     0
175
     0
176
     2
177
     2
178
     2
  0
ENDTAB
  0
ENDSEC
  0
SECTION
  2
BLOCKS
  0
BLOCK
  8
0
  2
$MODEL_SPACE
 70
     0
 10
0.0
 20
0.0
 30
0.0
  3
$MODEL_SPACE
  1

  0
ENDBLK
  5
1B
  8
0
  0
BLOCK
 67
     1
  8
0
  2
$PAPER_SPACE
 70
     0
 10
0.0
 20
0.0
 30
0.0
  3
$PAPER_SPACE
  1

  0
ENDBLK
  5
18
 67
     1
  8
0
  0
BLOCK
  8
0
  2
_OPEN
 70
     0
 10
0.0
 20
0.0
 30
0.0
  3
_OPEN
  1

  0
LINE
  5
1E81
  8
0
  6
BYBLOCK
 62
     0
 10
-1.0
 20
0.1666666666666666
 30
0.0
 11
0.0
 21
0.0
 31
0.0
  0
LINE
  5
1E82
  8
0
  6
BYBLOCK
 62
     0
 10
0.0
 20
0.0
 30
0.0
 11
-1.0
 21
-0.1666666666666666
 31
0.0
  0
LINE
  5
1E83
  8
0
  6
BYBLOCK
 62
     0
 10
0.0
 20
0.0
 30
0.0
 11
-1.0
 21
0.0
 31
0.0
  0
ENDBLK
  5
1E84
  8
0
  0
BLOCK
  8
0
  2
_DOT
 70
     0
 10
0.0
 20
0.0
 30
0.0
  3
_DOT
  1

  0
LINE
  5
1EC3
  8
0
  6
BYBLOCK
 62
     0
 10
0.0
 20
0.0
 30
0.0
 11
-1.0
 21
-0.0000000000000284
 31
0.0
  0
POLYLINE
  5
1EC4
  8
0
  6
BYBLOCK
 62
     0
 66
     1
 10
0.0
 20
0.0
 30
0.0
 70
     1
 40
0.1666666666666666
 41
0.1666666666666666
  0
VERTEX
  5
6C87
  8
0
  6
BYBLOCK
 62
     0
 10
-0.0833333333333286
 20
-0.0000000000000284
 30
0.0
 42
1.0
  0
VERTEX
  5
6C88
  8
0
  6
BYBLOCK
 62
     0
 10
0.0833333333333286
 20
-0.0000000000000284
 30
0.0
 42
1.0
  0
SEQEND
  5
6C89
  8
0
  6
BYBLOCK
 62
     0
  0
ENDBLK
  5
1EB8
  8
0
  0
BLOCK
  8
0
  2
ARROW
 70
     0
 10
0.0
 20
0.0
 30
0.0
  3
ARROW
  1

  0
LINE
  5
1EEF
  8
0
 10
-0.9999999999999991
 20
0.1666666667000003
 30
0.0
 11
0.0
 21
0.0
 31
0.0
  0
LINE
  5
1EF0
  8
0
 10
-0.9999999999999991
 20
0.0
 30
0.0
 11
0.0
 21
0.0
 31
0.0
  0
LINE
  5
1EF1
  8
0
 10
-0.9999999999999991
 20
-0.1666666667000003
 30
0.0
 11
0.0
 21
0.0
 31
0.0
  0
ENDBLK
  5
1EF3
  8
0
  0
BLOCK
  8
0
  2
_NONE
 70
     0
 10
0.0
 20
0.0
 30
0.0
  3
_NONE
  1

  0
ENDBLK
  5
1F6F
  8
0
  0
BLOCK
  8
0
  2
*D4
 70
     1
 10
0.0
 20
0.0
 30
0.0
  3
*D4
  1

  0
LINE
  5
68F3
  8
3
 10
5429.4934153480954
 20
1243.9956548530949
 30
0.0
 11
5495.3535510034462
 21
1243.9956548530949
 31
0.0
  0
LINE
  5
68F4
  8
3
 10
5429.4934153480954
 20
1043.9956548530949
 30
0.0
 11
5495.3535510034462
 21
1043.9956548530949
 31
0.0
  0
LINE
  5
68F5
  8
3
 10
5485.3535510034453
 20
1218.9956548530949
 30
0.0
 11
5485.3535510034453
 21
1068.9956548530949
 31
0.0
  0
INSERT
  5
68F6
  8
3
  2
_OPEN
 10
5485.3535510034453
 20
1243.9956548530949
 30
0.0
 41
25.0
 42
25.0
 43
25.0
 50
90.0
  0
INSERT
  5
68F7
  8
3
  2
_OPEN
 10
5485.3535510034453
 20
1043.9956548530949
 30
0.0
 41
25.0
 42
25.0
 43
25.0
 50
270.0
  0
INSERT
  5
68F8
  8
SP
  2
*U22
 10
0.0
 20
0.0
 30
0.0
  0
POINT
  5
68F9
  8
DEFPOINTS
 62
     0
 10
5419.4934153480963
 20
1243.9956548530949
 30
0.0
  0
POINT
  5
68FA
  8
DEFPOINTS
 62
     0
 10
5419.4934153480963
 20
1043.9956548530949
 30
0.0
  0
POINT
  5
68FB
  8
DEFPOINTS
 62
     0
 10
5485.3535510034453
 20
1043.9956548530949
 30
0.0
  0
ENDBLK
  5
5976
  8
0
  0
BLOCK
  8
0
  2
*D5
 70
     1
 10
0.0
 20
0.0
 30
0.0
  3
*D5
  1

  0
LINE
  5
695F
  8
SP
 10
5272.4934153480954
 20
1313.9956548530949
 30
0.0
 11
5272.4934153480954
 21
1383.9956548530949
 31
0.0
  0
LINE
  5
6960
  8
SP
 10
5412.4934153480972
 20
1313.9956548530949
 30
0.0
 11
5412.4934153480972
 21
1383.9956548530949
 31
0.0
  0
LINE
  5
6961
  8
SP
 10
5297.4934153480954
 20
1373.9956548530949
 30
0.0
 11
5387.4934153480972
 21
1373.9956548530949
 31
0.0
  0
INSERT
  5
6962
  8
SP
  2
_OPEN
 10
5272.4934153480954
 20
1373.9956548530949
 30
0.0
 41
25.0
 42
25.0
 43
25.0
 50
180.0
  0
INSERT
  5
6963
  8
SP
  2
_OPEN
 10
5412.4934153480972
 20
1373.9956548530949
 30
0.0
 41
25.0
 42
25.0
 43
25.0
  0
TEXT
  5
6964
  8
SP
 10
5300.9860778176262
 20
1383.9956548530949
 30
0.0
 40
30.0
  1
140
 51
15.0
  0
POINT
  5
6965
  8
DEFPOINTS
 62
     0
 10
5272.4934153480954
 20
1303.9956548530949
 30
0.0
  0
POINT
  5
6966
  8
DEFPOINTS
 62
     0
 10
5412.4934153480972
 20
1303.9956548530949
 30
0.0
  0
POINT
  5
6967
  8
DEFPOINTS
 62
     0
 10
5412.4934153480972
 20
1373.9956548530949
 30
0.0
  0
ENDBLK
  5
59D6
  8
0
  0
BLOCK
  8
0
  2
*D6
 70
     1
 10
0.0
 20
0.0
 30
0.0
  3
*D6
  1

  0
LINE
  5
6968
  8
SP
 10
5342.4934153480981
 20
1418.908141808362
 30
0.0
 11
5342.4934153480981
 21
1453.9956548530949
 31
0.0
  0
LINE
  5
6969
  8
SP
 10
5419.4934153480963
 20
1270.9956548530949
 30
0.0
 11
5419.4934153480963
 21
1453.9956548530949
 31
0.0
  0
LINE
  5
696A
  8
SP
 10
5367.4934153480972
 20
1443.9956548530949
 30
0.0
 11
5394.4934153480963
 21
1443.9956548530949
 31
0.0
  0
INSERT
  5
696B
  8
SP
  2
_OPEN
 10
5342.4934153480981
 20
1443.9956548530949
 30
0.0
 41
25.0
 42
25.0
 43
25.0
 50
180.0
  0
INSERT
  5
696C
  8
SP
  2
_OPEN
 10
5419.4934153480963
 20
1443.9956548530949
 30
0.0
 41
25.0
 42
25.0
 43
25.0
  0
TEXT
  5
696D
  8
SP
 10
5349.8313203187727
 20
1453.9956548530949
 30
0.0
 40
30.0
  1
77
 51
15.0
  0
POINT
  5
696E
  8
DEFPOINTS
 62
     0
 10
5342.4934153480981
 20
1408.908141808362
 30
0.0
  0
POINT
  5
696F
  8
DEFPOINTS
 62
     0
 10
5419.4934153480963
 20
1260.995654853094
 30
0.0
  0
POINT
  5
6970
  8
DEFPOINTS
 62
     0
 10
5419.4934153480963
 20
1443.9956548530949
 30
0.0
  0
ENDBLK
  5
59E2
  8
0
  0
BLOCK
  8
0
  2
*D7
 70
     1
 10
0.0
 20
0.0
 30
0.0
  3
*D7
  1

  0
LINE
  5
6971
  8
SP
 10
5342.4934153480981
 20
1423.9956548530949
 30
0.0
 11
5342.4934153480981
 21
1453.9956548530949
 31
0.0
  0
LINE
  5
6972
  8
SP
 10
5042.4934153480972
 20
1214.0342853677109
 30
0.0
 11
5042.4934153480972
 21
1453.9956548530949
 31
0.0
  0
LINE
  5
6973
  8
SP
 10
5317.4934153480972
 20
1443.9956548530949
 30
0.0
 11
5067.4934153480972
 21
1443.9956548530949
 31
0.0
  0
INSERT
  5
6974
  8
SP
  2
_OPEN
 10
5342.4934153480981
 20
1443.9956548530949
 30
0.0
 41
25.0
 42
25.0
 43
25.0
  0
INSERT
  5
6975
  8
SP
  2
_OPEN
 10
5042.4934153480972
 20
1443.9956548530949
 30
0.0
 41
25.0
 42
25.0
 43
25.0
 50
180.0
  0
TEXT
  5
6976
  8
SP
 10
5125.5837136076971
 20
1453.9956548530949
 30
0.0
 40
30.0
  1
（340）
 51
15.0
  0
POINT
  5
6977
  8
DEFPOINTS
 62
     0
 10
5342.4934153480981
 20
1413.9956548530949
 30
0.0
  0
POINT
  5
6978
  8
DEFPOINTS
 62
     0
 10
5042.4934153480972
 20
1204.0342853677109
 30
0.0
  0
POINT
  5
6979
  8
DEFPOINTS
 62
     0
 10
5042.4934153480972
 20
1443.9956548530949
 30
0.0
  0
ENDBLK
  5
59EE
  8
0
  0
BLOCK
  8
0
  2
*D8
 70
     1
 10
0.0
 20
0.0
 30
0.0
  3
*D8
  1

  0
LINE
  5
6944
  8
SP
 10
4397.9505320783064
 20
1330.1561682696949
 30
0.0
 11
4397.9505320783064
 21
1383.9956548530949
 31
0.0
  0
LINE
  5
6945
  8
SP
 10
4597.9505320783064
 20
1313.9956548530961
 30
0.0
 11
4597.9505320783064
 21
1383.9956548530949
 31
0.0
  0
LINE
  5
6946
  8
SP
 10
4422.9505320783064
 20
1373.9956548530949
 30
0.0
 11
4572.9505320783064
 21
1373.9956548530949
 31
0.0
  0
INSERT
  5
6947
  8
SP
  2
_OPEN
 10
4397.9505320783064
 20
1373.9956548530949
 30
0.0
 41
25.0
 42
25.0
 43
25.0
 50
180.0
  0
INSERT
  5
6948
  8
SP
  2
_OPEN
 10
4597.9505320783064
 20
1373.9956548530949
 30
0.0
 41
25.0
 42
25.0
 43
25.0
  0
TEXT
  5
6949
  8
SP
 10
4456.8397204559287
 20
1383.9956548530949
 30
0.0
 40
30.0
  1
200
 51
15.0
  0
POINT
  5
694A
  8
DEFPOINTS
 62
     0
 10
4397.9505320783064
 20
1320.1561682696949
 30
0.0
  0
POINT
  5
694B
  8
DEFPOINTS
 62
     0
 10
4597.9505320783064
 20
1303.9956548530961
 30
0.0
  0
POINT
  5
694C
  8
DEFPOINTS
 62
     0
 10
4597.9505320783064
 20
1373.9956548530949
 30
0.0
  0
ENDBLK
  5
59FA
  8
0
  0
BLOCK
  8
0
  2
*D9
 70
     1
 10
0.0
 20
0.0
 30
0.0
  3
*D9
  1

  0
LINE
  5
68FC
  8
SP
 10
4212.2849030726193
 20
1143.9956548530949
 30
0.0
 11
4157.9505320783046
 21
1143.9956548530949
 31
0.0
  0
LINE
  5
68FD
  8
SP
 10
4222.9505320783037
 20
903.9956548530954
 30
0.0
 11
4157.9505320783046
 21
903.9956548530954
 31
0.0
  0
LINE
  5
68FE
  8
SP
 10
4167.9505320783064
 20
1118.9956548530949
 30
0.0
 11
4167.9505320783064
 21
928.9956548530954
 31
0.0
  0
INSERT
  5
68FF
  8
SP
  2
_OPEN
 10
4167.9505320783064
 20
1143.9956548530949
 30
0.0
 41
25.0
 42
25.0
 43
25.0
 50
90.0
  0
INSERT
  5
6900
  8
SP
  2
_OPEN
 10
4167.9505320783064
 20
903.9956548530954
 30
0.0
 41
25.0
 42
25.0
 43
25.0
 50
270.0
  0
TEXT
  5
6901
  8
SP
 10
4157.9505320783046
 20
982.88484323071805
 30
0.0
 40
30.0
  1
240
 50
90.0
 51
15.0
  0
POINT
  5
6902
  8
DEFPOINTS
 62
     0
 10
4222.2849030726193
 20
1143.9956548530949
 30
0.0
  0
POINT
  5
6903
  8
DEFPOINTS
 62
     0
 10
4232.9505320783037
 20
903.9956548530954
 30
0.0
  0
POINT
  5
6904
  8
DEFPOINTS
 62
     0
 10
4167.9505320783064
 20
903.9956548530954
 30
0.0
  0
ENDBLK
  5
5A1E
  8
0
  0
BLOCK
  8
0
  2
*D10
 70
     1
 10
0.0
 20
0.0
 30
0.0
  3
*D10
  1

  0
LINE
  5
6956
  8
SP
 10
4212.2849030726193
 20
1143.9956548530949
 30
0.0
 11
4157.9505320783046
 21
1143.9956548530949
 31
0.0
  0
LINE
  5
6957
  8
SP
 10
4366.9505320783064
 20
1303.9956548530961
 30
0.0
 11
4157.9505320783046
 21
1303.9956548530961
 31
0.0
  0
LINE
  5
6958
  8
SP
 10
4167.9505320783064
 20
1168.9956548530949
 30
0.0
 11
4167.9505320783064
 21
1278.9956548530961
 31
0.0
  0
INSERT
  5
6959
  8
SP
  2
_OPEN
 10
4167.9505320783064
 20
1143.9956548530949
 30
0.0
 41
25.0
 42
25.0
 43
25.0
 50
270.0
  0
INSERT
  5
695A
  8
SP
  2
_OPEN
 10
4167.9505320783064
 20
1303.9956548530961
 30
0.0
 41
25.0
 42
25.0
 43
25.0
 50
90.0
  0
TEXT
  5
695B
  8
SP
 10
4157.9505320783046
 20
1182.488317322626
 30
0.0
 40
30.0
  1
160
 50
90.0
 51
15.0
  0
POINT
  5
695C
  8
DEFPOINTS
 62
     0
 10
4222.2849030726193
 20
1143.9956548530949
 30
0.0
  0
POINT
  5
695D
  8
DEFPOINTS
 62
     0
 10
4376.9505320783064
 20
1303.9956548530961
 30
0.0
  0
POINT
  5
695E
  8
DEFPOINTS
 62
     0
 10
4167.9505320783064
 20
1303.9956548530961
 30
0.0
  0
ENDBLK
  5
5A36
  8
0
  0
BLOCK
  8
0
  2
*D11
 70
     1
 10
0.0
 20
0.0
 30
0.0
  3
*D11
  1

  0
LINE
  5
694D
  8
SP
 10
4397.9505320783064
 20
1330.1561682696949
 30
0.0
 11
4397.9505320783064
 21
1383.9956548530949
 31
0.0
  0
LINE
  5
694E
  8
SP
 10
4257.9505320783064
 20
1139.9956548530961
 30
0.0
 11
4257.9505320783064
 21
1383.9956548530949
 31
0.0
  0
LINE
  5
694F
  8
SP
 10
4372.9505320783064
 20
1373.9956548530949
 30
0.0
 11
4282.9505320783064
 21
1373.9956548530949
 31
0.0
  0
INSERT
  5
6950
  8
SP
  2
_OPEN
 10
4397.9505320783064
 20
1373.9956548530949
 30
0.0
 41
25.0
 42
25.0
 43
25.0
  0
INSERT
  5
6951
  8
SP
  2
_OPEN
 10
4257.9505320783064
 20
1373.9956548530949
 30
0.0
 41
25.0
 42
25.0
 43
25.0
 50
180.0
  0
TEXT
  5
6952
  8
SP
 10
4286.4431945478364
 20
1383.9956548530949
 30
0.0
 40
30.0
  1
140
 51
15.0
  0
POINT
  5
6953
  8
DEFPOINTS
 62
     0
 10
4397.9505320783064
 20
1320.1561682696949
 30
0.0
  0
POINT
  5
6954
  8
DEFPOINTS
 62
     0
 10
4257.9505320783064
 20
1129.9956548530961
 30
0.0
  0
POINT
  5
6955
  8
DEFPOINTS
 62
     0
 10
4257.9505320783064
 20
1373.9956548530949
 30
0.0
  0
ENDBLK
  5
5A42
  8
0
  0
BLOCK
  8
0
  2
*D12
 70
     1
 10
0.0
 20
0.0
 30
0.0
  3
*D12
  1

  0
LINE
  5
6A13
  8
SP
 10
4562.9505320783064
 20
1798.8970137353699
 30
0.0
 11
4562.9505320783064
 21
1648.952542294571
 31
0.0
  0
LINE
  5
6A14
  8
SP
 10
4232.9505320783064
 20
1798.8970137353699
 30
0.0
 11
4232.9505320783064
 21
1648.952542294571
 31
0.0
  0
LINE
  5
6A15
  8
SP
 10
4537.9505320783073
 20
1658.952542294571
 30
0.0
 11
4257.9505320783064
 21
1658.952542294571
 31
0.0
  0
INSERT
  5
6A16
  8
SP
  2
_OPEN
 10
4562.9505320783064
 20
1658.952542294571
 30
0.0
 41
25.0
 42
25.0
 43
25.0
  0
INSERT
  5
6A17
  8
SP
  2
_OPEN
 10
4232.9505320783064
 20
1658.952542294571
 30
0.0
 41
25.0
 42
25.0
 43
25.0
 50
180.0
  0
TEXT
  5
6A18
  8
SP
 10
4356.0741513346966
 20
1668.952542294571
 30
0.0
 40
30.0
  1
330
 51
15.0
  0
POINT
  5
6A19
  8
DEFPOINTS
 62
     0
 10
4562.9505320783064
 20
1808.897013735369
 30
0.0
  0
POINT
  5
6A1A
  8
DEFPOINTS
 62
     0
 10
4232.9505320783064
 20
1808.897013735369
 30
0.0
  0
POINT
  5
6A1B
  8
DEFPOINTS
 62
     0
 10
4232.9505320783064
 20
1658.952542294571
 30
0.0
  0
ENDBLK
  5
5A66
  8
0
  0
BLOCK
  8
0
  2
*D13
 70
     1
 10
0.0
 20
0.0
 30
0.0
  3
*D13
  1

  0
LINE
  5
6A1C
  8
SP
 10
4222.9505320783064
 20
1978.8970137353699
 30
0.0
 11
4144.5857122339758
 21
1978.8970137353699
 31
0.0
  0
LINE
  5
6A1D
  8
SP
 10
4222.9505320783064
 20
1808.897013735369
 30
0.0
 11
4144.5857122339758
 21
1808.897013735369
 31
0.0
  0
LINE
  5
6A1E
  8
SP
 10
4154.5857122339758
 20
1953.8970137353699
 30
0.0
 11
4154.5857122339758
 21
1833.897013735369
 31
0.0
  0
INSERT
  5
6A1F
  8
SP
  2
_OPEN
 10
4154.5857122339758
 20
1978.8970137353699
 30
0.0
 41
25.0
 42
25.0
 43
25.0
 50
90.0
  0
INSERT
  5
6A20
  8
SP
  2
_OPEN
 10
4154.5857122339758
 20
1808.897013735369
 30
0.0
 41
25.0
 42
25.0
 43
25.0
 50
270.0
  0
TEXT
  5
6A21
  8
SP
 10
4144.5857122339758
 20
1852.3896762049001
 30
0.0
 40
30.0
  1
170
 50
90.0
 51
15.0
  0
POINT
  5
6A22
  8
DEFPOINTS
 62
     0
 10
4232.9505320783064
 20
1978.8970137353699
 30
0.0
  0
POINT
  5
6A23
  8
DEFPOINTS
 62
     0
 10
4232.9505320783064
 20
1808.897013735369
 30
0.0
  0
POINT
  5
6A24
  8
DEFPOINTS
 62
     0
 10
4154.5857122339758
 20
1808.897013735369
 30
0.0
  0
ENDBLK
  5
5A72
  8
0
  0
BLOCK
  8
0
  2
*D14
 70
     1
 10
0.0
 20
0.0
 30
0.0
  3
*D14
  1

  0
LINE
  5
6A0A
  8
SP
 10
4222.9505320783064
 20
1978.8970137353699
 30
0.0
 11
4144.5857122339748
 21
1978.8970137353699
 31
0.0
  0
LINE
  5
6A0B
  8
SP
 10
4212.2849030726193
 20
2055.8970137353699
 30
0.0
 11
4144.5857122339758
 21
2055.8970137353699
 31
0.0
  0
LINE
  5
6A0C
  8
SP
 10
4154.5857122339758
 20
2003.897013735369
 30
0.0
 11
4154.5857122339758
 21
2030.8970137353699
 31
0.0
  0
INSERT
  5
6A0D
  8
SP
  2
_OPEN
 10
4154.5857122339758
 20
1978.8970137353699
 30
0.0
 41
25.0
 42
25.0
 43
25.0
 50
270.0
  0
INSERT
  5
6A0E
  8
SP
  2
_OPEN
 10
4154.5857122339758
 20
2055.8970137353699
 30
0.0
 41
25.0
 42
25.0
 43
25.0
 50
90.0
  0
TEXT
  5
6A0F
  8
SP
 10
4144.5857122339748
 20
1986.2349187060461
 30
0.0
 40
30.0
  1
77
 50
90.0
 51
15.0
  0
POINT
  5
6A10
  8
DEFPOINTS
 62
     0
 10
4232.9505320783064
 20
1978.8970137353699
 30
0.0
  0
POINT
  5
6A11
  8
DEFPOINTS
 62
     0
 10
4222.2849030726193
 20
2055.8970137353699
 30
0.0
  0
POINT
  5
6A12
  8
DEFPOINTS
 62
     0
 10
4154.5857122339758
 20
2055.8970137353699
 30
0.0
  0
ENDBLK
  5
5A7E
  8
0
  0
BLOCK
  8
0
  2
*D15
 70
     1
 10
0.0
 20
0.0
 30
0.0
  3
*D15
  1

  0
LINE
  5
6B16
  8
SP
 10
4397.9505320783064
 20
743.08733075560588
 30
0.0
 11
4397.9505320783064
 21
693.9956548530954
 31
0.0
  0
LINE
  5
6B17
  8
SP
 10
4232.9505320783082
 20
763.99565485309495
 30
0.0
 11
4232.9505320783082
 21
693.9956548530954
 31
0.0
  0
LINE
  5
6B18
  8
SP
 10
4372.9505320783064
 20
703.9956548530954
 30
0.0
 11
4257.9505320783073
 21
703.9956548530954
 31
0.0
  0
INSERT
  5
6B19
  8
SP
  2
_OPEN
 10
4397.9505320783064
 20
703.9956548530954
 30
0.0
 41
25.0
 42
25.0
 43
25.0
  0
INSERT
  5
6B1A
  8
SP
  2
_OPEN
 10
4232.9505320783082
 20
703.9956548530954
 30
0.0
 41
25.0
 42
25.0
 43
25.0
 50
180.0
  0
TEXT
  5
6B1B
  8
SP
 10
4273.8919111408904
 20
713.99565485309529
 30
0.0
 40
30.0
  1
165
 51
15.0
  0
POINT
  5
6B1C
  8
DEFPOINTS
 62
     0
 10
4397.9505320783064
 20
753.08733075560599
 30
0.0
  0
POINT
  5
6B1D
  8
DEFPOINTS
 62
     0
 10
4232.9505320783082
 20
773.99565485309495
 30
0.0
  0
POINT
  5
6B1E
  8
DEFPOINTS
 62
     0
 10
4232.9505320783082
 20
703.9956548530954
 30
0.0
  0
ENDBLK
  5
6284
  8
0
  0
BLOCK
  8
0
  2
*D16
 70
     1
 10
0.0
 20
0.0
 30
0.0
  3
*D16
  1

  0
LINE
  5
6B04
  8
SP
 10
4232.9505320783064
 20
763.99565485309495
 30
0.0
 11
4232.9505320783064
 21
623.99565485309495
 31
0.0
  0
LINE
  5
6B05
  8
SP
 10
4562.9505320783082
 20
763.99565485309529
 30
0.0
 11
4562.9505320783082
 21
623.99565485309495
 31
0.0
  0
LINE
  5
6B06
  8
SP
 10
4257.9505320783064
 20
633.99565485309495
 30
0.0
 11
4537.9505320783082
 21
633.99565485309495
 31
0.0
  0
INSERT
  5
6B07
  8
SP
  2
_OPEN
 10
4232.9505320783064
 20
633.99565485309495
 30
0.0
 41
25.0
 42
25.0
 43
25.0
 50
180.0
  0
INSERT
  5
6B08
  8
SP
  2
_OPEN
 10
4562.9505320783082
 20
633.99565485309495
 30
0.0
 41
25.0
 42
25.0
 43
25.0
  0
TEXT
  5
6B09
  8
SP
 10
4356.0741513346984
 20
643.99565485309495
 30
0.0
 40
30.0
  1
330
 51
15.0
  0
POINT
  5
6B0A
  8
DEFPOINTS
 62
     0
 10
4232.9505320783064
 20
773.99565485309495
 30
0.0
  0
POINT
  5
6B0B
  8
DEFPOINTS
 62
     0
 10
4562.9505320783082
 20
773.9956548530954
 30
0.0
  0
POINT
  5
6B0C
  8
DEFPOINTS
 62
     0
 10
4562.9505320783082
 20
633.99565485309495
 30
0.0
  0
ENDBLK
  5
6290
  8
0
  0
BLOCK
  8
0
  2
*D17
 70
     1
 10
0.0
 20
0.0
 30
0.0
  3
*D17
  1

  0
LINE
  5
6B0D
  8
SP
 10
4397.9505320783064
 20
743.08733075560588
 30
0.0
 11
4397.9505320783064
 21
693.9956548530954
 31
0.0
  0
LINE
  5
6B0E
  8
SP
 10
4562.9505320783082
 20
763.99565485309529
 30
0.0
 11
4562.9505320783082
 21
693.9956548530954
 31
0.0
  0
LINE
  5
6B0F
  8
SP
 10
4422.9505320783064
 20
703.9956548530954
 30
0.0
 11
4537.9505320783082
 21
703.9956548530954
 31
0.0
  0
INSERT
  5
6B10
  8
SP
  2
_OPEN
 10
4397.9505320783064
 20
703.9956548530954
 30
0.0
 41
25.0
 42
25.0
 43
25.0
 50
180.0
  0
INSERT
  5
6B11
  8
SP
  2
_OPEN
 10
4562.9505320783082
 20
703.9956548530954
 30
0.0
 41
25.0
 42
25.0
 43
25.0
  0
TEXT
  5
6B12
  8
SP
 10
4438.8919111408914
 20
713.99565485309529
 30
0.0
 40
30.0
  1
165
 51
15.0
  0
POINT
  5
6B13
  8
DEFPOINTS
 62
     0
 10
4397.9505320783064
 20
753.08733075560599
 30
0.0
  0
POINT
  5
6B14
  8
DEFPOINTS
 62
     0
 10
4562.9505320783082
 20
773.9956548530954
 30
0.0
  0
POINT
  5
6B15
  8
DEFPOINTS
 62
     0
 10
4562.9505320783082
 20
703.9956548530954
 30
0.0
  0
ENDBLK
  5
629C
  8
0
  0
BLOCK
  8
0
  2
*D18
 70
     1
 10
0.0
 20
0.0
 30
0.0
  3
*D18
  1

  0
LINE
  5
6B31
  8
SP
 10
5265.4934153480981
 20
763.99565485309506
 30
0.0
 11
5265.4934153480981
 21
693.99565485309506
 31
0.0
  0
LINE
  5
6B32
  8
SP
 10
5095.493415348099
 20
763.99565485309506
 30
0.0
 11
5095.493415348099
 21
693.99565485309506
 31
0.0
  0
LINE
  5
6B33
  8
SP
 10
5240.4934153480972
 20
703.99565485309517
 30
0.0
 11
5120.493415348099
 21
703.99565485309517
 31
0.0
  0
INSERT
  5
6B34
  8
SP
  2
_OPEN
 10
5265.4934153480981
 20
703.99565485309517
 30
0.0
 41
25.0
 42
25.0
 43
25.0
  0
INSERT
  5
6B35
  8
SP
  2
_OPEN
 10
5095.493415348099
 20
703.99565485309517
 30
0.0
 41
25.0
 42
25.0
 43
25.0
 50
180.0
  0
TEXT
  5
6B36
  8
SP
 10
5138.9860778176289
 20
713.99565485309506
 30
0.0
 40
30.0
  1
170
 51
15.0
  0
POINT
  5
6B37
  8
DEFPOINTS
 62
     0
 10
5265.4934153480981
 20
773.99565485309506
 30
0.0
  0
POINT
  5
6B38
  8
DEFPOINTS
 62
     0
 10
5095.493415348099
 20
773.99565485309506
 30
0.0
  0
POINT
  5
6B39
  8
DEFPOINTS
 62
     0
 10
5095.493415348099
 20
703.99565485309517
 30
0.0
  0
ENDBLK
  5
62A8
  8
0
  0
BLOCK
  8
0
  2
*D19
 70
     1
 10
0.0
 20
0.0
 30
0.0
  3
*D19
  1

  0
LINE
  5
6B3A
  8
SP
 10
5265.4934153480999
 20
763.99565485309506
 30
0.0
 11
5265.4934153480999
 21
693.99565485309506
 31
0.0
  0
LINE
  5
6B3B
  8
SP
 10
5342.4934153480981
 20
965.01297153561973
 30
0.0
 11
5342.4934153480981
 21
693.99565485309506
 31
0.0
  0
LINE
  5
6B3C
  8
SP
 10
5290.493415348099
 20
703.99565485309517
 30
0.0
 11
5317.4934153480972
 21
703.99565485309517
 31
0.0
  0
INSERT
  5
6B3D
  8
SP
  2
_OPEN
 10
5265.4934153480999
 20
703.99565485309517
 30
0.0
 41
25.0
 42
25.0
 43
25.0
 50
180.0
  0
INSERT
  5
6B3E
  8
SP
  2
_OPEN
 10
5342.4934153480981
 20
703.99565485309517
 30
0.0
 41
25.0
 42
25.0
 43
25.0
  0
TEXT
  5
6B3F
  8
SP
 10
5272.8313203187754
 20
713.99565485309506
 30
0.0
 40
30.0
  1
77
 51
15.0
  0
POINT
  5
6B40
  8
DEFPOINTS
 62
     0
 10
5265.4934153480999
 20
773.99565485309506
 30
0.0
  0
POINT
  5
6B41
  8
DEFPOINTS
 62
     0
 10
5342.4934153480981
 20
975.01297153561961
 30
0.0
  0
POINT
  5
6B42
  8
DEFPOINTS
 62
     0
 10
5342.4934153480981
 20
703.99565485309517
 30
0.0
  0
ENDBLK
  5
62B4
  8
0
  0
BLOCK
  8
0
  2
*D20
 70
     1
 10
0.0
 20
0.0
 30
0.0
  3
*D20
  1

  0
LINE
  5
6C8A
  8
SP
 10
4222.9505320783064
 20
833.99565485309495
 30
0.0
 11
4157.9505320783046
 21
833.99565485309495
 31
0.0
  0
LINE
  5
6C8B
  8
SP
 10
4222.9505320783064
 20
773.99565485309472
 30
0.0
 11
4157.9505320783046
 21
773.99565485309472
 31
0.0
  0
LINE
  5
6C8C
  8
SP
 10
4167.9505320783064
 20
858.99565485309495
 30
0.0
 11
4167.9505320783064
 21
883.99565485309495
 31
0.0
  0
LINE
  5
6C8D
  8
SP
 10
4167.9505320783064
 20
748.99565485309472
 30
0.0
 11
4167.9505320783064
 21
652.92238529018653
 31
0.0
  0
LINE
  5
6C8E
  8
SP
 10
4167.9505320783064
 20
833.99565485309495
 30
0.0
 11
4167.9505320783064
 21
773.99565485309472
 31
0.0
  0
INSERT
  5
6C8F
  8
SP
  2
_DOT
 10
4167.9505320783064
 20
833.99565485309495
 30
0.0
 41
25.0
 42
25.0
 43
25.0
 50
270.0
  0
INSERT
  5
6C90
  8
SP
  2
_OPEN
 10
4167.9505320783064
 20
773.99565485309472
 30
0.0
 41
25.0
 42
25.0
 43
25.0
 50
90.0
  0
TEXT
  8
0
  40
30
  5
6CA1
  72
0
  71
0
 10
4082.95
 20
635.359
 30
0.000000
  1
60
  0
POINT
  5
6C92
  8
DEFPOINTS
 62
     0
 10
4232.9505320783064
 20
833.99565485309495
 30
0.0
  0
POINT
  5
6C93
  8
DEFPOINTS
 62
     0
 10
4232.9505320783064
 20
773.99565485309472
 30
0.0
  0
POINT
  5
6C94
  8
DEFPOINTS
 62
     0
 10
4167.9505320783064
 20
773.99565485309472
 30
0.0
  0
ENDBLK
  5
65BA
  8
0
  0
BLOCK
  8
0
  2
*D21
 70
     1
 10
0.0
 20
0.0
 30
0.0
  3
*D21
  1

  0
LINE
  5
6C95
  8
SP
 10
4222.9505320783037
 20
903.9956548530954
 30
0.0
 11
4157.9505320783046
 21
903.9956548530954
 31
0.0
  0
LINE
  5
6C96
  8
SP
 10
4222.9505320783064
 20
833.99565485309495
 30
0.0
 11
4157.9505320783046
 21
833.99565485309495
 31
0.0
  0
LINE
  5
6C97
  8
SP
 10
4167.9505320783064
 20
903.9956548530954
 30
0.0
 11
4167.9505320783064
 21
833.99565485309495
 31
0.0
  0
TEXT
  8
0
  40
30
  5
6CA2
  72
0
  71
0
 10
4071.59
 20
813.002
 30
0.000000
  1
（70）
  0
POINT
  5
6C99
  8
DEFPOINTS
 62
     0
 10
4232.9505320783037
 20
903.9956548530954
 30
0.0
  0
POINT
  5
6C9A
  8
DEFPOINTS
 62
     0
 10
4232.9505320783064
 20
833.99565485309495
 30
0.0
  0
POINT
  5
6C9B
  8
DEFPOINTS
 62
     0
 10
4167.9505320783064
 20
833.99565485309495
 30
0.0
  0
ENDBLK
  5
65C4
  8
0
  0
BLOCK
  8
0
  2
*U22
 70
     1
 10
0.0
 20
0.0
 30
0.0
  3
*U22
  1

  0
TEXT
  5
6C9D
  8
SP
 10
5475.3535510034453
 20
1081.1723720724631
 30
0.0
 40
30.0
  1
\U+2205
 50
90.0
 51
15.0
  0
TEXT
  5
6C9E
  8
SP
 10
5475.3535510034453
 20
1108.3152292153211
 30
0.0
 40
30.0
  1
200
 50
90.0
 51
15.0
  0
ENDBLK
  5
6CA0
  8
0
  0
ENDSEC
  0
SECTION
  2
ENTITIES
  0
LINE
  5
55AB
  8
4
 10
3791.5304363835421
 20
0.0000009706882338
 30
0.0
 11
3791.5304363835421
 21
2950.0000009706878
 31
0.0
  0
LINE
  5
55AC
  8
4
 10
5891.530436383543
 20
2950.0000009706878
 30
0.0
 11
5891.530436383543
 21
0.0000009706882338
 31
0.0
  0
LINE
  5
55AF
  8
4
 10
5891.530436383543
 20
0.0000009706882338
 30
0.0
 11
3791.5304363835421
 21
0.0000009706882338
 31
0.0
  0
TEXT
  5
5691
  8
4
 10
4769.209181871207
 20
349.12491115837628
 30
0.0
 40
50.0
  1
ミツヤ多翼送風機
  0
TEXT
  5
5692
  8
4
 10
4778.1849319690227
 20
243.71272648075109
 30
0.0
 40
50.0
  1
MF＃1 1/4- 7
  0
LINE
  5
5693
  8
4
 10
4241.5304363835421
 20
426.55314220080771
 30
0.0
 11
5441.5304363835421
 21
426.55314220080771
 31
0.0
  0
LINE
  5
5694
  8
4
 10
4241.5304363835421
 20
326.55314220080771
 30
0.0
 11
5441.5304363835421
 21
326.55314220080771
 31
0.0
  0
LINE
  5
5695
  8
4
 10
4241.5304363835421
 20
226.55314220080771
 30
0.0
 11
5441.5304363835421
 21
226.55314220080771
 31
0.0
  0
LINE
  5
5697
  8
4
 10
4741.5304363835421
 20
426.55314220080771
 30
0.0
 11
4741.530436383543
 21
226.55314220080771
 31
0.0
  0
LINE
  5
5698
  8
4
 10
4241.5304363835421
 20
426.55314220080771
 30
0.0
 11
4241.530436383543
 21
226.55314220080771
 31
0.0
  0
TEXT
  5
569A
  8
4
 10
4277.7885424083397
 20
248.19829893281869
 30
0.0
 40
50.0
  1
機器型番
  0
TEXT
  5
569B
  8
4
 10
4280.0325172304438
 20
358.09616806742059
 30
0.0
 40
50.0
  1
機器名称
  0
LINE
  5
569C
  8
4
 10
5441.5304363835421
 20
426.55314220080771
 30
0.0
 11
5441.530436383543
 21
226.55314220080771
 31
0.0
  0
LINE
  5
56AA
  8
1
 10
5263.8934153480959
 20
1268.9956548530949
 30
0.0
 11
5263.8934153480977
 21
903.9956548530954
 31
0.0
  0
LINE
  5
56AB
  8
1
 10
5265.4934153480972
 20
1268.9956548530949
 30
0.0
 11
5265.4934153480972
 21
903.9956548530954
 31
0.0
  0
LINE
  5
56AC
  8
2
 10
5342.4934153480981
 20
1365.834665581631
 30
0.0
 11
5342.4934153480981
 21
975.01297153561961
 31
0.0
  0
LINE
  5
56AD
  8
2
 10
4397.9505320783064
 20
1320.1561682696949
 30
0.0
 11
4397.9505320783064
 21
753.08733075560656
 31
0.0
  0
ARC
  5
56AE
  8
1
 10
4411.9505320783064
 20
1129.9956548530961
 30
0.0
 40
165.0
 50
180.0
 51
227.16657193393391
  0
ARC
  5
56AF
  8
1
 10
4411.9505320783064
 20
1129.9956548530961
 30
0.0
 40
154.0
 50
166.8972379658976
 51
231.78678929825861
  0
ARC
  5
56B0
  8
1
 10
4413.9505320783064
 20
1159.9956548530961
 30
0.0
 40
195.0
 50
262.67794040955272
 51
0.000000000000007
  0
ARC
  5
56B1
  8
1
 10
4413.9505320783064
 20
1159.9956548530961
 30
0.0
 40
184.0
 50
262.69708871759372
 51
0.000000000000007
  0
LINE
  5
56B2
  8
1
 10
4262.9505320783064
 20
1197.695654853095
 30
0.0
 11
4262.9505320783064
 21
903.99565485309495
 31
0.0
  0
LINE
  5
56B3
  8
1
 10
4532.9505320783046
 20
1197.695654853095
 30
0.0
 11
4532.9505320783046
 21
903.99565485309495
 31
0.0
  0
LINE
  5
56B4
  8
1
 10
4531.3505320783052
 20
1199.037772500154
 30
0.0
 11
4531.3505320783052
 21
1069.395654853095
 31
0.0
  0
LINE
  5
56B5
  8
1
 10
4264.550532078305
 20
1199.037772500154
 30
0.0
 11
4264.550532078305
 21
1071.9956548530949
 31
0.0
  0
CIRCLE
  5
56B6
  8
1
 10
4397.9505320783064
 20
1143.9956548530949
 30
0.0
 40
60.038630514616607
  0
CIRCLE
  5
56B7
  8
1
 10
4397.9505320783064
 20
1143.9956548530949
 30
0.0
 40
69.388168961305382
  0
ARC
  5
56B8
  8
1
 10
4397.9505320783064
 20
1143.9956548530949
 30
0.0
 40
75.0
 50
292.3051532135043
 51
247.69484678649559
  0
CIRCLE
  5
56B9
  8
CT
 10
4397.9505320783046
 20
1143.9956548530949
 30
0.0
 40
110.0
  0
DIMENSION
  5
56BA
  8
SP
  2
*D9
 10
4167.9505320783064
 20
903.9956548530954
 30
0.0
 11
4142.9505320783046
 21
1023.995654853096
 31
0.0
 70
     0
 13
4222.2849030726193
 23
1143.9956548530949
 33
0.0
 14
4232.9505320783037
 24
903.9956548530954
 34
0.0
 50
90.0
  0
LINE
  5
56BB
  8
1
 10
5271.4934153480972
 20
1303.9956548530949
 30
0.0
 11
5271.4934153480972
 21
1012.9956548530949
 31
0.0
  0
LINE
  5
56BC
  8
1
 10
5272.4934153480981
 20
1303.9956548530949
 30
0.0
 11
5272.4934153480981
 21
1012.9956548530949
 31
0.0
  0
DIMENSION
  5
56BD
  8
3
  2
*D4
 10
5485.3535510034453
 20
1043.9956548530949
 30
0.0
 11
5460.3535510034453
 21
1143.9956548530961
 31
0.0
 70
     0
  1
%%c<>
 13
5419.4934153480963
 23
1243.9956548530949
 33
0.0
 14
5419.4934153480963
 24
1043.9956548530949
 34
0.0
 50
90.0
  0
LINE
  5
56BE
  8
1
 10
5419.4934153480963
 20
1260.995654853094
 30
0.0
 11
5419.4934153480963
 21
1026.9956548530949
 31
0.0
  0
LINE
  5
56BF
  8
1
 10
5412.4934153480972
 20
1303.9956548530949
 30
0.0
 11
5412.4934153480972
 21
1012.9956548530949
 31
0.0
  0
LINE
  5
56C0
  8
1
 10
5413.4934153480972
 20
1303.9956548530949
 30
0.0
 11
5413.4934153480963
 21
1012.9956548530949
 31
0.0
  0
LINE
  5
56C1
  8
2
 10
5163.4934153480972
 20
1232.286808899627
 30
0.0
 11
5163.4934153480972
 21
1064.872210102506
 31
0.0
  0
LINE
  5
56C2
  8
1
 10
5077.416506357069
 20
1218.995654853094
 30
0.0
 11
5077.416506357069
 21
1074.6074858917891
 31
0.0
  0
LINE
  5
56C3
  8
1
 10
5104.3602895469612
 20
1218.995654853094
 30
0.0
 11
5104.3602895469612
 21
1074.6074858917891
 31
0.0
  0
LINE
  5
56C4
  8
1
 10
5042.4934153480972
 20
1204.0342853677109
 30
0.0
 11
5042.4934153480972
 21
1083.957024338478
 31
0.0
  0
LINE
  5
56C5
  8
1
 10
5222.1934153480979
 20
1163.9956548530949
 30
0.0
 11
5095.4934153480981
 21
905.59565485309543
 31
0.0
  0
LINE
  5
56C6
  8
1
 10
5263.8934153480977
 20
905.59565485309543
 30
0.0
 11
5095.4934153480981
 21
905.59565485309543
 31
0.0
  0
LINE
  5
56C8
  8
1
 10
5134.8448759940529
 20
1076.9402783922401
 30
0.0
 11
5176.2354311914723
 21
1076.9402783922401
 31
0.0
  0
LINE
  5
56C9
  8
1
 10
5140.2570117590058
 20
1092.737140993718
 30
0.0
 11
5184.5748582398364
 21
1092.737140993718
 31
0.0
  0
LINE
  5
56CA
  8
1
 10
5092.1934153480979
 20
1071.9956548530949
 30
0.0
 11
5173.6250820147661
 21
1071.9956548530949
 31
0.0
  0
LINE
  5
56CB
  8
1
 10
5174.1529986814321
 20
1072.9956548530949
 30
0.0
 11
5108.4934153480972
 21
1072.9956548530949
 31
0.0
  0
LINE
  5
56CC
  8
1
 10
5094.979144624067
 20
1070.395654853095
 30
0.0
 11
5173.6250820147661
 21
1070.395654853095
 31
0.0
  0
LINE
  5
56CD
  8
1
 10
5295.4934153480972
 20
903.9956548530954
 30
0.0
 11
5095.4934153480981
 21
903.9956548530954
 31
0.0
  0
ARC
  5
56D1
  8
1
 10
4411.9505320783064
 20
1129.9956548530961
 30
0.0
 40
165.0
 50
227.16657193393391
 51
262.03909526263851
  0
ARC
  5
56D2
  8
1
 10
4411.9505320783064
 20
1129.9956548530961
 30
0.0
 40
154.0
 50
231.78678929825861
 51
262.01634144406341
  0
LINE
  5
56D3
  8
1
 10
4529.7505320783048
 20
1069.395654853095
 30
0.0
 11
4529.7505320783048
 21
976.69565485309522
 31
0.0
  0
LINE
  5
56D4
  8
1
 10
4531.3505320783052
 20
1069.395654853095
 30
0.0
 11
4531.3505320783052
 21
976.69565485309522
 31
0.0
  0
LINE
  5
56D5
  8
1
 10
4266.1505320783072
 20
1069.395654853095
 30
0.0
 11
4266.1505320783062
 21
976.69565485309522
 31
0.0
  0
LINE
  5
56D6
  8
1
 10
4264.5505320783059
 20
1069.395654853095
 30
0.0
 11
4264.5505320783059
 21
976.69565485309522
 31
0.0
  0
LINE
  5
56D7
  8
1
 10
4562.9505320783064
 20
903.99565485309495
 30
0.0
 11
4232.9505320783037
 21
903.9956548530954
 31
0.0
  0
LINE
  5
56D8
  8
1
 10
4531.3505320783052
 20
976.69565485309522
 30
0.0
 11
4531.3505320783052
 21
906.59565485309531
 31
0.0
  0
ARC
  5
56DA
  8
1
 10
4533.9505320783046
 20
906.59565485309531
 30
0.0
 40
1.0
 50
180.0
 51
270.0
  0
ARC
  5
56DB
  8
1
 10
4533.9505320783046
 20
906.59565485309531
 30
0.0
 40
2.6000000000000001
 50
180.0
 51
270.0
  0
LINE
  5
56DC
  8
1
 10
4562.9505320783046
 20
905.59565485309543
 30
0.0
 11
4562.9505320783046
 21
903.9956548530954
 31
0.0
  0
LINE
  5
56DD
  8
1
 10
4562.9505320783064
 20
905.59565485309543
 30
0.0
 11
4533.9505320783046
 21
905.59565485309543
 31
0.0
  0
LINE
  5
56DE
  8
1
 10
4531.3505320783052
 20
976.69565485309522
 30
0.0
 11
4529.7505320783048
 21
976.69565485309522
 31
0.0
  0
LINE
  5
56DF
  8
1
 10
4264.5505320783059
 20
976.69565485309522
 30
0.0
 11
4264.5505320783059
 21
906.59565485309531
 31
0.0
  0
LINE
  5
56E0
  8
1
 10
4261.9505320783064
 20
905.59565485309543
 30
0.0
 11
4232.9505320783037
 21
905.59565485309543
 31
0.0
  0
ARC
  5
56E1
  8
1
 10
4261.9505320783064
 20
906.59565485309531
 30
0.0
 40
2.6000000000000001
 50
270.0
 51
0.000000000000007
  0
ARC
  5
56E2
  8
1
 10
4261.9505320783064
 20
906.59565485309531
 30
0.0
 40
1.0
 50
270.0
 51
0.000000000000007
  0
LINE
  5
56E4
  8
1
 10
4232.9505320783046
 20
905.59565485309543
 30
0.0
 11
4232.9505320783037
 21
903.9956548530954
 31
0.0
  0
LINE
  5
56E5
  8
1
 10
4266.1505320783062
 20
976.69565485309522
 30
0.0
 11
4264.5505320783059
 21
976.69565485309522
 31
0.0
  0
LINE
  5
56E6
  8
1
 10
4528.7505320783048
 20
1070.395654853095
 30
0.0
 11
4486.2983581652634
 21
1070.395654853095
 31
0.0
  0
CIRCLE
  5
56E7
  8
1
 10
4499.5772806545474
 20
1101.900477292935
 30
0.0
 40
4.0
  0
LINE
  5
56E8
  8
CT
 10
4492.4002665591752
 20
1104.8732938685821
 30
0.0
 11
4506.9031048671786
 21
1098.866021548502
 31
0.0
  0
LINE
  5
56E9
  8
1
 10
4528.7505320783048
 20
1071.9956548530949
 30
0.0
 11
4267.1505320783062
 21
1071.9956548530949
 31
0.0
  0
ARC
  5
56EA
  8
1
 10
4528.7505320783048
 20
1069.395654853095
 30
0.0
 40
1.0
 50
0.000000000000007
 51
90.0
  0
ARC
  5
56EB
  8
1
 10
4528.7505320783048
 20
1069.395654853095
 30
0.0
 40
2.6000000000000001
 50
0.000000000000007
 51
90.0
  0
LINE
  5
56EC
  8
1
 10
4447.9505320783064
 20
1053.5956548530951
 30
0.0
 11
4489.9505320783064
 21
1071.9956548530949
 31
0.0
  0
LINE
  5
56ED
  8
1
 10
4347.9505320783064
 20
1053.5956548530951
 30
0.0
 11
4305.9505320783064
 21
1071.9956548530949
 31
0.0
  0
CIRCLE
  5
56EE
  8
1
 10
4355.8553545181458
 20
1042.3689062768531
 30
0.0
 40
4.0
  0
LINE
  5
56EF
  8
1
 10
4447.9505320783064
 20
1053.5956548530951
 30
0.0
 11
4347.9505320783064
 21
1053.5956548530951
 31
0.0
  0
CIRCLE
  5
56F0
  8
1
 10
4440.0457096384653
 20
1042.368906276854
 30
0.0
 40
4.0
  0
LINE
  5
56F1
  8
CT
 10
4437.0728930628193
 20
1049.545920372226
 30
0.0
 11
4443.0801653828976
 21
1035.043082064223
 31
0.0
  0
LINE
  5
56F2
  8
CT
 10
4358.8281710937918
 20
1049.5459203722251
 30
0.0
 11
4352.8208987737116
 21
1035.0430820642221
 31
0.0
  0
LINE
  5
56F3
  8
1
 10
4357.9505320783064
 20
1072.9956548530949
 30
0.0
 11
4366.1293923338253
 21
1076.0808916173869
 31
0.0
  0
LINE
  5
56F4
  8
1
 10
4486.2983581652634
 20
1070.395654853095
 30
0.0
 11
4309.6027059913504
 21
1070.395654853095
 31
0.0
  0
LINE
  5
56F5
  8
1
 10
4467.9505320783064
 20
1072.9956548530949
 30
0.0
 11
4450.481183592311
 21
1090.465003339089
 31
0.0
  0
LINE
  5
56F6
  8
1
 10
4437.9505320783064
 20
1072.9956548530949
 30
0.0
 11
4467.9505320783064
 21
1072.9956548530949
 31
0.0
  0
LINE
  5
56F7
  8
1
 10
4467.9505320783064
 20
1072.9956548530949
 30
0.0
 11
4467.9505320783046
 21
1071.9956548530949
 31
0.0
  0
LINE
  5
56F8
  8
1
 10
4437.9505320783064
 20
1072.9956548530949
 30
0.0
 11
4429.7716718227857
 21
1076.0808916173869
 31
0.0
  0
LINE
  5
56F9
  8
1
 10
4453.9505320783064
 20
1063.9956548530949
 30
0.0
 11
4453.9505320783064
 21
1081.922719067418
 31
0.0
  0
LINE
  5
56FA
  8
1
 10
4437.9505320783064
 20
1072.9956548530949
 30
0.0
 11
4437.9505320783046
 21
1071.9956548530949
 31
0.0
  0
LINE
  5
56FB
  8
1
 10
4369.4850791889294
 20
1074.60748589179
 30
0.0
 11
4426.4159849676826
 21
1074.60748589179
 31
0.0
  0
LINE
  5
56FC
  8
1
 10
4357.9505320783064
 20
1072.9956548530949
 30
0.0
 11
4327.9505320783073
 21
1072.9956548530949
 31
0.0
  0
LINE
  5
56FD
  8
1
 10
4341.9505320783064
 20
1063.9956548530949
 30
0.0
 11
4341.9505320783064
 21
1081.922719067418
 31
0.0
  0
LINE
  5
56FE
  8
1
 10
4327.9505320783073
 20
1072.9956548530949
 30
0.0
 11
4345.4198805642991
 21
1090.465003339089
 31
0.0
  0
LINE
  5
56FF
  8
1
 10
4357.9505320783064
 20
1072.9956548530949
 30
0.0
 11
4357.9505320783064
 21
1071.9956548530949
 31
0.0
  0
LINE
  5
5700
  8
1
 10
4327.9505320783073
 20
1072.9956548530949
 30
0.0
 11
4327.9505320783064
 21
1071.9956548530949
 31
0.0
  0
LINE
  5
5701
  8
1
 10
4309.6027059913504
 20
1070.395654853095
 30
0.0
 11
4267.1505320783062
 21
1070.395654853095
 31
0.0
  0
CIRCLE
  5
5702
  8
1
 10
4296.3237835020655
 20
1101.9004772929361
 30
0.0
 40
4.0
  0
LINE
  5
5703
  8
CT
 10
4303.5007975974349
 20
1104.873293868581
 30
0.0
 11
4288.9979592894324
 21
1098.866021548502
 31
0.0
  0
ARC
  5
5704
  8
1
 10
4267.1505320783062
 20
1069.395654853095
 30
0.0
 40
2.6000000000000001
 50
90.0
 51
180.0
  0
ARC
  5
5705
  8
1
 10
4267.1505320783062
 20
1069.395654853095
 30
0.0
 40
1.0
 50
90.0
 51
180.0
  0
LINE
  5
5706
  8
1
 10
5096.5934153480976
 20
1071.9956548530949
 30
0.0
 11
5132.425092611511
 21
995.08667189806465
 31
0.0
  0
LINE
  5
5707
  8
1
 10
5095.4934153480981
 20
905.59565485309543
 30
0.0
 11
5095.4934153480981
 21
903.9956548530954
 31
0.0
  0
LINE
  5
5709
  8
1
 10
5132.425092611511
 20
995.08667189806465
 30
0.0
 11
5135.8103510104002
 21
987.82056546981858
 31
0.0
  0
LINE
  5
570A
  8
1
 10
5089.5934153480966
 20
1069.395654853095
 30
0.0
 11
5089.5934153480966
 21
1053.5956548530951
 31
0.0
  0
LINE
  5
570B
  8
1
 10
5091.193415348097
 20
1069.395654853095
 30
0.0
 11
5091.193415348097
 21
1053.5956548530951
 31
0.0
  0
LINE
  5
570C
  8
1
 10
5089.5934153480966
 20
1053.5956548530951
 30
0.0
 11
5091.193415348097
 21
1053.5956548530951
 31
0.0
  0
LINE
  5
570D
  8
CT
 10
5118.4934153480981
 20
1085.297920815115
 30
0.0
 11
5118.4934153480981
 21
1064.872210102506
 31
0.0
  0
LINE
  5
570E
  8
1
 10
5104.3602895469612
 20
1078.0451218984811
 30
0.0
 11
5108.4934153480972
 21
1078.0451218984811
 31
0.0
  0
LINE
  5
570F
  8
1
 10
5133.4934153480972
 20
1072.9956548530949
 30
0.0
 11
5108.4934153480972
 21
1072.9956548530949
 31
0.0
  0
LINE
  5
5710
  8
1
 10
5108.4934153480972
 20
1081.5874949482561
 30
0.0
 11
5108.4934153480963
 21
1071.9956548530949
 31
0.0
  0
LINE
  5
5711
  8
1
 10
5140.2570117590058
 20
1092.737140993718
 30
0.0
 11
5133.4934153480972
 21
1072.9956548530949
 31
0.0
  0
LINE
  5
5712
  8
1
 10
5108.4934153480972
 20
1081.5874949482561
 30
0.0
 11
5136.437050817929
 21
1081.5874949482561
 31
0.0
  0
ARC
  5
5713
  8
1
 10
5092.1934153480979
 20
1069.395654853095
 30
0.0
 40
2.6000000000000001
 50
90.0
 51
180.0
  0
LINE
  5
5714
  8
1
 10
5092.1934153480979
 20
1070.395654853095
 30
0.0
 11
5094.979144624067
 21
1070.395654853095
 31
0.0
  0
ARC
  5
5715
  8
1
 10
5092.1934153480979
 20
1069.395654853095
 30
0.0
 40
1.0
 50
90.0
 51
180.0
  0
LINE
  5
5716
  8
1
 10
5042.4934153480972
 20
1083.957024338478
 30
0.0
 11
5077.416506357069
 21
1077.491331738803
 31
0.0
  0
LINE
  5
5717
  8
1
 10
5104.3602895469612
 20
1074.6074858917891
 30
0.0
 11
5077.416506357069
 21
1074.6074858917891
 31
0.0
  0
LINE
  5
5719
  8
1
 10
5295.4934153480972
 20
905.59565485309543
 30
0.0
 11
5265.4934153480972
 21
905.59565485309543
 31
0.0
  0
LINE
  5
571A
  8
1
 10
5295.4934153480972
 20
905.59565485309543
 30
0.0
 11
5267.0934153480976
 21
905.59565485309543
 31
0.0
  0
LINE
  5
571C
  8
1
 10
5295.4934153480972
 20
905.59565485309543
 30
0.0
 11
5295.4934153480972
 21
903.9956548530954
 31
0.0
  0
POINT
  5
571D
  8
1
 10
5342.4934153480981
 20
978.78906864535838
 30
0.0
  0
LINE
  5
571E
  8
1
 10
5281.4934153480981
 20
1002.9956548530949
 30
0.0
 11
5403.4934153480963
 21
1002.9956548530949
 31
0.0
  0
LINE
  5
571F
  8
1
 10
5281.4934153480981
 20
1003.9956548530949
 30
0.0
 11
5403.4934153480963
 21
1003.9956548530949
 31
0.0
  0
ARC
  5
5720
  8
1
 10
5281.4934153480981
 20
1012.9956548530949
 30
0.0
 40
10.0
 50
180.0
 51
270.0
  0
ARC
  5
5721
  8
1
 10
5281.4934153480981
 20
1012.9956548530949
 30
0.0
 40
9.0
 50
180.0
 51
270.0
  0
ARC
  5
5722
  8
1
 10
5268.4934153480972
 20
1026.9956548530949
 30
0.0
 40
3.0
 50
180.0
 51
270.0
  0
LINE
  5
5723
  8
1
 10
5269.4934153480972
 20
1023.9956548530949
 30
0.0
 11
5268.4934153480972
 21
1023.9956548530949
 31
0.0
  0
ARC
  5
5724
  8
1
 10
5269.4934153480972
 20
1020.9956548530949
 30
0.0
 40
3.0
 50
48.189685104221901
 51
90.0
  0
LINE
  5
5725
  8
FUTO
 10
5412.4934153480972
 20
1043.9956548530949
 30
0.0
 11
5419.4934153480963
 21
1043.9956548530949
 31
0.0
  0
ARC
  5
5726
  8
1
 10
5415.4934153480972
 20
1020.9956548530949
 30
0.0
 40
3.0
 50
90.0
 51
131.81031489577811
  0
ARC
  5
5727
  8
1
 10
5403.4934153480963
 20
1012.9956548530949
 30
0.0
 40
9.0
 50
269.99999999999989
 51
0.0
  0
ARC
  5
5728
  8
1
 10
5403.4934153480963
 20
1012.9956548530949
 30
0.0
 40
10.0
 50
269.99999999999989
 51
0.0
  0
LINE
  5
5729
  8
1
 10
5415.4934153480972
 20
1023.9956548530949
 30
0.0
 11
5416.4934153480963
 21
1023.9956548530949
 31
0.0
  0
ARC
  5
572A
  8
1
 10
5416.4934153480963
 20
1026.9956548530949
 30
0.0
 40
3.0
 50
270.0
 51
0.0
  0
LINE
  5
572B
  8
1
 10
5173.6250820147661
 20
1071.9956548530949
 30
0.0
 11
5177.0835082273543
 21
1071.9956548530949
 31
0.0
  0
LINE
  5
572C
  8
1
 10
5173.6250820147661
 20
1070.395654853095
 30
0.0
 11
5176.2989881035173
 21
1070.395654853095
 31
0.0
  0
LINE
  5
572D
  8
1
 10
5177.5738333047548
 20
1072.995654853094
 30
0.0
 11
5174.1529986814321
 21
1072.9956548530949
 31
0.0
  0
LINE
  5
572E
  8
1
 10
5176.2354311914723
 20
1076.9402783922401
 30
0.0
 11
5179.5079811468968
 21
1076.9402783922401
 31
0.0
  0
LINE
  5
572F
  8
1
 10
5186.7298189371877
 20
1092.737140993718
 30
0.0
 11
5186.9452557881305
 21
1092.108327068599
 31
0.0
  0
LINE
  5
5730
  8
1
 10
5184.5748582398364
 20
1092.737140993718
 30
0.0
 11
5186.7298189371877
 21
1092.737140993718
 31
0.0
  0
DIMENSION
  5
5731
  8
SP
  2
*D7
 10
5042.4934153480972
 20
1443.9956548530949
 30
0.0
 11
5192.4934153480972
 21
1468.9956548530949
 31
0.0
 70
     0
  1
（340）
 13
5342.4934153480981
 23
1413.9956548530949
 33
0.0
 14
5042.4934153480972
 24
1204.0342853677109
 34
0.0
  0
LINE
  5
5732
  8
2
 10
5002.4934153480972
 20
1143.995654853094
 30
0.0
 11
5432.0917227011414
 21
1143.9956548530949
 31
0.0
  0
LINE
  5
5733
  8
1
 10
5104.3602895469612
 20
1207.2460264095489
 30
0.0
 11
5234.9934153480972
 21
1207.2460264095489
 31
0.0
  0
DIMENSION
  5
5734
  8
SP
  2
*D8
 10
4597.9505320783064
 20
1373.9956548530949
 30
0.0
 11
4497.9505320783064
 21
1398.9956548530949
 31
0.0
 70
     0
 13
4397.9505320783064
 23
1320.1561682696949
 33
0.0
 14
4597.9505320783064
 24
1303.9956548530961
 34
0.0
 50
180.0
  0
DIMENSION
  5
5735
  8
SP
  2
*D11
 10
4257.9505320783064
 20
1373.9956548530949
 30
0.0
 11
4327.9505320783073
 21
1398.9956548530949
 31
0.0
 70
     0
 13
4397.9505320783064
 23
1320.1561682696949
 33
0.0
 14
4257.9505320783064
 24
1129.9956548530961
 34
0.0
 50
180.0
  0
DIMENSION
  5
5736
  8
SP
  2
*D10
 10
4167.9505320783064
 20
1303.9956548530961
 30
0.0
 11
4142.9505320783046
 21
1223.9956548530961
 31
0.0
 70
     0
 13
4222.2849030726193
 23
1143.9956548530949
 33
0.0
 14
4376.9505320783064
 24
1303.9956548530961
 34
0.0
 50
90.0
  0
LINE
  5
5737
  8
1
 10
4597.9505320783064
 20
1159.9956548530961
 30
0.0
 11
4597.9505320783064
 21
1303.9956548530961
 31
0.0
  0
ARC
  5
5738
  8
1
 10
4386.9505320783064
 20
1132.995654853097
 30
0.0
 40
129.0
 50
101.229794068544
 51
165.677695662047
  0
ARC
  5
5739
  8
1
 10
4386.9505320783064
 20
1132.995654853097
 30
0.0
 40
140.0
 50
101.5583801556257
 51
180.0
  0
LINE
  5
573A
  8
1
 10
4608.9505320783064
 20
1159.9956548530961
 30
0.0
 11
4608.9505320783064
 21
1288.9956548530961
 31
0.0
  0
LINE
  5
573B
  8
1
 10
4447.9505320783064
 20
1268.9956548530949
 30
0.0
 11
4532.9505320783064
 21
1197.695654853095
 31
0.0
  0
LINE
  5
573C
  8
1
 10
4347.9505320783064
 20
1268.9956548530949
 30
0.0
 11
4262.9505320783064
 21
1197.695654853095
 31
0.0
  0
LINE
  5
573D
  8
2
 10
4629.7568680211443
 20
1143.9956548530949
 30
0.0
 11
4222.2849030726193
 21
1143.9956548530949
 31
0.0
  0
CIRCLE
  5
573E
  8
1
 10
4499.5772806545474
 20
1186.0908324132561
 30
0.0
 40
4.0
  0
LINE
  5
573F
  8
CT
 10
4492.4002665591752
 20
1183.1180158376089
 30
0.0
 11
4506.9031048671786
 21
1189.1252881576879
 31
0.0
  0
LINE
  5
5740
  8
1
 10
4246.9505320783046
 20
1132.9956548530961
 30
0.0
 11
4246.9505320783046
 21
1129.9956548530949
 31
0.0
  0
CIRCLE
  5
5741
  8
1
 10
4296.3237835020627
 20
1186.0908324132549
 30
0.0
 40
4.0
  0
LINE
  5
5742
  8
CT
 10
4303.5007975974349
 20
1183.118015837608
 30
0.0
 11
4288.9979592894324
 21
1189.125288157687
 31
0.0
  0
LINE
  5
5743
  8
1
 10
4586.1505320783072
 20
1288.995654853097
 30
0.0
 11
4409.7505320783057
 21
1288.9956548530961
 31
0.0
  0
LINE
  5
5744
  8
1
 10
4618.9505320783064
 20
1302.3956548530959
 30
0.0
 11
4376.9505320783064
 21
1302.3956548530959
 31
0.0
  0
LINE
  5
5745
  8
1
 10
4618.9505320783064
 20
1303.9956548530961
 30
0.0
 11
4376.9505320783064
 21
1303.9956548530961
 31
0.0
  0
LINE
  5
5746
  8
1
 10
4618.9505320783064
 20
1302.3956548530959
 30
0.0
 11
4618.9505320783064
 21
1303.9956548530961
 31
0.0
  0
LINE
  5
5747
  8
1
 10
4597.9505320783064
 20
1300.795654853096
 30
0.0
 11
4586.1505320783072
 21
1288.995654853097
 31
0.0
  0
LINE
  5
5748
  8
1
 10
4608.9505320783064
 20
1288.9956548530961
 30
0.0
 11
4597.9505320783064
 21
1288.9956548530961
 31
0.0
  0
ARC
  5
5749
  8
1
 10
4387.9505320783046
 20
1288.26168312905
 30
0.0
 40
10.0
 50
317.4011871075466
 51
0.000000000000007
  0
ARC
  5
574A
  8
1
 10
4334.9505320783064
 20
1336.995654853097
 30
0.0
 40
71.0
 50
305.22419498061589
 51
317.46376526647327
  0
ARC
  5
574B
  8
1
 10
4334.9505320783064
 20
1336.995654853097
 30
0.0
 40
71.0
 50
289.71281874111719
 51
305.22419498061589
  0
CIRCLE
  5
574C
  8
1
 10
4355.8553545181458
 20
1245.6224034293371
 30
0.0
 40
4.0
  0
LINE
  5
574D
  8
1
 10
4447.9505320783064
 20
1268.995654853094
 30
0.0
 11
4347.9505320783046
 21
1268.9956548530949
 31
0.0
  0
ARC
  5
574E
  8
1
 10
4334.9505320783064
 20
1336.995654853097
 30
0.0
 40
82.0
 50
289.13409247443582
 51
317.4011871075466
  0
CIRCLE
  5
574F
  8
1
 10
4440.0457096384653
 20
1245.6224034293371
 30
0.0
 40
4.0
  0
LINE
  5
5750
  8
CT
 10
4437.0728930628193
 20
1238.4453893339651
 30
0.0
 11
4443.0801653828976
 21
1252.9482276419681
 31
0.0
  0
LINE
  5
5751
  8
CT
 10
4358.8281710937918
 20
1238.4453893339651
 30
0.0
 11
4352.8208987737116
 21
1252.9482276419681
 31
0.0
  0
LINE
  5
5752
  8
1
 10
4397.9505320783064
 20
1300.795654853096
 30
0.0
 11
4409.7505320783048
 21
1288.995654853097
 31
0.0
  0
LINE
  5
5753
  8
1
 10
4376.9505320783064
 20
1302.3956548530959
 30
0.0
 11
4376.9505320783064
 21
1303.9956548530961
 31
0.0
  0
LINE
  5
5754
  8
1
 10
4397.9505320783064
 20
1288.9956548530961
 30
0.0
 11
4397.9505320783064
 21
1302.3956548530959
 31
0.0
  0
LINE
  5
5755
  8
1
 10
4397.9505320783064
 20
1288.9956548530961
 30
0.0
 11
4397.9505320783064
 21
1288.26168312905
 31
0.0
  0
LINE
  5
5756
  8
1
 10
4397.9505320783064
 20
1288.9956548530961
 30
0.0
 11
4387.2668775164193
 21
1288.9956548530961
 31
0.0
  0
LINE
  5
5757
  8
1
 10
5042.4934153480972
 20
1204.0342853677109
 30
0.0
 11
5077.416506357069
 21
1215.3492474171419
 31
0.0
  0
POINT
  5
5758
  8
1
 10
5042.4934153480972
 20
1204.0342853677109
 30
0.0
  0
LINE
  5
5759
  8
1
 10
5077.416506357069
 20
1218.995654853094
 30
0.0
 11
5104.3602895469612
 21
1218.995654853094
 31
0.0
  0
DIMENSION
  5
575A
  8
SP
  2
*D6
 10
5419.4934153480963
 20
1443.9956548530949
 30
0.0
 11
5380.9934153480972
 21
1468.9956548530949
 31
0.0
 70
     0
 13
5342.4934153480981
 23
1408.908141808362
 33
0.0
 14
5419.4934153480963
 24
1260.995654853094
 34
0.0
  0
DIMENSION
  5
575B
  8
SP
  2
*D5
 10
5412.4934153480972
 20
1373.9956548530949
 30
0.0
 11
5342.4934153480963
 21
1398.9956548530949
 31
0.0
 70
     0
 13
5272.4934153480954
 23
1303.9956548530949
 33
0.0
 14
5412.4934153480972
 24
1303.9956548530949
 34
0.0
  0
LINE
  5
575C
  8
1
 10
5222.1934153480979
 20
1163.9956548530949
 30
0.0
 11
5265.4934153480972
 21
1210.7956548530949
 31
0.0
  0
LINE
  5
575D
  8
1
 10
5234.9934153480972
 20
1207.2460264095489
 30
0.0
 11
5234.9934153480972
 21
1177.8302968854259
 31
0.0
  0
LINE
  5
575E
  8
FUTO
 10
5251.4934153480972
 20
1302.9956548530949
 30
0.0
 11
5433.4934153480972
 21
1302.9956548530949
 31
0.0
  0
LINE
  5
575F
  8
FUTO
 10
5251.4934153480972
 20
1303.9956548530949
 30
0.0
 11
5433.4934153480972
 21
1303.9956548530949
 31
0.0
  0
POINT
  5
5760
  8
1
 10
5265.4934153480972
 20
1260.995654853094
 30
0.0
  0
ARC
  5
5761
  8
1
 10
5268.4934153480972
 20
1260.995654853094
 30
0.0
 40
3.0
 50
90.0
 51
180.0
  0
LINE
  5
5762
  8
1
 10
5269.4934153480972
 20
1263.9956548530949
 30
0.0
 11
5268.4934153480972
 21
1263.9956548530949
 31
0.0
  0
ARC
  5
5763
  8
1
 10
5269.4934153480972
 20
1266.9956548530949
 30
0.0
 40
3.0
 50
270.0
 51
311.81031489577953
  0
LINE
  5
5764
  8
1
 10
5265.4934153480972
 20
1268.9956548530949
 30
0.0
 11
5263.8934153480959
 21
1268.9956548530949
 31
0.0
  0
LINE
  5
5765
  8
1
 10
5263.8934153480959
 20
1268.9956548530949
 30
0.0
 11
5263.8934153480959
 21
1268.9956548530949
 31
0.0
  0
LINE
  5
5766
  8
1
 10
5263.8934153480959
 20
1268.9956548530949
 30
0.0
 11
5263.8934153480959
 21
1268.9956548530949
 31
0.0
  0
LINE
  5
5767
  8
1
 10
5263.8934153480959
 20
1268.9956548530949
 30
0.0
 11
5263.8934153480959
 21
1268.9956548530949
 31
0.0
  0
LINE
  5
5768
  8
FUTO
 10
5412.4934153480972
 20
1243.9956548530949
 30
0.0
 11
5419.4934153480963
 21
1243.9956548530949
 31
0.0
  0
ARC
  5
5769
  8
1
 10
5415.4934153480972
 20
1266.9956548530949
 30
0.0
 40
3.0
 50
228.18968510422039
 51
270.0
  0
LINE
  5
576A
  8
1
 10
5415.4934153480972
 20
1263.9956548530949
 30
0.0
 11
5416.4934153480963
 21
1263.9956548530949
 31
0.0
  0
ARC
  5
576B
  8
1
 10
5416.4934153480963
 20
1260.995654853094
 30
0.0
 40
3.0
 50
0.0
 51
90.0
  0
POINT
  5
576C
  8
1
 10
5419.4934153480963
 20
1260.995654853094
 30
0.0
  0
LINE
  5
576D
  8
1
  6
CONTINUOUS
 10
5286.4934153480972
 20
1288.9956548530949
 30
0.0
 11
5398.4934153480972
 21
1288.9956548530949
 31
0.0
  0
LINE
  5
576E
  8
FUTO
 10
5251.4934153480972
 20
1302.9956548530949
 30
0.0
 11
5251.4934153480972
 21
1303.9956548530949
 31
0.0
  0
LINE
  5
576F
  8
1
  6
CONTINUOUS
 10
5271.4934153480972
 20
1303.9956548530949
 30
0.0
 11
5286.4934153480972
 21
1288.9956548530949
 31
0.0
  0
LINE
  5
5770
  8
1
  6
CONTINUOUS
 10
5413.4934153480972
 20
1303.9956548530949
 30
0.0
 11
5398.4934153480972
 21
1288.9956548530949
 31
0.0
  0
LINE
  5
5771
  8
FUTO
 10
5433.4934153480972
 20
1302.9956548530949
 30
0.0
 11
5433.4934153480972
 21
1303.9956548530949
 31
0.0
  0
LINE
  5
5841
  8
4
 10
3791.5304363835421
 20
2950.0000009706878
 30
0.0
 11
5891.530436383543
 21
2950.0000009706878
 31
0.0
  0
TEXT
  5
58A2
  8
4
 10
4093.8005844057998
 20
2382.3194785170322
 30
0.0
 40
53.999999999999993
  1
左回転上向
  0
TEXT
  5
58A5
  8
4
 10
5245.3883243708478
 20
2383.4288423032031
 30
0.0
 40
53.999999999999993
  1
縮尺：1/10
  0
DIMENSION
  5
58A7
  8
SP
  2
*D14
 10
4154.5857122339758
 20
2055.8970137353699
 30
0.0
 11
4129.5857122339758
 21
2017.3970137353699
 31
0.0
 70
     0
 13
4232.9505320783064
 23
1978.8970137353699
 33
0.0
 14
4222.2849030726193
 24
2055.8970137353699
 34
0.0
 50
90.0
  0
LINE
  5
58A8
  8
2
 10
4397.9505320783064
 20
2179.9953736253301
 30
0.0
 11
4397.9505320783064
 21
1720.448324852048
 31
0.0
  0
LINE
  5
58A9
  8
FUTO
 10
4256.9505320783064
 20
2115.8970137353699
 30
0.0
 11
4256.9505320783064
 21
1995.897013735369
 31
0.0
  0
LINE
  5
58AA
  8
FUTO
 10
4257.9505320783064
 20
2115.8970137353699
 30
0.0
 11
4257.9505320783064
 21
1995.897013735369
 31
0.0
  0
LINE
  5
58AB
  8
HOSO
 10
4594.5571337961037
 20
1989.290412017571
 30
0.0
 11
4401.3439303605082
 21
2122.5036154531681
 31
0.0
  0
LINE
  5
58AC
  8
HOSO
 10
4594.5571337961037
 20
2122.5036154531681
 30
0.0
 11
4401.3439303605082
 21
1989.290412017571
 31
0.0
  0
LINE
  5
58AD
  8
FUTO
 10
4396.9505320783064
 20
2111.8970137353699
 30
0.0
 11
4396.9505320783064
 21
1999.897013735369
 31
0.0
  0
LINE
  5
58AE
  8
FUTO
 10
4598.9505320783073
 20
1999.897013735369
 30
0.0
 11
4598.9505320783073
 21
2111.8970137353699
 31
0.0
  0
LINE
  5
58AF
  8
FUTO
 10
4376.9505320783064
 20
1989.8970137353699
 30
0.0
 11
4376.9505320783064
 21
2121.8970137353699
 31
0.0
  0
LINE
  5
58B0
  8
FUTO
 10
4618.9505320783064
 20
2121.8970137353699
 30
0.0
 11
4618.9505320783064
 21
1989.8970137353699
 31
0.0
  0
DIMENSION
  5
58B1
  8
SP
  2
*D12
 10
4232.9505320783064
 20
1658.952542294571
 30
0.0
 11
4397.9505320783064
 21
1683.952542294571
 31
0.0
 70
     0
 13
4562.9505320783064
 23
1808.897013735369
 33
0.0
 14
4232.9505320783064
 24
1808.897013735369
 34
0.0
 50
180.0
  0
LINE
  5
58B2
  8
FUTO
 10
4532.9505320783064
 20
1978.8970137353699
 30
0.0
 11
4532.9505320783064
 21
1802.997013735371
 31
0.0
  0
LINE
  5
58B3
  8
FUTO
 10
4262.9505320783064
 20
1978.8970137353699
 30
0.0
 11
4262.9505320783064
 21
1802.997013735371
 31
0.0
  0
LINE
  5
58B4
  8
1
 10
4322.9505320783064
 20
1790.8201047443411
 30
0.0
 11
4322.9505320783064
 21
1817.7638879342351
 31
0.0
  0
LINE
  5
58B5
  8
1
 10
4467.3387010396109
 20
1817.7638879342351
 30
0.0
 11
4467.3387010396109
 21
1790.8201047443411
 31
0.0
  0
LINE
  5
58B6
  8
FUTO
 10
4532.9505320783064
 20
1802.997013735371
 30
0.0
 11
4467.3387010396109
 21
1802.997013735371
 31
0.0
  0
LINE
  5
58B7
  8
1
 10
4337.9119015636888
 20
1755.8970137353699
 30
0.0
 11
4457.9891625929222
 21
1755.8970137353699
 31
0.0
  0
LINE
  5
58B8
  8
1
 10
4322.9505320783064
 20
1790.8201047443411
 30
0.0
 11
4467.3387010396109
 21
1790.8201047443411
 31
0.0
  0
LINE
  5
58B9
  8
1
 10
4457.9891625929222
 20
1755.8970137353699
 30
0.0
 11
4464.4548551925982
 21
1790.8201047443411
 31
0.0
  0
LINE
  5
58BA
  8
FUTO
 10
4262.9505320783064
 20
1802.997013735371
 30
0.0
 11
4322.9505320783064
 21
1802.997013735371
 31
0.0
  0
LINE
  5
58BB
  8
1
 10
4337.9119015636888
 20
1755.8970137353699
 30
0.0
 11
4326.5969395142583
 21
1790.8201047443411
 31
0.0
  0
POINT
  5
58BC
  8
1
 10
4337.9119015636888
 20
1755.8970137353699
 30
0.0
  0
DIMENSION
  5
58BD
  8
SP
  2
*D13
 10
4154.5857122339758
 20
1808.897013735369
 30
0.0
 11
4129.5857122339767
 21
1893.8970137353699
 31
0.0
 70
     0
 13
4232.9505320783064
 23
1978.8970137353699
 33
0.0
 14
4232.9505320783064
 24
1808.897013735369
 34
0.0
 50
90.0
  0
LINE
  5
58BE
  8
FUTO
 10
4562.9505320783064
 20
1978.8970137353699
 30
0.0
 11
4562.9505320783064
 21
1808.897013735369
 31
0.0
  0
LINE
  5
58BF
  8
FUTO
 10
4232.9505320783064
 20
1978.8970137353699
 30
0.0
 11
4232.9505320783064
 21
1808.897013735369
 31
0.0
  0
LINE
  5
58C0
  8
1
 10
4334.700160521852
 20
1817.7638879342351
 30
0.0
 11
4334.700160521852
 21
1948.3970137353699
 31
0.0
  0
LINE
  5
58C1
  8
1
 10
4461.200903634759
 20
1817.7638879342351
 30
0.0
 11
4461.200903634759
 21
1948.3970137353699
 31
0.0
  0
LINE
  5
58C2
  8
CT
 10
4549.9505320783064
 20
1838.7917895836299
 30
0.0
 11
4549.9505320783064
 21
1819.0022378871099
 31
0.0
  0
LINE
  5
58C3
  8
CT
 10
4540.0557562300446
 20
1828.8970137353699
 30
0.0
 11
4559.8453079265646
 21
1828.8970137353699
 31
0.0
  0
CIRCLE
  5
58C4
  8
FUTO
 10
4549.9505320783064
 20
1828.8970137353699
 30
0.0
 40
6.0
  0
LINE
  5
58C5
  8
FUTO
 10
4532.9505320783064
 20
1808.897013735369
 30
0.0
 11
4562.9505320783064
 21
1808.897013735369
 31
0.0
  0
LINE
  5
58C6
  8
1
 10
4322.9505320783064
 20
1817.7638879342351
 30
0.0
 11
4467.3387010396109
 21
1817.7638879342351
 31
0.0
  0
CIRCLE
  5
58C7
  8
FUTO
 10
4245.9505320783064
 20
1828.8970137353699
 30
0.0
 40
6.0
  0
LINE
  5
58C8
  8
CT
 10
4255.8453079265646
 20
1828.8970137353699
 30
0.0
 11
4236.0557562300464
 21
1828.8970137353699
 31
0.0
  0
LINE
  5
58C9
  8
CT
 10
4245.9505320783064
 20
1838.7917895836299
 30
0.0
 11
4245.9505320783064
 21
1819.0022378871099
 31
0.0
  0
LINE
  5
58CA
  8
FUTO
 10
4262.9505320783064
 20
1808.897013735369
 30
0.0
 11
4232.9505320783064
 21
1808.897013735369
 31
0.0
  0
LINE
  5
58CB
  8
2
 10
4314.2432326797452
 20
1876.8970137353699
 30
0.0
 11
4481.6578314768667
 21
1876.8970137353699
 31
0.0
  0
LINE
  5
58CC
  8
FUTO
 10
4532.9505320783064
 20
1978.8970137353699
 30
0.0
 11
4262.9505320783064
 21
1978.8970137353699
 31
0.0
  0
LINE
  5
58CD
  8
FUTO
 10
4583.9505320783073
 20
1984.8970137353699
 30
0.0
 11
4411.9505320783064
 21
1984.8970137353699
 31
0.0
  0
LINE
  5
58CE
  8
FUTO
 10
4593.9505320783064
 20
1964.8970137353699
 30
0.0
 11
4401.9505320783064
 21
1964.8970137353699
 31
0.0
  0
LINE
  5
58CF
  8
1
  6
CONTINUOUS
 10
4461.200903634759
 20
1937.8970137353699
 30
0.0
 11
4530.9505320783064
 21
1937.8970137353699
 31
0.0
  0
ARC
  5
58D0
  8
1
 10
4514.9505320783046
 20
1981.897013735371
 30
0.0
 40
3.0
 50
270.0
 51
0.000000000000007
  0
ARC
  5
58D1
  8
FUTO
 10
4593.9505320783046
 20
1989.8970137353699
 30
0.0
 40
25.0
 50
270.0000000000021
 51
359.99999999999892
  0
CIRCLE
  5
58D2
  8
FUTO
 10
4549.9505320783064
 20
1958.897013735369
 30
0.0
 40
6.0
  0
LINE
  5
58D3
  8
CT
 10
4540.0557562300446
 20
1958.897013735369
 30
0.0
 11
4559.8453079265646
 21
1958.897013735369
 31
0.0
  0
LINE
  5
58D4
  8
CT
 10
4549.9505320783064
 20
1968.791789583629
 30
0.0
 11
4549.9505320783064
 21
1949.0022378871099
 31
0.0
  0
POINT
  5
58D5
  8
1
 10
4514.9505320783046
 20
1978.8970137353699
 30
0.0
  0
LINE
  5
58D6
  8
1
 10
4517.9505320783064
 20
1982.897013735369
 30
0.0
 11
4517.9505320783046
 21
1981.897013735371
 31
0.0
  0
ARC
  5
58D7
  8
1
 10
4520.9505320783064
 20
1982.897013735369
 30
0.0
 40
3.0
 50
138.18968510422039
 51
180.0
  0
LINE
  5
58D8
  8
FUTO
 10
4532.9505320783064
 20
1978.8970137353699
 30
0.0
 11
4562.9505320783064
 21
1978.8970137353699
 31
0.0
  0
ARC
  5
58D9
  8
FUTO
 10
4583.9505320783073
 20
1999.897013735369
 30
0.0
 40
15.0
 50
270.00000000000171
 51
359.99999999999909
  0
ARC
  5
58DA
  8
1
 10
4280.9505320783046
 20
1981.897013735371
 30
0.0
 40
3.0
 50
180.0
 51
270.0
  0
LINE
  5
58DB
  8
FUTO
 10
4377.9505320783064
 20
1978.8970137353699
 30
0.0
 11
4377.9505320783064
 21
1966.897013735369
 31
0.0
  0
LINE
  5
58DC
  8
FUTO
 10
4417.9505320783073
 20
1978.8970137353699
 30
0.0
 11
4417.9505320783073
 21
1966.897013735369
 31
0.0
  0
ARC
  5
58DD
  8
FUTO
 10
4401.9505320783064
 20
1989.8970137353699
 30
0.0
 40
25.0
 50
180.00000000000099
 51
269.99999999999892
  0
LINE
  5
58DE
  8
1
 10
4334.700160521852
 20
1948.3970137353699
 30
0.0
 11
4461.200903634759
 21
1948.3970137353699
 31
0.0
  0
LINE
  5
58DF
  8
FUTO
 10
4377.9505320783064
 20
1966.897013735369
 30
0.0
 11
4417.9505320783073
 21
1966.8970137353699
 31
0.0
  0
LINE
  5
58E0
  8
1
 10
4386.5359119885634
 20
1953.3970137353699
 30
0.0
 11
4409.3651521680486
 21
1953.3970137353699
 31
0.0
  0
LINE
  5
58E1
  8
1
 10
4406.9505320783064
 20
1953.3970137353699
 30
0.0
 11
4406.9505320783064
 21
1966.897013735369
 31
0.0
  0
LINE
  5
58E2
  8
1
 10
4409.3651521680486
 20
1948.3970137353699
 30
0.0
 11
4409.3651521680486
 21
1953.3970137353699
 31
0.0
  0
LINE
  5
58E3
  8
1
 10
4388.9505320783073
 20
1953.3970137353699
 30
0.0
 11
4388.9505320783073
 21
1966.897013735369
 31
0.0
  0
LINE
  5
58E4
  8
1
 10
4386.5359119885634
 20
1948.3970137353699
 30
0.0
 11
4386.5359119885634
 21
1953.3970137353699
 31
0.0
  0
LINE
  5
58E5
  8
CT
 10
4245.9505320783064
 20
1968.791789583629
 30
0.0
 11
4245.9505320783064
 21
1949.0022378871099
 31
0.0
  0
LINE
  5
58E6
  8
CT
 10
4255.8453079265646
 20
1958.897013735369
 30
0.0
 11
4236.0557562300464
 21
1958.897013735369
 31
0.0
  0
CIRCLE
  5
58E7
  8
FUTO
 10
4245.9505320783064
 20
1958.897013735369
 30
0.0
 40
6.0
  0
LINE
  5
58E8
  8
1
  6
CONTINUOUS
 10
4262.9505320783064
 20
1937.8970137353699
 30
0.0
 11
4334.7001605218529
 21
1937.8970137353699
 31
0.0
  0
LINE
  5
58E9
  8
1
  6
CONTINUOUS
 10
4377.2726067198009
 20
1985.8970137353699
 30
0.0
 11
4267.9505320783064
 21
1985.8970137353699
 31
0.0
  0
LINE
  5
58EA
  8
1
  6
CONTINUOUS
 10
4377.4556346504751
 20
1984.8970137353699
 30
0.0
 11
4267.9505320783064
 21
1984.8970137353699
 31
0.0
  0
ARC
  5
58EB
  8
FUTO
 10
4411.9505320783064
 20
1999.897013735369
 30
0.0
 40
15.0
 50
180.0000000000008
 51
270.00000000000171
  0
LINE
  5
58EC
  8
1
 10
4277.9505320783064
 20
1982.897013735369
 30
0.0
 11
4277.9505320783064
 21
1981.897013735371
 31
0.0
  0
ARC
  5
58ED
  8
1
 10
4274.9505320783064
 20
1982.897013735369
 30
0.0
 40
3.0
 50
0.000000000000007
 51
41.810314895778113
  0
LINE
  5
58EE
  8
FUTO
 10
4262.9505320783064
 20
1978.8970137353699
 30
0.0
 11
4232.9505320783064
 21
1978.8970137353699
 31
0.0
  0
ARC
  5
58EF
  8
FUTO
 10
4267.9505320783064
 20
1995.897013735369
 30
0.0
 40
11.0
 50
179.99999999999989
 51
269.99999999999989
  0
ARC
  5
58F0
  8
FUTO
 10
4267.9505320783064
 20
1995.897013735369
 30
0.0
 40
10.0
 50
179.99999999999989
 51
269.99999999999989
  0
ARC
  5
58F1
  8
FUTO
 10
4401.9505320783064
 20
2121.8970137353699
 30
0.0
 40
25.0
 50
90.0
 51
180.0
  0
ARC
  5
58F2
  8
FUTO
 10
4593.9505320783064
 20
2121.8970137353699
 30
0.0
 40
25.0
 50
359.99999999999937
 51
89.999999999998963
  0
LINE
  5
58F3
  8
2
 10
4673.8345755333248
 20
2055.8970137353699
 30
0.0
 11
4222.2849030726193
 21
2055.8970137353699
 31
0.0
  0
LINE
  5
58F4
  8
1
 10
4514.9505320783046
 20
2132.897013735369
 30
0.0
 11
4280.9505320783064
 21
2132.897013735369
 31
0.0
  0
LINE
  5
58F5
  8
FUTO
 10
4583.9505320783073
 20
2126.8970137353699
 30
0.0
 11
4411.9505320783064
 21
2126.8970137353699
 31
0.0
  0
LINE
  5
58F6
  8
FUTO
 10
4593.9505320783064
 20
2146.8970137353699
 30
0.0
 11
4401.9505320783064
 21
2146.8970137353699
 31
0.0
  0
ARC
  5
58F7
  8
1
 10
4520.9505320783064
 20
2128.897013735369
 30
0.0
 40
3.0
 50
180.0
 51
221.8103148957795
  0
LINE
  5
58F8
  8
1
 10
4517.9505320783064
 20
2128.897013735369
 30
0.0
 11
4517.9505320783046
 21
2129.897013735369
 31
0.0
  0
ARC
  5
58F9
  8
1
 10
4514.9505320783046
 20
2129.897013735369
 30
0.0
 40
3.0
 50
0.000000000000007
 51
90.0
  0
POINT
  5
58FA
  8
1
 10
4514.9505320783046
 20
2132.897013735369
 30
0.0
  0
ARC
  5
58FB
  8
FUTO
 10
4583.9505320783073
 20
2111.8970137353699
 30
0.0
 40
15.0
 50
359.99999999999909
 51
90.0
  0
LINE
  5
58FC
  8
1
  6
CONTINUOUS
 10
4267.9505320783064
 20
2126.8970137353699
 30
0.0
 11
4377.4556346504742
 21
2126.8970137353699
 31
0.0
  0
LINE
  5
58FD
  8
1
  6
CONTINUOUS
 10
4267.9505320783064
 20
2125.897013735369
 30
0.0
 11
4377.2726067198
 21
2125.897013735369
 31
0.0
  0
ARC
  5
58FE
  8
FUTO
 10
4411.9505320783064
 20
2111.8970137353699
 30
0.0
 40
15.0
 50
89.999999999998266
 51
180.0000000000008
  0
ARC
  5
58FF
  8
1
 10
4274.9505320783064
 20
2128.897013735369
 30
0.0
 40
3.0
 50
318.18968510422178
 51
0.000000000000007
  0
LINE
  5
5900
  8
1
 10
4277.9505320783064
 20
2128.897013735369
 30
0.0
 11
4277.9505320783064
 21
2129.897013735369
 31
0.0
  0
ARC
  5
5901
  8
1
 10
4280.9505320783046
 20
2129.897013735369
 30
0.0
 40
3.0
 50
90.0
 51
180.0
  0
ARC
  5
5902
  8
FUTO
 10
4267.9505320783064
 20
2115.8970137353699
 30
0.0
 40
11.0
 50
89.999999999999943
 51
180.0
  0
ARC
  5
5903
  8
FUTO
 10
4267.9505320783064
 20
2115.8970137353699
 30
0.0
 40
10.0
 50
89.999999999999943
 51
180.0
  0
TEXT
  5
5955
  8
4
 10
4294.3304363835423
 20
2533.4087552354931
 30
0.0
 40
72.0
  1
遠心式片吸込片持多翼ファン
 72
     4
 11
4841.530436383543
 21
2569.4087552354931
 31
0.0
  0
LINE
  5
5956
  8
4
 10
4041.5304363835421
 20
2669.4087552354931
 30
0.0
 11
5641.530436383543
 21
2669.4087552354931
 31
0.0
  0
LINE
  5
5957
  8
4
 10
4041.5304363835421
 20
2469.4087552354931
 30
0.0
 11
5641.530436383543
 21
2469.4087552354931
 31
0.0
  0
LINE
  5
5958
  8
4
 10
4041.5304363835421
 20
2669.4087552354931
 30
0.0
 11
4041.5304363835421
 21
2469.4087552354931
 31
0.0
  0
LINE
  5
5959
  8
4
 10
5641.530436383543
 20
2669.4087552354931
 30
0.0
 11
5641.530436383543
 21
2469.4087552354931
 31
0.0
  0
LINE
  5
595A
  8
4
 10
5641.530436383543
 20
2786.6522625204411
 30
0.0
 11
5641.530436383543
 21
2681.2635840960888
 31
0.0
  0
LINE
  5
595B
  8
4
 10
5232.1478587434058
 20
2681.2635840960888
 30
0.0
 11
5232.1478587434058
 21
2786.6522625204411
 31
0.0
  0
TEXT
  5
595C
  8
4
 10
5260.499995632832
 20
2706.0610824659971
 30
0.0
 40
56.000000000000007
  1
No.
  0
LINE
  5
595D
  8
4
 10
5641.530436383543
 20
2681.2635840960888
 30
0.0
 11
5232.1478587434058
 21
2681.2635840960888
 31
0.0
  0
LINE
  5
595E
  8
4
 10
5232.1478587434058
 20
2786.6522625204411
 30
0.0
 11
5641.530436383543
 21
2786.6522625204411
 31
0.0
  0
LINE
  5
595F
  8
4
 10
5891.530436383543
 20
2950.0000009706878
 30
0.0
 11
5891.530436383543
 21
2950.0000009706878
 31
0.0
  0
TEXT
  5
5F3D
  8
4
 10
4605.6774303316233
 20
2383.4288423032031
 30
0.0
 40
53.999999999999993
  1
床置防振ベッド型
  0
LINE
  5
625A
  8
1
 10
4232.9505320783064
 20
776.2956548530949
 30
0.0
 11
4260.6505320783062
 21
776.2956548530949
 31
0.0
  0
LINE
  5
625B
  8
1
 10
4232.9505320783064
 20
831.69565485309488
 30
0.0
 11
4260.6505320783072
 21
831.69565485309511
 31
0.0
  0
LINE
  5
625C
  8
1
 10
4232.9505320783064
 20
773.99565485309495
 30
0.0
 11
4262.9505320783064
 21
773.99565485309495
 31
0.0
  0
LINE
  5
625D
  8
1
 10
4232.9505320783064
 20
833.99565485309495
 30
0.0
 11
4262.9505320783064
 21
833.99565485309495
 31
0.0
  0
DIMENSION
  5
625E
  8
SP
  2
*D15
 10
4232.9505320783082
 20
703.9956548530954
 30
0.0
 11
4315.4505320783064
 21
728.9956548530954
 31
0.0
 70
     0
 13
4397.9505320783064
 23
753.08733075560599
 33
0.0
 14
4232.9505320783082
 24
773.99565485309495
 34
0.0
  0
DIMENSION
  5
625F
  8
SP
  2
*D16
 10
4562.9505320783082
 20
633.99565485309495
 30
0.0
 11
4397.9505320783073
 21
658.99565485309495
 31
0.0
 70
     0
 13
4232.9505320783064
 23
773.99565485309495
 33
0.0
 14
4562.9505320783082
 24
773.9956548530954
 34
0.0
  0
LINE
  5
6260
  8
1
 10
4232.9505320783082
 20
776.2956548530949
 30
0.0
 11
4232.9505320783064
 21
773.99565485309495
 31
0.0
  0
LINE
  5
6261
  8
1
 10
4232.9505320783064
 20
833.99565485309495
 30
0.0
 11
4232.9505320783064
 21
831.69565485309511
 31
0.0
  0
DIMENSION
  5
6262
  8
SP
  2
*D17
 10
4562.9505320783082
 20
703.9956548530954
 30
0.0
 11
4480.4505320783073
 21
728.9956548530954
 31
0.0
 70
     0
 13
4397.9505320783064
 23
753.08733075560599
 33
0.0
 14
4562.9505320783082
 24
773.9956548530954
 34
0.0
  0
LINE
  5
6263
  8
FUTO
 10
4262.9505320783064
 20
793.99565485309495
 30
0.0
 11
4532.9505320783092
 21
793.99565485309495
 31
0.0
  0
LINE
  5
6264
  8
FUTO
 10
4262.9505320783064
 20
833.99565485309495
 30
0.0
 11
4532.9505320783092
 21
833.99565485309495
 31
0.0
  0
LINE
  5
6265
  8
1
 10
4260.6505320783072
 20
831.69565485309511
 30
0.0
 11
4260.6505320783062
 21
776.2956548530949
 31
0.0
  0
LINE
  5
6266
  8
1
 10
4262.9505320783064
 20
833.99565485309495
 30
0.0
 11
4262.9505320783064
 21
773.99565485309495
 31
0.0
  0
LINE
  5
6267
  8
1
 10
4532.9505320783092
 20
833.99565485309495
 30
0.0
 11
4532.9505320783092
 21
773.99565485309495
 31
0.0
  0
LINE
  5
6268
  8
1
 10
4535.2505320783066
 20
831.69565485309511
 30
0.0
 11
4535.2505320783084
 21
776.2956548530949
 31
0.0
  0
LINE
  5
6269
  8
1
 10
4562.9505320783073
 20
776.2956548530949
 30
0.0
 11
4562.9505320783082
 21
773.99565485309495
 31
0.0
  0
LINE
  5
626A
  8
1
 10
4562.9505320783082
 20
773.99565485309495
 30
0.0
 11
4532.9505320783092
 21
773.99565485309495
 31
0.0
  0
LINE
  5
626B
  8
1
 10
4562.9505320783082
 20
776.2956548530949
 30
0.0
 11
4535.2505320783084
 21
776.2956548530949
 31
0.0
  0
LINE
  5
626C
  8
1
 10
4562.9505320783082
 20
833.99565485309495
 30
0.0
 11
4562.9505320783082
 21
831.69565485309511
 31
0.0
  0
LINE
  5
626D
  8
1
 10
4562.9505320783082
 20
833.99565485309495
 30
0.0
 11
4532.9505320783092
 21
833.99565485309495
 31
0.0
  0
LINE
  5
626E
  8
1
 10
4562.9505320783082
 20
831.69565485309488
 30
0.0
 11
4535.2505320783066
 21
831.69565485309511
 31
0.0
  0
LINE
  5
626F
  8
2
 10
4547.9505320783082
 20
915.97682377140382
 30
0.0
 11
4547.9505320783064
 21
823.30690476956727
 31
0.0
  0
LINE
  5
6270
  8
2
 10
4247.9505320783073
 20
915.97682377140382
 30
0.0
 11
4247.9505320783073
 21
820.2041784158165
 31
0.0
  0
DIMENSION
  5
6271
  8
SP
  2
*D18
 10
5095.493415348099
 20
703.99565485309517
 30
0.0
 11
5180.493415348099
 21
728.99565485309517
 31
0.0
 70
     0
 13
5265.4934153480981
 23
773.99565485309506
 33
0.0
 14
5095.493415348099
 24
773.99565485309506
 34
0.0
  0
LINE
  5
6272
  8
FUTO
 10
5265.4934153480999
 20
833.99565485309506
 30
0.0
 11
5265.4934153480999
 21
773.99565485309506
 31
0.0
  0
LINE
  5
6273
  8
FUTO
 10
5095.493415348099
 20
833.99565485309506
 30
0.0
 11
5095.493415348099
 21
773.99565485309506
 31
0.0
  0
LINE
  5
6274
  8
1
 10
5265.4934153480999
 20
776.29565485309502
 30
0.0
 11
5095.493415348099
 21
776.29565485309513
 31
0.0
  0
LINE
  5
6275
  8
1
 10
5265.4934153480999
 20
773.99565485309495
 30
0.0
 11
5095.493415348099
 21
773.99565485309506
 31
0.0
  0
LINE
  5
6276
  8
1
 10
5265.4934153480999
 20
831.69565485309511
 30
0.0
 11
5095.493415348099
 21
831.69565485309511
 31
0.0
  0
LINE
  5
6277
  8
1
 10
5265.4934153480999
 20
833.99565485309506
 30
0.0
 11
5095.493415348099
 21
833.99565485309506
 31
0.0
  0
DIMENSION
  5
6278
  8
SP
  2
*D19
 10
5342.4934153480981
 20
703.99565485309517
 30
0.0
 11
5303.993415348099
 21
728.99565485309517
 31
0.0
 70
     0
 13
5265.4934153480999
 23
773.99565485309506
 33
0.0
 14
5342.4934153480981
 24
975.01297153561961
 34
0.0
  0
DIMENSION
  5
65AB
  8
SP
  2
*D20
 10
4167.9505320783064
 20
773.99565485309472
 30
0.0
 11
4142.9505320783046
 21
688.45902007164125
 31
0.0
 70
     0
 13
4232.9505320783064
 23
833.99565485309495
 33
0.0
 14
4232.9505320783064
 24
773.99565485309472
 34
0.0
 50
90.0
1001
ACAD
1000
DSTYLE
1002
{
1070
     6
1000
DOT
1002
}
  0
DIMENSION
  5
65AC
  8
SP
  2
*D21
 10
4167.9505320783064
 20
833.99565485309495
 30
0.0
 11
4131.5904074723712
 21
866.10196371933853
 31
0.0
 70
   128
 13
4232.9505320783037
 23
903.9956548530954
 33
0.0
 14
4232.9505320783064
 24
833.99565485309495
 34
0.0
 50
90.0
1001
ACAD
1000
DSTYLE
1002
{
1070
   287
1070
     5
1070
   279
1070
     2
1070
     3
1000
（<>）
1070
     6
1000
NONE
1070
     7
1000
NONE
1002
}
  0
ENDSEC
  0
EOF
