  0
SECTION
  2
HEADER
  9
$ACADVER
  1
AC1009
  9
$INSBASE
 10
0.0
 20
0.0
 30
0.0
  9
$EXTMIN
 10
6208.32856416303
 20
0.0000009706882338
 30
0.0
  9
$EXTMAX
 10
8308.32856416303
 20
2950.0000009706878
 30
0.0
  9
$LIMMIN
 10
0.0
 20
0.0
  9
$LIMMAX
 10
297.0
 20
210.0
  9
$ORTHOMODE
 70
     0
  9
$REGENMODE
 70
     1
  9
$FILLMODE
 70
     1
  9
$QTEXTMODE
 70
     0
  9
$MIRRTEXT
 70
     0
  9
$DRAGMODE
 70
     2
  9
$LTSCALE
 40
50.0
  9
$OSMODE
 70
   545
  9
$ATTMODE
 70
     1
  9
$TEXTSIZE
 40
3.5
  9
$TRACEWID
 40
0.05
  9
$TEXTSTYLE
  7
STANDARD
  9
$CLAYER
  8
SP
  9
$CELTYPE
  6
BYLAYER
  9
$CECOLOR
 62
   256
  9
$DIMSCALE
 40
10.0
  9
$DIMASZ
 40
2.5
  9
$DIMEXO
 40
1.0
  9
$DIMDLI
 40
7.0
  9
$DIMRND
 40
0.0
  9
$DIMDLE
 40
0.0
  9
$DIMEXE
 40
1.0
  9
$DIMTP
 40
0.0
  9
$DIMTM
 40
0.0
  9
$DIMTXT
 40
3.0
  9
$DIMCEN
 40
0.0
  9
$DIMTSZ
 40
0.0
  9
$DIMTOL
 70
     0
  9
$DIMLIM
 70
     0
  9
$DIMTIH
 70
     0
  9
$DIMTOH
 70
     0
  9
$DIMSE1
 70
     0
  9
$DIMSE2
 70
     0
  9
$DIMTAD
 70
     1
  9
$DIMZIN
 70
     8
  9
$DIMBLK
  1

  9
$DIMASO
 70
     1
  9
$DIMSHO
 70
     1
  9
$DIMPOST
  1

  9
$DIMAPOST
  1

  9
$DIMALT
 70
     0
  9
$DIMALTD
 70
     2
  9
$DIMALTF
 40
0.03937
  9
$DIMLFAC
 40
1.0
  9
$DIMTOFL
 70
     1
  9
$DIMTVP
 40
0.0
  9
$DIMTIX
 70
     0
  9
$DIMSOXD
 70
     0
  9
$DIMSAH
 70
     1
  9
$DIMBLK1
  1
OPEN
  9
$DIMBLK2
  1
OPEN
  9
$DIMSTYLE
  2
GOD
  9
$DIMCLRD
 70
   256
  9
$DIMCLRE
 70
   256
  9
$DIMCLRT
 70
   256
  9
$DIMTFAC
 40
1.0
  9
$DIMGAP
 40
1.0
  9
$LUNITS
 70
     2
  9
$LUPREC
 70
     3
  9
$SKETCHINC
 40
0.1
  9
$FILLETRAD
 40
0.0
  9
$AUNITS
 70
     0
  9
$AUPREC
 70
     2
  9
$MENU
  1
acad
  9
$ELEVATION
 40
0.0
  9
$PELEVATION
 40
0.0
  9
$THICKNESS
 40
0.0
  9
$LIMCHECK
 70
     0
  9
$BLIPMODE
 70
     0
  9
$CHAMFERA
 40
0.0
  9
$CHAMFERB
 40
0.0
  9
$SKPOLY
 70
     0
  9
$TDCREATE
 40
2454939.5747812148
  9
$TDUPDATE
 40
2455012.408688148
  9
$TDINDWG
 40
0.0480363079
  9
$TDUSRTIMER
 40
0.0480363079
  9
$USRTIMER
 70
     1
  9
$ANGBASE
 50
0.0
  9
$ANGDIR
 70
     0
  9
$PDMODE
 70
     0
  9
$PDSIZE
 40
1.0
  9
$PLINEWID
 40
0.0
  9
$COORDS
 70
     2
  9
$SPLFRAME
 70
     0
  9
$SPLINETYPE
 70
     6
  9
$SPLINESEGS
 70
     8
  9
$ATTDIA
 70
     0
  9
$ATTREQ
 70
     1
  9
$HANDLING
 70
 22529
  9
$HANDSEED
  5
6CD2
  9
$SURFTAB1
 70
     6
  9
$SURFTAB2
 70
     6
  9
$SURFTYPE
 70
     6
  9
$SURFU
 70
     6
  9
$SURFV
 70
     6
  9
$UCSNAME
  2

  9
$UCSORG
 10
0.0
 20
0.0
 30
0.0
  9
$UCSXDIR
 10
1.0
 20
0.0
 30
0.0
  9
$UCSYDIR
 10
0.0
 20
1.0
 30
0.0
  9
$PUCSNAME
  2

  9
$PUCSORG
 10
0.0
 20
0.0
 30
0.0
  9
$PUCSXDIR
 10
1.0
 20
0.0
 30
0.0
  9
$PUCSYDIR
 10
0.0
 20
1.0
 30
0.0
  9
$USERI1
 70
     0
  9
$USERI2
 70
     0
  9
$USERI3
 70
     0
  9
$USERI4
 70
     0
  9
$USERI5
 70
     0
  9
$USERR1
 40
0.0
  9
$USERR2
 40
0.0
  9
$USERR3
 40
0.0
  9
$USERR4
 40
0.0
  9
$USERR5
 40
0.0
  9
$WORLDVIEW
 70
     1
  9
$SHADEDGE
 70
     3
  9
$SHADEDIF
 70
    70
  9
$TILEMODE
 70
     1
  9
$MAXACTVP
 70
    16
  9
$PLIMCHECK
 70
     0
  9
$PEXTMIN
 10
1.0000000000000000E+020
 20
1.0000000000000000E+020
 30
1.0000000000000000E+020
  9
$PEXTMAX
 10
-1.0000000000000000E+020
 20
-1.0000000000000000E+020
 30
-1.0000000000000000E+020
  9
$PLIMMIN
 10
0.0
 20
0.0
  9
$PLIMMAX
 10
12.0
 20
9.0
  9
$UNITMODE
 70
     0
  9
$VISRETAIN
 70
     0
  9
$PLINEGEN
 70
     0
  9
$PSLTSCALE
 70
     0
  0
ENDSEC
  0
SECTION
  2
TABLES
  0
TABLE
  2
VPORT
 70
     2
  0
VPORT
  2
*ACTIVE
 70
     0
 10
0.0
 20
0.0
 11
1.0
 21
1.0
 12
7258.2509885955687
 22
1475.000007353849
 13
0.0
 23
0.0
 14
5.0
 24
5.0
 15
0.0
 25
0.0
 16
0.0
 26
0.0
 36
1.0
 17
0.0
 27
0.0
 37
0.0
 40
2974.263157169094
 41
1.6307901907356941
 42
50.0
 43
0.0
 44
0.0
 50
0.0
 51
0.0
 71
     0
 72
   100
 73
     1
 74
     0
 75
     0
 76
     0
 77
     0
 78
     0
  0
ENDTAB
  0
TABLE
  2
LTYPE
 70
     4
  0
LTYPE
  2
CONTINUOUS
 70
     0
  3
Solid line
 72
    65
 73
     0
 40
0.0
  0
LTYPE
  2
CENTER
 70
     0
  3
____ _ ____ _ ____ _ ____ _ ____ _ ____ _ ____ 
 72
    65
 73
     4
 40
2.0
 49
1.25
 49
-0.25
 49
0.25
 49
-0.25
  0
LTYPE
  2
HIDDEN
 70
     0
  3
__ __ __ __ __ __ __ __ __ __ __ __ __ __ __ __
 72
    65
 73
     2
 40
0.375
 49
0.25
 49
-0.125
  0
LTYPE
  2
PHANTOM
 70
     0
  3
______  __  __  ______  __  __  ______  __  __ 
 72
    65
 73
     6
 40
2.5
 49
1.25
 49
-0.25
 49
0.25
 49
-0.25
 49
0.25
 49
-0.25
  0
ENDTAB
  0
TABLE
  2
LAYER
 70
    13
  0
LAYER
  2
0
 70
     0
 62
     7
  6
CONTINUOUS
  0
LAYER
  2
CT
 70
     0
 62
     3
  6
CENTER
  0
LAYER
  2
FUTO
 70
     0
 62
     4
  6
CONTINUOUS
  0
LAYER
  2
HOSO
 70
     0
 62
     7
  6
CONTINUOUS
  0
LAYER
  2
KL
 70
     0
 62
     7
  6
HIDDEN
  0
LAYER
  2
MOJI
 70
     0
 62
     3
  6
CONTINUOUS
  0
LAYER
  2
SL
 70
     0
 62
     1
  6
PHANTOM
  0
LAYER
  2
SP
 70
     0
 62
     2
  6
CONTINUOUS
  0
LAYER
  2
DEFPOINTS
 70
     0
 62
     7
  6
CONTINUOUS
  0
LAYER
  2
1
 70
     0
 62
     4
  6
CONTINUOUS
  0
LAYER
  2
3
 70
     0
 62
     2
  6
CONTINUOUS
  0
LAYER
  2
2
 70
     0
 62
     3
  6
CENTER
  0
LAYER
  2
4
 70
     0
 62
     7
  6
CONTINUOUS
  0
ENDTAB
  0
TABLE
  2
STYLE
 70
     1
  0
STYLE
  2
STANDARD
 70
     0
 40
0.0
 41
1.0
 50
15.0
 71
     0
 42
3.5
  3
C:\Program Files\AutoCAD LT\simplex.shx
  4
C:\Program Files\AutoCAD LT\extfont.shx
  0
ENDTAB
  0
TABLE
  2
VIEW
 70
     0
  0
ENDTAB
  0
TABLE
  2
UCS
 70
     0
  0
ENDTAB
  0
TABLE
  2
APPID
 70
     1
  0
APPID
  2
ACAD
 70
     0
  0
ENDTAB
  0
TABLE
  2
DIMSTYLE
 70
     3
  0
DIMSTYLE
  2
STANDARD
 70
     0
  3

  4

  5

  6

  7

 40
1.0
 41
0.18
 42
0.0625
 43
0.38
 44
0.18
 45
0.0
 46
0.0
 47
0.0
 48
0.0
140
0.18
141
0.09
142
0.0
143
25.399999999999999
144
1.0
145
0.0
146
1.0
147
0.09
 71
     0
 72
     0
 73
     1
 74
     1
 75
     0
 76
     0
 77
     0
 78
     0
170
     0
171
     2
172
     0
173
     0
174
     0
175
     0
176
     0
177
     0
178
     0
  0
DIMSTYLE
  2
GOD
 70
     0
  3

  4

  5

  6
OPEN
  7
OPEN
 40
10.0
 41
2.5
 42
1.0
 43
7.0
 44
1.0
 45
0.0
 46
0.0
 47
0.0
 48
0.0
140
3.0
141
0.0
142
0.0
143
0.03937
144
1.0
145
0.0
146
1.0
147
1.0
 71
     0
 72
     0
 73
     0
 74
     0
 75
     0
 76
     0
 77
     1
 78
     8
170
     0
171
     2
172
     1
173
     1
174
     0
175
     0
176
   256
177
   256
178
   256
  0
DIMSTYLE
  2
DIA1
 70
     0
  3

  4

  5
ARROW
  6

  7

 40
1.0
 41
2.0
 42
1.0
 43
10.0
 44
1.0
 45
0.0
 46
0.0
 47
0.0
 48
0.0
140
2.5
141
0.0
142
0.0
143
25.399999999999999
144
1.0
145
0.0
146
1.0
147
0.09
 71
     0
 72
     0
 73
     0
 74
     0
 75
     0
 76
     0
 77
     1
 78
     8
170
     0
171
     2
172
     1
173
     0
174
     0
175
     0
176
     2
177
     2
178
     2
  0
ENDTAB
  0
ENDSEC
  0
SECTION
  2
BLOCKS
  0
BLOCK
  8
0
  2
$MODEL_SPACE
 70
     0
 10
0.0
 20
0.0
 30
0.0
  3
$MODEL_SPACE
  1

  0
ENDBLK
  5
1B
  8
0
  0
BLOCK
 67
     1
  8
0
  2
$PAPER_SPACE
 70
     0
 10
0.0
 20
0.0
 30
0.0
  3
$PAPER_SPACE
  1

  0
ENDBLK
  5
18
 67
     1
  8
0
  0
BLOCK
  8
0
  2
_OPEN
 70
     0
 10
0.0
 20
0.0
 30
0.0
  3
_OPEN
  1

  0
LINE
  5
1E81
  8
0
  6
BYBLOCK
 62
     0
 10
-1.0
 20
0.1666666666666666
 30
0.0
 11
0.0
 21
0.0
 31
0.0
  0
LINE
  5
1E82
  8
0
  6
BYBLOCK
 62
     0
 10
0.0
 20
0.0
 30
0.0
 11
-1.0
 21
-0.1666666666666666
 31
0.0
  0
LINE
  5
1E83
  8
0
  6
BYBLOCK
 62
     0
 10
0.0
 20
0.0
 30
0.0
 11
-1.0
 21
0.0
 31
0.0
  0
ENDBLK
  5
1E84
  8
0
  0
BLOCK
  8
0
  2
_DOT
 70
     0
 10
0.0
 20
0.0
 30
0.0
  3
_DOT
  1

  0
LINE
  5
1EC3
  8
0
  6
BYBLOCK
 62
     0
 10
0.0
 20
0.0
 30
0.0
 11
-1.0
 21
-0.0000000000000284
 31
0.0
  0
POLYLINE
  5
1EC4
  8
0
  6
BYBLOCK
 62
     0
 66
     1
 10
0.0
 20
0.0
 30
0.0
 70
     1
 40
0.1666666666666666
 41
0.1666666666666666
  0
VERTEX
  5
6CB8
  8
0
  6
BYBLOCK
 62
     0
 10
-0.0833333333333286
 20
-0.0000000000000284
 30
0.0
 42
1.0
  0
VERTEX
  5
6CB9
  8
0
  6
BYBLOCK
 62
     0
 10
0.0833333333333286
 20
-0.0000000000000284
 30
0.0
 42
1.0
  0
SEQEND
  5
6CBA
  8
0
  6
BYBLOCK
 62
     0
  0
ENDBLK
  5
1EB8
  8
0
  0
BLOCK
  8
0
  2
ARROW
 70
     0
 10
0.0
 20
0.0
 30
0.0
  3
ARROW
  1

  0
LINE
  5
1EEF
  8
0
 10
-0.9999999999999991
 20
0.1666666667000003
 30
0.0
 11
0.0
 21
0.0
 31
0.0
  0
LINE
  5
1EF0
  8
0
 10
-0.9999999999999991
 20
0.0
 30
0.0
 11
0.0
 21
0.0
 31
0.0
  0
LINE
  5
1EF1
  8
0
 10
-0.9999999999999991
 20
-0.1666666667000003
 30
0.0
 11
0.0
 21
0.0
 31
0.0
  0
ENDBLK
  5
1EF3
  8
0
  0
BLOCK
  8
0
  2
_NONE
 70
     0
 10
0.0
 20
0.0
 30
0.0
  3
_NONE
  1

  0
ENDBLK
  5
1F6F
  8
0
  0
BLOCK
  8
0
  2
*D42
 70
     1
 10
0.0
 20
0.0
 30
0.0
  3
*D42
  1

  0
LINE
  5
6CC5
  8
SP
 10
6724.142437825124
 20
945.40781966978136
 30
0.0
 11
6589.1424378251231
 21
945.40781966978136
 31
0.0
  0
LINE
  5
6CC6
  8
SP
 10
6724.142437825124
 20
923.40781966978147
 30
0.0
 11
6589.1424378251231
 21
923.40781966978147
 31
0.0
  0
LINE
  5
6CC7
  8
SP
 10
6599.1424378251222
 20
945.40781966978136
 30
0.0
 11
6599.1424378251222
 21
923.40781966978147
 31
0.0
  0
TEXT
  8
0
  40
30
  5
6CD1
  72
0
  71
0
 10
6507.78
 20
871.366
 30
0.000000
  1
（22）
  0
POINT
  5
6CC9
  8
DEFPOINTS
 62
     0
 10
6734.142437825124
 20
945.40781966978136
 30
0.0
  0
POINT
  5
6CCA
  8
DEFPOINTS
 62
     0
 10
6734.142437825124
 20
923.40781966978147
 30
0.0
  0
POINT
  5
6CCB
  8
DEFPOINTS
 62
     0
 10
6599.1424378251222
 20
923.40781966978147
 30
0.0
  0
ENDBLK
  5
6A33
  8
0
  0
BLOCK
  8
0
  2
*D43
 70
     1
 10
0.0
 20
0.0
 30
0.0
  3
*D43
  1

  0
LINE
  5
6CA4
  8
SP
 10
6724.142437825124
 20
923.40781966978147
 30
0.0
 11
6589.1424378251231
 21
923.40781966978147
 31
0.0
  0
LINE
  5
6CA5
  8
SP
 10
6724.142437825124
 20
863.40781966977602
 30
0.0
 11
6589.1424378251231
 21
863.40781966977602
 31
0.0
  0
LINE
  5
6CA6
  8
SP
 10
6599.1424378251222
 20
948.40781966978147
 30
0.0
 11
6599.1424378251222
 21
973.40781966978147
 31
0.0
  0
LINE
  5
6CA7
  8
SP
 10
6599.1424378251222
 20
838.40781966977602
 30
0.0
 11
6599.1424378251222
 21
742.33455010686782
 31
0.0
  0
LINE
  5
6CA8
  8
SP
 10
6599.1424378251222
 20
923.40781966978147
 30
0.0
 11
6599.1424378251222
 21
863.40781966977602
 31
0.0
  0
INSERT
  5
6CA9
  8
SP
  2
_DOT
 10
6599.1424378251222
 20
923.40781966978147
 30
0.0
 41
25.0
 42
25.0
 43
25.0
 50
270.0
  0
INSERT
  5
6CAA
  8
SP
  2
_OPEN
 10
6599.1424378251222
 20
863.40781966977602
 30
0.0
 41
25.0
 42
25.0
 43
25.0
 50
90.0
  0
TEXT
  5
6CAB
  8
SP
 10
6589.1424378251231
 20
749.75762499644975
 30
0.0
 40
30.0
  1
60
 50
90.0
 51
15.0
  0
POINT
  5
6CAC
  8
DEFPOINTS
 62
     0
 10
6734.142437825124
 20
923.40781966978147
 30
0.0
  0
POINT
  5
6CAD
  8
DEFPOINTS
 62
     0
 10
6734.142437825124
 20
863.40781966977602
 30
0.0
  0
POINT
  5
6CAE
  8
DEFPOINTS
 62
     0
 10
6599.1424378251222
 20
863.40781966977602
 30
0.0
  0
ENDBLK
  5
6A41
  8
0
  0
BLOCK
  8
0
  2
*D44
 70
     1
 10
0.0
 20
0.0
 30
0.0
  3
*D44
  1

  0
LINE
  5
6C0A
  8
SP
 10
6712.2469016896766
 20
1185.4078196697819
 30
0.0
 11
6589.1424378251231
 21
1185.4078196697819
 31
0.0
  0
LINE
  5
6C0B
  8
SP
 10
6875.142437825124
 20
1325.4078196697819
 30
0.0
 11
6589.1424378251231
 21
1325.4078196697831
 31
0.0
  0
LINE
  5
6C0C
  8
SP
 10
6599.1424378251222
 20
1210.4078196697819
 30
0.0
 11
6599.1424378251222
 21
1300.4078196697831
 31
0.0
  0
INSERT
  5
6C0D
  8
SP
  2
_OPEN
 10
6599.1424378251222
 20
1185.4078196697819
 30
0.0
 41
25.0
 42
25.0
 43
25.0
 50
270.0
  0
INSERT
  5
6C0E
  8
SP
  2
_OPEN
 10
6599.1424378251222
 20
1325.4078196697831
 30
0.0
 41
25.0
 42
25.0
 43
25.0
 50
90.0
  0
TEXT
  5
6C0F
  8
SP
 10
6589.1424378251231
 20
1213.900482139313
 30
0.0
 40
30.0
  1
140
 50
90.0
 51
15.0
  0
POINT
  5
6C10
  8
DEFPOINTS
 62
     0
 10
6722.2469016896757
 20
1185.4078196697819
 30
0.0
  0
POINT
  5
6C11
  8
DEFPOINTS
 62
     0
 10
6885.1424378251231
 20
1325.4078196697819
 30
0.0
  0
POINT
  5
6C12
  8
DEFPOINTS
 62
     0
 10
6599.1424378251222
 20
1325.4078196697831
 30
0.0
  0
ENDBLK
  5
6A4D
  8
0
  0
BLOCK
  8
0
  2
*D45
 70
     1
 10
0.0
 20
0.0
 30
0.0
  3
*D45
  1

  0
LINE
  5
6BD4
  8
SP
 10
6712.2469016896766
 20
1185.4078196697819
 30
0.0
 11
6589.1424378251231
 21
1185.4078196697819
 31
0.0
  0
LINE
  5
6BD5
  8
SP
 10
6724.1424378251222
 20
945.40781966978193
 30
0.0
 11
6589.1424378251231
 21
945.40781966978193
 31
0.0
  0
LINE
  5
6BD6
  8
SP
 10
6599.1424378251222
 20
1160.4078196697819
 30
0.0
 11
6599.1424378251222
 21
970.40781966978193
 31
0.0
  0
INSERT
  5
6BD7
  8
SP
  2
_OPEN
 10
6599.1424378251222
 20
1185.4078196697819
 30
0.0
 41
25.0
 42
25.0
 43
25.0
 50
90.0
  0
INSERT
  5
6BD8
  8
SP
  2
_OPEN
 10
6599.1424378251222
 20
945.40781966978193
 30
0.0
 41
25.0
 42
25.0
 43
25.0
 50
270.0
  0
TEXT
  5
6BD9
  8
SP
 10
6589.1424378251231
 20
1024.2970080474049
 30
0.0
 40
30.0
  1
240
 50
90.0
 51
15.0
  0
POINT
  5
6BDA
  8
DEFPOINTS
 62
     0
 10
6722.2469016896757
 20
1185.4078196697819
 30
0.0
  0
POINT
  5
6BDB
  8
DEFPOINTS
 62
     0
 10
6734.1424378251222
 20
945.40781966978193
 30
0.0
  0
POINT
  5
6BDC
  8
DEFPOINTS
 62
     0
 10
6599.1424378251222
 20
945.40781966978193
 30
0.0
  0
ENDBLK
  5
6A59
  8
0
  0
BLOCK
  8
0
  2
*D46
 70
     1
 10
0.0
 20
0.0
 30
0.0
  3
*D46
  1

  0
LINE
  5
6BCB
  8
SP
 10
6712.2469016896766
 20
1185.4078196697819
 30
0.0
 11
6659.1424378251222
 21
1185.4078196697819
 31
0.0
  0
LINE
  5
6BCC
  8
SP
 10
6729.1424378251222
 20
985.40781966978341
 30
0.0
 11
6659.1424378251222
 21
985.40781966978341
 31
0.0
  0
LINE
  5
6BCD
  8
SP
 10
6669.1424378251222
 20
1160.4078196697819
 30
0.0
 11
6669.1424378251222
 21
1010.407819669783
 31
0.0
  0
INSERT
  5
6BCE
  8
SP
  2
_OPEN
 10
6669.1424378251222
 20
1185.4078196697819
 30
0.0
 41
25.0
 42
25.0
 43
25.0
 50
90.0
  0
INSERT
  5
6BCF
  8
SP
  2
_OPEN
 10
6669.1424378251222
 20
985.40781966978341
 30
0.0
 41
25.0
 42
25.0
 43
25.0
 50
270.0
  0
TEXT
  5
6BD0
  8
SP
 10
6659.1424378251222
 20
1044.2970080474049
 30
0.0
 40
30.0
  1
200
 50
90.0
 51
15.0
  0
POINT
  5
6BD1
  8
DEFPOINTS
 62
     0
 10
6722.2469016896757
 20
1185.4078196697819
 30
0.0
  0
POINT
  5
6BD2
  8
DEFPOINTS
 62
     0
 10
6739.1424378251231
 20
985.40781966978341
 30
0.0
  0
POINT
  5
6BD3
  8
DEFPOINTS
 62
     0
 10
6669.1424378251222
 20
985.40781966978341
 30
0.0
  0
ENDBLK
  5
6A65
  8
0
  0
BLOCK
  8
0
  2
*D47
 70
     1
 10
0.0
 20
0.0
 30
0.0
  3
*D47
  1

  0
LINE
  5
6C01
  8
SP
 10
6899.142437825124
 20
832.49949557229252
 30
0.0
 11
6899.142437825124
 21
783.40781966978193
 31
0.0
  0
LINE
  5
6C02
  8
SP
 10
7064.1424378251249
 20
853.40781966978193
 30
0.0
 11
7064.1424378251249
 21
783.40781966978193
 31
0.0
  0
LINE
  5
6C03
  8
SP
 10
6924.142437825124
 20
793.40781966978193
 30
0.0
 11
7039.1424378251259
 21
793.40781966978193
 31
0.0
  0
INSERT
  5
6C04
  8
SP
  2
_OPEN
 10
6899.142437825124
 20
793.40781966978193
 30
0.0
 41
25.0
 42
25.0
 43
25.0
 50
180.0
  0
INSERT
  5
6C05
  8
SP
  2
_OPEN
 10
7064.1424378251249
 20
793.40781966978193
 30
0.0
 41
25.0
 42
25.0
 43
25.0
  0
TEXT
  5
6C06
  8
SP
 10
6940.083816887709
 20
803.40781966978193
 30
0.0
 40
30.0
  1
165
 51
15.0
  0
POINT
  5
6C07
  8
DEFPOINTS
 62
     0
 10
6899.142437825124
 20
842.4994955722924
 30
0.0
  0
POINT
  5
6C08
  8
DEFPOINTS
 62
     0
 10
7064.1424378251249
 20
863.40781966978193
 30
0.0
  0
POINT
  5
6C09
  8
DEFPOINTS
 62
     0
 10
7064.1424378251249
 20
793.40781966978193
 30
0.0
  0
ENDBLK
  5
6A71
  8
0
  0
BLOCK
  8
0
  2
*D48
 70
     1
 10
0.0
 20
0.0
 30
0.0
  3
*D48
  1

  0
LINE
  5
6BF8
  8
SP
 10
6734.142437825124
 20
853.40781966978136
 30
0.0
 11
6734.142437825124
 21
713.40781966978147
 31
0.0
  0
LINE
  5
6BF9
  8
SP
 10
7064.1424378251249
 20
853.40781966978193
 30
0.0
 11
7064.1424378251249
 21
713.40781966978147
 31
0.0
  0
LINE
  5
6BFA
  8
SP
 10
6759.1424378251249
 20
723.40781966978136
 30
0.0
 11
7039.1424378251259
 21
723.40781966978136
 31
0.0
  0
INSERT
  5
6BFB
  8
SP
  2
_OPEN
 10
6734.142437825124
 20
723.40781966978136
 30
0.0
 41
25.0
 42
25.0
 43
25.0
 50
180.0
  0
INSERT
  5
6BFC
  8
SP
  2
_OPEN
 10
7064.1424378251249
 20
723.40781966978136
 30
0.0
 41
25.0
 42
25.0
 43
25.0
  0
TEXT
  5
6BFD
  8
SP
 10
6857.266057081516
 20
733.40781966978147
 30
0.0
 40
30.0
  1
330
 51
15.0
  0
POINT
  5
6BFE
  8
DEFPOINTS
 62
     0
 10
6734.142437825124
 20
863.40781966978136
 30
0.0
  0
POINT
  5
6BFF
  8
DEFPOINTS
 62
     0
 10
7064.1424378251249
 20
863.40781966978193
 30
0.0
  0
POINT
  5
6C00
  8
DEFPOINTS
 62
     0
 10
7064.1424378251249
 20
723.40781966978136
 30
0.0
  0
ENDBLK
  5
6A7D
  8
0
  0
BLOCK
  8
0
  2
*D49
 70
     1
 10
0.0
 20
0.0
 30
0.0
  3
*D49
  1

  0
LINE
  5
6C1C
  8
SP
 10
6899.142437825124
 20
1371.5683330863819
 30
0.0
 11
6899.142437825124
 21
1425.407819669781
 31
0.0
  0
LINE
  5
6C1D
  8
SP
 10
7067.1424378251222
 20
1179.4078196697819
 30
0.0
 11
7067.1424378251222
 21
1425.407819669781
 31
0.0
  0
LINE
  5
6C1E
  8
SP
 10
6924.142437825124
 20
1415.407819669781
 30
0.0
 11
7042.1424378251222
 21
1415.407819669781
 31
0.0
  0
INSERT
  5
6C1F
  8
SP
  2
_OPEN
 10
6899.142437825124
 20
1415.407819669781
 30
0.0
 41
25.0
 42
25.0
 43
25.0
 50
180.0
  0
INSERT
  5
6C20
  8
SP
  2
_OPEN
 10
7067.1424378251222
 20
1415.407819669781
 30
0.0
 41
25.0
 42
25.0
 43
25.0
  0
TEXT
  5
6C21
  8
SP
 10
6941.4437080143462
 20
1425.407819669781
 30
0.0
 40
30.0
  1
168
 51
15.0
  0
POINT
  5
6C22
  8
DEFPOINTS
 62
     0
 10
6899.142437825124
 20
1361.5683330863819
 30
0.0
  0
POINT
  5
6C23
  8
DEFPOINTS
 62
     0
 10
7067.1424378251222
 20
1169.4078196697831
 30
0.0
  0
POINT
  5
6C24
  8
DEFPOINTS
 62
     0
 10
7067.1424378251222
 20
1415.407819669781
 30
0.0
  0
ENDBLK
  5
6A89
  8
0
  0
BLOCK
  8
0
  2
*D50
 70
     1
 10
0.0
 20
0.0
 30
0.0
  3
*D50
  1

  0
LINE
  5
6BEF
  8
SP
 10
6899.142437825124
 20
832.49949557229252
 30
0.0
 11
6899.142437825124
 21
783.40781966978193
 31
0.0
  0
LINE
  5
6BF0
  8
SP
 10
6734.142437825124
 20
853.40781966978136
 30
0.0
 11
6734.142437825124
 21
783.40781966978193
 31
0.0
  0
LINE
  5
6BF1
  8
SP
 10
6874.142437825124
 20
793.40781966978193
 30
0.0
 11
6759.1424378251249
 21
793.40781966978193
 31
0.0
  0
INSERT
  5
6BF2
  8
SP
  2
_OPEN
 10
6899.142437825124
 20
793.40781966978193
 30
0.0
 41
25.0
 42
25.0
 43
25.0
  0
INSERT
  5
6BF3
  8
SP
  2
_OPEN
 10
6734.142437825124
 20
793.40781966978193
 30
0.0
 41
25.0
 42
25.0
 43
25.0
 50
180.0
  0
TEXT
  5
6BF4
  8
SP
 10
6775.0838168877081
 20
803.40781966978193
 30
0.0
 40
30.0
  1
165
 51
15.0
  0
POINT
  5
6BF5
  8
DEFPOINTS
 62
     0
 10
6899.142437825124
 20
842.4994955722924
 30
0.0
  0
POINT
  5
6BF6
  8
DEFPOINTS
 62
     0
 10
6734.142437825124
 20
863.40781966978136
 30
0.0
  0
POINT
  5
6BF7
  8
DEFPOINTS
 62
     0
 10
6734.142437825124
 20
793.40781966978193
 30
0.0
  0
ENDBLK
  5
6A95
  8
0
  0
BLOCK
  8
0
  2
*D51
 70
     1
 10
0.0
 20
0.0
 30
0.0
  3
*D51
  1

  0
LINE
  5
6C13
  8
SP
 10
6899.142437825124
 20
1371.5683330863819
 30
0.0
 11
6899.142437825124
 21
1425.407819669781
 31
0.0
  0
LINE
  5
6C14
  8
SP
 10
6739.1424378251231
 20
1216.4078196697819
 30
0.0
 11
6739.1424378251231
 21
1425.407819669781
 31
0.0
  0
LINE
  5
6C15
  8
SP
 10
6874.142437825124
 20
1415.407819669781
 30
0.0
 11
6764.1424378251231
 21
1415.407819669781
 31
0.0
  0
INSERT
  5
6C16
  8
SP
  2
_OPEN
 10
6899.142437825124
 20
1415.407819669781
 30
0.0
 41
25.0
 42
25.0
 43
25.0
  0
INSERT
  5
6C17
  8
SP
  2
_OPEN
 10
6739.1424378251231
 20
1415.407819669781
 30
0.0
 41
25.0
 42
25.0
 43
25.0
 50
180.0
  0
TEXT
  5
6C18
  8
SP
 10
6777.6351002946521
 20
1425.407819669781
 30
0.0
 40
30.0
  1
160
 51
15.0
  0
POINT
  5
6C19
  8
DEFPOINTS
 62
     0
 10
6899.142437825124
 20
1361.5683330863819
 30
0.0
  0
POINT
  5
6C1A
  8
DEFPOINTS
 62
     0
 10
6739.1424378251231
 20
1206.4078196697819
 30
0.0
  0
POINT
  5
6C1B
  8
DEFPOINTS
 62
     0
 10
6739.1424378251231
 20
1415.407819669781
 30
0.0
  0
ENDBLK
  5
6AA1
  8
0
  0
BLOCK
  8
0
  2
*D52
 70
     1
 10
0.0
 20
0.0
 30
0.0
  3
*D52
  1

  0
LINE
  5
6C52
  8
SP
 10
6734.142437825124
 20
1840.309178552056
 30
0.0
 11
6734.142437825124
 21
1711.4820887523811
 31
0.0
  0
LINE
  5
6C53
  8
SP
 10
7074.1424378251231
 20
1840.309178552056
 30
0.0
 11
7074.1424378251231
 21
1711.4820887523811
 31
0.0
  0
LINE
  5
6C54
  8
SP
 10
6759.1424378251249
 20
1721.4820887523811
 30
0.0
 11
7049.142437825124
 21
1721.4820887523811
 31
0.0
  0
INSERT
  5
6C55
  8
SP
  2
_OPEN
 10
6734.142437825124
 20
1721.4820887523811
 30
0.0
 41
25.0
 42
25.0
 43
25.0
 50
180.0
  0
INSERT
  5
6C56
  8
SP
  2
_OPEN
 10
7074.1424378251231
 20
1721.4820887523811
 30
0.0
 41
25.0
 42
25.0
 43
25.0
  0
TEXT
  5
6C57
  8
SP
 10
6862.2660570815142
 20
1731.4820887523811
 30
0.0
 40
30.0
  1
340
 51
15.0
  0
POINT
  5
6C58
  8
DEFPOINTS
 62
     0
 10
6734.142437825124
 20
1850.309178552056
 30
0.0
  0
POINT
  5
6C59
  8
DEFPOINTS
 62
     0
 10
7074.1424378251231
 20
1850.309178552056
 30
0.0
  0
POINT
  5
6C5A
  8
DEFPOINTS
 62
     0
 10
7074.1424378251231
 20
1721.4820887523811
 30
0.0
  0
ENDBLK
  5
6AAD
  8
0
  0
BLOCK
  8
0
  2
*D53
 70
     1
 10
0.0
 20
0.0
 30
0.0
  3
*D53
  1

  0
LINE
  5
6C5B
  8
SP
 10
7074.1424378251231
 20
2020.309178552056
 30
0.0
 11
7182.8645612632217
 21
2020.309178552056
 31
0.0
  0
LINE
  5
6C5C
  8
SP
 10
7098.9998629420406
 20
2097.309178552056
 30
0.0
 11
7182.8645612632217
 21
2097.3091785520551
 31
0.0
  0
LINE
  5
6C5D
  8
SP
 10
7172.8645612632208
 20
2045.309178552056
 30
0.0
 11
7172.8645612632217
 21
2072.3091785520551
 31
0.0
  0
INSERT
  5
6C5E
  8
SP
  2
_OPEN
 10
7172.8645612632208
 20
2020.309178552056
 30
0.0
 41
25.0
 42
25.0
 43
25.0
 50
270.0
  0
INSERT
  5
6C5F
  8
SP
  2
_OPEN
 10
7172.8645612632217
 20
2097.3091785520551
 30
0.0
 41
25.0
 42
25.0
 43
25.0
 50
90.0
  0
TEXT
  5
6C60
  8
SP
 10
7162.8645612632208
 20
2027.647083522734
 30
0.0
 40
30.0
  1
77
 50
90.0
 51
15.0
  0
POINT
  5
6C61
  8
DEFPOINTS
 62
     0
 10
7064.142437825124
 20
2020.309178552056
 30
0.0
  0
POINT
  5
6C62
  8
DEFPOINTS
 62
     0
 10
7088.9998629420415
 20
2097.309178552056
 30
0.0
  0
POINT
  5
6C63
  8
DEFPOINTS
 62
     0
 10
7172.8645612632217
 20
2097.3091785520551
 30
0.0
  0
ENDBLK
  5
6AB9
  8
0
  0
BLOCK
  8
0
  2
*D54
 70
     1
 10
0.0
 20
0.0
 30
0.0
  3
*D54
  1

  0
LINE
  5
6C49
  8
SP
 10
7074.1424378251231
 20
2020.309178552056
 30
0.0
 11
7182.8645612632217
 21
2020.309178552056
 31
0.0
  0
LINE
  5
6C4A
  8
SP
 10
7074.1424378251231
 20
1850.309178552056
 30
0.0
 11
7182.8645612632217
 21
1850.309178552056
 31
0.0
  0
LINE
  5
6C4B
  8
SP
 10
7172.8645612632217
 20
1995.309178552056
 30
0.0
 11
7172.8645612632217
 21
1875.309178552056
 31
0.0
  0
INSERT
  5
6C4C
  8
SP
  2
_OPEN
 10
7172.8645612632217
 20
2020.309178552056
 30
0.0
 41
25.0
 42
25.0
 43
25.0
 50
90.0
  0
INSERT
  5
6C4D
  8
SP
  2
_OPEN
 10
7172.8645612632217
 20
1850.309178552056
 30
0.0
 41
25.0
 42
25.0
 43
25.0
 50
270.0
  0
TEXT
  5
6C4E
  8
SP
 10
7162.8645612632208
 20
1893.801841021588
 30
0.0
 40
30.0
  1
170
 50
90.0
 51
15.0
  0
POINT
  5
6C4F
  8
DEFPOINTS
 62
     0
 10
7064.142437825124
 20
2020.309178552056
 30
0.0
  0
POINT
  5
6C50
  8
DEFPOINTS
 62
     0
 10
7064.142437825124
 20
1850.309178552056
 30
0.0
  0
POINT
  5
6C51
  8
DEFPOINTS
 62
     0
 10
7172.8645612632217
 20
1850.309178552056
 30
0.0
  0
ENDBLK
  5
6AC5
  8
0
  0
BLOCK
  8
0
  2
*D55
 70
     1
 10
0.0
 20
0.0
 30
0.0
  3
*D55
  1

  0
LINE
  5
6C2E
  8
SP
 10
7724.4741092021759
 20
853.40781966978182
 30
0.0
 11
7724.4741092021759
 21
783.4078196697817
 31
0.0
  0
LINE
  5
6C2F
  8
SP
 10
7554.4741092021786
 20
853.40781966978182
 30
0.0
 11
7554.4741092021786
 21
783.4078196697817
 31
0.0
  0
LINE
  5
6C30
  8
SP
 10
7699.4741092021768
 20
793.4078196697817
 30
0.0
 11
7579.4741092021804
 21
793.4078196697817
 31
0.0
  0
INSERT
  5
6C31
  8
SP
  2
_OPEN
 10
7724.4741092021759
 20
793.4078196697817
 30
0.0
 41
25.0
 42
25.0
 43
25.0
  0
INSERT
  5
6C32
  8
SP
  2
_OPEN
 10
7554.4741092021786
 20
793.4078196697817
 30
0.0
 41
25.0
 42
25.0
 43
25.0
 50
180.0
  0
TEXT
  5
6C33
  8
SP
 10
7597.9667716717067
 20
803.40781966978159
 30
0.0
 40
30.0
  1
170
 51
15.0
  0
POINT
  5
6C34
  8
DEFPOINTS
 62
     0
 10
7724.4741092021759
 20
863.4078196697817
 30
0.0
  0
POINT
  5
6C35
  8
DEFPOINTS
 62
     0
 10
7554.4741092021786
 20
863.4078196697817
 30
0.0
  0
POINT
  5
6C36
  8
DEFPOINTS
 62
     0
 10
7554.4741092021786
 20
793.4078196697817
 30
0.0
  0
ENDBLK
  5
6AD1
  8
0
  0
BLOCK
  8
0
  2
*D56
 70
     1
 10
0.0
 20
0.0
 30
0.0
  3
*D56
  1

  0
LINE
  5
6BC2
  8
SP
 10
7801.4741092021759
 20
1440.022782190767
 30
0.0
 11
7801.4741092021759
 21
1476.4078196697819
 31
0.0
  0
LINE
  5
6BC3
  8
SP
 10
7501.4741092021768
 20
1255.4464501843979
 30
0.0
 11
7501.4741092021768
 21
1476.4078196697819
 31
0.0
  0
LINE
  5
6BC4
  8
SP
 10
7776.4741092021759
 20
1466.4078196697819
 30
0.0
 11
7526.4741092021759
 21
1466.4078196697819
 31
0.0
  0
INSERT
  5
6BC5
  8
SP
  2
_OPEN
 10
7801.4741092021759
 20
1466.4078196697819
 30
0.0
 41
25.0
 42
25.0
 43
25.0
  0
INSERT
  5
6BC6
  8
SP
  2
_OPEN
 10
7501.4741092021768
 20
1466.4078196697819
 30
0.0
 41
25.0
 42
25.0
 43
25.0
 50
180.0
  0
TEXT
  5
6BC7
  8
SP
 10
7609.597728458567
 20
1476.4078196697819
 30
0.0
 40
30.0
  1
300
 51
15.0
  0
POINT
  5
6BC8
  8
DEFPOINTS
 62
     0
 10
7801.4741092021759
 20
1430.022782190767
 30
0.0
  0
POINT
  5
6BC9
  8
DEFPOINTS
 62
     0
 10
7501.4741092021768
 20
1245.4464501843979
 30
0.0
  0
POINT
  5
6BCA
  8
DEFPOINTS
 62
     0
 10
7501.4741092021768
 20
1466.4078196697819
 30
0.0
  0
ENDBLK
  5
6ADD
  8
0
  0
BLOCK
  8
0
  2
*D57
 70
     1
 10
0.0
 20
0.0
 30
0.0
  3
*D57
  1

  0
LINE
  5
6C37
  8
3
 10
7888.474109202175
 20
1285.4078196697819
 30
0.0
 11
7986.6959621585747
 21
1285.4078196697819
 31
0.0
  0
LINE
  5
6C38
  8
3
 10
7888.474109202175
 20
1085.4078196697819
 30
0.0
 11
7986.6959621585747
 21
1085.4078196697819
 31
0.0
  0
LINE
  5
6C39
  8
3
 10
7976.6959621585756
 20
1260.4078196697819
 30
0.0
 11
7976.6959621585756
 21
1110.407819669781
 31
0.0
  0
INSERT
  5
6C3A
  8
3
  2
_OPEN
 10
7976.6959621585756
 20
1285.4078196697819
 30
0.0
 41
25.0
 42
25.0
 43
25.0
 50
90.0
  0
INSERT
  5
6C3B
  8
3
  2
_OPEN
 10
7976.6959621585756
 20
1085.4078196697819
 30
0.0
 41
25.0
 42
25.0
 43
25.0
 50
270.0
  0
INSERT
  5
6C3C
  8
SP
  2
*U63
 10
0.0
 20
0.0
 30
0.0
  0
POINT
  5
6C3D
  8
DEFPOINTS
 62
     0
 10
7878.474109202175
 20
1285.4078196697819
 30
0.0
  0
POINT
  5
6C3E
  8
DEFPOINTS
 62
     0
 10
7878.474109202175
 20
1085.4078196697819
 30
0.0
  0
POINT
  5
6C3F
  8
DEFPOINTS
 62
     0
 10
7976.6959621585756
 20
1085.4078196697819
 30
0.0
  0
ENDBLK
  5
6AE9
  8
0
  0
BLOCK
  8
0
  2
*D58
 70
     1
 10
0.0
 20
0.0
 30
0.0
  3
*D58
  1

  0
LINE
  5
6C25
  8
SP
 10
7724.4741092021777
 20
853.40781966978182
 30
0.0
 11
7724.4741092021777
 21
783.4078196697817
 31
0.0
  0
LINE
  5
6C26
  8
SP
 10
7801.474109202175
 20
940.76140014543762
 30
0.0
 11
7801.474109202175
 21
783.4078196697817
 31
0.0
  0
LINE
  5
6C27
  8
SP
 10
7749.4741092021786
 20
793.4078196697817
 30
0.0
 11
7776.474109202175
 21
793.4078196697817
 31
0.0
  0
INSERT
  5
6C28
  8
SP
  2
_OPEN
 10
7724.4741092021777
 20
793.4078196697817
 30
0.0
 41
25.0
 42
25.0
 43
25.0
 50
180.0
  0
INSERT
  5
6C29
  8
SP
  2
_OPEN
 10
7801.474109202175
 20
793.4078196697817
 30
0.0
 41
25.0
 42
25.0
 43
25.0
  0
TEXT
  5
6C2A
  8
SP
 10
7731.8120141728523
 20
803.40781966978159
 30
0.0
 40
30.0
  1
77
 51
15.0
  0
POINT
  5
6C2B
  8
DEFPOINTS
 62
     0
 10
7724.4741092021777
 20
863.4078196697817
 30
0.0
  0
POINT
  5
6C2C
  8
DEFPOINTS
 62
     0
 10
7801.474109202175
 20
950.76140014543762
 30
0.0
  0
POINT
  5
6C2D
  8
DEFPOINTS
 62
     0
 10
7801.474109202175
 20
793.4078196697817
 30
0.0
  0
ENDBLK
  5
6AF5
  8
0
  0
BLOCK
  8
0
  2
*D59
 70
     1
 10
0.0
 20
0.0
 30
0.0
  3
*D59
  1

  0
LINE
  5
6BB9
  8
SP
 10
7801.4741092021759
 20
1440.022782190767
 30
0.0
 11
7801.4741092021759
 21
1476.4078196697819
 31
0.0
  0
LINE
  5
6BBA
  8
SP
 10
7878.474109202175
 20
1312.407819669784
 30
0.0
 11
7878.474109202175
 21
1476.4078196697819
 31
0.0
  0
LINE
  5
6BBB
  8
SP
 10
7826.4741092021768
 20
1466.4078196697819
 30
0.0
 11
7853.4741092021741
 21
1466.4078196697819
 31
0.0
  0
INSERT
  5
6BBC
  8
SP
  2
_OPEN
 10
7801.4741092021759
 20
1466.4078196697819
 30
0.0
 41
25.0
 42
25.0
 43
25.0
 50
180.0
  0
INSERT
  5
6BBD
  8
SP
  2
_OPEN
 10
7878.474109202175
 20
1466.4078196697819
 30
0.0
 41
25.0
 42
25.0
 43
25.0
  0
TEXT
  5
6BBE
  8
SP
 10
7808.8120141728523
 20
1476.4078196697819
 30
0.0
 40
30.0
  1
77
 51
15.0
  0
POINT
  5
6BBF
  8
DEFPOINTS
 62
     0
 10
7801.4741092021759
 20
1430.022782190767
 30
0.0
  0
POINT
  5
6BC0
  8
DEFPOINTS
 62
     0
 10
7878.474109202175
 20
1302.407819669784
 30
0.0
  0
POINT
  5
6BC1
  8
DEFPOINTS
 62
     0
 10
7878.474109202175
 20
1466.4078196697819
 30
0.0
  0
ENDBLK
  5
6B01
  8
0
  0
BLOCK
  8
0
  2
*D60
 70
     1
 10
0.0
 20
0.0
 30
0.0
  3
*D60
  1

  0
LINE
  5
6C40
  8
SP
 10
7731.4741092021777
 20
1325.4078196697831
 30
0.0
 11
7731.4741092021777
 21
1406.4078196697819
 31
0.0
  0
LINE
  5
6C41
  8
SP
 10
7871.474109202175
 20
1325.4078196697831
 30
0.0
 11
7871.474109202175
 21
1406.4078196697819
 31
0.0
  0
LINE
  5
6C42
  8
SP
 10
7756.4741092021768
 20
1396.4078196697819
 30
0.0
 11
7846.474109202175
 21
1396.4078196697819
 31
0.0
  0
INSERT
  5
6C43
  8
SP
  2
_OPEN
 10
7731.4741092021777
 20
1396.4078196697819
 30
0.0
 41
25.0
 42
25.0
 43
25.0
 50
180.0
  0
INSERT
  5
6C44
  8
SP
  2
_OPEN
 10
7871.474109202175
 20
1396.4078196697819
 30
0.0
 41
25.0
 42
25.0
 43
25.0
  0
TEXT
  5
6C45
  8
SP
 10
7759.9667716717058
 20
1406.4078196697819
 30
0.0
 40
30.0
  1
140
 51
15.0
  0
POINT
  5
6C46
  8
DEFPOINTS
 62
     0
 10
7731.4741092021777
 20
1315.4078196697831
 30
0.0
  0
POINT
  5
6C47
  8
DEFPOINTS
 62
     0
 10
7871.474109202175
 20
1315.4078196697831
 30
0.0
  0
POINT
  5
6C48
  8
DEFPOINTS
 62
     0
 10
7871.474109202175
 20
1396.4078196697819
 30
0.0
  0
ENDBLK
  5
6B0D
  8
0
  0
BLOCK
  8
0
  2
*U61
 70
     1
 10
0.0
 20
0.0
 30
0.0
  3
*U61
  1

  0
TEXT
  5
6CBC
  8
SP
 10
7882.302184191245
 20
981.17237207246455
 30
0.0
 40
30.0
  1
\U+2205
 50
90.0
 51
15.0
  0
TEXT
  5
6CBD
  8
SP
 10
7882.302184191245
 20
1008.315229215321
 30
0.0
 40
30.0
  1
200
 50
90.0
 51
15.0
  0
ENDBLK
  5
6CBF
  8
0
  0
BLOCK
  8
0
  2
*U62
 70
     1
 10
0.0
 20
0.0
 30
0.0
  3
*U62
  1

  0
TEXT
  5
6CC1
  8
SP
 10
494.53864886288619
 20
981.17237207246296
 30
0.0
 40
30.0
  1
\U+2205
 50
90.0
 51
15.0
  0
TEXT
  5
6CC2
  8
SP
 10
494.53864886288619
 20
1008.31522921532
 30
0.0
 40
30.0
  1
200
 50
90.0
 51
15.0
  0
ENDBLK
  5
6CC4
  8
0
  0
BLOCK
  8
0
  2
*U63
 70
     1
 10
0.0
 20
0.0
 30
0.0
  3
*U63
  1

  0
TEXT
  5
6CCD
  8
SP
 10
7966.6959621585738
 20
1122.584536889151
 30
0.0
 40
30.0
  1
\U+2205
 50
90.0
 51
15.0
  0
TEXT
  5
6CCE
  8
SP
 10
7966.6959621585738
 20
1149.7273940320081
 30
0.0
 40
30.0
  1
200
 50
90.0
 51
15.0
  0
ENDBLK
  5
6CD0
  8
0
  0
ENDSEC
  0
SECTION
  2
ENTITIES
  0
LINE
  5
55A9
  8
4
 10
6208.32856416303
 20
0.0000009706882338
 30
0.0
 11
6208.32856416303
 21
2950.0000009706878
 31
0.0
  0
LINE
  5
55AA
  8
4
 10
8308.32856416303
 20
2950.0000009706878
 30
0.0
 11
8308.32856416303
 21
0.0000009706882338
 31
0.0
  0
LINE
  5
568F
  8
4
 10
8308.32856416303
 20
0.0000009706882338
 30
0.0
 11
6208.32856416303
 21
0.0000009706882338
 31
0.0
  0
LINE
  5
569F
  8
4
 10
6658.32856416303
 20
226.553142200808
 30
0.0
 11
7858.32856416303
 21
226.553142200808
 31
0.0
  0
LINE
  5
56A0
  8
4
 10
6658.32856416303
 20
326.553142200808
 30
0.0
 11
7858.32856416303
 21
326.553142200808
 31
0.0
  0
LINE
  5
56A1
  8
4
 10
6658.32856416303
 20
426.553142200808
 30
0.0
 11
7858.32856416303
 21
426.553142200808
 31
0.0
  0
TEXT
  5
56A2
  8
4
 10
7194.9830597485097
 20
243.71272648075129
 30
0.0
 40
50.0
  1
MF＃1 1/4- 7
  0
TEXT
  5
56A3
  8
4
 10
7186.0073096506949
 20
349.12491115837651
 30
0.0
 40
50.0
  1
ミツヤ多翼送風機
  0
LINE
  5
56A4
  8
4
 10
6658.32856416303
 20
426.553142200808
 30
0.0
 11
6658.32856416303
 21
226.553142200808
 31
0.0
  0
LINE
  5
56A5
  8
4
 10
7158.32856416303
 20
426.553142200808
 30
0.0
 11
7158.3285641630309
 21
226.553142200808
 31
0.0
  0
TEXT
  5
56A6
  8
4
 10
6694.5866701878276
 20
248.19829893281889
 30
0.0
 40
50.0
  1
機器型番
  0
TEXT
  5
56A8
  8
4
 10
6696.8306450099308
 20
358.09616806742082
 30
0.0
 40
50.0
  1
機器名称
  0
LINE
  5
56A9
  8
4
 10
7858.32856416303
 20
426.553142200808
 30
0.0
 11
7858.3285641630309
 21
226.553142200808
 31
0.0
  0
TEXT
  5
58A1
  8
4
 10
6510.5987121852886
 20
2382.3194785170322
 30
0.0
 40
53.999999999999993
  1
右回転左横向
  0
TEXT
  5
58A4
  8
4
 10
7662.1864521503358
 20
2383.4288423032031
 30
0.0
 40
53.999999999999993
  1
縮尺：1/10
  0
LINE
  5
5954
  8
4
 10
6208.32856416303
 20
2950.0000009706878
 30
0.0
 11
8308.32856416303
 21
2950.0000009706878
 31
0.0
  0
LINE
  5
5960
  8
4
 10
6458.3285641630291
 20
2469.4087552354931
 30
0.0
 11
8058.32856416303
 21
2469.4087552354931
 31
0.0
  0
LINE
  5
5961
  8
4
 10
6458.3285641630291
 20
2669.4087552354931
 30
0.0
 11
8058.32856416303
 21
2669.4087552354931
 31
0.0
  0
TEXT
  5
5962
  8
4
 10
6711.1285641630302
 20
2533.4087552354931
 30
0.0
 40
72.0
  1
遠心式片吸込片持多翼ファン
 72
     4
 11
7258.3285641630291
 21
2569.4087552354931
 31
0.0
  0
LINE
  5
5963
  8
4
 10
6458.3285641630291
 20
2669.4087552354931
 30
0.0
 11
6458.3285641630291
 21
2469.4087552354931
 31
0.0
  0
LINE
  5
5964
  8
4
 10
8058.32856416303
 20
2669.4087552354931
 30
0.0
 11
8058.32856416303
 21
2469.4087552354931
 31
0.0
  0
LINE
  5
5965
  8
4
 10
7648.9459865228946
 20
2786.6522625204411
 30
0.0
 11
8058.32856416303
 21
2786.6522625204411
 31
0.0
  0
LINE
  5
5966
  8
4
 10
8058.32856416303
 20
2681.2635840960888
 30
0.0
 11
7648.9459865228946
 21
2681.2635840960888
 31
0.0
  0
TEXT
  5
5967
  8
4
 10
7677.2981234123199
 20
2706.0610824659971
 30
0.0
 40
56.000000000000007
  1
No.
  0
LINE
  5
5968
  8
4
 10
7648.9459865228946
 20
2681.2635840960888
 30
0.0
 11
7648.9459865228946
 21
2786.6522625204411
 31
0.0
  0
LINE
  5
5969
  8
4
 10
8058.32856416303
 20
2786.6522625204411
 30
0.0
 11
8058.32856416303
 21
2681.2635840960888
 31
0.0
  0
LINE
  5
596A
  8
4
 10
8308.32856416303
 20
2950.0000009706878
 30
0.0
 11
8308.32856416303
 21
2950.0000009706878
 31
0.0
  0
TEXT
  5
5F43
  8
4
 10
7022.4755581111112
 20
2383.4288423032031
 30
0.0
 40
53.999999999999993
  1
床置防振ベッド型
  0
DIMENSION
  5
68F9
  8
SP
  2
*D42
 10
6599.1424378251222
 20
923.40781966978147
 30
0.0
 11
6567.7823132191888
 21
924.46636577123297
 31
0.0
 70
   128
 13
6734.142437825124
 23
945.40781966978136
 33
0.0
 14
6734.142437825124
 24
923.40781966978147
 34
0.0
 50
90.0
1001
ACAD
1000
DSTYLE
1002
{
1070
   287
1070
     5
1070
     3
1000
（<>）
1070
   279
1070
     2
1070
   289
1070
     3
1070
     6
1000
NONE
1070
     7
1000
NONE
1002
}
  0
DIMENSION
  5
68FA
  8
SP
  2
*D43
 10
6599.1424378251222
 20
863.40781966977602
 30
0.0
 11
6574.1424378251222
 21
777.87118488832289
 31
0.0
 70
     0
 13
6734.142437825124
 23
923.40781966978147
 33
0.0
 14
6734.142437825124
 24
863.40781966977602
 34
0.0
 50
90.0
1001
ACAD
1000
DSTYLE
1002
{
1070
     6
1000
DOT
1002
}
  0
DIMENSION
  5
68FB
  8
SP
  2
*D44
 10
6599.1424378251222
 20
1325.4078196697831
 30
0.0
 11
6574.1424378251222
 21
1255.4078196697831
 31
0.0
 70
     0
 13
6722.2469016896757
 23
1185.4078196697819
 33
0.0
 14
6885.1424378251231
 24
1325.4078196697819
 34
0.0
 50
90.0
  0
DIMENSION
  5
68FC
  8
SP
  2
*D45
 10
6599.1424378251222
 20
945.40781966978193
 30
0.0
 11
6574.1424378251222
 21
1065.4078196697831
 31
0.0
 70
     0
 13
6722.2469016896757
 23
1185.4078196697819
 33
0.0
 14
6734.1424378251222
 24
945.40781966978193
 34
0.0
 50
90.0
  0
DIMENSION
  5
68FD
  8
SP
  2
*D46
 10
6669.1424378251222
 20
985.40781966978341
 30
0.0
 11
6644.1424378251231
 21
1085.4078196697831
 31
0.0
 70
     0
 13
6722.2469016896757
 23
1185.4078196697819
 33
0.0
 14
6739.1424378251231
 24
985.40781966978341
 34
0.0
 50
90.0
  0
LINE
  5
68FE
  8
FUTO
 10
6764.1424378251249
 20
923.40781966978147
 30
0.0
 11
7034.1424378251259
 21
923.40781966978147
 31
0.0
  0
LINE
  5
68FF
  8
FUTO
 10
6764.1424378251249
 20
883.40781966978147
 30
0.0
 11
7034.1424378251259
 21
883.40781966978147
 31
0.0
  0
DIMENSION
  5
6900
  8
SP
  2
*D47
 10
7064.1424378251249
 20
793.40781966978193
 30
0.0
 11
6981.6424378251259
 21
818.40781966978204
 31
0.0
 70
     0
 13
6899.142437825124
 23
842.4994955722924
 33
0.0
 14
7064.1424378251249
 24
863.40781966978193
 34
0.0
  0
DIMENSION
  5
6901
  8
SP
  2
*D48
 10
7064.1424378251249
 20
723.40781966978136
 30
0.0
 11
6899.1424378251249
 21
748.40781966978136
 31
0.0
 70
     0
 13
6734.142437825124
 23
863.40781966978136
 33
0.0
 14
7064.1424378251249
 24
863.40781966978193
 34
0.0
  0
LINE
  5
6902
  8
2
 10
6722.2469016896757
 20
1185.4078196697819
 30
0.0
 11
7105.3116523543367
 21
1185.4078196697819
 31
0.0
  0
LINE
  5
6903
  8
1
 10
6949.1424378251231
 20
1310.4078196697819
 30
0.0
 11
7034.142437825124
 21
1239.1078196697811
 31
0.0
  0
DIMENSION
  5
6904
  8
SP
  2
*D49
 10
7067.1424378251222
 20
1415.407819669781
 30
0.0
 11
6983.1424378251222
 21
1440.4078196697819
 31
0.0
 70
     0
 13
6899.142437825124
 23
1361.5683330863819
 33
0.0
 14
7067.1424378251222
 24
1169.4078196697831
 34
0.0
  0
LINE
  5
6905
  8
1
 10
6987.4902639120801
 20
1111.8078196697811
 30
0.0
 11
7029.9424378251233
 21
1111.8078196697811
 31
0.0
  0
LINE
  5
6906
  8
1
 10
6768.3424378251248
 20
1113.4078196697819
 30
0.0
 11
7029.9424378251233
 21
1113.4078196697819
 31
0.0
  0
LINE
  5
6907
  8
1
 10
6734.142437825124
 20
945.40781966978136
 30
0.0
 11
7064.1424378251249
 21
945.40781966978193
 31
0.0
  0
ARC
  5
6908
  8
1
 10
6883.1424378251231
 20
1169.4078196697831
 30
0.0
 40
184.0
 50
270.0
 51
7.3029112824112383
  0
ARC
  5
6909
  8
1
 10
6883.1424378251231
 20
1169.4078196697831
 30
0.0
 40
195.0
 50
270.0
 51
7.3220595904489754
  0
ARC
  5
690A
  8
1
 10
6913.1424378251222
 20
1171.4078196697819
 30
0.0
 40
154.0
 50
38.213210701757461
 51
103.1027620341531
  0
ARC
  5
690B
  8
1
 10
6913.1424378251222
 20
1171.4078196697819
 30
0.0
 40
165.0
 50
42.833428066057223
 51
90.0
  0
LINE
  5
690C
  8
1
 10
6739.1424378251231
 20
964.40781966978295
 30
0.0
 11
6739.1424378251231
 21
1206.4078196697819
 31
0.0
  0
LINE
  5
690D
  8
1
 10
6740.7424378251217
 20
964.40781966978295
 30
0.0
 11
6740.7424378251217
 21
1206.4078196697819
 31
0.0
  0
LINE
  5
690E
  8
1
 10
6754.1424378251222
 20
997.20781966978222
 30
0.0
 11
6754.1424378251222
 21
1173.607819669782
 31
0.0
  0
CIRCLE
  5
690F
  8
CT
 10
6899.142437825124
 20
1185.4078196697819
 30
0.0
 40
110.0
  0
ARC
  5
6910
  8
1
 10
6899.142437825124
 20
1185.4078196697819
 30
0.0
 40
75.0
 50
292.30515321345479
 51
247.69484678654501
  0
CIRCLE
  5
6911
  8
1
 10
6899.142437825124
 20
1185.4078196697819
 30
0.0
 40
69.388168961305382
  0
CIRCLE
  5
6912
  8
1
 10
6899.142437825124
 20
1185.4078196697819
 30
0.0
 40
60.038630514616607
  0
LINE
  5
6913
  8
1
 10
6765.7424378251244
 20
1240.4499373168401
 30
0.0
 11
6765.7424378251244
 21
1110.8078196697811
 31
0.0
  0
LINE
  5
6914
  8
1
 10
6764.1424378251249
 20
1239.107819669782
 30
0.0
 11
6764.1424378251249
 21
945.40781966978136
 31
0.0
  0
LINE
  5
6915
  8
2
 10
6899.142437825124
 20
1361.5683330863819
 30
0.0
 11
6899.142437825124
 21
842.49949557229309
 31
0.0
  0
DIMENSION
  5
6916
  8
SP
  2
*D50
 10
6734.142437825124
 20
793.40781966978193
 30
0.0
 11
6816.6424378251231
 21
818.40781966978204
 31
0.0
 70
     0
 13
6899.142437825124
 23
842.4994955722924
 33
0.0
 14
6734.142437825124
 24
863.40781966978136
 34
0.0
  0
LINE
  5
6917
  8
1
 10
6883.1424378251231
 20
974.40781966978295
 30
0.0
 11
6754.1424378251222
 21
974.40781966978295
 31
0.0
  0
LINE
  5
6918
  8
1
 10
6883.1424378251231
 20
985.40781966978295
 30
0.0
 11
6739.142437825124
 21
985.40781966978341
 31
0.0
  0
LINE
  5
6919
  8
1
 10
6859.142437825124
 20
1114.407819669781
 30
0.0
 11
6829.1424378251231
 21
1114.407819669781
 31
0.0
  0
LINE
  5
691A
  8
1
 10
6810.7946117381689
 20
1111.8078196697811
 30
0.0
 11
6987.4902639120801
 21
1111.8078196697811
 31
0.0
  0
LINE
  5
691B
  8
1
 10
6849.142437825124
 20
1095.0078196697809
 30
0.0
 11
6949.1424378251231
 21
1095.0078196697809
 31
0.0
  0
LINE
  5
691C
  8
2
 10
6749.142437825124
 20
957.38898858809046
 30
0.0
 11
6749.142437825124
 21
909.61634323250314
 31
0.0
  0
LINE
  5
691D
  8
1
 10
6764.1424378251249
 20
923.40781966978147
 30
0.0
 11
6764.1424378251249
 21
863.40781966978136
 31
0.0
  0
LINE
  5
691E
  8
1
 10
6761.8424378251248
 20
921.10781966978152
 30
0.0
 11
6761.8424378251229
 21
865.70781966978132
 31
0.0
  0
LINE
  5
691F
  8
1
 10
6734.142437825124
 20
863.40781966978136
 30
0.0
 11
6764.1424378251249
 21
863.40781966978147
 31
0.0
  0
LINE
  5
6920
  8
1
 10
6734.142437825124
 20
865.70781966978132
 30
0.0
 11
6761.8424378251229
 21
865.70781966978132
 31
0.0
  0
LINE
  5
6921
  8
1
 10
6734.142437825124
 20
865.70781966978132
 30
0.0
 11
6734.142437825124
 21
863.40781966978136
 31
0.0
  0
LINE
  5
6922
  8
1
 10
6734.142437825124
 20
923.40781966978147
 30
0.0
 11
6764.1424378251249
 21
923.40781966978147
 31
0.0
  0
LINE
  5
6923
  8
1
 10
6734.142437825124
 20
921.10781966978152
 30
0.0
 11
6761.8424378251248
 21
921.10781966978152
 31
0.0
  0
LINE
  5
6924
  8
1
 10
6734.142437825124
 20
923.40781966978147
 30
0.0
 11
6734.142437825124
 21
921.10781966978152
 31
0.0
  0
LINE
  5
6925
  8
1
 10
6768.3424378251248
 20
1111.8078196697811
 30
0.0
 11
6810.7946117381689
 21
1111.8078196697811
 31
0.0
  0
LINE
  5
6926
  8
1
 10
6765.7424378251244
 20
1110.8078196697811
 30
0.0
 11
6765.7424378251244
 21
1018.107819669781
 31
0.0
  0
LINE
  5
6927
  8
1
 10
6767.3424378251248
 20
1110.8078196697811
 30
0.0
 11
6767.3424378251248
 21
1018.107819669781
 31
0.0
  0
LINE
  5
6928
  8
1
 10
6754.1424378251222
 20
974.40781966978341
 30
0.0
 11
6754.1424378251222
 21
985.40781966978295
 31
0.0
  0
LINE
  5
6929
  8
1
 10
6765.7424378251244
 20
1018.107819669781
 30
0.0
 11
6765.7424378251244
 21
948.00781966978172
 31
0.0
  0
LINE
  5
692A
  8
1
 10
6734.142437825124
 20
947.00781966978184
 30
0.0
 11
6763.1424378251231
 21
947.00781966978184
 31
0.0
  0
LINE
  5
692B
  8
1
 10
6740.7424378251217
 20
964.40781966978295
 30
0.0
 11
6739.1424378251231
 21
964.40781966978295
 31
0.0
  0
LINE
  5
692C
  8
1
 10
6734.142437825124
 20
947.00781966978184
 30
0.0
 11
6734.142437825124
 21
945.40781966978193
 31
0.0
  0
ARC
  5
692D
  8
1
 10
6763.1424378251231
 20
948.00781966978172
 30
0.0
 40
2.6000000000000001
 50
270.0
 51
0.0
  0
ARC
  5
692E
  8
1
 10
6763.1424378251231
 20
948.00781966978172
 30
0.0
 40
1.0
 50
270.0
 51
0.0
  0
LINE
  5
692F
  8
1
 10
6742.342437825122
 20
985.40781966978295
 30
0.0
 11
6754.1424378251222
 21
997.20781966978222
 31
0.0
  0
LINE
  5
6930
  8
1
 10
6765.7424378251244
 20
1018.107819669781
 30
0.0
 11
6767.3424378251248
 21
1018.107819669781
 31
0.0
  0
ARC
  5
6931
  8
1
 10
6768.3424378251248
 20
1110.8078196697811
 30
0.0
 40
2.6000000000000001
 50
90.0
 51
180.0
  0
ARC
  5
6932
  8
1
 10
6768.3424378251248
 20
1110.8078196697811
 30
0.0
 40
1.0
 50
90.0
 51
180.0
  0
LINE
  5
6933
  8
1
 10
6849.142437825124
 20
1095.0078196697809
 30
0.0
 11
6807.142437825124
 21
1113.4078196697819
 31
0.0
  0
LINE
  5
6934
  8
CT
 10
6804.6927033442553
 20
1146.2854586852679
 30
0.0
 11
6790.1898650362527
 21
1140.278186365189
 31
0.0
  0
CIRCLE
  5
6935
  8
1
 10
6797.5156892488822
 20
1143.3126421096219
 30
0.0
 40
4.0
  0
LINE
  5
6936
  8
1
 10
6829.1424378251231
 20
1114.407819669781
 30
0.0
 11
6846.6117863111194
 21
1131.8771681557751
 31
0.0
  0
LINE
  5
6937
  8
1
 10
6829.1424378251231
 20
1114.407819669781
 30
0.0
 11
6829.1424378251231
 21
1113.4078196697819
 31
0.0
  0
LINE
  5
6938
  8
1
 10
6843.1424378251231
 20
1105.4078196697819
 30
0.0
 11
6843.1424378251231
 21
1123.334883884105
 31
0.0
  0
LINE
  5
6939
  8
1
 10
6939.142437825124
 20
1114.407819669781
 30
0.0
 11
6930.9635775696051
 21
1117.493056434073
 31
0.0
  0
LINE
  5
693A
  8
1
 10
6927.6078907145011
 20
1116.0196507084761
 30
0.0
 11
6870.676984935747
 21
1116.0196507084761
 31
0.0
  0
LINE
  5
693B
  8
CT
 10
6860.0200768406112
 20
1090.958085188912
 30
0.0
 11
6854.012804520532
 21
1076.455246880909
 31
0.0
  0
CIRCLE
  5
693C
  8
1
 10
6857.0472602649661
 20
1083.781071093541
 30
0.0
 40
4.0
  0
LINE
  5
693D
  8
1
 10
6859.142437825124
 20
1114.407819669781
 30
0.0
 11
6859.142437825124
 21
1113.4078196697819
 31
0.0
  0
LINE
  5
693E
  8
1
 10
6859.142437825124
 20
1114.407819669781
 30
0.0
 11
6867.3212980806447
 21
1117.493056434073
 31
0.0
  0
LINE
  5
693F
  8
1
 10
6949.1424378251231
 20
1095.0078196697809
 30
0.0
 11
6991.142437825124
 21
1113.4078196697819
 31
0.0
  0
LINE
  5
6940
  8
CT
 10
6938.2647988096387
 20
1090.958085188912
 30
0.0
 11
6944.2720711297179
 21
1076.455246880909
 31
0.0
  0
CIRCLE
  5
6941
  8
1
 10
6941.2376153852847
 20
1083.78107109354
 30
0.0
 40
4.0
  0
LINE
  5
6942
  8
1
 10
6969.142437825124
 20
1114.407819669781
 30
0.0
 11
6951.6730893391314
 21
1131.8771681557751
 31
0.0
  0
LINE
  5
6943
  8
1
 10
6939.142437825124
 20
1114.407819669781
 30
0.0
 11
6969.142437825124
 21
1114.407819669781
 31
0.0
  0
LINE
  5
6944
  8
1
 10
6939.142437825124
 20
1114.407819669781
 30
0.0
 11
6939.142437825124
 21
1113.4078196697819
 31
0.0
  0
LINE
  5
6945
  8
1
 10
6969.142437825124
 20
1114.407819669781
 30
0.0
 11
6969.142437825124
 21
1113.4078196697819
 31
0.0
  0
LINE
  5
6946
  8
1
 10
6955.142437825124
 20
1105.4078196697819
 30
0.0
 11
6955.142437825124
 21
1123.334883884105
 31
0.0
  0
LINE
  5
6947
  8
CT
 10
6993.5921723059964
 20
1146.285458685267
 30
0.0
 11
7008.0950106139981
 21
1140.278186365189
 31
0.0
  0
CIRCLE
  5
6948
  8
1
 10
7000.7691864013668
 20
1143.3126421096231
 30
0.0
 40
4.0
  0
LINE
  5
6949
  8
1
 10
6849.142437825124
 20
1310.407819669781
 30
0.0
 11
6949.1424378251231
 21
1310.4078196697819
 31
0.0
  0
ARC
  5
694A
  8
1
 10
6910.1424378251222
 20
1196.4078196697819
 30
0.0
 40
140.0
 50
90.0
 51
168.44161984437221
  0
ARC
  5
694B
  8
1
 10
6910.1424378251222
 20
1196.4078196697819
 30
0.0
 40
129.0
 50
104.3223043379403
 51
168.7702059314644
  0
DIMENSION
  5
694C
  8
SP
  2
*D51
 10
6739.1424378251231
 20
1415.407819669781
 30
0.0
 11
6819.1424378251231
 21
1440.4078196697819
 31
0.0
 70
     0
 13
6899.142437825124
 23
1361.5683330863819
 33
0.0
 14
6739.1424378251231
 24
1206.4078196697819
 34
0.0
  0
ARC
  5
694D
  8
1
 10
6706.1424378251213
 20
1248.4078196697819
 30
0.0
 40
82.0
 50
312.59881289245322
 51
340.86590752557811
  0
ARC
  5
694E
  8
1
 10
6706.1424378251213
 20
1248.4078196697819
 30
0.0
 40
71.0
 50
324.77580501937922
 51
340.2871812588682
  0
LINE
  5
694F
  8
1
 10
6849.142437825124
 20
1310.4078196697819
 30
0.0
 11
6764.1424378251249
 21
1239.1078196697811
 31
0.0
  0
LINE
  5
6950
  8
1
 10
6754.1424378251222
 20
1185.4078196697831
 30
0.0
 11
6740.7424378251217
 21
1185.4078196697831
 31
0.0
  0
LINE
  5
6951
  8
1
 10
6742.342437825122
 20
1185.4078196697831
 30
0.0
 11
6754.1424378251222
 21
1173.6078196697831
 31
0.0
  0
LINE
  5
6952
  8
1
 10
6740.7424378251217
 20
1206.4078196697819
 30
0.0
 11
6739.1424378251231
 21
1206.4078196697819
 31
0.0
  0
LINE
  5
6953
  8
1
 10
6754.1424378251222
 20
1185.4078196697819
 30
0.0
 11
6754.1424378251222
 21
1196.0914742316691
 31
0.0
  0
LINE
  5
6954
  8
1
 10
6754.1424378251222
 20
1185.4078196697831
 30
0.0
 11
6754.8764095491688
 21
1185.4078196697831
 31
0.0
  0
ARC
  5
6955
  8
1
 10
6706.1424378251213
 20
1248.4078196697819
 30
0.0
 40
71.0
 50
312.53623473353622
 51
324.77580501937922
  0
ARC
  5
6956
  8
1
 10
6754.8764095491688
 20
1195.4078196697831
 30
0.0
 40
10.0
 50
270.0
 51
312.59881289245322
  0
LINE
  5
6957
  8
CT
 10
6804.6927033442553
 20
1224.5301806542959
 30
0.0
 11
6790.1898650362527
 21
1230.5374529743749
 31
0.0
  0
CIRCLE
  5
6958
  8
1
 10
6797.515689248884
 20
1227.5029972299419
 30
0.0
 40
4.0
  0
LINE
  5
6959
  8
CT
 10
6860.0200768406112
 20
1279.8575541506509
 30
0.0
 11
6854.012804520532
 21
1294.3603924586539
 31
0.0
  0
CIRCLE
  5
695A
  8
1
 10
6857.0472602649661
 20
1287.0345682460229
 30
0.0
 40
4.0
  0
LINE
  5
695B
  8
1
 10
6910.1424378251222
 20
1336.4078196697831
 30
0.0
 11
6913.142437825124
 21
1336.4078196697831
 31
0.0
  0
LINE
  5
695C
  8
CT
 10
6993.5921723059928
 20
1224.530180654295
 30
0.0
 11
7008.0950106139981
 21
1230.537452974374
 31
0.0
  0
CIRCLE
  5
695D
  8
1
 10
7000.7691864013668
 20
1227.502997229941
 30
0.0
 40
4.0
  0
LINE
  5
695E
  8
CT
 10
6938.2647988096387
 20
1279.8575541506509
 30
0.0
 11
6944.2720711297179
 21
1294.3603924586539
 31
0.0
  0
CIRCLE
  5
695F
  8
1
 10
6941.2376153852847
 20
1287.0345682460229
 30
0.0
 40
4.0
  0
LINE
  5
6960
  8
1
 10
7032.5424378251237
 20
1240.4499373168401
 30
0.0
 11
7032.5424378251237
 21
1113.4078196697819
 31
0.0
  0
LINE
  5
6961
  8
1
 10
7034.142437825124
 20
1239.107819669782
 30
0.0
 11
7034.142437825124
 21
945.40781966978136
 31
0.0
  0
LINE
  5
6962
  8
2
 10
7049.1424378251268
 20
957.38898858809046
 30
0.0
 11
7049.142437825124
 21
912.71906958625391
 31
0.0
  0
LINE
  5
6963
  8
1
 10
7064.1424378251249
 20
921.10781966978152
 30
0.0
 11
7036.442437825126
 21
921.10781966978152
 31
0.0
  0
LINE
  5
6964
  8
1
 10
7064.1424378251249
 20
923.40781966978147
 30
0.0
 11
7034.1424378251259
 21
923.40781966978147
 31
0.0
  0
LINE
  5
6965
  8
1
 10
7064.1424378251249
 20
865.70781966978132
 30
0.0
 11
7036.442437825126
 21
865.70781966978132
 31
0.0
  0
LINE
  5
6966
  8
1
 10
7064.1424378251249
 20
863.40781966978136
 30
0.0
 11
7034.1424378251259
 21
863.40781966978147
 31
0.0
  0
LINE
  5
6967
  8
1
 10
7036.442437825126
 20
921.10781966978152
 30
0.0
 11
7036.442437825126
 21
865.70781966978132
 31
0.0
  0
LINE
  5
6968
  8
1
 10
7034.1424378251259
 20
923.40781966978147
 30
0.0
 11
7034.1424378251259
 21
863.40781966978136
 31
0.0
  0
LINE
  5
6969
  8
1
 10
7064.142437825124
 20
865.70781966978132
 30
0.0
 11
7064.1424378251249
 21
863.40781966978136
 31
0.0
  0
LINE
  5
696A
  8
1
 10
7064.1424378251249
 20
923.40781966978147
 30
0.0
 11
7064.1424378251249
 21
921.10781966978152
 31
0.0
  0
LINE
  5
696B
  8
1
 10
7032.5424378251237
 20
1110.8078196697811
 30
0.0
 11
7032.5424378251237
 21
1018.107819669781
 31
0.0
  0
LINE
  5
696C
  8
1
 10
7030.9424378251242
 20
1110.8078196697811
 30
0.0
 11
7030.9424378251242
 21
1018.107819669781
 31
0.0
  0
LINE
  5
696D
  8
1
 10
7035.142437825124
 20
947.00781966978184
 30
0.0
 11
7064.1424378251249
 21
947.00781966978184
 31
0.0
  0
LINE
  5
696E
  8
1
 10
7032.5424378251237
 20
1018.107819669781
 30
0.0
 11
7032.5424378251237
 21
948.00781966978172
 31
0.0
  0
ARC
  5
696F
  8
1
 10
7035.142437825124
 20
948.00781966978172
 30
0.0
 40
1.0
 50
180.0
 51
270.0
  0
ARC
  5
6970
  8
1
 10
7035.142437825124
 20
948.00781966978172
 30
0.0
 40
2.6000000000000001
 50
180.0
 51
270.0
  0
LINE
  5
6971
  8
1
 10
7030.9424378251242
 20
1018.107819669781
 30
0.0
 11
7032.5424378251237
 21
1018.107819669781
 31
0.0
  0
LINE
  5
6972
  8
1
 10
7064.142437825124
 20
947.00781966978184
 30
0.0
 11
7064.1424378251249
 21
945.40781966978193
 31
0.0
  0
ARC
  5
6973
  8
1
 10
7029.9424378251233
 20
1110.8078196697811
 30
0.0
 40
1.0
 50
0.0
 51
90.0
  0
ARC
  5
6974
  8
1
 10
7029.9424378251233
 20
1110.8078196697811
 30
0.0
 40
2.6000000000000001
 50
0.0
 51
90.0
  0
ARC
  5
6975
  8
1
 10
6913.1424378251222
 20
1171.4078196697819
 30
0.0
 40
165.0
 50
7.9609047373633324
 51
42.833428066057223
  0
ARC
  5
6976
  8
1
 10
6913.1424378251222
 20
1171.4078196697819
 30
0.0
 40
154.0
 50
7.9836585559416786
 51
38.213210701757461
  0
DIMENSION
  5
6977
  8
SP
  2
*D52
 10
7074.1424378251231
 20
1721.4820887523811
 30
0.0
 11
6904.1424378251231
 21
1746.4820887523811
 31
0.0
 70
     0
 13
6734.142437825124
 23
1850.309178552056
 33
0.0
 14
7074.1424378251231
 24
1850.309178552056
 34
0.0
  0
LINE
  5
6978
  8
FUTO
 10
6782.142437825124
 20
2174.3091785520551
 30
0.0
 11
7016.142437825124
 21
2174.3091785520551
 31
0.0
  0
LINE
  5
6979
  8
FUTO
 10
6764.1424378251249
 20
2020.309178552056
 30
0.0
 11
7034.142437825124
 21
2020.309178552056
 31
0.0
  0
LINE
  5
697A
  8
1
  6
CONTINUOUS
 10
7034.142437825124
 20
1979.309178552056
 30
0.0
 11
6962.3928093815757
 21
1979.3091785520569
 31
0.0
  0
LINE
  5
697B
  8
FUTO
 10
7034.142437825124
 20
1844.409178552057
 30
0.0
 11
6974.142437825124
 21
1844.409178552057
 31
0.0
  0
LINE
  5
697C
  8
1
  6
CONTINUOUS
 10
6739.1424378251231
 20
2026.309178552056
 30
0.0
 11
7057.142437825124
 21
2026.309178552056
 31
0.0
  0
LINE
  5
697D
  8
1
  6
CONTINUOUS
 10
6740.7424378251217
 20
2168.309178552056
 30
0.0
 11
7057.142437825124
 21
2168.309178552056
 31
0.0
  0
LINE
  5
697E
  8
1
  6
CONTINUOUS
 10
6740.7424378251217
 20
2167.309178552056
 30
0.0
 11
7057.142437825124
 21
2167.309178552056
 31
0.0
  0
LINE
  5
697F
  8
2
 10
7088.9998629420415
 20
2097.309178552056
 30
0.0
 11
6711.8417969475831
 21
2097.309178552056
 31
0.0
  0
LINE
  5
6980
  8
1
  6
CONTINUOUS
 10
6739.1424378251231
 20
2027.309178552056
 30
0.0
 11
7057.142437825124
 21
2027.309178552056
 31
0.0
  0
LINE
  5
6981
  8
1
 10
6739.1424378251231
 20
2006.309178552056
 30
0.0
 11
6739.1424378251231
 21
2188.309178552056
 31
0.0
  0
LINE
  5
6982
  8
1
 10
6740.7424378251217
 20
2006.309178552056
 30
0.0
 11
6740.7424378251217
 21
2188.309178552056
 31
0.0
  0
LINE
  5
6983
  8
1
  6
CONTINUOUS
 10
6757.1065841141371
 20
2153.309178552056
 30
0.0
 11
6757.1065841141371
 21
2041.309178552056
 31
0.0
  0
LINE
  5
6984
  8
2
 10
6899.142437825124
 20
2192.9089108023459
 30
0.0
 11
6899.142437825124
 21
1772.634779790724
 31
0.0
  0
LINE
  5
6985
  8
1
 10
6962.3928093815757
 20
1989.809178552056
 30
0.0
 11
6835.8920662686687
 21
1989.8091785520569
 31
0.0
  0
LINE
  5
6986
  8
2
 10
6982.8497372236843
 20
1918.309178552056
 30
0.0
 11
6815.4351384265638
 21
1918.309178552056
 31
0.0
  0
LINE
  5
6987
  8
1
 10
6974.142437825124
 20
1859.1760527509209
 30
0.0
 11
6829.7542688638168
 21
1859.1760527509209
 31
0.0
  0
LINE
  5
6988
  8
1
 10
6974.142437825124
 20
1832.232269561028
 30
0.0
 11
6829.7542688638168
 21
1832.232269561028
 31
0.0
  0
LINE
  5
6989
  8
1
 10
6959.1810683397407
 20
1797.309178552056
 30
0.0
 11
6839.1038073105074
 21
1797.309178552056
 31
0.0
  0
LINE
  5
698A
  8
1
 10
6829.7542688638168
 20
1859.1760527509209
 30
0.0
 11
6829.7542688638168
 21
1832.232269561028
 31
0.0
  0
LINE
  5
698B
  8
FUTO
 10
6764.1424378251249
 20
2020.309178552056
 30
0.0
 11
6764.1424378251249
 21
1844.409178552057
 31
0.0
  0
LINE
  5
698C
  8
FUTO
 10
6764.1424378251249
 20
1844.409178552057
 30
0.0
 11
6829.7542688638168
 21
1844.4091785520579
 31
0.0
  0
LINE
  5
698D
  8
1
 10
6839.1038073105074
 20
1797.309178552056
 30
0.0
 11
6832.6381147108323
 21
1832.232269561028
 31
0.0
  0
LINE
  5
698E
  8
1
  6
CONTINUOUS
 10
6835.8920662686714
 20
1979.3091785520569
 30
0.0
 11
6766.142437825124
 21
1979.309178552056
 31
0.0
  0
LINE
  5
698F
  8
FUTO
 10
6734.142437825124
 20
2020.309178552056
 30
0.0
 11
6734.142437825124
 21
1850.309178552056
 31
0.0
  0
LINE
  5
6990
  8
FUTO
 10
6764.1424378251249
 20
1850.309178552056
 30
0.0
 11
6734.142437825124
 21
1850.309178552056
 31
0.0
  0
CIRCLE
  5
6991
  8
FUTO
 10
6747.142437825124
 20
1870.309178552056
 30
0.0
 40
6.0
  0
LINE
  5
6992
  8
CT
 10
6757.037213673384
 20
1870.309178552056
 30
0.0
 11
6737.2476619768631
 21
1870.309178552056
 31
0.0
  0
LINE
  5
6993
  8
CT
 10
6747.142437825124
 20
1880.203954400316
 30
0.0
 11
6747.142437825124
 21
1860.414402703796
 31
0.0
  0
LINE
  5
6994
  8
CT
 10
6757.037213673384
 20
2000.309178552056
 30
0.0
 11
6737.2476619768631
 21
2000.309178552056
 31
0.0
  0
CIRCLE
  5
6995
  8
FUTO
 10
6747.142437825124
 20
2000.309178552056
 30
0.0
 40
6.0
  0
LINE
  5
6996
  8
CT
 10
6747.142437825124
 20
2010.203954400316
 30
0.0
 11
6747.142437825124
 21
1990.414402703796
 31
0.0
  0
LINE
  5
6997
  8
2
 10
6740.7424378251217
 20
2006.309178552056
 30
0.0
 11
6739.1424378251231
 21
2006.309178552056
 31
0.0
  0
LINE
  5
6998
  8
FUTO
 10
6764.1424378251249
 20
2020.309178552056
 30
0.0
 11
6734.142437825124
 21
2020.309178552056
 31
0.0
  0
LINE
  5
6999
  8
1
  6
CONTINUOUS
 10
6742.1065841141381
 20
2026.309178552056
 30
0.0
 11
6757.1065841141371
 21
2041.309178552056
 31
0.0
  0
LINE
  5
699A
  8
1
 10
6835.8920662686687
 20
1859.1760527509209
 30
0.0
 11
6835.8920662686687
 21
1989.809178552056
 31
0.0
  0
ARC
  5
699B
  8
1
 10
6782.142437825124
 20
2023.3091785520569
 30
0.0
 40
3.0
 50
180.0
 51
270.0
  0
LINE
  5
699C
  8
1
 10
6779.1424378251231
 20
2024.309178552056
 30
0.0
 11
6779.1424378251231
 21
2023.3091785520569
 31
0.0
  0
ARC
  5
699D
  8
1
 10
6776.1424378251231
 20
2024.309178552056
 30
0.0
 40
3.0
 50
0.0
 51
41.810314895783719
  0
LINE
  5
699E
  8
1
 10
6974.142437825124
 20
1832.232269561028
 30
0.0
 11
6974.142437825124
 21
1859.1760527509209
 31
0.0
  0
POINT
  5
699F
  8
1
 10
6959.1810683397407
 20
1797.309178552056
 30
0.0
  0
LINE
  5
69A0
  8
1
 10
6959.1810683397407
 20
1797.309178552056
 30
0.0
 11
6970.4960303891703
 21
1832.232269561028
 31
0.0
  0
LINE
  5
69A1
  8
1
 10
6910.557057914868
 20
1994.809178552056
 30
0.0
 11
6887.7278177353783
 21
1994.809178552056
 31
0.0
  0
LINE
  5
69A2
  8
FUTO
 10
6919.142437825124
 20
2008.309178552056
 30
0.0
 11
6879.1424378251231
 21
2008.309178552056
 31
0.0
  0
LINE
  5
69A3
  8
FUTO
 10
6879.1424378251231
 20
2020.309178552056
 30
0.0
 11
6879.1424378251231
 21
2008.309178552056
 31
0.0
  0
LINE
  5
69A4
  8
1
 10
6887.7278177353783
 20
1989.809178552056
 30
0.0
 11
6887.7278177353783
 21
1994.809178552056
 31
0.0
  0
LINE
  5
69A5
  8
1
 10
6890.1424378251231
 20
1994.809178552056
 30
0.0
 11
6890.1424378251231
 21
2008.309178552056
 31
0.0
  0
LINE
  5
69A6
  8
FUTO
 10
6919.142437825124
 20
2020.309178552056
 30
0.0
 11
6919.142437825124
 21
2008.309178552056
 31
0.0
  0
LINE
  5
69A7
  8
1
 10
6910.557057914868
 20
1989.809178552056
 30
0.0
 11
6910.557057914868
 21
1994.809178552056
 31
0.0
  0
LINE
  5
69A8
  8
1
 10
6908.142437825124
 20
1994.809178552056
 30
0.0
 11
6908.142437825124
 21
2008.309178552056
 31
0.0
  0
LINE
  5
69A9
  8
1
 10
6962.3928093815757
 20
1859.1760527509209
 30
0.0
 11
6962.3928093815757
 21
1989.809178552056
 31
0.0
  0
LINE
  5
69AA
  8
1
  6
CONTINUOUS
 10
6742.1065841141381
 20
2168.309178552056
 30
0.0
 11
6757.1065841141371
 21
2153.309178552056
 31
0.0
  0
LINE
  5
69AB
  8
2
 10
6740.7424378251217
 20
2188.309178552056
 30
0.0
 11
6739.1424378251231
 21
2188.3091785520569
 31
0.0
  0
ARC
  5
69AC
  8
1
 10
6776.1424378251231
 20
2170.309178552056
 30
0.0
 40
3.0
 50
318.18968510421632
 51
0.0
  0
LINE
  5
69AD
  8
1
 10
6779.1424378251231
 20
2170.309178552056
 30
0.0
 11
6779.1424378251231
 21
2171.3091785520551
 31
0.0
  0
ARC
  5
69AE
  8
1
 10
6782.142437825124
 20
2171.3091785520551
 30
0.0
 40
3.0
 50
90.0
 51
180.0
  0
DIMENSION
  5
69AF
  8
SP
  2
*D53
 10
7172.8645612632217
 20
2097.3091785520551
 30
0.0
 11
7147.8645612632208
 21
2058.8091785520578
 31
0.0
 70
     0
 13
7064.142437825124
 23
2020.309178552056
 33
0.0
 14
7088.9998629420415
 24
2097.309178552056
 34
0.0
 50
90.0
  0
LINE
  5
69B0
  8
FUTO
 10
7068.1424378251231
 20
2157.309178552056
 30
0.0
 11
7068.1424378251231
 21
2037.309178552056
 31
0.0
  0
LINE
  5
69B1
  8
FUTO
 10
7067.1424378251249
 20
2157.309178552056
 30
0.0
 11
7067.1424378251249
 21
2037.309178552056
 31
0.0
  0
DIMENSION
  5
69B2
  8
SP
  2
*D54
 10
7172.8645612632217
 20
1850.309178552056
 30
0.0
 11
7147.8645612632217
 21
1935.3091785520569
 31
0.0
 70
     0
 13
7064.142437825124
 23
2020.309178552056
 33
0.0
 14
7064.142437825124
 24
1850.309178552056
 34
0.0
 50
90.0
  0
LINE
  5
69B3
  8
FUTO
 10
7034.142437825124
 20
2020.309178552056
 30
0.0
 11
7034.142437825124
 21
1844.409178552057
 31
0.0
  0
LINE
  5
69B4
  8
FUTO
 10
7064.142437825124
 20
2020.309178552056
 30
0.0
 11
7064.142437825124
 21
1850.309178552056
 31
0.0
  0
LINE
  5
69B5
  8
FUTO
 10
7034.142437825124
 20
1850.309178552056
 30
0.0
 11
7064.142437825124
 21
1850.309178552056
 31
0.0
  0
LINE
  5
69B6
  8
CT
 10
7041.247661976864
 20
1870.309178552056
 30
0.0
 11
7061.0372136733831
 21
1870.309178552056
 31
0.0
  0
CIRCLE
  5
69B7
  8
FUTO
 10
7051.1424378251249
 20
1870.309178552056
 30
0.0
 40
6.0
  0
LINE
  5
69B8
  8
CT
 10
7051.1424378251249
 20
1880.203954400316
 30
0.0
 11
7051.1424378251249
 21
1860.414402703796
 31
0.0
  0
LINE
  5
69B9
  8
FUTO
 10
7034.142437825124
 20
2020.309178552056
 30
0.0
 11
7064.142437825124
 21
2020.309178552056
 31
0.0
  0
CIRCLE
  5
69BA
  8
FUTO
 10
7051.1424378251249
 20
2000.309178552056
 30
0.0
 40
6.0
  0
LINE
  5
69BB
  8
CT
 10
7041.247661976864
 20
2000.309178552056
 30
0.0
 11
7061.0372136733831
 21
2000.309178552056
 31
0.0
  0
ARC
  5
69BC
  8
1
 10
7016.142437825124
 20
2023.3091785520569
 30
0.0
 40
3.0
 50
270.0
 51
0.0
  0
LINE
  5
69BD
  8
CT
 10
7051.1424378251249
 20
2010.203954400316
 30
0.0
 11
7051.1424378251249
 21
1990.414402703796
 31
0.0
  0
ARC
  5
69BE
  8
1
 10
7022.142437825124
 20
2024.309178552056
 30
0.0
 40
3.0
 50
138.18968510421621
 51
180.0
  0
LINE
  5
69BF
  8
1
 10
7019.142437825124
 20
2024.309178552056
 30
0.0
 11
7019.142437825124
 21
2023.3091785520569
 31
0.0
  0
ARC
  5
69C0
  8
FUTO
 10
7057.142437825124
 20
2037.309178552056
 30
0.0
 40
10.0
 50
270.0
 51
0.0
  0
ARC
  5
69C1
  8
FUTO
 10
7057.142437825124
 20
2037.309178552056
 30
0.0
 40
11.0
 50
270.0
 51
0.0
  0
LINE
  5
69C2
  8
1
 10
7019.142437825124
 20
2170.309178552056
 30
0.0
 11
7019.142437825124
 21
2171.3091785520551
 31
0.0
  0
ARC
  5
69C3
  8
1
 10
7022.142437825124
 20
2170.309178552056
 30
0.0
 40
3.0
 50
180.0
 51
221.8103148957837
  0
ARC
  5
69C4
  8
1
 10
7016.142437825124
 20
2171.3091785520551
 30
0.0
 40
3.0
 50
0.0
 51
90.0
  0
ARC
  5
69C5
  8
FUTO
 10
7057.142437825124
 20
2157.309178552056
 30
0.0
 40
11.0
 50
0.0
 51
90.0
  0
ARC
  5
69C6
  8
FUTO
 10
7057.142437825124
 20
2157.309178552056
 30
0.0
 40
10.0
 50
0.0
 51
90.0
  0
LINE
  5
69C7
  8
1
 10
7724.4741092021777
 20
923.40781966978147
 30
0.0
 11
7554.4741092021786
 21
923.4078196697817
 31
0.0
  0
LINE
  5
69C8
  8
1
 10
7724.4741092021777
 20
921.10781966978152
 30
0.0
 11
7554.4741092021786
 21
921.10781966978175
 31
0.0
  0
LINE
  5
69C9
  8
1
 10
7724.4741092021777
 20
863.40781966978147
 30
0.0
 11
7554.4741092021786
 21
863.4078196697817
 31
0.0
  0
LINE
  5
69CA
  8
1
 10
7724.4741092021777
 20
865.70781966978154
 30
0.0
 11
7554.4741092021786
 21
865.70781966978166
 31
0.0
  0
DIMENSION
  5
69CB
  8
SP
  2
*D55
 10
7554.4741092021786
 20
793.4078196697817
 30
0.0
 11
7639.4741092021768
 21
818.40781966978159
 31
0.0
 70
     0
 13
7724.4741092021759
 23
863.4078196697817
 33
0.0
 14
7554.4741092021786
 24
863.4078196697817
 34
0.0
  0
DIMENSION
  5
69CC
  8
SP
  2
*D56
 10
7501.4741092021768
 20
1466.4078196697819
 30
0.0
 11
7651.4741092021759
 21
1491.4078196697819
 31
0.0
 70
     0
 13
7801.4741092021759
 23
1430.022782190767
 33
0.0
 14
7501.4741092021768
 24
1245.4464501843979
 34
0.0
  0
LINE
  5
69CD
  8
1
 10
7681.1741092021784
 20
1205.4078196697819
 30
0.0
 11
7554.4741092021786
 21
947.00781966978252
 31
0.0
  0
LINE
  5
69CE
  8
1
 10
7754.4741092021768
 20
945.40781966978261
 30
0.0
 11
7554.4741092021786
 21
945.40781966978261
 31
0.0
  0
LINE
  5
69CF
  8
1
 10
7722.8741092021774
 20
947.00781966978252
 30
0.0
 11
7554.4741092021786
 21
947.00781966978252
 31
0.0
  0
LINE
  5
69D0
  8
1
 10
7563.3409834010399
 20
1248.6581912262361
 30
0.0
 11
7693.9741092021768
 21
1248.6581912262361
 31
0.0
  0
LINE
  5
69D1
  8
2
 10
7915.3551619844147
 20
1185.4078196697831
 30
0.0
 11
7470.0282987725459
 21
1185.4078196697819
 31
0.0
  0
LINE
  5
69D2
  8
1
 10
7501.4741092021768
 20
1245.4464501843979
 30
0.0
 11
7501.4741092021768
 21
1125.369189155165
 31
0.0
  0
LINE
  5
69D3
  8
1
 10
7563.3409834010399
 20
1260.4078196697819
 30
0.0
 11
7563.3409834010399
 21
1116.0196507084761
 31
0.0
  0
LINE
  5
69D4
  8
1
 10
7536.3972002111477
 20
1260.4078196697819
 30
0.0
 11
7536.3972002111477
 21
1116.0196507084761
 31
0.0
  0
LINE
  5
69D5
  8
2
 10
7622.4741092021768
 20
1273.698973716314
 30
0.0
 11
7622.4741092021768
 21
1106.2843749191941
 31
0.0
  0
LINE
  5
69D6
  8
1
 10
7501.4741092021768
 20
1125.369189155165
 30
0.0
 11
7536.3972002111477
 21
1118.9034965554899
 31
0.0
  0
LINE
  5
69D7
  8
FUTO
 10
7554.4741092021786
 20
923.4078196697817
 30
0.0
 11
7554.4741092021786
 21
863.4078196697817
 31
0.0
  0
LINE
  5
69D8
  8
1
 10
7567.4741092021768
 20
1122.999659764944
 30
0.0
 11
7595.4177446720087
 21
1122.999659764944
 31
0.0
  0
LINE
  5
69D9
  8
1
 10
7592.4741092021777
 20
1114.4078196697819
 30
0.0
 11
7567.4741092021768
 21
1114.4078196697819
 31
0.0
  0
LINE
  5
69DA
  8
1
 10
7555.5741092021772
 20
1113.4078196697819
 30
0.0
 11
7591.4057864655897
 21
1036.498836714751
 31
0.0
  0
LINE
  5
69DB
  8
1
 10
7553.9598384781466
 20
1111.807819669782
 30
0.0
 11
7632.6057758688448
 21
1111.807819669782
 31
0.0
  0
LINE
  5
69DC
  8
1
 10
7633.1336925355099
 20
1114.4078196697819
 30
0.0
 11
7567.4741092021768
 21
1114.4078196697819
 31
0.0
  0
LINE
  5
69DD
  8
1
 10
7551.1741092021784
 20
1113.4078196697819
 30
0.0
 11
7632.6057758688448
 21
1113.4078196697819
 31
0.0
  0
LINE
  5
69DE
  8
1
 10
7554.4741092021786
 20
947.00781966978252
 30
0.0
 11
7554.4741092021786
 21
945.40781966978261
 31
0.0
  0
LINE
  5
69DF
  8
1
 10
7563.3409834010399
 20
1116.0196507084761
 30
0.0
 11
7536.3972002111477
 21
1116.0196507084761
 31
0.0
  0
LINE
  5
69E0
  8
1
 10
7550.1741092021784
 20
1110.807819669782
 30
0.0
 11
7550.1741092021784
 21
1095.0078196697821
 31
0.0
  0
LINE
  5
69E1
  8
1
 10
7548.5741092021772
 20
1110.807819669782
 30
0.0
 11
7548.5741092021772
 21
1095.0078196697821
 31
0.0
  0
LINE
  5
69E2
  8
1
 10
7548.5741092021772
 20
1095.0078196697821
 30
0.0
 11
7550.1741092021784
 21
1095.0078196697821
 31
0.0
  0
ARC
  5
69E3
  8
1
 10
7551.1741092021784
 20
1110.807819669782
 30
0.0
 40
1.0
 50
90.0
 51
180.0
  0
LINE
  5
69E4
  8
1
 10
7551.1741092021784
 20
1111.807819669782
 30
0.0
 11
7553.9598384781466
 21
1111.807819669782
 31
0.0
  0
ARC
  5
69E5
  8
1
 10
7551.1741092021784
 20
1110.807819669782
 30
0.0
 40
2.6000000000000001
 50
90.0
 51
180.0
  0
LINE
  5
69E6
  8
1
 10
7567.4741092021768
 20
1122.999659764944
 30
0.0
 11
7567.474109202175
 21
1113.4078196697819
 31
0.0
  0
LINE
  5
69E7
  8
1
 10
7563.3409834010399
 20
1119.457286715168
 30
0.0
 11
7567.4741092021768
 21
1119.457286715168
 31
0.0
  0
LINE
  5
69E8
  8
CT
 10
7577.4741092021768
 20
1126.710085631802
 30
0.0
 11
7577.4741092021768
 21
1106.2843749191941
 31
0.0
  0
LINE
  5
69E9
  8
1
 10
7599.2377056130836
 20
1134.1493058104049
 30
0.0
 11
7643.5555520939142
 21
1134.1493058104049
 31
0.0
  0
LINE
  5
69EA
  8
1
 10
7593.8255698481316
 20
1118.3524432089271
 30
0.0
 11
7635.2161250455511
 21
1118.3524432089271
 31
0.0
  0
LINE
  5
69EB
  8
1
 10
7599.2377056130836
 20
1134.1493058104049
 30
0.0
 11
7592.4741092021777
 21
1114.4078196697819
 31
0.0
  0
LINE
  5
69EC
  8
1
 10
7643.5555520939142
 20
1134.1493058104049
 30
0.0
 11
7645.7105127912682
 21
1134.1493058104049
 31
0.0
  0
LINE
  5
69ED
  8
1
 10
7645.7105127912682
 20
1134.1493058104049
 30
0.0
 11
7645.925949642211
 21
1133.520491885286
 31
0.0
  0
LINE
  5
69EE
  8
1
 10
7635.2161250455511
 20
1118.3524432089271
 30
0.0
 11
7638.4886750009773
 21
1118.352443208928
 31
0.0
  0
LINE
  5
69EF
  8
1
 10
7636.5545271588326
 20
1114.407819669781
 30
0.0
 11
7633.1336925355099
 21
1114.4078196697819
 31
0.0
  0
LINE
  5
69F0
  8
1
 10
7632.6057758688448
 20
1111.807819669782
 30
0.0
 11
7635.2796819575951
 21
1111.807819669782
 31
0.0
  0
LINE
  5
69F1
  8
1
 10
7632.6057758688448
 20
1113.4078196697819
 30
0.0
 11
7636.0642020814348
 21
1113.4078196697819
 31
0.0
  0
LINE
  5
69F2
  8
1
 10
7501.4741092021768
 20
1245.4464501843979
 30
0.0
 11
7536.3972002111477
 21
1256.7614122338291
 31
0.0
  0
POINT
  5
69F3
  8
1
 10
7501.4741092021768
 20
1245.4464501843979
 30
0.0
  0
LINE
  5
69F4
  8
1
 10
7536.3972002111477
 20
1260.4078196697819
 30
0.0
 11
7563.3409834010399
 21
1260.4078196697819
 31
0.0
  0
LINE
  5
69F5
  8
1
  6
CONTINUOUS
 10
7730.4741092021768
 20
1315.4078196697819
 30
0.0
 11
7730.4741092021768
 21
984.40781966978295
 31
0.0
  0
DIMENSION
  5
69F6
  8
3
  2
*D57
 10
7976.6959621585756
 20
1085.4078196697819
 30
0.0
 11
7951.6959621585747
 21
1185.4078196697831
 31
0.0
 70
     0
  1
%%c<>
 13
7878.474109202175
 23
1285.4078196697819
 33
0.0
 14
7878.474109202175
 24
1085.4078196697819
 34
0.0
 50
90.0
  0
LINE
  5
69F7
  8
1
 10
7724.4741092021759
 20
1310.4078196697819
 30
0.0
 11
7724.4741092021759
 21
945.4078196697825
 31
0.0
  0
LINE
  5
69F8
  8
1
 10
7722.8741092021774
 20
1310.4078196697819
 30
0.0
 11
7722.8741092021774
 21
945.40781966978261
 31
0.0
  0
LINE
  5
69F9
  8
1
 10
7878.474109202175
 20
1068.4078196697831
 30
0.0
 11
7878.474109202175
 21
1302.4078196697819
 31
0.0
  0
LINE
  5
69FA
  8
FUTO
 10
7892.4741092021768
 20
989.40781966978261
 30
0.0
 11
7892.4741092021768
 21
1181.4078196697819
 31
0.0
  0
LINE
  5
69FB
  8
1
  6
CONTINUOUS
 10
7731.4741092021777
 20
1315.4078196697819
 30
0.0
 11
7731.4741092021777
 21
984.40781966978295
 31
0.0
  0
LINE
  5
69FC
  8
1
  6
CONTINUOUS
 10
7871.4741092021768
 20
984.40781966978295
 30
0.0
 11
7871.4741092021768
 21
1315.4078196697819
 31
0.0
  0
LINE
  5
69FD
  8
1
  6
CONTINUOUS
 10
7872.4741092021768
 20
984.40781966978295
 30
0.0
 11
7872.4741092021768
 21
1315.4078196697819
 31
0.0
  0
LINE
  5
69FE
  8
2
 10
7801.474109202175
 20
950.76140014543762
 30
0.0
 11
7801.4741092021759
 21
1375.5820407419701
 31
0.0
  0
LINE
  5
69FF
  8
FUTO
 10
7861.4741092021768
 20
973.40781966978284
 30
0.0
 11
7741.4741092021768
 21
973.40781966978284
 31
0.0
  0
LINE
  5
6A00
  8
FUTO
 10
7861.4741092021768
 20
974.40781966978273
 30
0.0
 11
7741.4741092021768
 21
974.40781966978273
 31
0.0
  0
LINE
  5
6A01
  8
FUTO
 10
7735.4741092021768
 20
964.40781966978261
 30
0.0
 11
7867.4741092021768
 21
964.40781966978261
 31
0.0
  0
DIMENSION
  5
6A02
  8
SP
  2
*D58
 10
7801.474109202175
 20
793.4078196697817
 30
0.0
 11
7762.9741092021768
 21
818.40781966978159
 31
0.0
 70
     0
 13
7724.4741092021777
 23
863.4078196697817
 33
0.0
 14
7801.474109202175
 24
950.76140014543762
 34
0.0
  0
LINE
  5
6A03
  8
FUTO
 10
7724.4741092021777
 20
923.4078196697817
 30
0.0
 11
7724.4741092021777
 21
863.4078196697817
 31
0.0
  0
LINE
  5
6A04
  8
1
 10
7754.4741092021768
 20
947.00781966978252
 30
0.0
 11
7726.0741092021772
 21
947.00781966978252
 31
0.0
  0
LINE
  5
6A05
  8
1
 10
7754.4741092021768
 20
947.00781966978252
 30
0.0
 11
7724.4741092021759
 21
947.00781966978252
 31
0.0
  0
ARC
  5
6A06
  8
FUTO
 10
7741.4741092021768
 20
984.40781966978295
 30
0.0
 40
11.0
 50
180.0
 51
270.0
  0
ARC
  5
6A07
  8
FUTO
 10
7741.4741092021768
 20
984.40781966978295
 30
0.0
 40
10.0
 50
180.0
 51
270.0
  0
ARC
  5
6A08
  8
FUTO
 10
7735.4741092021759
 20
989.40781966978307
 30
0.0
 40
25.0
 50
243.89611886263421
 51
270.0
  0
ARC
  5
6A09
  8
1
 10
7728.4741092021741
 20
1062.4078196697831
 30
0.0
 40
3.0
 50
48.189685104244909
 51
90.0
  0
LINE
  5
6A0A
  8
1
 10
7728.4741092021777
 20
1065.4078196697819
 30
0.0
 11
7727.4741092021768
 21
1065.4078196697831
 31
0.0
  0
ARC
  5
6A0B
  8
1
 10
7727.4741092021768
 20
1068.4078196697831
 30
0.0
 40
3.0
 50
180.0
 51
270.0
  0
POINT
  5
6A0C
  8
1
 10
7724.4741092021759
 20
1068.4078196697831
 30
0.0
  0
LINE
  5
6A0D
  8
1
 10
7754.4741092021768
 20
947.00781966978252
 30
0.0
 11
7754.4741092021768
 21
945.40781966978261
 31
0.0
  0
ARC
  5
6A0E
  8
FUTO
 10
7867.4741092021741
 20
989.40781966978398
 30
0.0
 40
25.0
 50
270.0
 51
0.0
  0
ARC
  5
6A0F
  8
FUTO
 10
7861.4741092021768
 20
984.40781966978295
 30
0.0
 40
11.0
 50
270.0
 51
0.0
  0
ARC
  5
6A10
  8
FUTO
 10
7861.4741092021768
 20
984.40781966978295
 30
0.0
 40
10.0
 50
270.0
 51
0.0
  0
LINE
  5
6A11
  8
FUTO
 10
7871.4741092021768
 20
1085.4078196697819
 30
0.0
 11
7878.474109202175
 21
1085.4078196697819
 31
0.0
  0
ARC
  5
6A12
  8
FUTO
 10
7875.4741092021741
 20
1068.4078196697831
 30
0.0
 40
3.0
 50
270.0
 51
0.0
  0
LINE
  5
6A13
  8
FUTO
 10
7874.4741092021768
 20
1065.4078196697819
 30
0.0
 11
7875.4741092021768
 21
1065.4078196697831
 31
0.0
  0
ARC
  5
6A14
  8
FUTO
 10
7874.474109202175
 20
1062.4078196697831
 30
0.0
 40
3.0
 50
90.0
 51
131.81031489575511
  0
POINT
  5
6A15
  8
FUTO
 10
7878.4741092021768
 20
1068.4078196697831
 30
0.0
  0
DIMENSION
  5
6A16
  8
SP
  2
*D59
 10
7878.474109202175
 20
1466.4078196697819
 30
0.0
 11
7839.974109202175
 21
1491.4078196697819
 31
0.0
 70
     0
 13
7801.4741092021759
 23
1430.022782190767
 33
0.0
 14
7878.474109202175
 24
1302.407819669784
 34
0.0
  0
DIMENSION
  5
6A17
  8
SP
  2
*D60
 10
7871.474109202175
 20
1396.4078196697819
 30
0.0
 11
7801.4741092021759
 21
1421.4078196697819
 31
0.0
 70
     0
 13
7731.4741092021777
 23
1315.4078196697831
 33
0.0
 14
7871.474109202175
 24
1315.4078196697831
 34
0.0
  0
LINE
  5
6A18
  8
FUTO
 10
7741.4741092021768
 20
1326.4078196697819
 30
0.0
 11
7861.4741092021768
 21
1326.4078196697819
 31
0.0
  0
LINE
  5
6A19
  8
FUTO
 10
7741.4741092021768
 20
1325.4078196697819
 30
0.0
 11
7861.4741092021768
 21
1325.4078196697819
 31
0.0
  0
LINE
  5
6A1A
  8
1
  6
CONTINUOUS
 10
7730.4741092021768
 20
1315.4078196697819
 30
0.0
 11
7730.4741092021768
 21
1205.902717097614
 31
0.0
  0
LINE
  5
6A1B
  8
1
 10
7681.1741092021784
 20
1205.4078196697819
 30
0.0
 11
7724.4741092021759
 21
1252.207819669783
 31
0.0
  0
LINE
  5
6A1C
  8
1
 10
7693.9741092021768
 20
1248.6581912262361
 30
0.0
 11
7693.9741092021768
 21
1219.2424617021129
 31
0.0
  0
ARC
  5
6A1D
  8
FUTO
 10
7741.4741092021759
 20
1315.4078196697831
 30
0.0
 40
11.0
 50
90.0
 51
180.0
  0
ARC
  5
6A1E
  8
FUTO
 10
7741.4741092021759
 20
1315.4078196697831
 30
0.0
 40
10.0
 50
90.0
 51
180.0
  0
LINE
  5
6A1F
  8
FUTO
 10
7724.4741092021759
 20
1310.4078196697819
 30
0.0
 11
7722.8741092021774
 21
1310.4078196697819
 31
0.0
  0
ARC
  5
6A20
  8
FUTO
 10
7728.4741092021741
 20
1308.407819669784
 30
0.0
 40
3.0
 50
270.0
 51
311.81031489575071
  0
LINE
  5
6A21
  8
FUTO
 10
7728.4741092021777
 20
1305.4078196697819
 30
0.0
 11
7727.4741092021777
 21
1305.4078196697819
 31
0.0
  0
ARC
  5
6A22
  8
FUTO
 10
7727.4741092021768
 20
1302.407819669784
 30
0.0
 40
3.0
 50
90.0
 51
180.0
  0
ARC
  5
6A23
  8
FUTO
 10
7867.4741092021741
 20
1181.4078196697831
 30
0.0
 40
25.0
 50
0.0
 51
63.896118862634268
  0
LINE
  5
6A24
  8
FUTO
 10
7871.4741092021768
 20
1285.4078196697819
 30
0.0
 11
7878.474109202175
 21
1285.4078196697819
 31
0.0
  0
ARC
  5
6A25
  8
1
 10
7875.4741092021741
 20
1302.407819669784
 30
0.0
 40
3.0
 50
0.0
 51
90.0
  0
ARC
  5
6A26
  8
FUTO
 10
7861.4741092021741
 20
1315.4078196697831
 30
0.0
 40
11.0
 50
0.0
 51
90.0
  0
ARC
  5
6A27
  8
FUTO
 10
7861.4741092021741
 20
1315.4078196697831
 30
0.0
 40
10.0
 50
0.0
 51
90.0
  0
LINE
  5
6A28
  8
1
 10
7874.4741092021768
 20
1305.4078196697819
 30
0.0
 11
7875.4741092021768
 21
1305.4078196697819
 31
0.0
  0
ARC
  5
6A29
  8
1
 10
7874.474109202175
 20
1308.407819669784
 30
0.0
 40
3.0
 50
228.18968510424921
 51
270.0
  0
ENDSEC
  0
EOF
