  0
SECTION
  2
HEADER
  9
$ACADVER
  1
AC1009
  9
$INSBASE
 10
0.0
 20
0.0
 30
0.0
  9
$EXTMIN
 10
6208.32856416303
 20
0.0000009706882338
 30
0.0
  9
$EXTMAX
 10
8308.32856416303
 20
2950.0000009706878
 30
0.0
  9
$LIMMIN
 10
0.0
 20
0.0
  9
$LIMMAX
 10
297.0
 20
210.0
  9
$ORTHOMODE
 70
     0
  9
$REGENMODE
 70
     1
  9
$FILLMODE
 70
     1
  9
$QTEXTMODE
 70
     0
  9
$MIRRTEXT
 70
     0
  9
$DRAGMODE
 70
     2
  9
$LTSCALE
 40
50.0
  9
$OSMODE
 70
   545
  9
$ATTMODE
 70
     1
  9
$TEXTSIZE
 40
3.5
  9
$TRACEWID
 40
0.05
  9
$TEXTSTYLE
  7
STANDARD
  9
$CLAYER
  8
SP
  9
$CELTYPE
  6
BYLAYER
  9
$CECOLOR
 62
   256
  9
$DIMSCALE
 40
10.0
  9
$DIMASZ
 40
2.5
  9
$DIMEXO
 40
1.0
  9
$DIMDLI
 40
7.0
  9
$DIMRND
 40
0.0
  9
$DIMDLE
 40
0.0
  9
$DIMEXE
 40
1.0
  9
$DIMTP
 40
0.0
  9
$DIMTM
 40
0.0
  9
$DIMTXT
 40
3.0
  9
$DIMCEN
 40
0.0
  9
$DIMTSZ
 40
0.0
  9
$DIMTOL
 70
     0
  9
$DIMLIM
 70
     0
  9
$DIMTIH
 70
     0
  9
$DIMTOH
 70
     0
  9
$DIMSE1
 70
     0
  9
$DIMSE2
 70
     0
  9
$DIMTAD
 70
     1
  9
$DIMZIN
 70
     8
  9
$DIMBLK
  1

  9
$DIMASO
 70
     1
  9
$DIMSHO
 70
     1
  9
$DIMPOST
  1

  9
$DIMAPOST
  1

  9
$DIMALT
 70
     0
  9
$DIMALTD
 70
     2
  9
$DIMALTF
 40
0.03937
  9
$DIMLFAC
 40
1.0
  9
$DIMTOFL
 70
     1
  9
$DIMTVP
 40
0.0
  9
$DIMTIX
 70
     0
  9
$DIMSOXD
 70
     0
  9
$DIMSAH
 70
     1
  9
$DIMBLK1
  1
OPEN
  9
$DIMBLK2
  1
OPEN
  9
$DIMSTYLE
  2
GOD
  9
$DIMCLRD
 70
   256
  9
$DIMCLRE
 70
   256
  9
$DIMCLRT
 70
   256
  9
$DIMTFAC
 40
1.0
  9
$DIMGAP
 40
1.0
  9
$LUNITS
 70
     2
  9
$LUPREC
 70
     3
  9
$SKETCHINC
 40
0.1
  9
$FILLETRAD
 40
0.0
  9
$AUNITS
 70
     0
  9
$AUPREC
 70
     2
  9
$MENU
  1
acad
  9
$ELEVATION
 40
0.0
  9
$PELEVATION
 40
0.0
  9
$THICKNESS
 40
0.0
  9
$LIMCHECK
 70
     0
  9
$BLIPMODE
 70
     0
  9
$CHAMFERA
 40
0.0
  9
$CHAMFERB
 40
0.0
  9
$SKPOLY
 70
     0
  9
$TDCREATE
 40
2454939.5747812148
  9
$TDUPDATE
 40
2454953.8294572802
  9
$TDINDWG
 40
0.0469273611
  9
$TDUSRTIMER
 40
0.0469273611
  9
$USRTIMER
 70
     1
  9
$ANGBASE
 50
0.0
  9
$ANGDIR
 70
     0
  9
$PDMODE
 70
     0
  9
$PDSIZE
 40
1.0
  9
$PLINEWID
 40
0.0
  9
$COORDS
 70
     2
  9
$SPLFRAME
 70
     0
  9
$SPLINETYPE
 70
     6
  9
$SPLINESEGS
 70
     8
  9
$ATTDIA
 70
     0
  9
$ATTREQ
 70
     1
  9
$HANDLING
 70
 22529
  9
$HANDSEED
  5
66B6
  9
$SURFTAB1
 70
     6
  9
$SURFTAB2
 70
     6
  9
$SURFTYPE
 70
     6
  9
$SURFU
 70
     6
  9
$SURFV
 70
     6
  9
$UCSNAME
  2

  9
$UCSORG
 10
0.0
 20
0.0
 30
0.0
  9
$UCSXDIR
 10
1.0
 20
0.0
 30
0.0
  9
$UCSYDIR
 10
0.0
 20
1.0
 30
0.0
  9
$PUCSNAME
  2

  9
$PUCSORG
 10
0.0
 20
0.0
 30
0.0
  9
$PUCSXDIR
 10
1.0
 20
0.0
 30
0.0
  9
$PUCSYDIR
 10
0.0
 20
1.0
 30
0.0
  9
$USERI1
 70
     0
  9
$USERI2
 70
     0
  9
$USERI3
 70
     0
  9
$USERI4
 70
     0
  9
$USERI5
 70
     0
  9
$USERR1
 40
0.0
  9
$USERR2
 40
0.0
  9
$USERR3
 40
0.0
  9
$USERR4
 40
0.0
  9
$USERR5
 40
0.0
  9
$WORLDVIEW
 70
     1
  9
$SHADEDGE
 70
     3
  9
$SHADEDIF
 70
    70
  9
$TILEMODE
 70
     1
  9
$MAXACTVP
 70
    16
  9
$PLIMCHECK
 70
     0
  9
$PEXTMIN
 10
1.0000000000000000E+020
 20
1.0000000000000000E+020
 30
1.0000000000000000E+020
  9
$PEXTMAX
 10
-1.0000000000000000E+020
 20
-1.0000000000000000E+020
 30
-1.0000000000000000E+020
  9
$PLIMMIN
 10
0.0
 20
0.0
  9
$PLIMMAX
 10
12.0
 20
9.0
  9
$UNITMODE
 70
     0
  9
$VISRETAIN
 70
     0
  9
$PLINEGEN
 70
     0
  9
$PSLTSCALE
 70
     0
  0
ENDSEC
  0
SECTION
  2
TABLES
  0
TABLE
  2
VPORT
 70
     2
  0
VPORT
  2
*ACTIVE
 70
     0
 10
0.0
 20
0.0
 11
1.0
 21
1.0
 12
7445.3492808242936
 22
1474.9982158939581
 13
0.0
 23
0.0
 14
5.0
 24
5.0
 15
0.0
 25
0.0
 16
0.0
 26
0.0
 36
1.0
 17
0.0
 27
0.0
 37
0.0
 40
2973.0466511674658
 41
1.6307901907356941
 42
50.0
 43
0.0
 44
0.0
 50
0.0
 51
0.0
 71
     0
 72
   100
 73
     1
 74
     0
 75
     0
 76
     0
 77
     0
 78
     0
  0
ENDTAB
  0
TABLE
  2
LTYPE
 70
     4
  0
LTYPE
  2
CONTINUOUS
 70
     0
  3
Solid line
 72
    65
 73
     0
 40
0.0
  0
LTYPE
  2
CENTER
 70
     0
  3
____ _ ____ _ ____ _ ____ _ ____ _ ____ _ ____ 
 72
    65
 73
     4
 40
2.0
 49
1.25
 49
-0.25
 49
0.25
 49
-0.25
  0
LTYPE
  2
HIDDEN
 70
     0
  3
__ __ __ __ __ __ __ __ __ __ __ __ __ __ __ __
 72
    65
 73
     2
 40
0.375
 49
0.25
 49
-0.125
  0
LTYPE
  2
PHANTOM
 70
     0
  3
______  __  __  ______  __  __  ______  __  __ 
 72
    65
 73
     6
 40
2.5
 49
1.25
 49
-0.25
 49
0.25
 49
-0.25
 49
0.25
 49
-0.25
  0
ENDTAB
  0
TABLE
  2
LAYER
 70
    13
  0
LAYER
  2
0
 70
     0
 62
     7
  6
CONTINUOUS
  0
LAYER
  2
CT
 70
     0
 62
     3
  6
CENTER
  0
LAYER
  2
FUTO
 70
     0
 62
     4
  6
CONTINUOUS
  0
LAYER
  2
HOSO
 70
     0
 62
     7
  6
CONTINUOUS
  0
LAYER
  2
KL
 70
     0
 62
     7
  6
HIDDEN
  0
LAYER
  2
MOJI
 70
     0
 62
     3
  6
CONTINUOUS
  0
LAYER
  2
SL
 70
     0
 62
     1
  6
PHANTOM
  0
LAYER
  2
SP
 70
     0
 62
     2
  6
CONTINUOUS
  0
LAYER
  2
DEFPOINTS
 70
     0
 62
     7
  6
CONTINUOUS
  0
LAYER
  2
1
 70
     0
 62
     4
  6
CONTINUOUS
  0
LAYER
  2
3
 70
     0
 62
     2
  6
CONTINUOUS
  0
LAYER
  2
2
 70
     0
 62
     3
  6
CENTER
  0
LAYER
  2
4
 70
     0
 62
     7
  6
CONTINUOUS
  0
ENDTAB
  0
TABLE
  2
STYLE
 70
     1
  0
STYLE
  2
STANDARD
 70
     0
 40
0.0
 41
1.0
 50
15.0
 71
     0
 42
3.5
  3
C:\Program Files\AutoCAD LT\simplex.shx
  4
C:\Program Files\AutoCAD LT\extfont.shx
  0
ENDTAB
  0
TABLE
  2
VIEW
 70
     0
  0
ENDTAB
  0
TABLE
  2
UCS
 70
     0
  0
ENDTAB
  0
TABLE
  2
APPID
 70
     1
  0
APPID
  2
ACAD
 70
     0
  0
ENDTAB
  0
TABLE
  2
DIMSTYLE
 70
     3
  0
DIMSTYLE
  2
STANDARD
 70
     0
  3

  4

  5

  6

  7

 40
1.0
 41
0.18
 42
0.0625
 43
0.38
 44
0.18
 45
0.0
 46
0.0
 47
0.0
 48
0.0
140
0.18
141
0.09
142
0.0
143
25.399999999999999
144
1.0
145
0.0
146
1.0
147
0.09
 71
     0
 72
     0
 73
     1
 74
     1
 75
     0
 76
     0
 77
     0
 78
     0
170
     0
171
     2
172
     0
173
     0
174
     0
175
     0
176
     0
177
     0
178
     0
  0
DIMSTYLE
  2
GOD
 70
     0
  3

  4

  5

  6
OPEN
  7
OPEN
 40
10.0
 41
2.5
 42
1.0
 43
7.0
 44
1.0
 45
0.0
 46
0.0
 47
0.0
 48
0.0
140
3.0
141
0.0
142
0.0
143
0.03937
144
1.0
145
0.0
146
1.0
147
1.0
 71
     0
 72
     0
 73
     0
 74
     0
 75
     0
 76
     0
 77
     1
 78
     8
170
     0
171
     2
172
     1
173
     1
174
     0
175
     0
176
   256
177
   256
178
   256
  0
DIMSTYLE
  2
DIA1
 70
     0
  3

  4

  5
ARROW
  6

  7

 40
1.0
 41
2.0
 42
1.0
 43
10.0
 44
1.0
 45
0.0
 46
0.0
 47
0.0
 48
0.0
140
2.5
141
0.0
142
0.0
143
25.399999999999999
144
1.0
145
0.0
146
1.0
147
0.09
 71
     0
 72
     0
 73
     0
 74
     0
 75
     0
 76
     0
 77
     1
 78
     8
170
     0
171
     2
172
     1
173
     0
174
     0
175
     0
176
     2
177
     2
178
     2
  0
ENDTAB
  0
ENDSEC
  0
SECTION
  2
BLOCKS
  0
BLOCK
  8
0
  2
$MODEL_SPACE
 70
     0
 10
0.0
 20
0.0
 30
0.0
  3
$MODEL_SPACE
  1

  0
ENDBLK
  5
1B
  8
0
  0
BLOCK
 67
     1
  8
0
  2
$PAPER_SPACE
 70
     0
 10
0.0
 20
0.0
 30
0.0
  3
$PAPER_SPACE
  1

  0
ENDBLK
  5
18
 67
     1
  8
0
  0
BLOCK
  8
0
  2
_OPEN
 70
     0
 10
0.0
 20
0.0
 30
0.0
  3
_OPEN
  1

  0
LINE
  5
1E81
  8
0
  6
BYBLOCK
 62
     0
 10
-1.0
 20
0.1666666666666666
 30
0.0
 11
0.0
 21
0.0
 31
0.0
  0
LINE
  5
1E82
  8
0
  6
BYBLOCK
 62
     0
 10
0.0
 20
0.0
 30
0.0
 11
-1.0
 21
-0.1666666666666666
 31
0.0
  0
LINE
  5
1E83
  8
0
  6
BYBLOCK
 62
     0
 10
0.0
 20
0.0
 30
0.0
 11
-1.0
 21
0.0
 31
0.0
  0
ENDBLK
  5
1E84
  8
0
  0
BLOCK
  8
0
  2
_DOT
 70
     0
 10
0.0
 20
0.0
 30
0.0
  3
_DOT
  1

  0
LINE
  5
1EC3
  8
0
  6
BYBLOCK
 62
     0
 10
0.0
 20
0.0
 30
0.0
 11
-1.0
 21
-0.0000000000000284
 31
0.0
  0
POLYLINE
  5
1EC4
  8
0
  6
BYBLOCK
 62
     0
 66
     1
 10
0.0
 20
0.0
 30
0.0
 70
     1
 40
0.1666666666666666
 41
0.1666666666666666
  0
VERTEX
  5
669A
  8
0
  6
BYBLOCK
 62
     0
 10
-0.0833333333333286
 20
-0.0000000000000284
 30
0.0
 42
1.0
  0
VERTEX
  5
669B
  8
0
  6
BYBLOCK
 62
     0
 10
0.0833333333333286
 20
-0.0000000000000284
 30
0.0
 42
1.0
  0
SEQEND
  5
669C
  8
0
  6
BYBLOCK
 62
     0
  0
ENDBLK
  5
1EB8
  8
0
  0
BLOCK
  8
0
  2
ARROW
 70
     0
 10
0.0
 20
0.0
 30
0.0
  3
ARROW
  1

  0
LINE
  5
1EEF
  8
0
 10
-0.9999999999999991
 20
0.1666666667000003
 30
0.0
 11
0.0
 21
0.0
 31
0.0
  0
LINE
  5
1EF0
  8
0
 10
-0.9999999999999991
 20
0.0
 30
0.0
 11
0.0
 21
0.0
 31
0.0
  0
LINE
  5
1EF1
  8
0
 10
-0.9999999999999991
 20
-0.1666666667000003
 30
0.0
 11
0.0
 21
0.0
 31
0.0
  0
ENDBLK
  5
1EF3
  8
0
  0
BLOCK
  8
0
  2
_NONE
 70
     0
 10
0.0
 20
0.0
 30
0.0
  3
_NONE
  1

  0
ENDBLK
  5
1F6F
  8
0
  0
BLOCK
  8
0
  2
*D4
 70
     1
 10
0.0
 20
0.0
 30
0.0
  3
*D4
  1

  0
LINE
  5
5E5A
  8
SP
 10
6814.7486598577943
 20
1230.1561682696949
 30
0.0
 11
6814.7486598577943
 21
1283.9956548530949
 31
0.0
  0
LINE
  5
5E5B
  8
SP
 10
6974.7486598577952
 20
1074.9956548530961
 30
0.0
 11
6974.7486598577952
 21
1283.9956548530949
 31
0.0
  0
LINE
  5
5E5C
  8
SP
 10
6839.7486598577943
 20
1273.9956548530949
 30
0.0
 11
6949.7486598577952
 21
1273.9956548530949
 31
0.0
  0
INSERT
  5
5E5D
  8
SP
  2
_OPEN
 10
6814.7486598577943
 20
1273.9956548530949
 30
0.0
 41
25.0
 42
25.0
 43
25.0
 50
180.0
  0
INSERT
  5
5E5E
  8
SP
  2
_OPEN
 10
6974.7486598577952
 20
1273.9956548530949
 30
0.0
 41
25.0
 42
25.0
 43
25.0
  0
TEXT
  5
5E5F
  8
SP
 10
6853.2413223273243
 20
1283.9956548530949
 30
0.0
 40
30.0
  1
160
 51
15.0
  0
POINT
  5
5E60
  8
DEFPOINTS
 62
     0
 10
6814.7486598577943
 20
1220.1561682696949
 30
0.0
  0
POINT
  5
5E61
  8
DEFPOINTS
 62
     0
 10
6974.7486598577952
 20
1064.9956548530961
 30
0.0
  0
POINT
  5
5E62
  8
DEFPOINTS
 62
     0
 10
6974.7486598577952
 20
1273.9956548530949
 30
0.0
  0
ENDBLK
  5
5AAE
  8
0
  0
BLOCK
  8
0
  2
*D5
 70
     1
 10
0.0
 20
0.0
 30
0.0
  3
*D5
  1

  0
LINE
  5
5E51
  8
SP
 10
6814.7486598577943
 20
1230.1561682696949
 30
0.0
 11
6814.7486598577943
 21
1283.9956548530949
 31
0.0
  0
LINE
  5
5E52
  8
SP
 10
6646.7486598577962
 20
1037.9956548530961
 30
0.0
 11
6646.7486598577962
 21
1283.9956548530949
 31
0.0
  0
LINE
  5
5E53
  8
SP
 10
6789.7486598577943
 20
1273.9956548530949
 30
0.0
 11
6671.7486598577962
 21
1273.9956548530949
 31
0.0
  0
INSERT
  5
5E54
  8
SP
  2
_OPEN
 10
6814.7486598577943
 20
1273.9956548530949
 30
0.0
 41
25.0
 42
25.0
 43
25.0
  0
INSERT
  5
5E55
  8
SP
  2
_OPEN
 10
6646.7486598577962
 20
1273.9956548530949
 30
0.0
 41
25.0
 42
25.0
 43
25.0
 50
180.0
  0
TEXT
  5
5E56
  8
SP
 10
6689.0499300470156
 20
1283.9956548530949
 30
0.0
 40
30.0
  1
168
 51
15.0
  0
POINT
  5
5E57
  8
DEFPOINTS
 62
     0
 10
6814.7486598577943
 20
1220.1561682696949
 30
0.0
  0
POINT
  5
5E58
  8
DEFPOINTS
 62
     0
 10
6646.7486598577962
 20
1027.9956548530961
 30
0.0
  0
POINT
  5
5E59
  8
DEFPOINTS
 62
     0
 10
6646.7486598577962
 20
1273.9956548530949
 30
0.0
  0
ENDBLK
  5
5ABA
  8
0
  0
BLOCK
  8
0
  2
*D6
 70
     1
 10
0.0
 20
0.0
 30
0.0
  3
*D6
  1

  0
LINE
  5
5E24
  8
SP
 10
7001.6441959932417
 20
1043.9956548530949
 30
0.0
 11
7054.7486598577952
 21
1043.9956548530949
 31
0.0
  0
LINE
  5
5E25
  8
SP
 10
6984.7486598577962
 20
843.99565485309677
 30
0.0
 11
7054.7486598577952
 21
843.99565485309677
 31
0.0
  0
LINE
  5
5E26
  8
SP
 10
7044.7486598577952
 20
1018.9956548530949
 30
0.0
 11
7044.7486598577952
 21
868.99565485309677
 31
0.0
  0
INSERT
  5
5E27
  8
SP
  2
_OPEN
 10
7044.7486598577952
 20
1043.9956548530949
 30
0.0
 41
25.0
 42
25.0
 43
25.0
 50
90.0
  0
INSERT
  5
5E28
  8
SP
  2
_OPEN
 10
7044.7486598577952
 20
843.99565485309677
 30
0.0
 41
25.0
 42
25.0
 43
25.0
 50
270.0
  0
TEXT
  5
5E29
  8
SP
 10
7034.7486598577962
 20
902.88484323071918
 30
0.0
 40
30.0
  1
200
 50
90.0
 51
15.0
  0
POINT
  5
5E2A
  8
DEFPOINTS
 62
     0
 10
6991.6441959932417
 20
1043.9956548530949
 30
0.0
  0
POINT
  5
5E2B
  8
DEFPOINTS
 62
     0
 10
6974.7486598577952
 20
843.99565485309677
 30
0.0
  0
POINT
  5
5E2C
  8
DEFPOINTS
 62
     0
 10
7044.7486598577952
 20
843.99565485309677
 30
0.0
  0
ENDBLK
  5
5AC6
  8
0
  0
BLOCK
  8
0
  2
*D7
 70
     1
 10
0.0
 20
0.0
 30
0.0
  3
*D7
  1

  0
LINE
  5
5E2D
  8
SP
 10
7001.6441959932417
 20
1043.9956548530949
 30
0.0
 11
7124.7486598577952
 21
1043.9956548530949
 31
0.0
  0
LINE
  5
5E2E
  8
SP
 10
6989.7486598577971
 20
803.9956548530954
 30
0.0
 11
7124.7486598577952
 21
803.9956548530954
 31
0.0
  0
LINE
  5
5E2F
  8
SP
 10
7114.7486598577952
 20
1018.9956548530949
 30
0.0
 11
7114.7486598577952
 21
828.9956548530954
 31
0.0
  0
INSERT
  5
5E30
  8
SP
  2
_OPEN
 10
7114.7486598577952
 20
1043.9956548530949
 30
0.0
 41
25.0
 42
25.0
 43
25.0
 50
90.0
  0
INSERT
  5
5E31
  8
SP
  2
_OPEN
 10
7114.7486598577952
 20
803.9956548530954
 30
0.0
 41
25.0
 42
25.0
 43
25.0
 50
270.0
  0
TEXT
  5
5E32
  8
SP
 10
7104.7486598577943
 20
882.88484323071862
 30
0.0
 40
30.0
  1
240
 50
90.0
 51
15.0
  0
POINT
  5
5E33
  8
DEFPOINTS
 62
     0
 10
6991.6441959932417
 20
1043.9956548530949
 30
0.0
  0
POINT
  5
5E34
  8
DEFPOINTS
 62
     0
 10
6979.7486598577962
 20
803.9956548530954
 30
0.0
  0
POINT
  5
5E35
  8
DEFPOINTS
 62
     0
 10
7114.7486598577952
 20
803.9956548530954
 30
0.0
  0
ENDBLK
  5
5AD2
  8
0
  0
BLOCK
  8
0
  2
*D8
 70
     1
 10
0.0
 20
0.0
 30
0.0
  3
*D8
  1

  0
LINE
  5
5E63
  8
SP
 10
7001.6441959932417
 20
1043.9956548530949
 30
0.0
 11
7124.7486598577952
 21
1043.9956548530949
 31
0.0
  0
LINE
  5
5E64
  8
SP
 10
6838.7486598577952
 20
1183.9956548530961
 30
0.0
 11
7124.7486598577952
 21
1183.9956548530961
 31
0.0
  0
LINE
  5
5E65
  8
SP
 10
7114.7486598577952
 20
1068.9956548530949
 30
0.0
 11
7114.7486598577952
 21
1158.9956548530961
 31
0.0
  0
INSERT
  5
5E66
  8
SP
  2
_OPEN
 10
7114.7486598577952
 20
1043.9956548530949
 30
0.0
 41
25.0
 42
25.0
 43
25.0
 50
270.0
  0
INSERT
  5
5E67
  8
SP
  2
_OPEN
 10
7114.7486598577952
 20
1183.9956548530961
 30
0.0
 41
25.0
 42
25.0
 43
25.0
 50
90.0
  0
TEXT
  5
5E68
  8
SP
 10
7104.7486598577943
 20
1072.488317322626
 30
0.0
 40
30.0
  1
140
 50
90.0
 51
15.0
  0
POINT
  5
5E69
  8
DEFPOINTS
 62
     0
 10
6991.6441959932417
 20
1043.9956548530949
 30
0.0
  0
POINT
  5
5E6A
  8
DEFPOINTS
 62
     0
 10
6828.7486598577943
 20
1183.9956548530961
 30
0.0
  0
POINT
  5
5E6B
  8
DEFPOINTS
 62
     0
 10
7114.7486598577952
 20
1183.9956548530961
 30
0.0
  0
ENDBLK
  5
5ADE
  8
0
  0
BLOCK
  8
0
  2
*D9
 70
     1
 10
0.0
 20
0.0
 30
0.0
  3
*D9
  1

  0
LINE
  5
5E7E
  8
SP
 10
6639.7486598577943
 20
1878.8970137353699
 30
0.0
 11
6531.0265364196957
 21
1878.8970137353699
 31
0.0
  0
LINE
  5
5E7F
  8
SP
 10
6639.7486598577943
 20
1708.897013735369
 30
0.0
 11
6531.0265364196957
 21
1708.897013735369
 31
0.0
  0
LINE
  5
5E80
  8
SP
 10
6541.0265364196966
 20
1853.8970137353699
 30
0.0
 11
6541.0265364196966
 21
1733.897013735369
 31
0.0
  0
INSERT
  5
5E81
  8
SP
  2
_OPEN
 10
6541.0265364196966
 20
1878.8970137353699
 30
0.0
 41
25.0
 42
25.0
 43
25.0
 50
90.0
  0
INSERT
  5
5E82
  8
SP
  2
_OPEN
 10
6541.0265364196966
 20
1708.897013735369
 30
0.0
 41
25.0
 42
25.0
 43
25.0
 50
270.0
  0
TEXT
  5
5E83
  8
SP
 10
6531.0265364196957
 20
1752.3896762049001
 30
0.0
 40
30.0
  1
170
 50
90.0
 51
15.0
  0
POINT
  5
5E84
  8
DEFPOINTS
 62
     0
 10
6649.7486598577952
 20
1878.8970137353699
 30
0.0
  0
POINT
  5
5E85
  8
DEFPOINTS
 62
     0
 10
6649.7486598577952
 20
1708.897013735369
 30
0.0
  0
POINT
  5
5E86
  8
DEFPOINTS
 62
     0
 10
6541.0265364196966
 20
1708.897013735369
 30
0.0
  0
ENDBLK
  5
5AEA
  8
0
  0
BLOCK
  8
0
  2
*D10
 70
     1
 10
0.0
 20
0.0
 30
0.0
  3
*D10
  1

  0
LINE
  5
5E6C
  8
SP
 10
6639.7486598577943
 20
1878.8970137353699
 30
0.0
 11
6531.0265364196957
 21
1878.8970137353699
 31
0.0
  0
LINE
  5
5E6D
  8
SP
 10
6614.8912347408768
 20
1955.8970137353699
 30
0.0
 11
6531.0265364196957
 21
1955.8970137353699
 31
0.0
  0
LINE
  5
5E6E
  8
SP
 10
6541.0265364196966
 20
1903.8970137353699
 30
0.0
 11
6541.0265364196966
 21
1930.8970137353699
 31
0.0
  0
INSERT
  5
5E6F
  8
SP
  2
_OPEN
 10
6541.0265364196966
 20
1878.8970137353699
 30
0.0
 41
25.0
 42
25.0
 43
25.0
 50
270.0
  0
INSERT
  5
5E70
  8
SP
  2
_OPEN
 10
6541.0265364196966
 20
1955.8970137353699
 30
0.0
 41
25.0
 42
25.0
 43
25.0
 50
90.0
  0
TEXT
  5
5E71
  8
SP
 10
6531.0265364196957
 20
1886.2349187060461
 30
0.0
 40
30.0
  1
77
 50
90.0
 51
15.0
  0
POINT
  5
5E72
  8
DEFPOINTS
 62
     0
 10
6649.7486598577952
 20
1878.8970137353699
 30
0.0
  0
POINT
  5
5E73
  8
DEFPOINTS
 62
     0
 10
6624.8912347408777
 20
1955.8970137353699
 30
0.0
  0
POINT
  5
5E74
  8
DEFPOINTS
 62
     0
 10
6541.0265364196966
 20
1955.8970137353699
 30
0.0
  0
ENDBLK
  5
5AF6
  8
0
  0
BLOCK
  8
0
  2
*D11
 70
     1
 10
0.0
 20
0.0
 30
0.0
  3
*D11
  1

  0
LINE
  5
5E75
  8
SP
 10
6979.7486598577943
 20
1698.8970137353699
 30
0.0
 11
6979.7486598577943
 21
1570.0699239356941
 31
0.0
  0
LINE
  5
5E76
  8
SP
 10
6639.7486598577943
 20
1698.8970137353699
 30
0.0
 11
6639.7486598577943
 21
1570.0699239356941
 31
0.0
  0
LINE
  5
5E77
  8
SP
 10
6954.7486598577952
 20
1580.0699239356941
 30
0.0
 11
6664.7486598577943
 21
1580.0699239356941
 31
0.0
  0
INSERT
  5
5E78
  8
SP
  2
_OPEN
 10
6979.7486598577943
 20
1580.0699239356941
 30
0.0
 41
25.0
 42
25.0
 43
25.0
  0
INSERT
  5
5E79
  8
SP
  2
_OPEN
 10
6639.7486598577943
 20
1580.0699239356941
 30
0.0
 41
25.0
 42
25.0
 43
25.0
 50
180.0
  0
TEXT
  5
5E7A
  8
SP
 10
6767.8722791141854
 20
1590.0699239356941
 30
0.0
 40
30.0
  1
340
 51
15.0
  0
POINT
  5
5E7B
  8
DEFPOINTS
 62
     0
 10
6979.7486598577943
 20
1708.897013735369
 30
0.0
  0
POINT
  5
5E7C
  8
DEFPOINTS
 62
     0
 10
6639.7486598577943
 20
1708.897013735369
 30
0.0
  0
POINT
  5
5E7D
  8
DEFPOINTS
 62
     0
 10
6639.7486598577943
 20
1580.0699239356941
 30
0.0
  0
ENDBLK
  5
5B02
  8
0
  0
BLOCK
  8
0
  2
*D12
 70
     1
 10
0.0
 20
0.0
 30
0.0
  3
*D12
  1

  0
LINE
  5
5D4C
  8
SP
 10
7647.080331234848
 20
1183.9956548530961
 30
0.0
 11
7647.080331234848
 21
1264.9956548530961
 31
0.0
  0
LINE
  5
5D4D
  8
SP
 10
7787.0803312348462
 20
1183.9956548530961
 30
0.0
 11
7787.0803312348462
 21
1264.9956548530961
 31
0.0
  0
LINE
  5
5D4E
  8
SP
 10
7672.080331234848
 20
1254.9956548530961
 30
0.0
 11
7762.0803312348453
 21
1254.9956548530961
 31
0.0
  0
INSERT
  5
5D4F
  8
SP
  2
_OPEN
 10
7647.080331234848
 20
1254.9956548530961
 30
0.0
 41
25.0
 42
25.0
 43
25.0
 50
180.0
  0
INSERT
  5
5D50
  8
SP
  2
_OPEN
 10
7787.0803312348462
 20
1254.9956548530961
 30
0.0
 41
25.0
 42
25.0
 43
25.0
  0
TEXT
  5
5D51
  8
SP
 10
7675.572993704377
 20
1264.9956548530961
 30
0.0
 40
30.0
  1
140
 51
15.0
  0
POINT
  5
5D52
  8
DEFPOINTS
 62
     0
 10
7647.080331234848
 20
1173.9956548530961
 30
0.0
  0
POINT
  5
5D53
  8
DEFPOINTS
 62
     0
 10
7787.0803312348462
 20
1173.9956548530961
 30
0.0
  0
POINT
  5
5D54
  8
DEFPOINTS
 62
     0
 10
7787.0803312348462
 20
1254.9956548530961
 30
0.0
  0
ENDBLK
  5
5B92
  8
0
  0
BLOCK
  8
0
  2
*D13
 70
     1
 10
0.0
 20
0.0
 30
0.0
  3
*D13
  1

  0
LINE
  5
5D55
  8
SP
 10
7717.0803312348462
 20
1298.6106173740809
 30
0.0
 11
7717.0803312348462
 21
1334.9956548530949
 31
0.0
  0
LINE
  5
5D56
  8
SP
 10
7417.0803312348471
 20
1114.0342853677121
 30
0.0
 11
7417.0803312348471
 21
1334.9956548530949
 31
0.0
  0
LINE
  5
5D57
  8
SP
 10
7692.0803312348471
 20
1324.9956548530949
 30
0.0
 11
7442.0803312348471
 21
1324.9956548530949
 31
0.0
  0
INSERT
  5
5D58
  8
SP
  2
_OPEN
 10
7717.0803312348462
 20
1324.9956548530949
 30
0.0
 41
25.0
 42
25.0
 43
25.0
  0
INSERT
  5
5D59
  8
SP
  2
_OPEN
 10
7417.0803312348471
 20
1324.9956548530949
 30
0.0
 41
25.0
 42
25.0
 43
25.0
 50
180.0
  0
TEXT
  5
5D5A
  8
SP
 10
7525.2039504912382
 20
1334.9956548530949
 30
0.0
 40
30.0
  1
300
 51
15.0
  0
POINT
  5
5D5B
  8
DEFPOINTS
 62
     0
 10
7717.0803312348462
 20
1288.6106173740809
 30
0.0
  0
POINT
  5
5D5C
  8
DEFPOINTS
 62
     0
 10
7417.0803312348471
 20
1104.0342853677121
 30
0.0
  0
POINT
  5
5D5D
  8
DEFPOINTS
 62
     0
 10
7417.0803312348471
 20
1324.9956548530949
 30
0.0
  0
ENDBLK
  5
5B9E
  8
0
  0
BLOCK
  8
0
  2
*D14
 70
     1
 10
0.0
 20
0.0
 30
0.0
  3
*D14
  1

  0
LINE
  5
5D5E
  8
SP
 10
7717.0803312348462
 20
1298.6106173740809
 30
0.0
 11
7717.0803312348462
 21
1334.9956548530949
 31
0.0
  0
LINE
  5
5D5F
  8
SP
 10
7794.0803312348462
 20
1170.995654853097
 30
0.0
 11
7794.0803312348462
 21
1334.9956548530949
 31
0.0
  0
LINE
  5
5D60
  8
SP
 10
7742.0803312348471
 20
1324.9956548530949
 30
0.0
 11
7769.0803312348462
 21
1324.9956548530949
 31
0.0
  0
INSERT
  5
5D61
  8
SP
  2
_OPEN
 10
7717.0803312348462
 20
1324.9956548530949
 30
0.0
 41
25.0
 42
25.0
 43
25.0
 50
180.0
  0
INSERT
  5
5D62
  8
SP
  2
_OPEN
 10
7794.0803312348462
 20
1324.9956548530949
 30
0.0
 41
25.0
 42
25.0
 43
25.0
  0
TEXT
  5
5D63
  8
SP
 10
7724.4182362055244
 20
1334.9956548530949
 30
0.0
 40
30.0
  1
77
 51
15.0
  0
POINT
  5
5D64
  8
DEFPOINTS
 62
     0
 10
7717.0803312348462
 20
1288.6106173740809
 30
0.0
  0
POINT
  5
5D65
  8
DEFPOINTS
 62
     0
 10
7794.0803312348462
 20
1160.995654853097
 30
0.0
  0
POINT
  5
5D66
  8
DEFPOINTS
 62
     0
 10
7794.0803312348462
 20
1324.9956548530949
 30
0.0
  0
ENDBLK
  5
5BAA
  8
0
  0
BLOCK
  8
0
  2
*D15
 70
     1
 10
0.0
 20
0.0
 30
0.0
  3
*D15
  1

  0
LINE
  5
5D67
  8
3
 10
7804.0803312348462
 20
1143.9956548530949
 30
0.0
 11
7902.302184191245
 21
1143.9956548530949
 31
0.0
  0
LINE
  5
5D68
  8
3
 10
7804.0803312348462
 20
943.9956548530954
 30
0.0
 11
7902.302184191245
 21
943.9956548530954
 31
0.0
  0
LINE
  5
5D69
  8
3
 10
7892.3021841912459
 20
1118.9956548530949
 30
0.0
 11
7892.3021841912459
 21
968.9956548530954
 31
0.0
  0
INSERT
  5
5D6A
  8
3
  2
_OPEN
 10
7892.3021841912459
 20
1143.9956548530949
 30
0.0
 41
25.0
 42
25.0
 43
25.0
 50
90.0
  0
INSERT
  5
5D6B
  8
3
  2
_OPEN
 10
7892.3021841912459
 20
943.9956548530954
 30
0.0
 41
25.0
 42
25.0
 43
25.0
 50
270.0
  0
INSERT
  5
5D6C
  8
SP
  2
*U23
 10
0.0
 20
0.0
 30
0.0
  0
POINT
  5
5D6D
  8
DEFPOINTS
 62
     0
 10
7794.0803312348453
 20
1143.9956548530949
 30
0.0
  0
POINT
  5
5D6E
  8
DEFPOINTS
 62
     0
 10
7794.0803312348453
 20
943.9956548530954
 30
0.0
  0
POINT
  5
5D6F
  8
DEFPOINTS
 62
     0
 10
7892.3021841912459
 20
943.9956548530954
 30
0.0
  0
ENDBLK
  5
5BB6
  8
0
  0
BLOCK
  8
0
  2
*D16
 70
     1
 10
0.0
 20
0.0
 30
0.0
  3
*D16
  1

  0
LINE
  5
639C
  8
SP
 10
6814.7486598577943
 20
691.08733075560599
 30
0.0
 11
6814.7486598577943
 21
641.99565485309529
 31
0.0
  0
LINE
  5
639D
  8
SP
 10
6649.7486598577952
 20
711.99565485309495
 30
0.0
 11
6649.7486598577952
 21
641.99565485309529
 31
0.0
  0
LINE
  5
639E
  8
SP
 10
6789.7486598577943
 20
651.9956548530954
 30
0.0
 11
6674.7486598577952
 21
651.9956548530954
 31
0.0
  0
INSERT
  5
639F
  8
SP
  2
_OPEN
 10
6814.7486598577943
 20
651.9956548530954
 30
0.0
 41
25.0
 42
25.0
 43
25.0
  0
INSERT
  5
63A0
  8
SP
  2
_OPEN
 10
6649.7486598577952
 20
651.9956548530954
 30
0.0
 41
25.0
 42
25.0
 43
25.0
 50
180.0
  0
TEXT
  5
63A1
  8
SP
 10
6690.6900389203784
 20
661.9956548530954
 30
0.0
 40
30.0
  1
165
 51
15.0
  0
POINT
  5
63A2
  8
DEFPOINTS
 62
     0
 10
6814.7486598577943
 20
701.08733075560588
 30
0.0
  0
POINT
  5
63A3
  8
DEFPOINTS
 62
     0
 10
6649.7486598577952
 20
721.99565485309495
 30
0.0
  0
POINT
  5
63A4
  8
DEFPOINTS
 62
     0
 10
6649.7486598577952
 20
651.9956548530954
 30
0.0
  0
ENDBLK
  5
636B
  8
0
  0
BLOCK
  8
0
  2
*D17
 70
     1
 10
0.0
 20
0.0
 30
0.0
  3
*D17
  1

  0
LINE
  5
63A5
  8
SP
 10
6649.7486598577952
 20
711.99565485309495
 30
0.0
 11
6649.7486598577952
 21
571.99565485309495
 31
0.0
  0
LINE
  5
63A6
  8
SP
 10
6979.7486598577962
 20
711.9956548530954
 30
0.0
 11
6979.7486598577962
 21
571.99565485309495
 31
0.0
  0
LINE
  5
63A7
  8
SP
 10
6674.7486598577952
 20
581.99565485309495
 30
0.0
 11
6954.7486598577962
 21
581.99565485309495
 31
0.0
  0
INSERT
  5
63A8
  8
SP
  2
_OPEN
 10
6649.7486598577952
 20
581.99565485309495
 30
0.0
 41
25.0
 42
25.0
 43
25.0
 50
180.0
  0
INSERT
  5
63A9
  8
SP
  2
_OPEN
 10
6979.7486598577962
 20
581.99565485309495
 30
0.0
 41
25.0
 42
25.0
 43
25.0
  0
TEXT
  5
63AA
  8
SP
 10
6772.8722791141854
 20
591.99565485309495
 30
0.0
 40
30.0
  1
330
 51
15.0
  0
POINT
  5
63AB
  8
DEFPOINTS
 62
     0
 10
6649.7486598577952
 20
721.99565485309495
 30
0.0
  0
POINT
  5
63AC
  8
DEFPOINTS
 62
     0
 10
6979.7486598577962
 20
721.99565485309529
 30
0.0
  0
POINT
  5
63AD
  8
DEFPOINTS
 62
     0
 10
6979.7486598577962
 20
581.99565485309495
 30
0.0
  0
ENDBLK
  5
6377
  8
0
  0
BLOCK
  8
0
  2
*D18
 70
     1
 10
0.0
 20
0.0
 30
0.0
  3
*D18
  1

  0
LINE
  5
63AE
  8
SP
 10
6814.7486598577943
 20
691.08733075560599
 30
0.0
 11
6814.7486598577943
 21
641.99565485309529
 31
0.0
  0
LINE
  5
63AF
  8
SP
 10
6979.7486598577962
 20
711.9956548530954
 30
0.0
 11
6979.7486598577962
 21
641.99565485309529
 31
0.0
  0
LINE
  5
63B0
  8
SP
 10
6839.7486598577943
 20
651.9956548530954
 30
0.0
 11
6954.7486598577962
 21
651.9956548530954
 31
0.0
  0
INSERT
  5
63B1
  8
SP
  2
_OPEN
 10
6814.7486598577943
 20
651.9956548530954
 30
0.0
 41
25.0
 42
25.0
 43
25.0
 50
180.0
  0
INSERT
  5
63B2
  8
SP
  2
_OPEN
 10
6979.7486598577962
 20
651.9956548530954
 30
0.0
 41
25.0
 42
25.0
 43
25.0
  0
TEXT
  5
63B3
  8
SP
 10
6855.6900389203784
 20
661.9956548530954
 30
0.0
 40
30.0
  1
165
 51
15.0
  0
POINT
  5
63B4
  8
DEFPOINTS
 62
     0
 10
6814.7486598577943
 20
701.08733075560588
 30
0.0
  0
POINT
  5
63B5
  8
DEFPOINTS
 62
     0
 10
6979.7486598577962
 20
721.99565485309529
 30
0.0
  0
POINT
  5
63B6
  8
DEFPOINTS
 62
     0
 10
6979.7486598577962
 20
651.9956548530954
 30
0.0
  0
ENDBLK
  5
6383
  8
0
  0
BLOCK
  8
0
  2
*D19
 70
     1
 10
0.0
 20
0.0
 30
0.0
  3
*D19
  1

  0
LINE
  5
6401
  8
SP
 10
7640.0803312348471
 20
711.99565485309506
 30
0.0
 11
7640.0803312348471
 21
641.99565485309517
 31
0.0
  0
LINE
  5
6402
  8
SP
 10
7470.080331234848
 20
711.99565485309506
 30
0.0
 11
7470.080331234848
 21
641.99565485309517
 31
0.0
  0
LINE
  5
6403
  8
SP
 10
7615.0803312348471
 20
651.99565485309506
 30
0.0
 11
7495.0803312348489
 21
651.99565485309506
 31
0.0
  0
INSERT
  5
6404
  8
SP
  2
_OPEN
 10
7640.0803312348471
 20
651.99565485309506
 30
0.0
 41
25.0
 42
25.0
 43
25.0
  0
INSERT
  5
6405
  8
SP
  2
_OPEN
 10
7470.080331234848
 20
651.99565485309506
 30
0.0
 41
25.0
 42
25.0
 43
25.0
 50
180.0
  0
TEXT
  5
6406
  8
SP
 10
7513.572993704378
 20
661.99565485309506
 30
0.0
 40
30.0
  1
170
 51
15.0
  0
POINT
  5
6407
  8
DEFPOINTS
 62
     0
 10
7640.0803312348471
 20
721.99565485309517
 30
0.0
  0
POINT
  5
6408
  8
DEFPOINTS
 62
     0
 10
7470.080331234848
 20
721.99565485309517
 30
0.0
  0
POINT
  5
6409
  8
DEFPOINTS
 62
     0
 10
7470.080331234848
 20
651.99565485309506
 30
0.0
  0
ENDBLK
  5
638F
  8
0
  0
BLOCK
  8
0
  2
*D20
 70
     1
 10
0.0
 20
0.0
 30
0.0
  3
*D20
  1

  0
LINE
  5
641E
  8
SP
 10
7640.080331234848
 20
711.99565485309506
 30
0.0
 11
7640.080331234848
 21
641.99565485309517
 31
0.0
  0
LINE
  5
641F
  8
SP
 10
7717.0803312348462
 20
799.34923532875109
 30
0.0
 11
7717.0803312348462
 21
641.99565485309517
 31
0.0
  0
LINE
  5
6420
  8
SP
 10
7665.080331234848
 20
651.99565485309506
 30
0.0
 11
7692.0803312348471
 21
651.99565485309506
 31
0.0
  0
INSERT
  5
6421
  8
SP
  2
_OPEN
 10
7640.080331234848
 20
651.99565485309506
 30
0.0
 41
25.0
 42
25.0
 43
25.0
 50
180.0
  0
INSERT
  5
6422
  8
SP
  2
_OPEN
 10
7717.0803312348462
 20
651.99565485309506
 30
0.0
 41
25.0
 42
25.0
 43
25.0
  0
TEXT
  5
6423
  8
SP
 10
7647.4182362055226
 20
661.99565485309506
 30
0.0
 40
30.0
  1
77
 51
15.0
  0
POINT
  5
6424
  8
DEFPOINTS
 62
     0
 10
7640.080331234848
 20
721.99565485309517
 30
0.0
  0
POINT
  5
6425
  8
DEFPOINTS
 62
     0
 10
7717.0803312348462
 20
809.34923532875098
 30
0.0
  0
POINT
  5
6426
  8
DEFPOINTS
 62
     0
 10
7717.0803312348462
 20
651.99565485309506
 30
0.0
  0
ENDBLK
  5
639B
  8
0
  0
BLOCK
  8
0
  2
*D21
 70
     1
 10
0.0
 20
0.0
 30
0.0
  3
*D21
  1

  0
LINE
  5
66A2
  8
SP
 10
6989.7486598577943
 20
803.99565485309483
 30
0.0
 11
7124.7486598577952
 21
803.99565485309483
 31
0.0
  0
LINE
  5
66A3
  8
SP
 10
6989.7486598577971
 20
781.99565485309495
 30
0.0
 11
7124.7486598577952
 21
781.99565485309495
 31
0.0
  0
LINE
  5
66A4
  8
SP
 10
7114.7486598577943
 20
803.99565485309483
 30
0.0
 11
7114.7486598577943
 21
781.99565485309495
 31
0.0
  0
TEXT
  8
0
  40
30
  5
66B4
  72
0
  71
0
 10
7091.37
 20
729.954
 30
0.000000
  1
（22）
  0
POINT
  5
66A6
  8
DEFPOINTS
 62
     0
 10
6979.7486598577943
 20
803.99565485309483
 30
0.0
  0
POINT
  5
66A7
  8
DEFPOINTS
 62
     0
 10
6979.7486598577962
 20
781.99565485309495
 30
0.0
  0
POINT
  5
66A8
  8
DEFPOINTS
 62
     0
 10
7114.7486598577943
 20
781.99565485309495
 30
0.0
  0
ENDBLK
  5
661F
  8
0
  0
BLOCK
  8
0
  2
*D22
 70
     1
 10
0.0
 20
0.0
 30
0.0
  3
*D22
  1

  0
LINE
  5
66A9
  8
SP
 10
6989.7486598577971
 20
781.99565485309495
 30
0.0
 11
7124.7486598577971
 21
781.99565485309495
 31
0.0
  0
LINE
  5
66AA
  8
SP
 10
6989.7486598577971
 20
721.99565485309495
 30
0.0
 11
7124.7486598577971
 21
721.99565485309495
 31
0.0
  0
LINE
  5
66AB
  8
SP
 10
7114.7486598577971
 20
806.99565485309495
 30
0.0
 11
7114.7486598577971
 21
831.99565485309495
 31
0.0
  0
LINE
  5
66AC
  8
SP
 10
7114.7486598577971
 20
696.99565485309495
 30
0.0
 11
7114.7486598577971
 21
600.92238529018675
 31
0.0
  0
LINE
  5
66AD
  8
SP
 10
7114.7486598577971
 20
781.99565485309495
 30
0.0
 11
7114.7486598577971
 21
721.99565485309495
 31
0.0
  0
INSERT
  5
66AE
  8
SP
  2
_DOT
 10
7114.7486598577971
 20
781.99565485309495
 30
0.0
 41
25.0
 42
25.0
 43
25.0
 50
270.0
  0
INSERT
  5
66AF
  8
SP
  2
_OPEN
 10
7114.7486598577971
 20
721.99565485309495
 30
0.0
 41
25.0
 42
25.0
 43
25.0
 50
90.0
  0
TEXT
  8
0
  40
30
  5
66B5
  72
0
  71
0
 10
7029.75
 20
583.359
 30
0.000000
  1
60
  0
POINT
  5
66B1
  8
DEFPOINTS
 62
     0
 10
6979.7486598577962
 20
781.99565485309495
 30
0.0
  0
POINT
  5
66B2
  8
DEFPOINTS
 62
     0
 10
6979.7486598577962
 20
721.99565485309495
 30
0.0
  0
POINT
  5
66B3
  8
DEFPOINTS
 62
     0
 10
7114.7486598577971
 20
721.99565485309495
 30
0.0
  0
ENDBLK
  5
662D
  8
0
  0
BLOCK
  8
0
  2
*U23
 70
     1
 10
0.0
 20
0.0
 30
0.0
  3
*U23
  1

  0
TEXT
  5
669E
  8
SP
 10
7882.302184191245
 20
981.17237207246455
 30
0.0
 40
30.0
  1
\U+2205
 50
90.0
 51
15.0
  0
TEXT
  5
669F
  8
SP
 10
7882.302184191245
 20
1008.315229215321
 30
0.0
 40
30.0
  1
200
 50
90.0
 51
15.0
  0
ENDBLK
  5
66A1
  8
0
  0
ENDSEC
  0
SECTION
  2
ENTITIES
  0
LINE
  5
55A9
  8
4
 10
6208.32856416303
 20
0.0000009706882338
 30
0.0
 11
6208.32856416303
 21
2950.0000009706878
 31
0.0
  0
LINE
  5
55AA
  8
4
 10
8308.32856416303
 20
2950.0000009706878
 30
0.0
 11
8308.32856416303
 21
0.0000009706882338
 31
0.0
  0
LINE
  5
568F
  8
4
 10
8308.32856416303
 20
0.0000009706882338
 30
0.0
 11
6208.32856416303
 21
0.0000009706882338
 31
0.0
  0
LINE
  5
569F
  8
4
 10
6658.32856416303
 20
226.553142200808
 30
0.0
 11
7858.32856416303
 21
226.553142200808
 31
0.0
  0
LINE
  5
56A0
  8
4
 10
6658.32856416303
 20
326.553142200808
 30
0.0
 11
7858.32856416303
 21
326.553142200808
 31
0.0
  0
LINE
  5
56A1
  8
4
 10
6658.32856416303
 20
426.553142200808
 30
0.0
 11
7858.32856416303
 21
426.553142200808
 31
0.0
  0
TEXT
  5
56A2
  8
4
 10
7194.9830597485097
 20
243.71272648075129
 30
0.0
 40
50.0
  1
MF＃1 1/4- 7
  0
TEXT
  5
56A3
  8
4
 10
7186.0073096506949
 20
349.12491115837651
 30
0.0
 40
50.0
  1
ミツヤ多翼送風機
  0
LINE
  5
56A4
  8
4
 10
6658.32856416303
 20
426.553142200808
 30
0.0
 11
6658.32856416303
 21
226.553142200808
 31
0.0
  0
LINE
  5
56A5
  8
4
 10
7158.32856416303
 20
426.553142200808
 30
0.0
 11
7158.3285641630309
 21
226.553142200808
 31
0.0
  0
TEXT
  5
56A6
  8
4
 10
6694.5866701878276
 20
248.19829893281889
 30
0.0
 40
50.0
  1
機器型番
  0
TEXT
  5
56A8
  8
4
 10
6696.8306450099308
 20
358.09616806742082
 30
0.0
 40
50.0
  1
機器名称
  0
LINE
  5
56A9
  8
4
 10
7858.32856416303
 20
426.553142200808
 30
0.0
 11
7858.3285641630309
 21
226.553142200808
 31
0.0
  0
DIMENSION
  5
5772
  8
3
  2
*D15
 10
7892.3021841912459
 20
943.9956548530954
 30
0.0
 11
7867.302184191245
 21
1043.9956548530961
 31
0.0
 70
     0
  1
%%c<>
 13
7794.0803312348453
 23
1143.9956548530949
 33
0.0
 14
7794.0803312348453
 24
943.9956548530954
 34
0.0
 50
90.0
  0
LINE
  5
5773
  8
2
 10
7717.0803312348462
 20
809.34923532875098
 30
0.0
 11
7717.0803312348462
 21
1234.169875925284
 31
0.0
  0
LINE
  5
5774
  8
1
 10
7596.7803312348478
 20
1063.9956548530961
 30
0.0
 11
7470.080331234848
 21
805.59565485309588
 31
0.0
  0
LINE
  5
5775
  8
1
 10
7640.0803312348471
 20
1168.9956548530961
 30
0.0
 11
7640.0803312348471
 21
803.99565485309586
 31
0.0
  0
LINE
  5
5776
  8
1
 10
7638.4803312348467
 20
1168.9956548530961
 30
0.0
 11
7638.4803312348477
 21
803.99565485309608
 31
0.0
  0
LINE
  5
5777
  8
1
 10
7417.0803312348471
 20
1104.0342853677121
 30
0.0
 11
7417.0803312348471
 21
983.95702433847885
 31
0.0
  0
LINE
  5
5778
  8
1
 10
7478.9472054337111
 20
1118.9956548530949
 30
0.0
 11
7478.9472054337111
 21
974.60748589179025
 31
0.0
  0
LINE
  5
5779
  8
1
 10
7452.003422243818
 20
1118.9956548530949
 30
0.0
 11
7452.003422243818
 21
974.60748589179025
 31
0.0
  0
LINE
  5
577A
  8
2
 10
7538.080331234848
 20
1132.2868088996281
 30
0.0
 11
7538.080331234848
 21
964.87221010250755
 31
0.0
  0
LINE
  5
577B
  8
HOSO
 10
7650.4737295170489
 20
847.38905313529779
 30
0.0
 11
7783.6869329526453
 21
1040.602256570894
 31
0.0
  0
LINE
  5
577C
  8
HOSO
 10
7783.6869329526453
 20
847.38905313529779
 30
0.0
 11
7650.4737295170489
 21
1040.602256570894
 31
0.0
  0
LINE
  5
577D
  8
FUTO
 10
7808.0803312348471
 20
847.99565485309597
 30
0.0
 11
7808.0803312348471
 21
1039.9956548530949
 31
0.0
  0
LINE
  5
577E
  8
FUTO
 10
7788.080331234848
 20
857.99565485309597
 30
0.0
 11
7788.080331234848
 21
1029.9956548530949
 31
0.0
  0
LINE
  5
577F
  8
FUTO
 10
7626.0803312348471
 20
847.99565485309597
 30
0.0
 11
7626.0803312348471
 21
1039.9956548530949
 31
0.0
  0
LINE
  5
5780
  8
FUTO
 10
7646.0803312348471
 20
857.99565485309597
 30
0.0
 11
7646.0803312348471
 21
1029.9956548530949
 31
0.0
  0
LINE
  5
5781
  8
1
 10
7794.0803312348453
 20
926.99565485309699
 30
0.0
 11
7794.0803312348453
 21
1160.9956548530949
 31
0.0
  0
DIMENSION
  5
5782
  8
SP
  2
*D7
 10
7114.7486598577952
 20
803.9956548530954
 30
0.0
 11
7089.7486598577962
 21
923.99565485309654
 31
0.0
 70
     0
 13
6991.6441959932417
 23
1043.9956548530949
 33
0.0
 14
6979.7486598577962
 24
803.9956548530954
 34
0.0
 50
90.0
  0
DIMENSION
  5
5783
  8
SP
  2
*D6
 10
7044.7486598577952
 20
843.99565485309677
 30
0.0
 11
7019.7486598577952
 21
943.99565485309722
 31
0.0
 70
     0
 13
6991.6441959932417
 23
1043.9956548530949
 33
0.0
 14
6974.7486598577952
 24
843.99565485309677
 34
0.0
 50
90.0
  0
ARC
  5
5784
  8
1
 10
6830.7486598577962
 20
1027.9956548530961
 30
0.0
 40
195.0
 50
172.6779404095526
 51
270.0
  0
ARC
  5
5785
  8
1
 10
6830.7486598577962
 20
1027.9956548530961
 30
0.0
 40
184.0
 50
172.69708871759369
 51
270.0
  0
LINE
  5
5786
  8
1
 10
6959.7486598577962
 20
855.79565485309558
 30
0.0
 11
6959.7486598577962
 21
1032.1956548530959
 31
0.0
  0
LINE
  5
5787
  8
1
 10
6973.1486598577958
 20
822.9956548530962
 30
0.0
 11
6973.1486598577958
 21
1064.9956548530961
 31
0.0
  0
LINE
  5
5788
  8
1
 10
6974.7486598577952
 20
822.9956548530962
 30
0.0
 11
6974.7486598577952
 21
1064.9956548530961
 31
0.0
  0
CIRCLE
  5
5789
  8
CT
 10
6814.7486598577943
 20
1043.9956548530949
 30
0.0
 40
110.0
  0
ARC
  5
578A
  8
1
 10
6814.7486598577943
 20
1043.9956548530949
 30
0.0
 40
75.0
 50
292.3051532135043
 51
247.69484678649559
  0
CIRCLE
  5
578B
  8
1
 10
6814.7486598577943
 20
1043.9956548530949
 30
0.0
 40
69.388168961305382
  0
CIRCLE
  5
578C
  8
1
 10
6814.7486598577943
 20
1043.9956548530949
 30
0.0
 40
60.038630514616607
  0
LINE
  5
578D
  8
1
 10
6681.3486598577947
 20
1099.037772500154
 30
0.0
 11
6681.3486598577947
 21
971.99565485309529
 31
0.0
  0
LINE
  5
578E
  8
1
 10
6948.148659857794
 20
1099.037772500154
 30
0.0
 11
6948.148659857794
 21
969.39565485309549
 31
0.0
  0
LINE
  5
578F
  8
1
 10
6949.7486598577952
 20
1097.695654853095
 30
0.0
 11
6949.7486598577952
 21
803.99565485309483
 31
0.0
  0
LINE
  5
5790
  8
1
 10
6679.7486598577952
 20
1097.695654853095
 30
0.0
 11
6679.7486598577952
 21
803.99565485309483
 31
0.0
  0
LINE
  5
5791
  8
2
 10
6814.7486598577943
 20
1220.1561682696949
 30
0.0
 11
6814.7486598577943
 21
701.08733075560656
 31
0.0
  0
LINE
  5
5792
  8
1
 10
7417.0803312348471
 20
983.95702433847885
 30
0.0
 11
7452.003422243818
 21
977.49133173880421
 31
0.0
  0
LINE
  5
5796
  8
1
 10
6903.0964859447504
 20
970.39565485309504
 30
0.0
 11
6726.4008337708383
 21
970.39565485309504
 31
0.0
  0
LINE
  5
5797
  8
1
 10
6774.7486598577952
 20
972.99565485309529
 30
0.0
 11
6782.9275201133132
 21
976.08089161738735
 31
0.0
  0
LINE
  5
5798
  8
1
 10
6864.7486598577943
 20
953.5956548530952
 30
0.0
 11
6764.7486598577943
 21
953.5956548530952
 31
0.0
  0
CIRCLE
  5
5799
  8
1
 10
6772.6534822976328
 20
942.36890627685341
 30
0.0
 40
4.0
  0
LINE
  5
579A
  8
1
 10
6945.5486598577927
 20
971.99565485309529
 30
0.0
 11
6683.9486598577951
 21
971.99565485309529
 31
0.0
  0
LINE
  5
579B
  8
1
 10
6979.7486598577943
 20
803.99565485309483
 30
0.0
 11
6649.7486598577916
 21
803.9956548530954
 31
0.0
  0
LINE
  5
579C
  8
1
 10
6948.148659857794
 20
969.39565485309549
 30
0.0
 11
6948.148659857794
 21
876.69565485309522
 31
0.0
  0
LINE
  5
579D
  8
1
 10
6946.5486598577936
 20
969.39565485309504
 30
0.0
 11
6946.5486598577936
 21
876.69565485309522
 31
0.0
  0
LINE
  5
579E
  8
1
 10
6959.7486598577962
 20
832.99565485309665
 30
0.0
 11
6959.7486598577962
 21
843.99565485309631
 31
0.0
  0
LINE
  5
579F
  8
1
 10
6948.148659857794
 20
876.69565485309522
 30
0.0
 11
6948.148659857794
 21
806.59565485309531
 31
0.0
  0
LINE
  5
57A0
  8
1
 10
6830.7486598577952
 20
832.99565485309631
 30
0.0
 11
6959.7486598577962
 21
832.99565485309631
 31
0.0
  0
LINE
  5
57A1
  8
1
 10
6973.1486598577958
 20
822.9956548530962
 30
0.0
 11
6974.7486598577952
 21
822.9956548530962
 31
0.0
  0
LINE
  5
57A2
  8
1
 10
6979.7486598577943
 20
805.59565485309543
 30
0.0
 11
6950.7486598577943
 21
805.59565485309543
 31
0.0
  0
LINE
  5
57A3
  8
1
 10
6979.7486598577943
 20
805.59565485309543
 30
0.0
 11
6979.7486598577943
 21
803.9956548530954
 31
0.0
  0
ARC
  5
57A4
  8
1
 10
6950.7486598577943
 20
806.59565485309531
 30
0.0
 40
2.6000000000000001
 50
180.0
 51
270.0
  0
ARC
  5
57A5
  8
1
 10
6950.7486598577943
 20
806.59565485309531
 30
0.0
 40
1.0
 50
180.0
 51
270.0
  0
LINE
  5
57A7
  8
1
 10
6830.7486598577952
 20
843.99565485309631
 30
0.0
 11
6974.7486598577952
 21
843.99565485309677
 31
0.0
  0
LINE
  5
57A8
  8
1
 10
6971.5486598577954
 20
843.99565485309631
 30
0.0
 11
6959.7486598577962
 21
855.79565485309558
 31
0.0
  0
LINE
  5
57A9
  8
1
 10
6948.148659857794
 20
876.69565485309522
 30
0.0
 11
6946.5486598577936
 21
876.69565485309522
 31
0.0
  0
LINE
  5
57AA
  8
1
 10
6864.7486598577943
 20
953.5956548530952
 30
0.0
 11
6906.7486598577943
 21
971.99565485309529
 31
0.0
  0
LINE
  5
57AB
  8
CT
 10
6853.8710208423072
 20
949.54592037222619
 30
0.0
 11
6859.8782931623864
 21
935.0430820642232
 31
0.0
  0
CIRCLE
  5
57AC
  8
1
 10
6856.8438374179541
 20
942.36890627685489
 30
0.0
 40
4.0
  0
LINE
  5
57AD
  8
CT
 10
6909.1983943386631
 20
1004.873293868582
 30
0.0
 11
6923.7012326466674
 21
998.86602154850277
 31
0.0
  0
CIRCLE
  5
57AE
  8
1
 10
6916.3754084340371
 20
1001.900477292935
 30
0.0
 40
4.0
  0
LINE
  5
57AF
  8
1
 10
6945.5486598577927
 20
970.39565485309504
 30
0.0
 11
6903.0964859447504
 21
970.39565485309504
 31
0.0
  0
ARC
  5
57B0
  8
1
 10
6945.5486598577927
 20
969.39565485309549
 30
0.0
 40
2.6000000000000001
 50
0.000000000000007
 51
90.0
  0
ARC
  5
57B1
  8
1
 10
6945.5486598577927
 20
969.39565485309504
 30
0.0
 40
1.0
 50
0.000000000000007
 51
90.0
  0
LINE
  5
57B2
  8
1
 10
6786.2832069684173
 20
974.60748589179002
 30
0.0
 11
6843.2141127471714
 21
974.60748589179002
 31
0.0
  0
LINE
  5
57B3
  8
1
 10
6854.7486598577943
 20
972.99565485309529
 30
0.0
 11
6854.7486598577943
 21
971.99565485309529
 31
0.0
  0
LINE
  5
57B4
  8
1
 10
6870.7486598577943
 20
963.99565485309529
 30
0.0
 11
6870.7486598577943
 21
981.92271906741871
 31
0.0
  0
LINE
  5
57B5
  8
1
 10
6854.7486598577943
 20
972.99565485309529
 30
0.0
 11
6846.5697996022736
 21
976.08089161738735
 31
0.0
  0
LINE
  5
57B6
  8
1
 10
6884.7486598577952
 20
972.99565485309529
 30
0.0
 11
6884.7486598577952
 21
971.99565485309529
 31
0.0
  0
LINE
  5
57B7
  8
1
 10
6854.7486598577943
 20
972.99565485309529
 30
0.0
 11
6884.7486598577952
 21
972.99565485309529
 31
0.0
  0
LINE
  5
57B8
  8
1
 10
6884.7486598577952
 20
972.99565485309529
 30
0.0
 11
6867.2793113717998
 21
990.46500333908898
 31
0.0
  0
LINE
  5
57B9
  8
1
 10
6681.3486598577947
 20
969.39565485309549
 30
0.0
 11
6681.3486598577947
 21
876.69565485309522
 31
0.0
  0
LINE
  5
57BA
  8
1
 10
6682.948659857796
 20
969.39565485309504
 30
0.0
 11
6682.948659857796
 21
876.69565485309522
 31
0.0
  0
LINE
  5
57BB
  8
1
 10
6681.3486598577947
 20
876.69565485309522
 30
0.0
 11
6681.3486598577947
 21
806.59565485309531
 31
0.0
  0
LINE
  5
57BC
  8
1
 10
6649.7486598577952
 20
805.59565485309543
 30
0.0
 11
6649.7486598577916
 21
803.9956548530954
 31
0.0
  0
ARC
  5
57BE
  8
1
 10
6678.7486598577943
 20
806.59565485309531
 30
0.0
 40
1.0
 50
270.0
 51
0.000000000000007
  0
ARC
  5
57BF
  8
1
 10
6678.7486598577943
 20
806.59565485309531
 30
0.0
 40
2.6000000000000001
 50
270.0
 51
0.000000000000007
  0
LINE
  5
57C0
  8
1
 10
6678.7486598577943
 20
805.59565485309543
 30
0.0
 11
6649.7486598577916
 21
805.59565485309543
 31
0.0
  0
LINE
  5
57C1
  8
1
 10
6682.948659857796
 20
876.69565485309522
 30
0.0
 11
6681.3486598577947
 21
876.69565485309522
 31
0.0
  0
LINE
  5
57C2
  8
1
 10
6764.7486598577943
 20
953.5956548530952
 30
0.0
 11
6722.7486598577943
 21
971.99565485309529
 31
0.0
  0
LINE
  5
57C3
  8
CT
 10
6775.6262988732797
 20
949.54592037222574
 30
0.0
 11
6769.6190265532014
 21
935.04308206422274
 31
0.0
  0
ARC
  5
57C4
  8
1
 10
6683.9486598577951
 20
969.39565485309504
 30
0.0
 40
1.0
 50
90.0
 51
180.0
  0
ARC
  5
57C5
  8
1
 10
6683.9486598577951
 20
969.39565485309549
 30
0.0
 40
2.6000000000000001
 50
90.0
 51
180.0
  0
LINE
  5
57C6
  8
CT
 10
6720.2989253769229
 20
1004.873293868581
 30
0.0
 11
6705.7960870689203
 21
998.86602154850277
 31
0.0
  0
CIRCLE
  5
57C7
  8
1
 10
6713.1219112815534
 20
1001.900477292936
 30
0.0
 40
4.0
  0
LINE
  5
57C8
  8
1
 10
6726.4008337708383
 20
970.39565485309504
 30
0.0
 11
6683.9486598577951
 21
970.39565485309504
 31
0.0
  0
LINE
  5
57C9
  8
1
 10
6744.7486598577943
 20
972.99565485309529
 30
0.0
 11
6744.7486598577943
 21
971.99565485309529
 31
0.0
  0
LINE
  5
57CA
  8
1
 10
6774.7486598577952
 20
972.99565485309529
 30
0.0
 11
6774.7486598577952
 21
971.99565485309529
 31
0.0
  0
LINE
  5
57CB
  8
1
 10
6744.7486598577943
 20
972.99565485309529
 30
0.0
 11
6762.2180083437861
 21
990.46500333908898
 31
0.0
  0
LINE
  5
57CC
  8
1
 10
6758.7486598577934
 20
963.99565485309529
 30
0.0
 11
6758.7486598577934
 21
981.92271906741871
 31
0.0
  0
LINE
  5
57CD
  8
1
 10
6774.7486598577952
 20
972.99565485309529
 30
0.0
 11
6744.7486598577943
 21
972.99565485309529
 31
0.0
  0
LINE
  5
57D0
  8
1
 10
7471.1803312348466
 20
971.99565485309597
 30
0.0
 11
7507.0120084982609
 21
895.08667189806545
 31
0.0
  0
LINE
  5
57D1
  8
FUTO
 10
7773.0803312348471
 20
842.99565485309608
 30
0.0
 11
7661.0803312348462
 21
842.99565485309608
 31
0.0
  0
LINE
  5
57D2
  8
FUTO
 10
7651.0803312348471
 20
822.99565485309597
 30
0.0
 11
7783.080331234848
 21
822.99565485309597
 31
0.0
  0
ARC
  5
57D3
  8
FUTO
 10
7651.0803312348462
 20
847.99565485309665
 30
0.0
 40
25.0
 50
180.00000000000091
 51
270.00000000000051
  0
ARC
  5
57D4
  8
FUTO
 10
7661.0803312348462
 20
857.99565485309654
 30
0.0
 40
15.0
 50
180.0
 51
270.0000000000008
  0
LINE
  5
57D5
  8
1
 10
7670.0803312348471
 20
803.99565485309608
 30
0.0
 11
7470.080331234848
 21
803.99565485309608
 31
0.0
  0
LINE
  5
57D6
  8
1
 10
7638.4803312348477
 20
805.59565485309565
 30
0.0
 11
7470.080331234848
 21
805.59565485309588
 31
0.0
  0
LINE
  5
57D8
  8
1
 10
7470.080331234848
 20
805.59565485309588
 30
0.0
 11
7470.080331234848
 21
803.99565485309608
 31
0.0
  0
LINE
  5
57D9
  8
1
 10
7670.0803312348471
 20
805.59565485309588
 30
0.0
 11
7670.0803312348471
 21
803.99565485309608
 31
0.0
  0
LINE
  5
57DB
  8
1
 10
7670.0803312348471
 20
805.59565485309588
 30
0.0
 11
7641.6803312348484
 21
805.59565485309588
 31
0.0
  0
LINE
  5
57DC
  8
1
 10
7670.0803312348471
 20
805.59565485309588
 30
0.0
 11
7640.0803312348471
 21
805.59565485309588
 31
0.0
  0
ARC
  5
57DD
  8
FUTO
 10
7783.0803312348462
 20
847.99565485309745
 30
0.0
 40
25.0
 50
270.00000000000102
 51
359.9999999999979
  0
ARC
  5
57DE
  8
FUTO
 10
7773.0803312348471
 20
857.99565485309654
 30
0.0
 40
15.0
 50
270.0000000000008
 51
359.99999999999829
  0
LINE
  5
57DF
  8
1
 10
7465.7803312348478
 20
969.39565485309606
 30
0.0
 11
7465.7803312348478
 21
953.59565485309588
 31
0.0
  0
LINE
  5
57E0
  8
1
 10
7464.1803312348466
 20
969.39565485309606
 30
0.0
 11
7464.1803312348466
 21
953.59565485309588
 31
0.0
  0
LINE
  5
57E1
  8
1
 10
7464.1803312348466
 20
953.59565485309588
 30
0.0
 11
7465.7803312348478
 21
953.59565485309588
 31
0.0
  0
POINT
  5
57E2
  8
1
 10
7640.0803312348471
 20
926.99565485309699
 30
0.0
  0
ARC
  5
57E3
  8
1
 10
7643.0803312348471
 20
926.99565485309745
 30
0.0
 40
3.0
 50
180.0
 51
270.0
  0
LINE
  5
57E4
  8
1
 10
7644.080331234848
 20
923.99565485309597
 30
0.0
 11
7643.0803312348471
 21
923.99565485309688
 31
0.0
  0
ARC
  5
57E5
  8
1
 10
7644.0803312348462
 20
920.99565485309665
 30
0.0
 40
3.0
 50
48.189685104220501
 51
90.0
  0
LINE
  5
57E6
  8
1
 10
7559.1617741265854
 20
992.73714099371921
 30
0.0
 11
7561.3167348239394
 21
992.73714099371921
 31
0.0
  0
LINE
  5
57E7
  8
1
 10
7561.3167348239394
 20
992.73714099371921
 30
0.0
 11
7561.5321716748813
 21
992.10832706859992
 31
0.0
  0
LINE
  5
57E8
  8
1
 10
7550.8223470782214
 20
976.94027839224123
 30
0.0
 11
7554.0948970336467
 21
976.94027839224145
 31
0.0
  0
LINE
  5
57E9
  8
1
 10
7552.1607491915047
 20
972.99565485309529
 30
0.0
 11
7548.7399145681802
 21
972.99565485309574
 31
0.0
  0
LINE
  5
57EA
  8
1
 10
7548.2119979015151
 20
970.39565485309618
 30
0.0
 11
7550.8859039902663
 21
970.39565485309618
 31
0.0
  0
LINE
  5
57EB
  8
1
 10
7548.2119979015151
 20
971.99565485309597
 30
0.0
 11
7551.670424114106
 21
971.99565485309597
 31
0.0
  0
LINE
  5
57EC
  8
1
 10
7478.9472054337111
 20
974.60748589179025
 30
0.0
 11
7452.003422243818
 21
974.60748589179025
 31
0.0
  0
ARC
  5
57ED
  8
1
 10
7466.7803312348478
 20
969.39565485309606
 30
0.0
 40
1.0
 50
90.0
 51
180.0
  0
LINE
  5
57EE
  8
1
 10
7466.7803312348478
 20
970.39565485309618
 30
0.0
 11
7469.5660605108178
 21
970.39565485309618
 31
0.0
  0
ARC
  5
57EF
  8
1
 10
7466.7803312348478
 20
969.39565485309606
 30
0.0
 40
2.6000000000000001
 50
90.0
 51
180.0
  0
LINE
  5
57F0
  8
1
 10
7483.080331234848
 20
981.58749494825747
 30
0.0
 11
7511.0239667046799
 21
981.58749494825747
 31
0.0
  0
LINE
  5
57F1
  8
1
 10
7514.8439276457548
 20
992.73714099371921
 30
0.0
 11
7508.080331234848
 21
972.99565485309574
 31
0.0
  0
LINE
  5
57F2
  8
1
 10
7483.080331234848
 20
981.58749494825747
 30
0.0
 11
7483.0803312348453
 21
971.99565485309597
 31
0.0
  0
LINE
  5
57F3
  8
1
 10
7508.080331234848
 20
972.99565485309574
 30
0.0
 11
7483.080331234848
 21
972.99565485309574
 31
0.0
  0
LINE
  5
57F4
  8
1
 10
7478.9472054337111
 20
978.04512189848197
 30
0.0
 11
7483.080331234848
 21
978.04512189848197
 31
0.0
  0
LINE
  5
57F5
  8
CT
 10
7493.0803312348471
 20
985.29792081511607
 30
0.0
 11
7493.0803312348471
 21
964.87221010250755
 31
0.0
  0
LINE
  5
57F6
  8
1
 10
7469.5660605108178
 20
970.39565485309618
 30
0.0
 11
7548.2119979015151
 21
970.39565485309618
 31
0.0
  0
LINE
  5
57F7
  8
1
 10
7548.7399145681802
 20
972.99565485309574
 30
0.0
 11
7483.080331234848
 21
972.99565485309574
 31
0.0
  0
LINE
  5
57F8
  8
1
 10
7466.7803312348478
 20
971.99565485309597
 30
0.0
 11
7548.2119979015151
 21
971.99565485309597
 31
0.0
  0
LINE
  5
57F9
  8
1
 10
7514.8439276457548
 20
992.73714099371921
 30
0.0
 11
7559.1617741265854
 21
992.73714099371921
 31
0.0
  0
LINE
  5
57FA
  8
1
 10
7509.4317918808028
 20
976.94027839224123
 30
0.0
 11
7550.8223470782214
 21
976.94027839224123
 31
0.0
  0
LINE
  5
57FB
  8
FUTO
 10
7787.0803312348471
 20
943.9956548530954
 30
0.0
 11
7794.0803312348453
 21
943.9956548530954
 31
0.0
  0
ARC
  5
57FC
  8
FUTO
 10
7790.0803312348462
 20
920.99565485309665
 30
0.0
 40
3.0
 50
90.0
 51
131.8103148957795
  0
LINE
  5
57FD
  8
FUTO
 10
7790.0803312348471
 20
923.99565485309597
 30
0.0
 11
7791.080331234848
 21
923.99565485309688
 31
0.0
  0
POINT
  5
57FE
  8
FUTO
 10
7794.080331234848
 20
926.99565485309699
 30
0.0
  0
ARC
  5
57FF
  8
FUTO
 10
7791.0803312348462
 20
926.99565485309745
 30
0.0
 40
3.0
 50
270.0
 51
0.0
  0
DIMENSION
  5
5800
  8
SP
  2
*D13
 10
7417.0803312348471
 20
1324.9956548530949
 30
0.0
 11
7567.0803312348471
 21
1349.9956548530961
 31
0.0
 70
     0
 13
7717.0803312348462
 23
1288.6106173740809
 33
0.0
 14
7417.0803312348471
 24
1104.0342853677121
 34
0.0
  0
LINE
  5
5801
  8
1
 10
7417.0803312348471
 20
1104.0342853677121
 30
0.0
 11
7452.003422243818
 21
1115.349247417143
 31
0.0
  0
LINE
  5
5802
  8
2
 10
7830.961384017085
 20
1043.9956548530961
 30
0.0
 11
7385.6345208052162
 21
1043.9956548530949
 31
0.0
  0
DIMENSION
  5
5803
  8
SP
  2
*D5
 10
6646.7486598577962
 20
1273.9956548530949
 30
0.0
 11
6730.7486598577952
 21
1298.9956548530949
 31
0.0
 70
     0
 13
6814.7486598577943
 23
1220.1561682696949
 33
0.0
 14
6646.7486598577962
 24
1027.9956548530961
 34
0.0
 50
180.0
  0
DIMENSION
  5
5804
  8
SP
  2
*D4
 10
6974.7486598577952
 20
1273.9956548530949
 30
0.0
 11
6894.7486598577943
 21
1298.9956548530949
 31
0.0
 70
     0
 13
6814.7486598577943
 23
1220.1561682696949
 33
0.0
 14
6974.7486598577952
 24
1064.9956548530961
 34
0.0
 50
180.0
  0
LINE
  5
5805
  8
2
 10
6991.6441959932417
 20
1043.9956548530949
 30
0.0
 11
6608.5794453285807
 21
1043.9956548530949
 31
0.0
  0
ARC
  5
5806
  8
1
 10
6800.7486598577971
 20
1029.9956548530961
 30
0.0
 40
165.0
 50
90.0
 51
137.16657193393391
  0
ARC
  5
5807
  8
1
 10
6800.7486598577971
 20
1029.9956548530961
 30
0.0
 40
154.0
 50
76.897237965897659
 51
141.78678929825861
  0
LINE
  5
5808
  8
1
 10
6864.7486598577943
 20
1168.995654853094
 30
0.0
 11
6764.7486598577943
 21
1168.9956548530949
 31
0.0
  0
CIRCLE
  5
5809
  8
1
 10
6772.6534822976328
 20
1145.6224034293371
 30
0.0
 40
4.0
  0
DIMENSION
  5
580A
  8
SP
  2
*D8
 10
7114.7486598577952
 20
1183.9956548530961
 30
0.0
 11
7089.7486598577962
 21
1113.9956548530961
 31
0.0
 70
     0
 13
6991.6441959932417
 23
1043.9956548530949
 33
0.0
 14
6828.7486598577943
 24
1183.9956548530961
 34
0.0
 50
90.0
  0
ARC
  5
580B
  8
1
 10
6803.7486598577952
 20
1054.9956548530961
 30
0.0
 40
140.0
 50
11.558380155625819
 51
90.0
  0
ARC
  5
580C
  8
1
 10
6803.7486598577952
 20
1054.9956548530961
 30
0.0
 40
129.0
 50
11.22979406854407
 51
75.677695662047014
  0
LINE
  5
580D
  8
1
 10
6864.7486598577943
 20
1168.9956548530949
 30
0.0
 11
6949.7486598577952
 21
1097.695654853095
 31
0.0
  0
ARC
  5
580E
  8
1
 10
7007.7486598577962
 20
1106.9956548530961
 30
0.0
 40
82.0
 50
199.13409247443579
 51
227.40118710754669
  0
ARC
  5
580F
  8
1
 10
7007.7486598577962
 20
1106.9956548530961
 30
0.0
 40
71.0
 50
199.71281874111719
 51
215.22419498061589
  0
ARC
  5
5810
  8
1
 10
6959.0146881337496
 20
1053.995654853097
 30
0.0
 40
10.0
 50
227.40118710754669
 51
270.0
  0
ARC
  5
5811
  8
1
 10
7007.7486598577962
 20
1106.9956548530961
 30
0.0
 40
71.0
 50
215.22419498061589
 51
227.4637652664733
  0
LINE
  5
5812
  8
1
 10
6971.5486598577954
 20
1043.9956548530961
 30
0.0
 11
6959.7486598577962
 21
1032.1956548530959
 31
0.0
  0
LINE
  5
5813
  8
1
 10
6973.1486598577958
 20
1064.9956548530961
 30
0.0
 11
6974.7486598577952
 21
1064.9956548530961
 31
0.0
  0
LINE
  5
5814
  8
1
 10
6959.7486598577962
 20
1043.9956548530961
 30
0.0
 11
6973.1486598577958
 21
1043.9956548530961
 31
0.0
  0
LINE
  5
5815
  8
1
 10
6959.7486598577962
 20
1043.9956548530961
 30
0.0
 11
6959.0146881337496
 21
1043.9956548530961
 31
0.0
  0
LINE
  5
5816
  8
1
 10
6959.7486598577962
 20
1043.9956548530949
 30
0.0
 11
6959.7486598577962
 21
1054.679309414983
 31
0.0
  0
LINE
  5
5817
  8
CT
 10
6909.1983943386631
 20
1083.1180158376089
 30
0.0
 11
6923.7012326466674
 21
1089.1252881576879
 31
0.0
  0
CIRCLE
  5
5818
  8
1
 10
6916.3754084340344
 20
1086.0908324132561
 30
0.0
 40
4.0
  0
LINE
  5
5819
  8
CT
 10
6853.8710208423072
 20
1138.4453893339651
 30
0.0
 11
6859.8782931623864
 21
1152.9482276419681
 31
0.0
  0
CIRCLE
  5
581A
  8
1
 10
6856.8438374179541
 20
1145.6224034293371
 30
0.0
 40
4.0
  0
LINE
  5
581B
  8
1
 10
6803.7486598577952
 20
1194.9956548530961
 30
0.0
 11
6800.7486598577943
 21
1194.9956548530961
 31
0.0
  0
ARC
  5
581C
  8
1
 10
6800.7486598577971
 20
1029.9956548530961
 30
0.0
 40
165.0
 50
137.16657193393391
 51
172.0390952626384
  0
LINE
  5
581D
  8
1
 10
6764.7486598577943
 20
1168.9956548530949
 30
0.0
 11
6679.7486598577952
 21
1097.695654853095
 31
0.0
  0
ARC
  5
581E
  8
1
 10
6800.7486598577971
 20
1029.9956548530961
 30
0.0
 40
154.0
 50
141.78678929825861
 51
172.0163414440633
  0
LINE
  5
581F
  8
CT
 10
6720.2989253769238
 20
1083.118015837608
 30
0.0
 11
6705.7960870689203
 21
1089.125288157687
 31
0.0
  0
CIRCLE
  5
5820
  8
1
 10
6713.1219112815534
 20
1086.0908324132549
 30
0.0
 40
4.0
  0
POINT
  5
5821
  8
1
 10
7417.0803312348471
 20
1104.0342853677121
 30
0.0
  0
LINE
  5
5822
  8
CT
 10
6775.6262988732797
 20
1138.4453893339651
 30
0.0
 11
6769.6190265532014
 21
1152.9482276419681
 31
0.0
  0
DIMENSION
  5
5823
  8
SP
  2
*D14
 10
7794.0803312348462
 20
1324.9956548530949
 30
0.0
 11
7755.5803312348471
 21
1349.9956548530961
 31
0.0
 70
     0
 13
7717.0803312348462
 23
1288.6106173740809
 33
0.0
 14
7794.0803312348462
 24
1160.995654853097
 34
0.0
  0
DIMENSION
  5
5824
  8
SP
  2
*D12
 10
7787.0803312348462
 20
1254.9956548530961
 30
0.0
 11
7717.0803312348462
 21
1279.9956548530949
 31
0.0
 70
     0
 13
7647.080331234848
 23
1173.9956548530961
 33
0.0
 14
7787.0803312348462
 24
1173.9956548530961
 34
0.0
  0
LINE
  5
5825
  8
1
  6
CONTINUOUS
 10
7788.080331234848
 20
1064.490552280927
 30
0.0
 11
7788.080331234848
 21
1173.9956548530949
 31
0.0
  0
LINE
  5
5826
  8
1
  6
CONTINUOUS
 10
7787.0803312348471
 20
1064.6735802116009
 30
0.0
 11
7787.0803312348471
 21
1173.9956548530949
 31
0.0
  0
LINE
  5
5827
  8
1
  6
CONTINUOUS
 10
7647.080331234848
 20
1173.9956548530949
 30
0.0
 11
7647.080331234848
 21
1064.673580211602
 31
0.0
  0
LINE
  5
5828
  8
1
  6
CONTINUOUS
 10
7646.0803312348471
 20
1173.9956548530949
 30
0.0
 11
7646.0803312348471
 21
1064.4905522809279
 31
0.0
  0
LINE
  5
5829
  8
FUTO
 10
7661.0803312348462
 20
1044.9956548530961
 30
0.0
 11
7773.0803312348471
 21
1044.9956548530961
 31
0.0
  0
LINE
  5
582A
  8
FUTO
 10
7783.080331234848
 20
1064.9956548530949
 30
0.0
 11
7651.0803312348471
 21
1064.9956548530949
 31
0.0
  0
LINE
  5
582B
  8
1
 10
7596.7803312348478
 20
1063.9956548530961
 30
0.0
 11
7640.0803312348471
 21
1110.795654853096
 31
0.0
  0
ARC
  5
582C
  8
FUTO
 10
7651.0803312348462
 20
1039.9956548530961
 30
0.0
 40
25.0
 50
90.0
 51
180.0
  0
ARC
  5
582D
  8
FUTO
 10
7661.0803312348462
 20
1029.9956548530961
 30
0.0
 40
15.0
 50
89.999999999999119
 51
180.00000000000171
  0
LINE
  5
582E
  8
1
 10
7478.9472054337111
 20
1107.2460264095489
 30
0.0
 11
7609.580331234848
 21
1107.2460264095489
 31
0.0
  0
LINE
  5
582F
  8
1
 10
7452.003422243818
 20
1118.9956548530949
 30
0.0
 11
7478.9472054337111
 21
1118.9956548530949
 31
0.0
  0
LINE
  5
5830
  8
1
 10
7609.580331234848
 20
1107.2460264095489
 30
0.0
 11
7609.580331234848
 21
1077.8302968854271
 31
0.0
  0
ARC
  5
5831
  8
FUTO
 10
7783.0803312348462
 20
1039.9956548530961
 30
0.0
 40
25.0
 50
0.0000000000010392
 51
89.999999999998963
  0
ARC
  5
5832
  8
FUTO
 10
7773.0803312348471
 20
1029.9956548530961
 30
0.0
 40
15.0
 50
359.99999999999829
 51
89.999999999999119
  0
LINE
  5
5833
  8
FUTO
 10
7657.080331234848
 20
1183.9956548530949
 30
0.0
 11
7777.080331234848
 21
1183.9956548530949
 31
0.0
  0
LINE
  5
5834
  8
FUTO
 10
7657.080331234848
 20
1184.9956548530949
 30
0.0
 11
7777.080331234848
 21
1184.9956548530949
 31
0.0
  0
ARC
  5
5835
  8
FUTO
 10
7657.0803312348462
 20
1173.9956548530961
 30
0.0
 40
11.0
 50
90.0
 51
180.0
  0
LINE
  5
5836
  8
FUTO
 10
7640.0803312348471
 20
1168.9956548530961
 30
0.0
 11
7638.4803312348477
 21
1168.9956548530961
 31
0.0
  0
ARC
  5
5837
  8
FUTO
 10
7644.0803312348462
 20
1166.995654853097
 30
0.0
 40
3.0
 50
270.0
 51
311.81031489577811
  0
LINE
  5
5838
  8
FUTO
 10
7644.080331234848
 20
1163.9956548530949
 30
0.0
 11
7643.080331234848
 21
1163.9956548530949
 31
0.0
  0
ARC
  5
5839
  8
FUTO
 10
7643.0803312348471
 20
1160.995654853097
 30
0.0
 40
3.0
 50
90.0
 51
180.0
  0
ARC
  5
583A
  8
FUTO
 10
7657.0803312348462
 20
1173.9956548530961
 30
0.0
 40
10.0
 50
90.0
 51
180.0
  0
ARC
  5
583B
  8
FUTO
 10
7777.0803312348462
 20
1173.9956548530961
 30
0.0
 40
11.0
 50
0.0000000000000799
 51
90.000000000000071
  0
LINE
  5
583C
  8
FUTO
 10
7787.0803312348471
 20
1143.9956548530949
 30
0.0
 11
7794.0803312348453
 21
1143.9956548530949
 31
0.0
  0
ARC
  5
583D
  8
1
 10
7790.0803312348462
 20
1166.995654853097
 30
0.0
 40
3.0
 50
228.18968510422189
 51
270.0
  0
LINE
  5
583E
  8
1
 10
7790.0803312348471
 20
1163.9956548530949
 30
0.0
 11
7791.080331234848
 21
1163.9956548530949
 31
0.0
  0
ARC
  5
583F
  8
1
 10
7791.0803312348462
 20
1160.995654853097
 30
0.0
 40
3.0
 50
0.0
 51
90.0
  0
ARC
  5
5840
  8
FUTO
 10
7777.0803312348462
 20
1173.9956548530961
 30
0.0
 40
10.0
 50
0.0000000000000799
 51
90.000000000000071
  0
TEXT
  5
58A1
  8
4
 10
6510.5987121852886
 20
2382.3194785170322
 30
0.0
 40
53.999999999999993
  1
左回転右横向
  0
TEXT
  5
58A4
  8
4
 10
7662.1864521503358
 20
2383.4288423032031
 30
0.0
 40
53.999999999999993
  1
縮尺：1/10
  0
DIMENSION
  5
5904
  8
SP
  2
*D10
 10
6541.0265364196966
 20
1955.8970137353699
 30
0.0
 11
6516.0265364196975
 21
1917.397013735371
 31
0.0
 70
     0
 13
6649.7486598577952
 23
1878.8970137353699
 33
0.0
 14
6624.8912347408777
 24
1955.8970137353699
 34
0.0
 50
90.0
  0
LINE
  5
5905
  8
2
 10
6814.7486598577943
 20
2051.4967459856598
 30
0.0
 11
6814.7486598577943
 21
1631.2226149740379
 31
0.0
  0
LINE
  5
5906
  8
FUTO
 10
6645.7486598577962
 20
2015.8970137353699
 30
0.0
 11
6645.7486598577943
 21
1895.897013735369
 31
0.0
  0
LINE
  5
5907
  8
FUTO
 10
6646.7486598577952
 20
2015.8970137353699
 30
0.0
 11
6646.7486598577952
 21
1895.897013735369
 31
0.0
  0
LINE
  5
5908
  8
1
 10
6973.1486598577958
 20
1864.8970137353699
 30
0.0
 11
6973.1486598577958
 21
2046.8970137353699
 31
0.0
  0
LINE
  5
5909
  8
1
 10
6974.7486598577952
 20
1864.8970137353699
 30
0.0
 11
6974.7486598577952
 21
2046.8970137353699
 31
0.0
  0
LINE
  5
590A
  8
1
  6
CONTINUOUS
 10
6956.7845135687821
 20
2011.897013735369
 30
0.0
 11
6956.7845135687821
 21
1899.897013735369
 31
0.0
  0
DIMENSION
  5
590B
  8
SP
  2
*D11
 10
6639.7486598577943
 20
1580.0699239356941
 30
0.0
 11
6809.7486598577943
 21
1605.0699239356941
 31
0.0
 70
     0
 13
6979.7486598577943
 23
1708.897013735369
 33
0.0
 14
6639.7486598577943
 24
1708.897013735369
 34
0.0
 50
180.0
  0
LINE
  5
590C
  8
FUTO
 10
6679.7486598577952
 20
1878.8970137353699
 30
0.0
 11
6679.7486598577952
 21
1702.997013735371
 31
0.0
  0
LINE
  5
590D
  8
1
 10
6739.7486598577943
 20
1690.8201047443411
 30
0.0
 11
6739.7486598577943
 21
1717.7638879342351
 31
0.0
  0
LINE
  5
590E
  8
1
 10
6884.1368288191006
 20
1717.7638879342351
 30
0.0
 11
6884.1368288191006
 21
1690.8201047443411
 31
0.0
  0
LINE
  5
590F
  8
FUTO
 10
6949.7486598577952
 20
1878.8970137353699
 30
0.0
 11
6949.7486598577952
 21
1702.997013735371
 31
0.0
  0
LINE
  5
5910
  8
1
 10
6739.7486598577943
 20
1690.8201047443411
 30
0.0
 11
6884.1368288191006
 21
1690.8201047443411
 31
0.0
  0
LINE
  5
5911
  8
1
 10
6754.7100293431777
 20
1655.8970137353699
 30
0.0
 11
6874.787290372411
 21
1655.8970137353699
 31
0.0
  0
LINE
  5
5912
  8
FUTO
 10
6949.7486598577952
 20
1702.997013735371
 30
0.0
 11
6884.1368288191006
 21
1702.997013735371
 31
0.0
  0
LINE
  5
5913
  8
1
 10
6874.787290372411
 20
1655.8970137353699
 30
0.0
 11
6881.2529829720852
 21
1690.8201047443411
 31
0.0
  0
POINT
  5
5914
  8
1
 10
6754.7100293431777
 20
1655.8970137353699
 30
0.0
  0
LINE
  5
5915
  8
1
 10
6754.7100293431777
 20
1655.8970137353699
 30
0.0
 11
6743.3950672937481
 21
1690.8201047443411
 31
0.0
  0
LINE
  5
5916
  8
FUTO
 10
6679.7486598577952
 20
1702.997013735371
 30
0.0
 11
6739.7486598577943
 21
1702.997013735371
 31
0.0
  0
LINE
  5
5917
  8
FUTO
 10
6949.7486598577952
 20
1878.8970137353699
 30
0.0
 11
6679.7486598577952
 21
1878.8970137353699
 31
0.0
  0
LINE
  5
5918
  8
1
 10
6751.4982883013408
 20
1848.3970137353699
 30
0.0
 11
6877.9990314142487
 21
1848.3970137353699
 31
0.0
  0
LINE
  5
5919
  8
2
 10
6731.0413604592341
 20
1776.8970137353699
 30
0.0
 11
6898.4559592563537
 21
1776.8970137353699
 31
0.0
  0
LINE
  5
591A
  8
1
 10
6739.7486598577943
 20
1717.7638879342351
 30
0.0
 11
6884.1368288191006
 21
1717.7638879342351
 31
0.0
  0
LINE
  5
591B
  8
1
  6
CONTINUOUS
 10
6974.7486598577952
 20
1884.897013735369
 30
0.0
 11
6656.7486598577962
 21
1884.897013735369
 31
0.0
  0
LINE
  5
591C
  8
1
  6
CONTINUOUS
 10
6974.7486598577952
 20
1885.8970137353699
 30
0.0
 11
6656.7486598577943
 21
1885.8970137353699
 31
0.0
  0
LINE
  5
591D
  8
1
 10
6877.9990314142487
 20
1717.7638879342351
 30
0.0
 11
6877.9990314142487
 21
1848.3970137353699
 31
0.0
  0
LINE
  5
591E
  8
FUTO
 10
6979.7486598577943
 20
1878.8970137353699
 30
0.0
 11
6979.7486598577943
 21
1708.897013735369
 31
0.0
  0
LINE
  5
591F
  8
FUTO
 10
6949.7486598577952
 20
1708.897013735369
 30
0.0
 11
6979.7486598577943
 21
1708.897013735369
 31
0.0
  0
CIRCLE
  5
5920
  8
FUTO
 10
6966.7486598577952
 20
1728.8970137353699
 30
0.0
 40
6.0
  0
LINE
  5
5921
  8
CT
 10
6956.8538840095362
 20
1728.8970137353699
 30
0.0
 11
6976.6434357060562
 21
1728.8970137353699
 31
0.0
  0
LINE
  5
5922
  8
CT
 10
6966.7486598577952
 20
1738.7917895836299
 30
0.0
 11
6966.7486598577952
 21
1719.0022378871099
 31
0.0
  0
ARC
  5
5923
  8
1
 10
6931.7486598577952
 20
1881.8970137353699
 30
0.0
 40
3.0
 50
270.0
 51
0.000000000000007
  0
LINE
  5
5924
  8
FUTO
 10
6794.7486598577952
 20
1878.8970137353699
 30
0.0
 11
6794.7486598577952
 21
1866.897013735369
 31
0.0
  0
LINE
  5
5925
  8
FUTO
 10
6834.7486598577962
 20
1878.8970137353699
 30
0.0
 11
6834.7486598577962
 21
1866.897013735369
 31
0.0
  0
LINE
  5
5926
  8
1
  6
CONTINUOUS
 10
6877.9990314142478
 20
1837.8970137353699
 30
0.0
 11
6947.7486598577934
 21
1837.8970137353699
 31
0.0
  0
LINE
  5
5927
  8
CT
 10
6966.7486598577952
 20
1868.7917895836299
 30
0.0
 11
6966.7486598577952
 21
1849.0022378871099
 31
0.0
  0
LINE
  5
5928
  8
CT
 10
6956.8538840095362
 20
1858.897013735369
 30
0.0
 11
6976.6434357060562
 21
1858.897013735369
 31
0.0
  0
CIRCLE
  5
5929
  8
FUTO
 10
6966.7486598577952
 20
1858.897013735369
 30
0.0
 40
6.0
  0
LINE
  5
592A
  8
2
 10
6973.1486598577958
 20
1864.8970137353699
 30
0.0
 11
6974.7486598577952
 21
1864.8970137353699
 31
0.0
  0
LINE
  5
592B
  8
1
 10
6803.3340397680522
 20
1848.3970137353699
 30
0.0
 11
6803.3340397680522
 21
1853.397013735369
 31
0.0
  0
LINE
  5
592C
  8
1
 10
6805.7486598577943
 20
1853.397013735369
 30
0.0
 11
6805.7486598577943
 21
1866.897013735369
 31
0.0
  0
LINE
  5
592D
  8
1
 10
6803.3340397680522
 20
1853.397013735369
 30
0.0
 11
6826.1632799475401
 21
1853.397013735369
 31
0.0
  0
LINE
  5
592E
  8
FUTO
 10
6794.7486598577943
 20
1866.897013735369
 30
0.0
 11
6834.7486598577943
 21
1866.8970137353699
 31
0.0
  0
LINE
  5
592F
  8
1
 10
6826.1632799475401
 20
1848.3970137353699
 30
0.0
 11
6826.1632799475401
 21
1853.397013735369
 31
0.0
  0
LINE
  5
5930
  8
1
 10
6823.7486598577952
 20
1853.397013735369
 30
0.0
 11
6823.7486598577952
 21
1866.897013735369
 31
0.0
  0
LINE
  5
5931
  8
1
 10
6934.7486598577943
 20
1882.897013735369
 30
0.0
 11
6934.7486598577943
 21
1881.8970137353699
 31
0.0
  0
ARC
  5
5932
  8
1
 10
6937.7486598577952
 20
1882.897013735369
 30
0.0
 40
3.0
 50
138.18968510422181
 51
180.0
  0
LINE
  5
5933
  8
FUTO
 10
6949.7486598577952
 20
1878.8970137353699
 30
0.0
 11
6979.7486598577943
 21
1878.8970137353699
 31
0.0
  0
LINE
  5
5934
  8
1
  6
CONTINUOUS
 10
6971.7845135687812
 20
1884.897013735369
 30
0.0
 11
6956.7845135687821
 21
1899.897013735369
 31
0.0
  0
DIMENSION
  5
5935
  8
SP
  2
*D9
 10
6541.0265364196966
 20
1708.897013735369
 30
0.0
 11
6516.0265364196975
 21
1793.897013735371
 31
0.0
 70
     0
 13
6649.7486598577952
 23
1878.8970137353699
 33
0.0
 14
6649.7486598577952
 24
1708.897013735369
 34
0.0
 50
90.0
  0
LINE
  5
5936
  8
FUTO
 10
6649.7486598577952
 20
1878.8970137353699
 30
0.0
 11
6649.7486598577952
 21
1708.897013735369
 31
0.0
  0
LINE
  5
5937
  8
1
 10
6751.4982883013408
 20
1717.7638879342351
 30
0.0
 11
6751.4982883013408
 21
1848.3970137353699
 31
0.0
  0
LINE
  5
5938
  8
FUTO
 10
6679.7486598577952
 20
1708.897013735369
 30
0.0
 11
6649.7486598577952
 21
1708.897013735369
 31
0.0
  0
LINE
  5
5939
  8
CT
 10
6662.7486598577943
 20
1738.7917895836299
 30
0.0
 11
6662.7486598577943
 21
1719.0022378871099
 31
0.0
  0
LINE
  5
593A
  8
CT
 10
6672.6434357060562
 20
1728.8970137353699
 30
0.0
 11
6652.8538840095352
 21
1728.8970137353699
 31
0.0
  0
CIRCLE
  5
593B
  8
FUTO
 10
6662.7486598577943
 20
1728.8970137353699
 30
0.0
 40
6.0
  0
ARC
  5
593C
  8
1
 10
6697.7486598577934
 20
1881.8970137353699
 30
0.0
 40
3.0
 50
180.0
 51
270.0
  0
CIRCLE
  5
593D
  8
FUTO
 10
6662.7486598577943
 20
1858.897013735369
 30
0.0
 40
6.0
  0
LINE
  5
593E
  8
CT
 10
6672.6434357060562
 20
1858.897013735369
 30
0.0
 11
6652.8538840095352
 21
1858.897013735369
 31
0.0
  0
LINE
  5
593F
  8
CT
 10
6662.7486598577943
 20
1868.7917895836299
 30
0.0
 11
6662.7486598577943
 21
1849.0022378871099
 31
0.0
  0
LINE
  5
5940
  8
1
  6
CONTINUOUS
 10
6679.7486598577952
 20
1837.8970137353699
 30
0.0
 11
6751.4982883013408
 21
1837.8970137353699
 31
0.0
  0
LINE
  5
5941
  8
FUTO
 10
6679.7486598577952
 20
1878.8970137353699
 30
0.0
 11
6649.7486598577952
 21
1878.8970137353699
 31
0.0
  0
ARC
  5
5942
  8
1
 10
6691.7486598577934
 20
1882.897013735369
 30
0.0
 40
3.0
 50
0.000000000000007
 51
41.810314895778113
  0
LINE
  5
5943
  8
1
 10
6694.7486598577934
 20
1882.897013735369
 30
0.0
 11
6694.7486598577934
 21
1881.8970137353699
 31
0.0
  0
ARC
  5
5944
  8
FUTO
 10
6656.7486598577943
 20
1895.897013735369
 30
0.0
 40
10.0
 50
180.0
 51
270.0
  0
ARC
  5
5945
  8
FUTO
 10
6656.7486598577962
 20
1895.897013735369
 30
0.0
 40
11.0
 50
180.0
 51
270.0
  0
LINE
  5
5946
  8
2
 10
6624.8912347408777
 20
1955.8970137353699
 30
0.0
 11
7002.0493007353361
 21
1955.8970137353699
 31
0.0
  0
LINE
  5
5947
  8
FUTO
 10
6931.7486598577952
 20
2032.897013735369
 30
0.0
 11
6697.7486598577934
 21
2032.897013735369
 31
0.0
  0
LINE
  5
5948
  8
1
  6
CONTINUOUS
 10
6973.1486598577958
 20
2026.8970137353699
 30
0.0
 11
6656.7486598577962
 21
2026.8970137353699
 31
0.0
  0
LINE
  5
5949
  8
1
  6
CONTINUOUS
 10
6973.1486598577958
 20
2025.8970137353699
 30
0.0
 11
6656.7486598577943
 21
2025.8970137353699
 31
0.0
  0
ARC
  5
594A
  8
1
 10
6937.7486598577952
 20
2028.8970137353699
 30
0.0
 40
3.0
 50
180.0
 51
221.81031489577811
  0
LINE
  5
594B
  8
1
 10
6934.7486598577943
 20
2028.8970137353699
 30
0.0
 11
6934.7486598577943
 21
2029.897013735369
 31
0.0
  0
ARC
  5
594C
  8
1
 10
6931.7486598577952
 20
2029.897013735369
 30
0.0
 40
3.0
 50
0.000000000000007
 51
89.999999999999986
  0
LINE
  5
594D
  8
2
 10
6973.1486598577958
 20
2046.8970137353699
 30
0.0
 11
6974.7486598577952
 21
2046.897013735371
 31
0.0
  0
LINE
  5
594E
  8
1
  6
CONTINUOUS
 10
6971.7845135687812
 20
2026.8970137353699
 30
0.0
 11
6956.7845135687821
 21
2011.897013735369
 31
0.0
  0
LINE
  5
594F
  8
1
 10
6694.7486598577934
 20
2028.8970137353699
 30
0.0
 11
6694.7486598577934
 21
2029.897013735369
 31
0.0
  0
ARC
  5
5950
  8
1
 10
6691.7486598577934
 20
2028.8970137353699
 30
0.0
 40
3.0
 50
318.18968510422178
 51
0.000000000000007
  0
ARC
  5
5951
  8
1
 10
6697.7486598577934
 20
2029.897013735369
 30
0.0
 40
3.0
 50
89.999999999999986
 51
180.0
  0
ARC
  5
5952
  8
FUTO
 10
6656.7486598577962
 20
2015.8970137353699
 30
0.0
 40
11.0
 50
90.0
 51
180.0
  0
ARC
  5
5953
  8
FUTO
 10
6656.7486598577943
 20
2015.8970137353699
 30
0.0
 40
10.0
 50
90.0
 51
180.0
  0
LINE
  5
5954
  8
4
 10
6208.32856416303
 20
2950.0000009706878
 30
0.0
 11
8308.32856416303
 21
2950.0000009706878
 31
0.0
  0
LINE
  5
5960
  8
4
 10
6458.3285641630291
 20
2469.4087552354931
 30
0.0
 11
8058.32856416303
 21
2469.4087552354931
 31
0.0
  0
LINE
  5
5961
  8
4
 10
6458.3285641630291
 20
2669.4087552354931
 30
0.0
 11
8058.32856416303
 21
2669.4087552354931
 31
0.0
  0
TEXT
  5
5962
  8
4
 10
6711.1285641630302
 20
2533.4087552354931
 30
0.0
 40
72.0
  1
遠心式片吸込片持多翼ファン
 72
     4
 11
7258.3285641630291
 21
2569.4087552354931
 31
0.0
  0
LINE
  5
5963
  8
4
 10
6458.3285641630291
 20
2669.4087552354931
 30
0.0
 11
6458.3285641630291
 21
2469.4087552354931
 31
0.0
  0
LINE
  5
5964
  8
4
 10
8058.32856416303
 20
2669.4087552354931
 30
0.0
 11
8058.32856416303
 21
2469.4087552354931
 31
0.0
  0
LINE
  5
5965
  8
4
 10
7648.9459865228946
 20
2786.6522625204411
 30
0.0
 11
8058.32856416303
 21
2786.6522625204411
 31
0.0
  0
LINE
  5
5966
  8
4
 10
8058.32856416303
 20
2681.2635840960888
 30
0.0
 11
7648.9459865228946
 21
2681.2635840960888
 31
0.0
  0
TEXT
  5
5967
  8
4
 10
7677.2981234123199
 20
2706.0610824659971
 30
0.0
 40
56.000000000000007
  1
No.
  0
LINE
  5
5968
  8
4
 10
7648.9459865228946
 20
2681.2635840960888
 30
0.0
 11
7648.9459865228946
 21
2786.6522625204411
 31
0.0
  0
LINE
  5
5969
  8
4
 10
8058.32856416303
 20
2786.6522625204411
 30
0.0
 11
8058.32856416303
 21
2681.2635840960888
 31
0.0
  0
LINE
  5
596A
  8
4
 10
8308.32856416303
 20
2950.0000009706878
 30
0.0
 11
8308.32856416303
 21
2950.0000009706878
 31
0.0
  0
TEXT
  5
5F43
  8
4
 10
7022.4755581111112
 20
2383.4288423032031
 30
0.0
 40
53.999999999999993
  1
床置防振ベッド型
  0
LINE
  5
6341
  8
1
 10
6649.7486598577952
 20
724.2956548530949
 30
0.0
 11
6677.4486598577942
 21
724.2956548530949
 31
0.0
  0
LINE
  5
6342
  8
1
 10
6649.7486598577952
 20
779.69565485309499
 30
0.0
 11
6677.4486598577951
 21
779.69565485309511
 31
0.0
  0
LINE
  5
6343
  8
1
 10
6649.7486598577952
 20
721.99565485309495
 30
0.0
 11
6679.7486598577952
 21
721.99565485309506
 31
0.0
  0
LINE
  5
6344
  8
1
 10
6649.7486598577952
 20
781.99565485309495
 30
0.0
 11
6679.7486598577952
 21
781.99565485309495
 31
0.0
  0
DIMENSION
  5
6345
  8
SP
  2
*D16
 10
6649.7486598577952
 20
651.9956548530954
 30
0.0
 11
6732.2486598577943
 21
676.9956548530954
 31
0.0
 70
     0
 13
6814.7486598577943
 23
701.08733075560588
 33
0.0
 14
6649.7486598577952
 24
721.99565485309495
 34
0.0
  0
DIMENSION
  5
6346
  8
SP
  2
*D17
 10
6979.7486598577962
 20
581.99565485309495
 30
0.0
 11
6814.7486598577952
 21
606.99565485309495
 31
0.0
 70
     0
 13
6649.7486598577952
 23
721.99565485309495
 33
0.0
 14
6979.7486598577962
 24
721.99565485309529
 34
0.0
  0
LINE
  5
6347
  8
1
 10
6649.7486598577952
 20
724.2956548530949
 30
0.0
 11
6649.7486598577952
 21
721.99565485309495
 31
0.0
  0
LINE
  5
6348
  8
1
 10
6649.7486598577952
 20
781.99565485309495
 30
0.0
 11
6649.7486598577952
 21
779.69565485309511
 31
0.0
  0
DIMENSION
  5
6349
  8
SP
  2
*D18
 10
6979.7486598577962
 20
651.9956548530954
 30
0.0
 11
6897.2486598577962
 21
676.9956548530954
 31
0.0
 70
     0
 13
6814.7486598577943
 23
701.08733075560588
 33
0.0
 14
6979.7486598577962
 24
721.99565485309529
 34
0.0
  0
LINE
  5
634A
  8
FUTO
 10
6679.7486598577952
 20
741.99565485309495
 30
0.0
 11
6949.7486598577962
 21
741.99565485309495
 31
0.0
  0
LINE
  5
634B
  8
FUTO
 10
6679.7486598577952
 20
781.99565485309495
 30
0.0
 11
6949.7486598577962
 21
781.99565485309495
 31
0.0
  0
LINE
  5
634C
  8
1
 10
6677.4486598577951
 20
779.69565485309511
 30
0.0
 11
6677.4486598577942
 21
724.2956548530949
 31
0.0
  0
LINE
  5
634D
  8
1
 10
6679.7486598577952
 20
781.99565485309495
 30
0.0
 11
6679.7486598577952
 21
721.99565485309495
 31
0.0
  0
LINE
  5
634E
  8
1
 10
6949.7486598577962
 20
781.99565485309495
 30
0.0
 11
6949.7486598577962
 21
721.99565485309495
 31
0.0
  0
LINE
  5
634F
  8
1
 10
6952.0486598577963
 20
779.69565485309511
 30
0.0
 11
6952.0486598577963
 21
724.2956548530949
 31
0.0
  0
LINE
  5
6350
  8
1
 10
6979.7486598577943
 20
724.2956548530949
 30
0.0
 11
6979.7486598577962
 21
721.99565485309495
 31
0.0
  0
LINE
  5
6351
  8
1
 10
6979.7486598577962
 20
721.99565485309495
 30
0.0
 11
6949.7486598577962
 21
721.99565485309506
 31
0.0
  0
LINE
  5
6352
  8
1
 10
6979.7486598577962
 20
724.2956548530949
 30
0.0
 11
6952.0486598577963
 21
724.2956548530949
 31
0.0
  0
LINE
  5
6353
  8
1
 10
6979.7486598577962
 20
781.99565485309495
 30
0.0
 11
6979.7486598577962
 21
779.69565485309511
 31
0.0
  0
LINE
  5
6354
  8
1
 10
6979.7486598577962
 20
781.99565485309495
 30
0.0
 11
6949.7486598577962
 21
781.99565485309495
 31
0.0
  0
LINE
  5
6355
  8
1
 10
6979.7486598577962
 20
779.69565485309499
 30
0.0
 11
6952.0486598577963
 21
779.69565485309511
 31
0.0
  0
LINE
  5
6356
  8
2
 10
6964.7486598577971
 20
815.97682377140382
 30
0.0
 11
6964.7486598577943
 21
771.30690476956738
 31
0.0
  0
LINE
  5
6357
  8
2
 10
6664.7486598577962
 20
815.97682377140382
 30
0.0
 11
6664.7486598577962
 21
768.20417841581661
 31
0.0
  0
DIMENSION
  5
6358
  8
SP
  2
*D19
 10
7470.080331234848
 20
651.99565485309506
 30
0.0
 11
7555.0803312348471
 21
676.99565485309506
 31
0.0
 70
     0
 13
7640.0803312348471
 23
721.99565485309517
 33
0.0
 14
7470.080331234848
 24
721.99565485309517
 34
0.0
  0
LINE
  5
6359
  8
FUTO
 10
7640.080331234848
 20
781.99565485309506
 30
0.0
 11
7640.080331234848
 21
721.99565485309517
 31
0.0
  0
LINE
  5
635A
  8
FUTO
 10
7470.080331234848
 20
781.99565485309506
 30
0.0
 11
7470.080331234848
 21
721.99565485309517
 31
0.0
  0
LINE
  5
635B
  8
1
 10
7640.080331234848
 20
724.2956548530949
 30
0.0
 11
7470.080331234848
 21
724.29565485309513
 31
0.0
  0
LINE
  5
635C
  8
1
 10
7640.080331234848
 20
721.99565485309506
 30
0.0
 11
7470.080331234848
 21
721.99565485309517
 31
0.0
  0
LINE
  5
635D
  8
1
 10
7640.080331234848
 20
779.69565485309511
 30
0.0
 11
7470.080331234848
 21
779.69565485309511
 31
0.0
  0
LINE
  5
635E
  8
1
 10
7640.080331234848
 20
781.99565485309495
 30
0.0
 11
7470.080331234848
 21
781.99565485309506
 31
0.0
  0
DIMENSION
  5
635F
  8
SP
  2
*D20
 10
7717.0803312348462
 20
651.99565485309506
 30
0.0
 11
7678.5803312348471
 21
676.99565485309506
 31
0.0
 70
     0
 13
7640.080331234848
 23
721.99565485309517
 33
0.0
 14
7717.0803312348462
 24
809.34923532875098
 34
0.0
  0
DIMENSION
  5
6614
  8
SP
  2
*D21
 10
7114.7486598577943
 20
781.99565485309495
 30
0.0
 11
7151.372973473709
 21
783.0542009545519
 31
0.0
 70
   128
 13
6979.7486598577943
 23
803.99565485309483
 33
0.0
 14
6979.7486598577962
 24
781.99565485309495
 34
0.0
 50
90.0
1001
ACAD
1000
DSTYLE
1002
{
1070
   287
1070
     5
1070
   279
1070
     2
1070
     3
1000
（<>）
1070
     6
1000
NONE
1070
     7
1000
NONE
1002
}
  0
DIMENSION
  5
6615
  8
SP
  2
*D22
 10
7114.7486598577971
 20
721.99565485309495
 30
0.0
 11
7089.7486598577971
 21
636.45902007164204
 31
0.0
 70
     0
 13
6979.7486598577962
 23
781.99565485309495
 33
0.0
 14
6979.7486598577962
 24
721.99565485309495
 34
0.0
 50
90.0
1001
ACAD
1000
DSTYLE
1002
{
1070
     6
1000
DOT
1002
}
  0
ENDSEC
  0
EOF
