  0
SECTION
  2
HEADER
  9
$ACADVER
  1
AC1009
  9
$INSBASE
 10
0.0
 20
0.0
 30
0.0
  9
$EXTMIN
 10
1281.9192336154081
 20
0.0000009706889159
 30
0.0
  9
$EXTMAX
 10
3381.9192336154078
 20
2950.0000009706891
 30
0.0
  9
$LIMMIN
 10
0.0
 20
0.0
  9
$LIMMAX
 10
297.0
 20
210.0
  9
$ORTHOMODE
 70
     0
  9
$REGENMODE
 70
     1
  9
$FILLMODE
 70
     1
  9
$QTEXTMODE
 70
     0
  9
$MIRRTEXT
 70
     0
  9
$DRAGMODE
 70
     2
  9
$LTSCALE
 40
50.0
  9
$OSMODE
 70
   545
  9
$ATTMODE
 70
     1
  9
$TEXTSIZE
 40
3.5
  9
$TRACEWID
 40
0.05
  9
$TEXTSTYLE
  7
STANDARD
  9
$CLAYER
  8
SP
  9
$CELTYPE
  6
BYLAYER
  9
$CECOLOR
 62
   256
  9
$DIMSCALE
 40
10.0
  9
$DIMASZ
 40
2.5
  9
$DIMEXO
 40
1.0
  9
$DIMDLI
 40
7.0
  9
$DIMRND
 40
0.0
  9
$DIMDLE
 40
0.0
  9
$DIMEXE
 40
1.0
  9
$DIMTP
 40
0.0
  9
$DIMTM
 40
0.0
  9
$DIMTXT
 40
3.0
  9
$DIMCEN
 40
0.0
  9
$DIMTSZ
 40
0.0
  9
$DIMTOL
 70
     0
  9
$DIMLIM
 70
     0
  9
$DIMTIH
 70
     0
  9
$DIMTOH
 70
     0
  9
$DIMSE1
 70
     0
  9
$DIMSE2
 70
     0
  9
$DIMTAD
 70
     1
  9
$DIMZIN
 70
     8
  9
$DIMBLK
  1

  9
$DIMASO
 70
     1
  9
$DIMSHO
 70
     1
  9
$DIMPOST
  1

  9
$DIMAPOST
  1

  9
$DIMALT
 70
     0
  9
$DIMALTD
 70
     2
  9
$DIMALTF
 40
0.03937
  9
$DIMLFAC
 40
1.0
  9
$DIMTOFL
 70
     1
  9
$DIMTVP
 40
0.0
  9
$DIMTIX
 70
     0
  9
$DIMSOXD
 70
     0
  9
$DIMSAH
 70
     1
  9
$DIMBLK1
  1
OPEN
  9
$DIMBLK2
  1
OPEN
  9
$DIMSTYLE
  2
GOD
  9
$DIMCLRD
 70
   256
  9
$DIMCLRE
 70
   256
  9
$DIMCLRT
 70
   256
  9
$DIMTFAC
 40
1.0
  9
$DIMGAP
 40
1.0
  9
$LUNITS
 70
     2
  9
$LUPREC
 70
     3
  9
$SKETCHINC
 40
0.1
  9
$FILLETRAD
 40
0.0
  9
$AUNITS
 70
     0
  9
$AUPREC
 70
     2
  9
$MENU
  1
acad
  9
$ELEVATION
 40
0.0
  9
$PELEVATION
 40
0.0
  9
$THICKNESS
 40
0.0
  9
$LIMCHECK
 70
     0
  9
$BLIPMODE
 70
     0
  9
$CHAMFERA
 40
0.0
  9
$CHAMFERB
 40
0.0
  9
$SKPOLY
 70
     0
  9
$TDCREATE
 40
2454939.5747812148
  9
$TDUPDATE
 40
2454953.8296005088
  9
$TDINDWG
 40
0.0466985648
  9
$TDUSRTIMER
 40
0.0466985648
  9
$USRTIMER
 70
     1
  9
$ANGBASE
 50
0.0
  9
$ANGDIR
 70
     0
  9
$PDMODE
 70
     0
  9
$PDSIZE
 40
1.0
  9
$PLINEWID
 40
0.0
  9
$COORDS
 70
     2
  9
$SPLFRAME
 70
     0
  9
$SPLINETYPE
 70
     6
  9
$SPLINESEGS
 70
     8
  9
$ATTDIA
 70
     0
  9
$ATTREQ
 70
     1
  9
$HANDLING
 70
 22529
  9
$HANDSEED
  5
66B7
  9
$SURFTAB1
 70
     6
  9
$SURFTAB2
 70
     6
  9
$SURFTYPE
 70
     6
  9
$SURFU
 70
     6
  9
$SURFV
 70
     6
  9
$UCSNAME
  2

  9
$UCSORG
 10
0.0
 20
0.0
 30
0.0
  9
$UCSXDIR
 10
1.0
 20
0.0
 30
0.0
  9
$UCSYDIR
 10
0.0
 20
1.0
 30
0.0
  9
$PUCSNAME
  2

  9
$PUCSORG
 10
0.0
 20
0.0
 30
0.0
  9
$PUCSXDIR
 10
1.0
 20
0.0
 30
0.0
  9
$PUCSYDIR
 10
0.0
 20
1.0
 30
0.0
  9
$USERI1
 70
     0
  9
$USERI2
 70
     0
  9
$USERI3
 70
     0
  9
$USERI4
 70
     0
  9
$USERI5
 70
     0
  9
$USERR1
 40
0.0
  9
$USERR2
 40
0.0
  9
$USERR3
 40
0.0
  9
$USERR4
 40
0.0
  9
$USERR5
 40
0.0
  9
$WORLDVIEW
 70
     1
  9
$SHADEDGE
 70
     3
  9
$SHADEDIF
 70
    70
  9
$TILEMODE
 70
     1
  9
$MAXACTVP
 70
    16
  9
$PLIMCHECK
 70
     0
  9
$PEXTMIN
 10
1.0000000000000000E+020
 20
1.0000000000000000E+020
 30
1.0000000000000000E+020
  9
$PEXTMAX
 10
-1.0000000000000000E+020
 20
-1.0000000000000000E+020
 30
-1.0000000000000000E+020
  9
$PLIMMIN
 10
0.0
 20
0.0
  9
$PLIMMAX
 10
12.0
 20
9.0
  9
$UNITMODE
 70
     0
  9
$VISRETAIN
 70
     0
  9
$PLINEGEN
 70
     0
  9
$PSLTSCALE
 70
     0
  0
ENDSEC
  0
SECTION
  2
TABLES
  0
TABLE
  2
VPORT
 70
     2
  0
VPORT
  2
*ACTIVE
 70
     0
 10
0.0
 20
0.0
 11
1.0
 21
1.0
 12
2518.9928488840669
 22
1474.9982158939581
 13
0.0
 23
0.0
 14
5.0
 24
5.0
 15
0.0
 25
0.0
 16
0.0
 26
0.0
 36
1.0
 17
0.0
 27
0.0
 37
0.0
 40
2972.814223664936
 41
1.6307901907356941
 42
50.0
 43
0.0
 44
0.0
 50
0.0
 51
0.0
 71
     0
 72
   100
 73
     1
 74
     0
 75
     0
 76
     0
 77
     0
 78
     0
  0
ENDTAB
  0
TABLE
  2
LTYPE
 70
     4
  0
LTYPE
  2
CONTINUOUS
 70
     0
  3
Solid line
 72
    65
 73
     0
 40
0.0
  0
LTYPE
  2
CENTER
 70
     0
  3
____ _ ____ _ ____ _ ____ _ ____ _ ____ _ ____ 
 72
    65
 73
     4
 40
2.0
 49
1.25
 49
-0.25
 49
0.25
 49
-0.25
  0
LTYPE
  2
HIDDEN
 70
     0
  3
__ __ __ __ __ __ __ __ __ __ __ __ __ __ __ __
 72
    65
 73
     2
 40
0.375
 49
0.25
 49
-0.125
  0
LTYPE
  2
PHANTOM
 70
     0
  3
______  __  __  ______  __  __  ______  __  __ 
 72
    65
 73
     6
 40
2.5
 49
1.25
 49
-0.25
 49
0.25
 49
-0.25
 49
0.25
 49
-0.25
  0
ENDTAB
  0
TABLE
  2
LAYER
 70
    13
  0
LAYER
  2
0
 70
     0
 62
     7
  6
CONTINUOUS
  0
LAYER
  2
CT
 70
     0
 62
     3
  6
CENTER
  0
LAYER
  2
FUTO
 70
     0
 62
     4
  6
CONTINUOUS
  0
LAYER
  2
HOSO
 70
     0
 62
     7
  6
CONTINUOUS
  0
LAYER
  2
KL
 70
     0
 62
     7
  6
HIDDEN
  0
LAYER
  2
MOJI
 70
     0
 62
     3
  6
CONTINUOUS
  0
LAYER
  2
SL
 70
     0
 62
     1
  6
PHANTOM
  0
LAYER
  2
SP
 70
     0
 62
     2
  6
CONTINUOUS
  0
LAYER
  2
DEFPOINTS
 70
     0
 62
     7
  6
CONTINUOUS
  0
LAYER
  2
1
 70
     0
 62
     4
  6
CONTINUOUS
  0
LAYER
  2
3
 70
     0
 62
     2
  6
CONTINUOUS
  0
LAYER
  2
2
 70
     0
 62
     3
  6
CENTER
  0
LAYER
  2
4
 70
     0
 62
     7
  6
CONTINUOUS
  0
ENDTAB
  0
TABLE
  2
STYLE
 70
     1
  0
STYLE
  2
STANDARD
 70
     0
 40
0.0
 41
1.0
 50
15.0
 71
     0
 42
3.5
  3
C:\Program Files\AutoCAD LT\simplex.shx
  4
C:\Program Files\AutoCAD LT\extfont.shx
  0
ENDTAB
  0
TABLE
  2
VIEW
 70
     0
  0
ENDTAB
  0
TABLE
  2
UCS
 70
     0
  0
ENDTAB
  0
TABLE
  2
APPID
 70
     1
  0
APPID
  2
ACAD
 70
     0
  0
ENDTAB
  0
TABLE
  2
DIMSTYLE
 70
     3
  0
DIMSTYLE
  2
STANDARD
 70
     0
  3

  4

  5

  6

  7

 40
1.0
 41
0.18
 42
0.0625
 43
0.38
 44
0.18
 45
0.0
 46
0.0
 47
0.0
 48
0.0
140
0.18
141
0.09
142
0.0
143
25.399999999999999
144
1.0
145
0.0
146
1.0
147
0.09
 71
     0
 72
     0
 73
     1
 74
     1
 75
     0
 76
     0
 77
     0
 78
     0
170
     0
171
     2
172
     0
173
     0
174
     0
175
     0
176
     0
177
     0
178
     0
  0
DIMSTYLE
  2
GOD
 70
     0
  3

  4

  5

  6
OPEN
  7
OPEN
 40
10.0
 41
2.5
 42
1.0
 43
7.0
 44
1.0
 45
0.0
 46
0.0
 47
0.0
 48
0.0
140
3.0
141
0.0
142
0.0
143
0.03937
144
1.0
145
0.0
146
1.0
147
1.0
 71
     0
 72
     0
 73
     0
 74
     0
 75
     0
 76
     0
 77
     1
 78
     8
170
     0
171
     2
172
     1
173
     1
174
     0
175
     0
176
   256
177
   256
178
   256
  0
DIMSTYLE
  2
DIA1
 70
     0
  3

  4

  5
ARROW
  6

  7

 40
1.0
 41
2.0
 42
1.0
 43
10.0
 44
1.0
 45
0.0
 46
0.0
 47
0.0
 48
0.0
140
2.5
141
0.0
142
0.0
143
25.399999999999999
144
1.0
145
0.0
146
1.0
147
0.09
 71
     0
 72
     0
 73
     0
 74
     0
 75
     0
 76
     0
 77
     1
 78
     8
170
     0
171
     2
172
     1
173
     0
174
     0
175
     0
176
     2
177
     2
178
     2
  0
ENDTAB
  0
ENDSEC
  0
SECTION
  2
BLOCKS
  0
BLOCK
  8
0
  2
$MODEL_SPACE
 70
     0
 10
0.0
 20
0.0
 30
0.0
  3
$MODEL_SPACE
  1

  0
ENDBLK
  5
1B
  8
0
  0
BLOCK
 67
     1
  8
0
  2
$PAPER_SPACE
 70
     0
 10
0.0
 20
0.0
 30
0.0
  3
$PAPER_SPACE
  1

  0
ENDBLK
  5
18
 67
     1
  8
0
  0
BLOCK
  8
0
  2
_OPEN
 70
     0
 10
0.0
 20
0.0
 30
0.0
  3
_OPEN
  1

  0
LINE
  5
1E81
  8
0
  6
BYBLOCK
 62
     0
 10
-1.0
 20
0.1666666666666666
 30
0.0
 11
0.0
 21
0.0
 31
0.0
  0
LINE
  5
1E82
  8
0
  6
BYBLOCK
 62
     0
 10
0.0
 20
0.0
 30
0.0
 11
-1.0
 21
-0.1666666666666666
 31
0.0
  0
LINE
  5
1E83
  8
0
  6
BYBLOCK
 62
     0
 10
0.0
 20
0.0
 30
0.0
 11
-1.0
 21
0.0
 31
0.0
  0
ENDBLK
  5
1E84
  8
0
  0
BLOCK
  8
0
  2
_DOT
 70
     0
 10
0.0
 20
0.0
 30
0.0
  3
_DOT
  1

  0
LINE
  5
1EC3
  8
0
  6
BYBLOCK
 62
     0
 10
0.0
 20
0.0
 30
0.0
 11
-1.0
 21
-0.0000000000000284
 31
0.0
  0
POLYLINE
  5
1EC4
  8
0
  6
BYBLOCK
 62
     0
 66
     1
 10
0.0
 20
0.0
 30
0.0
 70
     1
 40
0.1666666666666666
 41
0.1666666666666666
  0
VERTEX
  5
669B
  8
0
  6
BYBLOCK
 62
     0
 10
-0.0833333333333286
 20
-0.0000000000000284
 30
0.0
 42
1.0
  0
VERTEX
  5
669C
  8
0
  6
BYBLOCK
 62
     0
 10
0.0833333333333286
 20
-0.0000000000000284
 30
0.0
 42
1.0
  0
SEQEND
  5
669D
  8
0
  6
BYBLOCK
 62
     0
  0
ENDBLK
  5
1EB8
  8
0
  0
BLOCK
  8
0
  2
ARROW
 70
     0
 10
0.0
 20
0.0
 30
0.0
  3
ARROW
  1

  0
LINE
  5
1EEF
  8
0
 10
-0.9999999999999991
 20
0.1666666667000003
 30
0.0
 11
0.0
 21
0.0
 31
0.0
  0
LINE
  5
1EF0
  8
0
 10
-0.9999999999999991
 20
0.0
 30
0.0
 11
0.0
 21
0.0
 31
0.0
  0
LINE
  5
1EF1
  8
0
 10
-0.9999999999999991
 20
-0.1666666667000003
 30
0.0
 11
0.0
 21
0.0
 31
0.0
  0
ENDBLK
  5
1EF3
  8
0
  0
BLOCK
  8
0
  2
_NONE
 70
     0
 10
0.0
 20
0.0
 30
0.0
  3
_NONE
  1

  0
ENDBLK
  5
1F6F
  8
0
  0
BLOCK
  8
0
  2
*D4
 70
     1
 10
0.0
 20
0.0
 30
0.0
  3
*D4
  1

  0
LINE
  5
5D9D
  8
SP
 10
1702.6737003044859
 20
1043.9956548530961
 30
0.0
 11
1648.3393293101731
 21
1043.9956548530961
 31
0.0
  0
LINE
  5
5D9E
  8
SP
 10
1719.9393293101721
 20
1243.9956548530961
 30
0.0
 11
1648.3393293101731
 21
1243.9956548530961
 31
0.0
  0
LINE
  5
5D9F
  8
SP
 10
1658.3393293101731
 20
1068.9956548530961
 30
0.0
 11
1658.3393293101731
 21
1218.9956548530961
 31
0.0
  0
INSERT
  5
5DA0
  8
SP
  2
_OPEN
 10
1658.3393293101731
 20
1043.9956548530961
 30
0.0
 41
25.0
 42
25.0
 43
25.0
 50
270.0
  0
INSERT
  5
5DA1
  8
SP
  2
_OPEN
 10
1658.3393293101731
 20
1243.9956548530961
 30
0.0
 41
25.0
 42
25.0
 43
25.0
 50
90.0
  0
TEXT
  5
5DA2
  8
SP
 10
1648.3393293101719
 20
1102.8848432307191
 30
0.0
 40
30.0
  1
200
 50
90.0
 51
15.0
  0
POINT
  5
5DA3
  8
DEFPOINTS
 62
     0
 10
1712.6737003044859
 20
1043.9956548530961
 30
0.0
  0
POINT
  5
5DA4
  8
DEFPOINTS
 62
     0
 10
1729.9393293101721
 20
1243.9956548530961
 30
0.0
  0
POINT
  5
5DA5
  8
DEFPOINTS
 62
     0
 10
1658.3393293101731
 20
1243.9956548530961
 30
0.0
  0
ENDBLK
  5
59A6
  8
0
  0
BLOCK
  8
0
  2
*D5
 70
     1
 10
0.0
 20
0.0
 30
0.0
  3
*D5
  1

  0
LINE
  5
5D70
  8
SP
 10
1702.6737003044859
 20
1043.9956548530961
 30
0.0
 11
1648.3393293101731
 21
1043.9956548530961
 31
0.0
  0
LINE
  5
5D71
  8
SP
 10
1713.3393293101719
 20
803.9956548530962
 30
0.0
 11
1648.3393293101731
 21
803.9956548530962
 31
0.0
  0
LINE
  5
5D72
  8
SP
 10
1658.3393293101731
 20
1018.995654853096
 30
0.0
 11
1658.3393293101731
 21
828.9956548530962
 31
0.0
  0
INSERT
  5
5D73
  8
SP
  2
_OPEN
 10
1658.3393293101731
 20
1043.9956548530961
 30
0.0
 41
25.0
 42
25.0
 43
25.0
 50
90.0
  0
INSERT
  5
5D74
  8
SP
  2
_OPEN
 10
1658.3393293101731
 20
803.9956548530962
 30
0.0
 41
25.0
 42
25.0
 43
25.0
 50
270.0
  0
TEXT
  5
5D75
  8
SP
 10
1648.3393293101719
 20
882.88484323071862
 30
0.0
 40
30.0
  1
240
 50
90.0
 51
15.0
  0
POINT
  5
5D76
  8
DEFPOINTS
 62
     0
 10
1712.6737003044859
 20
1043.9956548530961
 30
0.0
  0
POINT
  5
5D77
  8
DEFPOINTS
 62
     0
 10
1723.3393293101719
 20
803.9956548530962
 30
0.0
  0
POINT
  5
5D78
  8
DEFPOINTS
 62
     0
 10
1658.3393293101731
 20
803.9956548530962
 30
0.0
  0
ENDBLK
  5
59B2
  8
0
  0
BLOCK
  8
0
  2
*D6
 70
     1
 10
0.0
 20
0.0
 30
0.0
  3
*D6
  1

  0
LINE
  5
5DA6
  8
SP
 10
1888.339329310174
 20
1279.8082707222729
 30
0.0
 11
1888.339329310174
 21
1334.9956548530961
 31
0.0
  0
LINE
  5
5DA7
  8
SP
 10
1728.3393293101731
 20
1274.9956548530961
 30
0.0
 11
1728.3393293101731
 21
1334.9956548530961
 31
0.0
  0
LINE
  5
5DA8
  8
SP
 10
1863.339329310174
 20
1324.9956548530961
 30
0.0
 11
1753.3393293101731
 21
1324.9956548530961
 31
0.0
  0
INSERT
  5
5DA9
  8
SP
  2
_OPEN
 10
1888.339329310174
 20
1324.9956548530961
 30
0.0
 41
25.0
 42
25.0
 43
25.0
  0
INSERT
  5
5DAA
  8
SP
  2
_OPEN
 10
1728.3393293101731
 20
1324.9956548530961
 30
0.0
 41
25.0
 42
25.0
 43
25.0
 50
180.0
  0
TEXT
  5
5DAB
  8
SP
 10
1766.831991779703
 20
1334.9956548530961
 30
0.0
 40
30.0
  1
160
 51
15.0
  0
POINT
  5
5DAC
  8
DEFPOINTS
 62
     0
 10
1888.339329310174
 20
1269.8082707222729
 30
0.0
  0
POINT
  5
5DAD
  8
DEFPOINTS
 62
     0
 10
1728.3393293101731
 20
1264.9956548530961
 30
0.0
  0
POINT
  5
5DAE
  8
DEFPOINTS
 62
     0
 10
1728.3393293101731
 20
1324.9956548530961
 30
0.0
  0
ENDBLK
  5
59BE
  8
0
  0
BLOCK
  8
0
  2
*D7
 70
     1
 10
0.0
 20
0.0
 30
0.0
  3
*D7
  1

  0
LINE
  5
5D94
  8
SP
 10
1888.339329310174
 20
1279.8082707222729
 30
0.0
 11
1888.339329310174
 21
1334.9956548530949
 31
0.0
  0
LINE
  5
5D95
  8
SP
 10
2056.3393293101722
 20
1069.9956548530961
 30
0.0
 11
2056.3393293101722
 21
1334.9956548530949
 31
0.0
  0
LINE
  5
5D96
  8
SP
 10
1913.339329310174
 20
1324.9956548530949
 30
0.0
 11
2031.3393293101719
 21
1324.9956548530949
 31
0.0
  0
INSERT
  5
5D97
  8
SP
  2
_OPEN
 10
1888.339329310174
 20
1324.9956548530949
 30
0.0
 41
25.0
 42
25.0
 43
25.0
 50
180.0
  0
INSERT
  5
5D98
  8
SP
  2
_OPEN
 10
2056.3393293101722
 20
1324.9956548530949
 30
0.0
 41
25.0
 42
25.0
 43
25.0
  0
TEXT
  5
5D99
  8
SP
 10
1930.640599499395
 20
1334.9956548530949
 30
0.0
 40
30.0
  1
168
 51
15.0
  0
POINT
  5
5D9A
  8
DEFPOINTS
 62
     0
 10
1888.339329310174
 20
1269.8082707222729
 30
0.0
  0
POINT
  5
5D9B
  8
DEFPOINTS
 62
     0
 10
2056.3393293101722
 20
1059.9956548530949
 30
0.0
  0
POINT
  5
5D9C
  8
DEFPOINTS
 62
     0
 10
2056.3393293101722
 20
1324.9956548530949
 30
0.0
  0
ENDBLK
  5
59CA
  8
0
  0
BLOCK
  8
0
  2
*D8
 70
     1
 10
0.0
 20
0.0
 30
0.0
  3
*D8
  1

  0
LINE
  5
5DAF
  8
SP
 10
2063.3393293101731
 20
1878.8970137353699
 30
0.0
 11
2172.0614527482712
 21
1878.8970137353699
 31
0.0
  0
LINE
  5
5DB0
  8
SP
 10
2088.1967544270901
 20
1955.8970137353699
 30
0.0
 11
2172.0614527482712
 21
1955.8970137353699
 31
0.0
  0
LINE
  5
5DB1
  8
SP
 10
2162.0614527482712
 20
1903.8970137353699
 30
0.0
 11
2162.0614527482712
 21
1930.8970137353699
 31
0.0
  0
INSERT
  5
5DB2
  8
SP
  2
_OPEN
 10
2162.0614527482712
 20
1878.8970137353699
 30
0.0
 41
25.0
 42
25.0
 43
25.0
 50
270.0
  0
INSERT
  5
5DB3
  8
SP
  2
_OPEN
 10
2162.0614527482712
 20
1955.8970137353699
 30
0.0
 41
25.0
 42
25.0
 43
25.0
 50
90.0
  0
TEXT
  5
5DB4
  8
SP
 10
2152.0614527482699
 20
1886.2349187060461
 30
0.0
 40
30.0
  1
77
 50
90.0
 51
15.0
  0
POINT
  5
5DB5
  8
DEFPOINTS
 62
     0
 10
2053.3393293101731
 20
1878.8970137353699
 30
0.0
  0
POINT
  5
5DB6
  8
DEFPOINTS
 62
     0
 10
2078.196754427091
 20
1955.8970137353699
 30
0.0
  0
POINT
  5
5DB7
  8
DEFPOINTS
 62
     0
 10
2162.0614527482712
 20
1955.8970137353699
 30
0.0
  0
ENDBLK
  5
5B0E
  8
0
  0
BLOCK
  8
0
  2
*D9
 70
     1
 10
0.0
 20
0.0
 30
0.0
  3
*D9
  1

  0
LINE
  5
5DB8
  8
SP
 10
1723.3393293101731
 20
1698.8970137353699
 30
0.0
 11
1723.3393293101731
 21
1570.0699239356941
 31
0.0
  0
LINE
  5
5DB9
  8
SP
 10
2063.3393293101722
 20
1698.8970137353699
 30
0.0
 11
2063.3393293101722
 21
1570.0699239356941
 31
0.0
  0
LINE
  5
5DBA
  8
SP
 10
1748.3393293101731
 20
1580.0699239356941
 30
0.0
 11
2038.3393293101731
 21
1580.0699239356941
 31
0.0
  0
INSERT
  5
5DBB
  8
SP
  2
_OPEN
 10
1723.3393293101731
 20
1580.0699239356941
 30
0.0
 41
25.0
 42
25.0
 43
25.0
 50
180.0
  0
INSERT
  5
5DBC
  8
SP
  2
_OPEN
 10
2063.3393293101722
 20
1580.0699239356941
 30
0.0
 41
25.0
 42
25.0
 43
25.0
  0
TEXT
  5
5DBD
  8
SP
 10
1851.462948566563
 20
1590.0699239356941
 30
0.0
 40
30.0
  1
340
 51
15.0
  0
POINT
  5
5DBE
  8
DEFPOINTS
 62
     0
 10
1723.3393293101731
 20
1708.897013735369
 30
0.0
  0
POINT
  5
5DBF
  8
DEFPOINTS
 62
     0
 10
2063.3393293101722
 20
1708.897013735369
 30
0.0
  0
POINT
  5
5DC0
  8
DEFPOINTS
 62
     0
 10
2063.3393293101722
 20
1580.0699239356941
 30
0.0
  0
ENDBLK
  5
5B1A
  8
0
  0
BLOCK
  8
0
  2
*D10
 70
     1
 10
0.0
 20
0.0
 30
0.0
  3
*D10
  1

  0
LINE
  5
5DC1
  8
SP
 10
2063.3393293101731
 20
1878.8970137353699
 30
0.0
 11
2172.0614527482712
 21
1878.8970137353699
 31
0.0
  0
LINE
  5
5DC2
  8
SP
 10
2063.3393293101722
 20
1708.897013735369
 30
0.0
 11
2172.0614527482712
 21
1708.897013735369
 31
0.0
  0
LINE
  5
5DC3
  8
SP
 10
2162.0614527482699
 20
1853.8970137353699
 30
0.0
 11
2162.0614527482699
 21
1733.897013735369
 31
0.0
  0
INSERT
  5
5DC4
  8
SP
  2
_OPEN
 10
2162.0614527482699
 20
1878.8970137353699
 30
0.0
 41
25.0
 42
25.0
 43
25.0
 50
90.0
  0
INSERT
  5
5DC5
  8
SP
  2
_OPEN
 10
2162.0614527482699
 20
1708.897013735369
 30
0.0
 41
25.0
 42
25.0
 43
25.0
 50
270.0
  0
TEXT
  5
5DC6
  8
SP
 10
2152.0614527482699
 20
1752.3896762049001
 30
0.0
 40
30.0
  1
170
 50
90.0
 51
15.0
  0
POINT
  5
5DC7
  8
DEFPOINTS
 62
     0
 10
2053.3393293101731
 20
1878.8970137353699
 30
0.0
  0
POINT
  5
5DC8
  8
DEFPOINTS
 62
     0
 10
2053.3393293101731
 20
1708.897013735369
 30
0.0
  0
POINT
  5
5DC9
  8
DEFPOINTS
 62
     0
 10
2162.0614527482699
 20
1708.897013735369
 30
0.0
  0
ENDBLK
  5
5B26
  8
0
  0
BLOCK
  8
0
  2
*D11
 70
     1
 10
0.0
 20
0.0
 30
0.0
  3
*D11
  1

  0
LINE
  5
5EA3
  8
SP
 10
2762.8822125799629
 20
1254.9956548530961
 30
0.0
 11
2762.8822125799629
 21
1344.9956548530961
 31
0.0
  0
LINE
  5
5EA4
  8
SP
 10
2902.8822125799638
 20
1254.9956548530961
 30
0.0
 11
2902.8822125799638
 21
1344.9956548530961
 31
0.0
  0
LINE
  5
5EA5
  8
SP
 10
2787.8822125799629
 20
1334.9956548530949
 30
0.0
 11
2877.8822125799629
 21
1334.9956548530949
 31
0.0
  0
INSERT
  5
5EA6
  8
SP
  2
_OPEN
 10
2762.8822125799629
 20
1334.9956548530949
 30
0.0
 41
25.0
 42
25.0
 43
25.0
 50
180.0
  0
INSERT
  5
5EA7
  8
SP
  2
_OPEN
 10
2902.8822125799638
 20
1334.9956548530949
 30
0.0
 41
25.0
 42
25.0
 43
25.0
  0
TEXT
  5
5EA8
  8
SP
 10
2791.3748750494929
 20
1344.9956548530961
 30
0.0
 40
30.0
  1
140
 51
15.0
  0
POINT
  5
5EA9
  8
DEFPOINTS
 62
     0
 10
2762.8822125799629
 20
1244.9956548530961
 30
0.0
  0
POINT
  5
5EAA
  8
DEFPOINTS
 62
     0
 10
2902.8822125799638
 20
1244.9956548530961
 30
0.0
  0
POINT
  5
5EAB
  8
DEFPOINTS
 62
     0
 10
2902.8822125799638
 20
1334.9956548530949
 30
0.0
  0
ENDBLK
  5
5B62
  8
0
  0
BLOCK
  8
0
  2
*D12
 70
     1
 10
0.0
 20
0.0
 30
0.0
  3
*D12
  1

  0
LINE
  5
5D31
  8
SP
 10
2832.8822125799629
 20
1384.9956548530949
 30
0.0
 11
2832.8822125799629
 21
1414.9956548530949
 31
0.0
  0
LINE
  5
5D32
  8
SP
 10
2909.882212579962
 20
1170.9956548530949
 30
0.0
 11
2909.882212579962
 21
1414.9956548530949
 31
0.0
  0
LINE
  5
5D33
  8
SP
 10
2857.8822125799629
 20
1404.9956548530949
 30
0.0
 11
2884.882212579962
 21
1404.9956548530949
 31
0.0
  0
INSERT
  5
5D34
  8
SP
  2
_OPEN
 10
2832.8822125799629
 20
1404.9956548530949
 30
0.0
 41
25.0
 42
25.0
 43
25.0
 50
180.0
  0
INSERT
  5
5D35
  8
SP
  2
_OPEN
 10
2909.882212579962
 20
1404.9956548530949
 30
0.0
 41
25.0
 42
25.0
 43
25.0
  0
TEXT
  5
5D36
  8
SP
 10
2840.220117550638
 20
1414.9956548530949
 30
0.0
 40
30.0
  1
77
 51
15.0
  0
POINT
  5
5D37
  8
DEFPOINTS
 62
     0
 10
2832.8822125799629
 20
1374.9956548530949
 30
0.0
  0
POINT
  5
5D38
  8
DEFPOINTS
 62
     0
 10
2909.882212579962
 20
1160.995654853094
 30
0.0
  0
POINT
  5
5D39
  8
DEFPOINTS
 62
     0
 10
2909.882212579962
 20
1404.9956548530949
 30
0.0
  0
ENDBLK
  5
5B6E
  8
0
  0
BLOCK
  8
0
  2
*D13
 70
     1
 10
0.0
 20
0.0
 30
0.0
  3
*D13
  1

  0
LINE
  5
5D3A
  8
SP
 10
2832.8822125799629
 20
1384.9956548530949
 30
0.0
 11
2832.8822125799629
 21
1414.9956548530949
 31
0.0
  0
LINE
  5
5D3B
  8
SP
 10
2532.8822125799629
 20
1114.0342853677121
 30
0.0
 11
2532.8822125799629
 21
1414.9956548530949
 31
0.0
  0
LINE
  5
5D3C
  8
SP
 10
2807.8822125799629
 20
1404.9956548530949
 30
0.0
 11
2557.8822125799629
 21
1404.9956548530949
 31
0.0
  0
INSERT
  5
5D3D
  8
SP
  2
_OPEN
 10
2832.8822125799629
 20
1404.9956548530949
 30
0.0
 41
25.0
 42
25.0
 43
25.0
  0
INSERT
  5
5D3E
  8
SP
  2
_OPEN
 10
2532.8822125799629
 20
1404.9956548530949
 30
0.0
 41
25.0
 42
25.0
 43
25.0
 50
180.0
  0
TEXT
  5
5D3F
  8
SP
 10
2615.9725108395628
 20
1414.9956548530949
 30
0.0
 40
30.0
  1
（340）
 51
15.0
  0
POINT
  5
5D40
  8
DEFPOINTS
 62
     0
 10
2832.8822125799629
 20
1374.9956548530949
 30
0.0
  0
POINT
  5
5D41
  8
DEFPOINTS
 62
     0
 10
2532.8822125799629
 20
1104.0342853677121
 30
0.0
  0
POINT
  5
5D42
  8
DEFPOINTS
 62
     0
 10
2532.8822125799629
 20
1404.9956548530949
 30
0.0
  0
ENDBLK
  5
5B7A
  8
0
  0
BLOCK
  8
0
  2
*D14
 70
     1
 10
0.0
 20
0.0
 30
0.0
  3
*D14
  1

  0
LINE
  5
5D43
  8
3
 10
2919.882212579962
 20
1143.9956548530949
 30
0.0
 11
3011.1934875838269
 21
1143.9956548530949
 31
0.0
  0
LINE
  5
5D44
  8
3
 10
2919.882212579962
 20
943.99565485309574
 30
0.0
 11
3011.1934875838269
 21
943.99565485309574
 31
0.0
  0
LINE
  5
5D45
  8
3
 10
3001.1934875838269
 20
1118.9956548530949
 30
0.0
 11
3001.1934875838269
 21
968.99565485309574
 31
0.0
  0
INSERT
  5
5D46
  8
3
  2
_OPEN
 10
3001.1934875838269
 20
1143.9956548530949
 30
0.0
 41
25.0
 42
25.0
 43
25.0
 50
90.0
  0
INSERT
  5
5D47
  8
3
  2
_OPEN
 10
3001.1934875838269
 20
943.99565485309574
 30
0.0
 41
25.0
 42
25.0
 43
25.0
 50
270.0
  0
INSERT
  5
5D48
  8
SP
  2
*U22
 10
0.0
 20
0.0
 30
0.0
  0
POINT
  5
5D49
  8
DEFPOINTS
 62
     0
 10
2909.882212579962
 20
1143.9956548530949
 30
0.0
  0
POINT
  5
5D4A
  8
DEFPOINTS
 62
     0
 10
2909.882212579962
 20
943.99565485309574
 30
0.0
  0
POINT
  5
5D4B
  8
DEFPOINTS
 62
     0
 10
3001.1934875838269
 20
943.99565485309574
 30
0.0
  0
ENDBLK
  5
5B86
  8
0
  0
BLOCK
  8
0
  2
*D15
 70
     1
 10
0.0
 20
0.0
 30
0.0
  3
*D15
  1

  0
LINE
  5
61CE
  8
SP
 10
1888.339329310174
 20
691.08733075560656
 30
0.0
 11
1888.339329310174
 21
641.99565485309608
 31
0.0
  0
LINE
  5
61CF
  8
SP
 10
1723.339329310174
 20
711.99565485309563
 30
0.0
 11
1723.339329310174
 21
641.99565485309608
 31
0.0
  0
LINE
  5
61D0
  8
SP
 10
1863.339329310174
 20
651.99565485309597
 30
0.0
 11
1748.3393293101749
 21
651.99565485309597
 31
0.0
  0
INSERT
  5
61D1
  8
SP
  2
_OPEN
 10
1888.339329310174
 20
651.99565485309597
 30
0.0
 41
25.0
 42
25.0
 43
25.0
  0
INSERT
  5
61D2
  8
SP
  2
_OPEN
 10
1723.339329310174
 20
651.99565485309597
 30
0.0
 41
25.0
 42
25.0
 43
25.0
 50
180.0
  0
TEXT
  5
61D3
  8
SP
 10
1764.280708372758
 20
661.99565485309608
 30
0.0
 40
30.0
  1
165
 51
15.0
  0
POINT
  5
61D4
  8
DEFPOINTS
 62
     0
 10
1888.339329310174
 20
701.08733075560656
 30
0.0
  0
POINT
  5
61D5
  8
DEFPOINTS
 62
     0
 10
1723.339329310174
 20
721.99565485309563
 30
0.0
  0
POINT
  5
61D6
  8
DEFPOINTS
 62
     0
 10
1723.339329310174
 20
651.99565485309597
 30
0.0
  0
ENDBLK
  5
619D
  8
0
  0
BLOCK
  8
0
  2
*D16
 70
     1
 10
0.0
 20
0.0
 30
0.0
  3
*D16
  1

  0
LINE
  5
61D7
  8
SP
 10
1723.339329310174
 20
711.99565485309563
 30
0.0
 11
1723.339329310174
 21
571.99565485309563
 31
0.0
  0
LINE
  5
61D8
  8
SP
 10
2053.3393293101758
 20
711.99565485309608
 30
0.0
 11
2053.3393293101758
 21
571.99565485309563
 31
0.0
  0
LINE
  5
61D9
  8
SP
 10
1748.339329310174
 20
581.99565485309563
 30
0.0
 11
2028.3393293101749
 21
581.99565485309563
 31
0.0
  0
INSERT
  5
61DA
  8
SP
  2
_OPEN
 10
1723.339329310174
 20
581.99565485309563
 30
0.0
 41
25.0
 42
25.0
 43
25.0
 50
180.0
  0
INSERT
  5
61DB
  8
SP
  2
_OPEN
 10
2053.3393293101758
 20
581.99565485309563
 30
0.0
 41
25.0
 42
25.0
 43
25.0
  0
TEXT
  5
61DC
  8
SP
 10
1846.462948566565
 20
591.99565485309563
 30
0.0
 40
30.0
  1
330
 51
15.0
  0
POINT
  5
61DD
  8
DEFPOINTS
 62
     0
 10
1723.339329310174
 20
721.99565485309563
 30
0.0
  0
POINT
  5
61DE
  8
DEFPOINTS
 62
     0
 10
2053.3393293101758
 20
721.99565485309597
 30
0.0
  0
POINT
  5
61DF
  8
DEFPOINTS
 62
     0
 10
2053.3393293101758
 20
581.99565485309563
 30
0.0
  0
ENDBLK
  5
61A9
  8
0
  0
BLOCK
  8
0
  2
*D17
 70
     1
 10
0.0
 20
0.0
 30
0.0
  3
*D17
  1

  0
LINE
  5
61E0
  8
SP
 10
1888.339329310174
 20
691.08733075560656
 30
0.0
 11
1888.339329310174
 21
641.99565485309608
 31
0.0
  0
LINE
  5
61E1
  8
SP
 10
2053.3393293101758
 20
711.99565485309608
 30
0.0
 11
2053.3393293101758
 21
641.99565485309608
 31
0.0
  0
LINE
  5
61E2
  8
SP
 10
1913.339329310174
 20
651.99565485309597
 30
0.0
 11
2028.3393293101749
 21
651.99565485309597
 31
0.0
  0
INSERT
  5
61E3
  8
SP
  2
_OPEN
 10
1888.339329310174
 20
651.99565485309597
 30
0.0
 41
25.0
 42
25.0
 43
25.0
 50
180.0
  0
INSERT
  5
61E4
  8
SP
  2
_OPEN
 10
2053.3393293101758
 20
651.99565485309597
 30
0.0
 41
25.0
 42
25.0
 43
25.0
  0
TEXT
  5
61E5
  8
SP
 10
1929.2807083727589
 20
661.99565485309608
 30
0.0
 40
30.0
  1
165
 51
15.0
  0
POINT
  5
61E6
  8
DEFPOINTS
 62
     0
 10
1888.339329310174
 20
701.08733075560656
 30
0.0
  0
POINT
  5
61E7
  8
DEFPOINTS
 62
     0
 10
2053.3393293101758
 20
721.99565485309597
 30
0.0
  0
POINT
  5
61E8
  8
DEFPOINTS
 62
     0
 10
2053.3393293101758
 20
651.99565485309597
 30
0.0
  0
ENDBLK
  5
61B5
  8
0
  0
BLOCK
  8
0
  2
*D18
 70
     1
 10
0.0
 20
0.0
 30
0.0
  3
*D18
  1

  0
LINE
  5
61E9
  8
SP
 10
2755.8822125799652
 20
711.99565485309574
 30
0.0
 11
2755.8822125799652
 21
641.99565485309574
 31
0.0
  0
LINE
  5
61EA
  8
SP
 10
2585.8822125799661
 20
711.99565485309574
 30
0.0
 11
2585.8822125799661
 21
641.99565485309574
 31
0.0
  0
LINE
  5
61EB
  8
SP
 10
2730.8822125799652
 20
651.99565485309574
 30
0.0
 11
2610.8822125799661
 21
651.99565485309574
 31
0.0
  0
INSERT
  5
61EC
  8
SP
  2
_OPEN
 10
2755.8822125799652
 20
651.99565485309574
 30
0.0
 41
25.0
 42
25.0
 43
25.0
  0
INSERT
  5
61ED
  8
SP
  2
_OPEN
 10
2585.8822125799661
 20
651.99565485309574
 30
0.0
 41
25.0
 42
25.0
 43
25.0
 50
180.0
  0
TEXT
  5
61EE
  8
SP
 10
2629.374875049496
 20
661.99565485309574
 30
0.0
 40
30.0
  1
170
 51
15.0
  0
POINT
  5
61EF
  8
DEFPOINTS
 62
     0
 10
2755.8822125799652
 20
721.99565485309586
 30
0.0
  0
POINT
  5
61F0
  8
DEFPOINTS
 62
     0
 10
2585.8822125799661
 20
721.99565485309586
 30
0.0
  0
POINT
  5
61F1
  8
DEFPOINTS
 62
     0
 10
2585.8822125799661
 20
651.99565485309574
 30
0.0
  0
ENDBLK
  5
61C1
  8
0
  0
BLOCK
  8
0
  2
*D19
 70
     1
 10
0.0
 20
0.0
 30
0.0
  3
*D19
  1

  0
LINE
  5
61F2
  8
SP
 10
2755.8822125799661
 20
711.99565485309574
 30
0.0
 11
2755.8822125799661
 21
641.99565485309574
 31
0.0
  0
LINE
  5
61F3
  8
SP
 10
2832.8822125799638
 20
843.82143378090768
 30
0.0
 11
2832.8822125799638
 21
641.99565485309574
 31
0.0
  0
LINE
  5
61F4
  8
SP
 10
2780.8822125799661
 20
651.99565485309574
 30
0.0
 11
2807.8822125799652
 21
651.99565485309574
 31
0.0
  0
INSERT
  5
61F5
  8
SP
  2
_OPEN
 10
2755.8822125799661
 20
651.99565485309574
 30
0.0
 41
25.0
 42
25.0
 43
25.0
 50
180.0
  0
INSERT
  5
61F6
  8
SP
  2
_OPEN
 10
2832.8822125799638
 20
651.99565485309574
 30
0.0
 41
25.0
 42
25.0
 43
25.0
  0
TEXT
  5
61F7
  8
SP
 10
2763.2201175506411
 20
661.99565485309574
 30
0.0
 40
30.0
  1
77
 51
15.0
  0
POINT
  5
61F8
  8
DEFPOINTS
 62
     0
 10
2755.8822125799661
 20
721.99565485309586
 30
0.0
  0
POINT
  5
61F9
  8
DEFPOINTS
 62
     0
 10
2832.8822125799638
 20
853.82143378090757
 30
0.0
  0
POINT
  5
61FA
  8
DEFPOINTS
 62
     0
 10
2832.8822125799638
 20
651.99565485309574
 30
0.0
  0
ENDBLK
  5
61CD
  8
0
  0
BLOCK
  8
0
  2
*D20
 70
     1
 10
0.0
 20
0.0
 30
0.0
  3
*D20
  1

  0
LINE
  5
66A3
  8
SP
 10
1713.339329310174
 20
781.99565485309586
 30
0.0
 11
1648.3393293101719
 21
781.99565485309586
 31
0.0
  0
LINE
  5
66A4
  8
SP
 10
1713.339329310174
 20
721.99565485309563
 30
0.0
 11
1648.3393293101719
 21
721.99565485309563
 31
0.0
  0
LINE
  5
66A5
  8
SP
 10
1658.3393293101719
 20
806.99565485309597
 30
0.0
 11
1658.3393293101719
 21
831.99565485309597
 31
0.0
  0
LINE
  5
66A6
  8
SP
 10
1658.3393293101719
 20
696.99565485309563
 30
0.0
 11
1658.3393293101719
 21
600.92238529018744
 31
0.0
  0
LINE
  5
66A7
  8
SP
 10
1658.3393293101719
 20
781.99565485309586
 30
0.0
 11
1658.3393293101719
 21
721.99565485309563
 31
0.0
  0
INSERT
  5
66A8
  8
SP
  2
_DOT
 10
1658.3393293101719
 20
781.99565485309586
 30
0.0
 41
25.0
 42
25.0
 43
25.0
 50
270.0
  0
INSERT
  5
66A9
  8
SP
  2
_OPEN
 10
1658.3393293101719
 20
721.99565485309563
 30
0.0
 41
25.0
 42
25.0
 43
25.0
 50
90.0
  0
TEXT
  8
0
  40
30
  5
66B5
  72
0
  71
0
 10
1573.34
 20
583.359
 30
0.000000
  1
60
  0
POINT
  5
66AB
  8
DEFPOINTS
 62
     0
 10
1723.339329310174
 20
781.99565485309586
 30
0.0
  0
POINT
  5
66AC
  8
DEFPOINTS
 62
     0
 10
1723.339329310174
 20
721.99565485309563
 30
0.0
  0
POINT
  5
66AD
  8
DEFPOINTS
 62
     0
 10
1658.3393293101719
 20
721.99565485309563
 30
0.0
  0
ENDBLK
  5
656A
  8
0
  0
BLOCK
  8
0
  2
*D21
 70
     1
 10
0.0
 20
0.0
 30
0.0
  3
*D21
  1

  0
LINE
  5
66AE
  8
SP
 10
1713.3393293101719
 20
803.99565485309586
 30
0.0
 11
1648.3393293101731
 21
803.99565485309586
 31
0.0
  0
LINE
  5
66AF
  8
SP
 10
1713.339329310174
 20
781.99565485309586
 30
0.0
 11
1648.3393293101731
 21
781.99565485309586
 31
0.0
  0
LINE
  5
66B0
  8
SP
 10
1658.3393293101731
 20
803.99565485309586
 30
0.0
 11
1658.3393293101731
 21
781.99565485309586
 31
0.0
  0
TEXT
  8
0
  40
30
  5
66B6
  72
0
  71
0
 10
1566.98
 20
729.954
 30
0.000000
  1
（22）
  0
POINT
  5
66B2
  8
DEFPOINTS
 62
     0
 10
1723.3393293101719
 20
803.99565485309586
 30
0.0
  0
POINT
  5
66B3
  8
DEFPOINTS
 62
     0
 10
1723.339329310174
 20
781.99565485309586
 30
0.0
  0
POINT
  5
66B4
  8
DEFPOINTS
 62
     0
 10
1658.3393293101731
 20
781.99565485309586
 30
0.0
  0
ENDBLK
  5
6574
  8
0
  0
BLOCK
  8
0
  2
*U22
 70
     1
 10
0.0
 20
0.0
 30
0.0
  3
*U22
  1

  0
TEXT
  5
669F
  8
SP
 10
2991.193487583826
 20
981.17237207246387
 30
0.0
 40
30.0
  1
\U+2205
 50
90.0
 51
15.0
  0
TEXT
  5
66A0
  8
SP
 10
2991.193487583826
 20
1008.315229215321
 30
0.0
 40
30.0
  1
200
 50
90.0
 51
15.0
  0
ENDBLK
  5
66A2
  8
0
  0
ENDSEC
  0
SECTION
  2
ENTITIES
  0
LINE
  5
55AD
  8
4
 10
1281.9192336154081
 20
0.0000009706889159
 30
0.0
 11
1281.9192336154081
 21
2950.0000009706891
 31
0.0
  0
LINE
  5
55AE
  8
4
 10
3381.9192336154078
 20
2950.0000009706891
 30
0.0
 11
3381.9192336154078
 21
0.0000009706889159
 31
0.0
  0
LINE
  5
55B1
  8
4
 10
1731.9192336154081
 20
226.55314220080859
 30
0.0
 11
2931.9192336154078
 21
226.55314220080859
 31
0.0
  0
LINE
  5
55B2
  8
4
 10
1731.9192336154081
 20
326.55314220080862
 30
0.0
 11
2931.9192336154078
 21
326.55314220080862
 31
0.0
  0
LINE
  5
55B3
  8
4
 10
1731.9192336154081
 20
426.55314220080862
 30
0.0
 11
2931.9192336154078
 21
426.55314220080862
 31
0.0
  0
LINE
  5
55B4
  8
4
 10
3381.9192336154078
 20
0.0000009706889159
 30
0.0
 11
1281.9192336154081
 21
0.0000009706889159
 31
0.0
  0
LINE
  5
55B5
  8
4
 10
1731.9192336154081
 20
426.55314220080862
 30
0.0
 11
1731.9192336154081
 21
226.55314220080859
 31
0.0
  0
LINE
  5
55B6
  8
4
 10
2231.9192336154078
 20
426.55314220080862
 30
0.0
 11
2231.9192336154078
 21
226.55314220080859
 31
0.0
  0
TEXT
  5
55B8
  8
4
 10
2268.5737292008889
 20
243.712726480752
 30
0.0
 40
50.0
  1
MF＃1 1/4- 7
  0
TEXT
  5
55BA
  8
4
 10
1768.1773396402059
 20
248.1982989328196
 30
0.0
 40
50.0
  1
機器型番
  0
TEXT
  5
55BB
  8
4
 10
2259.5979791030732
 20
349.12491115837719
 30
0.0
 40
50.0
  1
ミツヤ多翼送風機
  0
TEXT
  5
55BC
  8
4
 10
1770.42131446231
 20
358.0961680674215
 30
0.0
 40
50.0
  1
機器名称
  0
LINE
  5
55BD
  8
4
 10
2931.9192336154078
 20
426.55314220080862
 30
0.0
 11
2931.9192336154078
 21
226.55314220080859
 31
0.0
  0
DIMENSION
  5
55BE
  8
SP
  2
*D7
 10
2056.3393293101722
 20
1324.9956548530949
 30
0.0
 11
1972.3393293101731
 21
1349.9956548530961
 31
0.0
 70
     0
 13
1888.339329310174
 23
1269.8082707222729
 33
0.0
 14
2056.3393293101722
 24
1059.9956548530949
 34
0.0
 50
179.99999999999989
  0
ARC
  5
55C1
  8
1
 10
1872.3393293101731
 20
1059.9956548530961
 30
0.0
 40
195.0
 50
352.67794040955272
 51
89.999999999999986
  0
ARC
  5
55C2
  8
1
 10
1872.3393293101731
 20
1059.9956548530961
 30
0.0
 40
184.0
 50
352.6970887175936
 51
89.999999999999986
  0
LINE
  5
55C3
  8
2
 10
2083.9463609893628
 20
1043.9956548530949
 30
0.0
 11
1712.6737003044859
 21
1043.9956548530961
 31
0.0
  0
LINE
  5
55C4
  8
1
 10
2053.3393293101731
 20
805.59565485309588
 30
0.0
 11
2024.3393293101719
 21
805.59565485309588
 31
0.0
  0
LINE
  5
55C5
  8
1
 10
2053.3393293101731
 20
803.99565485309552
 30
0.0
 11
1723.3393293101719
 21
803.9956548530962
 31
0.0
  0
ARC
  5
55C6
  8
1
 10
1902.3393293101731
 20
1057.9956548530961
 30
0.0
 40
165.0
 50
317.16657193393388
 51
352.0390952626384
  0
ARC
  5
55C7
  8
1
 10
1902.3393293101731
 20
1057.9956548530961
 30
0.0
 40
154.0
 50
321.78678929825861
 51
352.0163414440633
  0
LINE
  5
55C8
  8
1
 10
2053.3393293101722
 20
805.59565485309588
 30
0.0
 11
2053.3393293101722
 21
803.99565485309608
 31
0.0
  0
DIMENSION
  5
55C9
  8
3
  2
*D14
 10
3001.1934875838269
 20
943.99565485309574
 30
0.0
 11
2976.1934875838269
 21
1043.9956548530961
 31
0.0
 70
     0
  1
%%c<>
 13
2909.882212579962
 23
1143.9956548530949
 33
0.0
 14
2909.882212579962
 24
943.99565485309574
 34
0.0
 50
90.0
  0
LINE
  5
55CA
  8
2
 10
2832.8822125799629
 20
1326.607219115881
 30
0.0
 11
2832.8822125799629
 21
853.82143378090757
 31
0.0
  0
LINE
  5
55CB
  8
1
 10
2532.8822125799629
 20
1104.0342853677121
 30
0.0
 11
2532.8822125799629
 21
983.95702433847885
 31
0.0
  0
LINE
  5
55CC
  8
1
 10
2594.7490867788279
 20
1118.9956548530949
 30
0.0
 11
2594.7490867788279
 21
974.60748589179002
 31
0.0
  0
LINE
  5
55CD
  8
1
 10
2567.8053035889352
 20
1118.9956548530949
 30
0.0
 11
2567.8053035889352
 21
974.60748589179002
 31
0.0
  0
LINE
  5
55CE
  8
2
 10
2653.8822125799629
 20
1132.286808899627
 30
0.0
 11
2653.8822125799629
 21
964.87221010250732
 31
0.0
  0
LINE
  5
55CF
  8
1
 10
2712.582212579965
 20
1063.9956548530949
 30
0.0
 11
2585.8822125799652
 21
805.59565485309565
 31
0.0
  0
LINE
  5
55D0
  8
1
 10
2755.8822125799638
 20
1168.9956548530949
 30
0.0
 11
2755.8822125799638
 21
803.99565485309586
 31
0.0
  0
LINE
  5
55D1
  8
1
 10
2754.2822125799639
 20
1168.9956548530949
 30
0.0
 11
2754.2822125799648
 21
803.99565485309586
 31
0.0
  0
LINE
  5
55D3
  8
1
  6
CONTINUOUS
 10
2762.8822125799629
 20
1244.9956548530961
 30
0.0
 11
2762.8822125799629
 21
913.99565485309586
 31
0.0
  0
LINE
  5
55D4
  8
1
  6
CONTINUOUS
 10
2902.8822125799629
 20
913.99565485309586
 30
0.0
 11
2902.8822125799629
 21
1244.9956548530961
 31
0.0
  0
LINE
  5
55D6
  8
1
 10
2909.882212579962
 20
1160.995654853094
 30
0.0
 11
2909.8822125799611
 21
926.99565485309574
 31
0.0
  0
DIMENSION
  5
55D7
  8
SP
  2
*D5
 10
1658.3393293101731
 20
803.9956548530962
 30
0.0
 11
1633.3393293101731
 21
923.99565485309654
 31
0.0
 70
     0
 13
1712.6737003044859
 23
1043.9956548530961
 33
0.0
 14
1723.3393293101719
 24
803.9956548530962
 34
0.0
 50
90.0
  0
LINE
  5
55D8
  8
2
 10
1888.339329310174
 20
1269.8082707222729
 30
0.0
 11
1888.3393293101731
 21
701.08733075560656
 31
0.0
  0
CIRCLE
  5
55D9
  8
CT
 10
1888.3393293101731
 20
1043.9956548530961
 30
0.0
 40
110.0
  0
ARC
  5
55DA
  8
1
 10
1695.3393293101719
 20
980.9956548530962
 30
0.0
 40
71.0
 50
19.712818741117211
 51
35.224194980615927
  0
ARC
  5
55DB
  8
1
 10
1695.3393293101719
 20
980.9956548530962
 30
0.0
 40
82.0
 50
19.134092474435882
 51
47.401187107546683
  0
ARC
  5
55DC
  8
1
 10
1888.3393293101731
 20
1043.9956548530961
 30
0.0
 40
75.0
 50
292.3051532135043
 51
247.69484678649559
  0
CIRCLE
  5
55DD
  8
1
 10
1888.3393293101731
 20
1043.9956548530961
 30
0.0
 40
69.388168961305382
  0
CIRCLE
  5
55DE
  8
1
 10
1888.3393293101731
 20
1043.9956548530961
 30
0.0
 40
60.038630514616607
  0
LINE
  5
55DF
  8
1
 10
1754.939329310173
 20
1099.0377725001549
 30
0.0
 11
1754.939329310173
 21
971.99565485309597
 31
0.0
  0
LINE
  5
55E0
  8
1
 10
2021.739329310172
 20
1099.037772500154
 30
0.0
 11
2021.739329310172
 21
969.39565485309606
 31
0.0
  0
LINE
  5
55E1
  8
1
 10
2023.3393293101719
 20
1097.6956548530959
 30
0.0
 11
2023.3393293101719
 21
803.99565485309552
 31
0.0
  0
LINE
  5
55E2
  8
1
 10
1753.339329310174
 20
1097.6956548530959
 30
0.0
 11
1753.339329310174
 21
803.99565485309552
 31
0.0
  0
LINE
  5
55E3
  8
FUTO
 10
2892.8822125799629
 20
903.99565485309586
 30
0.0
 11
2772.8822125799629
 21
903.99565485309586
 31
0.0
  0
LINE
  5
55E4
  8
FUTO
 10
2892.8822125799629
 20
902.99565485309586
 30
0.0
 11
2772.8822125799629
 21
902.99565485309586
 31
0.0
  0
ARC
  5
55E8
  8
1
 10
1899.339329310171
 20
1032.9956548530961
 30
0.0
 40
129.0
 50
191.22979406854401
 51
255.677695662047
  0
LINE
  5
55E9
  8
1
 10
1754.9393293101739
 20
969.39565485309606
 30
0.0
 11
1754.9393293101739
 21
876.6956548530959
 31
0.0
  0
LINE
  5
55EA
  8
1
 10
1756.539329310174
 20
969.39565485309572
 30
0.0
 11
1756.5393293101729
 21
876.6956548530959
 31
0.0
  0
LINE
  5
55EB
  8
1
 10
2021.739329310172
 20
969.39565485309606
 30
0.0
 11
2021.7393293101729
 21
876.6956548530959
 31
0.0
  0
LINE
  5
55EC
  8
1
 10
2020.139329310173
 20
969.39565485309572
 30
0.0
 11
2020.139329310173
 21
876.6956548530959
 31
0.0
  0
ARC
  5
55ED
  8
1
 10
1902.3393293101731
 20
1057.9956548530961
 30
0.0
 40
165.0
 50
270.0
 51
317.16657193393388
  0
ARC
  5
55EE
  8
1
 10
1902.3393293101731
 20
1057.9956548530961
 30
0.0
 40
154.0
 50
256.8972379658976
 51
321.78678929825861
  0
ARC
  5
55EF
  8
1
 10
1899.339329310171
 20
1032.9956548530961
 30
0.0
 40
140.0
 50
191.55838015562571
 51
270.0
  0
LINE
  5
55F0
  8
1
 10
2021.7393293101729
 20
876.6956548530959
 30
0.0
 11
2021.7393293101729
 21
806.59565485309588
 31
0.0
  0
ARC
  5
55F1
  8
1
 10
2024.3393293101719
 20
806.59565485309588
 30
0.0
 40
2.6000000000000001
 50
179.99999999999989
 51
270.0
  0
ARC
  5
55F2
  8
1
 10
2024.3393293101719
 20
806.59565485309588
 30
0.0
 40
1.0
 50
179.99999999999989
 51
270.0
  0
LINE
  5
55F4
  8
1
 10
1899.339329310171
 20
892.99565485309608
 30
0.0
 11
1902.3393293101731
 21
892.99565485309608
 31
0.0
  0
LINE
  5
55F5
  8
1
 10
2021.739329310172
 20
876.6956548530959
 30
0.0
 11
2020.139329310173
 21
876.6956548530959
 31
0.0
  0
LINE
  5
55F6
  8
1
 10
1754.9393293101739
 20
876.6956548530959
 30
0.0
 11
1754.9393293101739
 21
806.59565485309588
 31
0.0
  0
LINE
  5
55F7
  8
1
 10
1723.3393293101731
 20
805.59565485309611
 30
0.0
 11
1723.3393293101719
 21
803.9956548530962
 31
0.0
  0
ARC
  5
55F9
  8
1
 10
1752.3393293101731
 20
806.59565485309588
 30
0.0
 40
1.0
 50
270.0
 51
0.0
  0
ARC
  5
55FA
  8
1
 10
1752.3393293101731
 20
806.59565485309588
 30
0.0
 40
2.6000000000000001
 50
270.0
 51
0.0
  0
LINE
  5
55FB
  8
1
 10
1752.3393293101731
 20
805.59565485309588
 30
0.0
 11
1723.3393293101719
 21
805.59565485309611
 31
0.0
  0
LINE
  5
55FC
  8
1
 10
1756.5393293101729
 20
876.6956548530959
 30
0.0
 11
1754.9393293101739
 21
876.6956548530959
 31
0.0
  0
ARC
  5
55FD
  8
1
 10
1757.539329310174
 20
969.39565485309572
 30
0.0
 40
1.0
 50
89.999999999999986
 51
179.99999999999989
  0
ARC
  5
55FE
  8
1
 10
1757.5393293101729
 20
969.39565485309606
 30
0.0
 40
2.6000000000000001
 50
89.999999999999986
 51
179.99999999999989
  0
LINE
  5
55FF
  8
1
 10
1838.3393293101731
 20
953.59565485309588
 30
0.0
 11
1796.3393293101731
 21
971.99565485309597
 31
0.0
  0
LINE
  5
5600
  8
1
 10
1938.3393293101731
 20
953.59565485309588
 30
0.0
 11
1980.3393293101731
 21
971.99565485309597
 31
0.0
  0
LINE
  5
5601
  8
1
 10
1938.3393293101731
 20
953.59565485309588
 30
0.0
 11
1838.3393293101731
 21
953.59565485309588
 31
0.0
  0
LINE
  5
5602
  8
CT
 10
1927.4616902946859
 20
949.54592037222687
 30
0.0
 11
1933.4689626147649
 21
935.04308206422388
 31
0.0
  0
CIRCLE
  5
5603
  8
1
 10
1930.4345068703319
 20
942.36890627685557
 30
0.0
 40
4.0
  0
LINE
  5
5604
  8
CT
 10
1849.2169683256591
 20
949.54592037222642
 30
0.0
 11
1843.209696005579
 21
935.04308206422343
 31
0.0
  0
CIRCLE
  5
5605
  8
1
 10
1846.2441517500131
 20
942.36890627685409
 30
0.0
 40
4.0
  0
LINE
  5
5606
  8
1
 10
1859.873876420796
 20
974.6074858917907
 30
0.0
 11
1916.8047821995499
 21
974.6074858917907
 31
0.0
  0
LINE
  5
5607
  8
1
 10
1976.6871553971289
 20
970.39565485309572
 30
0.0
 11
1799.991503223217
 21
970.39565485309572
 31
0.0
  0
LINE
  5
5608
  8
1
 10
2019.1393293101719
 20
971.99565485309597
 30
0.0
 11
1757.5393293101729
 21
971.99565485309597
 31
0.0
  0
LINE
  5
5609
  8
CT
 10
1982.7890637910421
 20
1004.873293868582
 30
0.0
 11
1997.291902099046
 21
998.86602154850345
 31
0.0
  0
CIRCLE
  5
560A
  8
1
 10
1989.966077886414
 20
1001.900477292936
 30
0.0
 40
4.0
  0
LINE
  5
560B
  8
1
 10
1928.339329310174
 20
972.99565485309597
 30
0.0
 11
1928.3393293101719
 21
971.99565485309597
 31
0.0
  0
LINE
  5
560C
  8
1
 10
1944.339329310174
 20
963.99565485309597
 30
0.0
 11
1944.339329310174
 21
981.92271906741939
 31
0.0
  0
LINE
  5
560D
  8
1
 10
1928.339329310174
 20
972.99565485309597
 30
0.0
 11
1920.160469054653
 21
976.08089161738803
 31
0.0
  0
LINE
  5
560E
  8
1
 10
1958.339329310174
 20
972.99565485309597
 30
0.0
 11
1958.3393293101719
 21
971.99565485309597
 31
0.0
  0
ARC
  5
560F
  8
1
 10
2019.1393293101719
 20
969.39565485309606
 30
0.0
 40
2.6000000000000001
 50
0.0
 51
89.999999999999986
  0
ARC
  5
5610
  8
1
 10
2019.1393293101719
 20
969.39565485309572
 30
0.0
 40
1.0
 50
0.0
 51
89.999999999999986
  0
LINE
  5
5611
  8
1
 10
2019.1393293101719
 20
970.39565485309572
 30
0.0
 11
1976.6871553971289
 21
970.39565485309572
 31
0.0
  0
LINE
  5
5612
  8
1
 10
1928.339329310174
 20
972.99565485309597
 30
0.0
 11
1958.339329310174
 21
972.99565485309597
 31
0.0
  0
LINE
  5
5613
  8
1
 10
1958.339329310174
 20
972.99565485309597
 30
0.0
 11
1940.869980824179
 21
990.46500333908966
 31
0.0
  0
LINE
  5
5614
  8
CT
 10
1793.889594829302
 20
1004.873293868581
 30
0.0
 11
1779.386756521299
 21
998.86602154850345
 31
0.0
  0
CIRCLE
  5
5615
  8
1
 10
1786.7125807339321
 20
1001.900477292937
 30
0.0
 40
4.0
  0
LINE
  5
5616
  8
1
 10
1799.991503223217
 20
970.39565485309572
 30
0.0
 11
1757.539329310174
 21
970.39565485309572
 31
0.0
  0
LINE
  5
5617
  8
1
 10
1818.3393293101731
 20
972.99565485309597
 30
0.0
 11
1818.3393293101731
 21
971.99565485309597
 31
0.0
  0
LINE
  5
5618
  8
1
 10
1848.3393293101731
 20
972.99565485309597
 30
0.0
 11
1848.3393293101731
 21
971.99565485309597
 31
0.0
  0
LINE
  5
5619
  8
1
 10
1848.3393293101731
 20
972.99565485309597
 30
0.0
 11
1856.518189565692
 21
976.08089161738803
 31
0.0
  0
LINE
  5
561A
  8
1
 10
1818.3393293101731
 20
972.99565485309597
 30
0.0
 11
1835.808677796166
 21
990.46500333908966
 31
0.0
  0
LINE
  5
561B
  8
1
 10
1832.3393293101731
 20
963.99565485309597
 30
0.0
 11
1832.3393293101731
 21
981.92271906741939
 31
0.0
  0
LINE
  5
561C
  8
1
 10
1848.3393293101731
 20
972.99565485309597
 30
0.0
 11
1818.3393293101731
 21
972.99565485309597
 31
0.0
  0
LINE
  5
561D
  8
1
 10
2586.9822125799628
 20
971.99565485309586
 30
0.0
 11
2622.8138898433781
 21
895.08667189806499
 31
0.0
  0
LINE
  5
561E
  8
1
 10
2785.8822125799638
 20
803.99565485309586
 30
0.0
 11
2585.8822125799652
 21
803.99565485309586
 31
0.0
  0
LINE
  5
561F
  8
1
 10
2754.2822125799648
 20
805.59565485309565
 30
0.0
 11
2585.8822125799652
 21
805.59565485309565
 31
0.0
  0
LINE
  5
5620
  8
1
 10
2585.8822125799652
 20
805.59565485309565
 30
0.0
 11
2585.8822125799652
 21
803.99565485309586
 31
0.0
  0
LINE
  5
5622
  8
1
 10
2785.8822125799638
 20
805.59565485309565
 30
0.0
 11
2785.8822125799638
 21
803.99565485309586
 31
0.0
  0
LINE
  5
5624
  8
1
 10
2785.8822125799638
 20
805.59565485309565
 30
0.0
 11
2757.4822125799642
 21
805.59565485309565
 31
0.0
  0
LINE
  5
5625
  8
1
 10
2785.8822125799638
 20
805.59565485309565
 30
0.0
 11
2755.8822125799638
 21
805.59565485309565
 31
0.0
  0
LINE
  5
5626
  8
1
 10
2622.8138898433781
 20
895.08667189806499
 30
0.0
 11
2626.1991482422668
 21
887.82056546981903
 31
0.0
  0
LINE
  5
5627
  8
1
 10
2594.7490867788279
 20
974.60748589179002
 30
0.0
 11
2567.8053035889352
 21
974.60748589179002
 31
0.0
  0
LINE
  5
5628
  8
1
 10
2585.3679418559332
 20
970.39565485309595
 30
0.0
 11
2664.0138792466309
 21
970.39565485309595
 31
0.0
  0
LINE
  5
5629
  8
1
 10
2582.5822125799641
 20
971.99565485309586
 30
0.0
 11
2664.0138792466309
 21
971.99565485309586
 31
0.0
  0
LINE
  5
562A
  8
1
 10
2581.5822125799641
 20
969.39565485309595
 30
0.0
 11
2581.5822125799641
 21
953.59565485309577
 31
0.0
  0
LINE
  5
562B
  8
1
 10
2579.9822125799642
 20
969.39565485309595
 30
0.0
 11
2579.9822125799642
 21
953.59565485309577
 31
0.0
  0
LINE
  5
562C
  8
1
 10
2579.9822125799642
 20
953.59565485309577
 30
0.0
 11
2581.5822125799641
 21
953.59565485309577
 31
0.0
  0
LINE
  5
562D
  8
1
 10
2532.8822125799629
 20
983.95702433847885
 30
0.0
 11
2567.8053035889352
 21
977.49133173880398
 31
0.0
  0
ARC
  5
562E
  8
1
 10
2582.5822125799641
 20
969.39565485309595
 30
0.0
 40
1.0
 50
90.0
 51
180.0
  0
LINE
  5
562F
  8
1
 10
2582.5822125799641
 20
970.39565485309595
 30
0.0
 11
2585.3679418559332
 21
970.39565485309595
 31
0.0
  0
ARC
  5
5630
  8
1
 10
2582.5822125799641
 20
969.39565485309595
 30
0.0
 40
2.6000000000000001
 50
90.0
 51
180.0
  0
ARC
  5
5631
  8
1
 10
2759.8822125799629
 20
920.99565485309461
 30
0.0
 40
3.0
 50
48.18968510422188
 51
89.999999999999986
  0
LINE
  5
5632
  8
1
 10
2759.8822125799629
 20
923.99565485309574
 30
0.0
 11
2758.8822125799629
 21
923.99565485309574
 31
0.0
  0
ARC
  5
5633
  8
1
 10
2758.8822125799629
 20
926.99565485309472
 30
0.0
 40
3.0
 50
180.0
 51
270.0
  0
ARC
  5
5634
  8
FUTO
 10
2772.8822125799629
 20
913.99565485309574
 30
0.0
 40
10.0
 50
180.0
 51
270.0
  0
ARC
  5
5635
  8
FUTO
 10
2772.8822125799629
 20
913.99565485309574
 30
0.0
 40
11.0
 50
180.0
 51
270.0
  0
LINE
  5
5636
  8
1
 10
2674.9636554717031
 20
992.73714099371898
 30
0.0
 11
2677.1186161690539
 21
992.73714099371898
 31
0.0
  0
LINE
  5
5637
  8
1
 10
2677.1186161690539
 20
992.73714099371898
 30
0.0
 11
2677.3340530199971
 21
992.10832706859992
 31
0.0
  0
LINE
  5
5638
  8
1
 10
2666.624228423339
 20
976.940278392241
 30
0.0
 11
2669.896778378763
 21
976.940278392241
 31
0.0
  0
LINE
  5
5639
  8
1
 10
2667.9626305366219
 20
972.99565485309506
 30
0.0
 11
2664.5417959132978
 21
972.99565485309529
 31
0.0
  0
LINE
  5
563A
  8
1
 10
2664.0138792466309
 20
970.39565485309595
 30
0.0
 11
2666.6877853353831
 21
970.39565485309595
 31
0.0
  0
LINE
  5
563B
  8
1
 10
2664.0138792466309
 20
971.99565485309586
 30
0.0
 11
2667.4723054592209
 21
971.99565485309586
 31
0.0
  0
LINE
  5
563C
  8
1
 10
2598.8822125799629
 20
981.58749494825724
 30
0.0
 11
2626.8258480497948
 21
981.58749494825724
 31
0.0
  0
LINE
  5
563D
  8
1
 10
2630.645808990871
 20
992.73714099371898
 30
0.0
 11
2623.8822125799629
 21
972.99565485309529
 31
0.0
  0
LINE
  5
563E
  8
1
 10
2598.8822125799629
 20
981.58749494825724
 30
0.0
 11
2598.882212579962
 21
971.99565485309586
 31
0.0
  0
LINE
  5
563F
  8
1
 10
2623.8822125799629
 20
972.99565485309529
 30
0.0
 11
2598.8822125799629
 21
972.99565485309529
 31
0.0
  0
LINE
  5
5640
  8
1
 10
2594.7490867788279
 20
978.04512189848174
 30
0.0
 11
2598.8822125799629
 21
978.04512189848174
 31
0.0
  0
LINE
  5
5641
  8
CT
 10
2608.8822125799629
 20
985.29792081511584
 30
0.0
 11
2608.8822125799629
 21
964.87221010250732
 31
0.0
  0
LINE
  5
5642
  8
1
 10
2664.5417959132978
 20
972.99565485309529
 30
0.0
 11
2598.8822125799629
 21
972.99565485309529
 31
0.0
  0
LINE
  5
5643
  8
1
 10
2630.645808990871
 20
992.73714099371898
 30
0.0
 11
2674.9636554717031
 21
992.73714099371898
 31
0.0
  0
LINE
  5
5644
  8
1
 10
2625.23367322592
 20
976.940278392241
 30
0.0
 11
2666.624228423339
 21
976.940278392241
 31
0.0
  0
LINE
  5
5645
  8
FUTO
 10
2902.8822125799629
 20
943.99565485309574
 30
0.0
 11
2909.882212579962
 21
943.99565485309574
 31
0.0
  0
ARC
  5
5646
  8
1
 10
2906.882212579962
 20
926.99565485309472
 30
0.0
 40
3.0
 50
270.0
 51
0.0
  0
LINE
  5
5647
  8
1
 10
2905.8822125799629
 20
923.99565485309574
 30
0.0
 11
2906.882212579962
 21
923.99565485309574
 31
0.0
  0
ARC
  5
5648
  8
1
 10
2905.8822125799629
 20
920.99565485309461
 30
0.0
 40
3.0
 50
89.999999999999986
 51
131.81031489577811
  0
ARC
  5
5649
  8
FUTO
 10
2892.8822125799629
 20
913.99565485309574
 30
0.0
 40
10.0
 50
270.0
 51
0.0000000000000509
  0
ARC
  5
564A
  8
FUTO
 10
2892.8822125799629
 20
913.99565485309574
 30
0.0
 40
11.0
 50
270.0
 51
0.0000000000000509
  0
DIMENSION
  5
564B
  8
SP
  2
*D12
 10
2909.882212579962
 20
1404.9956548530949
 30
0.0
 11
2871.3822125799629
 21
1429.9956548530961
 31
0.0
 70
     0
 13
2832.8822125799629
 23
1374.9956548530949
 33
0.0
 14
2909.882212579962
 24
1160.995654853094
 34
0.0
  0
DIMENSION
  5
564C
  8
SP
  2
*D11
 10
2902.8822125799638
 20
1334.9956548530949
 30
0.0
 11
2832.8822125799629
 21
1359.9956548530949
 31
0.0
 70
     0
 13
2762.8822125799629
 23
1244.9956548530961
 33
0.0
 14
2902.8822125799638
 24
1244.9956548530961
 34
0.0
  0
LINE
  5
564D
  8
FUTO
 10
2898.8822125799629
 20
1264.9956548530961
 30
0.0
 11
2766.8822125799629
 21
1264.9956548530961
 31
0.0
  0
LINE
  5
5653
  8
2
 10
2492.8822125799629
 20
1043.9956548530949
 30
0.0
 11
2938.209075791834
 21
1043.9956548530961
 31
0.0
  0
DIMENSION
  5
5654
  8
SP
  2
*D13
 10
2532.8822125799629
 20
1404.9956548530949
 30
0.0
 11
2682.8822125799629
 21
1429.9956548530961
 31
0.0
 70
     0
  1
（340）
 13
2832.8822125799629
 23
1374.9956548530949
 33
0.0
 14
2532.8822125799629
 24
1104.0342853677121
 34
0.0
  0
ARC
  5
5656
  8
FUTO
 10
2766.8822125799629
 20
1239.995654853094
 30
0.0
 40
25.0
 50
90.000000000001037
 51
179.9999999999979
  0
LINE
  5
5657
  8
1
 10
1743.3393293101731
 20
1254.9956548530961
 30
0.0
 11
1743.3393293101731
 21
1243.9956548530961
 31
0.0
  0
LINE
  5
5658
  8
1
 10
1729.9393293101721
 20
1264.9956548530961
 30
0.0
 11
1729.9393293101721
 21
1022.995654853096
 31
0.0
  0
LINE
  5
5659
  8
1
 10
1728.3393293101731
 20
1264.9956548530961
 30
0.0
 11
1728.3393293101731
 21
1022.995654853096
 31
0.0
  0
DIMENSION
  5
565A
  8
SP
  2
*D4
 10
1658.3393293101731
 20
1243.9956548530961
 30
0.0
 11
1633.3393293101731
 21
1143.9956548530961
 31
0.0
 70
     0
 13
1712.6737003044859
 23
1043.9956548530961
 33
0.0
 14
1729.9393293101721
 24
1243.9956548530961
 34
0.0
 50
90.0
  0
LINE
  5
565B
  8
1
 10
1838.339329310174
 20
1168.9956548530961
 30
0.0
 11
1753.339329310174
 21
1097.6956548530959
 31
0.0
  0
LINE
  5
565C
  8
1
 10
1743.3393293101719
 20
1232.195654853097
 30
0.0
 11
1743.3393293101731
 21
1055.795654853096
 31
0.0
  0
LINE
  5
565D
  8
1
 10
1938.339329310174
 20
1168.9956548530949
 30
0.0
 11
2023.3393293101731
 21
1097.695654853095
 31
0.0
  0
LINE
  5
565E
  8
CT
 10
1982.7890637910421
 20
1083.1180158376101
 30
0.0
 11
1997.291902099046
 21
1089.1252881576891
 31
0.0
  0
CIRCLE
  5
565F
  8
1
 10
1989.9660778864129
 20
1086.0908324132561
 30
0.0
 40
4.0
  0
LINE
  5
5660
  8
CT
 10
1793.889594829303
 20
1083.1180158376089
 30
0.0
 11
1779.386756521299
 21
1089.1252881576879
 31
0.0
  0
CIRCLE
  5
5661
  8
1
 10
1786.7125807339301
 20
1086.0908324132561
 30
0.0
 40
4.0
  0
LINE
  5
5662
  8
1
 10
1731.539329310172
 20
1043.9956548530949
 30
0.0
 11
1743.339329310171
 21
1055.795654853096
 31
0.0
  0
LINE
  5
5663
  8
1
 10
1729.9393293101721
 20
1022.995654853096
 30
0.0
 11
1728.3393293101731
 21
1022.995654853096
 31
0.0
  0
LINE
  5
5664
  8
1
 10
1743.3393293101731
 20
1043.9956548530961
 30
0.0
 11
1729.9393293101721
 21
1043.9956548530961
 31
0.0
  0
ARC
  5
5665
  8
1
 10
1744.073301034218
 20
1033.9956548530961
 30
0.0
 40
10.0
 50
47.401187107546683
 51
89.999999999999986
  0
LINE
  5
5666
  8
1
 10
1743.3393293101731
 20
1043.9956548530961
 30
0.0
 11
1744.073301034218
 21
1043.9956548530961
 31
0.0
  0
LINE
  5
5667
  8
1
 10
1743.3393293101731
 20
1043.9956548530961
 30
0.0
 11
1743.3393293101731
 21
1033.312000291209
 31
0.0
  0
ARC
  5
5668
  8
1
 10
1695.3393293101719
 20
980.9956548530962
 30
0.0
 40
71.0
 50
35.224194980615927
 51
47.463765266473288
  0
LINE
  5
5669
  8
1
 10
1872.3393293101731
 20
1243.9956548530961
 30
0.0
 11
1729.9393293101721
 21
1243.9956548530961
 31
0.0
  0
LINE
  5
566A
  8
1
 10
1938.339329310174
 20
1168.9956548530949
 30
0.0
 11
1838.3393293101731
 21
1168.9956548530961
 31
0.0
  0
LINE
  5
566B
  8
CT
 10
1927.4616902946859
 20
1138.4453893339651
 30
0.0
 11
1933.468962614766
 21
1152.9482276419681
 31
0.0
  0
CIRCLE
  5
566C
  8
1
 10
1930.4345068703319
 20
1145.6224034293371
 30
0.0
 40
4.0
  0
LINE
  5
566D
  8
CT
 10
1849.2169683256591
 20
1138.445389333966
 30
0.0
 11
1843.2096960055801
 21
1152.948227641969
 31
0.0
  0
CIRCLE
  5
566E
  8
1
 10
1846.2441517500131
 20
1145.622403429338
 30
0.0
 40
4.0
  0
LINE
  5
566F
  8
1
 10
1731.539329310172
 20
1243.9956548530961
 30
0.0
 11
1743.3393293101719
 21
1232.195654853097
 31
0.0
  0
LINE
  5
5671
  8
FUTO
 10
2741.8822125799629
 20
1239.9956548530949
 30
0.0
 11
2741.8822125799629
 21
1095.6640151302311
 31
0.0
  0
LINE
  5
5673
  8
1
 10
2567.8053035889352
 20
1118.9956548530949
 30
0.0
 11
2594.7490867788279
 21
1118.9956548530949
 31
0.0
  0
POINT
  5
5674
  8
1
 10
2532.8822125799629
 20
1104.0342853677121
 30
0.0
  0
LINE
  5
5675
  8
1
 10
2532.8822125799629
 20
1104.0342853677121
 30
0.0
 11
2567.8053035889352
 21
1115.349247417143
 31
0.0
  0
LINE
  5
5676
  8
1
 10
2712.582212579965
 20
1063.9956548530949
 30
0.0
 11
2755.8822125799638
 21
1110.795654853096
 31
0.0
  0
LINE
  5
5679
  8
1
 10
2725.3822125799629
 20
1107.2460264095489
 30
0.0
 11
2725.3822125799629
 21
1077.8302968854259
 31
0.0
  0
LINE
  5
567A
  8
1
 10
2594.7490867788279
 20
1107.2460264095489
 30
0.0
 11
2725.3822125799629
 21
1107.2460264095489
 31
0.0
  0
LINE
  5
567B
  8
FUTO
 10
2755.8822125799638
 20
1168.9956548530949
 30
0.0
 11
2754.2822125799639
 21
1168.9956548530949
 31
0.0
  0
ARC
  5
567C
  8
FUTO
 10
2759.8822125799629
 20
1166.9956548530949
 30
0.0
 40
3.0
 50
270.0
 51
311.81031489577953
  0
LINE
  5
567D
  8
FUTO
 10
2759.8822125799629
 20
1163.9956548530949
 30
0.0
 11
2758.8822125799629
 21
1163.995654853094
 31
0.0
  0
POINT
  5
567E
  8
FUTO
 10
2755.8822125799629
 20
1160.995654853094
 30
0.0
  0
ARC
  5
567F
  8
FUTO
 10
2758.8822125799629
 20
1160.995654853094
 30
0.0
 40
3.0
 50
89.999999999999986
 51
180.0
  0
DIMENSION
  5
5680
  8
SP
  2
*D6
 10
1728.3393293101731
 20
1324.9956548530961
 30
0.0
 11
1808.3393293101731
 21
1349.9956548530961
 31
0.0
 70
     0
 13
1888.339329310174
 23
1269.8082707222729
 33
0.0
 14
1728.3393293101731
 24
1264.9956548530961
 34
0.0
 50
179.99999999999989
  0
LINE
  5
5681
  8
1
 10
1872.3393293101731
 20
1254.9956548530961
 30
0.0
 11
1743.3393293101731
 21
1254.9956548530961
 31
0.0
  0
LINE
  5
5682
  8
1
 10
1729.9393293101721
 20
1264.9956548530961
 30
0.0
 11
1728.3393293101731
 21
1264.9956548530961
 31
0.0
  0
ARC
  5
5684
  8
FUTO
 10
2898.8822125799629
 20
1239.9956548530949
 30
0.0
 40
25.0
 50
0.0000000000010305
 51
90.000000000000483
  0
LINE
  5
5686
  8
FUTO
 10
2923.8822125799629
 20
1239.9956548530949
 30
0.0
 11
2923.8822125799629
 21
1047.9956548530949
 31
0.0
  0
LINE
  5
568A
  8
FUTO
 10
2902.8822125799629
 20
1143.9956548530961
 30
0.0
 11
2909.882212579962
 21
1143.9956548530961
 31
0.0
  0
POINT
  5
568B
  8
1
 10
2909.882212579962
 20
1160.995654853094
 30
0.0
  0
ARC
  5
568C
  8
1
 10
2906.882212579962
 20
1160.995654853094
 30
0.0
 40
3.0
 50
0.0
 51
89.999999999999986
  0
LINE
  5
568D
  8
1
 10
2905.8822125799629
 20
1163.9956548530949
 30
0.0
 11
2906.882212579962
 21
1163.995654853094
 31
0.0
  0
ARC
  5
568E
  8
1
 10
2905.8822125799629
 20
1166.9956548530949
 30
0.0
 40
3.0
 50
228.18968510422039
 51
270.0
  0
TEXT
  5
5843
  8
4
 10
2735.777121602714
 20
2383.428842303204
 30
0.0
 40
53.999999999999993
  1
縮尺：1/10
  0
TEXT
  5
5844
  8
4
 10
1584.1893816376671
 20
2382.3194785170322
 30
0.0
 40
53.999999999999993
  1
左回転左横向
  0
LINE
  5
5845
  8
2
 10
2078.196754427091
 20
1955.8970137353699
 30
0.0
 11
1701.038688432631
 21
1955.8970137353699
 31
0.0
  0
LINE
  5
5846
  8
1
  6
CONTINUOUS
 10
1729.9393293101709
 20
2026.8970137353699
 30
0.0
 11
2046.3393293101719
 21
2026.8970137353699
 31
0.0
  0
LINE
  5
5847
  8
1
  6
CONTINUOUS
 10
1729.9393293101709
 20
2025.8970137353699
 30
0.0
 11
2046.3393293101731
 21
2025.8970137353699
 31
0.0
  0
LINE
  5
5848
  8
FUTO
 10
2023.3393293101731
 20
1878.8970137353699
 30
0.0
 11
2053.3393293101731
 21
1878.8970137353699
 31
0.0
  0
CIRCLE
  5
5849
  8
FUTO
 10
2040.3393293101731
 20
1858.897013735369
 30
0.0
 40
6.0
  0
LINE
  5
584A
  8
CT
 10
2030.4445534619119
 20
1858.897013735369
 30
0.0
 11
2050.2341051584322
 21
1858.897013735369
 31
0.0
  0
LINE
  5
584B
  8
FUTO
 10
2023.3393293101731
 20
1708.897013735369
 30
0.0
 11
2053.3393293101731
 21
1708.897013735369
 31
0.0
  0
LINE
  5
584C
  8
CT
 10
2030.4445534619119
 20
1728.8970137353699
 30
0.0
 11
2050.2341051584322
 21
1728.8970137353699
 31
0.0
  0
CIRCLE
  5
584D
  8
FUTO
 10
2040.3393293101731
 20
1728.8970137353699
 30
0.0
 40
6.0
  0
DIMENSION
  5
584E
  8
SP
  2
*D9
 10
2063.3393293101722
 20
1580.0699239356941
 30
0.0
 11
1893.3393293101731
 21
1605.0699239356941
 31
0.0
 70
     0
 13
1723.3393293101731
 23
1708.897013735369
 33
0.0
 14
2063.3393293101722
 24
1708.897013735369
 34
0.0
  0
LINE
  5
584F
  8
1
  6
CONTINUOUS
 10
1728.3393293101719
 20
1884.897013735369
 30
0.0
 11
2046.3393293101719
 21
1884.897013735369
 31
0.0
  0
LINE
  5
5850
  8
1
  6
CONTINUOUS
 10
1728.3393293101719
 20
1885.8970137353699
 30
0.0
 11
2046.3393293101731
 21
1885.8970137353699
 31
0.0
  0
DIMENSION
  5
5851
  8
SP
  2
*D8
 10
2162.0614527482712
 20
1955.8970137353699
 30
0.0
 11
2137.0614527482699
 21
1917.3970137353699
 31
0.0
 70
     0
 13
2053.3393293101731
 23
1878.8970137353699
 33
0.0
 14
2078.196754427091
 24
1955.8970137353699
 34
0.0
 50
90.0
  0
LINE
  5
5852
  8
FUTO
 10
2057.3393293101722
 20
2015.8970137353699
 30
0.0
 11
2057.3393293101731
 21
1895.897013735369
 31
0.0
  0
LINE
  5
5853
  8
FUTO
 10
2056.3393293101731
 20
2015.8970137353699
 30
0.0
 11
2056.3393293101731
 21
1895.897013735369
 31
0.0
  0
DIMENSION
  5
5854
  8
SP
  2
*D10
 10
2162.0614527482699
 20
1708.897013735369
 30
0.0
 11
2137.0614527482699
 21
1793.8970137353699
 31
0.0
 70
     0
 13
2053.3393293101731
 23
1878.8970137353699
 33
0.0
 14
2053.3393293101731
 24
1708.897013735369
 34
0.0
 50
90.0
  0
LINE
  5
5855
  8
FUTO
 10
2053.3393293101731
 20
1878.8970137353699
 30
0.0
 11
2053.3393293101731
 21
1708.897013735369
 31
0.0
  0
ARC
  5
5856
  8
FUTO
 10
2046.3393293101731
 20
1895.897013735369
 30
0.0
 40
10.0
 50
270.0
 51
0.0
  0
ARC
  5
5857
  8
FUTO
 10
2046.3393293101719
 20
1895.897013735369
 30
0.0
 40
11.0
 50
270.0
 51
0.0
  0
ARC
  5
5858
  8
FUTO
 10
2046.3393293101719
 20
2015.8970137353699
 30
0.0
 40
11.0
 50
0.0
 51
89.999999999999986
  0
ARC
  5
5859
  8
FUTO
 10
2046.3393293101731
 20
2015.8970137353699
 30
0.0
 40
10.0
 50
0.0
 51
89.999999999999986
  0
LINE
  5
585A
  8
2
 10
1888.3393293101731
 20
2051.4967459856598
 30
0.0
 11
1888.3393293101731
 21
1631.2226149740379
 31
0.0
  0
LINE
  5
585B
  8
1
 10
1729.9393293101709
 20
1864.8970137353699
 30
0.0
 11
1729.9393293101709
 21
2046.8970137353699
 31
0.0
  0
LINE
  5
585C
  8
1
 10
1728.3393293101719
 20
1864.8970137353699
 30
0.0
 11
1728.3393293101719
 21
2046.8970137353699
 31
0.0
  0
LINE
  5
585D
  8
1
  6
CONTINUOUS
 10
1746.303475599186
 20
2011.897013735369
 30
0.0
 11
1746.303475599186
 21
1899.897013735369
 31
0.0
  0
LINE
  5
585E
  8
FUTO
 10
1753.3393293101731
 20
1878.8970137353699
 30
0.0
 11
1753.3393293101731
 21
1702.997013735371
 31
0.0
  0
LINE
  5
585F
  8
FUTO
 10
2023.3393293101731
 20
1878.8970137353699
 30
0.0
 11
2023.3393293101731
 21
1702.997013735371
 31
0.0
  0
LINE
  5
5860
  8
1
 10
1963.3393293101731
 20
1690.8201047443411
 30
0.0
 11
1963.3393293101731
 21
1717.7638879342351
 31
0.0
  0
LINE
  5
5861
  8
1
 10
1818.9511603488661
 20
1717.7638879342351
 30
0.0
 11
1818.9511603488661
 21
1690.8201047443411
 31
0.0
  0
LINE
  5
5862
  8
FUTO
 10
1753.3393293101731
 20
1702.997013735371
 30
0.0
 11
1818.9511603488661
 21
1702.997013735371
 31
0.0
  0
LINE
  5
5863
  8
1
 10
1963.3393293101731
 20
1690.8201047443411
 30
0.0
 11
1818.9511603488661
 21
1690.8201047443411
 31
0.0
  0
LINE
  5
5864
  8
1
 10
1948.37795982479
 20
1655.8970137353699
 30
0.0
 11
1828.3006987955559
 21
1655.8970137353699
 31
0.0
  0
POINT
  5
5865
  8
1
 10
1948.37795982479
 20
1655.8970137353699
 30
0.0
  0
LINE
  5
5866
  8
1
 10
1948.37795982479
 20
1655.8970137353699
 30
0.0
 11
1959.6929218742191
 21
1690.8201047443411
 31
0.0
  0
LINE
  5
5867
  8
FUTO
 10
2023.3393293101731
 20
1702.997013735371
 30
0.0
 11
1963.3393293101731
 21
1702.997013735371
 31
0.0
  0
LINE
  5
5868
  8
1
 10
1828.3006987955559
 20
1655.8970137353699
 30
0.0
 11
1821.8350061958811
 21
1690.8201047443411
 31
0.0
  0
LINE
  5
5869
  8
FUTO
 10
1723.3393293101731
 20
1878.8970137353699
 30
0.0
 11
1723.3393293101731
 21
1708.897013735369
 31
0.0
  0
LINE
  5
586A
  8
1
 10
1825.088957753718
 20
1717.7638879342351
 30
0.0
 11
1825.088957753718
 21
1848.3970137353699
 31
0.0
  0
LINE
  5
586B
  8
1
 10
1951.589700866625
 20
1717.7638879342351
 30
0.0
 11
1951.589700866625
 21
1848.3970137353699
 31
0.0
  0
LINE
  5
586C
  8
1
 10
1963.3393293101731
 20
1717.7638879342351
 30
0.0
 11
1818.9511603488661
 21
1717.7638879342351
 31
0.0
  0
LINE
  5
586D
  8
CT
 10
2040.3393293101731
 20
1738.7917895836299
 30
0.0
 11
2040.3393293101731
 21
1719.0022378871099
 31
0.0
  0
LINE
  5
586E
  8
2
 10
1972.0466287087329
 20
1776.8970137353699
 30
0.0
 11
1804.6320299116121
 21
1776.8970137353699
 31
0.0
  0
LINE
  5
586F
  8
FUTO
 10
1753.3393293101731
 20
1708.897013735369
 30
0.0
 11
1723.3393293101731
 21
1708.897013735369
 31
0.0
  0
CIRCLE
  5
5870
  8
FUTO
 10
1736.3393293101719
 20
1728.8970137353699
 30
0.0
 40
6.0
  0
LINE
  5
5871
  8
CT
 10
1746.2341051584319
 20
1728.8970137353699
 30
0.0
 11
1726.4445534619119
 21
1728.8970137353699
 31
0.0
  0
LINE
  5
5872
  8
CT
 10
1736.3393293101719
 20
1738.7917895836299
 30
0.0
 11
1736.3393293101719
 21
1719.0022378871099
 31
0.0
  0
LINE
  5
5873
  8
FUTO
 10
1753.3393293101731
 20
1878.8970137353699
 30
0.0
 11
2023.3393293101731
 21
1878.8970137353699
 31
0.0
  0
LINE
  5
5874
  8
1
  6
CONTINUOUS
 10
1825.0889577537189
 20
1837.8970137353699
 30
0.0
 11
1755.3393293101731
 21
1837.8970137353699
 31
0.0
  0
ARC
  5
5875
  8
1
 10
1771.3393293101719
 20
1881.8970137353699
 30
0.0
 40
3.0
 50
179.99999999999989
 51
270.0
  0
LINE
  5
5876
  8
FUTO
 10
1908.3393293101719
 20
1878.8970137353699
 30
0.0
 11
1908.3393293101719
 21
1866.897013735369
 31
0.0
  0
LINE
  5
5877
  8
FUTO
 10
1868.3393293101719
 20
1878.8970137353699
 30
0.0
 11
1868.3393293101719
 21
1866.897013735369
 31
0.0
  0
ARC
  5
5878
  8
1
 10
2005.3393293101731
 20
1881.8970137353699
 30
0.0
 40
3.0
 50
270.0
 51
0.0
  0
LINE
  5
5879
  8
1
 10
1899.7539493999161
 20
1853.397013735369
 30
0.0
 11
1876.924709220428
 21
1853.397013735369
 31
0.0
  0
LINE
  5
587A
  8
FUTO
 10
1908.3393293101731
 20
1866.897013735369
 30
0.0
 11
1868.3393293101731
 21
1866.8970137353699
 31
0.0
  0
LINE
  5
587B
  8
1
 10
1951.589700866625
 20
1848.3970137353699
 30
0.0
 11
1825.088957753718
 21
1848.3970137353699
 31
0.0
  0
LINE
  5
587C
  8
1
 10
1899.7539493999161
 20
1848.3970137353699
 30
0.0
 11
1899.7539493999161
 21
1853.397013735369
 31
0.0
  0
LINE
  5
587D
  8
CT
 10
2040.3393293101731
 20
1868.7917895836299
 30
0.0
 11
2040.3393293101731
 21
1849.0022378871099
 31
0.0
  0
LINE
  5
587E
  8
1
  6
CONTINUOUS
 10
2023.3393293101731
 20
1837.8970137353699
 30
0.0
 11
1951.589700866625
 21
1837.8970137353699
 31
0.0
  0
LINE
  5
587F
  8
1
 10
1897.3393293101731
 20
1853.397013735369
 30
0.0
 11
1897.3393293101731
 21
1866.897013735369
 31
0.0
  0
LINE
  5
5880
  8
1
 10
1876.924709220428
 20
1848.3970137353699
 30
0.0
 11
1876.924709220428
 21
1853.397013735369
 31
0.0
  0
LINE
  5
5881
  8
1
 10
1879.3393293101719
 20
1853.397013735369
 30
0.0
 11
1879.3393293101731
 21
1866.897013735369
 31
0.0
  0
ARC
  5
5882
  8
1
 10
2011.3393293101731
 20
1882.897013735369
 30
0.0
 40
3.0
 50
138.18968510422181
 51
179.99999999999989
  0
LINE
  5
5883
  8
1
 10
2008.3393293101731
 20
1882.897013735369
 30
0.0
 11
2008.3393293101731
 21
1881.8970137353699
 31
0.0
  0
LINE
  5
5884
  8
1
 10
1768.3393293101731
 20
1882.897013735369
 30
0.0
 11
1768.3393293101731
 21
1881.8970137353699
 31
0.0
  0
ARC
  5
5885
  8
1
 10
1765.3393293101719
 20
1882.897013735369
 30
0.0
 40
3.0
 50
0.0
 51
41.810314895778099
  0
LINE
  5
5886
  8
CT
 10
1736.3393293101731
 20
1868.7917895836299
 30
0.0
 11
1736.3393293101719
 21
1849.0022378871099
 31
0.0
  0
LINE
  5
5887
  8
CT
 10
1746.2341051584319
 20
1858.897013735369
 30
0.0
 11
1726.4445534619119
 21
1858.897013735369
 31
0.0
  0
CIRCLE
  5
5888
  8
FUTO
 10
1736.3393293101719
 20
1858.897013735369
 30
0.0
 40
6.0
  0
LINE
  5
5889
  8
2
 10
1729.9393293101709
 20
1864.8970137353699
 30
0.0
 11
1728.3393293101719
 21
1864.8970137353699
 31
0.0
  0
LINE
  5
588A
  8
FUTO
 10
1753.3393293101731
 20
1878.8970137353699
 30
0.0
 11
1723.3393293101731
 21
1878.8970137353699
 31
0.0
  0
LINE
  5
588B
  8
1
  6
CONTINUOUS
 10
1731.303475599186
 20
1884.897013735369
 30
0.0
 11
1746.303475599186
 21
1899.897013735369
 31
0.0
  0
LINE
  5
588C
  8
FUTO
 10
1771.3393293101719
 20
2032.897013735369
 30
0.0
 11
2005.3393293101731
 21
2032.897013735369
 31
0.0
  0
LINE
  5
588D
  8
1
 10
2008.3393293101731
 20
2028.8970137353699
 30
0.0
 11
2008.3393293101731
 21
2029.897013735369
 31
0.0
  0
ARC
  5
588E
  8
1
 10
2011.3393293101731
 20
2028.8970137353699
 30
0.0
 40
3.0
 50
179.99999999999989
 51
221.81031489577799
  0
ARC
  5
588F
  8
1
 10
2005.3393293101731
 20
2029.897013735369
 30
0.0
 40
3.0
 50
0.0
 51
90.0
  0
ARC
  5
5890
  8
1
 10
1765.3393293101719
 20
2028.8970137353699
 30
0.0
 40
3.0
 50
318.18968510422178
 51
0.0
  0
LINE
  5
5891
  8
1
 10
1768.3393293101731
 20
2028.8970137353699
 30
0.0
 11
1768.3393293101731
 21
2029.897013735369
 31
0.0
  0
ARC
  5
5892
  8
1
 10
1771.3393293101719
 20
2029.897013735369
 30
0.0
 40
3.0
 50
90.0
 51
179.99999999999989
  0
LINE
  5
5893
  8
2
 10
1729.9393293101709
 20
2046.8970137353699
 30
0.0
 11
1728.3393293101719
 21
2046.897013735371
 31
0.0
  0
LINE
  5
5894
  8
1
  6
CONTINUOUS
 10
1731.303475599186
 20
2026.8970137353699
 30
0.0
 11
1746.303475599186
 21
2011.897013735369
 31
0.0
  0
LINE
  5
5895
  8
4
 10
1531.9192336154081
 20
2469.408755235494
 30
0.0
 11
3131.9192336154078
 21
2469.408755235494
 31
0.0
  0
LINE
  5
5896
  8
4
 10
1531.9192336154081
 20
2669.408755235494
 30
0.0
 11
3131.9192336154078
 21
2669.408755235494
 31
0.0
  0
LINE
  5
5897
  8
4
 10
1281.9192336154081
 20
2950.0000009706891
 30
0.0
 11
3381.9192336154078
 21
2950.0000009706891
 31
0.0
  0
LINE
  5
5898
  8
4
 10
1531.9192336154081
 20
2669.408755235494
 30
0.0
 11
1531.9192336154081
 21
2469.408755235494
 31
0.0
  0
TEXT
  5
5899
  8
4
 10
1784.719233615408
 20
2533.408755235494
 30
0.0
 40
72.0
  1
遠心式片吸込片持多翼ファン
 72
     4
 11
2331.9192336154078
 21
2569.408755235494
 31
0.0
  0
LINE
  5
589A
  8
4
 10
2722.5366559752729
 20
2786.6522625204411
 30
0.0
 11
3131.9192336154078
 21
2786.6522625204411
 31
0.0
  0
LINE
  5
589B
  8
4
 10
3131.9192336154078
 20
2681.2635840960902
 30
0.0
 11
2722.5366559752729
 21
2681.2635840960902
 31
0.0
  0
TEXT
  5
589C
  8
4
 10
2750.8887928646982
 20
2706.061082465998
 30
0.0
 40
56.000000000000007
  1
No.
  0
LINE
  5
589D
  8
4
 10
2722.5366559752729
 20
2681.2635840960902
 30
0.0
 11
2722.5366559752729
 21
2786.6522625204411
 31
0.0
  0
LINE
  5
589E
  8
4
 10
3131.9192336154078
 20
2669.408755235494
 30
0.0
 11
3131.9192336154078
 21
2469.408755235494
 31
0.0
  0
LINE
  5
589F
  8
4
 10
3131.9192336154078
 20
2786.6522625204411
 30
0.0
 11
3131.9192336154078
 21
2681.2635840960902
 31
0.0
  0
LINE
  5
58A0
  8
4
 10
3381.9192336154078
 20
2950.0000009706891
 30
0.0
 11
3381.9192336154078
 21
2950.0000009706891
 31
0.0
  0
LINE
  5
5E91
  8
FUTO
 10
2892.8822125799629
 20
1254.9956548530961
 30
0.0
 11
2772.8822125799629
 21
1254.9956548530961
 31
0.0
  0
ARC
  5
5E92
  8
FUTO
 10
2892.8822125799629
 20
1244.9956548530961
 30
0.0
 40
10.0
 50
0.0000000000013028
 51
89.999999999997385
  0
ARC
  5
5E93
  8
FUTO
 10
2772.8822125799629
 20
1244.9956548530961
 30
0.0
 40
10.0
 50
90.000000000002615
 51
179.99999999999861
  0
LINE
  5
5E94
  8
FUTO
 10
2892.8822125799629
 20
1255.9956548530961
 30
0.0
 11
2772.8822125799629
 21
1255.9956548530961
 31
0.0
  0
ARC
  5
5E95
  8
FUTO
 10
2772.8822125799629
 20
1244.9956548530961
 30
0.0
 40
11.0
 50
90.000000000002615
 51
179.99999999999861
  0
LINE
  5
5E96
  8
1
  6
CONTINUOUS
 10
2761.8822125799629
 20
1244.9956548530961
 30
0.0
 11
2761.8822125799629
 21
913.99565485309586
 31
0.0
  0
ARC
  5
5E97
  8
FUTO
 10
2898.8822125799629
 20
1047.9956548530949
 30
0.0
 40
25.0
 50
296.10388113733632
 51
0.0
  0
LINE
  5
5E98
  8
1
  6
CONTINUOUS
 10
2903.8822125799629
 20
913.99565485309586
 30
0.0
 11
2903.8822125799629
 21
1244.9956548530961
 31
0.0
  0
ARC
  5
5E99
  8
FUTO
 10
2892.8822125799629
 20
1244.9956548530961
 30
0.0
 40
11.0
 50
0.0000000000013028
 51
89.999999999997385
  0
LINE
  5
6173
  8
1
 10
1723.339329310174
 20
724.29565485309558
 30
0.0
 11
1751.039329310174
 21
724.29565485309558
 31
0.0
  0
LINE
  5
6174
  8
1
 10
1723.339329310174
 20
779.69565485309568
 30
0.0
 11
1751.039329310174
 21
779.69565485309579
 31
0.0
  0
LINE
  5
6175
  8
1
 10
1723.339329310174
 20
721.99565485309563
 30
0.0
 11
1753.339329310174
 21
721.99565485309574
 31
0.0
  0
LINE
  5
6176
  8
1
 10
1723.339329310174
 20
781.99565485309563
 30
0.0
 11
1753.339329310174
 21
781.99565485309563
 31
0.0
  0
DIMENSION
  5
6177
  8
SP
  2
*D15
 10
1723.339329310174
 20
651.99565485309597
 30
0.0
 11
1805.839329310174
 21
676.99565485309597
 31
0.0
 70
     0
 13
1888.339329310174
 23
701.08733075560656
 33
0.0
 14
1723.339329310174
 24
721.99565485309563
 34
0.0
  0
DIMENSION
  5
6178
  8
SP
  2
*D16
 10
2053.3393293101758
 20
581.99565485309563
 30
0.0
 11
1888.3393293101749
 21
606.99565485309563
 31
0.0
 70
     0
 13
1723.339329310174
 23
721.99565485309563
 33
0.0
 14
2053.3393293101758
 24
721.99565485309597
 34
0.0
  0
LINE
  5
6179
  8
1
 10
1723.339329310174
 20
724.29565485309558
 30
0.0
 11
1723.339329310174
 21
721.99565485309563
 31
0.0
  0
LINE
  5
617A
  8
1
 10
1723.339329310174
 20
781.99565485309563
 30
0.0
 11
1723.339329310174
 21
779.69565485309579
 31
0.0
  0
DIMENSION
  5
617B
  8
SP
  2
*D17
 10
2053.3393293101758
 20
651.99565485309597
 30
0.0
 11
1970.8393293101749
 21
676.99565485309597
 31
0.0
 70
     0
 13
1888.339329310174
 23
701.08733075560656
 33
0.0
 14
2053.3393293101758
 24
721.99565485309597
 34
0.0
  0
LINE
  5
617C
  8
FUTO
 10
1753.339329310174
 20
741.99565485309563
 30
0.0
 11
2023.339329310176
 21
741.99565485309563
 31
0.0
  0
LINE
  5
617D
  8
FUTO
 10
1753.339329310174
 20
781.99565485309563
 30
0.0
 11
2023.339329310176
 21
781.99565485309563
 31
0.0
  0
LINE
  5
617E
  8
1
 10
1751.039329310174
 20
779.69565485309579
 30
0.0
 11
1751.039329310174
 21
724.29565485309558
 31
0.0
  0
LINE
  5
617F
  8
1
 10
1753.339329310174
 20
781.99565485309563
 30
0.0
 11
1753.339329310174
 21
721.99565485309563
 31
0.0
  0
LINE
  5
6180
  8
1
 10
2023.339329310176
 20
781.99565485309563
 30
0.0
 11
2023.339329310176
 21
721.99565485309563
 31
0.0
  0
LINE
  5
6181
  8
1
 10
2025.6393293101751
 20
779.69565485309579
 30
0.0
 11
2025.6393293101751
 21
724.29565485309558
 31
0.0
  0
LINE
  5
6182
  8
1
 10
2053.339329310174
 20
724.29565485309558
 30
0.0
 11
2053.3393293101758
 21
721.99565485309563
 31
0.0
  0
LINE
  5
6183
  8
1
 10
2053.3393293101758
 20
721.99565485309563
 30
0.0
 11
2023.339329310176
 21
721.99565485309574
 31
0.0
  0
LINE
  5
6184
  8
1
 10
2053.3393293101758
 20
724.29565485309558
 30
0.0
 11
2025.6393293101751
 21
724.29565485309558
 31
0.0
  0
LINE
  5
6185
  8
1
 10
2053.3393293101758
 20
781.99565485309563
 30
0.0
 11
2053.3393293101758
 21
779.69565485309579
 31
0.0
  0
LINE
  5
6186
  8
1
 10
2053.3393293101758
 20
781.99565485309563
 30
0.0
 11
2023.339329310176
 21
781.99565485309563
 31
0.0
  0
LINE
  5
6187
  8
1
 10
2053.3393293101758
 20
779.69565485309568
 30
0.0
 11
2025.6393293101751
 21
779.69565485309579
 31
0.0
  0
LINE
  5
6188
  8
2
 10
2038.3393293101749
 20
815.9768237714045
 30
0.0
 11
2038.3393293101731
 21
771.30690476956806
 31
0.0
  0
LINE
  5
6189
  8
2
 10
1738.3393293101749
 20
815.9768237714045
 30
0.0
 11
1738.3393293101749
 21
768.20417841581718
 31
0.0
  0
DIMENSION
  5
618A
  8
SP
  2
*D18
 10
2585.8822125799661
 20
651.99565485309574
 30
0.0
 11
2670.8822125799661
 21
676.99565485309574
 31
0.0
 70
     0
 13
2755.8822125799652
 23
721.99565485309586
 33
0.0
 14
2585.8822125799661
 24
721.99565485309586
 34
0.0
  0
LINE
  5
618B
  8
FUTO
 10
2755.8822125799661
 20
781.99565485309574
 30
0.0
 11
2755.8822125799661
 21
721.99565485309586
 31
0.0
  0
LINE
  5
618C
  8
FUTO
 10
2585.8822125799661
 20
781.99565485309574
 30
0.0
 11
2585.8822125799661
 21
721.99565485309586
 31
0.0
  0
LINE
  5
618D
  8
1
 10
2755.8822125799661
 20
724.2956548530957
 30
0.0
 11
2585.8822125799661
 21
724.2956548530957
 31
0.0
  0
LINE
  5
618E
  8
1
 10
2755.8822125799661
 20
721.99565485309574
 30
0.0
 11
2585.8822125799661
 21
721.99565485309586
 31
0.0
  0
LINE
  5
618F
  8
1
 10
2755.8822125799661
 20
779.69565485309579
 30
0.0
 11
2585.8822125799661
 21
779.6956548530959
 31
0.0
  0
LINE
  5
6190
  8
1
 10
2755.8822125799661
 20
781.99565485309574
 30
0.0
 11
2585.8822125799661
 21
781.99565485309574
 31
0.0
  0
DIMENSION
  5
6191
  8
SP
  2
*D19
 10
2832.8822125799638
 20
651.99565485309574
 30
0.0
 11
2794.3822125799652
 21
676.99565485309574
 31
0.0
 70
     0
 13
2755.8822125799661
 23
721.99565485309586
 33
0.0
 14
2832.8822125799638
 24
853.82143378090757
 34
0.0
  0
DIMENSION
  5
655B
  8
SP
  2
*D20
 10
1658.3393293101719
 20
721.99565485309563
 30
0.0
 11
1633.3393293101719
 21
636.45902007164182
 31
0.0
 70
     0
 13
1723.339329310174
 23
781.99565485309586
 33
0.0
 14
1723.339329310174
 24
721.99565485309563
 34
0.0
 50
90.0
1001
ACAD
1000
DSTYLE
1002
{
1070
     6
1000
DOT
1002
}
  0
DIMENSION
  5
655C
  8
SP
  2
*D21
 10
1658.3393293101731
 20
781.99565485309586
 30
0.0
 11
1626.979204704239
 21
783.05420095454735
 31
0.0
 70
   128
 13
1723.3393293101719
 23
803.99565485309586
 33
0.0
 14
1723.339329310174
 24
781.99565485309586
 34
0.0
 50
90.0
1001
ACAD
1000
DSTYLE
1002
{
1070
   287
1070
     5
1070
   279
1070
     2
1070
     3
1000
（<>）
1070
     6
1000
NONE
1070
     7
1000
NONE
1002
}
  0
TEXT
  5
6677
  8
4
 10
2096.0662275634891
 20
2383.428842303204
 30
0.0
 40
53.999999999999993
  1
床置防振ベッド型
  0
ENDSEC
  0
EOF
