  0
SECTION
  2
HEADER
  9
$ACADVER
  1
AC1009
  9
$INSBASE
 10
0.0
 20
0.0
 30
0.0
  9
$EXTMIN
 10
6208.32856416303
 20
0.0000009706882338
 30
0.0
  9
$EXTMAX
 10
8308.32856416303
 20
2950.0000009706878
 30
0.0
  9
$LIMMIN
 10
0.0
 20
0.0
  9
$LIMMAX
 10
297.0
 20
210.0
  9
$ORTHOMODE
 70
     0
  9
$REGENMODE
 70
     1
  9
$FILLMODE
 70
     1
  9
$QTEXTMODE
 70
     0
  9
$MIRRTEXT
 70
     0
  9
$DRAGMODE
 70
     2
  9
$LTSCALE
 40
50.0
  9
$OSMODE
 70
   545
  9
$ATTMODE
 70
     1
  9
$TEXTSIZE
 40
3.5
  9
$TRACEWID
 40
0.05
  9
$TEXTSTYLE
  7
STANDARD
  9
$CLAYER
  8
SP
  9
$CELTYPE
  6
BYLAYER
  9
$CECOLOR
 62
   256
  9
$DIMSCALE
 40
10.0
  9
$DIMASZ
 40
2.5
  9
$DIMEXO
 40
1.0
  9
$DIMDLI
 40
7.0
  9
$DIMRND
 40
0.0
  9
$DIMDLE
 40
0.0
  9
$DIMEXE
 40
1.0
  9
$DIMTP
 40
0.0
  9
$DIMTM
 40
0.0
  9
$DIMTXT
 40
3.0
  9
$DIMCEN
 40
0.0
  9
$DIMTSZ
 40
0.0
  9
$DIMTOL
 70
     0
  9
$DIMLIM
 70
     0
  9
$DIMTIH
 70
     0
  9
$DIMTOH
 70
     0
  9
$DIMSE1
 70
     0
  9
$DIMSE2
 70
     0
  9
$DIMTAD
 70
     1
  9
$DIMZIN
 70
     8
  9
$DIMBLK
  1

  9
$DIMASO
 70
     1
  9
$DIMSHO
 70
     1
  9
$DIMPOST
  1

  9
$DIMAPOST
  1

  9
$DIMALT
 70
     0
  9
$DIMALTD
 70
     2
  9
$DIMALTF
 40
0.03937
  9
$DIMLFAC
 40
1.0
  9
$DIMTOFL
 70
     1
  9
$DIMTVP
 40
0.0
  9
$DIMTIX
 70
     0
  9
$DIMSOXD
 70
     0
  9
$DIMSAH
 70
     1
  9
$DIMBLK1
  1
OPEN
  9
$DIMBLK2
  1
OPEN
  9
$DIMSTYLE
  2
GOD
  9
$DIMCLRD
 70
   256
  9
$DIMCLRE
 70
   256
  9
$DIMCLRT
 70
   256
  9
$DIMTFAC
 40
1.0
  9
$DIMGAP
 40
1.0
  9
$LUNITS
 70
     2
  9
$LUPREC
 70
     3
  9
$SKETCHINC
 40
0.1
  9
$FILLETRAD
 40
10.0
  9
$AUNITS
 70
     0
  9
$AUPREC
 70
     2
  9
$MENU
  1
acad
  9
$ELEVATION
 40
0.0
  9
$PELEVATION
 40
0.0
  9
$THICKNESS
 40
0.0
  9
$LIMCHECK
 70
     0
  9
$BLIPMODE
 70
     0
  9
$CHAMFERA
 40
0.0
  9
$CHAMFERB
 40
0.0
  9
$SKPOLY
 70
     0
  9
$TDCREATE
 40
2454939.5747812148
  9
$TDUPDATE
 40
2455012.4086311799
  9
$TDINDWG
 40
0.0368092593
  9
$TDUSRTIMER
 40
0.0368092593
  9
$USRTIMER
 70
     1
  9
$ANGBASE
 50
0.0
  9
$ANGDIR
 70
     0
  9
$PDMODE
 70
     0
  9
$PDSIZE
 40
1.0
  9
$PLINEWID
 40
0.0
  9
$COORDS
 70
     2
  9
$SPLFRAME
 70
     0
  9
$SPLINETYPE
 70
     6
  9
$SPLINESEGS
 70
     8
  9
$ATTDIA
 70
     0
  9
$ATTREQ
 70
     1
  9
$HANDLING
 70
 22529
  9
$HANDSEED
  5
6457
  9
$SURFTAB1
 70
     6
  9
$SURFTAB2
 70
     6
  9
$SURFTYPE
 70
     6
  9
$SURFU
 70
     6
  9
$SURFV
 70
     6
  9
$UCSNAME
  2

  9
$UCSORG
 10
0.0
 20
0.0
 30
0.0
  9
$UCSXDIR
 10
1.0
 20
0.0
 30
0.0
  9
$UCSYDIR
 10
0.0
 20
1.0
 30
0.0
  9
$PUCSNAME
  2

  9
$PUCSORG
 10
0.0
 20
0.0
 30
0.0
  9
$PUCSXDIR
 10
1.0
 20
0.0
 30
0.0
  9
$PUCSYDIR
 10
0.0
 20
1.0
 30
0.0
  9
$USERI1
 70
     0
  9
$USERI2
 70
     0
  9
$USERI3
 70
     0
  9
$USERI4
 70
     0
  9
$USERI5
 70
     0
  9
$USERR1
 40
0.0
  9
$USERR2
 40
0.0
  9
$USERR3
 40
0.0
  9
$USERR4
 40
0.0
  9
$USERR5
 40
0.0
  9
$WORLDVIEW
 70
     1
  9
$SHADEDGE
 70
     3
  9
$SHADEDIF
 70
    70
  9
$TILEMODE
 70
     1
  9
$MAXACTVP
 70
    16
  9
$PLIMCHECK
 70
     0
  9
$PEXTMIN
 10
1.0000000000000000E+020
 20
1.0000000000000000E+020
 30
1.0000000000000000E+020
  9
$PEXTMAX
 10
-1.0000000000000000E+020
 20
-1.0000000000000000E+020
 30
-1.0000000000000000E+020
  9
$PLIMMIN
 10
0.0
 20
0.0
  9
$PLIMMAX
 10
12.0
 20
9.0
  9
$UNITMODE
 70
     0
  9
$VISRETAIN
 70
     0
  9
$PLINEGEN
 70
     0
  9
$PSLTSCALE
 70
     0
  0
ENDSEC
  0
SECTION
  2
TABLES
  0
TABLE
  2
VPORT
 70
     2
  0
VPORT
  2
*ACTIVE
 70
     0
 10
0.0
 20
0.0
 11
1.0
 21
1.0
 12
7258.2509885955687
 22
1475.000007353849
 13
0.0
 23
0.0
 14
5.0
 24
5.0
 15
0.0
 25
0.0
 16
0.0
 26
0.0
 36
1.0
 17
0.0
 27
0.0
 37
0.0
 40
2974.263157169094
 41
1.6307901907356941
 42
50.0
 43
0.0
 44
0.0
 50
0.0
 51
0.0
 71
     0
 72
   100
 73
     1
 74
     0
 75
     0
 76
     0
 77
     0
 78
     0
  0
ENDTAB
  0
TABLE
  2
LTYPE
 70
     4
  0
LTYPE
  2
CONTINUOUS
 70
     0
  3
Solid line
 72
    65
 73
     0
 40
0.0
  0
LTYPE
  2
CENTER
 70
     0
  3
____ _ ____ _ ____ _ ____ _ ____ _ ____ _ ____ 
 72
    65
 73
     4
 40
2.0
 49
1.25
 49
-0.25
 49
0.25
 49
-0.25
  0
LTYPE
  2
HIDDEN
 70
     0
  3
__ __ __ __ __ __ __ __ __ __ __ __ __ __ __ __
 72
    65
 73
     2
 40
0.375
 49
0.25
 49
-0.125
  0
LTYPE
  2
PHANTOM
 70
     0
  3
______  __  __  ______  __  __  ______  __  __ 
 72
    65
 73
     6
 40
2.5
 49
1.25
 49
-0.25
 49
0.25
 49
-0.25
 49
0.25
 49
-0.25
  0
ENDTAB
  0
TABLE
  2
LAYER
 70
    13
  0
LAYER
  2
0
 70
     0
 62
     7
  6
CONTINUOUS
  0
LAYER
  2
CT
 70
     0
 62
     3
  6
CENTER
  0
LAYER
  2
FUTO
 70
     0
 62
     4
  6
CONTINUOUS
  0
LAYER
  2
HOSO
 70
     0
 62
     7
  6
CONTINUOUS
  0
LAYER
  2
KL
 70
     0
 62
     7
  6
HIDDEN
  0
LAYER
  2
MOJI
 70
     0
 62
     3
  6
CONTINUOUS
  0
LAYER
  2
SL
 70
     0
 62
     1
  6
PHANTOM
  0
LAYER
  2
SP
 70
     0
 62
     2
  6
CONTINUOUS
  0
LAYER
  2
DEFPOINTS
 70
     0
 62
     7
  6
CONTINUOUS
  0
LAYER
  2
1
 70
     0
 62
     4
  6
CONTINUOUS
  0
LAYER
  2
3
 70
     0
 62
     2
  6
CONTINUOUS
  0
LAYER
  2
2
 70
     0
 62
     3
  6
CENTER
  0
LAYER
  2
4
 70
     0
 62
     7
  6
CONTINUOUS
  0
ENDTAB
  0
TABLE
  2
STYLE
 70
     1
  0
STYLE
  2
STANDARD
 70
     0
 40
0.0
 41
1.0
 50
15.0
 71
     0
 42
3.5
  3
C:\Program Files\AutoCAD LT\simplex.shx
  4
C:\Program Files\AutoCAD LT\extfont.shx
  0
ENDTAB
  0
TABLE
  2
VIEW
 70
     0
  0
ENDTAB
  0
TABLE
  2
UCS
 70
     0
  0
ENDTAB
  0
TABLE
  2
APPID
 70
     1
  0
APPID
  2
ACAD
 70
     0
  0
ENDTAB
  0
TABLE
  2
DIMSTYLE
 70
     3
  0
DIMSTYLE
  2
STANDARD
 70
     0
  3

  4

  5

  6

  7

 40
1.0
 41
0.18
 42
0.0625
 43
0.38
 44
0.18
 45
0.0
 46
0.0
 47
0.0
 48
0.0
140
0.18
141
0.09
142
0.0
143
25.399999999999999
144
1.0
145
0.0
146
1.0
147
0.09
 71
     0
 72
     0
 73
     1
 74
     1
 75
     0
 76
     0
 77
     0
 78
     0
170
     0
171
     2
172
     0
173
     0
174
     0
175
     0
176
     0
177
     0
178
     0
  0
DIMSTYLE
  2
GOD
 70
     0
  3

  4

  5

  6
OPEN
  7
OPEN
 40
10.0
 41
2.5
 42
1.0
 43
7.0
 44
1.0
 45
0.0
 46
0.0
 47
0.0
 48
0.0
140
3.0
141
0.0
142
0.0
143
0.03937
144
1.0
145
0.0
146
1.0
147
1.0
 71
     0
 72
     0
 73
     0
 74
     0
 75
     0
 76
     0
 77
     1
 78
     8
170
     0
171
     2
172
     1
173
     1
174
     0
175
     0
176
   256
177
   256
178
   256
  0
DIMSTYLE
  2
DIA1
 70
     0
  3

  4

  5
ARROW
  6

  7

 40
1.0
 41
2.0
 42
1.0
 43
10.0
 44
1.0
 45
0.0
 46
0.0
 47
0.0
 48
0.0
140
2.5
141
0.0
142
0.0
143
25.399999999999999
144
1.0
145
0.0
146
1.0
147
0.09
 71
     0
 72
     0
 73
     0
 74
     0
 75
     0
 76
     0
 77
     1
 78
     8
170
     0
171
     2
172
     1
173
     0
174
     0
175
     0
176
     2
177
     2
178
     2
  0
ENDTAB
  0
ENDSEC
  0
SECTION
  2
BLOCKS
  0
BLOCK
  8
0
  2
$MODEL_SPACE
 70
     0
 10
0.0
 20
0.0
 30
0.0
  3
$MODEL_SPACE
  1

  0
ENDBLK
  5
1B
  8
0
  0
BLOCK
 67
     1
  8
0
  2
$PAPER_SPACE
 70
     0
 10
0.0
 20
0.0
 30
0.0
  3
$PAPER_SPACE
  1

  0
ENDBLK
  5
18
 67
     1
  8
0
  0
BLOCK
  8
0
  2
_OPEN
 70
     0
 10
0.0
 20
0.0
 30
0.0
  3
_OPEN
  1

  0
LINE
  5
1E81
  8
0
  6
BYBLOCK
 62
     0
 10
-1.0
 20
0.1666666666666666
 30
0.0
 11
0.0
 21
0.0
 31
0.0
  0
LINE
  5
1E82
  8
0
  6
BYBLOCK
 62
     0
 10
0.0
 20
0.0
 30
0.0
 11
-1.0
 21
-0.1666666666666666
 31
0.0
  0
LINE
  5
1E83
  8
0
  6
BYBLOCK
 62
     0
 10
0.0
 20
0.0
 30
0.0
 11
-1.0
 21
0.0
 31
0.0
  0
ENDBLK
  5
1E84
  8
0
  0
BLOCK
  8
0
  2
_DOT
 70
     0
 10
0.0
 20
0.0
 30
0.0
  3
_DOT
  1

  0
LINE
  5
1EC3
  8
0
  6
BYBLOCK
 62
     0
 10
0.0
 20
0.0
 30
0.0
 11
-1.0
 21
-0.0000000000000284
 31
0.0
  0
POLYLINE
  5
1EC4
  8
0
  6
BYBLOCK
 62
     0
 66
     1
 10
0.0
 20
0.0
 30
0.0
 70
     1
 40
0.1666666666666666
 41
0.1666666666666666
  0
VERTEX
  5
6445
  8
0
  6
BYBLOCK
 62
     0
 10
-0.0833333333333286
 20
-0.0000000000000284
 30
0.0
 42
1.0
  0
VERTEX
  5
6446
  8
0
  6
BYBLOCK
 62
     0
 10
0.0833333333333286
 20
-0.0000000000000284
 30
0.0
 42
1.0
  0
SEQEND
  5
6447
  8
0
  6
BYBLOCK
 62
     0
  0
ENDBLK
  5
1EB8
  8
0
  0
BLOCK
  8
0
  2
ARROW
 70
     0
 10
0.0
 20
0.0
 30
0.0
  3
ARROW
  1

  0
LINE
  5
1EEF
  8
0
 10
-0.9999999999999991
 20
0.1666666667000003
 30
0.0
 11
0.0
 21
0.0
 31
0.0
  0
LINE
  5
1EF0
  8
0
 10
-0.9999999999999991
 20
0.0
 30
0.0
 11
0.0
 21
0.0
 31
0.0
  0
LINE
  5
1EF1
  8
0
 10
-0.9999999999999991
 20
-0.1666666667000003
 30
0.0
 11
0.0
 21
0.0
 31
0.0
  0
ENDBLK
  5
1EF3
  8
0
  0
BLOCK
  8
0
  2
_NONE
 70
     0
 10
0.0
 20
0.0
 30
0.0
  3
_NONE
  1

  0
ENDBLK
  5
1F6F
  8
0
  0
BLOCK
  8
0
  2
*D38
 70
     1
 10
0.0
 20
0.0
 30
0.0
  3
*D38
  1

  0
LINE
  5
6397
  8
SP
 10
6706.69884506586
 20
1064.1661044737
 30
0.0
 11
6583.5943812013047
 21
1064.1661044737
 31
0.0
  0
LINE
  5
6398
  8
SP
 10
6869.5943812013074
 20
1204.1661044737009
 30
0.0
 11
6583.5943812013047
 21
1204.1661044737009
 31
0.0
  0
LINE
  5
6399
  8
SP
 10
6593.5943812013047
 20
1089.1661044737
 30
0.0
 11
6593.5943812013047
 21
1179.1661044737009
 31
0.0
  0
INSERT
  5
639A
  8
SP
  2
_OPEN
 10
6593.5943812013047
 20
1064.1661044737
 30
0.0
 41
25.0
 42
25.0
 43
25.0
 50
270.0
  0
INSERT
  5
639B
  8
SP
  2
_OPEN
 10
6593.5943812013047
 20
1204.1661044737009
 30
0.0
 41
25.0
 42
25.0
 43
25.0
 50
90.0
  0
TEXT
  5
639C
  8
SP
 10
6583.5943812013047
 20
1092.6587669432311
 30
0.0
 40
30.0
  1
140
 50
90.0
 51
15.0
  0
POINT
  5
639D
  8
DEFPOINTS
 62
     0
 10
6716.69884506586
 20
1064.1661044737
 30
0.0
  0
POINT
  5
639E
  8
DEFPOINTS
 62
     0
 10
6879.5943812013074
 20
1204.1661044737009
 30
0.0
  0
POINT
  5
639F
  8
DEFPOINTS
 62
     0
 10
6593.5943812013047
 20
1204.1661044737009
 30
0.0
  0
ENDBLK
  5
6210
  8
0
  0
BLOCK
  8
0
  2
*D39
 70
     1
 10
0.0
 20
0.0
 30
0.0
  3
*D39
  1

  0
LINE
  5
6373
  8
SP
 10
6706.69884506586
 20
1064.1661044737
 30
0.0
 11
6583.5943812013047
 21
1064.1661044737
 31
0.0
  0
LINE
  5
6374
  8
SP
 10
6718.5943812013047
 20
824.16610447370022
 30
0.0
 11
6583.5943812013047
 21
824.16610447370022
 31
0.0
  0
LINE
  5
6375
  8
SP
 10
6593.5943812013047
 20
1039.1661044737
 30
0.0
 11
6593.5943812013047
 21
849.16610447370022
 31
0.0
  0
INSERT
  5
6376
  8
SP
  2
_OPEN
 10
6593.5943812013047
 20
1064.1661044737
 30
0.0
 41
25.0
 42
25.0
 43
25.0
 50
90.0
  0
INSERT
  5
6377
  8
SP
  2
_OPEN
 10
6593.5943812013047
 20
824.16610447370022
 30
0.0
 41
25.0
 42
25.0
 43
25.0
 50
270.0
  0
TEXT
  5
6378
  8
SP
 10
6583.5943812013047
 20
903.05529285132343
 30
0.0
 40
30.0
  1
240
 50
90.0
 51
15.0
  0
POINT
  5
6379
  8
DEFPOINTS
 62
     0
 10
6716.69884506586
 20
1064.1661044737
 30
0.0
  0
POINT
  5
637A
  8
DEFPOINTS
 62
     0
 10
6728.5943812013056
 20
824.16610447370022
 30
0.0
  0
POINT
  5
637B
  8
DEFPOINTS
 62
     0
 10
6593.5943812013047
 20
824.16610447370022
 30
0.0
  0
ENDBLK
  5
621C
  8
0
  0
BLOCK
  8
0
  2
*D40
 70
     1
 10
0.0
 20
0.0
 30
0.0
  3
*D40
  1

  0
LINE
  5
636A
  8
SP
 10
6706.69884506586
 20
1064.1661044737
 30
0.0
 11
6653.5943812013056
 21
1064.1661044737
 31
0.0
  0
LINE
  5
636B
  8
SP
 10
6723.5943812013056
 20
864.16610447370158
 30
0.0
 11
6653.5943812013056
 21
864.16610447370158
 31
0.0
  0
LINE
  5
636C
  8
SP
 10
6663.5943812013047
 20
1039.1661044737
 30
0.0
 11
6663.5943812013047
 21
889.16610447370158
 31
0.0
  0
INSERT
  5
636D
  8
SP
  2
_OPEN
 10
6663.5943812013047
 20
1064.1661044737
 30
0.0
 41
25.0
 42
25.0
 43
25.0
 50
90.0
  0
INSERT
  5
636E
  8
SP
  2
_OPEN
 10
6663.5943812013047
 20
864.16610447370158
 30
0.0
 41
25.0
 42
25.0
 43
25.0
 50
270.0
  0
TEXT
  5
636F
  8
SP
 10
6653.5943812013056
 20
923.055292851324
 30
0.0
 40
30.0
  1
200
 50
90.0
 51
15.0
  0
POINT
  5
6370
  8
DEFPOINTS
 62
     0
 10
6716.69884506586
 20
1064.1661044737
 30
0.0
  0
POINT
  5
6371
  8
DEFPOINTS
 62
     0
 10
6733.5943812013056
 20
864.16610447370158
 30
0.0
  0
POINT
  5
6372
  8
DEFPOINTS
 62
     0
 10
6663.5943812013047
 20
864.16610447370158
 30
0.0
  0
ENDBLK
  5
6228
  8
0
  0
BLOCK
  8
0
  2
*D41
 70
     1
 10
0.0
 20
0.0
 30
0.0
  3
*D41
  1

  0
LINE
  5
63A9
  8
SP
 10
6893.5943812013084
 20
1250.3266178903
 30
0.0
 11
6893.5943812013084
 21
1304.1661044737
 31
0.0
  0
LINE
  5
63AA
  8
SP
 10
7061.5943812013056
 20
1058.1661044737009
 30
0.0
 11
7061.5943812013056
 21
1304.1661044737
 31
0.0
  0
LINE
  5
63AB
  8
SP
 10
6918.5943812013084
 20
1294.1661044737
 30
0.0
 11
7036.5943812013056
 21
1294.1661044737
 31
0.0
  0
INSERT
  5
63AC
  8
SP
  2
_OPEN
 10
6893.5943812013084
 20
1294.1661044737
 30
0.0
 41
25.0
 42
25.0
 43
25.0
 50
180.0
  0
INSERT
  5
63AD
  8
SP
  2
_OPEN
 10
7061.5943812013056
 20
1294.1661044737
 30
0.0
 41
25.0
 42
25.0
 43
25.0
  0
TEXT
  5
63AE
  8
SP
 10
6935.8956513905277
 20
1304.1661044737
 30
0.0
 40
30.0
  1
168
 51
15.0
  0
POINT
  5
63AF
  8
DEFPOINTS
 62
     0
 10
6893.5943812013084
 20
1240.3266178903
 30
0.0
  0
POINT
  5
63B0
  8
DEFPOINTS
 62
     0
 10
7061.5943812013056
 20
1048.1661044737009
 30
0.0
  0
POINT
  5
63B1
  8
DEFPOINTS
 62
     0
 10
7061.5943812013056
 20
1294.1661044737
 30
0.0
  0
ENDBLK
  5
6234
  8
0
  0
BLOCK
  8
0
  2
*D42
 70
     1
 10
0.0
 20
0.0
 30
0.0
  3
*D42
  1

  0
LINE
  5
637C
  8
SP
 10
6728.5943812013084
 20
814.16610447369965
 30
0.0
 11
6728.5943812013084
 21
674.16610447369965
 31
0.0
  0
LINE
  5
637D
  8
SP
 10
7058.5943812013093
 20
814.16610447370022
 30
0.0
 11
7058.5943812013093
 21
674.16610447369965
 31
0.0
  0
LINE
  5
637E
  8
SP
 10
6753.5943812013074
 20
684.16610447369965
 30
0.0
 11
7033.5943812013102
 21
684.16610447369965
 31
0.0
  0
INSERT
  5
637F
  8
SP
  2
_OPEN
 10
6728.5943812013084
 20
684.16610447369965
 30
0.0
 41
25.0
 42
25.0
 43
25.0
 50
180.0
  0
INSERT
  5
6380
  8
SP
  2
_OPEN
 10
7058.5943812013093
 20
684.16610447369965
 30
0.0
 41
25.0
 42
25.0
 43
25.0
  0
TEXT
  5
6381
  8
SP
 10
6851.7180004576976
 20
694.16610447369965
 30
0.0
 40
30.0
  1
330
 51
15.0
  0
POINT
  5
6382
  8
DEFPOINTS
 62
     0
 10
6728.5943812013084
 20
824.16610447369965
 30
0.0
  0
POINT
  5
6383
  8
DEFPOINTS
 62
     0
 10
7058.5943812013093
 20
824.16610447370022
 30
0.0
  0
POINT
  5
6384
  8
DEFPOINTS
 62
     0
 10
7058.5943812013093
 20
684.16610447369965
 30
0.0
  0
ENDBLK
  5
6240
  8
0
  0
BLOCK
  8
0
  2
*D43
 70
     1
 10
0.0
 20
0.0
 30
0.0
  3
*D43
  1

  0
LINE
  5
6385
  8
SP
 10
6893.5943812013084
 20
780.9134836437845
 30
0.0
 11
6893.5943812013084
 21
744.16610447370022
 31
0.0
  0
LINE
  5
6386
  8
SP
 10
7058.5943812013093
 20
814.16610447370022
 30
0.0
 11
7058.5943812013093
 21
744.16610447370022
 31
0.0
  0
LINE
  5
6387
  8
SP
 10
6918.5943812013084
 20
754.16610447370022
 30
0.0
 11
7033.5943812013102
 21
754.16610447370022
 31
0.0
  0
INSERT
  5
6388
  8
SP
  2
_OPEN
 10
6893.5943812013084
 20
754.16610447370022
 30
0.0
 41
25.0
 42
25.0
 43
25.0
 50
180.0
  0
INSERT
  5
6389
  8
SP
  2
_OPEN
 10
7058.5943812013093
 20
754.16610447370022
 30
0.0
 41
25.0
 42
25.0
 43
25.0
  0
TEXT
  5
638A
  8
SP
 10
6934.5357602638933
 20
764.16610447370022
 30
0.0
 40
30.0
  1
165
 51
15.0
  0
POINT
  5
638B
  8
DEFPOINTS
 62
     0
 10
6893.5943812013084
 20
790.9134836437845
 30
0.0
  0
POINT
  5
638C
  8
DEFPOINTS
 62
     0
 10
7058.5943812013093
 20
824.16610447370022
 30
0.0
  0
POINT
  5
638D
  8
DEFPOINTS
 62
     0
 10
7058.5943812013093
 20
754.16610447370022
 30
0.0
  0
ENDBLK
  5
624C
  8
0
  0
BLOCK
  8
0
  2
*D44
 70
     1
 10
0.0
 20
0.0
 30
0.0
  3
*D44
  1

  0
LINE
  5
638E
  8
SP
 10
6893.5943812013084
 20
780.9134836437845
 30
0.0
 11
6893.5943812013084
 21
744.16610447370022
 31
0.0
  0
LINE
  5
638F
  8
SP
 10
6728.5943812013084
 20
814.16610447369965
 30
0.0
 11
6728.5943812013084
 21
744.16610447370022
 31
0.0
  0
LINE
  5
6390
  8
SP
 10
6868.5943812013084
 20
754.16610447370022
 30
0.0
 11
6753.5943812013074
 21
754.16610447370022
 31
0.0
  0
INSERT
  5
6391
  8
SP
  2
_OPEN
 10
6893.5943812013084
 20
754.16610447370022
 30
0.0
 41
25.0
 42
25.0
 43
25.0
  0
INSERT
  5
6392
  8
SP
  2
_OPEN
 10
6728.5943812013084
 20
754.16610447370022
 30
0.0
 41
25.0
 42
25.0
 43
25.0
 50
180.0
  0
TEXT
  5
6393
  8
SP
 10
6769.5357602638924
 20
764.16610447370022
 30
0.0
 40
30.0
  1
165
 51
15.0
  0
POINT
  5
6394
  8
DEFPOINTS
 62
     0
 10
6893.5943812013084
 20
790.9134836437845
 30
0.0
  0
POINT
  5
6395
  8
DEFPOINTS
 62
     0
 10
6728.5943812013084
 20
824.16610447369965
 30
0.0
  0
POINT
  5
6396
  8
DEFPOINTS
 62
     0
 10
6728.5943812013084
 20
754.16610447370022
 30
0.0
  0
ENDBLK
  5
6258
  8
0
  0
BLOCK
  8
0
  2
*D45
 70
     1
 10
0.0
 20
0.0
 30
0.0
  3
*D45
  1

  0
LINE
  5
63A0
  8
SP
 10
6893.5943812013084
 20
1250.3266178903
 30
0.0
 11
6893.5943812013084
 21
1304.1661044737
 31
0.0
  0
LINE
  5
63A1
  8
SP
 10
6733.5943812013056
 20
1095.1661044737009
 30
0.0
 11
6733.5943812013056
 21
1304.1661044737
 31
0.0
  0
LINE
  5
63A2
  8
SP
 10
6868.5943812013084
 20
1294.1661044737
 30
0.0
 11
6758.5943812013047
 21
1294.1661044737
 31
0.0
  0
INSERT
  5
63A3
  8
SP
  2
_OPEN
 10
6893.5943812013084
 20
1294.1661044737
 30
0.0
 41
25.0
 42
25.0
 43
25.0
  0
INSERT
  5
63A4
  8
SP
  2
_OPEN
 10
6733.5943812013056
 20
1294.1661044737
 30
0.0
 41
25.0
 42
25.0
 43
25.0
 50
180.0
  0
TEXT
  5
63A5
  8
SP
 10
6772.0870436708356
 20
1304.1661044737
 30
0.0
 40
30.0
  1
160
 51
15.0
  0
POINT
  5
63A6
  8
DEFPOINTS
 62
     0
 10
6893.5943812013084
 20
1240.3266178903
 30
0.0
  0
POINT
  5
63A7
  8
DEFPOINTS
 62
     0
 10
6733.5943812013056
 20
1085.1661044737009
 30
0.0
  0
POINT
  5
63A8
  8
DEFPOINTS
 62
     0
 10
6733.5943812013056
 20
1294.1661044737
 30
0.0
  0
ENDBLK
  5
6264
  8
0
  0
BLOCK
  8
0
  2
*D46
 70
     1
 10
0.0
 20
0.0
 30
0.0
  3
*D46
  1

  0
LINE
  5
63F1
  8
SP
 10
6728.5943812013084
 20
1719.067463355974
 30
0.0
 11
6728.5943812013084
 21
1590.2403735562989
 31
0.0
  0
LINE
  5
63F2
  8
SP
 10
7068.5943812013074
 20
1719.067463355974
 30
0.0
 11
7068.5943812013074
 21
1590.2403735562989
 31
0.0
  0
LINE
  5
63F3
  8
SP
 10
6753.5943812013074
 20
1600.2403735562989
 30
0.0
 11
7043.5943812013084
 21
1600.2403735562989
 31
0.0
  0
INSERT
  5
63F4
  8
SP
  2
_OPEN
 10
6728.5943812013084
 20
1600.2403735562989
 30
0.0
 41
25.0
 42
25.0
 43
25.0
 50
180.0
  0
INSERT
  5
63F5
  8
SP
  2
_OPEN
 10
7068.5943812013074
 20
1600.2403735562989
 30
0.0
 41
25.0
 42
25.0
 43
25.0
  0
TEXT
  5
63F6
  8
SP
 10
6856.7180004576976
 20
1610.2403735562989
 30
0.0
 40
30.0
  1
340
 51
15.0
  0
POINT
  5
63F7
  8
DEFPOINTS
 62
     0
 10
6728.5943812013084
 20
1729.067463355974
 30
0.0
  0
POINT
  5
63F8
  8
DEFPOINTS
 62
     0
 10
7068.5943812013074
 20
1729.067463355974
 30
0.0
  0
POINT
  5
63F9
  8
DEFPOINTS
 62
     0
 10
7068.5943812013074
 20
1600.2403735562989
 30
0.0
  0
ENDBLK
  5
6270
  8
0
  0
BLOCK
  8
0
  2
*D47
 70
     1
 10
0.0
 20
0.0
 30
0.0
  3
*D47
  1

  0
LINE
  5
63FA
  8
SP
 10
7068.5943812013074
 20
1899.067463355974
 30
0.0
 11
7177.316504639406
 21
1899.067463355974
 31
0.0
  0
LINE
  5
63FB
  8
SP
 10
7093.451806318225
 20
1976.067463355974
 30
0.0
 11
7177.316504639406
 21
1976.067463355974
 31
0.0
  0
LINE
  5
63FC
  8
SP
 10
7167.3165046394051
 20
1924.067463355974
 30
0.0
 11
7167.3165046394051
 21
1951.067463355975
 31
0.0
  0
INSERT
  5
63FD
  8
SP
  2
_OPEN
 10
7167.3165046394051
 20
1899.067463355974
 30
0.0
 41
25.0
 42
25.0
 43
25.0
 50
270.0
  0
INSERT
  5
63FE
  8
SP
  2
_OPEN
 10
7167.3165046394051
 20
1976.067463355974
 30
0.0
 41
25.0
 42
25.0
 43
25.0
 50
90.0
  0
TEXT
  5
63FF
  8
SP
 10
7157.3165046394051
 20
1906.405368326652
 30
0.0
 40
30.0
  1
77
 50
90.0
 51
15.0
  0
POINT
  5
6400
  8
DEFPOINTS
 62
     0
 10
7058.5943812013074
 20
1899.067463355974
 30
0.0
  0
POINT
  5
6401
  8
DEFPOINTS
 62
     0
 10
7083.451806318224
 20
1976.067463355974
 30
0.0
  0
POINT
  5
6402
  8
DEFPOINTS
 62
     0
 10
7167.3165046394051
 20
1976.067463355974
 30
0.0
  0
ENDBLK
  5
627C
  8
0
  0
BLOCK
  8
0
  2
*D48
 70
     1
 10
0.0
 20
0.0
 30
0.0
  3
*D48
  1

  0
LINE
  5
63E8
  8
SP
 10
7068.5943812013074
 20
1899.067463355974
 30
0.0
 11
7177.316504639406
 21
1899.067463355974
 31
0.0
  0
LINE
  5
63E9
  8
SP
 10
7068.5943812013074
 20
1729.067463355974
 30
0.0
 11
7177.316504639406
 21
1729.067463355974
 31
0.0
  0
LINE
  5
63EA
  8
SP
 10
7167.3165046394051
 20
1874.067463355975
 30
0.0
 11
7167.3165046394051
 21
1754.067463355974
 31
0.0
  0
INSERT
  5
63EB
  8
SP
  2
_OPEN
 10
7167.3165046394051
 20
1899.067463355974
 30
0.0
 41
25.0
 42
25.0
 43
25.0
 50
90.0
  0
INSERT
  5
63EC
  8
SP
  2
_OPEN
 10
7167.3165046394051
 20
1729.067463355974
 30
0.0
 41
25.0
 42
25.0
 43
25.0
 50
270.0
  0
TEXT
  5
63ED
  8
SP
 10
7157.3165046394051
 20
1772.560125825506
 30
0.0
 40
30.0
  1
170
 50
90.0
 51
15.0
  0
POINT
  5
63EE
  8
DEFPOINTS
 62
     0
 10
7058.5943812013074
 20
1899.067463355974
 30
0.0
  0
POINT
  5
63EF
  8
DEFPOINTS
 62
     0
 10
7058.5943812013074
 20
1729.067463355974
 30
0.0
  0
POINT
  5
63F0
  8
DEFPOINTS
 62
     0
 10
7167.3165046394051
 20
1729.067463355974
 30
0.0
  0
ENDBLK
  5
6288
  8
0
  0
BLOCK
  8
0
  2
*D49
 70
     1
 10
0.0
 20
0.0
 30
0.0
  3
*D49
  1

  0
LINE
  5
63DF
  8
SP
 10
7795.9260525783602
 20
1318.781066994685
 30
0.0
 11
7795.9260525783602
 21
1355.1661044737
 31
0.0
  0
LINE
  5
63E0
  8
SP
 10
7495.9260525783611
 20
1134.2047349883171
 30
0.0
 11
7495.9260525783611
 21
1355.1661044737
 31
0.0
  0
LINE
  5
63E1
  8
SP
 10
7770.9260525783602
 20
1345.1661044737
 30
0.0
 11
7520.9260525783602
 21
1345.1661044737
 31
0.0
  0
INSERT
  5
63E2
  8
SP
  2
_OPEN
 10
7795.9260525783602
 20
1345.1661044737
 30
0.0
 41
25.0
 42
25.0
 43
25.0
  0
INSERT
  5
63E3
  8
SP
  2
_OPEN
 10
7495.9260525783611
 20
1345.1661044737
 30
0.0
 41
25.0
 42
25.0
 43
25.0
 50
180.0
  0
TEXT
  5
63E4
  8
SP
 10
7604.0496718347513
 20
1355.1661044737
 30
0.0
 40
30.0
  1
300
 51
15.0
  0
POINT
  5
63E5
  8
DEFPOINTS
 62
     0
 10
7795.9260525783602
 20
1308.781066994685
 30
0.0
  0
POINT
  5
63E6
  8
DEFPOINTS
 62
     0
 10
7495.9260525783611
 20
1124.2047349883171
 30
0.0
  0
POINT
  5
63E7
  8
DEFPOINTS
 62
     0
 10
7495.9260525783611
 20
1345.1661044737
 30
0.0
  0
ENDBLK
  5
6294
  8
0
  0
BLOCK
  8
0
  2
*D50
 70
     1
 10
0.0
 20
0.0
 30
0.0
  3
*D50
  1

  0
LINE
  5
63BB
  8
SP
 10
7548.9260525783611
 20
814.1661044737009
 30
0.0
 11
7548.9260525783611
 21
744.16610447370022
 31
0.0
  0
LINE
  5
63BC
  8
SP
 10
7718.9260525783602
 20
814.16610447370067
 30
0.0
 11
7718.9260525783602
 21
744.16610447370022
 31
0.0
  0
LINE
  5
63BD
  8
SP
 10
7573.9260525783611
 20
754.16610447370022
 30
0.0
 11
7693.9260525783611
 21
754.16610447370022
 31
0.0
  0
INSERT
  5
63BE
  8
SP
  2
_OPEN
 10
7548.9260525783611
 20
754.16610447370022
 30
0.0
 41
25.0
 42
25.0
 43
25.0
 50
180.0
  0
INSERT
  5
63BF
  8
SP
  2
_OPEN
 10
7718.9260525783602
 20
754.16610447370022
 30
0.0
 41
25.0
 42
25.0
 43
25.0
  0
TEXT
  5
63C0
  8
SP
 10
7592.4187150478901
 20
764.16610447370022
 30
0.0
 40
30.0
  1
170
 51
15.0
  0
POINT
  5
63C1
  8
DEFPOINTS
 62
     0
 10
7548.9260525783611
 20
824.1661044737009
 30
0.0
  0
POINT
  5
63C2
  8
DEFPOINTS
 62
     0
 10
7718.9260525783602
 20
824.16610447370067
 30
0.0
  0
POINT
  5
63C3
  8
DEFPOINTS
 62
     0
 10
7718.9260525783602
 20
754.16610447370022
 30
0.0
  0
ENDBLK
  5
62A0
  8
0
  0
BLOCK
  8
0
  2
*D51
 70
     1
 10
0.0
 20
0.0
 30
0.0
  3
*D51
  1

  0
LINE
  5
63B2
  8
3
 10
7882.9260525783584
 20
1164.1661044737
 30
0.0
 11
7981.147905534759
 21
1164.1661044737
 31
0.0
  0
LINE
  5
63B3
  8
3
 10
7882.9260525783584
 20
964.16610447370022
 30
0.0
 11
7981.147905534759
 21
964.16610447369999
 31
0.0
  0
LINE
  5
63B4
  8
3
 10
7971.1479055347581
 20
1139.1661044737
 30
0.0
 11
7971.1479055347581
 21
989.16610447369999
 31
0.0
  0
INSERT
  5
63B5
  8
3
  2
_OPEN
 10
7971.1479055347581
 20
1164.1661044737
 30
0.0
 41
25.0
 42
25.0
 43
25.0
 50
90.0
  0
INSERT
  5
63B6
  8
3
  2
_OPEN
 10
7971.1479055347581
 20
964.16610447369999
 30
0.0
 41
25.0
 42
25.0
 43
25.0
 50
270.0
  0
INSERT
  5
63B7
  8
SP
  2
*U57
 10
0.0
 20
0.0
 30
0.0
  0
POINT
  5
63B8
  8
DEFPOINTS
 62
     0
 10
7872.9260525783593
 20
1164.1661044737
 30
0.0
  0
POINT
  5
63B9
  8
DEFPOINTS
 62
     0
 10
7872.9260525783593
 20
964.16610447370022
 30
0.0
  0
POINT
  5
63BA
  8
DEFPOINTS
 62
     0
 10
7971.1479055347581
 20
964.16610447369999
 30
0.0
  0
ENDBLK
  5
62AC
  8
0
  0
BLOCK
  8
0
  2
*D52
 70
     1
 10
0.0
 20
0.0
 30
0.0
  3
*D52
  1

  0
LINE
  5
63C4
  8
SP
 10
7718.9260525783602
 20
814.16610447370067
 30
0.0
 11
7718.9260525783602
 21
744.16610447370022
 31
0.0
  0
LINE
  5
63C5
  8
SP
 10
7795.9260525783602
 20
819.51968494935591
 30
0.0
 11
7795.9260525783602
 21
744.16610447370022
 31
0.0
  0
LINE
  5
63C6
  8
SP
 10
7743.9260525783611
 20
754.16610447370022
 30
0.0
 11
7770.9260525783602
 21
754.16610447370022
 31
0.0
  0
INSERT
  5
63C7
  8
SP
  2
_OPEN
 10
7718.9260525783602
 20
754.16610447370022
 30
0.0
 41
25.0
 42
25.0
 43
25.0
 50
180.0
  0
INSERT
  5
63C8
  8
SP
  2
_OPEN
 10
7795.9260525783602
 20
754.16610447370022
 30
0.0
 41
25.0
 42
25.0
 43
25.0
  0
TEXT
  5
63C9
  8
SP
 10
7726.2639575490357
 20
764.16610447370022
 30
0.0
 40
30.0
  1
77
 51
15.0
  0
POINT
  5
63CA
  8
DEFPOINTS
 62
     0
 10
7718.9260525783602
 20
824.16610447370067
 30
0.0
  0
POINT
  5
63CB
  8
DEFPOINTS
 62
     0
 10
7795.9260525783602
 20
829.51968494935579
 30
0.0
  0
POINT
  5
63CC
  8
DEFPOINTS
 62
     0
 10
7795.9260525783602
 20
754.16610447370022
 30
0.0
  0
ENDBLK
  5
62B8
  8
0
  0
BLOCK
  8
0
  2
*D53
 70
     1
 10
0.0
 20
0.0
 30
0.0
  3
*D53
  1

  0
LINE
  5
63D6
  8
SP
 10
7795.9260525783602
 20
1318.781066994685
 30
0.0
 11
7795.9260525783602
 21
1355.1661044737
 31
0.0
  0
LINE
  5
63D7
  8
SP
 10
7872.9260525783602
 20
1191.166104473702
 30
0.0
 11
7872.9260525783602
 21
1355.1661044737
 31
0.0
  0
LINE
  5
63D8
  8
SP
 10
7820.9260525783611
 20
1345.1661044737
 30
0.0
 11
7847.9260525783602
 21
1345.1661044737
 31
0.0
  0
INSERT
  5
63D9
  8
SP
  2
_OPEN
 10
7795.9260525783602
 20
1345.1661044737
 30
0.0
 41
25.0
 42
25.0
 43
25.0
 50
180.0
  0
INSERT
  5
63DA
  8
SP
  2
_OPEN
 10
7872.9260525783602
 20
1345.1661044737
 30
0.0
 41
25.0
 42
25.0
 43
25.0
  0
TEXT
  5
63DB
  8
SP
 10
7803.2639575490357
 20
1355.1661044737
 30
0.0
 40
30.0
  1
77
 51
15.0
  0
POINT
  5
63DC
  8
DEFPOINTS
 62
     0
 10
7795.9260525783602
 20
1308.781066994685
 30
0.0
  0
POINT
  5
63DD
  8
DEFPOINTS
 62
     0
 10
7872.9260525783602
 20
1181.166104473702
 30
0.0
  0
POINT
  5
63DE
  8
DEFPOINTS
 62
     0
 10
7872.9260525783602
 20
1345.1661044737
 30
0.0
  0
ENDBLK
  5
62C4
  8
0
  0
BLOCK
  8
0
  2
*D54
 70
     1
 10
0.0
 20
0.0
 30
0.0
  3
*D54
  1

  0
LINE
  5
63CD
  8
SP
 10
7725.9260525783602
 20
1204.1661044737009
 30
0.0
 11
7725.9260525783602
 21
1285.1661044737
 31
0.0
  0
LINE
  5
63CE
  8
SP
 10
7865.9260525783611
 20
1204.1661044737009
 30
0.0
 11
7865.9260525783611
 21
1285.1661044737
 31
0.0
  0
LINE
  5
63CF
  8
SP
 10
7750.9260525783602
 20
1275.1661044737
 30
0.0
 11
7840.9260525783602
 21
1275.1661044737
 31
0.0
  0
INSERT
  5
63D0
  8
SP
  2
_OPEN
 10
7725.9260525783602
 20
1275.1661044737
 30
0.0
 41
25.0
 42
25.0
 43
25.0
 50
180.0
  0
INSERT
  5
63D1
  8
SP
  2
_OPEN
 10
7865.9260525783611
 20
1275.1661044737
 30
0.0
 41
25.0
 42
25.0
 43
25.0
  0
TEXT
  5
63D2
  8
SP
 10
7754.4187150478901
 20
1285.1661044737
 30
0.0
 40
30.0
  1
140
 51
15.0
  0
POINT
  5
63D3
  8
DEFPOINTS
 62
     0
 10
7725.9260525783602
 20
1194.1661044737009
 30
0.0
  0
POINT
  5
63D4
  8
DEFPOINTS
 62
     0
 10
7865.9260525783611
 20
1194.1661044737009
 30
0.0
  0
POINT
  5
63D5
  8
DEFPOINTS
 62
     0
 10
7865.9260525783611
 20
1275.1661044737
 30
0.0
  0
ENDBLK
  5
62D0
  8
0
  0
BLOCK
  8
0
  2
*U55
 70
     1
 10
0.0
 20
0.0
 30
0.0
  3
*U55
  1

  0
TEXT
  5
6449
  8
SP
 10
7882.302184191245
 20
981.17237207246455
 30
0.0
 40
30.0
  1
\U+2205
 50
90.0
 51
15.0
  0
TEXT
  5
644A
  8
SP
 10
7882.302184191245
 20
1008.315229215321
 30
0.0
 40
30.0
  1
200
 50
90.0
 51
15.0
  0
ENDBLK
  5
644C
  8
0
  0
BLOCK
  8
0
  2
*U56
 70
     1
 10
0.0
 20
0.0
 30
0.0
  3
*U56
  1

  0
TEXT
  5
644E
  8
SP
 10
494.53864886288619
 20
981.17237207246296
 30
0.0
 40
30.0
  1
\U+2205
 50
90.0
 51
15.0
  0
TEXT
  5
644F
  8
SP
 10
494.53864886288619
 20
1008.31522921532
 30
0.0
 40
30.0
  1
200
 50
90.0
 51
15.0
  0
ENDBLK
  5
6451
  8
0
  0
BLOCK
  8
0
  2
*U57
 70
     1
 10
0.0
 20
0.0
 30
0.0
  3
*U57
  1

  0
TEXT
  5
6453
  8
SP
 10
7961.1479055347581
 20
1001.342821693069
 30
0.0
 40
30.0
  1
\U+2205
 50
90.0
 51
15.0
  0
TEXT
  5
6454
  8
SP
 10
7961.1479055347581
 20
1028.4856788359259
 30
0.0
 40
30.0
  1
200
 50
90.0
 51
15.0
  0
ENDBLK
  5
6456
  8
0
  0
ENDSEC
  0
SECTION
  2
ENTITIES
  0
LINE
  5
55A9
  8
4
 10
6208.32856416303
 20
0.0000009706882338
 30
0.0
 11
6208.32856416303
 21
2950.0000009706878
 31
0.0
  0
LINE
  5
55AA
  8
4
 10
8308.32856416303
 20
2950.0000009706878
 30
0.0
 11
8308.32856416303
 21
0.0000009706882338
 31
0.0
  0
LINE
  5
568F
  8
4
 10
8308.32856416303
 20
0.0000009706882338
 30
0.0
 11
6208.32856416303
 21
0.0000009706882338
 31
0.0
  0
LINE
  5
569F
  8
4
 10
6658.32856416303
 20
226.553142200808
 30
0.0
 11
7858.32856416303
 21
226.553142200808
 31
0.0
  0
LINE
  5
56A0
  8
4
 10
6658.32856416303
 20
326.553142200808
 30
0.0
 11
7858.32856416303
 21
326.553142200808
 31
0.0
  0
LINE
  5
56A1
  8
4
 10
6658.32856416303
 20
426.553142200808
 30
0.0
 11
7858.32856416303
 21
426.553142200808
 31
0.0
  0
TEXT
  5
56A2
  8
4
 10
7194.9830597485097
 20
243.71272648075129
 30
0.0
 40
50.0
  1
MF＃1 1/4- 7
  0
TEXT
  5
56A3
  8
4
 10
7186.0073096506949
 20
349.12491115837651
 30
0.0
 40
50.0
  1
ミツヤ多翼送風機
  0
LINE
  5
56A4
  8
4
 10
6658.32856416303
 20
426.553142200808
 30
0.0
 11
6658.32856416303
 21
226.553142200808
 31
0.0
  0
LINE
  5
56A5
  8
4
 10
7158.32856416303
 20
426.553142200808
 30
0.0
 11
7158.3285641630309
 21
226.553142200808
 31
0.0
  0
TEXT
  5
56A6
  8
4
 10
6694.5866701878276
 20
248.19829893281889
 30
0.0
 40
50.0
  1
機器型番
  0
TEXT
  5
56A8
  8
4
 10
6696.8306450099308
 20
358.09616806742082
 30
0.0
 40
50.0
  1
機器名称
  0
LINE
  5
56A9
  8
4
 10
7858.32856416303
 20
426.553142200808
 30
0.0
 11
7858.3285641630309
 21
226.553142200808
 31
0.0
  0
TEXT
  5
58A1
  8
4
 10
6510.5987121852886
 20
2382.3194785170322
 30
0.0
 40
53.999999999999993
  1
右回転左横向
  0
TEXT
  5
58A3
  8
4
 10
7070.056129282797
 20
2383.4288423032031
 30
0.0
 40
53.999999999999993
  1
床置ベッド型
  0
TEXT
  5
58A4
  8
4
 10
7662.1864521503358
 20
2383.4288423032031
 30
0.0
 40
53.999999999999993
  1
縮尺：1/10
  0
LINE
  5
5954
  8
4
 10
6208.32856416303
 20
2950.0000009706878
 30
0.0
 11
8308.32856416303
 21
2950.0000009706878
 31
0.0
  0
LINE
  5
5960
  8
4
 10
6458.3285641630291
 20
2469.4087552354931
 30
0.0
 11
8058.32856416303
 21
2469.4087552354931
 31
0.0
  0
LINE
  5
5961
  8
4
 10
6458.3285641630291
 20
2669.4087552354931
 30
0.0
 11
8058.32856416303
 21
2669.4087552354931
 31
0.0
  0
TEXT
  5
5962
  8
4
 10
6711.1285641630302
 20
2533.4087552354931
 30
0.0
 40
72.0
  1
遠心式片吸込片持多翼ファン
 72
     4
 11
7258.3285641630291
 21
2569.4087552354931
 31
0.0
  0
LINE
  5
5963
  8
4
 10
6458.3285641630291
 20
2669.4087552354931
 30
0.0
 11
6458.3285641630291
 21
2469.4087552354931
 31
0.0
  0
LINE
  5
5964
  8
4
 10
8058.32856416303
 20
2669.4087552354931
 30
0.0
 11
8058.32856416303
 21
2469.4087552354931
 31
0.0
  0
LINE
  5
5965
  8
4
 10
7648.9459865228946
 20
2786.6522625204411
 30
0.0
 11
8058.32856416303
 21
2786.6522625204411
 31
0.0
  0
LINE
  5
5966
  8
4
 10
8058.32856416303
 20
2681.2635840960888
 30
0.0
 11
7648.9459865228946
 21
2681.2635840960888
 31
0.0
  0
TEXT
  5
5967
  8
4
 10
7677.2981234123199
 20
2706.0610824659971
 30
0.0
 40
56.000000000000007
  1
No.
  0
LINE
  5
5968
  8
4
 10
7648.9459865228946
 20
2681.2635840960888
 30
0.0
 11
7648.9459865228946
 21
2786.6522625204411
 31
0.0
  0
LINE
  5
5969
  8
4
 10
8058.32856416303
 20
2786.6522625204411
 30
0.0
 11
8058.32856416303
 21
2681.2635840960888
 31
0.0
  0
LINE
  5
596A
  8
4
 10
8308.32856416303
 20
2950.0000009706878
 30
0.0
 11
8308.32856416303
 21
2950.0000009706878
 31
0.0
  0
DIMENSION
  5
60EC
  8
SP
  2
*D38
 10
6593.5943812013047
 20
1204.1661044737009
 30
0.0
 11
6568.5943812013047
 21
1134.1661044737009
 31
0.0
 70
     0
 13
6716.69884506586
 23
1064.1661044737
 33
0.0
 14
6879.5943812013074
 24
1204.1661044737009
 34
0.0
 50
90.0
  0
DIMENSION
  5
60ED
  8
SP
  2
*D39
 10
6593.5943812013047
 20
824.16610447370022
 30
0.0
 11
6568.5943812013047
 21
944.16610447370135
 31
0.0
 70
     0
 13
6716.69884506586
 23
1064.1661044737
 33
0.0
 14
6728.5943812013056
 24
824.16610447370022
 34
0.0
 50
90.0
  0
DIMENSION
  5
60EE
  8
SP
  2
*D40
 10
6663.5943812013047
 20
864.16610447370158
 30
0.0
 11
6638.5943812013047
 21
964.16610447370203
 31
0.0
 70
     0
 13
6716.69884506586
 23
1064.1661044737
 33
0.0
 14
6733.5943812013056
 24
864.16610447370158
 34
0.0
 50
90.0
  0
LINE
  5
60EF
  8
2
 10
6716.69884506586
 20
1064.1661044737
 30
0.0
 11
7099.763595730521
 21
1064.1661044737
 31
0.0
  0
LINE
  5
60F0
  8
1
 10
6943.5943812013074
 20
1189.1661044737
 30
0.0
 11
7028.5943812013074
 21
1117.8661044736989
 31
0.0
  0
DIMENSION
  5
60F1
  8
SP
  2
*D41
 10
7061.5943812013056
 20
1294.1661044737
 30
0.0
 11
6977.5943812013056
 21
1319.1661044737
 31
0.0
 70
     0
 13
6893.5943812013084
 23
1240.3266178903
 33
0.0
 14
7061.5943812013056
 24
1048.1661044737009
 34
0.0
  0
LINE
  5
60F2
  8
1
 10
6981.9422072882626
 20
990.56610447369985
 30
0.0
 11
7024.3943812013067
 21
990.56610447369985
 31
0.0
  0
LINE
  5
60F3
  8
1
 10
6762.7943812013091
 20
992.1661044737001
 30
0.0
 11
7024.3943812013067
 21
992.1661044737001
 31
0.0
  0
LINE
  5
60F4
  8
1
 10
6728.5943812013084
 20
824.16610447369965
 30
0.0
 11
7058.5943812013093
 21
824.16610447370022
 31
0.0
  0
DIMENSION
  5
60F5
  8
SP
  2
*D42
 10
7058.5943812013093
 20
684.16610447369965
 30
0.0
 11
6893.5943812013084
 21
709.16610447369965
 31
0.0
 70
     0
 13
6728.5943812013084
 23
824.16610447369965
 33
0.0
 14
7058.5943812013093
 24
824.16610447370022
 34
0.0
  0
DIMENSION
  5
60F6
  8
SP
  2
*D43
 10
7058.5943812013093
 20
754.16610447370022
 30
0.0
 11
6976.0943812013084
 21
779.16610447370022
 31
0.0
 70
     0
 13
6893.5943812013084
 23
790.9134836437845
 33
0.0
 14
7058.5943812013093
 24
824.16610447370022
 34
0.0
  0
ARC
  5
60F7
  8
1
 10
6877.5943812013047
 20
1048.1661044737009
 30
0.0
 40
184.0
 50
270.0
 51
7.3029112824112383
  0
ARC
  5
60F8
  8
1
 10
6877.5943812013047
 20
1048.1661044737009
 30
0.0
 40
195.0
 50
270.0
 51
7.3220595904489754
  0
ARC
  5
60F9
  8
1
 10
6907.5943812013047
 20
1050.1661044737009
 30
0.0
 40
154.0
 50
38.213210701757461
 51
103.1027620341531
  0
ARC
  5
60FA
  8
1
 10
6907.5943812013047
 20
1050.1661044737009
 30
0.0
 40
165.0
 50
42.833428066057223
 51
90.0
  0
LINE
  5
60FB
  8
1
 10
6733.5943812013056
 20
843.16610447370124
 30
0.0
 11
6733.5943812013056
 21
1085.1661044737009
 31
0.0
  0
LINE
  5
60FC
  8
1
 10
6735.194381201306
 20
843.16610447370124
 30
0.0
 11
6735.194381201306
 21
1085.1661044737009
 31
0.0
  0
LINE
  5
60FD
  8
1
 10
6748.5943812013056
 20
875.9661044737004
 30
0.0
 11
6748.5943812013056
 21
1052.3661044737
 31
0.0
  0
CIRCLE
  5
60FE
  8
CT
 10
6893.5943812013084
 20
1064.1661044737
 30
0.0
 40
110.0
  0
ARC
  5
60FF
  8
1
 10
6893.5943812013084
 20
1064.1661044737
 30
0.0
 40
75.0
 50
292.30515321345479
 51
247.69484678654501
  0
CIRCLE
  5
6100
  8
1
 10
6893.5943812013084
 20
1064.1661044737
 30
0.0
 40
69.388168961305382
  0
CIRCLE
  5
6101
  8
1
 10
6893.5943812013084
 20
1064.1661044737
 30
0.0
 40
60.038630514616607
  0
LINE
  5
6102
  8
1
 10
6760.1943812013078
 20
1119.208222120759
 30
0.0
 11
6760.1943812013078
 21
989.56610447370031
 31
0.0
  0
LINE
  5
6103
  8
1
 10
6758.5943812013074
 20
1117.8661044737
 30
0.0
 11
6758.5943812013074
 21
824.16610447369965
 31
0.0
  0
LINE
  5
6104
  8
2
 10
6893.5943812013084
 20
1240.3266178903
 30
0.0
 11
6893.5943812013084
 21
790.9134836437845
 31
0.0
  0
LINE
  5
6105
  8
1
 10
6877.5943812013047
 20
853.16610447370124
 30
0.0
 11
6748.5943812013056
 21
853.16610447370124
 31
0.0
  0
LINE
  5
6106
  8
1
 10
6877.5943812013047
 20
864.16610447370135
 30
0.0
 11
6733.5943812013056
 21
864.16610447370158
 31
0.0
  0
LINE
  5
6107
  8
1
 10
6853.5943812013084
 20
993.1661044737001
 30
0.0
 11
6823.5943812013074
 21
993.1661044737001
 31
0.0
  0
LINE
  5
6108
  8
1
 10
6805.2465551143514
 20
990.56610447369985
 30
0.0
 11
6981.9422072882626
 21
990.56610447369985
 31
0.0
  0
LINE
  5
6109
  8
1
 10
6843.5943812013084
 20
973.76610447370001
 30
0.0
 11
6943.5943812013074
 21
973.76610447370001
 31
0.0
  0
DIMENSION
  5
610A
  8
SP
  2
*D44
 10
6728.5943812013084
 20
754.16610447370022
 30
0.0
 11
6811.0943812013074
 21
779.16610447370022
 31
0.0
 70
     0
 13
6893.5943812013084
 23
790.9134836437845
 33
0.0
 14
6728.5943812013084
 24
824.16610447369965
 34
0.0
  0
LINE
  5
610B
  8
1
 10
6762.7943812013091
 20
990.56610447369985
 30
0.0
 11
6805.2465551143514
 21
990.56610447369985
 31
0.0
  0
LINE
  5
610C
  8
1
 10
6760.1943812013078
 20
989.56610447370031
 30
0.0
 11
6760.1943812013078
 21
896.86610447370003
 31
0.0
  0
LINE
  5
610D
  8
1
 10
6761.7943812013082
 20
989.56610447369985
 30
0.0
 11
6761.7943812013082
 21
896.86610447370003
 31
0.0
  0
LINE
  5
610E
  8
1
 10
6748.5943812013056
 20
853.16610447370169
 30
0.0
 11
6748.5943812013056
 21
864.16610447370135
 31
0.0
  0
LINE
  5
610F
  8
1
 10
6760.1943812013078
 20
896.86610447370003
 30
0.0
 11
6760.1943812013078
 21
826.76610447370024
 31
0.0
  0
LINE
  5
6110
  8
1
 10
6728.5943812013084
 20
825.76610447370024
 30
0.0
 11
6757.5943812013074
 21
825.76610447370024
 31
0.0
  0
LINE
  5
6111
  8
1
 10
6735.194381201306
 20
843.16610447370124
 30
0.0
 11
6733.5943812013056
 21
843.16610447370124
 31
0.0
  0
LINE
  5
6112
  8
1
 10
6728.5943812013084
 20
825.76610447370024
 30
0.0
 11
6728.5943812013084
 21
824.16610447370022
 31
0.0
  0
ARC
  5
6113
  8
1
 10
6757.5943812013074
 20
826.76610447370024
 30
0.0
 40
2.6000000000000001
 50
270.0
 51
0.0
  0
ARC
  5
6114
  8
1
 10
6757.5943812013074
 20
826.76610447370024
 30
0.0
 40
1.0
 50
270.0
 51
0.0
  0
LINE
  5
6115
  8
2
 10
6743.5943812013084
 20
836.14727339200863
 30
0.0
 11
6743.5943812013084
 21
808.89450140911049
 31
0.0
  0
LINE
  5
6116
  8
1
 10
6736.7943812013064
 20
864.16610447370135
 30
0.0
 11
6748.5943812013056
 21
875.9661044737004
 31
0.0
  0
LINE
  5
6117
  8
1
 10
6760.1943812013078
 20
896.86610447370003
 30
0.0
 11
6761.7943812013082
 21
896.86610447370003
 31
0.0
  0
ARC
  5
6118
  8
1
 10
6762.7943812013091
 20
989.56610447370031
 30
0.0
 40
2.6000000000000001
 50
90.0
 51
180.0
  0
ARC
  5
6119
  8
1
 10
6762.7943812013091
 20
989.56610447369985
 30
0.0
 40
1.0
 50
90.0
 51
180.0
  0
LINE
  5
611A
  8
1
 10
6843.5943812013084
 20
973.76610447370001
 30
0.0
 11
6801.5943812013084
 21
992.1661044737001
 31
0.0
  0
LINE
  5
611B
  8
CT
 10
6799.1446467204387
 20
1025.0437434891869
 30
0.0
 11
6784.6418084124352
 21
1019.036471169107
 31
0.0
  0
CIRCLE
  5
611C
  8
1
 10
6791.9676326250647
 20
1022.07092691354
 30
0.0
 40
4.0
  0
LINE
  5
611D
  8
1
 10
6823.5943812013074
 20
993.1661044737001
 30
0.0
 11
6841.0637296873019
 21
1010.635452959693
 31
0.0
  0
LINE
  5
611E
  8
1
 10
6823.5943812013074
 20
993.1661044737001
 30
0.0
 11
6823.5943812013074
 21
992.1661044737001
 31
0.0
  0
LINE
  5
611F
  8
1
 10
6837.5943812013084
 20
984.1661044737001
 30
0.0
 11
6837.5943812013084
 21
1002.093168688023
 31
0.0
  0
LINE
  5
6120
  8
1
 10
6933.5943812013074
 20
993.1661044737001
 30
0.0
 11
6925.4155209457886
 21
996.25134123799205
 31
0.0
  0
LINE
  5
6121
  8
1
 10
6922.0598340906854
 20
994.77793551239483
 30
0.0
 11
6865.1289283119313
 21
994.77793551239483
 31
0.0
  0
LINE
  5
6122
  8
CT
 10
6854.4720202167946
 20
969.71636999283101
 30
0.0
 11
6848.4647478967163
 21
955.21353168482801
 31
0.0
  0
CIRCLE
  5
6123
  8
1
 10
6851.4992036411477
 20
962.5393558974597
 30
0.0
 40
4.0
  0
LINE
  5
6124
  8
1
 10
6853.5943812013084
 20
993.1661044737001
 30
0.0
 11
6853.5943812013084
 21
992.1661044737001
 31
0.0
  0
LINE
  5
6125
  8
1
 10
6853.5943812013084
 20
993.1661044737001
 30
0.0
 11
6861.7732414568281
 21
996.25134123799205
 31
0.0
  0
LINE
  5
6126
  8
1
 10
6943.5943812013074
 20
973.76610447370001
 30
0.0
 11
6985.5943812013084
 21
992.1661044737001
 31
0.0
  0
LINE
  5
6127
  8
CT
 10
6932.7167421858221
 20
969.71636999283055
 30
0.0
 11
6938.7240145059013
 21
955.21353168482744
 31
0.0
  0
CIRCLE
  5
6128
  8
1
 10
6935.689558761469
 20
962.53935589745822
 30
0.0
 40
4.0
  0
LINE
  5
6129
  8
1
 10
6963.5943812013084
 20
993.1661044737001
 30
0.0
 11
6946.1250327153148
 21
1010.635452959693
 31
0.0
  0
LINE
  5
612A
  8
1
 10
6933.5943812013074
 20
993.1661044737001
 30
0.0
 11
6963.5943812013084
 21
993.1661044737001
 31
0.0
  0
LINE
  5
612B
  8
1
 10
6933.5943812013074
 20
993.1661044737001
 30
0.0
 11
6933.5943812013074
 21
992.1661044737001
 31
0.0
  0
LINE
  5
612C
  8
1
 10
6963.5943812013084
 20
993.1661044737001
 30
0.0
 11
6963.5943812013084
 21
992.1661044737001
 31
0.0
  0
LINE
  5
612D
  8
1
 10
6949.5943812013084
 20
984.1661044737001
 30
0.0
 11
6949.5943812013084
 21
1002.093168688023
 31
0.0
  0
LINE
  5
612E
  8
CT
 10
6988.044115682178
 20
1025.043743489186
 30
0.0
 11
7002.5469539901824
 21
1019.036471169107
 31
0.0
  0
CIRCLE
  5
612F
  8
1
 10
6995.2211297775493
 20
1022.070926913541
 30
0.0
 40
4.0
  0
LINE
  5
6130
  8
1
 10
6843.5943812013084
 20
1189.1661044736991
 30
0.0
 11
6943.5943812013074
 21
1189.1661044737
 31
0.0
  0
ARC
  5
6131
  8
1
 10
6904.5943812013056
 20
1075.1661044737009
 30
0.0
 40
140.0
 50
90.0
 51
168.44161984437221
  0
ARC
  5
6132
  8
1
 10
6904.5943812013056
 20
1075.1661044737009
 30
0.0
 40
129.0
 50
104.3223043379403
 51
168.7702059314644
  0
DIMENSION
  5
6133
  8
SP
  2
*D45
 10
6733.5943812013056
 20
1294.1661044737
 30
0.0
 11
6813.5943812013074
 21
1319.1661044737
 31
0.0
 70
     0
 13
6893.5943812013084
 23
1240.3266178903
 33
0.0
 14
6733.5943812013056
 24
1085.1661044737009
 34
0.0
  0
ARC
  5
6134
  8
1
 10
6700.5943812013047
 20
1127.1661044737009
 30
0.0
 40
82.0
 50
312.59881289245322
 51
340.86590752557811
  0
ARC
  5
6135
  8
1
 10
6700.5943812013047
 20
1127.1661044737009
 30
0.0
 40
71.0
 50
324.77580501937922
 51
340.2871812588682
  0
LINE
  5
6136
  8
1
 10
6843.5943812013084
 20
1189.1661044737
 30
0.0
 11
6758.5943812013074
 21
1117.8661044736989
 31
0.0
  0
LINE
  5
6137
  8
1
 10
6748.5943812013056
 20
1064.1661044737009
 30
0.0
 11
6735.194381201306
 21
1064.1661044737009
 31
0.0
  0
LINE
  5
6138
  8
1
 10
6736.7943812013064
 20
1064.1661044737009
 30
0.0
 11
6748.5943812013056
 21
1052.3661044737009
 31
0.0
  0
LINE
  5
6139
  8
1
 10
6735.194381201306
 20
1085.1661044737009
 30
0.0
 11
6733.5943812013056
 21
1085.1661044737009
 31
0.0
  0
LINE
  5
613A
  8
1
 10
6748.5943812013056
 20
1064.1661044737
 30
0.0
 11
6748.5943812013056
 21
1074.8497590355871
 31
0.0
  0
LINE
  5
613B
  8
1
 10
6748.5943812013056
 20
1064.1661044737009
 30
0.0
 11
6749.3283529253522
 21
1064.1661044737009
 31
0.0
  0
ARC
  5
613C
  8
1
 10
6700.5943812013047
 20
1127.1661044737009
 30
0.0
 40
71.0
 50
312.53623473353622
 51
324.77580501937922
  0
ARC
  5
613D
  8
1
 10
6749.3283529253522
 20
1074.166104473702
 30
0.0
 40
10.0
 50
270.0
 51
312.59881289245322
  0
LINE
  5
613E
  8
CT
 10
6799.1446467204387
 20
1103.288465458214
 30
0.0
 11
6784.6418084124352
 21
1109.295737778293
 31
0.0
  0
CIRCLE
  5
613F
  8
1
 10
6791.9676326250683
 20
1106.26128203386
 30
0.0
 40
4.0
  0
LINE
  5
6140
  8
CT
 10
6854.4720202167946
 20
1158.615838954569
 30
0.0
 11
6848.4647478967163
 21
1173.1186772625731
 31
0.0
  0
CIRCLE
  5
6141
  8
1
 10
6851.4992036411477
 20
1165.7928530499421
 30
0.0
 40
4.0
  0
LINE
  5
6142
  8
1
 10
6904.5943812013056
 20
1215.1661044737009
 30
0.0
 11
6907.5943812013084
 21
1215.1661044737009
 31
0.0
  0
LINE
  5
6143
  8
CT
 10
6988.0441156821771
 20
1103.2884654582131
 30
0.0
 11
7002.5469539901824
 21
1109.2957377782921
 31
0.0
  0
CIRCLE
  5
6144
  8
1
 10
6995.2211297775493
 20
1106.2612820338591
 30
0.0
 40
4.0
  0
LINE
  5
6145
  8
CT
 10
6932.7167421858221
 20
1158.615838954569
 30
0.0
 11
6938.7240145059013
 21
1173.1186772625731
 31
0.0
  0
CIRCLE
  5
6146
  8
1
 10
6935.689558761469
 20
1165.7928530499421
 30
0.0
 40
4.0
  0
LINE
  5
6147
  8
1
 10
7026.9943812013071
 20
1119.208222120759
 30
0.0
 11
7026.9943812013071
 21
992.1661044737001
 31
0.0
  0
LINE
  5
6148
  8
1
 10
7028.5943812013074
 20
1117.8661044737
 30
0.0
 11
7028.5943812013074
 21
824.16610447369965
 31
0.0
  0
LINE
  5
6149
  8
1
 10
7026.9943812013071
 20
989.56610447370031
 30
0.0
 11
7026.9943812013071
 21
896.86610447370003
 31
0.0
  0
LINE
  5
614A
  8
1
 10
7025.3943812013058
 20
989.56610447369985
 30
0.0
 11
7025.3943812013058
 21
896.86610447370003
 31
0.0
  0
LINE
  5
614B
  8
1
 10
7029.5943812013084
 20
825.76610447370024
 30
0.0
 11
7058.5943812013093
 21
825.76610447370024
 31
0.0
  0
LINE
  5
614C
  8
1
 10
7026.9943812013071
 20
896.86610447370003
 30
0.0
 11
7026.9943812013071
 21
826.76610447370024
 31
0.0
  0
ARC
  5
614D
  8
1
 10
7029.5943812013084
 20
826.76610447370024
 30
0.0
 40
1.0
 50
180.0
 51
270.0
  0
ARC
  5
614E
  8
1
 10
7029.5943812013084
 20
826.76610447370024
 30
0.0
 40
2.6000000000000001
 50
180.0
 51
270.0
  0
LINE
  5
614F
  8
2
 10
7043.5943812013093
 20
836.14727339200863
 30
0.0
 11
7043.5943812013084
 21
808.09616440031004
 31
0.0
  0
LINE
  5
6150
  8
1
 10
7025.3943812013058
 20
896.86610447370003
 30
0.0
 11
7026.9943812013071
 21
896.86610447370003
 31
0.0
  0
LINE
  5
6151
  8
1
 10
7058.5943812013074
 20
825.76610447370024
 30
0.0
 11
7058.5943812013093
 21
824.16610447370022
 31
0.0
  0
ARC
  5
6152
  8
1
 10
7024.3943812013067
 20
989.56610447369985
 30
0.0
 40
1.0
 50
0.0
 51
90.0
  0
ARC
  5
6153
  8
1
 10
7024.3943812013067
 20
989.56610447370031
 30
0.0
 40
2.6000000000000001
 50
0.0
 51
90.0
  0
ARC
  5
6154
  8
1
 10
6907.5943812013047
 20
1050.1661044737009
 30
0.0
 40
165.0
 50
7.9609047373633324
 51
42.833428066057223
  0
ARC
  5
6155
  8
1
 10
6907.5943812013047
 20
1050.1661044737009
 30
0.0
 40
154.0
 50
7.9836585559416786
 51
38.213210701757461
  0
DIMENSION
  5
6156
  8
SP
  2
*D46
 10
7068.5943812013074
 20
1600.2403735562989
 30
0.0
 11
6898.5943812013074
 21
1625.2403735562989
 31
0.0
 70
     0
 13
6728.5943812013084
 23
1729.067463355974
 33
0.0
 14
7068.5943812013074
 24
1729.067463355974
 34
0.0
  0
LINE
  5
6157
  8
FUTO
 10
6776.5943812013056
 20
2053.0674633559738
 30
0.0
 11
7010.5943812013084
 21
2053.0674633559738
 31
0.0
  0
LINE
  5
6158
  8
FUTO
 10
6758.5943812013074
 20
1899.067463355974
 30
0.0
 11
7028.5943812013074
 21
1899.067463355974
 31
0.0
  0
LINE
  5
6159
  8
1
  6
CONTINUOUS
 10
7028.5943812013074
 20
1858.067463355974
 30
0.0
 11
6956.84475275776
 21
1858.067463355975
 31
0.0
  0
LINE
  5
615A
  8
FUTO
 10
7028.5943812013074
 20
1723.1674633559751
 30
0.0
 11
6968.5943812013084
 21
1723.1674633559751
 31
0.0
  0
LINE
  5
615B
  8
1
  6
CONTINUOUS
 10
6733.5943812013056
 20
1905.067463355974
 30
0.0
 11
7051.5943812013084
 21
1905.067463355974
 31
0.0
  0
LINE
  5
615C
  8
1
  6
CONTINUOUS
 10
6735.194381201306
 20
2047.067463355975
 30
0.0
 11
7051.5943812013084
 21
2047.067463355975
 31
0.0
  0
LINE
  5
615D
  8
1
  6
CONTINUOUS
 10
6735.194381201306
 20
2046.067463355974
 30
0.0
 11
7051.5943812013084
 21
2046.067463355974
 31
0.0
  0
LINE
  5
615E
  8
2
 10
7083.451806318224
 20
1976.067463355974
 30
0.0
 11
6706.2937403237647
 21
1976.067463355974
 31
0.0
  0
LINE
  5
615F
  8
1
  6
CONTINUOUS
 10
6733.5943812013056
 20
1906.067463355975
 30
0.0
 11
7051.5943812013084
 21
1906.067463355975
 31
0.0
  0
LINE
  5
6160
  8
1
 10
6733.5943812013056
 20
1885.067463355975
 30
0.0
 11
6733.5943812013056
 21
2067.0674633559752
 31
0.0
  0
LINE
  5
6161
  8
1
 10
6735.194381201306
 20
1885.067463355975
 30
0.0
 11
6735.194381201306
 21
2067.0674633559752
 31
0.0
  0
LINE
  5
6162
  8
1
  6
CONTINUOUS
 10
6751.5585274903196
 20
2032.067463355974
 30
0.0
 11
6751.5585274903196
 21
1920.067463355974
 31
0.0
  0
LINE
  5
6163
  8
2
 10
6893.5943812013084
 20
2071.6671956062642
 30
0.0
 11
6893.5943812013084
 21
1651.393064594643
 31
0.0
  0
LINE
  5
6164
  8
1
 10
6956.84475275776
 20
1868.567463355974
 30
0.0
 11
6830.344009644853
 21
1868.567463355975
 31
0.0
  0
LINE
  5
6165
  8
2
 10
6977.3016805998677
 20
1797.067463355975
 30
0.0
 11
6809.8870818027481
 21
1797.067463355975
 31
0.0
  0
LINE
  5
6166
  8
1
 10
6968.5943812013084
 20
1737.934337554839
 30
0.0
 11
6824.2062122400012
 21
1737.934337554839
 31
0.0
  0
LINE
  5
6167
  8
1
 10
6968.5943812013084
 20
1710.9905543649461
 30
0.0
 11
6824.2062122400012
 21
1710.9905543649461
 31
0.0
  0
LINE
  5
6168
  8
1
 10
6953.6330117159241
 20
1676.067463355974
 30
0.0
 11
6833.5557506866908
 21
1676.067463355974
 31
0.0
  0
LINE
  5
6169
  8
1
 10
6824.2062122400012
 20
1737.934337554839
 30
0.0
 11
6824.2062122400012
 21
1710.9905543649461
 31
0.0
  0
LINE
  5
616A
  8
FUTO
 10
6758.5943812013074
 20
1899.067463355974
 30
0.0
 11
6758.5943812013074
 21
1723.1674633559751
 31
0.0
  0
LINE
  5
616B
  8
FUTO
 10
6758.5943812013074
 20
1723.1674633559751
 30
0.0
 11
6824.2062122400012
 21
1723.167463355976
 31
0.0
  0
LINE
  5
616C
  8
1
 10
6833.5557506866908
 20
1676.067463355974
 30
0.0
 11
6827.0900580870157
 21
1710.9905543649461
 31
0.0
  0
LINE
  5
616D
  8
1
  6
CONTINUOUS
 10
6830.344009644853
 20
1858.067463355975
 30
0.0
 11
6760.5943812013084
 21
1858.067463355975
 31
0.0
  0
LINE
  5
616E
  8
FUTO
 10
6728.5943812013084
 20
1899.067463355974
 30
0.0
 11
6728.5943812013084
 21
1729.067463355974
 31
0.0
  0
LINE
  5
616F
  8
FUTO
 10
6758.5943812013074
 20
1729.067463355974
 30
0.0
 11
6728.5943812013084
 21
1729.067463355974
 31
0.0
  0
CIRCLE
  5
6170
  8
FUTO
 10
6741.5943812013074
 20
1749.067463355975
 30
0.0
 40
6.0
  0
LINE
  5
6171
  8
CT
 10
6751.4891570495656
 20
1749.067463355975
 30
0.0
 11
6731.6996053530456
 21
1749.067463355975
 31
0.0
  0
LINE
  5
6172
  8
CT
 10
6741.5943812013074
 20
1758.962239204234
 30
0.0
 11
6741.5943812013074
 21
1739.172687507715
 31
0.0
  0
LINE
  5
6173
  8
CT
 10
6751.4891570495656
 20
1879.067463355974
 30
0.0
 11
6731.6996053530456
 21
1879.067463355974
 31
0.0
  0
CIRCLE
  5
6174
  8
FUTO
 10
6741.5943812013074
 20
1879.067463355974
 30
0.0
 40
6.0
  0
LINE
  5
6175
  8
CT
 10
6741.5943812013074
 20
1888.962239204234
 30
0.0
 11
6741.5943812013074
 21
1869.172687507715
 31
0.0
  0
LINE
  5
6176
  8
2
 10
6735.194381201306
 20
1885.067463355975
 30
0.0
 11
6733.5943812013056
 21
1885.067463355975
 31
0.0
  0
LINE
  5
6177
  8
FUTO
 10
6758.5943812013074
 20
1899.067463355974
 30
0.0
 11
6728.5943812013084
 21
1899.067463355974
 31
0.0
  0
LINE
  5
6178
  8
1
  6
CONTINUOUS
 10
6736.5585274903196
 20
1905.067463355974
 30
0.0
 11
6751.5585274903196
 21
1920.067463355974
 31
0.0
  0
LINE
  5
6179
  8
1
 10
6830.344009644853
 20
1737.934337554839
 30
0.0
 11
6830.344009644853
 21
1868.567463355974
 31
0.0
  0
ARC
  5
617A
  8
1
 10
6776.5943812013056
 20
1902.067463355975
 30
0.0
 40
3.0
 50
180.0
 51
270.0
  0
LINE
  5
617B
  8
1
 10
6773.5943812013074
 20
1903.067463355974
 30
0.0
 11
6773.5943812013074
 21
1902.067463355975
 31
0.0
  0
ARC
  5
617C
  8
1
 10
6770.5943812013056
 20
1903.067463355974
 30
0.0
 40
3.0
 50
0.0
 51
41.810314895783719
  0
LINE
  5
617D
  8
1
 10
6968.5943812013084
 20
1710.9905543649461
 30
0.0
 11
6968.5943812013084
 21
1737.934337554839
 31
0.0
  0
POINT
  5
617E
  8
1
 10
6953.6330117159241
 20
1676.067463355974
 30
0.0
  0
LINE
  5
617F
  8
1
 10
6953.6330117159241
 20
1676.067463355974
 30
0.0
 11
6964.9479737653537
 21
1710.9905543649461
 31
0.0
  0
LINE
  5
6180
  8
1
 10
6905.0090012910496
 20
1873.567463355974
 30
0.0
 11
6882.1797611115617
 21
1873.567463355974
 31
0.0
  0
LINE
  5
6181
  8
FUTO
 10
6913.5943812013084
 20
1887.067463355974
 30
0.0
 11
6873.5943812013074
 21
1887.067463355975
 31
0.0
  0
LINE
  5
6182
  8
FUTO
 10
6873.5943812013056
 20
1899.067463355974
 30
0.0
 11
6873.5943812013056
 21
1887.067463355974
 31
0.0
  0
LINE
  5
6183
  8
1
 10
6882.1797611115617
 20
1868.567463355974
 30
0.0
 11
6882.1797611115617
 21
1873.567463355974
 31
0.0
  0
LINE
  5
6184
  8
1
 10
6884.5943812013074
 20
1873.567463355974
 30
0.0
 11
6884.5943812013074
 21
1887.067463355974
 31
0.0
  0
LINE
  5
6185
  8
FUTO
 10
6913.5943812013047
 20
1899.067463355974
 30
0.0
 11
6913.5943812013047
 21
1887.067463355974
 31
0.0
  0
LINE
  5
6186
  8
1
 10
6905.0090012910496
 20
1868.567463355974
 30
0.0
 11
6905.0090012910496
 21
1873.567463355974
 31
0.0
  0
LINE
  5
6187
  8
1
 10
6902.5943812013084
 20
1873.567463355974
 30
0.0
 11
6902.5943812013084
 21
1887.067463355974
 31
0.0
  0
LINE
  5
6188
  8
1
 10
6956.84475275776
 20
1737.934337554839
 30
0.0
 11
6956.84475275776
 21
1868.567463355974
 31
0.0
  0
LINE
  5
6189
  8
1
  6
CONTINUOUS
 10
6736.5585274903196
 20
2047.067463355975
 30
0.0
 11
6751.5585274903196
 21
2032.067463355974
 31
0.0
  0
LINE
  5
618A
  8
2
 10
6735.194381201306
 20
2067.0674633559752
 30
0.0
 11
6733.5943812013056
 21
2067.0674633559752
 31
0.0
  0
ARC
  5
618B
  8
1
 10
6770.5943812013056
 20
2049.0674633559738
 30
0.0
 40
3.0
 50
318.18968510421632
 51
0.0
  0
LINE
  5
618C
  8
1
 10
6773.5943812013074
 20
2049.0674633559738
 30
0.0
 11
6773.5943812013074
 21
2050.0674633559729
 31
0.0
  0
ARC
  5
618D
  8
1
 10
6776.5943812013056
 20
2050.0674633559729
 30
0.0
 40
3.0
 50
90.0
 51
180.0
  0
DIMENSION
  5
618E
  8
SP
  2
*D47
 10
7167.3165046394051
 20
1976.067463355974
 30
0.0
 11
7142.3165046394051
 21
1937.5674633559761
 31
0.0
 70
     0
 13
7058.5943812013074
 23
1899.067463355974
 33
0.0
 14
7083.451806318224
 24
1976.067463355974
 34
0.0
 50
90.0
  0
LINE
  5
618F
  8
FUTO
 10
7062.5943812013074
 20
2036.067463355974
 30
0.0
 11
7062.5943812013074
 21
1916.067463355974
 31
0.0
  0
LINE
  5
6190
  8
FUTO
 10
7061.5943812013074
 20
2036.067463355974
 30
0.0
 11
7061.5943812013074
 21
1916.067463355974
 31
0.0
  0
DIMENSION
  5
6191
  8
SP
  2
*D48
 10
7167.3165046394051
 20
1729.067463355974
 30
0.0
 11
7142.3165046394051
 21
1814.0674633559761
 31
0.0
 70
     0
 13
7058.5943812013074
 23
1899.067463355974
 33
0.0
 14
7058.5943812013074
 24
1729.067463355974
 34
0.0
 50
90.0
  0
LINE
  5
6192
  8
FUTO
 10
7028.5943812013074
 20
1899.067463355974
 30
0.0
 11
7028.5943812013074
 21
1723.1674633559751
 31
0.0
  0
LINE
  5
6193
  8
FUTO
 10
7058.5943812013074
 20
1899.067463355974
 30
0.0
 11
7058.5943812013074
 21
1729.067463355974
 31
0.0
  0
LINE
  5
6194
  8
FUTO
 10
7028.5943812013074
 20
1729.067463355974
 30
0.0
 11
7058.5943812013074
 21
1729.067463355974
 31
0.0
  0
LINE
  5
6195
  8
CT
 10
7035.6996053530456
 20
1749.067463355975
 30
0.0
 11
7055.4891570495674
 21
1749.067463355975
 31
0.0
  0
CIRCLE
  5
6196
  8
FUTO
 10
7045.5943812013084
 20
1749.067463355975
 30
0.0
 40
6.0
  0
LINE
  5
6197
  8
CT
 10
7045.5943812013084
 20
1758.962239204234
 30
0.0
 11
7045.5943812013084
 21
1739.172687507715
 31
0.0
  0
LINE
  5
6198
  8
FUTO
 10
7028.5943812013074
 20
1899.067463355974
 30
0.0
 11
7058.5943812013074
 21
1899.067463355974
 31
0.0
  0
CIRCLE
  5
6199
  8
FUTO
 10
7045.5943812013084
 20
1879.067463355974
 30
0.0
 40
6.0
  0
LINE
  5
619A
  8
CT
 10
7035.6996053530456
 20
1879.067463355974
 30
0.0
 11
7055.4891570495674
 21
1879.067463355974
 31
0.0
  0
ARC
  5
619B
  8
1
 10
7010.5943812013084
 20
1902.067463355975
 30
0.0
 40
3.0
 50
270.0
 51
0.0
  0
LINE
  5
619C
  8
CT
 10
7045.5943812013084
 20
1888.962239204234
 30
0.0
 11
7045.5943812013084
 21
1869.172687507715
 31
0.0
  0
ARC
  5
619D
  8
1
 10
7016.5943812013084
 20
1903.067463355974
 30
0.0
 40
3.0
 50
138.18968510421621
 51
180.0
  0
LINE
  5
619E
  8
1
 10
7013.5943812013084
 20
1903.067463355974
 30
0.0
 11
7013.5943812013084
 21
1902.067463355975
 31
0.0
  0
ARC
  5
619F
  8
FUTO
 10
7051.5943812013084
 20
1916.067463355974
 30
0.0
 40
10.0
 50
270.0
 51
0.0
  0
ARC
  5
61A0
  8
FUTO
 10
7051.5943812013084
 20
1916.067463355974
 30
0.0
 40
11.0
 50
270.0
 51
0.0
  0
LINE
  5
61A1
  8
1
 10
7013.5943812013084
 20
2049.0674633559738
 30
0.0
 11
7013.5943812013084
 21
2050.0674633559729
 31
0.0
  0
ARC
  5
61A2
  8
1
 10
7016.5943812013084
 20
2049.0674633559738
 30
0.0
 40
3.0
 50
180.0
 51
221.8103148957837
  0
ARC
  5
61A3
  8
1
 10
7010.5943812013084
 20
2050.0674633559729
 30
0.0
 40
3.0
 50
0.0
 51
90.0
  0
ARC
  5
61A4
  8
FUTO
 10
7051.5943812013084
 20
2036.067463355974
 30
0.0
 40
11.0
 50
0.0
 51
90.0
  0
ARC
  5
61A5
  8
FUTO
 10
7051.5943812013084
 20
2036.067463355974
 30
0.0
 40
10.0
 50
0.0
 51
90.0
  0
DIMENSION
  5
61A6
  8
SP
  2
*D49
 10
7495.9260525783611
 20
1345.1661044737
 30
0.0
 11
7645.9260525783602
 21
1370.1661044737
 31
0.0
 70
     0
 13
7795.9260525783602
 23
1308.781066994685
 33
0.0
 14
7495.9260525783611
 24
1124.2047349883171
 34
0.0
  0
DIMENSION
  5
61A7
  8
SP
  2
*D50
 10
7718.9260525783602
 20
754.16610447370022
 30
0.0
 11
7633.9260525783602
 21
779.16610447370022
 31
0.0
 70
     0
 13
7548.9260525783611
 23
824.1661044737009
 33
0.0
 14
7718.9260525783602
 24
824.16610447370067
 34
0.0
  0
LINE
  5
61A8
  8
1
 10
7675.6260525783619
 20
1084.1661044737
 30
0.0
 11
7548.9260525783611
 21
825.76610447370069
 31
0.0
  0
LINE
  5
61A9
  8
1
 10
7748.9260525783611
 20
824.1661044737009
 30
0.0
 11
7548.9260525783611
 21
824.1661044737009
 31
0.0
  0
LINE
  5
61AA
  8
1
 10
7717.3260525783617
 20
825.76610447370069
 30
0.0
 11
7548.9260525783611
 21
825.76610447370069
 31
0.0
  0
LINE
  5
61AB
  8
1
 10
7557.7929267772242
 20
1127.4164760301539
 30
0.0
 11
7688.4260525783602
 21
1127.4164760301539
 31
0.0
  0
LINE
  5
61AC
  8
2
 10
7909.8071053605991
 20
1064.1661044737009
 30
0.0
 11
7464.4802421487284
 21
1064.1661044737
 31
0.0
  0
LINE
  5
61AD
  8
1
 10
7495.9260525783611
 20
1124.2047349883171
 30
0.0
 11
7495.9260525783611
 21
1004.127473959083
 31
0.0
  0
LINE
  5
61AE
  8
1
 10
7557.7929267772242
 20
1139.1661044737
 30
0.0
 11
7557.7929267772242
 21
994.77793551239495
 31
0.0
  0
LINE
  5
61AF
  8
1
 10
7530.849143587332
 20
1139.1661044737
 30
0.0
 11
7530.849143587332
 21
994.77793551239495
 31
0.0
  0
LINE
  5
61B0
  8
2
 10
7616.9260525783602
 20
1152.4572585202329
 30
0.0
 11
7616.9260525783602
 21
985.04265972311225
 31
0.0
  0
LINE
  5
61B1
  8
1
 10
7495.9260525783611
 20
1004.127473959083
 30
0.0
 11
7530.849143587332
 21
997.66178135940902
 31
0.0
  0
LINE
  5
61B2
  8
1
 10
7561.9260525783602
 20
1001.7579445688619
 30
0.0
 11
7589.8696880481921
 21
1001.7579445688619
 31
0.0
  0
LINE
  5
61B3
  8
1
 10
7586.9260525783602
 20
993.16610447370056
 30
0.0
 11
7561.9260525783602
 21
993.16610447370056
 31
0.0
  0
LINE
  5
61B4
  8
1
 10
7550.0260525783597
 20
992.1661044737009
 30
0.0
 11
7585.857729841774
 21
915.25712151867015
 31
0.0
  0
LINE
  5
61B5
  8
1
 10
7548.41178185433
 20
990.56610447370099
 30
0.0
 11
7627.0577192450291
 21
990.56610447370099
 31
0.0
  0
LINE
  5
61B6
  8
1
 10
7627.5856359116942
 20
993.16610447370056
 30
0.0
 11
7561.9260525783602
 21
993.16610447370056
 31
0.0
  0
LINE
  5
61B7
  8
1
 10
7545.62605257836
 20
992.1661044737009
 30
0.0
 11
7627.0577192450291
 21
992.1661044737009
 31
0.0
  0
LINE
  5
61B8
  8
1
 10
7548.9260525783611
 20
825.76610447370069
 30
0.0
 11
7548.9260525783611
 21
824.1661044737009
 31
0.0
  0
LINE
  5
61B9
  8
2
 10
7568.9260525783611
 20
838.09393387364003
 30
0.0
 11
7568.9260525783584
 21
813.0297451407979
 31
0.0
  0
LINE
  5
61BA
  8
1
 10
7557.7929267772242
 20
994.77793551239495
 30
0.0
 11
7530.849143587332
 21
994.77793551239495
 31
0.0
  0
LINE
  5
61BB
  8
1
 10
7544.6260525783619
 20
989.56610447370088
 30
0.0
 11
7544.6260525783619
 21
973.76610447370069
 31
0.0
  0
LINE
  5
61BC
  8
1
 10
7543.0260525783606
 20
989.56610447370088
 30
0.0
 11
7543.0260525783606
 21
973.76610447370069
 31
0.0
  0
LINE
  5
61BD
  8
1
 10
7543.0260525783606
 20
973.76610447370069
 30
0.0
 11
7544.6260525783619
 21
973.76610447370069
 31
0.0
  0
ARC
  5
61BE
  8
1
 10
7545.62605257836
 20
989.56610447370088
 30
0.0
 40
1.0
 50
90.0
 51
180.0
  0
LINE
  5
61BF
  8
1
 10
7545.62605257836
 20
990.56610447370099
 30
0.0
 11
7548.41178185433
 21
990.56610447370099
 31
0.0
  0
ARC
  5
61C0
  8
1
 10
7545.62605257836
 20
989.56610447370088
 30
0.0
 40
2.6000000000000001
 50
90.0
 51
180.0
  0
LINE
  5
61C1
  8
1
 10
7561.9260525783602
 20
1001.7579445688619
 30
0.0
 11
7561.9260525783593
 21
992.1661044737009
 31
0.0
  0
LINE
  5
61C2
  8
1
 10
7557.7929267772242
 20
998.21557151908678
 30
0.0
 11
7561.9260525783602
 21
998.21557151908678
 31
0.0
  0
LINE
  5
61C3
  8
CT
 10
7571.9260525783611
 20
1005.468370435721
 30
0.0
 11
7571.9260525783611
 21
985.04265972311225
 31
0.0
  0
LINE
  5
61C4
  8
1
 10
7593.6896489892679
 20
1012.907590614324
 30
0.0
 11
7638.0074954700976
 21
1012.907590614324
 31
0.0
  0
LINE
  5
61C5
  8
1
 10
7588.277513224316
 20
997.11072801284604
 30
0.0
 11
7629.6680684217354
 21
997.11072801284604
 31
0.0
  0
LINE
  5
61C6
  8
1
 10
7593.6896489892679
 20
1012.907590614324
 30
0.0
 11
7586.9260525783602
 21
993.16610447370056
 31
0.0
  0
LINE
  5
61C7
  8
1
 10
7638.0074954700976
 20
1012.907590614324
 30
0.0
 11
7640.1624561674516
 21
1012.907590614324
 31
0.0
  0
LINE
  5
61C8
  8
1
 10
7640.1624561674516
 20
1012.907590614324
 30
0.0
 11
7640.3778930183926
 21
1012.2787766892041
 31
0.0
  0
LINE
  5
61C9
  8
1
 10
7629.6680684217354
 20
997.11072801284604
 30
0.0
 11
7632.9406183771589
 21
997.11072801284615
 31
0.0
  0
LINE
  5
61CA
  8
1
 10
7631.0064705350187
 20
993.1661044737001
 30
0.0
 11
7627.5856359116942
 21
993.16610447370056
 31
0.0
  0
LINE
  5
61CB
  8
1
 10
7627.0577192450291
 20
990.56610447370099
 30
0.0
 11
7629.7316253337813
 21
990.56610447370099
 31
0.0
  0
LINE
  5
61CC
  8
1
 10
7627.0577192450291
 20
992.1661044737009
 30
0.0
 11
7630.5161454576182
 21
992.1661044737009
 31
0.0
  0
LINE
  5
61CD
  8
1
 10
7495.9260525783611
 20
1124.2047349883171
 30
0.0
 11
7530.849143587332
 21
1135.5196970377481
 31
0.0
  0
POINT
  5
61CE
  8
1
 10
7495.9260525783611
 20
1124.2047349883171
 30
0.0
  0
LINE
  5
61CF
  8
1
 10
7530.849143587332
 20
1139.1661044737
 30
0.0
 11
7557.7929267772242
 21
1139.1661044737
 31
0.0
  0
LINE
  5
61D0
  8
1
  6
CONTINUOUS
 10
7724.9260525783602
 20
1194.1661044737
 30
0.0
 11
7724.9260525783602
 21
863.16610447370113
 31
0.0
  0
DIMENSION
  5
61D1
  8
3
  2
*D51
 10
7971.1479055347581
 20
964.16610447369999
 30
0.0
 11
7946.1479055347581
 21
1064.1661044737009
 31
0.0
 70
     0
  1
%%c<>
 13
7872.9260525783593
 23
1164.1661044737
 33
0.0
 14
7872.9260525783593
 24
964.16610447370022
 34
0.0
 50
90.0
  0
LINE
  5
61D2
  8
1
 10
7718.9260525783602
 20
1189.1661044737
 30
0.0
 11
7718.9260525783602
 21
824.16610447370067
 31
0.0
  0
LINE
  5
61D3
  8
1
 10
7717.3260525783608
 20
1189.1661044737
 30
0.0
 11
7717.3260525783617
 21
824.1661044737009
 31
0.0
  0
LINE
  5
61D4
  8
1
 10
7872.9260525783593
 20
947.16610447370181
 30
0.0
 11
7872.9260525783593
 21
1181.1661044737
 31
0.0
  0
LINE
  5
61D5
  8
FUTO
 10
7886.9260525783602
 20
868.16610447370078
 30
0.0
 11
7886.9260525783602
 21
1060.1661044737
 31
0.0
  0
LINE
  5
61D6
  8
1
  6
CONTINUOUS
 10
7725.9260525783602
 20
1194.1661044737
 30
0.0
 11
7725.9260525783602
 21
863.16610447370113
 31
0.0
  0
LINE
  5
61D7
  8
1
  6
CONTINUOUS
 10
7865.9260525783611
 20
863.16610447370113
 30
0.0
 11
7865.9260525783611
 21
1194.1661044737
 31
0.0
  0
LINE
  5
61D8
  8
1
  6
CONTINUOUS
 10
7866.9260525783602
 20
863.16610447370113
 30
0.0
 11
7866.9260525783602
 21
1194.1661044737
 31
0.0
  0
LINE
  5
61D9
  8
2
 10
7795.9260525783602
 20
829.51968494935579
 30
0.0
 11
7795.9260525783602
 21
1254.3403255458879
 31
0.0
  0
LINE
  5
61DA
  8
FUTO
 10
7855.9260525783602
 20
852.16610447370124
 30
0.0
 11
7735.9260525783602
 21
852.16610447370124
 31
0.0
  0
LINE
  5
61DB
  8
FUTO
 10
7855.9260525783602
 20
853.16610447370124
 30
0.0
 11
7735.9260525783602
 21
853.16610447370124
 31
0.0
  0
LINE
  5
61DC
  8
FUTO
 10
7729.9260525783611
 20
843.16610447370078
 30
0.0
 11
7861.9260525783602
 21
843.16610447370078
 31
0.0
  0
DIMENSION
  5
61DD
  8
SP
  2
*D52
 10
7795.9260525783602
 20
754.16610447370022
 30
0.0
 11
7757.4260525783602
 21
779.16610447370022
 31
0.0
 70
     0
 13
7718.9260525783602
 23
824.16610447370067
 33
0.0
 14
7795.9260525783602
 24
829.51968494935579
 34
0.0
  0
LINE
  5
61DE
  8
1
 10
7748.9260525783611
 20
825.76610447370069
 30
0.0
 11
7720.5260525783597
 21
825.76610447370069
 31
0.0
  0
LINE
  5
61DF
  8
1
 10
7748.9260525783611
 20
825.76610447370069
 30
0.0
 11
7718.9260525783602
 21
825.76610447370069
 31
0.0
  0
LINE
  5
61E0
  8
2
 10
7698.9260525783611
 20
838.09393387364003
 30
0.0
 11
7698.9260525783611
 21
813.0297451407979
 31
0.0
  0
ARC
  5
61E1
  8
FUTO
 10
7735.9260525783602
 20
863.16610447370113
 30
0.0
 40
11.0
 50
180.0
 51
270.0
  0
ARC
  5
61E2
  8
FUTO
 10
7735.9260525783602
 20
863.16610447370113
 30
0.0
 40
10.0
 50
180.0
 51
270.0
  0
ARC
  5
61E3
  8
FUTO
 10
7729.9260525783611
 20
868.16610447370135
 30
0.0
 40
25.0
 50
243.89611886263421
 51
270.0
  0
ARC
  5
61E4
  8
1
 10
7722.9260525783602
 20
941.16610447370135
 30
0.0
 40
3.0
 50
48.189685104244909
 51
90.0
  0
LINE
  5
61E5
  8
1
 10
7722.9260525783602
 20
944.16610447370078
 30
0.0
 11
7721.9260525783611
 21
944.16610447370169
 31
0.0
  0
ARC
  5
61E6
  8
1
 10
7721.9260525783611
 20
947.16610447370215
 30
0.0
 40
3.0
 50
180.0
 51
270.0
  0
POINT
  5
61E7
  8
1
 10
7718.9260525783602
 20
947.16610447370181
 30
0.0
  0
LINE
  5
61E8
  8
1
 10
7748.9260525783611
 20
825.76610447370069
 30
0.0
 11
7748.9260525783611
 21
824.1661044737009
 31
0.0
  0
ARC
  5
61E9
  8
FUTO
 10
7861.9260525783602
 20
868.16610447370226
 30
0.0
 40
25.0
 50
270.0
 51
0.0
  0
ARC
  5
61EA
  8
FUTO
 10
7855.9260525783602
 20
863.16610447370113
 30
0.0
 40
11.0
 50
270.0
 51
0.0
  0
ARC
  5
61EB
  8
FUTO
 10
7855.9260525783602
 20
863.16610447370113
 30
0.0
 40
10.0
 50
270.0
 51
0.0
  0
LINE
  5
61EC
  8
FUTO
 10
7865.9260525783611
 20
964.16610447370044
 30
0.0
 11
7872.9260525783593
 21
964.16610447370044
 31
0.0
  0
ARC
  5
61ED
  8
FUTO
 10
7869.9260525783602
 20
947.16610447370215
 30
0.0
 40
3.0
 50
270.0
 51
0.0
  0
LINE
  5
61EE
  8
FUTO
 10
7868.9260525783611
 20
944.16610447370078
 30
0.0
 11
7869.9260525783602
 21
944.16610447370169
 31
0.0
  0
ARC
  5
61EF
  8
FUTO
 10
7868.9260525783611
 20
941.16610447370135
 30
0.0
 40
3.0
 50
90.0
 51
131.81031489575511
  0
POINT
  5
61F0
  8
FUTO
 10
7872.9260525783602
 20
947.16610447370181
 30
0.0
  0
DIMENSION
  5
61F1
  8
SP
  2
*D53
 10
7872.9260525783602
 20
1345.1661044737
 30
0.0
 11
7834.4260525783611
 21
1370.1661044737
 31
0.0
 70
     0
 13
7795.9260525783602
 23
1308.781066994685
 33
0.0
 14
7872.9260525783602
 24
1181.166104473702
 34
0.0
  0
DIMENSION
  5
61F2
  8
SP
  2
*D54
 10
7865.9260525783611
 20
1275.1661044737
 30
0.0
 11
7795.9260525783602
 21
1300.1661044737
 31
0.0
 70
     0
 13
7725.9260525783602
 23
1194.1661044737009
 33
0.0
 14
7865.9260525783611
 24
1194.1661044737009
 34
0.0
  0
LINE
  5
61F3
  8
FUTO
 10
7735.9260525783602
 20
1205.1661044737
 30
0.0
 11
7855.9260525783602
 21
1205.1661044737
 31
0.0
  0
LINE
  5
61F4
  8
FUTO
 10
7735.9260525783602
 20
1204.1661044737
 30
0.0
 11
7855.9260525783602
 21
1204.1661044737
 31
0.0
  0
LINE
  5
61F5
  8
1
  6
CONTINUOUS
 10
7724.9260525783602
 20
1194.1661044737
 30
0.0
 11
7724.9260525783602
 21
1084.6610019015329
 31
0.0
  0
LINE
  5
61F6
  8
1
 10
7675.6260525783619
 20
1084.1661044737
 30
0.0
 11
7718.9260525783602
 21
1130.9661044737011
 31
0.0
  0
LINE
  5
61F7
  8
1
 10
7688.4260525783602
 20
1127.4164760301539
 30
0.0
 11
7688.4260525783602
 21
1098.000746506031
 31
0.0
  0
ARC
  5
61F8
  8
FUTO
 10
7735.9260525783602
 20
1194.1661044737009
 30
0.0
 40
11.0
 50
90.0
 51
180.0
  0
ARC
  5
61F9
  8
FUTO
 10
7735.9260525783602
 20
1194.1661044737009
 30
0.0
 40
10.0
 50
90.0
 51
180.0
  0
LINE
  5
61FA
  8
FUTO
 10
7718.9260525783602
 20
1189.1661044737
 30
0.0
 11
7717.3260525783608
 21
1189.1661044737
 31
0.0
  0
ARC
  5
61FB
  8
FUTO
 10
7722.9260525783602
 20
1187.166104473702
 30
0.0
 40
3.0
 50
270.0
 51
311.81031489575071
  0
LINE
  5
61FC
  8
FUTO
 10
7722.9260525783602
 20
1184.1661044737
 30
0.0
 11
7721.926052578362
 21
1184.1661044737
 31
0.0
  0
ARC
  5
61FD
  8
FUTO
 10
7721.9260525783611
 20
1181.166104473702
 30
0.0
 40
3.0
 50
90.0
 51
180.0
  0
ARC
  5
61FE
  8
FUTO
 10
7861.9260525783602
 20
1060.1661044737009
 30
0.0
 40
25.0
 50
0.0
 51
63.896118862634268
  0
LINE
  5
61FF
  8
FUTO
 10
7865.9260525783611
 20
1164.1661044737
 30
0.0
 11
7872.9260525783593
 21
1164.1661044737
 31
0.0
  0
ARC
  5
6200
  8
1
 10
7869.9260525783602
 20
1181.166104473702
 30
0.0
 40
3.0
 50
0.0
 51
90.0
  0
ARC
  5
6201
  8
FUTO
 10
7855.9260525783602
 20
1194.1661044737009
 30
0.0
 40
11.0
 50
0.0
 51
90.0
  0
ARC
  5
6202
  8
FUTO
 10
7855.9260525783602
 20
1194.1661044737009
 30
0.0
 40
10.0
 50
0.0
 51
90.0
  0
LINE
  5
6203
  8
1
 10
7868.9260525783611
 20
1184.1661044737
 30
0.0
 11
7869.9260525783602
 21
1184.1661044737
 31
0.0
  0
ARC
  5
6204
  8
1
 10
7868.9260525783611
 20
1187.166104473702
 30
0.0
 40
3.0
 50
228.18968510424921
 51
270.0
  0
ENDSEC
  0
EOF
