  0
SECTION
  2
HEADER
  9
$ACADVER
  1
AC1009
  9
$INSBASE
 10
0.0
 20
0.0
 30
0.0
  9
$EXTMIN
 10
-6105.8443017129503
 20
0.0000009706889159
 30
0.0
  9
$EXTMAX
 10
-4005.8443017129498
 20
2950.0000009706891
 30
0.0
  9
$LIMMIN
 10
0.0
 20
0.0
  9
$LIMMAX
 10
297.0
 20
210.0
  9
$ORTHOMODE
 70
     0
  9
$REGENMODE
 70
     1
  9
$FILLMODE
 70
     1
  9
$QTEXTMODE
 70
     0
  9
$MIRRTEXT
 70
     0
  9
$DRAGMODE
 70
     2
  9
$LTSCALE
 40
50.0
  9
$OSMODE
 70
   545
  9
$ATTMODE
 70
     1
  9
$TEXTSIZE
 40
3.5
  9
$TRACEWID
 40
0.05
  9
$TEXTSTYLE
  7
STANDARD
  9
$CLAYER
  8
SP
  9
$CELTYPE
  6
BYLAYER
  9
$CECOLOR
 62
   256
  9
$DIMSCALE
 40
10.0
  9
$DIMASZ
 40
2.5
  9
$DIMEXO
 40
1.0
  9
$DIMDLI
 40
7.0
  9
$DIMRND
 40
0.0
  9
$DIMDLE
 40
0.0
  9
$DIMEXE
 40
1.0
  9
$DIMTP
 40
0.0
  9
$DIMTM
 40
0.0
  9
$DIMTXT
 40
3.0
  9
$DIMCEN
 40
0.0
  9
$DIMTSZ
 40
0.0
  9
$DIMTOL
 70
     0
  9
$DIMLIM
 70
     0
  9
$DIMTIH
 70
     0
  9
$DIMTOH
 70
     0
  9
$DIMSE1
 70
     0
  9
$DIMSE2
 70
     0
  9
$DIMTAD
 70
     1
  9
$DIMZIN
 70
     8
  9
$DIMBLK
  1

  9
$DIMASO
 70
     1
  9
$DIMSHO
 70
     1
  9
$DIMPOST
  1

  9
$DIMAPOST
  1

  9
$DIMALT
 70
     0
  9
$DIMALTD
 70
     2
  9
$DIMALTF
 40
0.03937
  9
$DIMLFAC
 40
1.0
  9
$DIMTOFL
 70
     1
  9
$DIMTVP
 40
0.0
  9
$DIMTIX
 70
     0
  9
$DIMSOXD
 70
     0
  9
$DIMSAH
 70
     1
  9
$DIMBLK1
  1
OPEN
  9
$DIMBLK2
  1
OPEN
  9
$DIMSTYLE
  2
GOD
  9
$DIMCLRD
 70
   256
  9
$DIMCLRE
 70
   256
  9
$DIMCLRT
 70
   256
  9
$DIMTFAC
 40
1.0
  9
$DIMGAP
 40
1.0
  9
$LUNITS
 70
     2
  9
$LUPREC
 70
     3
  9
$SKETCHINC
 40
0.1
  9
$FILLETRAD
 40
10.0
  9
$AUNITS
 70
     0
  9
$AUPREC
 70
     2
  9
$MENU
  1
acad
  9
$ELEVATION
 40
0.0
  9
$PELEVATION
 40
0.0
  9
$THICKNESS
 40
0.0
  9
$LIMCHECK
 70
     0
  9
$BLIPMODE
 70
     0
  9
$CHAMFERA
 40
0.0
  9
$CHAMFERB
 40
0.0
  9
$SKPOLY
 70
     0
  9
$TDCREATE
 40
2454939.5747812148
  9
$TDUPDATE
 40
2454953.8297370481
  9
$TDINDWG
 40
0.0356348032
  9
$TDUSRTIMER
 40
0.0356348032
  9
$USRTIMER
 70
     1
  9
$ANGBASE
 50
0.0
  9
$ANGDIR
 70
     0
  9
$PDMODE
 70
     0
  9
$PDSIZE
 40
1.0
  9
$PLINEWID
 40
0.0
  9
$COORDS
 70
     2
  9
$SPLFRAME
 70
     0
  9
$SPLINETYPE
 70
     6
  9
$SPLINESEGS
 70
     8
  9
$ATTDIA
 70
     0
  9
$ATTREQ
 70
     1
  9
$HANDLING
 70
 22529
  9
$HANDSEED
  5
5ED6
  9
$SURFTAB1
 70
     6
  9
$SURFTAB2
 70
     6
  9
$SURFTYPE
 70
     6
  9
$SURFU
 70
     6
  9
$SURFV
 70
     6
  9
$UCSNAME
  2

  9
$UCSORG
 10
0.0
 20
0.0
 30
0.0
  9
$UCSXDIR
 10
1.0
 20
0.0
 30
0.0
  9
$UCSYDIR
 10
0.0
 20
1.0
 30
0.0
  9
$PUCSNAME
  2

  9
$PUCSORG
 10
0.0
 20
0.0
 30
0.0
  9
$PUCSXDIR
 10
1.0
 20
0.0
 30
0.0
  9
$PUCSYDIR
 10
0.0
 20
1.0
 30
0.0
  9
$USERI1
 70
     0
  9
$USERI2
 70
     0
  9
$USERI3
 70
     0
  9
$USERI4
 70
     0
  9
$USERI5
 70
     0
  9
$USERR1
 40
0.0
  9
$USERR2
 40
0.0
  9
$USERR3
 40
0.0
  9
$USERR4
 40
0.0
  9
$USERR5
 40
0.0
  9
$WORLDVIEW
 70
     1
  9
$SHADEDGE
 70
     3
  9
$SHADEDIF
 70
    70
  9
$TILEMODE
 70
     1
  9
$MAXACTVP
 70
    16
  9
$PLIMCHECK
 70
     0
  9
$PEXTMIN
 10
1.0000000000000000E+020
 20
1.0000000000000000E+020
 30
1.0000000000000000E+020
  9
$PEXTMAX
 10
-1.0000000000000000E+020
 20
-1.0000000000000000E+020
 30
-1.0000000000000000E+020
  9
$PLIMMIN
 10
0.0
 20
0.0
  9
$PLIMMAX
 10
12.0
 20
9.0
  9
$UNITMODE
 70
     0
  9
$VISRETAIN
 70
     0
  9
$PLINEGEN
 70
     0
  9
$PSLTSCALE
 70
     0
  0
ENDSEC
  0
SECTION
  2
TABLES
  0
TABLE
  2
VPORT
 70
     2
  0
VPORT
  2
*ACTIVE
 70
     0
 10
0.0
 20
0.0
 11
1.0
 21
1.0
 12
-4868.7708521712811
 22
1474.998202155982
 13
0.0
 23
0.0
 14
5.0
 24
5.0
 15
0.0
 25
0.0
 16
0.0
 26
0.0
 36
1.0
 17
0.0
 27
0.0
 37
0.0
 40
2973.0120467139159
 41
1.6307901907356941
 42
50.0
 43
0.0
 44
0.0
 50
0.0
 51
0.0
 71
     0
 72
   100
 73
     1
 74
     0
 75
     0
 76
     0
 77
     0
 78
     0
  0
ENDTAB
  0
TABLE
  2
LTYPE
 70
     4
  0
LTYPE
  2
CONTINUOUS
 70
     0
  3
Solid line
 72
    65
 73
     0
 40
0.0
  0
LTYPE
  2
CENTER
 70
     0
  3
____ _ ____ _ ____ _ ____ _ ____ _ ____ _ ____ 
 72
    65
 73
     4
 40
2.0
 49
1.25
 49
-0.25
 49
0.25
 49
-0.25
  0
LTYPE
  2
HIDDEN
 70
     0
  3
__ __ __ __ __ __ __ __ __ __ __ __ __ __ __ __
 72
    65
 73
     2
 40
0.375
 49
0.25
 49
-0.125
  0
LTYPE
  2
PHANTOM
 70
     0
  3
______  __  __  ______  __  __  ______  __  __ 
 72
    65
 73
     6
 40
2.5
 49
1.25
 49
-0.25
 49
0.25
 49
-0.25
 49
0.25
 49
-0.25
  0
ENDTAB
  0
TABLE
  2
LAYER
 70
    13
  0
LAYER
  2
0
 70
     0
 62
     7
  6
CONTINUOUS
  0
LAYER
  2
CT
 70
     0
 62
     3
  6
CENTER
  0
LAYER
  2
FUTO
 70
     0
 62
     4
  6
CONTINUOUS
  0
LAYER
  2
HOSO
 70
     0
 62
     7
  6
CONTINUOUS
  0
LAYER
  2
KL
 70
     0
 62
     7
  6
HIDDEN
  0
LAYER
  2
MOJI
 70
     0
 62
     3
  6
CONTINUOUS
  0
LAYER
  2
SL
 70
     0
 62
     1
  6
PHANTOM
  0
LAYER
  2
SP
 70
     0
 62
     2
  6
CONTINUOUS
  0
LAYER
  2
DEFPOINTS
 70
     0
 62
     7
  6
CONTINUOUS
  0
LAYER
  2
1
 70
     0
 62
     4
  6
CONTINUOUS
  0
LAYER
  2
3
 70
     0
 62
     2
  6
CONTINUOUS
  0
LAYER
  2
2
 70
     0
 62
     3
  6
CENTER
  0
LAYER
  2
4
 70
     0
 62
     7
  6
CONTINUOUS
  0
ENDTAB
  0
TABLE
  2
STYLE
 70
     1
  0
STYLE
  2
STANDARD
 70
     0
 40
0.0
 41
1.0
 50
15.0
 71
     0
 42
3.5
  3
C:\Program Files\AutoCAD LT\simplex.shx
  4
C:\Program Files\AutoCAD LT\extfont.shx
  0
ENDTAB
  0
TABLE
  2
VIEW
 70
     0
  0
ENDTAB
  0
TABLE
  2
UCS
 70
     0
  0
ENDTAB
  0
TABLE
  2
APPID
 70
     1
  0
APPID
  2
ACAD
 70
     0
  0
ENDTAB
  0
TABLE
  2
DIMSTYLE
 70
     3
  0
DIMSTYLE
  2
STANDARD
 70
     0
  3

  4

  5

  6

  7

 40
1.0
 41
0.18
 42
0.0625
 43
0.38
 44
0.18
 45
0.0
 46
0.0
 47
0.0
 48
0.0
140
0.18
141
0.09
142
0.0
143
25.399999999999999
144
1.0
145
0.0
146
1.0
147
0.09
 71
     0
 72
     0
 73
     1
 74
     1
 75
     0
 76
     0
 77
     0
 78
     0
170
     0
171
     2
172
     0
173
     0
174
     0
175
     0
176
     0
177
     0
178
     0
  0
DIMSTYLE
  2
GOD
 70
     0
  3

  4

  5

  6
OPEN
  7
OPEN
 40
10.0
 41
2.5
 42
1.0
 43
7.0
 44
1.0
 45
0.0
 46
0.0
 47
0.0
 48
0.0
140
3.0
141
0.0
142
0.0
143
0.03937
144
1.0
145
0.0
146
1.0
147
1.0
 71
     0
 72
     0
 73
     0
 74
     0
 75
     0
 76
     0
 77
     1
 78
     8
170
     0
171
     2
172
     1
173
     1
174
     0
175
     0
176
   256
177
   256
178
   256
  0
DIMSTYLE
  2
DIA1
 70
     0
  3

  4

  5
ARROW
  6

  7

 40
1.0
 41
2.0
 42
1.0
 43
10.0
 44
1.0
 45
0.0
 46
0.0
 47
0.0
 48
0.0
140
2.5
141
0.0
142
0.0
143
25.399999999999999
144
1.0
145
0.0
146
1.0
147
0.09
 71
     0
 72
     0
 73
     0
 74
     0
 75
     0
 76
     0
 77
     1
 78
     8
170
     0
171
     2
172
     1
173
     0
174
     0
175
     0
176
     2
177
     2
178
     2
  0
ENDTAB
  0
ENDSEC
  0
SECTION
  2
BLOCKS
  0
BLOCK
  8
0
  2
$MODEL_SPACE
 70
     0
 10
0.0
 20
0.0
 30
0.0
  3
$MODEL_SPACE
  1

  0
ENDBLK
  5
1B
  8
0
  0
BLOCK
 67
     1
  8
0
  2
$PAPER_SPACE
 70
     0
 10
0.0
 20
0.0
 30
0.0
  3
$PAPER_SPACE
  1

  0
ENDBLK
  5
18
 67
     1
  8
0
  0
BLOCK
  8
0
  2
_OPEN
 70
     0
 10
0.0
 20
0.0
 30
0.0
  3
_OPEN
  1

  0
LINE
  5
1E81
  8
0
  6
BYBLOCK
 62
     0
 10
-1.0
 20
0.1666666666666666
 30
0.0
 11
0.0
 21
0.0
 31
0.0
  0
LINE
  5
1E82
  8
0
  6
BYBLOCK
 62
     0
 10
0.0
 20
0.0
 30
0.0
 11
-1.0
 21
-0.1666666666666666
 31
0.0
  0
LINE
  5
1E83
  8
0
  6
BYBLOCK
 62
     0
 10
0.0
 20
0.0
 30
0.0
 11
-1.0
 21
0.0
 31
0.0
  0
ENDBLK
  5
1E84
  8
0
  0
BLOCK
  8
0
  2
_DOT
 70
     0
 10
0.0
 20
0.0
 30
0.0
  3
_DOT
  1

  0
LINE
  5
1EC3
  8
0
  6
BYBLOCK
 62
     0
 10
0.0
 20
0.0
 30
0.0
 11
-1.0
 21
-0.0000000000000284
 31
0.0
  0
POLYLINE
  5
1EC4
  8
0
  6
BYBLOCK
 62
     0
 66
     1
 10
0.0
 20
0.0
 30
0.0
 70
     1
 40
0.1666666666666666
 41
0.1666666666666666
  0
VERTEX
  5
5ECE
  8
0
  6
BYBLOCK
 62
     0
 10
-0.0833333333333286
 20
-0.0000000000000284
 30
0.0
 42
1.0
  0
VERTEX
  5
5ECF
  8
0
  6
BYBLOCK
 62
     0
 10
0.0833333333333286
 20
-0.0000000000000284
 30
0.0
 42
1.0
  0
SEQEND
  5
5ED0
  8
0
  6
BYBLOCK
 62
     0
  0
ENDBLK
  5
1EB8
  8
0
  0
BLOCK
  8
0
  2
ARROW
 70
     0
 10
0.0
 20
0.0
 30
0.0
  3
ARROW
  1

  0
LINE
  5
1EEF
  8
0
 10
-0.9999999999999991
 20
0.1666666667000003
 30
0.0
 11
0.0
 21
0.0
 31
0.0
  0
LINE
  5
1EF0
  8
0
 10
-0.9999999999999991
 20
0.0
 30
0.0
 11
0.0
 21
0.0
 31
0.0
  0
LINE
  5
1EF1
  8
0
 10
-0.9999999999999991
 20
-0.1666666667000003
 30
0.0
 11
0.0
 21
0.0
 31
0.0
  0
ENDBLK
  5
1EF3
  8
0
  0
BLOCK
  8
0
  2
_NONE
 70
     0
 10
0.0
 20
0.0
 30
0.0
  3
_NONE
  1

  0
ENDBLK
  5
1F6F
  8
0
  0
BLOCK
  8
0
  2
*D4
 70
     1
 10
0.0
 20
0.0
 30
0.0
  3
*D4
  1

  0
LINE
  5
4ACB
  8
SP
 10
-5664.424206018185
 20
793.99565485309563
 30
0.0
 11
-5664.424206018185
 21
653.99565485309563
 31
0.0
  0
LINE
  5
4ACC
  8
SP
 10
-5334.4242060181841
 20
793.99565485309597
 30
0.0
 11
-5334.4242060181841
 21
653.99565485309563
 31
0.0
  0
LINE
  5
4ACD
  8
SP
 10
-5639.4242060181859
 20
663.99565485309563
 30
0.0
 11
-5359.4242060181841
 21
663.99565485309563
 31
0.0
  0
INSERT
  5
4ACE
  8
SP
  2
_OPEN
 10
-5664.424206018185
 20
663.99565485309563
 30
0.0
 41
25.0
 42
25.0
 43
25.0
 50
180.0
  0
INSERT
  5
4ACF
  8
SP
  2
_OPEN
 10
-5334.4242060181841
 20
663.99565485309563
 30
0.0
 41
25.0
 42
25.0
 43
25.0
  0
TEXT
  5
4AD0
  8
SP
 10
-5541.3005867617949
 20
673.99565485309563
 30
0.0
 40
30.0
  1
330
 51
15.0
  0
POINT
  5
4AD1
  8
DEFPOINTS
 62
     0
 10
-5664.424206018185
 20
803.99565485309552
 30
0.0
  0
POINT
  5
4AD2
  8
DEFPOINTS
 62
     0
 10
-5334.4242060181841
 20
803.99565485309608
 30
0.0
  0
POINT
  5
4AD3
  8
DEFPOINTS
 62
     0
 10
-5334.4242060181841
 20
663.99565485309563
 30
0.0
  0
ENDBLK
  5
4AD5
  8
0
  0
BLOCK
  8
0
  2
*D5
 70
     1
 10
0.0
 20
0.0
 30
0.0
  3
*D5
  1

  0
LINE
  5
4AD8
  8
SP
 10
-5499.4242060181859
 20
760.74303402318026
 30
0.0
 11
-5499.4242060181859
 21
723.99565485309608
 31
0.0
  0
LINE
  5
4AD9
  8
SP
 10
-5664.424206018185
 20
793.99565485309563
 30
0.0
 11
-5664.424206018185
 21
723.99565485309608
 31
0.0
  0
LINE
  5
4ADA
  8
SP
 10
-5524.4242060181859
 20
733.99565485309608
 30
0.0
 11
-5639.424206018185
 21
733.99565485309608
 31
0.0
  0
INSERT
  5
4ADB
  8
SP
  2
_OPEN
 10
-5499.4242060181859
 20
733.99565485309608
 30
0.0
 41
25.0
 42
25.0
 43
25.0
  0
INSERT
  5
4ADC
  8
SP
  2
_OPEN
 10
-5664.424206018185
 20
733.99565485309608
 30
0.0
 41
25.0
 42
25.0
 43
25.0
 50
180.0
  0
TEXT
  5
4ADD
  8
SP
 10
-5623.482826955601
 20
743.99565485309597
 30
0.0
 40
30.0
  1
165
 51
15.0
  0
POINT
  5
4ADE
  8
DEFPOINTS
 62
     0
 10
-5499.4242060181859
 20
770.74303402318037
 30
0.0
  0
POINT
  5
4ADF
  8
DEFPOINTS
 62
     0
 10
-5664.424206018185
 20
803.99565485309552
 30
0.0
  0
POINT
  5
4AE0
  8
DEFPOINTS
 62
     0
 10
-5664.424206018185
 20
733.99565485309608
 30
0.0
  0
ENDBLK
  5
4AE2
  8
0
  0
BLOCK
  8
0
  2
*D6
 70
     1
 10
0.0
 20
0.0
 30
0.0
  3
*D6
  1

  0
LINE
  5
4AE5
  8
SP
 10
-5499.4242060181859
 20
760.74303402318026
 30
0.0
 11
-5499.4242060181859
 21
723.99565485309608
 31
0.0
  0
LINE
  5
4AE6
  8
SP
 10
-5334.4242060181841
 20
793.99565485309597
 30
0.0
 11
-5334.4242060181841
 21
723.99565485309608
 31
0.0
  0
LINE
  5
4AE7
  8
SP
 10
-5474.4242060181859
 20
733.99565485309608
 30
0.0
 11
-5359.4242060181841
 21
733.99565485309608
 31
0.0
  0
INSERT
  5
4AE8
  8
SP
  2
_OPEN
 10
-5499.4242060181859
 20
733.99565485309608
 30
0.0
 41
25.0
 42
25.0
 43
25.0
 50
180.0
  0
INSERT
  5
4AE9
  8
SP
  2
_OPEN
 10
-5334.4242060181841
 20
733.99565485309608
 30
0.0
 41
25.0
 42
25.0
 43
25.0
  0
TEXT
  5
4AEA
  8
SP
 10
-5458.482826955601
 20
743.99565485309597
 30
0.0
 40
30.0
  1
165
 51
15.0
  0
POINT
  5
4AEB
  8
DEFPOINTS
 62
     0
 10
-5499.4242060181859
 20
770.74303402318037
 30
0.0
  0
POINT
  5
4AEC
  8
DEFPOINTS
 62
     0
 10
-5334.4242060181841
 20
803.99565485309608
 30
0.0
  0
POINT
  5
4AED
  8
DEFPOINTS
 62
     0
 10
-5334.4242060181841
 20
733.99565485309608
 30
0.0
  0
ENDBLK
  5
4AEF
  8
0
  0
BLOCK
  8
0
  2
*D7
 70
     1
 10
0.0
 20
0.0
 30
0.0
  3
*D7
  1

  0
LINE
  5
4B08
  8
SP
 10
-5313.7585770124988
 20
1043.9956548530961
 30
0.0
 11
-5259.4242060181841
 21
1043.9956548530961
 31
0.0
  0
LINE
  5
4B09
  8
SP
 10
-5331.0242060181836
 20
1243.9956548530961
 30
0.0
 11
-5259.4242060181841
 21
1243.9956548530961
 31
0.0
  0
LINE
  5
4B0A
  8
SP
 10
-5269.424206018185
 20
1068.9956548530961
 30
0.0
 11
-5269.424206018185
 21
1218.9956548530961
 31
0.0
  0
INSERT
  5
4B0B
  8
SP
  2
_OPEN
 10
-5269.424206018185
 20
1043.9956548530961
 30
0.0
 41
25.0
 42
25.0
 43
25.0
 50
270.0
  0
INSERT
  5
4B0C
  8
SP
  2
_OPEN
 10
-5269.424206018185
 20
1243.9956548530961
 30
0.0
 41
25.0
 42
25.0
 43
25.0
 50
90.0
  0
TEXT
  5
4B0D
  8
SP
 10
-5279.424206018185
 20
1102.884843230717
 30
0.0
 40
30.0
  1
200
 50
90.0
 51
15.0
  0
POINT
  5
4B0E
  8
DEFPOINTS
 62
     0
 10
-5323.7585770124979
 20
1043.9956548530961
 30
0.0
  0
POINT
  5
4B0F
  8
DEFPOINTS
 62
     0
 10
-5341.0242060181836
 20
1243.9956548530961
 30
0.0
  0
POINT
  5
4B10
  8
DEFPOINTS
 62
     0
 10
-5269.424206018185
 20
1243.9956548530961
 30
0.0
  0
ENDBLK
  5
4AFE
  8
0
  0
BLOCK
  8
0
  2
*D8
 70
     1
 10
0.0
 20
0.0
 30
0.0
  3
*D8
  1

  0
LINE
  5
4B13
  8
SP
 10
-5313.7585770124988
 20
1043.9956548530961
 30
0.0
 11
-5259.4242060181841
 21
1043.9956548530961
 31
0.0
  0
LINE
  5
4B14
  8
SP
 10
-5324.4242060181841
 20
803.99565485309608
 30
0.0
 11
-5259.4242060181841
 21
803.99565485309608
 31
0.0
  0
LINE
  5
4B15
  8
SP
 10
-5269.424206018185
 20
1018.995654853096
 30
0.0
 11
-5269.424206018185
 21
828.99565485309608
 31
0.0
  0
INSERT
  5
4B16
  8
SP
  2
_OPEN
 10
-5269.424206018185
 20
1043.9956548530961
 30
0.0
 41
25.0
 42
25.0
 43
25.0
 50
90.0
  0
INSERT
  5
4B17
  8
SP
  2
_OPEN
 10
-5269.424206018185
 20
803.99565485309608
 30
0.0
 41
25.0
 42
25.0
 43
25.0
 50
270.0
  0
TEXT
  5
4B18
  8
SP
 10
-5279.424206018185
 20
882.88484323071725
 30
0.0
 40
30.0
  1
240
 50
90.0
 51
15.0
  0
POINT
  5
4B19
  8
DEFPOINTS
 62
     0
 10
-5323.7585770124979
 20
1043.9956548530961
 30
0.0
  0
POINT
  5
4B1A
  8
DEFPOINTS
 62
     0
 10
-5334.4242060181841
 20
803.99565485309608
 30
0.0
  0
POINT
  5
4B1B
  8
DEFPOINTS
 62
     0
 10
-5269.424206018185
 20
803.99565485309608
 30
0.0
  0
ENDBLK
  5
4B1D
  8
0
  0
BLOCK
  8
0
  2
*D9
 70
     1
 10
0.0
 20
0.0
 30
0.0
  3
*D9
  1

  0
LINE
  5
4B2D
  8
SP
 10
-5499.4242060181859
 20
1279.808270722272
 30
0.0
 11
-5499.4242060181859
 21
1334.9956548530961
 31
0.0
  0
LINE
  5
4B2E
  8
SP
 10
-5339.424206018185
 20
1274.9956548530961
 30
0.0
 11
-5339.424206018185
 21
1334.9956548530961
 31
0.0
  0
LINE
  5
4B2F
  8
SP
 10
-5474.4242060181859
 20
1324.9956548530961
 30
0.0
 11
-5364.424206018185
 21
1324.9956548530961
 31
0.0
  0
INSERT
  5
4B30
  8
SP
  2
_OPEN
 10
-5499.4242060181859
 20
1324.9956548530961
 30
0.0
 41
25.0
 42
25.0
 43
25.0
 50
180.0
  0
INSERT
  5
4B31
  8
SP
  2
_OPEN
 10
-5339.424206018185
 20
1324.9956548530961
 30
0.0
 41
25.0
 42
25.0
 43
25.0
  0
TEXT
  5
4B32
  8
SP
 10
-5460.9315435486569
 20
1334.9956548530961
 30
0.0
 40
30.0
  1
160
 51
15.0
  0
POINT
  5
4B33
  8
DEFPOINTS
 62
     0
 10
-5499.4242060181859
 20
1269.808270722272
 30
0.0
  0
POINT
  5
4B34
  8
DEFPOINTS
 62
     0
 10
-5339.424206018185
 20
1264.9956548530961
 30
0.0
  0
POINT
  5
4B35
  8
DEFPOINTS
 62
     0
 10
-5339.424206018185
 20
1324.9956548530961
 30
0.0
  0
ENDBLK
  5
4B2C
  8
0
  0
BLOCK
  8
0
  2
*D10
 70
     1
 10
0.0
 20
0.0
 30
0.0
  3
*D10
  1

  0
LINE
  5
4B38
  8
SP
 10
-5499.4242060181859
 20
1279.808270722272
 30
0.0
 11
-5499.4242060181859
 21
1334.9956548530961
 31
0.0
  0
LINE
  5
4B39
  8
SP
 10
-5667.4242060181859
 20
1069.9956548530961
 30
0.0
 11
-5667.4242060181859
 21
1334.9956548530961
 31
0.0
  0
LINE
  5
4B3A
  8
SP
 10
-5524.4242060181859
 20
1324.9956548530961
 30
0.0
 11
-5642.424206018185
 21
1324.9956548530961
 31
0.0
  0
INSERT
  5
4B3B
  8
SP
  2
_OPEN
 10
-5499.4242060181859
 20
1324.9956548530961
 30
0.0
 41
25.0
 42
25.0
 43
25.0
  0
INSERT
  5
4B3C
  8
SP
  2
_OPEN
 10
-5667.4242060181859
 20
1324.9956548530961
 30
0.0
 41
25.0
 42
25.0
 43
25.0
 50
180.0
  0
TEXT
  5
4B3D
  8
SP
 10
-5625.1229358289638
 20
1334.9956548530961
 30
0.0
 40
30.0
  1
168
 51
15.0
  0
POINT
  5
4B3E
  8
DEFPOINTS
 62
     0
 10
-5499.4242060181859
 20
1269.808270722272
 30
0.0
  0
POINT
  5
4B3F
  8
DEFPOINTS
 62
     0
 10
-5667.4242060181859
 20
1059.9956548530961
 30
0.0
  0
POINT
  5
4B40
  8
DEFPOINTS
 62
     0
 10
-5667.4242060181859
 20
1324.9956548530961
 30
0.0
  0
ENDBLK
  5
4B42
  8
0
  0
BLOCK
  8
0
  2
*D11
 70
     1
 10
0.0
 20
0.0
 30
0.0
  3
*D11
  1

  0
LINE
  5
523A
  8
SP
 10
-5674.424206018185
 20
1878.8970137353699
 30
0.0
 11
-5783.1463294562827
 21
1878.8970137353699
 31
0.0
  0
LINE
  5
523B
  8
SP
 10
-5674.424206018185
 20
1708.897013735369
 30
0.0
 11
-5783.1463294562827
 21
1708.897013735369
 31
0.0
  0
LINE
  5
523C
  8
SP
 10
-5773.1463294562827
 20
1853.8970137353699
 30
0.0
 11
-5773.1463294562827
 21
1733.897013735369
 31
0.0
  0
INSERT
  5
523D
  8
SP
  2
_OPEN
 10
-5773.1463294562827
 20
1878.8970137353699
 30
0.0
 41
25.0
 42
25.0
 43
25.0
 50
90.0
  0
INSERT
  5
523E
  8
SP
  2
_OPEN
 10
-5773.1463294562827
 20
1708.897013735369
 30
0.0
 41
25.0
 42
25.0
 43
25.0
 50
270.0
  0
TEXT
  5
523F
  8
SP
 10
-5783.1463294562827
 20
1752.389676204898
 30
0.0
 40
30.0
  1
170
 50
90.0
 51
15.0
  0
POINT
  5
5240
  8
DEFPOINTS
 62
     0
 10
-5664.424206018185
 20
1878.8970137353699
 30
0.0
  0
POINT
  5
5241
  8
DEFPOINTS
 62
     0
 10
-5664.424206018185
 20
1708.897013735369
 30
0.0
  0
POINT
  5
5242
  8
DEFPOINTS
 62
     0
 10
-5773.1463294562827
 20
1708.897013735369
 30
0.0
  0
ENDBLK
  5
51F3
  8
0
  0
BLOCK
  8
0
  2
*D12
 70
     1
 10
0.0
 20
0.0
 30
0.0
  3
*D12
  1

  0
LINE
  5
5228
  8
SP
 10
-5674.424206018185
 20
1878.8970137353699
 30
0.0
 11
-5783.1463294562827
 21
1878.8970137353699
 31
0.0
  0
LINE
  5
5229
  8
SP
 10
-5699.2816311351035
 20
1955.8970137353699
 30
0.0
 11
-5783.1463294562827
 21
1955.8970137353699
 31
0.0
  0
LINE
  5
522A
  8
SP
 10
-5773.1463294562827
 20
1903.8970137353699
 30
0.0
 11
-5773.1463294562827
 21
1930.8970137353699
 31
0.0
  0
INSERT
  5
522B
  8
SP
  2
_OPEN
 10
-5773.1463294562827
 20
1878.8970137353699
 30
0.0
 41
25.0
 42
25.0
 43
25.0
 50
270.0
  0
INSERT
  5
522C
  8
SP
  2
_OPEN
 10
-5773.1463294562827
 20
1955.8970137353699
 30
0.0
 41
25.0
 42
25.0
 43
25.0
 50
90.0
  0
TEXT
  5
522D
  8
SP
 10
-5783.1463294562827
 20
1886.234918706044
 30
0.0
 40
30.0
  1
77
 50
90.0
 51
15.0
  0
POINT
  5
522E
  8
DEFPOINTS
 62
     0
 10
-5664.424206018185
 20
1878.8970137353699
 30
0.0
  0
POINT
  5
522F
  8
DEFPOINTS
 62
     0
 10
-5689.2816311351016
 20
1955.8970137353699
 30
0.0
  0
POINT
  5
5230
  8
DEFPOINTS
 62
     0
 10
-5773.1463294562827
 20
1955.8970137353699
 30
0.0
  0
ENDBLK
  5
51FF
  8
0
  0
BLOCK
  8
0
  2
*D13
 70
     1
 10
0.0
 20
0.0
 30
0.0
  3
*D13
  1

  0
LINE
  5
5231
  8
SP
 10
-5334.424206018185
 20
1698.8970137353699
 30
0.0
 11
-5334.424206018185
 21
1570.0699239356941
 31
0.0
  0
LINE
  5
5232
  8
SP
 10
-5674.424206018185
 20
1698.8970137353699
 30
0.0
 11
-5674.424206018185
 21
1570.0699239356941
 31
0.0
  0
LINE
  5
5233
  8
SP
 10
-5359.424206018185
 20
1580.0699239356941
 30
0.0
 11
-5649.424206018185
 21
1580.0699239356941
 31
0.0
  0
INSERT
  5
5234
  8
SP
  2
_OPEN
 10
-5334.424206018185
 20
1580.0699239356941
 30
0.0
 41
25.0
 42
25.0
 43
25.0
  0
INSERT
  5
5235
  8
SP
  2
_OPEN
 10
-5674.424206018185
 20
1580.0699239356941
 30
0.0
 41
25.0
 42
25.0
 43
25.0
 50
180.0
  0
TEXT
  5
5236
  8
SP
 10
-5546.3005867617949
 20
1590.0699239356941
 30
0.0
 40
30.0
  1
340
 51
15.0
  0
POINT
  5
5237
  8
DEFPOINTS
 62
     0
 10
-5334.424206018185
 20
1708.897013735369
 30
0.0
  0
POINT
  5
5238
  8
DEFPOINTS
 62
     0
 10
-5674.424206018185
 20
1708.897013735369
 30
0.0
  0
POINT
  5
5239
  8
DEFPOINTS
 62
     0
 10
-5674.424206018185
 20
1580.0699239356941
 30
0.0
  0
ENDBLK
  5
520B
  8
0
  0
BLOCK
  8
0
  2
*D14
 70
     1
 10
0.0
 20
0.0
 30
0.0
  3
*D14
  1

  0
LINE
  5
537F
  8
SP
 10
-4631.8813227483943
 20
794.19565485301007
 30
0.0
 11
-4631.8813227483943
 21
723.99565485309574
 31
0.0
  0
LINE
  5
5380
  8
SP
 10
-4801.8813227483934
 20
793.99565485309574
 30
0.0
 11
-4801.8813227483934
 21
723.99565485309574
 31
0.0
  0
LINE
  5
5381
  8
SP
 10
-4656.8813227483943
 20
733.99565485309574
 30
0.0
 11
-4776.8813227483934
 21
733.99565485309574
 31
0.0
  0
INSERT
  5
5382
  8
SP
  2
_OPEN
 10
-4631.8813227483943
 20
733.99565485309574
 30
0.0
 41
25.0
 42
25.0
 43
25.0
  0
INSERT
  5
5383
  8
SP
  2
_OPEN
 10
-4801.8813227483934
 20
733.99565485309574
 30
0.0
 41
25.0
 42
25.0
 43
25.0
 50
180.0
  0
TEXT
  5
5384
  8
SP
 10
-4758.3886602788634
 20
743.99565485309574
 30
0.0
 40
30.0
  1
170
 51
15.0
  0
POINT
  5
5385
  8
DEFPOINTS
 62
     0
 10
-4631.8813227483943
 20
804.19565485301018
 30
0.0
  0
POINT
  5
5386
  8
DEFPOINTS
 62
     0
 10
-4801.8813227483934
 20
803.99565485309586
 30
0.0
  0
POINT
  5
5387
  8
DEFPOINTS
 62
     0
 10
-4801.8813227483934
 20
733.99565485309574
 30
0.0
  0
ENDBLK
  5
537E
  8
0
  0
BLOCK
  8
0
  2
*D15
 70
     1
 10
0.0
 20
0.0
 30
0.0
  3
*D15
  1

  0
LINE
  5
539A
  8
SP
 10
-4631.8813227483943
 20
793.99565485309574
 30
0.0
 11
-4631.8813227483943
 21
723.99565485309574
 31
0.0
  0
LINE
  5
539B
  8
SP
 10
-4554.8813227483952
 20
843.82143378090768
 30
0.0
 11
-4554.8813227483952
 21
723.99565485309574
 31
0.0
  0
LINE
  5
539C
  8
SP
 10
-4606.8813227483943
 20
733.99565485309574
 30
0.0
 11
-4579.8813227483952
 21
733.99565485309574
 31
0.0
  0
INSERT
  5
539D
  8
SP
  2
_OPEN
 10
-4631.8813227483943
 20
733.99565485309574
 30
0.0
 41
25.0
 42
25.0
 43
25.0
 50
180.0
  0
INSERT
  5
539E
  8
SP
  2
_OPEN
 10
-4554.8813227483952
 20
733.99565485309574
 30
0.0
 41
25.0
 42
25.0
 43
25.0
  0
TEXT
  5
539F
  8
SP
 10
-4624.5434177777188
 20
743.99565485309574
 30
0.0
 40
30.0
  1
77
 51
15.0
  0
POINT
  5
53A0
  8
DEFPOINTS
 62
     0
 10
-4631.8813227483943
 20
803.99565485309574
 30
0.0
  0
POINT
  5
53A1
  8
DEFPOINTS
 62
     0
 10
-4554.8813227483952
 20
853.82143378090757
 30
0.0
  0
POINT
  5
53A2
  8
DEFPOINTS
 62
     0
 10
-4554.8813227483952
 20
733.99565485309574
 30
0.0
  0
ENDBLK
  5
5399
  8
0
  0
BLOCK
  8
0
  2
*D16
 70
     1
 10
0.0
 20
0.0
 30
0.0
  3
*D16
  1

  0
LINE
  5
54BC
  8
SP
 10
-4624.8813227483943
 20
1245.3808196602311
 30
0.0
 11
-4624.8813227483943
 21
1344.9956548530961
 31
0.0
  0
LINE
  5
54BD
  8
SP
 10
-4484.8813227483952
 20
1245.380819660232
 30
0.0
 11
-4484.8813227483952
 21
1344.9956548530961
 31
0.0
  0
LINE
  5
54BE
  8
SP
 10
-4599.8813227483943
 20
1334.9956548530949
 30
0.0
 11
-4509.8813227483961
 21
1334.9956548530949
 31
0.0
  0
INSERT
  5
54BF
  8
SP
  2
_OPEN
 10
-4624.8813227483943
 20
1334.9956548530949
 30
0.0
 41
25.0
 42
25.0
 43
25.0
 50
180.0
  0
INSERT
  5
54C0
  8
SP
  2
_OPEN
 10
-4484.8813227483952
 20
1334.9956548530949
 30
0.0
 41
25.0
 42
25.0
 43
25.0
  0
TEXT
  5
54C1
  8
SP
 10
-4596.3886602788652
 20
1344.9956548530961
 30
0.0
 40
30.0
  1
140
 51
15.0
  0
POINT
  5
54C2
  8
DEFPOINTS
 62
     0
 10
-4624.8813227483943
 20
1235.3808196602311
 30
0.0
  0
POINT
  5
54C3
  8
DEFPOINTS
 62
     0
 10
-4484.8813227483952
 20
1235.380819660232
 30
0.0
  0
POINT
  5
54C4
  8
DEFPOINTS
 62
     0
 10
-4484.8813227483952
 20
1334.9956548530949
 30
0.0
  0
ENDBLK
  5
54A3
  8
0
  0
BLOCK
  8
0
  2
*D17
 70
     1
 10
0.0
 20
0.0
 30
0.0
  3
*D17
  1

  0
LINE
  5
54C5
  8
SP
 10
-4554.8813227483952
 20
1384.9956548530949
 30
0.0
 11
-4554.8813227483952
 21
1414.9956548530949
 31
0.0
  0
LINE
  5
54C6
  8
SP
 10
-4477.8813227483961
 20
1170.9956548530949
 30
0.0
 11
-4477.8813227483961
 21
1414.9956548530949
 31
0.0
  0
LINE
  5
54C7
  8
SP
 10
-4529.8813227483952
 20
1404.9956548530949
 30
0.0
 11
-4502.8813227483961
 21
1404.9956548530949
 31
0.0
  0
INSERT
  5
54C8
  8
SP
  2
_OPEN
 10
-4554.8813227483952
 20
1404.9956548530949
 30
0.0
 41
25.0
 42
25.0
 43
25.0
 50
180.0
  0
INSERT
  5
54C9
  8
SP
  2
_OPEN
 10
-4477.8813227483961
 20
1404.9956548530949
 30
0.0
 41
25.0
 42
25.0
 43
25.0
  0
TEXT
  5
54CA
  8
SP
 10
-4547.5434177777188
 20
1414.9956548530949
 30
0.0
 40
30.0
  1
77
 51
15.0
  0
POINT
  5
54CB
  8
DEFPOINTS
 62
     0
 10
-4554.8813227483952
 20
1374.9956548530949
 30
0.0
  0
POINT
  5
54CC
  8
DEFPOINTS
 62
     0
 10
-4477.8813227483961
 20
1160.995654853094
 30
0.0
  0
POINT
  5
54CD
  8
DEFPOINTS
 62
     0
 10
-4477.8813227483961
 20
1404.9956548530949
 30
0.0
  0
ENDBLK
  5
54B0
  8
0
  0
BLOCK
  8
0
  2
*D18
 70
     1
 10
0.0
 20
0.0
 30
0.0
  3
*D18
  1

  0
LINE
  5
54E4
  8
SP
 10
-4554.8813227483952
 20
1384.9956548530949
 30
0.0
 11
-4554.8813227483952
 21
1414.9956548530949
 31
0.0
  0
LINE
  5
54E5
  8
SP
 10
-4854.8813227483952
 20
1114.0342853677121
 30
0.0
 11
-4854.8813227483952
 21
1414.9956548530949
 31
0.0
  0
LINE
  5
54E6
  8
SP
 10
-4579.8813227483952
 20
1404.9956548530949
 30
0.0
 11
-4829.8813227483952
 21
1404.9956548530949
 31
0.0
  0
INSERT
  5
54E7
  8
SP
  2
_OPEN
 10
-4554.8813227483952
 20
1404.9956548530949
 30
0.0
 41
25.0
 42
25.0
 43
25.0
  0
INSERT
  5
54E8
  8
SP
  2
_OPEN
 10
-4854.8813227483952
 20
1404.9956548530949
 30
0.0
 41
25.0
 42
25.0
 43
25.0
 50
180.0
  0
TEXT
  5
54E9
  8
SP
 10
-4771.7910244887953
 20
1414.9956548530949
 30
0.0
 40
30.0
  1
（340）
 51
15.0
  0
POINT
  5
54EA
  8
DEFPOINTS
 62
     0
 10
-4554.8813227483952
 20
1374.9956548530949
 30
0.0
  0
POINT
  5
54EB
  8
DEFPOINTS
 62
     0
 10
-4854.8813227483952
 20
1104.0342853677121
 30
0.0
  0
POINT
  5
54EC
  8
DEFPOINTS
 62
     0
 10
-4854.8813227483952
 20
1404.9956548530949
 30
0.0
  0
ENDBLK
  5
54DA
  8
0
  0
BLOCK
  8
0
  2
*D19
 70
     1
 10
0.0
 20
0.0
 30
0.0
  3
*D19
  1

  0
LINE
  5
5505
  8
3
 10
-4467.8813227483961
 20
1143.9956548530949
 30
0.0
 11
-4376.5700477445307
 21
1143.9956548530949
 31
0.0
  0
LINE
  5
5506
  8
3
 10
-4467.8813227483961
 20
943.99565485309574
 30
0.0
 11
-4376.5700477445307
 21
943.99565485309574
 31
0.0
  0
LINE
  5
5507
  8
3
 10
-4386.5700477445307
 20
1118.9956548530949
 30
0.0
 11
-4386.5700477445307
 21
968.99565485309574
 31
0.0
  0
INSERT
  5
5508
  8
3
  2
_OPEN
 10
-4386.5700477445307
 20
1143.9956548530949
 30
0.0
 41
25.0
 42
25.0
 43
25.0
 50
90.0
  0
INSERT
  5
5509
  8
3
  2
_OPEN
 10
-4386.5700477445307
 20
943.99565485309574
 30
0.0
 41
25.0
 42
25.0
 43
25.0
 50
270.0
  0
INSERT
  5
550A
  8
SP
  2
*U20
 10
0.0
 20
0.0
 30
0.0
  0
POINT
  5
550B
  8
DEFPOINTS
 62
     0
 10
-4477.8813227483961
 20
1143.9956548530949
 30
0.0
  0
POINT
  5
550C
  8
DEFPOINTS
 62
     0
 10
-4477.8813227483961
 20
943.99565485309574
 30
0.0
  0
POINT
  5
550D
  8
DEFPOINTS
 62
     0
 10
-4386.5700477445307
 20
943.99565485309574
 30
0.0
  0
ENDBLK
  5
54FB
  8
0
  0
BLOCK
  8
0
  2
*U20
 70
     1
 10
0.0
 20
0.0
 30
0.0
  3
*U20
  1

  0
TEXT
  5
5ED2
  8
SP
 10
-4396.5700477445307
 20
981.17237207246285
 30
0.0
 40
30.0
  1
\U+2205
 50
90.0
 51
15.0
  0
TEXT
  5
5ED3
  8
SP
 10
-4396.5700477445307
 20
1008.31522921532
 30
0.0
 40
30.0
  1
200
 50
90.0
 51
15.0
  0
ENDBLK
  5
5ED5
  8
0
  0
ENDSEC
  0
SECTION
  2
ENTITIES
  0
LINE
  5
2161
  8
4
 10
-4005.8443017129498
 20
2950.0000009706891
 30
0.0
 11
-4005.8443017129498
 21
0.0000009706889159
 31
0.0
  0
LINE
  5
2162
  8
4
 10
-6105.8443017129503
 20
0.0000009706889159
 30
0.0
 11
-6105.8443017129503
 21
2950.0000009706891
 31
0.0
  0
LINE
  5
216B
  8
4
 10
-4005.8443017129498
 20
0.0000009706889159
 30
0.0
 11
-6105.8443017129503
 21
0.0000009706889159
 31
0.0
  0
LINE
  5
216C
  8
4
 10
-5655.8443017129503
 20
426.55314220080862
 30
0.0
 11
-4455.8443017129503
 21
426.55314220080862
 31
0.0
  0
TEXT
  5
216E
  8
4
 10
-5119.1898061274696
 20
243.712726480752
 30
0.0
 40
50.0
  1
MF＃1 1/4- 7
  0
TEXT
  5
216F
  8
4
 10
-5128.1655562252863
 20
349.12491115837719
 30
0.0
 40
50.0
  1
ミツヤ多翼送風機
  0
LINE
  5
2170
  8
4
 10
-5655.8443017129503
 20
326.55314220080862
 30
0.0
 11
-4455.8443017129503
 21
326.55314220080862
 31
0.0
  0
LINE
  5
2171
  8
4
 10
-5655.8443017129503
 20
226.55314220080859
 30
0.0
 11
-4455.8443017129503
 21
226.55314220080859
 31
0.0
  0
LINE
  5
217D
  8
2
 10
-4894.8813227483952
 20
1043.9956548530949
 30
0.0
 11
-4449.5544595365236
 21
1043.9956548530961
 31
0.0
  0
LINE
  5
217E
  8
4
 10
-5655.8443017129503
 20
426.55314220080862
 30
0.0
 11
-5655.8443017129503
 21
226.55314220080859
 31
0.0
  0
LINE
  5
217F
  8
4
 10
-5155.8443017129503
 20
426.55314220080862
 30
0.0
 11
-5155.8443017129503
 21
226.55314220080859
 31
0.0
  0
TEXT
  5
2180
  8
4
 10
-5619.5861956881527
 20
248.1982989328196
 30
0.0
 40
50.0
  1
機器型番
  0
LINE
  5
2184
  8
2
 10
-5499.4242060181859
 20
1269.808270722272
 30
0.0
 11
-5499.4242060181859
 21
770.74303402318037
 31
0.0
  0
ARC
  5
2185
  8
1
 10
-5513.4242060181859
 20
1057.9956548530949
 30
0.0
 40
154.0
 50
187.98365855593659
 51
218.2132107017413
  0
ARC
  5
2186
  8
1
 10
-5510.4242060181841
 20
1032.9956548530961
 30
0.0
 40
129.0
 50
284.32230433795291
 51
348.77020593145591
  0
ARC
  5
2187
  8
1
 10
-5513.4242060181859
 20
1057.9956548530949
 30
0.0
 40
165.0
 50
187.96090473736149
 51
222.83342806606601
  0
ARC
  5
2188
  8
1
 10
-5510.4242060181841
 20
1032.9956548530961
 30
0.0
 40
140.0
 50
270.0
 51
348.4416198443742
  0
CIRCLE
  5
2189
  8
CT
 10
-5499.424206018185
 20
1043.9956548530961
 30
0.0
 40
110.0
  0
LINE
  5
218A
  8
1
 10
-5364.4242060181859
 20
1097.6956548530959
 30
0.0
 11
-5364.4242060181859
 21
803.99565485309552
 31
0.0
  0
LINE
  5
218B
  8
1
 10
-5634.4242060181841
 20
1097.6956548530959
 30
0.0
 11
-5634.4242060181841
 21
803.99565485309552
 31
0.0
  0
LINE
  5
218C
  8
1
 10
-5632.8242060181847
 20
1099.0377725001549
 30
0.0
 11
-5632.8242060181847
 21
969.39565485309606
 31
0.0
  0
LINE
  5
218D
  8
1
 10
-5366.0242060181854
 20
1099.0377725001549
 30
0.0
 11
-5366.0242060181854
 21
971.99565485309597
 31
0.0
  0
CIRCLE
  5
218E
  8
1
 10
-5499.4242060181859
 20
1043.9956548530961
 30
0.0
 40
60.038630514616607
  0
CIRCLE
  5
218F
  8
1
 10
-5499.4242060181859
 20
1043.9956548530961
 30
0.0
 40
69.388168961305382
  0
ARC
  5
2190
  8
1
 10
-5499.4242060181859
 20
1043.9956548530961
 30
0.0
 40
75.0
 50
292.3051532135043
 51
247.69484678649559
  0
TEXT
  5
2198
  8
4
 10
-5617.3422208660486
 20
358.0961680674215
 30
0.0
 40
50.0
  1
機器名称
  0
LINE
  5
219F
  8
1
 10
-5664.424206018185
 20
803.99565485309552
 30
0.0
 11
-5334.4242060181841
 21
803.99565485309608
 31
0.0
  0
LINE
  5
21A0
  8
1
 10
-5630.2242060181852
 20
971.99565485309597
 30
0.0
 11
-5368.6242060181858
 21
971.99565485309597
 31
0.0
  0
LINE
  5
21A1
  8
1
 10
-5549.4242060181859
 20
953.59565485309588
 30
0.0
 11
-5591.4242060181859
 21
971.99565485309597
 31
0.0
  0
LINE
  5
21A2
  8
1
 10
-5587.772032105142
 20
970.39565485309572
 30
0.0
 11
-5411.0763799312299
 21
970.39565485309572
 31
0.0
  0
LINE
  5
21A3
  8
1
 10
-5569.4242060181869
 20
972.99565485309597
 30
0.0
 11
-5551.9548575321915
 21
990.46500333908966
 31
0.0
  0
LINE
  5
21A4
  8
1
 10
-5539.424206018185
 20
972.99565485309597
 30
0.0
 11
-5569.4242060181869
 21
972.99565485309597
 31
0.0
  0
ARC
  5
21A5
  8
1
 10
-5513.4242060181859
 20
1057.9956548530949
 30
0.0
 40
154.0
 50
218.2132107017413
 51
283.10276203410228
  0
ARC
  5
21A6
  8
1
 10
-5513.4242060181859
 20
1057.9956548530949
 30
0.0
 40
165.0
 50
222.83342806606601
 51
270.0
  0
LINE
  5
21A8
  8
1
 10
-5632.8242060181847
 20
876.6956548530959
 30
0.0
 11
-5632.8242060181847
 21
806.59565485309588
 31
0.0
  0
LINE
  5
21AA
  8
1
 10
-5664.424206018185
 20
805.59565485309588
 30
0.0
 11
-5635.4242060181859
 21
805.59565485309588
 31
0.0
  0
LINE
  5
21AB
  8
1
 10
-5664.424206018185
 20
805.59565485309588
 30
0.0
 11
-5664.424206018185
 21
803.99565485309608
 31
0.0
  0
LINE
  5
21AC
  8
2
 10
-5649.424206018185
 20
815.9768237714045
 30
0.0
 11
-5649.424206018185
 21
788.72405178850624
 31
0.0
  0
ARC
  5
21AD
  8
1
 10
-5635.4242060181859
 20
806.59565485309588
 30
0.0
 40
1.0
 50
270.0
 51
0.0
  0
ARC
  5
21AE
  8
1
 10
-5635.4242060181859
 20
806.59565485309588
 30
0.0
 40
2.6000000000000001
 50
270.0
 51
0.0
  0
LINE
  5
21AF
  8
1
 10
-5631.2242060181852
 20
969.39565485309572
 30
0.0
 11
-5631.2242060181852
 21
876.6956548530959
 31
0.0
  0
LINE
  5
21B0
  8
1
 10
-5632.8242060181847
 20
969.39565485309606
 30
0.0
 11
-5632.8242060181847
 21
876.6956548530959
 31
0.0
  0
LINE
  5
21B1
  8
1
 10
-5632.8242060181847
 20
876.6956548530959
 30
0.0
 11
-5631.2242060181852
 21
876.6956548530959
 31
0.0
  0
LINE
  5
21B2
  8
1
 10
-5630.2242060181852
 20
970.39565485309572
 30
0.0
 11
-5587.772032105142
 21
970.39565485309572
 31
0.0
  0
ARC
  5
21B3
  8
1
 10
-5630.2242060181852
 20
969.39565485309572
 30
0.0
 40
1.0
 50
90.0
 51
180.0
  0
ARC
  5
21B4
  8
1
 10
-5630.2242060181852
 20
969.39565485309606
 30
0.0
 40
2.6000000000000001
 50
90.0
 51
180.0
  0
LINE
  5
21B5
  8
1
 10
-5569.4242060181869
 20
972.99565485309597
 30
0.0
 11
-5569.424206018185
 21
971.99565485309597
 31
0.0
  0
LINE
  5
21B7
  8
1
 10
-5366.0242060181863
 20
876.6956548530959
 30
0.0
 11
-5366.0242060181863
 21
806.59565485309588
 31
0.0
  0
LINE
  5
21B8
  8
1
 10
-5363.4242060181859
 20
805.59565485309588
 30
0.0
 11
-5334.4242060181841
 21
805.59565485309588
 31
0.0
  0
ARC
  5
21B9
  8
1
 10
-5363.4242060181859
 20
806.59565485309588
 30
0.0
 40
2.6000000000000001
 50
180.0
 51
270.0
  0
ARC
  5
21BA
  8
1
 10
-5363.4242060181859
 20
806.59565485309588
 30
0.0
 40
1.0
 50
180.0
 51
270.0
  0
LINE
  5
21BB
  8
2
 10
-5349.4242060181841
 20
815.9768237714045
 30
0.0
 11
-5349.4242060181859
 21
787.9257147797058
 31
0.0
  0
LINE
  5
21BD
  8
1
 10
-5334.424206018185
 20
805.59565485309588
 30
0.0
 11
-5334.4242060181841
 21
803.99565485309608
 31
0.0
  0
LINE
  5
21BE
  8
1
 10
-5449.4242060181859
 20
953.59565485309588
 30
0.0
 11
-5407.4242060181859
 21
971.99565485309597
 31
0.0
  0
LINE
  5
21BF
  8
1
 10
-5510.4242060181841
 20
892.99565485309608
 30
0.0
 11
-5513.4242060181859
 21
892.99565485309608
 31
0.0
  0
LINE
  5
21C0
  8
1
 10
-5549.4242060181859
 20
953.59565485309588
 30
0.0
 11
-5449.4242060181859
 21
953.59565485309588
 31
0.0
  0
LINE
  5
21C1
  8
1
 10
-5470.9587531288089
 20
974.6074858917907
 30
0.0
 11
-5527.889658907563
 21
974.6074858917907
 31
0.0
  0
LINE
  5
21C2
  8
CT
 10
-5538.5465670026988
 20
949.54592037222687
 30
0.0
 11
-5544.553839322778
 21
935.04308206422388
 31
0.0
  0
CIRCLE
  5
21C3
  8
1
 10
-5541.5193835783448
 20
942.36890627685557
 30
0.0
 40
4.0
  0
LINE
  5
21C4
  8
1
 10
-5539.424206018185
 20
972.99565485309597
 30
0.0
 11
-5531.2453457626652
 21
976.08089161738803
 31
0.0
  0
LINE
  5
21C5
  8
1
 10
-5555.4242060181859
 20
963.99565485309597
 30
0.0
 11
-5555.4242060181859
 21
981.92271906741939
 31
0.0
  0
LINE
  5
21C6
  8
1
 10
-5539.424206018185
 20
972.99565485309597
 30
0.0
 11
-5539.424206018185
 21
971.99565485309597
 31
0.0
  0
LINE
  5
21C7
  8
CT
 10
-5460.3018450336713
 20
949.54592037222642
 30
0.0
 11
-5454.2945727135921
 21
935.04308206422343
 31
0.0
  0
CIRCLE
  5
21C8
  8
1
 10
-5457.3290284580253
 20
942.36890627685409
 30
0.0
 40
4.0
  0
LINE
  5
21C9
  8
1
 10
-5459.4242060181859
 20
972.99565485309597
 30
0.0
 11
-5429.4242060181859
 21
972.99565485309597
 31
0.0
  0
LINE
  5
21CA
  8
1
 10
-5443.424206018185
 20
963.99565485309597
 30
0.0
 11
-5443.424206018185
 21
981.92271906741939
 31
0.0
  0
LINE
  5
21CB
  8
1
 10
-5429.4242060181859
 20
972.99565485309597
 30
0.0
 11
-5446.8935545041777
 21
990.46500333908966
 31
0.0
  0
LINE
  5
21CC
  8
1
 10
-5459.4242060181859
 20
972.99565485309597
 30
0.0
 11
-5467.6030662737048
 21
976.08089161738803
 31
0.0
  0
LINE
  5
21CD
  8
1
 10
-5459.4242060181859
 20
972.99565485309597
 30
0.0
 11
-5459.4242060181859
 21
971.99565485309597
 31
0.0
  0
LINE
  5
21CE
  8
1
 10
-5429.4242060181859
 20
972.99565485309597
 30
0.0
 11
-5429.424206018185
 21
971.99565485309597
 31
0.0
  0
LINE
  5
21CF
  8
1
 10
-5367.6242060181867
 20
969.39565485309572
 30
0.0
 11
-5367.6242060181849
 21
876.6956548530959
 31
0.0
  0
LINE
  5
21D0
  8
1
 10
-5366.0242060181863
 20
969.39565485309606
 30
0.0
 11
-5366.0242060181863
 21
876.6956548530959
 31
0.0
  0
LINE
  5
21D1
  8
1
 10
-5367.6242060181849
 20
876.6956548530959
 30
0.0
 11
-5366.0242060181863
 21
876.6956548530959
 31
0.0
  0
ARC
  5
21D2
  8
1
 10
-5368.6242060181858
 20
969.39565485309606
 30
0.0
 40
2.6000000000000001
 50
0.0
 51
90.0
  0
ARC
  5
21D3
  8
1
 10
-5368.6242060181867
 20
969.39565485309572
 30
0.0
 40
1.0
 50
0.0
 51
90.0
  0
LINE
  5
21D4
  8
1
 10
-5411.0763799312299
 20
970.39565485309572
 30
0.0
 11
-5368.6242060181867
 21
970.39565485309572
 31
0.0
  0
LINE
  5
2207
  8
2
 10
-5695.0312376973761
 20
1043.9956548530961
 30
0.0
 11
-5323.7585770124979
 21
1043.9956548530961
 31
0.0
  0
ARC
  5
2208
  8
1
 10
-5483.424206018185
 20
1059.9956548530961
 30
0.0
 40
184.0
 50
90.0
 51
187.3029112824062
  0
ARC
  5
2209
  8
1
 10
-5483.424206018185
 20
1059.9956548530961
 30
0.0
 40
195.0
 50
90.0
 51
187.32205959044731
  0
LINE
  5
220A
  8
1
 10
-5549.4242060181859
 20
1168.9956548530961
 30
0.0
 11
-5634.4242060181859
 21
1097.695654853095
 31
0.0
  0
LINE
  5
220B
  8
CT
 10
-5593.8739404990538
 20
1004.873293868582
 30
0.0
 11
-5608.3767788070581
 21
998.86602154850345
 31
0.0
  0
CIRCLE
  5
220C
  8
1
 10
-5601.0509545944269
 20
1001.900477292936
 30
0.0
 40
4.0
  0
LINE
  5
220D
  8
CT
 10
-5593.8739404990538
 20
1083.1180158376101
 30
0.0
 11
-5608.3767788070581
 21
1089.1252881576891
 31
0.0
  0
CIRCLE
  5
220E
  8
1
 10
-5601.050954594426
 20
1086.0908324132561
 30
0.0
 40
4.0
  0
LINE
  5
220F
  8
1
 10
-5339.424206018185
 20
1264.9956548530961
 30
0.0
 11
-5339.424206018185
 21
1022.995654853096
 31
0.0
  0
LINE
  5
2210
  8
1
 10
-5341.0242060181836
 20
1264.9956548530961
 30
0.0
 11
-5341.0242060181836
 21
1022.995654853096
 31
0.0
  0
LINE
  5
2211
  8
1
 10
-5354.4242060181841
 20
1232.195654853097
 30
0.0
 11
-5354.424206018185
 21
1055.795654853096
 31
0.0
  0
LINE
  5
2212
  8
1
 10
-5449.4242060181859
 20
1168.9956548530961
 30
0.0
 11
-5364.4242060181859
 21
1097.695654853095
 31
0.0
  0
CIRCLE
  5
2215
  8
1
 10
-5541.5193835783448
 20
1145.622403429338
 30
0.0
 40
4.0
  0
LINE
  5
2216
  8
CT
 10
-5538.5465670026988
 20
1138.4453893339651
 30
0.0
 11
-5544.553839322778
 21
1152.9482276419681
 31
0.0
  0
LINE
  5
2217
  8
CT
 10
-5460.3018450336713
 20
1138.4453893339651
 30
0.0
 11
-5454.2945727135921
 21
1152.9482276419681
 31
0.0
  0
CIRCLE
  5
2218
  8
1
 10
-5457.3290284580253
 20
1145.622403429338
 30
0.0
 40
4.0
  0
ARC
  5
2219
  8
1
 10
-5306.4242060181841
 20
980.99565485309597
 30
0.0
 40
82.0
 50
132.59881289245331
 51
160.8659075255641
  0
ARC
  5
221A
  8
1
 10
-5306.4242060181841
 20
980.99565485309597
 30
0.0
 40
71.0
 50
132.53623473352661
 51
144.77580501938399
  0
LINE
  5
221B
  8
1
 10
-5354.424206018185
 20
1043.9956548530961
 30
0.0
 11
-5354.424206018185
 21
1033.312000291209
 31
0.0
  0
LINE
  5
221C
  8
1
 10
-5354.424206018185
 20
1043.9956548530961
 30
0.0
 11
-5355.1581777422307
 21
1043.9956548530961
 31
0.0
  0
ARC
  5
221D
  8
1
 10
-5355.1581777422307
 20
1033.9956548530961
 30
0.0
 40
10.0
 50
90.0
 51
132.59881289245331
  0
LINE
  5
221E
  8
1
 10
-5354.424206018185
 20
1043.9956548530961
 30
0.0
 11
-5341.0242060181836
 21
1043.9956548530961
 31
0.0
  0
LINE
  5
221F
  8
CT
 10
-5404.9744715373154
 20
1004.873293868581
 30
0.0
 11
-5390.4716332293119
 21
998.86602154850345
 31
0.0
  0
CIRCLE
  5
2220
  8
1
 10
-5397.7974574419441
 20
1001.900477292937
 30
0.0
 40
4.0
  0
LINE
  5
2221
  8
1
 10
-5341.0242060181836
 20
1022.995654853096
 30
0.0
 11
-5339.424206018185
 21
1022.995654853096
 31
0.0
  0
LINE
  5
2222
  8
1
 10
-5342.6242060181849
 20
1043.9956548530949
 30
0.0
 11
-5354.4242060181841
 21
1055.7956548530949
 31
0.0
  0
ARC
  5
2223
  8
1
 10
-5306.4242060181841
 20
980.99565485309597
 30
0.0
 40
71.0
 50
144.77580501938399
 51
160.2871812588827
  0
LINE
  5
2226
  8
CT
 10
-5404.9744715373154
 20
1083.1180158376089
 30
0.0
 11
-5390.4716332293119
 21
1089.1252881576879
 31
0.0
  0
CIRCLE
  5
2227
  8
1
 10
-5397.7974574419432
 20
1086.0908324132549
 30
0.0
 40
4.0
  0
LINE
  5
2228
  8
1
 10
-5483.424206018185
 20
1243.9956548530961
 30
0.0
 11
-5341.0242060181836
 21
1243.9956548530961
 31
0.0
  0
LINE
  5
2229
  8
1
 10
-5483.424206018185
 20
1254.9956548530961
 30
0.0
 11
-5354.424206018185
 21
1254.9956548530961
 31
0.0
  0
LINE
  5
222A
  8
1
 10
-5549.4242060181859
 20
1168.9956548530949
 30
0.0
 11
-5449.4242060181859
 21
1168.9956548530961
 31
0.0
  0
LINE
  5
222B
  8
1
 10
-5342.6242060181849
 20
1243.9956548530961
 30
0.0
 11
-5354.4242060181841
 21
1232.195654853097
 31
0.0
  0
LINE
  5
222C
  8
1
 10
-5354.424206018185
 20
1254.9956548530949
 30
0.0
 11
-5354.424206018185
 21
1243.9956548530961
 31
0.0
  0
LINE
  5
222D
  8
1
 10
-5341.0242060181836
 20
1264.9956548530961
 30
0.0
 11
-5339.424206018185
 21
1264.9956548530961
 31
0.0
  0
LINE
  5
223D
  8
4
 10
-4455.8443017129503
 20
426.55314220080862
 30
0.0
 11
-4455.8443017129503
 21
226.55314220080859
 31
0.0
  0
LINE
  5
223E
  8
2
 10
-4554.8813227483952
 20
1326.607219115881
 30
0.0
 11
-4554.8813227483952
 21
853.82143378090757
 31
0.0
  0
LINE
  5
22BA
  8
4
 10
-6105.8443017129503
 20
2950.0000009706891
 30
0.0
 11
-4005.8443017129498
 21
2950.0000009706891
 31
0.0
  0
LINE
  5
22BB
  8
4
 10
-4255.8443017129503
 20
2681.2635840960902
 30
0.0
 11
-4665.2268793530848
 21
2681.2635840960902
 31
0.0
  0
LINE
  5
22BC
  8
4
 10
-4665.2268793530848
 20
2786.6522625204411
 30
0.0
 11
-4255.8443017129503
 21
2786.6522625204411
 31
0.0
  0
LINE
  5
22BD
  8
4
 10
-5855.8443017129503
 20
2669.408755235494
 30
0.0
 11
-4255.8443017129503
 21
2669.408755235494
 31
0.0
  0
LINE
  5
22BE
  8
4
 10
-5855.8443017129503
 20
2469.408755235494
 30
0.0
 11
-4255.8443017129503
 21
2469.408755235494
 31
0.0
  0
TEXT
  5
22F7
  8
4
 10
-5603.0443017129501
 20
2533.408755235494
 30
0.0
 40
72.0
  1
遠心式片吸込片持多翼ファン
 72
     4
 11
-5055.8443017129512
 21
2569.408755235494
 31
0.0
  0
TEXT
  5
22F8
  8
4
 10
-5244.1167365931833
 20
2383.428842303204
 30
0.0
 40
53.999999999999993
  1
床置ベッド型
  0
LINE
  5
22F9
  8
4
 10
-5855.8443017129503
 20
2669.408755235494
 30
0.0
 11
-5855.8443017129503
 21
2469.408755235494
 31
0.0
  0
TEXT
  5
22FA
  8
4
 10
-5803.5741536906917
 20
2382.3194785170322
 30
0.0
 40
53.999999999999993
  1
右回転右横向
  0
LINE
  5
22FB
  8
4
 10
-4665.2268793530848
 20
2681.2635840960902
 30
0.0
 11
-4665.2268793530848
 21
2786.6522625204411
 31
0.0
  0
LINE
  5
22FC
  8
4
 10
-4255.8443017129503
 20
2669.408755235494
 30
0.0
 11
-4255.8443017129503
 21
2469.408755235494
 31
0.0
  0
TEXT
  5
22FD
  8
4
 10
-4651.9864137256436
 20
2383.428842303204
 30
0.0
 40
53.999999999999993
  1
縮尺：1/10
  0
TEXT
  5
22FE
  8
4
 10
-4636.8747424636604
 20
2706.061082465998
 30
0.0
 40
56.000000000000007
  1
No.
  0
LINE
  5
22FF
  8
4
 10
-4255.8443017129503
 20
2786.6522625204411
 30
0.0
 11
-4255.8443017129503
 21
2681.2635840960902
 31
0.0
  0
LINE
  5
2300
  8
4
 10
-4005.8443017129498
 20
2950.0000009706891
 30
0.0
 11
-4005.8443017129498
 21
2950.0000009706891
 31
0.0
  0
DIMENSION
  5
4AC9
  8
SP
  2
*D4
 10
-5334.4242060181841
 20
663.99565485309563
 30
0.0
 11
-5499.424206018185
 21
688.99565485309563
 31
0.0
 70
     0
 13
-5664.424206018185
 23
803.99565485309552
 33
0.0
 14
-5334.4242060181841
 24
803.99565485309608
 34
0.0
  0
DIMENSION
  5
4AD6
  8
SP
  2
*D5
 10
-5664.424206018185
 20
733.99565485309608
 30
0.0
 11
-5581.9242060181859
 21
758.99565485309608
 31
0.0
 70
     0
 13
-5499.4242060181859
 23
770.74303402318037
 33
0.0
 14
-5664.424206018185
 24
803.99565485309552
 34
0.0
  0
DIMENSION
  5
4AE3
  8
SP
  2
*D6
 10
-5334.4242060181841
 20
733.99565485309608
 30
0.0
 11
-5416.924206018185
 21
758.99565485309608
 31
0.0
 70
     0
 13
-5499.4242060181859
 23
770.74303402318037
 33
0.0
 14
-5334.4242060181841
 24
803.99565485309608
 34
0.0
  0
DIMENSION
  5
4AF2
  8
SP
  2
*D7
 10
-5269.424206018185
 20
1243.9956548530961
 30
0.0
 11
-5294.4242060181841
 21
1143.9956548530949
 31
0.0
 70
     0
 13
-5323.7585770124979
 23
1043.9956548530961
 33
0.0
 14
-5341.0242060181836
 24
1243.9956548530961
 34
0.0
 50
90.0
  0
DIMENSION
  5
4B11
  8
SP
  2
*D8
 10
-5269.424206018185
 20
803.99565485309608
 30
0.0
 11
-5294.4242060181841
 21
923.99565485309529
 31
0.0
 70
     0
 13
-5323.7585770124979
 23
1043.9956548530961
 33
0.0
 14
-5334.4242060181841
 24
803.99565485309608
 34
0.0
 50
90.0
  0
DIMENSION
  5
4B20
  8
SP
  2
*D9
 10
-5339.424206018185
 20
1324.9956548530961
 30
0.0
 11
-5419.4242060181859
 21
1349.9956548530961
 31
0.0
 70
     0
 13
-5499.4242060181859
 23
1269.808270722272
 33
0.0
 14
-5339.424206018185
 24
1264.9956548530961
 34
0.0
  0
DIMENSION
  5
4B36
  8
SP
  2
*D10
 10
-5667.4242060181859
 20
1324.9956548530961
 30
0.0
 11
-5583.4242060181859
 21
1349.9956548530961
 31
0.0
 70
     0
 13
-5499.4242060181859
 23
1269.808270722272
 33
0.0
 14
-5667.4242060181859
 24
1059.9956548530961
 34
0.0
  0
DIMENSION
  5
5198
  8
SP
  2
*D12
 10
-5773.1463294562827
 20
1955.8970137353699
 30
0.0
 11
-5798.1463294562827
 21
1917.397013735369
 31
0.0
 70
     0
 13
-5664.424206018185
 23
1878.8970137353699
 33
0.0
 14
-5689.2816311351016
 24
1955.8970137353699
 34
0.0
 50
90.0
  0
LINE
  5
5199
  8
2
 10
-5499.424206018185
 20
2051.4967459856598
 30
0.0
 11
-5499.424206018185
 21
1631.2226149740379
 31
0.0
  0
LINE
  5
519A
  8
FUTO
 10
-5668.4242060181841
 20
2015.8970137353699
 30
0.0
 11
-5668.424206018185
 21
1895.897013735369
 31
0.0
  0
LINE
  5
519B
  8
FUTO
 10
-5667.4242060181859
 20
2015.8970137353699
 30
0.0
 11
-5667.4242060181859
 21
1895.897013735369
 31
0.0
  0
LINE
  5
519C
  8
1
 10
-5341.0242060181827
 20
1864.8970137353699
 30
0.0
 11
-5341.0242060181827
 21
2046.8970137353699
 31
0.0
  0
LINE
  5
519D
  8
1
 10
-5339.4242060181841
 20
1864.8970137353699
 30
0.0
 11
-5339.4242060181841
 21
2046.8970137353699
 31
0.0
  0
LINE
  5
519E
  8
1
  6
CONTINUOUS
 10
-5357.3883523071981
 20
2011.897013735369
 30
0.0
 11
-5357.3883523071981
 21
1899.897013735369
 31
0.0
  0
DIMENSION
  5
519F
  8
SP
  2
*D13
 10
-5674.424206018185
 20
1580.0699239356941
 30
0.0
 11
-5504.424206018185
 21
1605.0699239356941
 31
0.0
 70
     0
 13
-5334.424206018185
 23
1708.897013735369
 33
0.0
 14
-5674.424206018185
 24
1708.897013735369
 34
0.0
 50
180.0
  0
LINE
  5
51A0
  8
FUTO
 10
-5634.4242060181841
 20
1878.8970137353699
 30
0.0
 11
-5634.4242060181841
 21
1702.997013735371
 31
0.0
  0
LINE
  5
51A1
  8
1
 10
-5574.4242060181859
 20
1690.8201047443411
 30
0.0
 11
-5574.4242060181859
 21
1717.7638879342351
 31
0.0
  0
LINE
  5
51A2
  8
1
 10
-5430.0360370568787
 20
1717.7638879342351
 30
0.0
 11
-5430.0360370568787
 21
1690.8201047443411
 31
0.0
  0
LINE
  5
51A3
  8
FUTO
 10
-5364.424206018185
 20
1878.8970137353699
 30
0.0
 11
-5364.424206018185
 21
1702.997013735371
 31
0.0
  0
LINE
  5
51A4
  8
1
 10
-5574.4242060181859
 20
1690.8201047443411
 30
0.0
 11
-5430.0360370568787
 21
1690.8201047443411
 31
0.0
  0
LINE
  5
51A5
  8
1
 10
-5559.4628365328017
 20
1655.8970137353699
 30
0.0
 11
-5439.3855755035684
 21
1655.8970137353699
 31
0.0
  0
LINE
  5
51A6
  8
FUTO
 10
-5364.424206018185
 20
1702.997013735371
 30
0.0
 11
-5430.0360370568787
 21
1702.997013735371
 31
0.0
  0
LINE
  5
51A7
  8
1
 10
-5439.3855755035684
 20
1655.8970137353699
 30
0.0
 11
-5432.9198829038942
 21
1690.8201047443411
 31
0.0
  0
POINT
  5
51A8
  8
1
 10
-5559.4628365328017
 20
1655.8970137353699
 30
0.0
  0
LINE
  5
51A9
  8
1
 10
-5559.4628365328017
 20
1655.8970137353699
 30
0.0
 11
-5570.7777985822313
 21
1690.8201047443411
 31
0.0
  0
LINE
  5
51AA
  8
FUTO
 10
-5634.4242060181841
 20
1702.997013735371
 30
0.0
 11
-5574.4242060181859
 21
1702.997013735371
 31
0.0
  0
LINE
  5
51AB
  8
FUTO
 10
-5364.424206018185
 20
1878.8970137353699
 30
0.0
 11
-5634.4242060181841
 21
1878.8970137353699
 31
0.0
  0
LINE
  5
51AC
  8
1
 10
-5562.6745775746376
 20
1848.3970137353699
 30
0.0
 11
-5436.1738344617297
 21
1848.3970137353699
 31
0.0
  0
LINE
  5
51AD
  8
2
 10
-5583.1315054167453
 20
1776.8970137353699
 30
0.0
 11
-5415.7169066196248
 21
1776.8970137353699
 31
0.0
  0
LINE
  5
51AE
  8
1
 10
-5574.4242060181859
 20
1717.7638879342351
 30
0.0
 11
-5430.0360370568787
 21
1717.7638879342351
 31
0.0
  0
LINE
  5
51AF
  8
1
  6
CONTINUOUS
 10
-5339.4242060181841
 20
1884.897013735369
 30
0.0
 11
-5657.4242060181841
 21
1884.897013735369
 31
0.0
  0
LINE
  5
51B0
  8
1
  6
CONTINUOUS
 10
-5339.4242060181841
 20
1885.8970137353699
 30
0.0
 11
-5657.424206018185
 21
1885.8970137353699
 31
0.0
  0
LINE
  5
51B1
  8
1
 10
-5436.1738344617297
 20
1717.7638879342351
 30
0.0
 11
-5436.1738344617297
 21
1848.3970137353699
 31
0.0
  0
LINE
  5
51B2
  8
FUTO
 10
-5334.424206018185
 20
1878.8970137353699
 30
0.0
 11
-5334.424206018185
 21
1708.897013735369
 31
0.0
  0
LINE
  5
51B3
  8
FUTO
 10
-5364.424206018185
 20
1708.897013735369
 30
0.0
 11
-5334.424206018185
 21
1708.897013735369
 31
0.0
  0
CIRCLE
  5
51B4
  8
FUTO
 10
-5347.424206018185
 20
1728.8970137353699
 30
0.0
 40
6.0
  0
LINE
  5
51B5
  8
CT
 10
-5357.318981866445
 20
1728.8970137353699
 30
0.0
 11
-5337.5294301699241
 21
1728.8970137353699
 31
0.0
  0
LINE
  5
51B6
  8
CT
 10
-5347.424206018185
 20
1738.7917895836299
 30
0.0
 11
-5347.424206018185
 21
1719.0022378871099
 31
0.0
  0
ARC
  5
51B7
  8
1
 10
-5382.424206018185
 20
1881.8970137353699
 30
0.0
 40
3.0
 50
270.0
 51
0.000000000000007
  0
LINE
  5
51B8
  8
FUTO
 10
-5519.4242060181841
 20
1878.8970137353699
 30
0.0
 11
-5519.4242060181841
 21
1866.897013735369
 31
0.0
  0
LINE
  5
51B9
  8
FUTO
 10
-5479.4242060181841
 20
1878.8970137353699
 30
0.0
 11
-5479.4242060181841
 21
1866.897013735369
 31
0.0
  0
LINE
  5
51BA
  8
1
  6
CONTINUOUS
 10
-5436.1738344617306
 20
1837.8970137353699
 30
0.0
 11
-5366.424206018185
 21
1837.8970137353699
 31
0.0
  0
LINE
  5
51BB
  8
CT
 10
-5347.424206018185
 20
1868.7917895836299
 30
0.0
 11
-5347.424206018185
 21
1849.0022378871099
 31
0.0
  0
LINE
  5
51BC
  8
CT
 10
-5357.318981866445
 20
1858.8970137353699
 30
0.0
 11
-5337.5294301699241
 21
1858.8970137353699
 31
0.0
  0
CIRCLE
  5
51BD
  8
FUTO
 10
-5347.424206018185
 20
1858.8970137353699
 30
0.0
 40
6.0
  0
LINE
  5
51BE
  8
2
 10
-5341.0242060181827
 20
1864.8970137353699
 30
0.0
 11
-5339.4242060181841
 21
1864.8970137353699
 31
0.0
  0
LINE
  5
51BF
  8
1
 10
-5510.8388261079281
 20
1848.3970137353699
 30
0.0
 11
-5510.8388261079281
 21
1853.397013735369
 31
0.0
  0
LINE
  5
51C0
  8
1
 10
-5508.424206018185
 20
1853.397013735369
 30
0.0
 11
-5508.424206018185
 21
1866.897013735369
 31
0.0
  0
LINE
  5
51C1
  8
1
 10
-5510.8388261079281
 20
1853.397013735369
 30
0.0
 11
-5488.0095859284402
 21
1853.397013735369
 31
0.0
  0
LINE
  5
51C2
  8
FUTO
 10
-5519.424206018185
 20
1866.897013735369
 30
0.0
 11
-5479.424206018185
 21
1866.8970137353699
 31
0.0
  0
LINE
  5
51C3
  8
1
 10
-5488.0095859284402
 20
1848.3970137353699
 30
0.0
 11
-5488.0095859284402
 21
1853.397013735369
 31
0.0
  0
LINE
  5
51C4
  8
1
 10
-5490.424206018185
 20
1853.397013735369
 30
0.0
 11
-5490.424206018185
 21
1866.897013735369
 31
0.0
  0
LINE
  5
51C5
  8
1
 10
-5379.424206018185
 20
1882.897013735369
 30
0.0
 11
-5379.424206018185
 21
1881.8970137353699
 31
0.0
  0
ARC
  5
51C6
  8
1
 10
-5376.4242060181841
 20
1882.897013735369
 30
0.0
 40
3.0
 50
138.18968510422181
 51
180.0
  0
LINE
  5
51C7
  8
FUTO
 10
-5364.424206018185
 20
1878.8970137353699
 30
0.0
 11
-5334.424206018185
 21
1878.8970137353699
 31
0.0
  0
LINE
  5
51C8
  8
1
  6
CONTINUOUS
 10
-5342.3883523071991
 20
1884.897013735369
 30
0.0
 11
-5357.3883523071981
 21
1899.897013735369
 31
0.0
  0
DIMENSION
  5
51C9
  8
SP
  2
*D11
 10
-5773.1463294562827
 20
1708.897013735369
 30
0.0
 11
-5798.1463294562827
 21
1793.8970137353681
 31
0.0
 70
     0
 13
-5664.424206018185
 23
1878.8970137353699
 33
0.0
 14
-5664.424206018185
 24
1708.897013735369
 34
0.0
 50
90.0
  0
LINE
  5
51CA
  8
FUTO
 10
-5664.424206018185
 20
1878.8970137353699
 30
0.0
 11
-5664.424206018185
 21
1708.897013735369
 31
0.0
  0
LINE
  5
51CB
  8
1
 10
-5562.6745775746376
 20
1717.7638879342351
 30
0.0
 11
-5562.6745775746376
 21
1848.3970137353699
 31
0.0
  0
LINE
  5
51CC
  8
FUTO
 10
-5634.4242060181841
 20
1708.897013735369
 30
0.0
 11
-5664.424206018185
 21
1708.897013735369
 31
0.0
  0
LINE
  5
51CD
  8
CT
 10
-5651.424206018185
 20
1738.7917895836299
 30
0.0
 11
-5651.424206018185
 21
1719.0022378871099
 31
0.0
  0
LINE
  5
51CE
  8
CT
 10
-5641.5294301699241
 20
1728.8970137353699
 30
0.0
 11
-5661.3189818664441
 21
1728.8970137353699
 31
0.0
  0
CIRCLE
  5
51CF
  8
FUTO
 10
-5651.424206018185
 20
1728.8970137353699
 30
0.0
 40
6.0
  0
ARC
  5
51D0
  8
1
 10
-5616.424206018185
 20
1881.8970137353699
 30
0.0
 40
3.0
 50
180.0
 51
270.0
  0
CIRCLE
  5
51D1
  8
FUTO
 10
-5651.424206018185
 20
1858.8970137353699
 30
0.0
 40
6.0
  0
LINE
  5
51D2
  8
CT
 10
-5641.5294301699241
 20
1858.8970137353699
 30
0.0
 11
-5661.3189818664441
 21
1858.8970137353699
 31
0.0
  0
LINE
  5
51D3
  8
CT
 10
-5651.424206018185
 20
1868.7917895836299
 30
0.0
 11
-5651.424206018185
 21
1849.0022378871099
 31
0.0
  0
LINE
  5
51D4
  8
1
  6
CONTINUOUS
 10
-5634.4242060181841
 20
1837.897013735369
 30
0.0
 11
-5562.6745775746376
 21
1837.8970137353699
 31
0.0
  0
LINE
  5
51D5
  8
FUTO
 10
-5634.4242060181841
 20
1878.8970137353699
 30
0.0
 11
-5664.424206018185
 21
1878.8970137353699
 31
0.0
  0
ARC
  5
51D6
  8
1
 10
-5622.424206018185
 20
1882.897013735369
 30
0.0
 40
3.0
 50
0.000000000000007
 51
41.810314895778113
  0
LINE
  5
51D7
  8
1
 10
-5619.424206018185
 20
1882.897013735369
 30
0.0
 11
-5619.424206018185
 21
1881.8970137353699
 31
0.0
  0
ARC
  5
51D8
  8
FUTO
 10
-5657.424206018185
 20
1895.897013735369
 30
0.0
 40
10.0
 50
180.0
 51
270.0
  0
ARC
  5
51D9
  8
FUTO
 10
-5657.4242060181841
 20
1895.897013735369
 30
0.0
 40
11.0
 50
180.0
 51
270.0
  0
LINE
  5
51DA
  8
2
 10
-5689.2816311351016
 20
1955.8970137353699
 30
0.0
 11
-5312.1235651406441
 21
1955.8970137353699
 31
0.0
  0
LINE
  5
51DB
  8
FUTO
 10
-5382.424206018185
 20
2032.897013735369
 30
0.0
 11
-5616.424206018185
 21
2032.897013735369
 31
0.0
  0
LINE
  5
51DC
  8
1
  6
CONTINUOUS
 10
-5341.0242060181827
 20
2026.8970137353699
 30
0.0
 11
-5657.4242060181841
 21
2026.8970137353699
 31
0.0
  0
LINE
  5
51DD
  8
1
  6
CONTINUOUS
 10
-5341.0242060181827
 20
2025.8970137353699
 30
0.0
 11
-5657.424206018185
 21
2025.8970137353699
 31
0.0
  0
ARC
  5
51DE
  8
1
 10
-5376.4242060181841
 20
2028.8970137353699
 30
0.0
 40
3.0
 50
180.0
 51
221.81031489577811
  0
LINE
  5
51DF
  8
1
 10
-5379.424206018185
 20
2028.8970137353699
 30
0.0
 11
-5379.424206018185
 21
2029.897013735369
 31
0.0
  0
ARC
  5
51E0
  8
1
 10
-5382.424206018185
 20
2029.897013735369
 30
0.0
 40
3.0
 50
0.000000000000007
 51
89.999999999999986
  0
LINE
  5
51E1
  8
2
 10
-5341.0242060181827
 20
2046.8970137353699
 30
0.0
 11
-5339.4242060181841
 21
2046.897013735371
 31
0.0
  0
LINE
  5
51E2
  8
1
  6
CONTINUOUS
 10
-5342.3883523071991
 20
2026.8970137353699
 30
0.0
 11
-5357.3883523071981
 21
2011.897013735369
 31
0.0
  0
LINE
  5
51E3
  8
1
 10
-5619.424206018185
 20
2028.8970137353699
 30
0.0
 11
-5619.424206018185
 21
2029.897013735369
 31
0.0
  0
ARC
  5
51E4
  8
1
 10
-5622.424206018185
 20
2028.8970137353699
 30
0.0
 40
3.0
 50
318.18968510422178
 51
0.000000000000007
  0
ARC
  5
51E5
  8
1
 10
-5616.424206018185
 20
2029.897013735369
 30
0.0
 40
3.0
 50
89.999999999999986
 51
180.0
  0
ARC
  5
51E6
  8
FUTO
 10
-5657.4242060181841
 20
2015.8970137353699
 30
0.0
 40
11.0
 50
90.0
 51
180.0
  0
ARC
  5
51E7
  8
FUTO
 10
-5657.424206018185
 20
2015.8970137353699
 30
0.0
 40
10.0
 50
90.0
 51
180.0
  0
LINE
  5
5245
  8
FUTO
 10
-4494.8813227483952
 20
902.99565485309586
 30
0.0
 11
-4614.8813227483952
 21
902.99565485309586
 31
0.0
  0
LINE
  5
5246
  8
FUTO
 10
-4494.8813227483952
 20
903.99565485309586
 30
0.0
 11
-4614.8813227483952
 21
903.99565485309586
 31
0.0
  0
LINE
  5
5247
  8
HOSO
 10
-4621.4879244661934
 20
1240.602256570894
 30
0.0
 11
-4488.274721030597
 21
1047.389053135297
 31
0.0
  0
LINE
  5
5248
  8
HOSO
 10
-4488.274721030597
 20
1240.602256570894
 30
0.0
 11
-4621.4879244661934
 21
1047.389053135297
 31
0.0
  0
LINE
  5
5249
  8
FUTO
 10
-4498.8813227483952
 20
1042.9956548530949
 30
0.0
 11
-4610.8813227483952
 21
1042.9956548530949
 31
0.0
  0
LINE
  5
524A
  8
FUTO
 10
-4610.8813227483952
 20
1244.9956548530961
 30
0.0
 11
-4498.8813227483952
 21
1244.9956548530961
 31
0.0
  0
LINE
  5
524B
  8
FUTO
 10
-4620.8813227483943
 20
1022.9956548530949
 30
0.0
 11
-4488.8813227483952
 21
1022.9956548530949
 31
0.0
  0
LINE
  5
524C
  8
FUTO
 10
-4488.8813227483952
 20
1264.9956548530961
 30
0.0
 11
-4620.8813227483943
 21
1264.9956548530961
 31
0.0
  0
LINE
  5
5269
  8
FUTO
 10
-4625.8813227483952
 20
1229.9956548530949
 30
0.0
 11
-4625.8813227483952
 21
1057.9956548530949
 31
0.0
  0
LINE
  5
526A
  8
FUTO
 10
-4645.8813227483952
 20
1239.9956548530949
 30
0.0
 11
-4645.8813227483952
 21
1047.9956548530949
 31
0.0
  0
ARC
  5
526C
  8
FUTO
 10
-4628.8813227483943
 20
1160.995654853094
 30
0.0
 40
3.0
 50
89.999999999999986
 51
180.0
  0
ARC
  5
526D
  8
FUTO
 10
-4620.8813227483943
 20
1239.995654853094
 30
0.0
 40
25.0
 50
90.000000000001037
 51
179.9999999999979
  0
POINT
  5
5271
  8
FUTO
 10
-4631.8813227483952
 20
1160.995654853094
 30
0.0
  0
LINE
  5
5272
  8
FUTO
 10
-4627.8813227483952
 20
1163.9956548530949
 30
0.0
 11
-4628.8813227483943
 21
1163.995654853094
 31
0.0
  0
ARC
  5
5273
  8
FUTO
 10
-4627.8813227483952
 20
1166.9956548530949
 30
0.0
 40
3.0
 50
270.0
 51
311.81031489577953
  0
ARC
  5
5275
  8
FUTO
 10
-4610.8813227483952
 20
1229.9956548530949
 30
0.0
 40
15.0
 50
90.000000000000881
 51
179.99999999999821
  0
ARC
  5
5276
  8
1
 10
-4628.8813227483943
 20
926.99565485309472
 30
0.0
 40
3.0
 50
180.0
 51
270.0
  0
ARC
  5
5279
  8
FUTO
 10
-4620.8813227483943
 20
1047.9956548530949
 30
0.0
 40
25.0
 50
180.00000000000091
 51
269.99999999999892
  0
LINE
  5
5285
  8
1
  6
CONTINUOUS
 10
-4624.8813227483952
 20
1023.31772949459
 30
0.0
 11
-4624.8813227483952
 21
913.99565485309586
 31
0.0
  0
LINE
  5
5286
  8
1
  6
CONTINUOUS
 10
-4625.8813227483952
 20
1023.5007574252641
 30
0.0
 11
-4625.8813227483952
 21
913.99565485309586
 31
0.0
  0
ARC
  5
5287
  8
FUTO
 10
-4610.8813227483952
 20
1057.9956548530949
 30
0.0
 40
15.0
 50
179.99999999999821
 51
269.99999999999909
  0
LINE
  5
5288
  8
1
 10
-4627.8813227483952
 20
923.99565485309574
 30
0.0
 11
-4628.8813227483943
 21
923.99565485309574
 31
0.0
  0
ARC
  5
5289
  8
1
 10
-4627.8813227483952
 20
920.99565485309461
 30
0.0
 40
3.0
 50
48.18968510422188
 51
89.999999999999986
  0
ARC
  5
528B
  8
FUTO
 10
-4614.8813227483952
 20
913.99565485309574
 30
0.0
 40
11.0
 50
180.0
 51
270.0
  0
ARC
  5
528C
  8
FUTO
 10
-4614.8813227483952
 20
913.99565485309574
 30
0.0
 40
10.0
 50
180.0
 51
270.0
  0
ARC
  5
528D
  8
FUTO
 10
-4488.8813227483952
 20
1047.9956548530949
 30
0.0
 40
25.0
 50
270.0
 51
0.0
  0
ARC
  5
528E
  8
FUTO
 10
-4488.8813227483952
 20
1239.9956548530949
 30
0.0
 40
25.0
 50
0.0000000000010305
 51
90.000000000000483
  0
LINE
  5
528F
  8
1
 10
-4477.8813227483961
 20
1160.995654853094
 30
0.0
 11
-4477.881322748397
 21
926.99565485309574
 31
0.0
  0
LINE
  5
5290
  8
FUTO
 10
-4483.8813227483952
 20
1229.9956548530949
 30
0.0
 11
-4483.8813227483952
 21
1057.9956548530949
 31
0.0
  0
LINE
  5
5291
  8
FUTO
 10
-4463.8813227483943
 20
1239.9956548530949
 30
0.0
 11
-4463.8813227483943
 21
1047.9956548530949
 31
0.0
  0
ARC
  5
5293
  8
1
 10
-4481.8813227483952
 20
1166.9956548530949
 30
0.0
 40
3.0
 50
228.18968510422039
 51
270.0
  0
LINE
  5
5294
  8
1
 10
-4481.8813227483952
 20
1163.9956548530949
 30
0.0
 11
-4480.8813227483961
 21
1163.995654853094
 31
0.0
  0
ARC
  5
5295
  8
1
 10
-4480.8813227483961
 20
1160.995654853094
 30
0.0
 40
3.0
 50
0.0
 51
89.999999999999986
  0
POINT
  5
5296
  8
1
 10
-4477.8813227483961
 20
1160.995654853094
 30
0.0
  0
ARC
  5
5297
  8
FUTO
 10
-4498.8813227483952
 20
1229.9956548530949
 30
0.0
 40
15.0
 50
0.0
 51
90.000000000000881
  0
LINE
  5
5298
  8
1
  6
CONTINUOUS
 10
-4483.8813227483952
 20
913.99565485309586
 30
0.0
 11
-4483.8813227483952
 21
1023.500757425263
 31
0.0
  0
LINE
  5
5299
  8
1
  6
CONTINUOUS
 10
-4484.8813227483952
 20
913.99565485309586
 30
0.0
 11
-4484.8813227483952
 21
1023.317729494589
 31
0.0
  0
ARC
  5
529A
  8
FUTO
 10
-4498.8813227483952
 20
1057.9956548530949
 30
0.0
 40
15.0
 50
269.99999999999909
 51
0.0000000000017302
  0
ARC
  5
529B
  8
1
 10
-4481.8813227483952
 20
920.99565485309461
 30
0.0
 40
3.0
 50
89.999999999999986
 51
131.81031489577811
  0
LINE
  5
529C
  8
1
 10
-4481.8813227483952
 20
923.99565485309574
 30
0.0
 11
-4480.881322748397
 21
923.99565485309574
 31
0.0
  0
ARC
  5
529D
  8
1
 10
-4480.8813227483961
 20
926.99565485309472
 30
0.0
 40
3.0
 50
270.0
 51
0.0
  0
ARC
  5
529E
  8
FUTO
 10
-4494.8813227483952
 20
913.99565485309574
 30
0.0
 40
11.0
 50
270.0
 51
0.0000000000000509
  0
ARC
  5
529F
  8
FUTO
 10
-4494.8813227483952
 20
913.99565485309574
 30
0.0
 40
10.0
 50
270.0
 51
0.0000000000000509
  0
LINE
  5
5342
  8
1
 10
-4633.4813227483928
 20
805.59565485309554
 30
0.0
 11
-4801.8813227483934
 21
805.59565485309565
 31
0.0
  0
DIMENSION
  5
5343
  8
SP
  2
*D14
 10
-4801.8813227483934
 20
733.99565485309574
 30
0.0
 11
-4716.8813227483943
 21
758.99565485309574
 31
0.0
 70
     0
 13
-4631.8813227483943
 23
804.19565485301018
 33
0.0
 14
-4801.8813227483934
 24
803.99565485309586
 34
0.0
  0
LINE
  5
5344
  8
1
 10
-4601.8813227483943
 20
803.99565485309586
 30
0.0
 11
-4801.8813227483934
 21
803.99565485309586
 31
0.0
  0
LINE
  5
5345
  8
1
 10
-4801.8813227483934
 20
805.59565485309565
 30
0.0
 11
-4801.8813227483934
 21
803.99565485309586
 31
0.0
  0
LINE
  5
5346
  8
2
 10
-4781.8813227483952
 20
817.92348425303499
 30
0.0
 11
-4781.8813227483961
 21
792.85929552019297
 31
0.0
  0
LINE
  5
5347
  8
1
 10
-4601.8813227483943
 20
805.59565485309565
 30
0.0
 11
-4631.8813227483943
 21
805.59565485309565
 31
0.0
  0
LINE
  5
5348
  8
1
 10
-4601.8813227483943
 20
805.59565485309565
 30
0.0
 11
-4630.2813227483939
 21
805.59565485309565
 31
0.0
  0
LINE
  5
5349
  8
2
 10
-4651.8813227483952
 20
817.92348425303499
 30
0.0
 11
-4651.8813227483952
 21
792.85929552019297
 31
0.0
  0
LINE
  5
534A
  8
1
 10
-4601.8813227483943
 20
805.59565485309565
 30
0.0
 11
-4601.8813227483943
 21
803.99565485309586
 31
0.0
  0
LINE
  5
534B
  8
1
 10
-4633.4813227483937
 20
1168.9956548530949
 30
0.0
 11
-4633.4813227483928
 21
803.99565485309586
 31
0.0
  0
LINE
  5
534C
  8
1
 10
-4631.8813227483943
 20
1168.9956548530949
 30
0.0
 11
-4631.8813227483943
 21
803.99565485309574
 31
0.0
  0
LINE
  5
534D
  8
1
 10
-4675.1813227483926
 20
1063.9956548530949
 30
0.0
 11
-4801.8813227483934
 21
805.59565485309565
 31
0.0
  0
LINE
  5
534E
  8
2
 10
-4733.8813227483952
 20
1132.286808899627
 30
0.0
 11
-4733.8813227483952
 21
964.87221010250732
 31
0.0
  0
LINE
  5
534F
  8
1
 10
-4819.9582317394234
 20
1118.9956548530949
 30
0.0
 11
-4819.9582317394234
 21
974.60748589179002
 31
0.0
  0
LINE
  5
5350
  8
1
 10
-4793.0144485495302
 20
1118.9956548530949
 30
0.0
 11
-4793.0144485495302
 21
974.60748589179002
 31
0.0
  0
LINE
  5
5351
  8
1
 10
-4854.8813227483952
 20
1104.0342853677121
 30
0.0
 11
-4854.8813227483952
 21
983.95702433847885
 31
0.0
  0
LINE
  5
5352
  8
1
 10
-4762.5298621024394
 20
976.940278392241
 30
0.0
 11
-4721.13930690502
 21
976.940278392241
 31
0.0
  0
LINE
  5
5353
  8
1
 10
-4757.1177263374857
 20
992.73714099371898
 30
0.0
 11
-4712.7998798566559
 21
992.73714099371898
 31
0.0
  0
LINE
  5
5354
  8
1
 10
-4805.1813227483954
 20
971.99565485309586
 30
0.0
 11
-4723.7496560817272
 21
971.99565485309586
 31
0.0
  0
LINE
  5
5355
  8
1
 10
-4723.2217394150603
 20
972.99565485309529
 30
0.0
 11
-4788.8813227483952
 21
972.99565485309529
 31
0.0
  0
LINE
  5
5356
  8
1
 10
-4802.3955934724254
 20
970.39565485309595
 30
0.0
 11
-4723.7496560817272
 21
970.39565485309595
 31
0.0
  0
LINE
  5
5357
  8
1
 10
-4807.7813227483939
 20
969.39565485309595
 30
0.0
 11
-4807.7813227483939
 21
953.59565485309577
 31
0.0
  0
LINE
  5
5358
  8
1
 10
-4806.1813227483945
 20
969.39565485309595
 30
0.0
 11
-4806.1813227483945
 21
953.59565485309577
 31
0.0
  0
LINE
  5
5359
  8
1
 10
-4807.7813227483939
 20
953.59565485309577
 30
0.0
 11
-4806.1813227483945
 21
953.59565485309577
 31
0.0
  0
LINE
  5
535A
  8
CT
 10
-4778.8813227483961
 20
985.29792081511584
 30
0.0
 11
-4778.8813227483961
 21
964.87221010250732
 31
0.0
  0
LINE
  5
535B
  8
1
 10
-4793.0144485495302
 20
978.04512189848174
 30
0.0
 11
-4788.8813227483952
 21
978.04512189848174
 31
0.0
  0
LINE
  5
535C
  8
1
 10
-4763.8813227483952
 20
972.99565485309529
 30
0.0
 11
-4788.8813227483952
 21
972.99565485309529
 31
0.0
  0
LINE
  5
535D
  8
1
 10
-4788.8813227483952
 20
981.58749494825724
 30
0.0
 11
-4788.8813227483961
 21
971.99565485309586
 31
0.0
  0
LINE
  5
535E
  8
1
 10
-4757.1177263374857
 20
992.73714099371898
 30
0.0
 11
-4763.8813227483952
 21
972.99565485309529
 31
0.0
  0
LINE
  5
535F
  8
1
 10
-4788.8813227483952
 20
981.58749494825724
 30
0.0
 11
-4760.9376872785633
 21
981.58749494825724
 31
0.0
  0
ARC
  5
5360
  8
1
 10
-4805.1813227483954
 20
969.39565485309595
 30
0.0
 40
2.6000000000000001
 50
90.0
 51
180.0
  0
LINE
  5
5361
  8
1
 10
-4805.1813227483954
 20
970.39565485309595
 30
0.0
 11
-4802.3955934724254
 21
970.39565485309595
 31
0.0
  0
ARC
  5
5362
  8
1
 10
-4805.1813227483954
 20
969.39565485309595
 30
0.0
 40
1.0
 50
90.0
 51
180.0
  0
LINE
  5
5363
  8
1
 10
-4854.8813227483952
 20
983.95702433847885
 30
0.0
 11
-4819.9582317394234
 21
977.49133173880398
 31
0.0
  0
LINE
  5
5364
  8
1
 10
-4793.0144485495302
 20
974.60748589179002
 30
0.0
 11
-4819.9582317394234
 21
974.60748589179002
 31
0.0
  0
LINE
  5
5365
  8
1
 10
-4723.7496560817272
 20
971.99565485309586
 30
0.0
 11
-4720.2912298691372
 21
971.99565485309586
 31
0.0
  0
LINE
  5
5366
  8
1
 10
-4723.7496560817272
 20
970.39565485309595
 30
0.0
 11
-4721.075749992975
 21
970.39565485309595
 31
0.0
  0
LINE
  5
5367
  8
1
 10
-4719.8009047917358
 20
972.99565485309506
 30
0.0
 11
-4723.2217394150603
 21
972.99565485309529
 31
0.0
  0
LINE
  5
5368
  8
1
 10
-4721.13930690502
 20
976.940278392241
 30
0.0
 11
-4717.8667569495956
 21
976.940278392241
 31
0.0
  0
LINE
  5
5369
  8
1
 10
-4710.6449191593028
 20
992.73714099371898
 30
0.0
 11
-4710.429482308361
 21
992.10832706859969
 31
0.0
  0
LINE
  5
536A
  8
1
 10
-4712.7998798566559
 20
992.73714099371898
 30
0.0
 11
-4710.6449191593028
 21
992.73714099371898
 31
0.0
  0
LINE
  5
536B
  8
1
 10
-4793.0144485495302
 20
1107.2460264095489
 30
0.0
 11
-4662.3813227483952
 21
1107.2460264095489
 31
0.0
  0
LINE
  5
536C
  8
1
 10
-4854.8813227483952
 20
1104.0342853677121
 30
0.0
 11
-4819.9582317394234
 21
1115.349247417143
 31
0.0
  0
POINT
  5
536D
  8
1
 10
-4854.8813227483952
 20
1104.0342853677121
 30
0.0
  0
LINE
  5
536E
  8
1
 10
-4819.9582317394234
 20
1118.9956548530949
 30
0.0
 11
-4793.0144485495302
 21
1118.9956548530949
 31
0.0
  0
LINE
  5
536F
  8
1
 10
-4675.1813227483926
 20
1063.9956548530949
 30
0.0
 11
-4631.8813227483943
 21
1110.795654853096
 31
0.0
  0
LINE
  5
5370
  8
1
 10
-4662.3813227483952
 20
1107.2460264095489
 30
0.0
 11
-4662.3813227483952
 21
1077.8302968854259
 31
0.0
  0
LINE
  5
5371
  8
1
 10
-4800.7813227483948
 20
971.99565485309586
 30
0.0
 11
-4764.9496454849796
 21
895.08667189806499
 31
0.0
  0
LINE
  5
5372
  8
1
 10
-4764.9496454849796
 20
895.08667189806499
 30
0.0
 11
-4761.5643870860913
 21
887.82056546981903
 31
0.0
  0
LINE
  5
5389
  8
FUTO
 10
-4631.8813227483943
 20
1168.9956548530949
 30
0.0
 11
-4633.4813227483937
 21
1168.9956548530949
 31
0.0
  0
DIMENSION
  5
538B
  8
SP
  2
*D15
 10
-4554.8813227483952
 20
733.99565485309574
 30
0.0
 11
-4593.3813227483952
 21
758.99565485309574
 31
0.0
 70
     0
 13
-4631.8813227483943
 23
803.99565485309574
 33
0.0
 14
-4554.8813227483952
 24
853.82143378090757
 34
0.0
  0
LINE
  5
5494
  8
FUTO
 10
-4624.8813227483943
 20
1235.3808196602311
 30
0.0
 11
-4624.8813227483952
 21
1052.61049004596
 31
0.0
  0
LINE
  5
5496
  8
FUTO
 10
-4484.8813227483952
 20
1235.3808196602311
 30
0.0
 11
-4484.8813227483952
 21
1052.61049004596
 31
0.0
  0
DIMENSION
  5
5497
  8
SP
  2
*D16
 10
-4484.8813227483952
 20
1334.9956548530949
 30
0.0
 11
-4554.8813227483952
 21
1359.9956548530949
 31
0.0
 70
     0
 13
-4624.8813227483943
 23
1235.3808196602311
 33
0.0
 14
-4484.8813227483952
 24
1235.380819660232
 34
0.0
  0
DIMENSION
  5
54A4
  8
SP
  2
*D17
 10
-4477.8813227483961
 20
1404.9956548530949
 30
0.0
 11
-4516.3813227483952
 21
1429.9956548530961
 31
0.0
 70
     0
 13
-4554.8813227483952
 23
1374.9956548530949
 33
0.0
 14
-4477.8813227483961
 24
1160.995654853094
 34
0.0
  0
DIMENSION
  5
54CE
  8
SP
  2
*D18
 10
-4854.8813227483952
 20
1404.9956548530949
 30
0.0
 11
-4704.8813227483952
 21
1429.9956548530961
 31
0.0
 70
     0
  1
（340）
 13
-4554.8813227483952
 23
1374.9956548530949
 33
0.0
 14
-4854.8813227483952
 24
1104.0342853677121
 34
0.0
  0
DIMENSION
  5
54ED
  8
3
  2
*D19
 10
-4386.5700477445307
 20
943.99565485309574
 30
0.0
 11
-4411.5700477445316
 21
1043.9956548530949
 31
0.0
 70
     0
  1
%%c<>
 13
-4477.8813227483961
 23
1143.9956548530949
 33
0.0
 14
-4477.8813227483961
 24
943.99565485309574
 34
0.0
 50
90.0
  0
LINE
  5
54EE
  8
FUTO
 10
-4484.8813227483952
 20
943.99565485309586
 30
0.0
 11
-4477.8813227483961
 21
943.99565485309586
 31
0.0
  0
LINE
  5
54EF
  8
FUTO
 10
-4484.8813227483952
 20
1143.9956548530961
 30
0.0
 11
-4477.8813227483961
 21
1143.9956548530961
 31
0.0
  0
ENDSEC
  0
EOF
