  0
SECTION
  2
HEADER
  9
$ACADVER
  1
AC1009
  9
$INSBASE
 10
0.0
 20
0.0
 30
0.0
  9
$EXTMIN
 10
6208.32856416303
 20
0.0000009706882338
 30
0.0
  9
$EXTMAX
 10
8308.32856416303
 20
2950.0000009706878
 30
0.0
  9
$LIMMIN
 10
0.0
 20
0.0
  9
$LIMMAX
 10
297.0
 20
210.0
  9
$ORTHOMODE
 70
     0
  9
$REGENMODE
 70
     1
  9
$FILLMODE
 70
     1
  9
$QTEXTMODE
 70
     0
  9
$MIRRTEXT
 70
     0
  9
$DRAGMODE
 70
     2
  9
$LTSCALE
 40
50.0
  9
$OSMODE
 70
   545
  9
$ATTMODE
 70
     1
  9
$TEXTSIZE
 40
3.5
  9
$TRACEWID
 40
0.05
  9
$TEXTSTYLE
  7
STANDARD
  9
$CLAYER
  8
SP
  9
$CELTYPE
  6
BYLAYER
  9
$CECOLOR
 62
   256
  9
$DIMSCALE
 40
10.0
  9
$DIMASZ
 40
2.5
  9
$DIMEXO
 40
1.0
  9
$DIMDLI
 40
7.0
  9
$DIMRND
 40
0.0
  9
$DIMDLE
 40
0.0
  9
$DIMEXE
 40
1.0
  9
$DIMTP
 40
0.0
  9
$DIMTM
 40
0.0
  9
$DIMTXT
 40
3.0
  9
$DIMCEN
 40
0.0
  9
$DIMTSZ
 40
0.0
  9
$DIMTOL
 70
     0
  9
$DIMLIM
 70
     0
  9
$DIMTIH
 70
     0
  9
$DIMTOH
 70
     0
  9
$DIMSE1
 70
     0
  9
$DIMSE2
 70
     0
  9
$DIMTAD
 70
     1
  9
$DIMZIN
 70
     8
  9
$DIMBLK
  1

  9
$DIMASO
 70
     1
  9
$DIMSHO
 70
     1
  9
$DIMPOST
  1

  9
$DIMAPOST
  1

  9
$DIMALT
 70
     0
  9
$DIMALTD
 70
     2
  9
$DIMALTF
 40
0.03937
  9
$DIMLFAC
 40
1.0
  9
$DIMTOFL
 70
     1
  9
$DIMTVP
 40
0.0
  9
$DIMTIX
 70
     0
  9
$DIMSOXD
 70
     0
  9
$DIMSAH
 70
     1
  9
$DIMBLK1
  1
OPEN
  9
$DIMBLK2
  1
OPEN
  9
$DIMSTYLE
  2
GOD
  9
$DIMCLRD
 70
   256
  9
$DIMCLRE
 70
   256
  9
$DIMCLRT
 70
   256
  9
$DIMTFAC
 40
1.0
  9
$DIMGAP
 40
1.0
  9
$LUNITS
 70
     2
  9
$LUPREC
 70
     3
  9
$SKETCHINC
 40
0.1
  9
$FILLETRAD
 40
0.0
  9
$AUNITS
 70
     0
  9
$AUPREC
 70
     2
  9
$MENU
  1
acad
  9
$ELEVATION
 40
0.0
  9
$PELEVATION
 40
0.0
  9
$THICKNESS
 40
0.0
  9
$LIMCHECK
 70
     0
  9
$BLIPMODE
 70
     0
  9
$CHAMFERA
 40
0.0
  9
$CHAMFERB
 40
0.0
  9
$SKPOLY
 70
     0
  9
$TDCREATE
 40
2454939.5747812148
  9
$TDUPDATE
 40
2455012.4085704172
  9
$TDINDWG
 40
0.1077047685
  9
$TDUSRTIMER
 40
0.1077047685
  9
$USRTIMER
 70
     1
  9
$ANGBASE
 50
0.0
  9
$ANGDIR
 70
     0
  9
$PDMODE
 70
     0
  9
$PDSIZE
 40
1.0
  9
$PLINEWID
 40
0.0
  9
$COORDS
 70
     2
  9
$SPLFRAME
 70
     0
  9
$SPLINETYPE
 70
     6
  9
$SPLINESEGS
 70
     8
  9
$ATTDIA
 70
     0
  9
$ATTREQ
 70
     1
  9
$HANDLING
 70
 22529
  9
$HANDSEED
  5
76E0
  9
$SURFTAB1
 70
     6
  9
$SURFTAB2
 70
     6
  9
$SURFTYPE
 70
     6
  9
$SURFU
 70
     6
  9
$SURFV
 70
     6
  9
$UCSNAME
  2

  9
$UCSORG
 10
0.0
 20
0.0
 30
0.0
  9
$UCSXDIR
 10
1.0
 20
0.0
 30
0.0
  9
$UCSYDIR
 10
0.0
 20
1.0
 30
0.0
  9
$PUCSNAME
  2

  9
$PUCSORG
 10
0.0
 20
0.0
 30
0.0
  9
$PUCSXDIR
 10
1.0
 20
0.0
 30
0.0
  9
$PUCSYDIR
 10
0.0
 20
1.0
 30
0.0
  9
$USERI1
 70
     0
  9
$USERI2
 70
     0
  9
$USERI3
 70
     0
  9
$USERI4
 70
     0
  9
$USERI5
 70
     0
  9
$USERR1
 40
0.0
  9
$USERR2
 40
0.0
  9
$USERR3
 40
0.0
  9
$USERR4
 40
0.0
  9
$USERR5
 40
0.0
  9
$WORLDVIEW
 70
     1
  9
$SHADEDGE
 70
     3
  9
$SHADEDIF
 70
    70
  9
$TILEMODE
 70
     1
  9
$MAXACTVP
 70
    16
  9
$PLIMCHECK
 70
     0
  9
$PEXTMIN
 10
1.0000000000000000E+020
 20
1.0000000000000000E+020
 30
1.0000000000000000E+020
  9
$PEXTMAX
 10
-1.0000000000000000E+020
 20
-1.0000000000000000E+020
 30
-1.0000000000000000E+020
  9
$PLIMMIN
 10
0.0
 20
0.0
  9
$PLIMMAX
 10
12.0
 20
9.0
  9
$UNITMODE
 70
     0
  9
$VISRETAIN
 70
     0
  9
$PLINEGEN
 70
     0
  9
$PSLTSCALE
 70
     0
  0
ENDSEC
  0
SECTION
  2
TABLES
  0
TABLE
  2
VPORT
 70
     2
  0
VPORT
  2
*ACTIVE
 70
     0
 10
0.0
 20
0.0
 11
1.0
 21
1.0
 12
7258.2509885955687
 22
1475.000007353849
 13
0.0
 23
0.0
 14
5.0
 24
5.0
 15
0.0
 25
0.0
 16
0.0
 26
0.0
 36
1.0
 17
0.0
 27
0.0
 37
0.0
 40
2974.263157169094
 41
1.6307901907356941
 42
50.0
 43
0.0
 44
0.0
 50
0.0
 51
0.0
 71
     0
 72
   100
 73
     1
 74
     0
 75
     0
 76
     0
 77
     0
 78
     0
  0
ENDTAB
  0
TABLE
  2
LTYPE
 70
     4
  0
LTYPE
  2
CONTINUOUS
 70
     0
  3
Solid line
 72
    65
 73
     0
 40
0.0
  0
LTYPE
  2
CENTER
 70
     0
  3
____ _ ____ _ ____ _ ____ _ ____ _ ____ _ ____ 
 72
    65
 73
     4
 40
2.0
 49
1.25
 49
-0.25
 49
0.25
 49
-0.25
  0
LTYPE
  2
HIDDEN
 70
     0
  3
__ __ __ __ __ __ __ __ __ __ __ __ __ __ __ __
 72
    65
 73
     2
 40
0.375
 49
0.25
 49
-0.125
  0
LTYPE
  2
PHANTOM
 70
     0
  3
______  __  __  ______  __  __  ______  __  __ 
 72
    65
 73
     6
 40
2.5
 49
1.25
 49
-0.25
 49
0.25
 49
-0.25
 49
0.25
 49
-0.25
  0
ENDTAB
  0
TABLE
  2
LAYER
 70
    13
  0
LAYER
  2
0
 70
     0
 62
     7
  6
CONTINUOUS
  0
LAYER
  2
CT
 70
     0
 62
     3
  6
CENTER
  0
LAYER
  2
FUTO
 70
     0
 62
     4
  6
CONTINUOUS
  0
LAYER
  2
HOSO
 70
     0
 62
     7
  6
CONTINUOUS
  0
LAYER
  2
KL
 70
     0
 62
     7
  6
HIDDEN
  0
LAYER
  2
MOJI
 70
     0
 62
     3
  6
CONTINUOUS
  0
LAYER
  2
SL
 70
     0
 62
     1
  6
PHANTOM
  0
LAYER
  2
SP
 70
     0
 62
     2
  6
CONTINUOUS
  0
LAYER
  2
DEFPOINTS
 70
     0
 62
     7
  6
CONTINUOUS
  0
LAYER
  2
1
 70
     0
 62
     4
  6
CONTINUOUS
  0
LAYER
  2
3
 70
     0
 62
     2
  6
CONTINUOUS
  0
LAYER
  2
2
 70
     0
 62
     3
  6
CENTER
  0
LAYER
  2
4
 70
     0
 62
     7
  6
CONTINUOUS
  0
ENDTAB
  0
TABLE
  2
STYLE
 70
     1
  0
STYLE
  2
STANDARD
 70
     0
 40
0.0
 41
1.0
 50
15.0
 71
     0
 42
3.5
  3
C:\Program Files\AutoCAD LT\simplex.shx
  4
C:\Program Files\AutoCAD LT\extfont.shx
  0
ENDTAB
  0
TABLE
  2
VIEW
 70
     0
  0
ENDTAB
  0
TABLE
  2
UCS
 70
     0
  0
ENDTAB
  0
TABLE
  2
APPID
 70
     1
  0
APPID
  2
ACAD
 70
     0
  0
ENDTAB
  0
TABLE
  2
DIMSTYLE
 70
     3
  0
DIMSTYLE
  2
STANDARD
 70
     0
  3

  4

  5

  6

  7

 40
1.0
 41
0.18
 42
0.0625
 43
0.38
 44
0.18
 45
0.0
 46
0.0
 47
0.0
 48
0.0
140
0.18
141
0.09
142
0.0
143
25.399999999999999
144
1.0
145
0.0
146
1.0
147
0.09
 71
     0
 72
     0
 73
     1
 74
     1
 75
     0
 76
     0
 77
     0
 78
     0
170
     0
171
     2
172
     0
173
     0
174
     0
175
     0
176
     0
177
     0
178
     0
  0
DIMSTYLE
  2
GOD
 70
     0
  3

  4

  5

  6
OPEN
  7
OPEN
 40
10.0
 41
2.5
 42
1.0
 43
7.0
 44
1.0
 45
0.0
 46
0.0
 47
0.0
 48
0.0
140
3.0
141
0.0
142
0.0
143
0.03937
144
1.0
145
0.0
146
1.0
147
1.0
 71
     0
 72
     0
 73
     0
 74
     0
 75
     0
 76
     0
 77
     1
 78
     8
170
     0
171
     2
172
     1
173
     1
174
     0
175
     0
176
   256
177
   256
178
   256
  0
DIMSTYLE
  2
DIA1
 70
     0
  3

  4

  5
ARROW
  6

  7

 40
1.0
 41
2.0
 42
1.0
 43
10.0
 44
1.0
 45
0.0
 46
0.0
 47
0.0
 48
0.0
140
2.5
141
0.0
142
0.0
143
25.399999999999999
144
1.0
145
0.0
146
1.0
147
0.09
 71
     0
 72
     0
 73
     0
 74
     0
 75
     0
 76
     0
 77
     1
 78
     8
170
     0
171
     2
172
     1
173
     0
174
     0
175
     0
176
     2
177
     2
178
     2
  0
ENDTAB
  0
ENDSEC
  0
SECTION
  2
BLOCKS
  0
BLOCK
  8
0
  2
$MODEL_SPACE
 70
     0
 10
0.0
 20
0.0
 30
0.0
  3
$MODEL_SPACE
  1

  0
ENDBLK
  5
1B
  8
0
  0
BLOCK
 67
     1
  8
0
  2
$PAPER_SPACE
 70
     0
 10
0.0
 20
0.0
 30
0.0
  3
$PAPER_SPACE
  1

  0
ENDBLK
  5
18
 67
     1
  8
0
  0
BLOCK
  8
0
  2
_OPEN
 70
     0
 10
0.0
 20
0.0
 30
0.0
  3
_OPEN
  1

  0
LINE
  5
1E81
  8
0
  6
BYBLOCK
 62
     0
 10
-1.0
 20
0.1666666666666666
 30
0.0
 11
0.0
 21
0.0
 31
0.0
  0
LINE
  5
1E82
  8
0
  6
BYBLOCK
 62
     0
 10
0.0
 20
0.0
 30
0.0
 11
-1.0
 21
-0.1666666666666666
 31
0.0
  0
LINE
  5
1E83
  8
0
  6
BYBLOCK
 62
     0
 10
0.0
 20
0.0
 30
0.0
 11
-1.0
 21
0.0
 31
0.0
  0
ENDBLK
  5
1E84
  8
0
  0
BLOCK
  8
0
  2
_DOT
 70
     0
 10
0.0
 20
0.0
 30
0.0
  3
_DOT
  1

  0
LINE
  5
1EC3
  8
0
  6
BYBLOCK
 62
     0
 10
0.0
 20
0.0
 30
0.0
 11
-1.0
 21
-0.0000000000000284
 31
0.0
  0
POLYLINE
  5
1EC4
  8
0
  6
BYBLOCK
 62
     0
 66
     1
 10
0.0
 20
0.0
 30
0.0
 70
     1
 40
0.1666666666666666
 41
0.1666666666666666
  0
VERTEX
  5
76C6
  8
0
  6
BYBLOCK
 62
     0
 10
-0.0833333333333286
 20
-0.0000000000000284
 30
0.0
 42
1.0
  0
VERTEX
  5
76C7
  8
0
  6
BYBLOCK
 62
     0
 10
0.0833333333333286
 20
-0.0000000000000284
 30
0.0
 42
1.0
  0
SEQEND
  5
76C8
  8
0
  6
BYBLOCK
 62
     0
  0
ENDBLK
  5
1EB8
  8
0
  0
BLOCK
  8
0
  2
ARROW
 70
     0
 10
0.0
 20
0.0
 30
0.0
  3
ARROW
  1

  0
LINE
  5
1EEF
  8
0
 10
-0.9999999999999991
 20
0.1666666667000003
 30
0.0
 11
0.0
 21
0.0
 31
0.0
  0
LINE
  5
1EF0
  8
0
 10
-0.9999999999999991
 20
0.0
 30
0.0
 11
0.0
 21
0.0
 31
0.0
  0
LINE
  5
1EF1
  8
0
 10
-0.9999999999999991
 20
-0.1666666667000003
 30
0.0
 11
0.0
 21
0.0
 31
0.0
  0
ENDBLK
  5
1EF3
  8
0
  0
BLOCK
  8
0
  2
_NONE
 70
     0
 10
0.0
 20
0.0
 30
0.0
  3
_NONE
  1

  0
ENDBLK
  5
1F6F
  8
0
  0
BLOCK
  8
0
  2
L-30-3
 70
     0
 10
0.0
 20
0.0
 30
0.0
  3
L-30-3
  1

  0
LINE
  5
676F
  8
0
 10
115.2488417492448
 20
98.116970357453638
 30
0.0
 11
145.2488417492448
 21
98.116970357453638
 31
0.0
  0
LINE
  5
6770
  8
0
 10
115.2488417492448
 20
98.116970357453638
 30
0.0
 11
115.2488417492448
 21
128.1169703574536
 31
0.0
  0
LINE
  5
6771
  8
0
 10
145.2488417492448
 20
98.116970357453638
 30
0.0
 11
145.2488417492448
 21
99.116970357453638
 31
0.0
  0
LINE
  5
6772
  8
0
 10
115.2488417492448
 20
128.1169703574536
 30
0.0
 11
116.2488417492448
 21
128.1169703574536
 31
0.0
  0
LINE
  5
6773
  8
0
 10
122.2488417492448
 20
101.1169703574536
 30
0.0
 11
143.2488417492448
 21
101.1169703574536
 31
0.0
  0
LINE
  5
6774
  8
0
 10
118.2488417492448
 20
105.1169703574536
 30
0.0
 11
118.2488417492448
 21
126.1169703574536
 31
0.0
  0
ARC
  5
6775
  8
0
 10
143.2488417492448
 20
99.116970357453638
 30
0.0
 40
2.0
 50
0.0
 51
90.0
  0
ARC
  5
6776
  8
0
 10
116.2488417492448
 20
126.1169703574536
 30
0.0
 40
2.0
 50
0.0
 51
90.0
  0
ARC
  5
6777
  8
0
 10
122.2488417492448
 20
105.1169703574536
 30
0.0
 40
4.0
 50
180.0
 51
270.0
  0
ENDBLK
  5
6779
  8
0
  0
BLOCK
  8
0
  2
*D47
 70
     1
 10
0.0
 20
0.0
 30
0.0
  3
*D47
  1

  0
LINE
  5
758A
  8
SP
 10
6863.1384397823813
 20
805.4270889577773
 30
0.0
 11
6863.1384397823813
 21
749.32716332765744
 31
0.0
  0
LINE
  5
758B
  8
SP
 10
6638.1384397823776
 20
819.32716332765744
 30
0.0
 11
6638.1384397823776
 21
749.32716332765744
 31
0.0
  0
LINE
  5
758C
  8
SP
 10
6838.1384397823813
 20
759.32716332765744
 30
0.0
 11
6663.1384397823776
 21
759.32716332765744
 31
0.0
  0
INSERT
  5
758D
  8
SP
  2
_OPEN
 10
6863.1384397823813
 20
759.32716332765744
 30
0.0
 41
25.0
 42
25.0
 43
25.0
  0
INSERT
  5
758E
  8
SP
  2
_OPEN
 10
6638.1384397823776
 20
759.32716332765744
 30
0.0
 41
25.0
 42
25.0
 43
25.0
 50
180.0
  0
TEXT
  5
758F
  8
SP
 10
6709.4763447530549
 20
769.32716332765744
 30
0.0
 40
30.0
  1
225
 51
15.0
  0
POINT
  5
7590
  8
DEFPOINTS
 62
     0
 10
6863.1384397823813
 20
815.4270889577773
 30
0.0
  0
POINT
  5
7591
  8
DEFPOINTS
 62
     0
 10
6638.1384397823776
 20
829.32716332765744
 30
0.0
  0
POINT
  5
7592
  8
DEFPOINTS
 62
     0
 10
6638.1384397823776
 20
759.32716332765744
 30
0.0
  0
ENDBLK
  5
73BA
  8
0
  0
BLOCK
  8
0
  2
*D48
 70
     1
 10
0.0
 20
0.0
 30
0.0
  3
*D48
  1

  0
LINE
  5
7581
  8
SP
 10
6638.1384397823776
 20
819.32716332765744
 30
0.0
 11
6638.1384397823776
 21
679.32716332765733
 31
0.0
  0
LINE
  5
7582
  8
SP
 10
7088.1384397823804
 20
819.32716332765733
 30
0.0
 11
7088.1384397823804
 21
679.32716332765733
 31
0.0
  0
LINE
  5
7583
  8
SP
 10
6663.1384397823776
 20
689.32716332765733
 30
0.0
 11
7063.1384397823786
 21
689.32716332765733
 31
0.0
  0
INSERT
  5
7584
  8
SP
  2
_OPEN
 10
6638.1384397823776
 20
689.32716332765733
 30
0.0
 41
25.0
 42
25.0
 43
25.0
 50
180.0
  0
INSERT
  5
7585
  8
SP
  2
_OPEN
 10
7088.1384397823804
 20
689.32716332765733
 30
0.0
 41
25.0
 42
25.0
 43
25.0
  0
TEXT
  5
7586
  8
SP
 10
6820.6878821978444
 20
699.32716332765733
 30
0.0
 40
30.0
  1
450
 51
15.0
  0
POINT
  5
7587
  8
DEFPOINTS
 62
     0
 10
6638.1384397823776
 20
829.32716332765744
 30
0.0
  0
POINT
  5
7588
  8
DEFPOINTS
 62
     0
 10
7088.1384397823804
 20
829.32716332765733
 30
0.0
  0
POINT
  5
7589
  8
DEFPOINTS
 62
     0
 10
7088.1384397823804
 20
689.32716332765733
 30
0.0
  0
ENDBLK
  5
73C6
  8
0
  0
BLOCK
  8
0
  2
*D49
 70
     1
 10
0.0
 20
0.0
 30
0.0
  3
*D49
  1

  0
LINE
  5
76D3
  8
SP
 10
6688.1384397823813
 20
881.32716332765665
 30
0.0
 11
6553.1384397823786
 21
881.32716332765665
 31
0.0
  0
LINE
  5
76D4
  8
SP
 10
6628.1384397823786
 20
859.32716332765676
 30
0.0
 11
6553.1384397823786
 21
859.32716332765676
 31
0.0
  0
LINE
  5
76D5
  8
SP
 10
6563.1384397823767
 20
881.32716332765665
 30
0.0
 11
6563.1384397823767
 21
859.32716332765676
 31
0.0
  0
TEXT
  8
0
  40
30
  5
76DF
  72
0
  71
0
 10
6471.78
 20
807.286
 30
0.000000
  1
（22）
  0
POINT
  5
76D7
  8
DEFPOINTS
 62
     0
 10
6698.1384397823804
 20
881.32716332765665
 30
0.0
  0
POINT
  5
76D8
  8
DEFPOINTS
 62
     0
 10
6638.1384397823776
 20
859.32716332765676
 30
0.0
  0
POINT
  5
76D9
  8
DEFPOINTS
 62
     0
 10
6563.1384397823767
 20
859.32716332765676
 30
0.0
  0
ENDBLK
  5
73D0
  8
0
  0
BLOCK
  8
0
  2
*D50
 70
     1
 10
0.0
 20
0.0
 30
0.0
  3
*D50
  1

  0
LINE
  5
75A7
  8
SP
 10
6676.242903646933
 20
1121.327163327657
 30
0.0
 11
6553.1384397823786
 21
1121.327163327657
 31
0.0
  0
LINE
  5
75A8
  8
SP
 10
6839.1384397823804
 20
1261.3271633276579
 30
0.0
 11
6553.1384397823786
 21
1261.3271633276579
 31
0.0
  0
LINE
  5
75A9
  8
SP
 10
6563.1384397823767
 20
1146.327163327657
 30
0.0
 11
6563.1384397823767
 21
1236.3271633276579
 31
0.0
  0
INSERT
  5
75AA
  8
SP
  2
_OPEN
 10
6563.1384397823767
 20
1121.327163327657
 30
0.0
 41
25.0
 42
25.0
 43
25.0
 50
270.0
  0
INSERT
  5
75AB
  8
SP
  2
_OPEN
 10
6563.1384397823767
 20
1261.3271633276579
 30
0.0
 41
25.0
 42
25.0
 43
25.0
 50
90.0
  0
TEXT
  5
75AC
  8
SP
 10
6553.1384397823786
 20
1149.8198257971881
 30
0.0
 40
30.0
  1
140
 50
90.0
 51
15.0
  0
POINT
  5
75AD
  8
DEFPOINTS
 62
     0
 10
6686.2429036469339
 20
1121.327163327657
 30
0.0
  0
POINT
  5
75AE
  8
DEFPOINTS
 62
     0
 10
6849.1384397823813
 20
1261.3271633276579
 30
0.0
  0
POINT
  5
75AF
  8
DEFPOINTS
 62
     0
 10
6563.1384397823767
 20
1261.3271633276579
 30
0.0
  0
ENDBLK
  5
73DC
  8
0
  0
BLOCK
  8
0
  2
*D51
 70
     1
 10
0.0
 20
0.0
 30
0.0
  3
*D51
  1

  0
LINE
  5
7571
  8
SP
 10
6676.242903646933
 20
1121.327163327657
 30
0.0
 11
6553.1384397823786
 21
1121.327163327657
 31
0.0
  0
LINE
  5
7572
  8
SP
 10
6688.1384397823767
 20
881.32716332765722
 30
0.0
 11
6553.1384397823786
 21
881.32716332765722
 31
0.0
  0
LINE
  5
7573
  8
SP
 10
6563.1384397823767
 20
1096.327163327657
 30
0.0
 11
6563.1384397823767
 21
906.32716332765722
 31
0.0
  0
INSERT
  5
7574
  8
SP
  2
_OPEN
 10
6563.1384397823767
 20
1121.327163327657
 30
0.0
 41
25.0
 42
25.0
 43
25.0
 50
90.0
  0
INSERT
  5
7575
  8
SP
  2
_OPEN
 10
6563.1384397823767
 20
881.32716332765722
 30
0.0
 41
25.0
 42
25.0
 43
25.0
 50
270.0
  0
TEXT
  5
7576
  8
SP
 10
6553.1384397823786
 20
960.21635170528054
 30
0.0
 40
30.0
  1
240
 50
90.0
 51
15.0
  0
POINT
  5
7577
  8
DEFPOINTS
 62
     0
 10
6686.2429036469339
 20
1121.327163327657
 30
0.0
  0
POINT
  5
7578
  8
DEFPOINTS
 62
     0
 10
6698.1384397823786
 20
881.32716332765722
 30
0.0
  0
POINT
  5
7579
  8
DEFPOINTS
 62
     0
 10
6563.1384397823767
 20
881.32716332765722
 30
0.0
  0
ENDBLK
  5
73E8
  8
0
  0
BLOCK
  8
0
  2
*D52
 70
     1
 10
0.0
 20
0.0
 30
0.0
  3
*D52
  1

  0
LINE
  5
7568
  8
SP
 10
6676.242903646933
 20
1121.327163327657
 30
0.0
 11
6623.1384397823786
 21
1121.327163327657
 31
0.0
  0
LINE
  5
7569
  8
SP
 10
6693.1384397823786
 20
921.3271633276587
 30
0.0
 11
6623.1384397823786
 21
921.3271633276587
 31
0.0
  0
LINE
  5
756A
  8
SP
 10
6633.1384397823776
 20
1096.327163327657
 30
0.0
 11
6633.1384397823776
 21
946.3271633276587
 31
0.0
  0
INSERT
  5
756B
  8
SP
  2
_OPEN
 10
6633.1384397823776
 20
1121.327163327657
 30
0.0
 41
25.0
 42
25.0
 43
25.0
 50
90.0
  0
INSERT
  5
756C
  8
SP
  2
_OPEN
 10
6633.1384397823776
 20
921.3271633276587
 30
0.0
 41
25.0
 42
25.0
 43
25.0
 50
270.0
  0
TEXT
  5
756D
  8
SP
 10
6623.1384397823786
 20
980.21635170528111
 30
0.0
 40
30.0
  1
200
 50
90.0
 51
15.0
  0
POINT
  5
756E
  8
DEFPOINTS
 62
     0
 10
6686.2429036469339
 20
1121.327163327657
 30
0.0
  0
POINT
  5
756F
  8
DEFPOINTS
 62
     0
 10
6703.1384397823776
 20
921.3271633276587
 30
0.0
  0
POINT
  5
7570
  8
DEFPOINTS
 62
     0
 10
6633.1384397823776
 20
921.3271633276587
 30
0.0
  0
ENDBLK
  5
73F4
  8
0
  0
BLOCK
  8
0
  2
*D53
 70
     1
 10
0.0
 20
0.0
 30
0.0
  3
*D53
  1

  0
LINE
  5
76B2
  8
SP
 10
6628.1384397823786
 20
859.32716332765676
 30
0.0
 11
6553.1384397823786
 21
859.32716332765676
 31
0.0
  0
LINE
  5
76B3
  8
SP
 10
6628.1384397823786
 20
829.32716332765744
 30
0.0
 11
6553.1384397823786
 21
829.32716332765744
 31
0.0
  0
LINE
  5
76B4
  8
SP
 10
6563.1384397823767
 20
884.32716332765676
 30
0.0
 11
6563.1384397823767
 21
909.32716332765676
 31
0.0
  0
LINE
  5
76B5
  8
SP
 10
6563.1384397823767
 20
804.32716332765744
 30
0.0
 11
6563.1384397823767
 21
707.20810689679388
 31
0.0
  0
LINE
  5
76B6
  8
SP
 10
6563.1384397823767
 20
859.32716332765676
 30
0.0
 11
6563.1384397823767
 21
829.32716332765744
 31
0.0
  0
INSERT
  5
76B7
  8
SP
  2
_DOT
 10
6563.1384397823767
 20
859.32716332765676
 30
0.0
 41
25.0
 42
25.0
 43
25.0
 50
270.0
  0
INSERT
  5
76B8
  8
SP
  2
_OPEN
 10
6563.1384397823767
 20
829.32716332765744
 30
0.0
 41
25.0
 42
25.0
 43
25.0
 50
90.0
  0
TEXT
  5
76B9
  8
SP
 10
6553.1384397823786
 20
715.67696865433129
 30
0.0
 40
30.0
  1
30
 50
90.0
 51
15.0
  0
POINT
  5
76BA
  8
DEFPOINTS
 62
     0
 10
6638.1384397823776
 20
859.32716332765676
 30
0.0
  0
POINT
  5
76BB
  8
DEFPOINTS
 62
     0
 10
6638.1384397823776
 20
829.32716332765744
 30
0.0
  0
POINT
  5
76BC
  8
DEFPOINTS
 62
     0
 10
6563.1384397823767
 20
829.32716332765744
 30
0.0
  0
ENDBLK
  5
7402
  8
0
  0
BLOCK
  8
0
  2
*D54
 70
     1
 10
0.0
 20
0.0
 30
0.0
  3
*D54
  1

  0
LINE
  5
759E
  8
SP
 10
6863.1384397823813
 20
805.4270889577773
 30
0.0
 11
6863.1384397823813
 21
749.32716332765744
 31
0.0
  0
LINE
  5
759F
  8
SP
 10
7088.1384397823804
 20
819.32716332765733
 30
0.0
 11
7088.1384397823804
 21
749.32716332765744
 31
0.0
  0
LINE
  5
75A0
  8
SP
 10
6888.1384397823804
 20
759.32716332765744
 30
0.0
 11
7063.1384397823786
 21
759.32716332765744
 31
0.0
  0
INSERT
  5
75A1
  8
SP
  2
_OPEN
 10
6863.1384397823813
 20
759.32716332765744
 30
0.0
 41
25.0
 42
25.0
 43
25.0
 50
180.0
  0
INSERT
  5
75A2
  8
SP
  2
_OPEN
 10
7088.1384397823804
 20
759.32716332765744
 30
0.0
 41
25.0
 42
25.0
 43
25.0
  0
TEXT
  5
75A3
  8
SP
 10
6934.4763447530549
 20
769.32716332765744
 30
0.0
 40
30.0
  1
225
 51
15.0
  0
POINT
  5
75A4
  8
DEFPOINTS
 62
     0
 10
6863.1384397823813
 20
815.4270889577773
 30
0.0
  0
POINT
  5
75A5
  8
DEFPOINTS
 62
     0
 10
7088.1384397823804
 20
829.32716332765733
 30
0.0
  0
POINT
  5
75A6
  8
DEFPOINTS
 62
     0
 10
7088.1384397823804
 20
759.32716332765744
 30
0.0
  0
ENDBLK
  5
740E
  8
0
  0
BLOCK
  8
0
  2
*D55
 70
     1
 10
0.0
 20
0.0
 30
0.0
  3
*D55
  1

  0
LINE
  5
75B9
  8
SP
 10
6863.1384397823813
 20
1307.487676744257
 30
0.0
 11
6863.1384397823813
 21
1361.327163327657
 31
0.0
  0
LINE
  5
75BA
  8
SP
 10
7031.1384397823776
 20
1115.3271633276579
 30
0.0
 11
7031.1384397823776
 21
1361.327163327657
 31
0.0
  0
LINE
  5
75BB
  8
SP
 10
6888.1384397823804
 20
1351.327163327657
 30
0.0
 11
7006.1384397823786
 21
1351.327163327657
 31
0.0
  0
INSERT
  5
75BC
  8
SP
  2
_OPEN
 10
6863.1384397823813
 20
1351.327163327657
 30
0.0
 41
25.0
 42
25.0
 43
25.0
 50
180.0
  0
INSERT
  5
75BD
  8
SP
  2
_OPEN
 10
7031.1384397823776
 20
1351.327163327657
 30
0.0
 41
25.0
 42
25.0
 43
25.0
  0
TEXT
  5
75BE
  8
SP
 10
6905.4397099716007
 20
1361.327163327657
 30
0.0
 40
30.0
  1
168
 51
15.0
  0
POINT
  5
75BF
  8
DEFPOINTS
 62
     0
 10
6863.1384397823813
 20
1297.487676744257
 30
0.0
  0
POINT
  5
75C0
  8
DEFPOINTS
 62
     0
 10
7031.1384397823776
 20
1105.3271633276579
 30
0.0
  0
POINT
  5
75C1
  8
DEFPOINTS
 62
     0
 10
7031.1384397823776
 20
1351.327163327657
 30
0.0
  0
ENDBLK
  5
741A
  8
0
  0
BLOCK
  8
0
  2
*D56
 70
     1
 10
0.0
 20
0.0
 30
0.0
  3
*D56
  1

  0
LINE
  5
75B0
  8
SP
 10
6863.1384397823813
 20
1307.487676744257
 30
0.0
 11
6863.1384397823813
 21
1361.327163327657
 31
0.0
  0
LINE
  5
75B1
  8
SP
 10
6703.1384397823776
 20
1152.3271633276579
 30
0.0
 11
6703.1384397823776
 21
1361.327163327657
 31
0.0
  0
LINE
  5
75B2
  8
SP
 10
6838.1384397823813
 20
1351.327163327657
 30
0.0
 11
6728.1384397823776
 21
1351.327163327657
 31
0.0
  0
INSERT
  5
75B3
  8
SP
  2
_OPEN
 10
6863.1384397823813
 20
1351.327163327657
 30
0.0
 41
25.0
 42
25.0
 43
25.0
  0
INSERT
  5
75B4
  8
SP
  2
_OPEN
 10
6703.1384397823776
 20
1351.327163327657
 30
0.0
 41
25.0
 42
25.0
 43
25.0
 50
180.0
  0
TEXT
  5
75B5
  8
SP
 10
6741.6311022519094
 20
1361.327163327657
 30
0.0
 40
30.0
  1
160
 51
15.0
  0
POINT
  5
75B6
  8
DEFPOINTS
 62
     0
 10
6863.1384397823813
 20
1297.487676744257
 30
0.0
  0
POINT
  5
75B7
  8
DEFPOINTS
 62
     0
 10
6703.1384397823776
 20
1142.3271633276579
 30
0.0
  0
POINT
  5
75B8
  8
DEFPOINTS
 62
     0
 10
6703.1384397823776
 20
1351.327163327657
 30
0.0
  0
ENDBLK
  5
7426
  8
0
  0
BLOCK
  8
0
  2
*D57
 70
     1
 10
0.0
 20
0.0
 30
0.0
  3
*D57
  1

  0
LINE
  5
761C
  8
SP
 10
7088.1384397823804
 20
2125.0849438989362
 30
0.0
 11
7088.1384397823804
 21
2195.0849438989362
 31
0.0
  0
LINE
  5
761D
  8
SP
 10
6638.1384397823776
 20
2125.0849438989362
 30
0.0
 11
6638.1384397823776
 21
2195.0849438989362
 31
0.0
  0
LINE
  5
761E
  8
SP
 10
7063.1384397823786
 20
2185.0849438989362
 30
0.0
 11
6663.1384397823776
 21
2185.0849438989362
 31
0.0
  0
INSERT
  5
761F
  8
SP
  2
_OPEN
 10
7088.1384397823804
 20
2185.0849438989362
 30
0.0
 41
25.0
 42
25.0
 43
25.0
  0
INSERT
  5
7620
  8
SP
  2
_OPEN
 10
6638.1384397823776
 20
2185.0849438989362
 30
0.0
 41
25.0
 42
25.0
 43
25.0
 50
180.0
  0
TEXT
  5
7621
  8
SP
 10
6820.6878821978444
 20
2195.0849438989362
 30
0.0
 40
30.0
  1
450
 51
15.0
  0
POINT
  5
7622
  8
DEFPOINTS
 62
     0
 10
7088.1384397823804
 20
2115.0849438989362
 30
0.0
  0
POINT
  5
7623
  8
DEFPOINTS
 62
     0
 10
6638.1384397823776
 20
2115.0849438989362
 30
0.0
  0
POINT
  5
7624
  8
DEFPOINTS
 62
     0
 10
6638.1384397823776
 20
2185.0849438989362
 30
0.0
  0
ENDBLK
  5
7432
  8
0
  0
BLOCK
  8
0
  2
*D58
 70
     1
 10
0.0
 20
0.0
 30
0.0
  3
*D58
  1

  0
LINE
  5
760A
  8
SP
 10
7062.9958648992961
 20
1961.084943898936
 30
0.0
 11
7188.8498561150382
 21
1961.084943898936
 31
0.0
  0
LINE
  5
760B
  8
SP
 10
7098.1384397823786
 20
2115.0849438989362
 30
0.0
 11
7188.84985611504
 21
2115.0849438989349
 31
0.0
  0
LINE
  5
760C
  8
SP
 10
7178.8498561150382
 20
1986.084943898936
 30
0.0
 11
7178.8498561150391
 21
2090.0849438989349
 31
0.0
  0
INSERT
  5
760D
  8
SP
  2
_OPEN
 10
7178.8498561150382
 20
1961.084943898936
 30
0.0
 41
25.0
 42
25.0
 43
25.0
 50
270.0
  0
INSERT
  5
760E
  8
SP
  2
_OPEN
 10
7178.8498561150391
 20
2115.0849438989349
 30
0.0
 41
25.0
 42
25.0
 43
25.0
 50
90.0
  0
TEXT
  5
760F
  8
SP
 10
7168.8498561150382
 20
1997.062957742975
 30
0.0
 40
30.0
  1
154
 50
90.0
 51
15.0
  0
POINT
  5
7610
  8
DEFPOINTS
 62
     0
 10
7052.9958648992961
 20
1961.084943898936
 30
0.0
  0
POINT
  5
7611
  8
DEFPOINTS
 62
     0
 10
7088.1384397823804
 20
2115.0849438989362
 30
0.0
  0
POINT
  5
7612
  8
DEFPOINTS
 62
     0
 10
7178.8498561150391
 20
2115.0849438989349
 30
0.0
  0
ENDBLK
  5
743E
  8
0
  0
BLOCK
  8
0
  2
*D59
 70
     1
 10
0.0
 20
0.0
 30
0.0
  3
*D59
  1

  0
LINE
  5
7601
  8
SP
 10
7098.1384397823786
 20
2115.0849438989362
 30
0.0
 11
7277.5250622479352
 21
2115.0849438989349
 31
0.0
  0
LINE
  5
7602
  8
SP
 10
7098.1384397823786
 20
1615.084943898936
 30
0.0
 11
7277.5250622479352
 21
1615.084943898936
 31
0.0
  0
LINE
  5
7603
  8
SP
 10
7267.5250622479352
 20
2090.0849438989349
 30
0.0
 11
7267.5250622479334
 21
1640.084943898936
 31
0.0
  0
INSERT
  5
7604
  8
SP
  2
_OPEN
 10
7267.5250622479352
 20
2115.0849438989349
 30
0.0
 41
25.0
 42
25.0
 43
25.0
 50
90.0
  0
INSERT
  5
7605
  8
SP
  2
_OPEN
 10
7267.5250622479334
 20
1615.084943898936
 30
0.0
 41
25.0
 42
25.0
 43
25.0
 50
270.0
  0
TEXT
  5
7606
  8
SP
 10
7257.5250622479352
 20
1823.2085631553271
 30
0.0
 40
30.0
  1
500
 50
90.0
 51
15.0
  0
POINT
  5
7607
  8
DEFPOINTS
 62
     0
 10
7088.1384397823804
 20
2115.0849438989362
 30
0.0
  0
POINT
  5
7608
  8
DEFPOINTS
 62
     0
 10
7088.1384397823804
 20
1615.084943898936
 30
0.0
  0
POINT
  5
7609
  8
DEFPOINTS
 62
     0
 10
7267.5250622479334
 20
1615.084943898936
 30
0.0
  0
ENDBLK
  5
744A
  8
0
  0
BLOCK
  8
0
  2
*D60
 70
     1
 10
0.0
 20
0.0
 30
0.0
  3
*D60
  1

  0
LINE
  5
7613
  8
SP
 10
7062.9958648992961
 20
1961.084943898936
 30
0.0
 11
7188.84985611504
 21
1961.084943898936
 31
0.0
  0
LINE
  5
7614
  8
SP
 10
7098.1384397823786
 20
1615.084943898936
 30
0.0
 11
7188.84985611504
 21
1615.084943898936
 31
0.0
  0
LINE
  5
7615
  8
SP
 10
7178.8498561150391
 20
1936.084943898936
 30
0.0
 11
7178.8498561150391
 21
1640.084943898936
 31
0.0
  0
INSERT
  5
7616
  8
SP
  2
_OPEN
 10
7178.8498561150391
 20
1961.084943898936
 30
0.0
 41
25.0
 42
25.0
 43
25.0
 50
90.0
  0
INSERT
  5
7617
  8
SP
  2
_OPEN
 10
7178.8498561150391
 20
1615.084943898936
 30
0.0
 41
25.0
 42
25.0
 43
25.0
 50
270.0
  0
TEXT
  5
7618
  8
SP
 10
7168.8498561150391
 20
1746.731456589305
 30
0.0
 40
30.0
  1
346
 50
90.0
 51
15.0
  0
POINT
  5
7619
  8
DEFPOINTS
 62
     0
 10
7052.9958648992961
 20
1961.084943898936
 30
0.0
  0
POINT
  5
761A
  8
DEFPOINTS
 62
     0
 10
7088.1384397823804
 20
1615.084943898936
 30
0.0
  0
POINT
  5
761B
  8
DEFPOINTS
 62
     0
 10
7178.8498561150391
 20
1615.084943898936
 30
0.0
  0
ENDBLK
  5
7456
  8
0
  0
BLOCK
  8
0
  2
*D61
 70
     1
 10
0.0
 20
0.0
 30
0.0
  3
*D61
  1

  0
LINE
  5
75C2
  8
3
 10
7852.4701111594313
 20
1221.327163327657
 30
0.0
 11
7999.3236759273268
 21
1221.327163327657
 31
0.0
  0
LINE
  5
75C3
  8
3
 10
7852.4701111594313
 20
1021.327163327657
 30
0.0
 11
7999.3236759273268
 21
1021.327163327657
 31
0.0
  0
LINE
  5
75C4
  8
3
 10
7989.3236759273277
 20
1196.327163327657
 30
0.0
 11
7989.3236759273277
 21
1046.327163327657
 31
0.0
  0
INSERT
  5
75C5
  8
3
  2
_OPEN
 10
7989.3236759273277
 20
1221.327163327657
 30
0.0
 41
25.0
 42
25.0
 43
25.0
 50
90.0
  0
INSERT
  5
75C6
  8
3
  2
_OPEN
 10
7989.3236759273277
 20
1021.327163327657
 30
0.0
 41
25.0
 42
25.0
 43
25.0
 50
270.0
  0
INSERT
  5
75C7
  8
SP
  2
*U70
 10
0.0
 20
0.0
 30
0.0
  0
POINT
  5
75C8
  8
DEFPOINTS
 62
     0
 10
7842.4701111594322
 20
1221.327163327657
 30
0.0
  0
POINT
  5
75C9
  8
DEFPOINTS
 62
     0
 10
7842.4701111594322
 20
1021.327163327657
 30
0.0
  0
POINT
  5
75CA
  8
DEFPOINTS
 62
     0
 10
7989.3236759273277
 20
1021.327163327657
 30
0.0
  0
ENDBLK
  5
7462
  8
0
  0
BLOCK
  8
0
  2
*D62
 70
     1
 10
0.0
 20
0.0
 30
0.0
  3
*D62
  1

  0
LINE
  5
75DD
  8
SP
 10
7765.4701111594322
 20
876.68074380331291
 30
0.0
 11
7765.4701111594322
 21
749.32716332765733
 31
0.0
  0
LINE
  5
75DE
  8
SP
 10
7419.4701111594313
 20
849.32716332765744
 30
0.0
 11
7419.4701111594313
 21
749.32716332765733
 31
0.0
  0
LINE
  5
75DF
  8
SP
 10
7740.4701111594322
 20
759.32716332765733
 30
0.0
 11
7444.4701111594313
 21
759.32716332765733
 31
0.0
  0
INSERT
  5
75E0
  8
SP
  2
_OPEN
 10
7765.4701111594322
 20
759.32716332765733
 30
0.0
 41
25.0
 42
25.0
 43
25.0
  0
INSERT
  5
75E1
  8
SP
  2
_OPEN
 10
7419.4701111594313
 20
759.32716332765733
 30
0.0
 41
25.0
 42
25.0
 43
25.0
 50
180.0
  0
TEXT
  5
75E2
  8
SP
 10
7551.1166238497999
 20
769.32716332765733
 30
0.0
 40
30.0
  1
346
 51
15.0
  0
POINT
  5
75E3
  8
DEFPOINTS
 62
     0
 10
7765.4701111594322
 20
886.68074380331291
 30
0.0
  0
POINT
  5
75E4
  8
DEFPOINTS
 62
     0
 10
7419.4701111594313
 20
859.32716332765733
 30
0.0
  0
POINT
  5
75E5
  8
DEFPOINTS
 62
     0
 10
7419.4701111594313
 20
759.32716332765733
 30
0.0
  0
ENDBLK
  5
746E
  8
0
  0
BLOCK
  8
0
  2
*D63
 70
     1
 10
0.0
 20
0.0
 30
0.0
  3
*D63
  1

  0
LINE
  5
75D4
  8
SP
 10
7419.4701111594313
 20
849.32716332765744
 30
0.0
 11
7419.4701111594313
 21
679.32716332765733
 31
0.0
  0
LINE
  5
75D5
  8
SP
 10
7919.4701111594313
 20
849.32716332765744
 30
0.0
 11
7919.4701111594313
 21
679.32716332765733
 31
0.0
  0
LINE
  5
75D6
  8
SP
 10
7444.4701111594313
 20
689.32716332765733
 30
0.0
 11
7894.4701111594313
 21
689.32716332765733
 31
0.0
  0
INSERT
  5
75D7
  8
SP
  2
_OPEN
 10
7419.4701111594313
 20
689.32716332765733
 30
0.0
 41
25.0
 42
25.0
 43
25.0
 50
180.0
  0
INSERT
  5
75D8
  8
SP
  2
_OPEN
 10
7919.4701111594313
 20
689.32716332765733
 30
0.0
 41
25.0
 42
25.0
 43
25.0
  0
TEXT
  5
75D9
  8
SP
 10
7627.5937304158224
 20
699.32716332765733
 30
0.0
 40
30.0
  1
500
 51
15.0
  0
POINT
  5
75DA
  8
DEFPOINTS
 62
     0
 10
7419.4701111594313
 20
859.32716332765733
 30
0.0
  0
POINT
  5
75DB
  8
DEFPOINTS
 62
     0
 10
7919.4701111594313
 20
859.32716332765733
 30
0.0
  0
POINT
  5
75DC
  8
DEFPOINTS
 62
     0
 10
7919.4701111594313
 20
689.32716332765733
 30
0.0
  0
ENDBLK
  5
747A
  8
0
  0
BLOCK
  8
0
  2
*D64
 70
     1
 10
0.0
 20
0.0
 30
0.0
  3
*D64
  1

  0
LINE
  5
75F8
  8
SP
 10
7765.4701111594341
 20
1375.942125848642
 30
0.0
 11
7765.4701111594341
 21
1412.327163327657
 31
0.0
  0
LINE
  5
75F9
  8
SP
 10
7465.4701111594331
 20
1191.3657938422739
 30
0.0
 11
7465.4701111594331
 21
1412.327163327657
 31
0.0
  0
LINE
  5
75FA
  8
SP
 10
7740.4701111594331
 20
1402.327163327657
 30
0.0
 11
7490.4701111594331
 21
1402.327163327657
 31
0.0
  0
INSERT
  5
75FB
  8
SP
  2
_OPEN
 10
7765.4701111594341
 20
1402.327163327657
 30
0.0
 41
25.0
 42
25.0
 43
25.0
  0
INSERT
  5
75FC
  8
SP
  2
_OPEN
 10
7465.4701111594331
 20
1402.327163327657
 30
0.0
 41
25.0
 42
25.0
 43
25.0
 50
180.0
  0
TEXT
  5
75FD
  8
SP
 10
7573.5937304158242
 20
1412.327163327657
 30
0.0
 40
30.0
  1
300
 51
15.0
  0
POINT
  5
75FE
  8
DEFPOINTS
 62
     0
 10
7765.4701111594341
 20
1365.942125848642
 30
0.0
  0
POINT
  5
75FF
  8
DEFPOINTS
 62
     0
 10
7465.4701111594331
 20
1181.3657938422739
 30
0.0
  0
POINT
  5
7600
  8
DEFPOINTS
 62
     0
 10
7465.4701111594331
 20
1402.327163327657
 30
0.0
  0
ENDBLK
  5
7486
  8
0
  0
BLOCK
  8
0
  2
*D65
 70
     1
 10
0.0
 20
0.0
 30
0.0
  3
*D65
  1

  0
LINE
  5
75CB
  8
SP
 10
7765.4701111594322
 20
876.68074380331291
 30
0.0
 11
7765.4701111594322
 21
749.32716332765733
 31
0.0
  0
LINE
  5
75CC
  8
SP
 10
7919.4701111594313
 20
849.32716332765744
 30
0.0
 11
7919.4701111594313
 21
749.32716332765733
 31
0.0
  0
LINE
  5
75CD
  8
SP
 10
7790.4701111594322
 20
759.32716332765733
 30
0.0
 11
7894.4701111594313
 21
759.32716332765733
 31
0.0
  0
INSERT
  5
75CE
  8
SP
  2
_OPEN
 10
7765.4701111594322
 20
759.32716332765733
 30
0.0
 41
25.0
 42
25.0
 43
25.0
 50
180.0
  0
INSERT
  5
75CF
  8
SP
  2
_OPEN
 10
7919.4701111594313
 20
759.32716332765733
 30
0.0
 41
25.0
 42
25.0
 43
25.0
  0
TEXT
  5
75D0
  8
SP
 10
7801.4481250034687
 20
769.32716332765733
 30
0.0
 40
30.0
  1
154
 51
15.0
  0
POINT
  5
75D1
  8
DEFPOINTS
 62
     0
 10
7765.4701111594322
 20
886.68074380331291
 30
0.0
  0
POINT
  5
75D2
  8
DEFPOINTS
 62
     0
 10
7919.4701111594313
 20
859.32716332765733
 30
0.0
  0
POINT
  5
75D3
  8
DEFPOINTS
 62
     0
 10
7919.4701111594313
 20
759.32716332765733
 30
0.0
  0
ENDBLK
  5
7492
  8
0
  0
BLOCK
  8
0
  2
*D66
 70
     1
 10
0.0
 20
0.0
 30
0.0
  3
*D66
  1

  0
LINE
  5
75EF
  8
SP
 10
7765.4701111594341
 20
1375.942125848642
 30
0.0
 11
7765.4701111594341
 21
1412.327163327657
 31
0.0
  0
LINE
  5
75F0
  8
SP
 10
7842.4701111594322
 20
1248.327163327659
 30
0.0
 11
7842.4701111594322
 21
1412.327163327657
 31
0.0
  0
LINE
  5
75F1
  8
SP
 10
7790.4701111594331
 20
1402.327163327657
 30
0.0
 11
7817.4701111594322
 21
1402.327163327657
 31
0.0
  0
INSERT
  5
75F2
  8
SP
  2
_OPEN
 10
7765.4701111594341
 20
1402.327163327657
 30
0.0
 41
25.0
 42
25.0
 43
25.0
 50
180.0
  0
INSERT
  5
75F3
  8
SP
  2
_OPEN
 10
7842.4701111594322
 20
1402.327163327657
 30
0.0
 41
25.0
 42
25.0
 43
25.0
  0
TEXT
  5
75F4
  8
SP
 10
7772.8080161301104
 20
1412.327163327657
 30
0.0
 40
30.0
  1
77
 51
15.0
  0
POINT
  5
75F5
  8
DEFPOINTS
 62
     0
 10
7765.4701111594341
 20
1365.942125848642
 30
0.0
  0
POINT
  5
75F6
  8
DEFPOINTS
 62
     0
 10
7842.4701111594322
 20
1238.327163327659
 30
0.0
  0
POINT
  5
75F7
  8
DEFPOINTS
 62
     0
 10
7842.4701111594322
 20
1402.327163327657
 30
0.0
  0
ENDBLK
  5
749E
  8
0
  0
BLOCK
  8
0
  2
*D67
 70
     1
 10
0.0
 20
0.0
 30
0.0
  3
*D67
  1

  0
LINE
  5
75E6
  8
SP
 10
7695.4701111594331
 20
1261.3271633276579
 30
0.0
 11
7695.4701111594331
 21
1342.327163327657
 31
0.0
  0
LINE
  5
75E7
  8
SP
 10
7835.4701111594304
 20
1261.3271633276579
 30
0.0
 11
7835.4701111594304
 21
1342.327163327657
 31
0.0
  0
LINE
  5
75E8
  8
SP
 10
7720.4701111594331
 20
1332.327163327657
 30
0.0
 11
7810.4701111594313
 21
1332.327163327657
 31
0.0
  0
INSERT
  5
75E9
  8
SP
  2
_OPEN
 10
7695.4701111594331
 20
1332.327163327657
 30
0.0
 41
25.0
 42
25.0
 43
25.0
 50
180.0
  0
INSERT
  5
75EA
  8
SP
  2
_OPEN
 10
7835.4701111594304
 20
1332.327163327657
 30
0.0
 41
25.0
 42
25.0
 43
25.0
  0
TEXT
  5
75EB
  8
SP
 10
7723.9627736289613
 20
1342.327163327657
 30
0.0
 40
30.0
  1
140
 51
15.0
  0
POINT
  5
75EC
  8
DEFPOINTS
 62
     0
 10
7695.4701111594331
 20
1251.3271633276579
 30
0.0
  0
POINT
  5
75ED
  8
DEFPOINTS
 62
     0
 10
7835.4701111594304
 20
1251.3271633276579
 30
0.0
  0
POINT
  5
75EE
  8
DEFPOINTS
 62
     0
 10
7835.4701111594304
 20
1332.327163327657
 30
0.0
  0
ENDBLK
  5
74AA
  8
0
  0
BLOCK
  8
0
  2
*U68
 70
     1
 10
0.0
 20
0.0
 30
0.0
  3
*U68
  1

  0
TEXT
  5
76CA
  8
SP
 10
7914.5290931023228
 20
981.17237207246455
 30
0.0
 40
30.0
  1
\U+2205
 50
90.0
 51
15.0
  0
TEXT
  5
76CB
  8
SP
 10
7914.5290931023228
 20
1008.315229215321
 30
0.0
 40
30.0
  1
200
 50
90.0
 51
15.0
  0
ENDBLK
  5
76CD
  8
0
  0
BLOCK
  8
0
  2
*U69
 70
     1
 10
0.0
 20
0.0
 30
0.0
  3
*U69
  1

  0
TEXT
  5
76CF
  8
SP
 10
543.17036067438323
 20
981.17237207246296
 30
0.0
 40
30.0
  1
\U+2205
 50
90.0
 51
15.0
  0
TEXT
  5
76D0
  8
SP
 10
543.17036067438323
 20
1008.31522921532
 30
0.0
 40
30.0
  1
200
 50
90.0
 51
15.0
  0
ENDBLK
  5
76D2
  8
0
  0
BLOCK
  8
0
  2
*U70
 70
     1
 10
0.0
 20
0.0
 30
0.0
  3
*U70
  1

  0
TEXT
  5
76DB
  8
SP
 10
7979.3236759273286
 20
1058.503880547026
 30
0.0
 40
30.0
  1
\U+2205
 50
90.0
 51
15.0
  0
TEXT
  5
76DC
  8
SP
 10
7979.3236759273286
 20
1085.6467376898829
 30
0.0
 40
30.0
  1
200
 50
90.0
 51
15.0
  0
ENDBLK
  5
76DE
  8
0
  0
ENDSEC
  0
SECTION
  2
ENTITIES
  0
LINE
  5
55A9
  8
4
 10
6208.32856416303
 20
0.0000009706882338
 30
0.0
 11
6208.32856416303
 21
2950.0000009706878
 31
0.0
  0
LINE
  5
55AA
  8
4
 10
8308.32856416303
 20
2950.0000009706878
 30
0.0
 11
8308.32856416303
 21
0.0000009706882338
 31
0.0
  0
LINE
  5
568F
  8
4
 10
8308.32856416303
 20
0.0000009706882338
 30
0.0
 11
6208.32856416303
 21
0.0000009706882338
 31
0.0
  0
LINE
  5
569F
  8
4
 10
6658.32856416303
 20
226.553142200808
 30
0.0
 11
7858.32856416303
 21
226.553142200808
 31
0.0
  0
LINE
  5
56A0
  8
4
 10
6658.32856416303
 20
326.553142200808
 30
0.0
 11
7858.32856416303
 21
326.553142200808
 31
0.0
  0
LINE
  5
56A1
  8
4
 10
6658.32856416303
 20
426.553142200808
 30
0.0
 11
7858.32856416303
 21
426.553142200808
 31
0.0
  0
TEXT
  5
56A2
  8
4
 10
7194.9830597485097
 20
243.71272648075129
 30
0.0
 40
50.0
  1
MF＃1 1/4- 7
  0
TEXT
  5
56A3
  8
4
 10
7186.0073096506949
 20
349.12491115837651
 30
0.0
 40
50.0
  1
ミツヤ多翼送風機
  0
LINE
  5
56A4
  8
4
 10
6658.32856416303
 20
426.553142200808
 30
0.0
 11
6658.32856416303
 21
226.553142200808
 31
0.0
  0
LINE
  5
56A5
  8
4
 10
7158.32856416303
 20
426.553142200808
 30
0.0
 11
7158.3285641630309
 21
226.553142200808
 31
0.0
  0
TEXT
  5
56A6
  8
4
 10
6694.5866701878276
 20
248.19829893281889
 30
0.0
 40
50.0
  1
機器型番
  0
TEXT
  5
56A8
  8
4
 10
6696.8306450099308
 20
358.09616806742082
 30
0.0
 40
50.0
  1
機器名称
  0
LINE
  5
56A9
  8
4
 10
7858.32856416303
 20
426.553142200808
 30
0.0
 11
7858.3285641630309
 21
226.553142200808
 31
0.0
  0
TEXT
  5
58A1
  8
4
 10
6510.5987121852886
 20
2382.3194785170322
 30
0.0
 40
53.999999999999993
  1
右回転左横向
  0
TEXT
  5
58A4
  8
4
 10
7662.1864521503358
 20
2383.4288423032031
 30
0.0
 40
53.999999999999993
  1
縮尺：1/10
  0
LINE
  5
5954
  8
4
 10
6208.32856416303
 20
2950.0000009706878
 30
0.0
 11
8308.32856416303
 21
2950.0000009706878
 31
0.0
  0
LINE
  5
5960
  8
4
 10
6458.3285641630291
 20
2469.4087552354931
 30
0.0
 11
8058.32856416303
 21
2469.4087552354931
 31
0.0
  0
LINE
  5
5961
  8
4
 10
6458.3285641630291
 20
2669.4087552354931
 30
0.0
 11
8058.32856416303
 21
2669.4087552354931
 31
0.0
  0
TEXT
  5
5962
  8
4
 10
6711.1285641630302
 20
2533.4087552354931
 30
0.0
 40
72.0
  1
遠心式片吸込片持多翼ファン
 72
     4
 11
7258.3285641630291
 21
2569.4087552354931
 31
0.0
  0
LINE
  5
5963
  8
4
 10
6458.3285641630291
 20
2669.4087552354931
 30
0.0
 11
6458.3285641630291
 21
2469.4087552354931
 31
0.0
  0
LINE
  5
5964
  8
4
 10
8058.32856416303
 20
2669.4087552354931
 30
0.0
 11
8058.32856416303
 21
2469.4087552354931
 31
0.0
  0
LINE
  5
5965
  8
4
 10
7648.9459865228946
 20
2786.6522625204411
 30
0.0
 11
8058.32856416303
 21
2786.6522625204411
 31
0.0
  0
LINE
  5
5966
  8
4
 10
8058.32856416303
 20
2681.2635840960888
 30
0.0
 11
7648.9459865228946
 21
2681.2635840960888
 31
0.0
  0
TEXT
  5
5967
  8
4
 10
7677.2981234123199
 20
2706.0610824659971
 30
0.0
 40
56.000000000000007
  1
No.
  0
LINE
  5
5968
  8
4
 10
7648.9459865228946
 20
2681.2635840960888
 30
0.0
 11
7648.9459865228946
 21
2786.6522625204411
 31
0.0
  0
LINE
  5
5969
  8
4
 10
8058.32856416303
 20
2786.6522625204411
 30
0.0
 11
8058.32856416303
 21
2681.2635840960888
 31
0.0
  0
LINE
  5
596A
  8
4
 10
8308.32856416303
 20
2950.0000009706878
 30
0.0
 11
8308.32856416303
 21
2950.0000009706878
 31
0.0
  0
TEXT
  5
6D8C
  8
4
 10
6996.8153291845247
 20
2383.4288423032031
 30
0.0
 40
53.999999999999993
  1
天井吊防振ベッド型
  0
LINE
  5
726E
  8
FUTO
 10
6638.1384397823776
 20
856.32716332765744
 30
0.0
 11
7088.1384397823804
 21
856.32716332765744
 31
0.0
  0
DIMENSION
  5
726F
  8
SP
  2
*D47
 10
6638.1384397823776
 20
759.32716332765744
 30
0.0
 11
6750.6384397823786
 21
784.32716332765744
 31
0.0
 70
     0
 13
6863.1384397823813
 23
815.4270889577773
 33
0.0
 14
6638.1384397823776
 24
829.32716332765744
 34
0.0
  0
DIMENSION
  5
7270
  8
SP
  2
*D48
 10
7088.1384397823804
 20
689.32716332765733
 30
0.0
 11
6863.1384397823786
 21
714.32716332765733
 31
0.0
 70
     0
 13
6638.1384397823776
 23
829.32716332765744
 33
0.0
 14
7088.1384397823804
 24
829.32716332765733
 34
0.0
  0
LINE
  5
7271
  8
FUTO
 10
6638.1384397823776
 20
829.32716332765744
 30
0.0
 11
7088.1384397823804
 21
829.32716332765733
 31
0.0
  0
LINE
  5
7272
  8
FUTO
 10
6638.1384397823776
 20
859.32716332765733
 30
0.0
 11
7088.1384397823804
 21
859.32716332765733
 31
0.0
  0
DIMENSION
  5
7273
  8
SP
  2
*D49
 10
6563.1384397823767
 20
859.32716332765676
 30
0.0
 11
6531.7783151764452
 21
860.38570942910826
 31
0.0
 70
   128
 13
6698.1384397823804
 23
881.32716332765665
 33
0.0
 14
6638.1384397823776
 24
859.32716332765676
 34
0.0
 50
90.0
1001
ACAD
1000
DSTYLE
1002
{
1070
   287
1070
     5
1070
     3
1000
（<>）
1070
   279
1070
     2
1070
   289
1070
     3
1070
     6
1000
NONE
1070
     7
1000
NONE
1002
}
  0
DIMENSION
  5
7274
  8
SP
  2
*D50
 10
6563.1384397823767
 20
1261.3271633276579
 30
0.0
 11
6538.1384397823776
 21
1191.3271633276579
 31
0.0
 70
     0
 13
6686.2429036469339
 23
1121.327163327657
 33
0.0
 14
6849.1384397823813
 24
1261.3271633276579
 34
0.0
 50
90.0
  0
DIMENSION
  5
7275
  8
SP
  2
*D51
 10
6563.1384397823767
 20
881.32716332765722
 30
0.0
 11
6538.1384397823776
 21
1001.327163327658
 31
0.0
 70
     0
 13
6686.2429036469339
 23
1121.327163327657
 33
0.0
 14
6698.1384397823786
 24
881.32716332765722
 34
0.0
 50
90.0
  0
DIMENSION
  5
7276
  8
SP
  2
*D52
 10
6633.1384397823776
 20
921.3271633276587
 30
0.0
 11
6608.1384397823776
 21
1021.327163327659
 31
0.0
 70
     0
 13
6686.2429036469339
 23
1121.327163327657
 33
0.0
 14
6703.1384397823776
 24
921.3271633276587
 34
0.0
 50
90.0
  0
DIMENSION
  5
7277
  8
SP
  2
*D53
 10
6563.1384397823767
 20
829.32716332765744
 30
0.0
 11
6538.1384397823776
 21
743.26763511222669
 31
0.0
 70
     0
 13
6638.1384397823776
 23
859.32716332765676
 33
0.0
 14
6638.1384397823776
 24
829.32716332765744
 34
0.0
 50
90.0
1001
ACAD
1000
DSTYLE
1002
{
1070
     6
1000
DOT
1002
}
  0
LINE
  5
7278
  8
FUTO
 10
6638.1384397823776
 20
859.32716332765733
 30
0.0
 11
6638.1384397823776
 21
829.32716332765744
 31
0.0
  0
DIMENSION
  5
7279
  8
SP
  2
*D54
 10
7088.1384397823804
 20
759.32716332765744
 30
0.0
 11
6975.6384397823786
 21
784.32716332765744
 31
0.0
 70
     0
 13
6863.1384397823813
 23
815.4270889577773
 33
0.0
 14
7088.1384397823804
 24
829.32716332765733
 34
0.0
  0
LINE
  5
727A
  8
2
 10
6686.2429036469339
 20
1121.327163327657
 30
0.0
 11
7069.3076543115931
 21
1121.327163327657
 31
0.0
  0
LINE
  5
727B
  8
1
 10
6913.1384397823813
 20
1246.327163327657
 30
0.0
 11
6998.1384397823804
 21
1175.0271633276559
 31
0.0
  0
DIMENSION
  5
727C
  8
SP
  2
*D55
 10
7031.1384397823776
 20
1351.327163327657
 30
0.0
 11
6947.1384397823804
 21
1376.327163327657
 31
0.0
 70
     0
 13
6863.1384397823813
 23
1297.487676744257
 33
0.0
 14
7031.1384397823776
 24
1105.3271633276579
 34
0.0
  0
LINE
  5
727D
  8
1
 10
6951.4862658693364
 20
1047.7271633276571
 30
0.0
 11
6993.9384397823796
 21
1047.7271633276571
 31
0.0
  0
LINE
  5
727E
  8
1
 10
6732.3384397823811
 20
1049.327163327657
 30
0.0
 11
6993.9384397823796
 21
1049.327163327657
 31
0.0
  0
LINE
  5
727F
  8
1
 10
6698.1384397823804
 20
881.32716332765665
 30
0.0
 11
7028.1384397823831
 21
881.32716332765722
 31
0.0
  0
ARC
  5
7280
  8
1
 10
6847.1384397823776
 20
1105.3271633276579
 30
0.0
 40
184.0
 50
270.0
 51
7.3029112824112383
  0
ARC
  5
7281
  8
1
 10
6847.1384397823776
 20
1105.3271633276579
 30
0.0
 40
195.0
 50
270.0
 51
7.3220595904489754
  0
ARC
  5
7282
  8
1
 10
6877.1384397823776
 20
1107.3271633276579
 30
0.0
 40
154.0
 50
38.213210701757461
 51
103.1027620341531
  0
ARC
  5
7283
  8
1
 10
6877.1384397823776
 20
1107.3271633276579
 30
0.0
 40
165.0
 50
42.833428066057223
 51
90.0
  0
LINE
  5
7284
  8
1
 10
6703.1384397823776
 20
900.32716332765824
 30
0.0
 11
6703.1384397823776
 21
1142.3271633276579
 31
0.0
  0
LINE
  5
7285
  8
1
 10
6704.7384397823789
 20
900.32716332765824
 30
0.0
 11
6704.7384397823789
 21
1142.3271633276579
 31
0.0
  0
LINE
  5
7286
  8
1
 10
6718.1384397823786
 20
933.12716332765751
 30
0.0
 11
6718.1384397823786
 21
1109.527163327657
 31
0.0
  0
CIRCLE
  5
7287
  8
CT
 10
6863.1384397823813
 20
1121.327163327657
 30
0.0
 40
110.0
  0
ARC
  5
7288
  8
1
 10
6863.1384397823813
 20
1121.327163327657
 30
0.0
 40
75.0
 50
292.30515321345479
 51
247.69484678654501
  0
CIRCLE
  5
7289
  8
1
 10
6863.1384397823813
 20
1121.327163327657
 30
0.0
 40
69.388168961305382
  0
CIRCLE
  5
728A
  8
1
 10
6863.1384397823813
 20
1121.327163327657
 30
0.0
 40
60.038630514616607
  0
LINE
  5
728B
  8
1
 10
6729.7384397823798
 20
1176.369280974716
 30
0.0
 11
6729.7384397823798
 21
1046.7271633276571
 31
0.0
  0
LINE
  5
728C
  8
1
 10
6728.1384397823804
 20
1175.027163327657
 30
0.0
 11
6728.1384397823804
 21
881.32716332765665
 31
0.0
  0
LINE
  5
728D
  8
2
 10
6863.1384397823813
 20
1297.487676744257
 30
0.0
 11
6863.1384397823813
 21
815.4270889577773
 31
0.0
  0
LINE
  5
728E
  8
1
 10
6847.1384397823776
 20
910.32716332765824
 30
0.0
 11
6718.1384397823786
 21
910.32716332765824
 31
0.0
  0
LINE
  5
728F
  8
1
 10
6847.1384397823776
 20
921.32716332765824
 30
0.0
 11
6703.1384397823804
 21
921.3271633276587
 31
0.0
  0
LINE
  5
7290
  8
1
 10
6823.1384397823804
 20
1050.327163327657
 30
0.0
 11
6793.1384397823813
 21
1050.327163327657
 31
0.0
  0
LINE
  5
7291
  8
1
 10
6774.7906136954243
 20
1047.7271633276571
 30
0.0
 11
6951.4862658693364
 21
1047.7271633276571
 31
0.0
  0
LINE
  5
7292
  8
1
 10
6813.1384397823813
 20
1030.9271633276569
 30
0.0
 11
6913.1384397823813
 21
1030.9271633276569
 31
0.0
  0
LINE
  5
7293
  8
2
 10
6713.1384397823813
 20
893.30833224596574
 30
0.0
 11
6713.1384397823813
 21
845.53568689037843
 31
0.0
  0
LINE
  5
7294
  8
1
 10
6732.3384397823811
 20
1047.7271633276571
 30
0.0
 11
6774.7906136954243
 21
1047.7271633276571
 31
0.0
  0
LINE
  5
7295
  8
1
 10
6729.7384397823798
 20
1046.7271633276571
 30
0.0
 11
6729.7384397823798
 21
954.02716332765715
 31
0.0
  0
LINE
  5
7296
  8
1
 10
6731.3384397823811
 20
1046.7271633276559
 30
0.0
 11
6731.3384397823811
 21
954.02716332765715
 31
0.0
  0
LINE
  5
7297
  8
1
 10
6718.1384397823786
 20
910.3271633276587
 30
0.0
 11
6718.1384397823786
 21
921.32716332765824
 31
0.0
  0
LINE
  5
7298
  8
1
 10
6729.7384397823798
 20
954.02716332765715
 30
0.0
 11
6729.7384397823798
 21
883.92716332765701
 31
0.0
  0
LINE
  5
7299
  8
1
 10
6698.1384397823804
 20
882.92716332765713
 30
0.0
 11
6727.1384397823813
 21
882.92716332765713
 31
0.0
  0
LINE
  5
729A
  8
1
 10
6704.7384397823789
 20
900.32716332765824
 30
0.0
 11
6703.1384397823776
 21
900.32716332765824
 31
0.0
  0
LINE
  5
729B
  8
1
 10
6698.1384397823804
 20
882.92716332765713
 30
0.0
 11
6698.1384397823804
 21
881.32716332765722
 31
0.0
  0
ARC
  5
729C
  8
1
 10
6727.1384397823813
 20
883.92716332765701
 30
0.0
 40
2.6000000000000001
 50
270.0
 51
0.0
  0
ARC
  5
729D
  8
1
 10
6727.1384397823813
 20
883.92716332765701
 30
0.0
 40
1.0
 50
270.0
 51
0.0
  0
LINE
  5
729E
  8
1
 10
6706.3384397823793
 20
921.32716332765824
 30
0.0
 11
6718.1384397823786
 21
933.12716332765751
 31
0.0
  0
LINE
  5
729F
  8
1
 10
6729.7384397823798
 20
954.02716332765715
 30
0.0
 11
6731.3384397823811
 21
954.02716332765715
 31
0.0
  0
ARC
  5
72A0
  8
1
 10
6732.3384397823811
 20
1046.7271633276571
 30
0.0
 40
2.6000000000000001
 50
90.0
 51
180.0
  0
ARC
  5
72A1
  8
1
 10
6732.3384397823811
 20
1046.7271633276559
 30
0.0
 40
1.0
 50
90.0
 51
180.0
  0
LINE
  5
72A2
  8
1
 10
6813.1384397823813
 20
1030.9271633276569
 30
0.0
 11
6771.1384397823804
 21
1049.327163327657
 31
0.0
  0
LINE
  5
72A3
  8
CT
 10
6768.6887053015107
 20
1082.204802343143
 30
0.0
 11
6754.1858669935082
 21
1076.197530023064
 31
0.0
  0
CIRCLE
  5
72A4
  8
1
 10
6761.5116912061376
 20
1079.231985767497
 30
0.0
 40
4.0
  0
LINE
  5
72A5
  8
1
 10
6793.1384397823813
 20
1050.327163327657
 30
0.0
 11
6810.6077882683749
 21
1067.7965118136501
 31
0.0
  0
LINE
  5
72A6
  8
1
 10
6793.1384397823813
 20
1050.327163327657
 30
0.0
 11
6793.1384397823813
 21
1049.327163327657
 31
0.0
  0
LINE
  5
72A7
  8
1
 10
6807.1384397823813
 20
1041.327163327657
 30
0.0
 11
6807.1384397823813
 21
1059.2542275419801
 31
0.0
  0
LINE
  5
72A8
  8
1
 10
6903.1384397823804
 20
1050.327163327657
 30
0.0
 11
6894.9595795268624
 21
1053.4124000919489
 31
0.0
  0
LINE
  5
72A9
  8
1
 10
6891.6038926717574
 20
1051.9389943663509
 30
0.0
 11
6834.6729868930042
 21
1051.9389943663509
 31
0.0
  0
LINE
  5
72AA
  8
CT
 10
6824.0160787978684
 20
1026.8774288467871
 30
0.0
 11
6818.0088064777892
 21
1012.374590538785
 31
0.0
  0
CIRCLE
  5
72AB
  8
1
 10
6821.0432622222224
 20
1019.700414751416
 30
0.0
 40
4.0
  0
LINE
  5
72AC
  8
1
 10
6823.1384397823804
 20
1050.327163327657
 30
0.0
 11
6823.1384397823804
 21
1049.327163327657
 31
0.0
  0
LINE
  5
72AD
  8
1
 10
6823.1384397823804
 20
1050.327163327657
 30
0.0
 11
6831.3173000379011
 21
1053.4124000919489
 31
0.0
  0
LINE
  5
72AE
  8
1
 10
6913.1384397823813
 20
1030.9271633276569
 30
0.0
 11
6955.1384397823804
 21
1049.327163327657
 31
0.0
  0
LINE
  5
72AF
  8
CT
 10
6902.260800766895
 20
1026.8774288467871
 30
0.0
 11
6908.2680730869743
 21
1012.374590538784
 31
0.0
  0
CIRCLE
  5
72B0
  8
1
 10
6905.2336173425419
 20
1019.700414751415
 30
0.0
 40
4.0
  0
LINE
  5
72B1
  8
1
 10
6933.1384397823813
 20
1050.327163327657
 30
0.0
 11
6915.6690912963877
 21
1067.7965118136501
 31
0.0
  0
LINE
  5
72B2
  8
1
 10
6903.1384397823804
 20
1050.327163327657
 30
0.0
 11
6933.1384397823813
 21
1050.327163327657
 31
0.0
  0
LINE
  5
72B3
  8
1
 10
6903.1384397823804
 20
1050.327163327657
 30
0.0
 11
6903.1384397823804
 21
1049.327163327657
 31
0.0
  0
LINE
  5
72B4
  8
1
 10
6933.1384397823813
 20
1050.327163327657
 30
0.0
 11
6933.1384397823813
 21
1049.327163327657
 31
0.0
  0
LINE
  5
72B5
  8
1
 10
6919.1384397823813
 20
1041.327163327657
 30
0.0
 11
6919.1384397823813
 21
1059.2542275419801
 31
0.0
  0
LINE
  5
72B6
  8
CT
 10
6957.5881742632519
 20
1082.2048023431421
 30
0.0
 11
6972.0910125712544
 21
1076.197530023064
 31
0.0
  0
CIRCLE
  5
72B7
  8
1
 10
6964.7651883586223
 20
1079.2319857674979
 30
0.0
 40
4.0
  0
LINE
  5
72B8
  8
1
 10
6813.1384397823813
 20
1246.3271633276561
 30
0.0
 11
6913.1384397823813
 21
1246.327163327657
 31
0.0
  0
ARC
  5
72B9
  8
1
 10
6874.1384397823786
 20
1132.3271633276579
 30
0.0
 40
140.0
 50
90.0
 51
168.44161984437221
  0
ARC
  5
72BA
  8
1
 10
6874.1384397823786
 20
1132.3271633276579
 30
0.0
 40
129.0
 50
104.3223043379403
 51
168.7702059314644
  0
DIMENSION
  5
72BB
  8
SP
  2
*D56
 10
6703.1384397823776
 20
1351.327163327657
 30
0.0
 11
6783.1384397823804
 21
1376.327163327657
 31
0.0
 70
     0
 13
6863.1384397823813
 23
1297.487676744257
 33
0.0
 14
6703.1384397823776
 24
1142.3271633276579
 34
0.0
  0
ARC
  5
72BC
  8
1
 10
6670.1384397823786
 20
1184.3271633276579
 30
0.0
 40
82.0
 50
312.59881289245322
 51
340.86590752557811
  0
ARC
  5
72BD
  8
1
 10
6670.1384397823786
 20
1184.3271633276579
 30
0.0
 40
71.0
 50
324.77580501937922
 51
340.2871812588682
  0
LINE
  5
72BE
  8
1
 10
6813.1384397823813
 20
1246.327163327657
 30
0.0
 11
6728.1384397823804
 21
1175.0271633276559
 31
0.0
  0
LINE
  5
72BF
  8
1
 10
6718.1384397823786
 20
1121.3271633276579
 30
0.0
 11
6704.7384397823789
 21
1121.3271633276579
 31
0.0
  0
LINE
  5
72C0
  8
1
 10
6706.3384397823793
 20
1121.3271633276579
 30
0.0
 11
6718.1384397823786
 21
1109.5271633276579
 31
0.0
  0
LINE
  5
72C1
  8
1
 10
6704.7384397823789
 20
1142.3271633276579
 30
0.0
 11
6703.1384397823776
 21
1142.3271633276579
 31
0.0
  0
LINE
  5
72C2
  8
1
 10
6718.1384397823786
 20
1121.327163327657
 30
0.0
 11
6718.1384397823786
 21
1132.0108178895439
 31
0.0
  0
LINE
  5
72C3
  8
1
 10
6718.1384397823786
 20
1121.3271633276579
 30
0.0
 11
6718.8724115064242
 21
1121.3271633276579
 31
0.0
  0
ARC
  5
72C4
  8
1
 10
6670.1384397823786
 20
1184.3271633276579
 30
0.0
 40
71.0
 50
312.53623473353622
 51
324.77580501937922
  0
ARC
  5
72C5
  8
1
 10
6718.8724115064242
 20
1131.327163327659
 30
0.0
 40
10.0
 50
270.0
 51
312.59881289245322
  0
LINE
  5
72C6
  8
CT
 10
6768.6887053015107
 20
1160.449524312171
 30
0.0
 11
6754.1858669935082
 21
1166.45679663225
 31
0.0
  0
CIRCLE
  5
72C7
  8
1
 10
6761.5116912061412
 20
1163.422340887817
 30
0.0
 40
4.0
  0
LINE
  5
72C8
  8
CT
 10
6824.0160787978684
 20
1215.7768978085271
 30
0.0
 11
6818.0088064777892
 21
1230.279736116529
 31
0.0
  0
CIRCLE
  5
72C9
  8
1
 10
6821.0432622222224
 20
1222.9539119038991
 30
0.0
 40
4.0
  0
LINE
  5
72CA
  8
1
 10
6874.1384397823786
 20
1272.3271633276579
 30
0.0
 11
6877.1384397823813
 21
1272.3271633276579
 31
0.0
  0
LINE
  5
72CB
  8
CT
 10
6957.58817426325
 20
1160.4495243121701
 30
0.0
 11
6972.0910125712544
 21
1166.4567966322491
 31
0.0
  0
CIRCLE
  5
72CC
  8
1
 10
6964.7651883586223
 20
1163.422340887817
 30
0.0
 40
4.0
  0
LINE
  5
72CD
  8
CT
 10
6902.260800766895
 20
1215.7768978085271
 30
0.0
 11
6908.2680730869743
 21
1230.279736116529
 31
0.0
  0
CIRCLE
  5
72CE
  8
1
 10
6905.2336173425419
 20
1222.9539119038991
 30
0.0
 40
4.0
  0
LINE
  5
72CF
  8
1
 10
6996.53843978238
 20
1176.369280974716
 30
0.0
 11
6996.53843978238
 21
1049.327163327657
 31
0.0
  0
LINE
  5
72D0
  8
1
 10
6998.1384397823804
 20
1175.027163327657
 30
0.0
 11
6998.1384397823804
 21
881.32716332765665
 31
0.0
  0
LINE
  5
72D1
  8
2
 10
7013.1384397823822
 20
893.30833224596574
 30
0.0
 11
7013.1384397823804
 21
848.6384132441292
 31
0.0
  0
LINE
  5
72D2
  8
FUTO
 10
7088.1384397823804
 20
859.32716332765733
 30
0.0
 11
7088.1384397823804
 21
829.32716332765733
 31
0.0
  0
LINE
  5
72D3
  8
1
 10
6996.53843978238
 20
1046.7271633276571
 30
0.0
 11
6996.53843978238
 21
954.02716332765715
 31
0.0
  0
LINE
  5
72D4
  8
1
 10
6994.9384397823787
 20
1046.7271633276559
 30
0.0
 11
6994.9384397823787
 21
954.02716332765715
 31
0.0
  0
LINE
  5
72D5
  8
1
 10
6999.1384397823813
 20
882.92716332765713
 30
0.0
 11
7028.1384397823831
 21
882.92716332765713
 31
0.0
  0
LINE
  5
72D6
  8
1
 10
6996.53843978238
 20
954.02716332765715
 30
0.0
 11
6996.53843978238
 21
883.92716332765701
 31
0.0
  0
ARC
  5
72D7
  8
1
 10
6999.1384397823813
 20
883.92716332765701
 30
0.0
 40
1.0
 50
180.0
 51
270.0
  0
ARC
  5
72D8
  8
1
 10
6999.1384397823813
 20
883.92716332765701
 30
0.0
 40
2.6000000000000001
 50
180.0
 51
270.0
  0
LINE
  5
72D9
  8
1
 10
6994.9384397823787
 20
954.02716332765715
 30
0.0
 11
6996.53843978238
 21
954.02716332765715
 31
0.0
  0
LINE
  5
72DA
  8
1
 10
7028.1384397823804
 20
882.92716332765713
 30
0.0
 11
7028.1384397823831
 21
881.32716332765722
 31
0.0
  0
ARC
  5
72DB
  8
1
 10
6993.9384397823796
 20
1046.7271633276559
 30
0.0
 40
1.0
 50
0.0
 51
90.0
  0
ARC
  5
72DC
  8
1
 10
6993.9384397823796
 20
1046.7271633276571
 30
0.0
 40
2.6000000000000001
 50
0.0
 51
90.0
  0
ARC
  5
72DD
  8
1
 10
6877.1384397823776
 20
1107.3271633276579
 30
0.0
 40
165.0
 50
7.9609047373633324
 51
42.833428066057223
  0
ARC
  5
72DE
  8
1
 10
6877.1384397823776
 20
1107.3271633276579
 30
0.0
 40
154.0
 50
7.9836585559416786
 51
38.213210701757461
  0
LINE
  5
72DF
  8
FUTO
 10
7088.1384397823804
 20
1645.084943898936
 30
0.0
 11
6638.1384397823776
 21
1645.084943898936
 31
0.0
  0
LINE
  5
72E0
  8
FUTO
 10
7088.1384397823804
 20
1615.084943898936
 30
0.0
 11
6638.1384397823776
 21
1615.084943898936
 31
0.0
  0
DIMENSION
  5
72E1
  8
SP
  2
*D57
 10
6638.1384397823776
 20
2185.0849438989362
 30
0.0
 11
6863.1384397823786
 21
2210.0849438989362
 31
0.0
 70
     0
 13
7088.1384397823804
 23
2115.0849438989362
 33
0.0
 14
6638.1384397823776
 24
2115.0849438989362
 34
0.0
 50
180.0
  0
LINE
  5
72E2
  8
FUTO
 10
7088.1384397823804
 20
2085.0849438989362
 30
0.0
 11
6638.1384397823776
 21
2085.0849438989362
 31
0.0
  0
LINE
  5
72E3
  8
FUTO
 10
7088.1384397823804
 20
2115.0849438989362
 30
0.0
 11
6638.1384397823776
 21
2115.0849438989362
 31
0.0
  0
LINE
  5
72E4
  8
FUTO
 10
6638.1384397823776
 20
1645.084943898936
 30
0.0
 11
6638.1384397823776
 21
1615.084943898936
 31
0.0
  0
LINE
  5
72E5
  8
FUTO
 10
6638.1384397823776
 20
2115.0849438989362
 30
0.0
 11
6638.1384397823767
 21
2085.0849438989362
 31
0.0
  0
LINE
  5
72E6
  8
1
  6
CONTINUOUS
 10
6704.738439782378
 20
2031.084943898936
 30
0.0
 11
7021.1384397823786
 21
2031.0849438989369
 31
0.0
  0
LINE
  5
72E7
  8
1
  6
CONTINUOUS
 10
6704.738439782378
 20
2032.084943898936
 30
0.0
 11
7021.1384397823786
 21
2032.084943898936
 31
0.0
  0
LINE
  5
72E8
  8
2
 10
7052.9958648992961
 20
1961.084943898936
 30
0.0
 11
6675.8377989048358
 21
1961.084943898936
 31
0.0
  0
LINE
  5
72E9
  8
FUTO
 10
6746.1384397823786
 20
2038.0849438989351
 30
0.0
 11
6980.1384397823776
 21
2038.0849438989351
 31
0.0
  0
LINE
  5
72EA
  8
FUTO
 10
6998.1384397823786
 20
1708.184943898937
 30
0.0
 11
6938.1384397823786
 21
1708.184943898937
 31
0.0
  0
LINE
  5
72EB
  8
1
  6
CONTINUOUS
 10
6703.1384397823776
 20
1891.084943898936
 30
0.0
 11
7021.1384397823786
 21
1891.084943898936
 31
0.0
  0
LINE
  5
72EC
  8
1
  6
CONTINUOUS
 10
6703.1384397823776
 20
1890.084943898936
 30
0.0
 11
7021.1384397823786
 21
1890.084943898936
 31
0.0
  0
LINE
  5
72ED
  8
FUTO
 10
6728.1384397823776
 20
1884.084943898936
 30
0.0
 11
6998.1384397823786
 21
1884.084943898936
 31
0.0
  0
LINE
  5
72EE
  8
1
  6
CONTINUOUS
 10
6998.1384397823786
 20
1843.084943898936
 30
0.0
 11
6926.3888113388311
 21
1843.084943898936
 31
0.0
  0
LINE
  5
72EF
  8
FUTO
 10
6698.1384397823786
 20
2085.0849438989362
 30
0.0
 11
6698.1384397823786
 21
1645.084943898936
 31
0.0
  0
LINE
  5
72F0
  8
1
  6
CONTINUOUS
 10
6721.1025860713926
 20
2017.084943898936
 30
0.0
 11
6721.1025860713926
 21
1905.084943898936
 31
0.0
  0
LINE
  5
72F1
  8
1
 10
6703.1384397823776
 20
1870.084943898936
 30
0.0
 11
6703.1384397823776
 21
2052.0849438989371
 31
0.0
  0
LINE
  5
72F2
  8
1
 10
6704.738439782378
 20
1870.084943898936
 30
0.0
 11
6704.738439782378
 21
2052.0849438989371
 31
0.0
  0
LINE
  5
72F3
  8
2
 10
6863.1384397823786
 20
2056.6846761492261
 30
0.0
 11
6863.1384397823786
 21
1636.410545137604
 31
0.0
  0
LINE
  5
72F4
  8
1
 10
6926.3888113388311
 20
1853.584943898936
 30
0.0
 11
6799.8880682259241
 21
1853.5849438989369
 31
0.0
  0
LINE
  5
72F5
  8
1
 10
6923.1770702969952
 20
1661.084943898936
 30
0.0
 11
6803.0998092677619
 21
1661.084943898936
 31
0.0
  0
LINE
  5
72F6
  8
1
 10
6938.1384397823786
 20
1696.008034907908
 30
0.0
 11
6793.7502708210732
 21
1696.008034907908
 31
0.0
  0
LINE
  5
72F7
  8
2
 10
6946.8457391809397
 20
1782.084943898936
 30
0.0
 11
6779.4311403838183
 21
1782.084943898936
 31
0.0
  0
LINE
  5
72F8
  8
1
 10
6938.1384397823786
 20
1722.9518180978009
 30
0.0
 11
6793.7502708210732
 21
1722.9518180978009
 31
0.0
  0
LINE
  5
72F9
  8
1
 10
6799.8880682259241
 20
1722.9518180978009
 30
0.0
 11
6799.8880682259241
 21
1853.584943898936
 31
0.0
  0
LINE
  5
72FA
  8
FUTO
 10
6728.1384397823767
 20
1890.084943898936
 30
0.0
 11
6728.1384397823776
 21
1645.084943898936
 31
0.0
  0
LINE
  5
72FB
  8
FUTO
 10
6728.1384397823776
 20
1708.184943898937
 30
0.0
 11
6793.7502708210732
 21
1708.1849438989379
 31
0.0
  0
LINE
  5
72FC
  8
CT
 10
6675.5979193408484
 20
1628.084943898936
 30
0.0
 11
6650.6789602239096
 21
1628.084943898936
 31
0.0
  0
LINE
  5
72FD
  8
CT
 10
6663.1384397823776
 20
1615.625464340467
 30
0.0
 11
6663.1384397823776
 21
1640.5444234574049
 31
0.0
  0
CIRCLE
  5
72FE
  8
FUTO
 10
6663.1384397823776
 20
1628.084943898936
 30
0.0
 40
6.5
  0
LINE
  5
72FF
  8
FUTO
 10
6728.1384397823776
 20
1714.084943898936
 30
0.0
 11
6698.1384397823786
 21
1714.084943898936
 31
0.0
  0
LINE
  5
7300
  8
1
 10
6803.0998092677619
 20
1661.084943898936
 30
0.0
 11
6796.6341166680859
 21
1696.008034907908
 31
0.0
  0
LINE
  5
7301
  8
1
 10
6793.7502708210732
 20
1722.9518180978009
 30
0.0
 11
6793.7502708210732
 21
1696.008034907908
 31
0.0
  0
LINE
  5
7302
  8
1
  6
CONTINUOUS
 10
6799.8880682259251
 20
1843.084943898936
 30
0.0
 11
6730.1384397823776
 21
1843.084943898936
 31
0.0
  0
LINE
  5
7303
  8
1
  6
CONTINUOUS
 10
6706.1025860713917
 20
1890.084943898936
 30
0.0
 11
6721.1025860713926
 21
1905.084943898936
 31
0.0
  0
LINE
  5
7304
  8
FUTO
 10
6728.1384397823776
 20
1884.084943898936
 30
0.0
 11
6698.1384397823786
 21
1884.084943898936
 31
0.0
  0
LINE
  5
7305
  8
2
 10
6704.738439782378
 20
1870.084943898936
 30
0.0
 11
6703.1384397823776
 21
1870.084943898936
 31
0.0
  0
ARC
  5
7306
  8
1
 10
6740.1384397823786
 20
1888.084943898936
 30
0.0
 40
3.0
 50
0.0
 51
41.810314895788572
  0
LINE
  5
7307
  8
1
 10
6743.1384397823786
 20
1888.084943898936
 30
0.0
 11
6743.1384397823786
 21
1887.0849438989369
 31
0.0
  0
ARC
  5
7308
  8
1
 10
6746.1384397823786
 20
1887.0849438989369
 30
0.0
 40
3.0
 50
180.0
 51
270.0
  0
LINE
  5
7309
  8
1
 10
6926.3888113388311
 20
1722.9518180978009
 30
0.0
 11
6926.3888113388311
 21
1853.584943898936
 31
0.0
  0
LINE
  5
730A
  8
1
 10
6923.1770702969952
 20
1661.084943898936
 30
0.0
 11
6934.4920323464248
 21
1696.008034907908
 31
0.0
  0
POINT
  5
730B
  8
1
 10
6923.1770702969952
 20
1661.084943898936
 30
0.0
  0
LINE
  5
730C
  8
1
 10
6938.1384397823786
 20
1696.008034907908
 30
0.0
 11
6938.1384397823786
 21
1722.9518180978009
 31
0.0
  0
LINE
  5
730D
  8
FUTO
 10
6883.1384397823776
 20
1872.084943898936
 30
0.0
 11
6843.1384397823786
 21
1872.084943898936
 31
0.0
  0
LINE
  5
730E
  8
1
 10
6874.5530598721216
 20
1858.584943898936
 30
0.0
 11
6851.7238196926337
 21
1858.584943898936
 31
0.0
  0
LINE
  5
730F
  8
1
 10
6854.1384397823786
 20
1858.584943898936
 30
0.0
 11
6854.1384397823786
 21
1872.084943898936
 31
0.0
  0
LINE
  5
7310
  8
1
 10
6851.7238196926337
 20
1853.584943898936
 30
0.0
 11
6851.7238196926337
 21
1858.584943898936
 31
0.0
  0
LINE
  5
7311
  8
FUTO
 10
6843.1384397823786
 20
1884.084943898936
 30
0.0
 11
6843.1384397823786
 21
1872.084943898936
 31
0.0
  0
LINE
  5
7312
  8
1
 10
6872.1384397823786
 20
1858.584943898936
 30
0.0
 11
6872.1384397823786
 21
1872.084943898936
 31
0.0
  0
LINE
  5
7313
  8
1
 10
6874.5530598721216
 20
1853.584943898936
 30
0.0
 11
6874.5530598721216
 21
1858.584943898936
 31
0.0
  0
LINE
  5
7314
  8
FUTO
 10
6883.1384397823776
 20
1884.084943898936
 30
0.0
 11
6883.1384397823776
 21
1872.084943898936
 31
0.0
  0
LINE
  5
7315
  8
CT
 10
6675.5979193408484
 20
2102.0849438989362
 30
0.0
 11
6650.6789602239096
 21
2102.0849438989362
 31
0.0
  0
LINE
  5
7316
  8
CT
 10
6663.1384397823776
 20
2114.5444234574052
 30
0.0
 11
6663.1384397823776
 21
2089.6254643404668
 31
0.0
  0
CIRCLE
  5
7317
  8
FUTO
 10
6663.1384397823776
 20
2102.0849438989362
 30
0.0
 40
6.5
  0
LINE
  5
7318
  8
FUTO
 10
6728.1384397823776
 20
2085.0849438989362
 30
0.0
 11
6728.1384397823767
 21
2032.084943898936
 31
0.0
  0
LINE
  5
7319
  8
1
  6
CONTINUOUS
 10
6706.1025860713917
 20
2032.084943898936
 30
0.0
 11
6721.1025860713926
 21
2017.084943898936
 31
0.0
  0
LINE
  5
731A
  8
2
 10
6704.738439782378
 20
2052.0849438989362
 30
0.0
 11
6703.1384397823776
 21
2052.0849438989371
 31
0.0
  0
ARC
  5
731B
  8
1
 10
6746.1384397823786
 20
2035.0849438989351
 30
0.0
 40
3.0
 50
90.0
 51
180.0
  0
LINE
  5
731C
  8
1
 10
6743.1384397823786
 20
2034.084943898936
 30
0.0
 11
6743.1384397823786
 21
2035.0849438989351
 31
0.0
  0
ARC
  5
731D
  8
1
 10
6740.1384397823786
 20
2034.084943898936
 30
0.0
 40
3.0
 50
318.18968510421138
 51
0.0
  0
DIMENSION
  5
731E
  8
SP
  2
*D58
 10
7178.8498561150391
 20
2115.0849438989349
 30
0.0
 11
7153.8498561150373
 21
2038.0849438989369
 31
0.0
 70
     0
 13
7052.9958648992961
 23
1961.084943898936
 33
0.0
 14
7088.1384397823804
 24
2115.0849438989362
 34
0.0
 50
90.0
  0
LINE
  5
731F
  8
FUTO
 10
7031.1384397823776
 20
2021.084943898936
 30
0.0
 11
7031.1384397823776
 21
1901.084943898936
 31
0.0
  0
LINE
  5
7320
  8
FUTO
 10
7032.1384397823786
 20
2021.084943898936
 30
0.0
 11
7032.1384397823786
 21
1901.084943898936
 31
0.0
  0
DIMENSION
  5
7321
  8
SP
  2
*D59
 10
7267.5250622479334
 20
1615.084943898936
 30
0.0
 11
7242.5250622479343
 21
1865.0849438989369
 31
0.0
 70
     0
 13
7088.1384397823804
 23
2115.0849438989362
 33
0.0
 14
7088.1384397823804
 24
1615.084943898936
 34
0.0
 50
90.0
  0
DIMENSION
  5
7322
  8
SP
  2
*D60
 10
7178.8498561150391
 20
1615.084943898936
 30
0.0
 11
7153.8498561150391
 21
1788.0849438989369
 31
0.0
 70
     0
 13
7052.9958648992961
 23
1961.084943898936
 33
0.0
 14
7088.1384397823804
 24
1615.084943898936
 34
0.0
 50
90.0
  0
LINE
  5
7323
  8
FUTO
 10
7028.1384397823776
 20
1892.599662524698
 30
0.0
 11
7028.1384397823776
 21
1645.084943898936
 31
0.0
  0
LINE
  5
7324
  8
FUTO
 10
6998.1384397823786
 20
1890.084943898936
 30
0.0
 11
6998.1384397823786
 21
1645.084943898936
 31
0.0
  0
CIRCLE
  5
7325
  8
FUTO
 10
7063.1384397823786
 20
1628.084943898936
 30
0.0
 40
6.5
  0
LINE
  5
7326
  8
CT
 10
7075.5979193408484
 20
1628.084943898936
 30
0.0
 11
7050.6789602239087
 21
1628.084943898936
 31
0.0
  0
LINE
  5
7327
  8
FUTO
 10
6998.1384397823786
 20
1714.084943898936
 30
0.0
 11
7028.1384397823776
 21
1714.084943898936
 31
0.0
  0
LINE
  5
7328
  8
CT
 10
7063.1384397823786
 20
1615.625464340467
 30
0.0
 11
7063.1384397823786
 21
1640.5444234574049
 31
0.0
  0
LINE
  5
7329
  8
FUTO
 10
7088.1384397823804
 20
1645.084943898936
 30
0.0
 11
7088.1384397823804
 21
1615.084943898936
 31
0.0
  0
ARC
  5
732A
  8
FUTO
 10
7021.1384397823786
 20
1901.084943898936
 30
0.0
 40
10.0
 50
270.0
 51
0.0
  0
ARC
  5
732B
  8
FUTO
 10
7021.1384397823786
 20
1901.084943898936
 30
0.0
 40
11.0
 50
270.0
 51
0.0
  0
LINE
  5
732C
  8
FUTO
 10
6998.1384397823786
 20
1884.084943898936
 30
0.0
 11
7028.1384397823776
 21
1884.084943898936
 31
0.0
  0
LINE
  5
732D
  8
1
 10
6983.1384397823776
 20
1888.084943898936
 30
0.0
 11
6983.1384397823776
 21
1887.0849438989369
 31
0.0
  0
ARC
  5
732E
  8
1
 10
6986.1384397823776
 20
1888.084943898936
 30
0.0
 40
3.0
 50
138.18968510421141
 51
180.0
  0
ARC
  5
732F
  8
1
 10
6980.1384397823776
 20
1887.0849438989369
 30
0.0
 40
3.0
 50
270.0
 51
0.0
  0
LINE
  5
7330
  8
CT
 10
7075.5979193408484
 20
2102.0849438989362
 30
0.0
 11
7050.6789602239087
 21
2102.0849438989362
 31
0.0
  0
CIRCLE
  5
7331
  8
FUTO
 10
7063.1384397823786
 20
2102.0849438989362
 30
0.0
 40
6.5
  0
LINE
  5
7332
  8
FUTO
 10
6998.1384397823804
 20
2085.0849438989362
 30
0.0
 11
6998.1384397823804
 21
2032.084943898936
 31
0.0
  0
ARC
  5
7333
  8
1
 10
6980.1384397823776
 20
2035.0849438989351
 30
0.0
 40
3.0
 50
0.0
 51
90.0
  0
ARC
  5
7334
  8
1
 10
6986.1384397823776
 20
2034.084943898936
 30
0.0
 40
3.0
 50
180.0
 51
221.81031489578851
  0
LINE
  5
7335
  8
1
 10
6983.1384397823776
 20
2034.084943898936
 30
0.0
 11
6983.1384397823776
 21
2035.0849438989351
 31
0.0
  0
LINE
  5
7336
  8
FUTO
 10
7028.1384397823776
 20
2085.0849438989362
 30
0.0
 11
7028.1384397823776
 21
2029.5702252731739
 31
0.0
  0
ARC
  5
7337
  8
FUTO
 10
7021.1384397823786
 20
2021.084943898936
 30
0.0
 40
10.0
 50
0.0
 51
90.0
  0
ARC
  5
7338
  8
FUTO
 10
7021.1384397823786
 20
2021.084943898936
 30
0.0
 40
11.0
 50
0.0
 51
90.0
  0
LINE
  5
7339
  8
CT
 10
7063.1384397823786
 20
2114.5444234574052
 30
0.0
 11
7063.1384397823786
 21
2089.6254643404668
 31
0.0
  0
LINE
  5
733A
  8
FUTO
 10
7088.1384397823804
 20
2115.0849438989362
 30
0.0
 11
7088.1384397823804
 21
2085.0849438989362
 31
0.0
  0
DIMENSION
  5
733B
  8
3
  2
*D61
 10
7989.3236759273277
 20
1021.327163327657
 30
0.0
 11
7964.3236759273277
 21
1121.3271633276579
 31
0.0
 70
     0
  1
%%c<>
 13
7842.4701111594322
 23
1221.327163327657
 33
0.0
 14
7842.4701111594322
 24
1021.327163327657
 34
0.0
 50
90.0
  0
DIMENSION
  5
733C
  8
SP
  2
*D62
 10
7419.4701111594313
 20
759.32716332765733
 30
0.0
 11
7592.4701111594322
 21
784.32716332765733
 31
0.0
 70
     0
 13
7765.4701111594322
 23
886.68074380331291
 33
0.0
 14
7419.4701111594313
 24
859.32716332765733
 34
0.0
  0
DIMENSION
  5
733D
  8
SP
  2
*D63
 10
7919.4701111594313
 20
689.32716332765733
 30
0.0
 11
7669.4701111594313
 21
714.32716332765733
 31
0.0
 70
     0
 13
7419.4701111594313
 23
859.32716332765733
 33
0.0
 14
7919.4701111594313
 24
859.32716332765733
 34
0.0
  0
LINE
  5
733E
  8
FUTO
 10
7449.4701111594313
 20
829.32716332765744
 30
0.0
 11
7889.4701111594322
 21
829.32716332765744
 31
0.0
  0
LINE
  5
733F
  8
FUTO
 10
7449.4701111594313
 20
859.32716332765733
 30
0.0
 11
7889.4701111594322
 21
859.32716332765733
 31
0.0
  0
DIMENSION
  5
7340
  8
SP
  2
*D64
 10
7465.4701111594331
 20
1402.327163327657
 30
0.0
 11
7615.4701111594331
 21
1427.327163327657
 31
0.0
 70
     0
 13
7765.4701111594341
 23
1365.942125848642
 33
0.0
 14
7465.4701111594331
 24
1181.3657938422739
 34
0.0
  0
LINE
  5
7341
  8
1
 10
7645.1701111594339
 20
1141.3271633276579
 30
0.0
 11
7518.470111159435
 21
882.92716332765781
 31
0.0
  0
LINE
  5
7342
  8
1
 10
7718.4701111594331
 20
881.3271633276579
 30
0.0
 11
7518.470111159435
 21
881.3271633276579
 31
0.0
  0
LINE
  5
7343
  8
1
 10
7686.8701111594328
 20
882.92716332765758
 30
0.0
 11
7518.470111159435
 21
882.92716332765781
 31
0.0
  0
LINE
  5
7344
  8
1
 10
7527.3369853582981
 20
1184.5775348841109
 30
0.0
 11
7657.9701111594331
 21
1184.5775348841109
 31
0.0
  0
LINE
  5
7345
  8
2
 10
7894.7667482929319
 20
1121.3271633276579
 30
0.0
 11
7434.0243007298013
 21
1121.327163327657
 31
0.0
  0
LINE
  5
7346
  8
SL
 10
7432.4701111594341
 20
843.52005446054181
 30
0.0
 11
7432.4701111594341
 21
1175.7051021459249
 31
0.0
  0
LINE
  5
7347
  8
1
 10
7465.4701111594331
 20
1181.3657938422739
 30
0.0
 11
7465.4701111594331
 21
1061.2885328130401
 31
0.0
  0
LINE
  5
7348
  8
1
 10
7527.3369853582981
 20
1196.327163327657
 30
0.0
 11
7527.3369853582981
 21
1051.9389943663521
 31
0.0
  0
LINE
  5
7349
  8
1
 10
7500.393202168405
 20
1196.327163327657
 30
0.0
 11
7500.393202168405
 21
1051.9389943663521
 31
0.0
  0
LINE
  5
734A
  8
2
 10
7586.4701111594331
 20
1209.618317374189
 30
0.0
 11
7586.4701111594331
 21
1042.2037185770689
 31
0.0
  0
LINE
  5
734B
  8
1
 10
7465.4701111594331
 20
1061.2885328130401
 30
0.0
 11
7500.393202168405
 21
1054.8228402133659
 31
0.0
  0
LINE
  5
734C
  8
FUTO
 10
7449.4701111594313
 20
859.32716332765733
 30
0.0
 11
7419.4701111594313
 21
859.32716332765733
 31
0.0
  0
LINE
  5
734D
  8
FUTO
 10
7442.4701111594322
 20
856.32716332765744
 30
0.0
 11
7421.4701111594313
 21
856.32716332765744
 31
0.0
  0
LINE
  5
734E
  8
FUTO
 10
7419.4701111594313
 20
859.32716332765733
 30
0.0
 11
7419.4701111594313
 21
858.32716332765744
 31
0.0
  0
ARC
  5
734F
  8
FUTO
 10
7421.4701111594313
 20
858.32716332765744
 30
0.0
 40
2.0
 50
180.0
 51
270.0
  0
ARC
  5
7350
  8
FUTO
 10
7442.4701111594322
 20
852.32716332765744
 30
0.0
 40
4.0
 50
0.0
 51
90.0
  0
LINE
  5
7351
  8
FUTO
 10
7449.4701111594313
 20
829.32716332765744
 30
0.0
 11
7448.4701111594322
 21
829.32716332765744
 31
0.0
  0
ARC
  5
7352
  8
FUTO
 10
7448.4701111594322
 20
831.32716332765744
 30
0.0
 40
2.0
 50
180.0
 51
270.0
  0
LINE
  5
7353
  8
FUTO
 10
7449.4701111594313
 20
859.32716332765733
 30
0.0
 11
7449.4701111594313
 21
829.32716332765744
 31
0.0
  0
LINE
  5
7354
  8
FUTO
 10
7446.4701111594313
 20
852.32716332765744
 30
0.0
 11
7446.4701111594313
 21
831.32716332765744
 31
0.0
  0
LINE
  5
7355
  8
1
 10
7531.4701111594331
 20
1058.9190034228191
 30
0.0
 11
7559.413746629265
 21
1058.9190034228191
 31
0.0
  0
LINE
  5
7356
  8
1
 10
7556.4701111594331
 20
1050.327163327657
 30
0.0
 11
7531.4701111594331
 21
1050.327163327657
 31
0.0
  0
LINE
  5
7357
  8
1
 10
7519.5701111594326
 20
1049.327163327657
 30
0.0
 11
7555.4017884228469
 21
972.41818037262715
 31
0.0
  0
LINE
  5
7358
  8
1
 10
7517.955840435402
 20
1047.7271633276571
 30
0.0
 11
7596.6017778261012
 21
1047.7271633276571
 31
0.0
  0
LINE
  5
7359
  8
1
 10
7597.1296944927672
 20
1050.327163327657
 30
0.0
 11
7531.4701111594331
 21
1050.327163327657
 31
0.0
  0
LINE
  5
735A
  8
1
 10
7515.1701111594339
 20
1049.327163327657
 30
0.0
 11
7596.6017778261012
 21
1049.327163327657
 31
0.0
  0
LINE
  5
735B
  8
1
 10
7518.470111159435
 20
882.92716332765781
 30
0.0
 11
7518.470111159435
 21
881.3271633276579
 31
0.0
  0
LINE
  5
735C
  8
1
 10
7527.3369853582981
 20
1051.9389943663521
 30
0.0
 11
7500.393202168405
 21
1051.9389943663521
 31
0.0
  0
LINE
  5
735D
  8
1
 10
7514.1701111594339
 20
1046.727163327658
 30
0.0
 11
7514.1701111594339
 21
1030.9271633276569
 31
0.0
  0
LINE
  5
735E
  8
1
 10
7512.5701111594326
 20
1046.727163327658
 30
0.0
 11
7512.5701111594326
 21
1030.9271633276569
 31
0.0
  0
LINE
  5
735F
  8
1
 10
7512.5701111594326
 20
1030.9271633276569
 30
0.0
 11
7514.1701111594339
 21
1030.9271633276569
 31
0.0
  0
ARC
  5
7360
  8
1
 10
7515.1701111594339
 20
1046.727163327658
 30
0.0
 40
1.0
 50
90.0
 51
180.0
  0
LINE
  5
7361
  8
1
 10
7515.1701111594339
 20
1047.7271633276571
 30
0.0
 11
7517.955840435402
 21
1047.7271633276571
 31
0.0
  0
ARC
  5
7362
  8
1
 10
7515.1701111594339
 20
1046.727163327658
 30
0.0
 40
2.6000000000000001
 50
90.0
 51
180.0
  0
LINE
  5
7363
  8
1
 10
7531.4701111594331
 20
1058.9190034228191
 30
0.0
 11
7531.4701111594322
 21
1049.327163327657
 31
0.0
  0
LINE
  5
7364
  8
1
 10
7527.3369853582981
 20
1055.3766303730431
 30
0.0
 11
7531.4701111594331
 21
1055.3766303730431
 31
0.0
  0
LINE
  5
7365
  8
CT
 10
7541.4701111594331
 20
1062.629429289678
 30
0.0
 11
7541.4701111594331
 21
1042.2037185770689
 31
0.0
  0
LINE
  5
7366
  8
1
 10
7563.2337075703417
 20
1070.0686494682809
 30
0.0
 11
7607.5515540511724
 21
1070.0686494682809
 31
0.0
  0
LINE
  5
7367
  8
1
 10
7557.8215718053898
 20
1054.271786866803
 30
0.0
 11
7599.2121270028074
 21
1054.271786866803
 31
0.0
  0
LINE
  5
7368
  8
1
 10
7563.2337075703417
 20
1070.0686494682809
 30
0.0
 11
7556.4701111594331
 21
1050.327163327657
 31
0.0
  0
LINE
  5
7369
  8
1
 10
7607.5515540511724
 20
1070.0686494682809
 30
0.0
 11
7609.7065147485246
 21
1070.0686494682809
 31
0.0
  0
LINE
  5
736A
  8
1
 10
7609.7065147485246
 20
1070.0686494682809
 30
0.0
 11
7609.9219515994664
 21
1069.4398355431611
 31
0.0
  0
LINE
  5
736B
  8
1
 10
7599.2121270028074
 20
1054.271786866803
 30
0.0
 11
7602.4846769582327
 21
1054.271786866803
 31
0.0
  0
LINE
  5
736C
  8
1
 10
7600.5505291160898
 20
1050.327163327657
 30
0.0
 11
7597.1296944927672
 21
1050.327163327657
 31
0.0
  0
LINE
  5
736D
  8
1
 10
7596.6017778261012
 20
1047.7271633276571
 30
0.0
 11
7599.2756839148506
 21
1047.7271633276571
 31
0.0
  0
LINE
  5
736E
  8
1
 10
7596.6017778261012
 20
1049.327163327657
 30
0.0
 11
7600.0602040386902
 21
1049.327163327657
 31
0.0
  0
LINE
  5
736F
  8
1
 10
7465.4701111594331
 20
1181.3657938422739
 30
0.0
 11
7500.393202168405
 21
1192.6807558917051
 31
0.0
  0
POINT
  5
7370
  8
1
 10
7465.4701111594331
 20
1181.3657938422739
 30
0.0
  0
LINE
  5
7371
  8
1
 10
7500.393202168405
 20
1196.327163327657
 30
0.0
 11
7527.3369853582981
 21
1196.327163327657
 31
0.0
  0
LINE
  5
7372
  8
SL
 10
7906.4701111594331
 20
843.52005446054181
 30
0.0
 11
7906.4701111594331
 21
1175.7051021459249
 31
0.0
  0
LINE
  5
7373
  8
1
  6
CONTINUOUS
 10
7694.4701111594322
 20
1251.327163327657
 30
0.0
 11
7694.4701111594322
 21
920.32716332765824
 31
0.0
  0
LINE
  5
7374
  8
1
 10
7688.4701111594341
 20
1246.3271633276579
 30
0.0
 11
7688.4701111594341
 21
881.32716332765779
 31
0.0
  0
LINE
  5
7375
  8
1
 10
7686.8701111594328
 20
1246.3271633276579
 30
0.0
 11
7686.8701111594328
 21
881.3271633276579
 31
0.0
  0
LINE
  5
7376
  8
1
 10
7842.4701111594322
 20
1004.327163327658
 30
0.0
 11
7842.4701111594322
 21
1238.327163327657
 31
0.0
  0
LINE
  5
7377
  8
FUTO
 10
7856.4701111594331
 20
925.3271633276579
 30
0.0
 11
7856.4701111594331
 21
1117.327163327657
 31
0.0
  0
LINE
  5
7378
  8
1
  6
CONTINUOUS
 10
7695.4701111594331
 20
1251.327163327657
 30
0.0
 11
7695.4701111594331
 21
920.32716332765824
 31
0.0
  0
LINE
  5
7379
  8
1
  6
CONTINUOUS
 10
7835.4701111594341
 20
920.32716332765824
 30
0.0
 11
7835.4701111594341
 21
1251.327163327657
 31
0.0
  0
LINE
  5
737A
  8
1
  6
CONTINUOUS
 10
7836.4701111594331
 20
920.32716332765824
 30
0.0
 11
7836.4701111594331
 21
1251.327163327657
 31
0.0
  0
LINE
  5
737B
  8
2
 10
7765.4701111594322
 20
886.68074380331291
 30
0.0
 11
7765.4701111594341
 21
1311.5013843998449
 31
0.0
  0
DIMENSION
  5
737C
  8
SP
  2
*D65
 10
7919.4701111594313
 20
759.32716332765733
 30
0.0
 11
7842.4701111594322
 21
784.32716332765733
 31
0.0
 70
     0
 13
7765.4701111594322
 23
886.68074380331291
 33
0.0
 14
7919.4701111594313
 24
859.32716332765733
 34
0.0
  0
LINE
  5
737D
  8
FUTO
 10
7825.4701111594322
 20
909.32716332765813
 30
0.0
 11
7705.4701111594322
 21
909.32716332765813
 31
0.0
  0
LINE
  5
737E
  8
FUTO
 10
7825.4701111594322
 20
910.32716332765801
 30
0.0
 11
7705.4701111594322
 21
910.32716332765801
 31
0.0
  0
LINE
  5
737F
  8
FUTO
 10
7699.4701111594341
 20
900.3271633276579
 30
0.0
 11
7831.4701111594331
 21
900.3271633276579
 31
0.0
  0
LINE
  5
7380
  8
1
 10
7718.4701111594331
 20
882.92716332765781
 30
0.0
 11
7690.0701111594326
 21
882.92716332765781
 31
0.0
  0
LINE
  5
7381
  8
1
 10
7718.4701111594331
 20
882.92716332765781
 30
0.0
 11
7688.4701111594341
 21
882.92716332765781
 31
0.0
  0
ARC
  5
7382
  8
FUTO
 10
7705.4701111594322
 20
920.32716332765824
 30
0.0
 40
11.0
 50
180.0
 51
270.0
  0
ARC
  5
7383
  8
FUTO
 10
7705.4701111594322
 20
920.32716332765824
 30
0.0
 40
10.0
 50
180.0
 51
270.0
  0
ARC
  5
7384
  8
FUTO
 10
7699.4701111594313
 20
925.32716332765824
 30
0.0
 40
25.0
 50
243.89611886263421
 51
270.0
  0
ARC
  5
7385
  8
1
 10
7692.4701111594322
 20
998.32716332765835
 30
0.0
 40
3.0
 50
48.189685104244909
 51
90.0
  0
LINE
  5
7386
  8
1
 10
7692.4701111594331
 20
1001.327163327657
 30
0.0
 11
7691.4701111594341
 21
1001.327163327658
 31
0.0
  0
ARC
  5
7387
  8
1
 10
7691.4701111594341
 20
1004.327163327659
 30
0.0
 40
3.0
 50
180.0
 51
270.0
  0
POINT
  5
7388
  8
1
 10
7688.4701111594341
 20
1004.327163327658
 30
0.0
  0
LINE
  5
7389
  8
1
 10
7718.4701111594331
 20
882.92716332765781
 30
0.0
 11
7718.4701111594331
 21
881.3271633276579
 31
0.0
  0
LINE
  5
738A
  8
FUTO
 10
7889.4701111594322
 20
859.32716332765733
 30
0.0
 11
7919.4701111594313
 21
859.32716332765733
 31
0.0
  0
LINE
  5
738B
  8
FUTO
 10
7896.4701111594304
 20
856.32716332765744
 30
0.0
 11
7917.4701111594313
 21
856.32716332765744
 31
0.0
  0
LINE
  5
738C
  8
FUTO
 10
7889.4701111594322
 20
859.32716332765733
 30
0.0
 11
7889.4701111594322
 21
829.3271633276571
 31
0.0
  0
ARC
  5
738D
  8
FUTO
 10
7896.4701111594304
 20
852.32716332765744
 30
0.0
 40
4.0
 50
90.0
 51
180.0
  0
LINE
  5
738E
  8
FUTO
 10
7889.4701111594322
 20
829.32716332765744
 30
0.0
 11
7890.4701111594322
 21
829.32716332765744
 31
0.0
  0
ARC
  5
738F
  8
FUTO
 10
7890.4701111594322
 20
831.32716332765744
 30
0.0
 40
2.0
 50
270.0
 51
0.0
  0
LINE
  5
7390
  8
FUTO
 10
7892.4701111594322
 20
852.32716332765744
 30
0.0
 11
7892.4701111594322
 21
831.32716332765744
 31
0.0
  0
LINE
  5
7391
  8
FUTO
 10
7919.4701111594313
 20
859.32716332765733
 30
0.0
 11
7919.4701111594313
 21
858.32716332765744
 31
0.0
  0
ARC
  5
7392
  8
FUTO
 10
7917.4701111594313
 20
858.32716332765744
 30
0.0
 40
2.0
 50
270.0
 51
0.0
  0
ARC
  5
7393
  8
FUTO
 10
7831.4701111594322
 20
925.32716332765926
 30
0.0
 40
25.0
 50
270.0
 51
0.0
  0
ARC
  5
7394
  8
FUTO
 10
7825.4701111594322
 20
920.32716332765824
 30
0.0
 40
11.0
 50
270.0
 51
0.0
  0
ARC
  5
7395
  8
FUTO
 10
7825.4701111594322
 20
920.32716332765824
 30
0.0
 40
10.0
 50
270.0
 51
0.0
  0
LINE
  5
7396
  8
FUTO
 10
7835.4701111594341
 20
1021.327163327657
 30
0.0
 11
7842.4701111594322
 21
1021.327163327657
 31
0.0
  0
ARC
  5
7397
  8
FUTO
 10
7839.4701111594322
 20
1004.327163327659
 30
0.0
 40
3.0
 50
270.0
 51
0.0
  0
LINE
  5
7398
  8
FUTO
 10
7838.4701111594341
 20
1001.327163327657
 30
0.0
 11
7839.4701111594331
 21
1001.327163327658
 31
0.0
  0
ARC
  5
7399
  8
FUTO
 10
7838.4701111594313
 20
998.32716332765835
 30
0.0
 40
3.0
 50
90.0
 51
131.81031489575511
  0
POINT
  5
739A
  8
FUTO
 10
7842.4701111594331
 20
1004.327163327658
 30
0.0
  0
DIMENSION
  5
739B
  8
SP
  2
*D66
 10
7842.4701111594322
 20
1402.327163327657
 30
0.0
 11
7803.9701111594331
 21
1427.327163327657
 31
0.0
 70
     0
 13
7765.4701111594341
 23
1365.942125848642
 33
0.0
 14
7842.4701111594322
 24
1238.327163327659
 34
0.0
  0
DIMENSION
  5
739C
  8
SP
  2
*D67
 10
7835.4701111594304
 20
1332.327163327657
 30
0.0
 11
7765.4701111594322
 21
1357.327163327657
 31
0.0
 70
     0
 13
7695.4701111594331
 23
1251.3271633276579
 33
0.0
 14
7835.4701111594304
 24
1251.3271633276579
 34
0.0
  0
LINE
  5
739D
  8
FUTO
 10
7705.4701111594322
 20
1262.327163327657
 30
0.0
 11
7825.4701111594322
 21
1262.327163327657
 31
0.0
  0
LINE
  5
739E
  8
FUTO
 10
7705.4701111594322
 20
1261.327163327657
 30
0.0
 11
7825.4701111594322
 21
1261.327163327657
 31
0.0
  0
LINE
  5
739F
  8
1
  6
CONTINUOUS
 10
7694.4701111594322
 20
1251.327163327657
 30
0.0
 11
7694.4701111594322
 21
1141.822060755489
 31
0.0
  0
LINE
  5
73A0
  8
1
 10
7645.1701111594339
 20
1141.3271633276579
 30
0.0
 11
7688.4701111594341
 21
1188.1271633276581
 31
0.0
  0
LINE
  5
73A1
  8
1
 10
7657.9701111594331
 20
1184.5775348841109
 30
0.0
 11
7657.9701111594331
 21
1155.161805359988
 31
0.0
  0
ARC
  5
73A2
  8
FUTO
 10
7705.4701111594313
 20
1251.3271633276579
 30
0.0
 40
11.0
 50
90.0
 51
180.0
  0
ARC
  5
73A3
  8
FUTO
 10
7705.4701111594313
 20
1251.3271633276579
 30
0.0
 40
10.0
 50
90.0
 51
180.0
  0
LINE
  5
73A4
  8
FUTO
 10
7688.4701111594341
 20
1246.3271633276579
 30
0.0
 11
7686.8701111594328
 21
1246.3271633276579
 31
0.0
  0
ARC
  5
73A5
  8
FUTO
 10
7692.4701111594322
 20
1244.327163327659
 30
0.0
 40
3.0
 50
270.0
 51
311.81031489575071
  0
LINE
  5
73A6
  8
FUTO
 10
7692.4701111594331
 20
1241.327163327657
 30
0.0
 11
7691.4701111594359
 21
1241.327163327657
 31
0.0
  0
ARC
  5
73A7
  8
FUTO
 10
7691.4701111594341
 20
1238.327163327659
 30
0.0
 40
3.0
 50
90.0
 51
180.0
  0
ARC
  5
73A8
  8
FUTO
 10
7831.4701111594322
 20
1117.3271633276579
 30
0.0
 40
25.0
 50
0.0
 51
63.896118862634268
  0
LINE
  5
73A9
  8
FUTO
 10
7835.4701111594341
 20
1221.327163327657
 30
0.0
 11
7842.4701111594322
 21
1221.327163327657
 31
0.0
  0
ARC
  5
73AA
  8
1
 10
7839.4701111594322
 20
1238.327163327659
 30
0.0
 40
3.0
 50
0.0
 51
90.0
  0
ARC
  5
73AB
  8
FUTO
 10
7825.4701111594322
 20
1251.3271633276579
 30
0.0
 40
11.0
 50
0.0
 51
90.0
  0
ARC
  5
73AC
  8
FUTO
 10
7825.4701111594322
 20
1251.3271633276579
 30
0.0
 40
10.0
 50
0.0
 51
90.0
  0
LINE
  5
73AD
  8
1
 10
7838.4701111594341
 20
1241.327163327657
 30
0.0
 11
7839.4701111594331
 21
1241.327163327657
 31
0.0
  0
ARC
  5
73AE
  8
1
 10
7838.4701111594313
 20
1244.327163327659
 30
0.0
 40
3.0
 50
228.18968510424921
 51
270.0
  0
ENDSEC
  0
EOF
