  0
SECTION
  2
HEADER
  9
$ACADVER
  1
AC1009
  9
$INSBASE
 10
0.0
 20
0.0
 30
0.0
  9
$EXTMIN
 10
-3596.233098944816
 20
0.0000009706882338
 30
0.0
  9
$EXTMAX
 10
-1496.233098944816
 20
2950.0000009706878
 30
0.0
  9
$LIMMIN
 10
0.0
 20
0.0
  9
$LIMMAX
 10
297.0
 20
210.0
  9
$ORTHOMODE
 70
     0
  9
$REGENMODE
 70
     1
  9
$FILLMODE
 70
     1
  9
$QTEXTMODE
 70
     0
  9
$MIRRTEXT
 70
     0
  9
$DRAGMODE
 70
     2
  9
$LTSCALE
 40
50.0
  9
$OSMODE
 70
   545
  9
$ATTMODE
 70
     1
  9
$TEXTSIZE
 40
3.5
  9
$TRACEWID
 40
0.05
  9
$TEXTSTYLE
  7
STANDARD
  9
$CLAYER
  8
SP
  9
$CELTYPE
  6
BYLAYER
  9
$CECOLOR
 62
   256
  9
$DIMSCALE
 40
10.0
  9
$DIMASZ
 40
2.5
  9
$DIMEXO
 40
1.0
  9
$DIMDLI
 40
7.0
  9
$DIMRND
 40
0.0
  9
$DIMDLE
 40
0.0
  9
$DIMEXE
 40
1.0
  9
$DIMTP
 40
0.0
  9
$DIMTM
 40
0.0
  9
$DIMTXT
 40
3.0
  9
$DIMCEN
 40
0.0
  9
$DIMTSZ
 40
0.0
  9
$DIMTOL
 70
     0
  9
$DIMLIM
 70
     0
  9
$DIMTIH
 70
     0
  9
$DIMTOH
 70
     0
  9
$DIMSE1
 70
     0
  9
$DIMSE2
 70
     0
  9
$DIMTAD
 70
     1
  9
$DIMZIN
 70
     8
  9
$DIMBLK
  1

  9
$DIMASO
 70
     1
  9
$DIMSHO
 70
     1
  9
$DIMPOST
  1

  9
$DIMAPOST
  1

  9
$DIMALT
 70
     0
  9
$DIMALTD
 70
     2
  9
$DIMALTF
 40
0.03937
  9
$DIMLFAC
 40
1.0
  9
$DIMTOFL
 70
     1
  9
$DIMTVP
 40
0.0
  9
$DIMTIX
 70
     0
  9
$DIMSOXD
 70
     0
  9
$DIMSAH
 70
     1
  9
$DIMBLK1
  1
OPEN
  9
$DIMBLK2
  1
OPEN
  9
$DIMSTYLE
  2
GOD
  9
$DIMCLRD
 70
   256
  9
$DIMCLRE
 70
   256
  9
$DIMCLRT
 70
   256
  9
$DIMTFAC
 40
1.0
  9
$DIMGAP
 40
1.0
  9
$LUNITS
 70
     2
  9
$LUPREC
 70
     3
  9
$SKETCHINC
 40
0.1
  9
$FILLETRAD
 40
0.0
  9
$AUNITS
 70
     0
  9
$AUPREC
 70
     2
  9
$MENU
  1
acad
  9
$ELEVATION
 40
0.0
  9
$PELEVATION
 40
0.0
  9
$THICKNESS
 40
0.0
  9
$LIMCHECK
 70
     0
  9
$BLIPMODE
 70
     0
  9
$CHAMFERA
 40
0.0
  9
$CHAMFERB
 40
0.0
  9
$SKPOLY
 70
     0
  9
$TDCREATE
 40
2454939.5747812148
  9
$TDUPDATE
 40
2454953.8299958329
  9
$TDINDWG
 40
0.105802662
  9
$TDUSRTIMER
 40
0.105802662
  9
$USRTIMER
 70
     1
  9
$ANGBASE
 50
0.0
  9
$ANGDIR
 70
     0
  9
$PDMODE
 70
     0
  9
$PDSIZE
 40
1.0
  9
$PLINEWID
 40
0.0
  9
$COORDS
 70
     2
  9
$SPLFRAME
 70
     0
  9
$SPLINETYPE
 70
     6
  9
$SPLINESEGS
 70
     8
  9
$ATTDIA
 70
     0
  9
$ATTREQ
 70
     1
  9
$HANDLING
 70
 22529
  9
$HANDSEED
  5
6F29
  9
$SURFTAB1
 70
     6
  9
$SURFTAB2
 70
     6
  9
$SURFTYPE
 70
     6
  9
$SURFU
 70
     6
  9
$SURFV
 70
     6
  9
$UCSNAME
  2

  9
$UCSORG
 10
0.0
 20
0.0
 30
0.0
  9
$UCSXDIR
 10
1.0
 20
0.0
 30
0.0
  9
$UCSYDIR
 10
0.0
 20
1.0
 30
0.0
  9
$PUCSNAME
  2

  9
$PUCSORG
 10
0.0
 20
0.0
 30
0.0
  9
$PUCSXDIR
 10
1.0
 20
0.0
 30
0.0
  9
$PUCSYDIR
 10
0.0
 20
1.0
 30
0.0
  9
$USERI1
 70
     0
  9
$USERI2
 70
     0
  9
$USERI3
 70
     0
  9
$USERI4
 70
     0
  9
$USERI5
 70
     0
  9
$USERR1
 40
0.0
  9
$USERR2
 40
0.0
  9
$USERR3
 40
0.0
  9
$USERR4
 40
0.0
  9
$USERR5
 40
0.0
  9
$WORLDVIEW
 70
     1
  9
$SHADEDGE
 70
     3
  9
$SHADEDIF
 70
    70
  9
$TILEMODE
 70
     1
  9
$MAXACTVP
 70
    16
  9
$PLIMCHECK
 70
     0
  9
$PEXTMIN
 10
1.0000000000000000E+020
 20
1.0000000000000000E+020
 30
1.0000000000000000E+020
  9
$PEXTMAX
 10
-1.0000000000000000E+020
 20
-1.0000000000000000E+020
 30
-1.0000000000000000E+020
  9
$PLIMMIN
 10
0.0
 20
0.0
  9
$PLIMMAX
 10
12.0
 20
9.0
  9
$UNITMODE
 70
     0
  9
$VISRETAIN
 70
     0
  9
$PLINEGEN
 70
     0
  9
$PSLTSCALE
 70
     0
  0
ENDSEC
  0
SECTION
  2
TABLES
  0
TABLE
  2
VPORT
 70
     2
  0
VPORT
  2
*ACTIVE
 70
     0
 10
0.0
 20
0.0
 11
1.0
 21
1.0
 12
-2359.399297064384
 22
1475.000007353849
 13
0.0
 23
0.0
 14
5.0
 24
5.0
 15
0.0
 25
0.0
 16
0.0
 26
0.0
 36
1.0
 17
0.0
 27
0.0
 37
0.0
 40
2972.7867983959318
 41
1.6307901907356941
 42
50.0
 43
0.0
 44
0.0
 50
0.0
 51
0.0
 71
     0
 72
   100
 73
     1
 74
     0
 75
     0
 76
     0
 77
     0
 78
     0
  0
ENDTAB
  0
TABLE
  2
LTYPE
 70
     4
  0
LTYPE
  2
CONTINUOUS
 70
     0
  3
Solid line
 72
    65
 73
     0
 40
0.0
  0
LTYPE
  2
CENTER
 70
     0
  3
____ _ ____ _ ____ _ ____ _ ____ _ ____ _ ____ 
 72
    65
 73
     4
 40
2.0
 49
1.25
 49
-0.25
 49
0.25
 49
-0.25
  0
LTYPE
  2
HIDDEN
 70
     0
  3
__ __ __ __ __ __ __ __ __ __ __ __ __ __ __ __
 72
    65
 73
     2
 40
0.375
 49
0.25
 49
-0.125
  0
LTYPE
  2
PHANTOM
 70
     0
  3
______  __  __  ______  __  __  ______  __  __ 
 72
    65
 73
     6
 40
2.5
 49
1.25
 49
-0.25
 49
0.25
 49
-0.25
 49
0.25
 49
-0.25
  0
ENDTAB
  0
TABLE
  2
LAYER
 70
    13
  0
LAYER
  2
0
 70
     0
 62
     7
  6
CONTINUOUS
  0
LAYER
  2
CT
 70
     0
 62
     3
  6
CENTER
  0
LAYER
  2
FUTO
 70
     0
 62
     4
  6
CONTINUOUS
  0
LAYER
  2
HOSO
 70
     0
 62
     7
  6
CONTINUOUS
  0
LAYER
  2
KL
 70
     0
 62
     7
  6
HIDDEN
  0
LAYER
  2
MOJI
 70
     0
 62
     3
  6
CONTINUOUS
  0
LAYER
  2
SL
 70
     0
 62
     1
  6
PHANTOM
  0
LAYER
  2
SP
 70
     0
 62
     2
  6
CONTINUOUS
  0
LAYER
  2
DEFPOINTS
 70
     0
 62
     7
  6
CONTINUOUS
  0
LAYER
  2
1
 70
     0
 62
     4
  6
CONTINUOUS
  0
LAYER
  2
3
 70
     0
 62
     2
  6
CONTINUOUS
  0
LAYER
  2
2
 70
     0
 62
     3
  6
CENTER
  0
LAYER
  2
4
 70
     0
 62
     7
  6
CONTINUOUS
  0
ENDTAB
  0
TABLE
  2
STYLE
 70
     1
  0
STYLE
  2
STANDARD
 70
     0
 40
0.0
 41
1.0
 50
15.0
 71
     0
 42
3.5
  3
C:\Program Files\AutoCAD LT\simplex.shx
  4
C:\Program Files\AutoCAD LT\extfont.shx
  0
ENDTAB
  0
TABLE
  2
VIEW
 70
     0
  0
ENDTAB
  0
TABLE
  2
UCS
 70
     0
  0
ENDTAB
  0
TABLE
  2
APPID
 70
     1
  0
APPID
  2
ACAD
 70
     0
  0
ENDTAB
  0
TABLE
  2
DIMSTYLE
 70
     3
  0
DIMSTYLE
  2
STANDARD
 70
     0
  3

  4

  5

  6

  7

 40
1.0
 41
0.18
 42
0.0625
 43
0.38
 44
0.18
 45
0.0
 46
0.0
 47
0.0
 48
0.0
140
0.18
141
0.09
142
0.0
143
25.399999999999999
144
1.0
145
0.0
146
1.0
147
0.09
 71
     0
 72
     0
 73
     1
 74
     1
 75
     0
 76
     0
 77
     0
 78
     0
170
     0
171
     2
172
     0
173
     0
174
     0
175
     0
176
     0
177
     0
178
     0
  0
DIMSTYLE
  2
GOD
 70
     0
  3

  4

  5

  6
OPEN
  7
OPEN
 40
10.0
 41
2.5
 42
1.0
 43
7.0
 44
1.0
 45
0.0
 46
0.0
 47
0.0
 48
0.0
140
3.0
141
0.0
142
0.0
143
0.03937
144
1.0
145
0.0
146
1.0
147
1.0
 71
     0
 72
     0
 73
     0
 74
     0
 75
     0
 76
     0
 77
     1
 78
     8
170
     0
171
     2
172
     1
173
     1
174
     0
175
     0
176
   256
177
   256
178
   256
  0
DIMSTYLE
  2
DIA1
 70
     0
  3

  4

  5
ARROW
  6

  7

 40
1.0
 41
2.0
 42
1.0
 43
10.0
 44
1.0
 45
0.0
 46
0.0
 47
0.0
 48
0.0
140
2.5
141
0.0
142
0.0
143
25.399999999999999
144
1.0
145
0.0
146
1.0
147
0.09
 71
     0
 72
     0
 73
     0
 74
     0
 75
     0
 76
     0
 77
     1
 78
     8
170
     0
171
     2
172
     1
173
     0
174
     0
175
     0
176
     2
177
     2
178
     2
  0
ENDTAB
  0
ENDSEC
  0
SECTION
  2
BLOCKS
  0
BLOCK
  8
0
  2
$MODEL_SPACE
 70
     0
 10
0.0
 20
0.0
 30
0.0
  3
$MODEL_SPACE
  1

  0
ENDBLK
  5
1B
  8
0
  0
BLOCK
 67
     1
  8
0
  2
$PAPER_SPACE
 70
     0
 10
0.0
 20
0.0
 30
0.0
  3
$PAPER_SPACE
  1

  0
ENDBLK
  5
18
 67
     1
  8
0
  0
BLOCK
  8
0
  2
_OPEN
 70
     0
 10
0.0
 20
0.0
 30
0.0
  3
_OPEN
  1

  0
LINE
  5
1E81
  8
0
  6
BYBLOCK
 62
     0
 10
-1.0
 20
0.1666666666666666
 30
0.0
 11
0.0
 21
0.0
 31
0.0
  0
LINE
  5
1E82
  8
0
  6
BYBLOCK
 62
     0
 10
0.0
 20
0.0
 30
0.0
 11
-1.0
 21
-0.1666666666666666
 31
0.0
  0
LINE
  5
1E83
  8
0
  6
BYBLOCK
 62
     0
 10
0.0
 20
0.0
 30
0.0
 11
-1.0
 21
0.0
 31
0.0
  0
ENDBLK
  5
1E84
  8
0
  0
BLOCK
  8
0
  2
_DOT
 70
     0
 10
0.0
 20
0.0
 30
0.0
  3
_DOT
  1

  0
LINE
  5
1EC3
  8
0
  6
BYBLOCK
 62
     0
 10
0.0
 20
0.0
 30
0.0
 11
-1.0
 21
-0.0000000000000284
 31
0.0
  0
POLYLINE
  5
1EC4
  8
0
  6
BYBLOCK
 62
     0
 66
     1
 10
0.0
 20
0.0
 30
0.0
 70
     1
 40
0.1666666666666666
 41
0.1666666666666666
  0
VERTEX
  5
6F0D
  8
0
  6
BYBLOCK
 62
     0
 10
-0.0833333333333286
 20
-0.0000000000000284
 30
0.0
 42
1.0
  0
VERTEX
  5
6F0E
  8
0
  6
BYBLOCK
 62
     0
 10
0.0833333333333286
 20
-0.0000000000000284
 30
0.0
 42
1.0
  0
SEQEND
  5
6F0F
  8
0
  6
BYBLOCK
 62
     0
  0
ENDBLK
  5
1EB8
  8
0
  0
BLOCK
  8
0
  2
ARROW
 70
     0
 10
0.0
 20
0.0
 30
0.0
  3
ARROW
  1

  0
LINE
  5
1EEF
  8
0
 10
-0.9999999999999991
 20
0.1666666667000003
 30
0.0
 11
0.0
 21
0.0
 31
0.0
  0
LINE
  5
1EF0
  8
0
 10
-0.9999999999999991
 20
0.0
 30
0.0
 11
0.0
 21
0.0
 31
0.0
  0
LINE
  5
1EF1
  8
0
 10
-0.9999999999999991
 20
-0.1666666667000003
 30
0.0
 11
0.0
 21
0.0
 31
0.0
  0
ENDBLK
  5
1EF3
  8
0
  0
BLOCK
  8
0
  2
_NONE
 70
     0
 10
0.0
 20
0.0
 30
0.0
  3
_NONE
  1

  0
ENDBLK
  5
1F6F
  8
0
  0
BLOCK
  8
0
  2
*D4
 70
     1
 10
0.0
 20
0.0
 30
0.0
  3
*D4
  1

  0
LINE
  5
6A55
  8
3
 10
-1958.2701199802621
 20
1143.9956548530949
 30
0.0
 11
-1833.7272226286709
 21
1143.9956548530949
 31
0.0
  0
LINE
  5
6A56
  8
3
 10
-1958.2701199802621
 20
943.9956548530954
 30
0.0
 11
-1833.7272226286709
 21
943.9956548530954
 31
0.0
  0
LINE
  5
6A57
  8
3
 10
-1843.7272226286709
 20
1118.9956548530949
 30
0.0
 11
-1843.7272226286709
 21
968.9956548530954
 31
0.0
  0
INSERT
  5
6A58
  8
3
  2
_OPEN
 10
-1843.7272226286709
 20
1143.9956548530949
 30
0.0
 41
25.0
 42
25.0
 43
25.0
 50
90.0
  0
INSERT
  5
6A59
  8
3
  2
_OPEN
 10
-1843.7272226286709
 20
943.9956548530954
 30
0.0
 41
25.0
 42
25.0
 43
25.0
 50
270.0
  0
INSERT
  5
6A5A
  8
SP
  2
*U25
 10
0.0
 20
0.0
 30
0.0
  0
POINT
  5
6A5B
  8
DEFPOINTS
 62
     0
 10
-1968.2701199802621
 20
1143.9956548530949
 30
0.0
  0
POINT
  5
6A5C
  8
DEFPOINTS
 62
     0
 10
-1968.2701199802621
 20
943.9956548530954
 30
0.0
  0
POINT
  5
6A5D
  8
DEFPOINTS
 62
     0
 10
-1843.7272226286709
 20
943.9956548530954
 30
0.0
  0
ENDBLK
  5
3C6E
  8
0
  0
BLOCK
  8
0
  2
*D5
 70
     1
 10
0.0
 20
0.0
 30
0.0
  3
*D5
  1

  0
LINE
  5
4B4E
  8
SP
 10
-2115.2701199802618
 20
1213.9956548530949
 30
0.0
 11
-2115.2701199802618
 21
1283.9956548530949
 31
0.0
  0
LINE
  5
4B4F
  8
SP
 10
-1975.2701199802621
 20
1213.9956548530949
 30
0.0
 11
-1975.2701199802621
 21
1283.9956548530949
 31
0.0
  0
LINE
  5
4B50
  8
SP
 10
-2090.2701199802618
 20
1273.9956548530949
 30
0.0
 11
-2000.2701199802621
 21
1273.9956548530949
 31
0.0
  0
INSERT
  5
4B51
  8
SP
  2
_OPEN
 10
-2115.2701199802618
 20
1273.9956548530949
 30
0.0
 41
25.0
 42
25.0
 43
25.0
 50
180.0
  0
INSERT
  5
4B52
  8
SP
  2
_OPEN
 10
-1975.2701199802621
 20
1273.9956548530949
 30
0.0
 41
25.0
 42
25.0
 43
25.0
  0
TEXT
  5
4B53
  8
SP
 10
-2086.7774575107319
 20
1283.9956548530949
 30
0.0
 40
30.0
  1
140
 51
15.0
  0
POINT
  5
4B54
  8
DEFPOINTS
 62
     0
 10
-2115.2701199802618
 20
1203.9956548530949
 30
0.0
  0
POINT
  5
4B55
  8
DEFPOINTS
 62
     0
 10
-1975.2701199802621
 20
1203.9956548530949
 30
0.0
  0
POINT
  5
4B56
  8
DEFPOINTS
 62
     0
 10
-1975.2701199802621
 20
1273.9956548530949
 30
0.0
  0
ENDBLK
  5
4B58
  8
0
  0
BLOCK
  8
0
  2
*D6
 70
     1
 10
0.0
 20
0.0
 30
0.0
  3
*D6
  1

  0
LINE
  5
4B6F
  8
SP
 10
-2045.2701199802621
 20
1318.908141808362
 30
0.0
 11
-2045.2701199802621
 21
1353.9956548530949
 31
0.0
  0
LINE
  5
4B70
  8
SP
 10
-1968.2701199802621
 20
1170.9956548530949
 30
0.0
 11
-1968.2701199802621
 21
1353.9956548530949
 31
0.0
  0
LINE
  5
4B71
  8
SP
 10
-2020.2701199802609
 20
1343.9956548530949
 30
0.0
 11
-1993.2701199802621
 21
1343.9956548530949
 31
0.0
  0
INSERT
  5
4B72
  8
SP
  2
_OPEN
 10
-2045.2701199802621
 20
1343.9956548530949
 30
0.0
 41
25.0
 42
25.0
 43
25.0
 50
180.0
  0
INSERT
  5
4B73
  8
SP
  2
_OPEN
 10
-1968.2701199802621
 20
1343.9956548530949
 30
0.0
 41
25.0
 42
25.0
 43
25.0
  0
TEXT
  5
4B74
  8
SP
 10
-2037.9322150095859
 20
1353.9956548530949
 30
0.0
 40
30.0
  1
77
 51
15.0
  0
POINT
  5
4B75
  8
DEFPOINTS
 62
     0
 10
-2045.2701199802621
 20
1308.908141808362
 30
0.0
  0
POINT
  5
4B76
  8
DEFPOINTS
 62
     0
 10
-1968.2701199802621
 20
1160.995654853094
 30
0.0
  0
POINT
  5
4B77
  8
DEFPOINTS
 62
     0
 10
-1968.2701199802621
 20
1343.9956548530949
 30
0.0
  0
ENDBLK
  5
4B65
  8
0
  0
BLOCK
  8
0
  2
*D7
 70
     1
 10
0.0
 20
0.0
 30
0.0
  3
*D7
  1

  0
LINE
  5
4BAB
  8
SP
 10
-2045.2701199802621
 20
1323.9956548530949
 30
0.0
 11
-2045.2701199802621
 21
1353.9956548530949
 31
0.0
  0
LINE
  5
4BAC
  8
SP
 10
-2345.2701199802609
 20
1114.0342853677109
 30
0.0
 11
-2345.2701199802609
 21
1353.9956548530949
 31
0.0
  0
LINE
  5
4BAD
  8
SP
 10
-2070.2701199802618
 20
1343.9956548530949
 30
0.0
 11
-2320.2701199802618
 21
1343.9956548530949
 31
0.0
  0
INSERT
  5
4BAE
  8
SP
  2
_OPEN
 10
-2045.2701199802621
 20
1343.9956548530949
 30
0.0
 41
25.0
 42
25.0
 43
25.0
  0
INSERT
  5
4BAF
  8
SP
  2
_OPEN
 10
-2345.2701199802609
 20
1343.9956548530949
 30
0.0
 41
25.0
 42
25.0
 43
25.0
 50
180.0
  0
TEXT
  5
4BB0
  8
SP
 10
-2262.1798217206619
 20
1353.9956548530949
 30
0.0
 40
30.0
  1
（340）
 51
15.0
  0
POINT
  5
4BB1
  8
DEFPOINTS
 62
     0
 10
-2045.2701199802621
 20
1313.9956548530949
 30
0.0
  0
POINT
  5
4BB2
  8
DEFPOINTS
 62
     0
 10
-2345.2701199802609
 20
1104.0342853677109
 30
0.0
  0
POINT
  5
4BB3
  8
DEFPOINTS
 62
     0
 10
-2345.2701199802609
 20
1343.9956548530949
 30
0.0
  0
ENDBLK
  5
4BA1
  8
0
  0
BLOCK
  8
0
  2
*D8
 70
     1
 10
0.0
 20
0.0
 30
0.0
  3
*D8
  1

  0
LINE
  5
6981
  8
SP
 10
-2804.147374244365
 20
1043.9956548530949
 30
0.0
 11
-2677.1386798530621
 21
1043.9956548530949
 31
0.0
  0
LINE
  5
6982
  8
SP
 10
-2958.8130032500521
 20
1203.9956548530961
 30
0.0
 11
-2677.1386798530621
 21
1203.9956548530961
 31
0.0
  0
LINE
  5
6983
  8
SP
 10
-2687.1386798530621
 20
1068.9956548530949
 30
0.0
 11
-2687.1386798530621
 21
1178.9956548530961
 31
0.0
  0
INSERT
  5
6984
  8
SP
  2
_OPEN
 10
-2687.1386798530621
 20
1043.9956548530949
 30
0.0
 41
25.0
 42
25.0
 43
25.0
 50
270.0
  0
INSERT
  5
6985
  8
SP
  2
_OPEN
 10
-2687.1386798530621
 20
1203.9956548530961
 30
0.0
 41
25.0
 42
25.0
 43
25.0
 50
90.0
  0
TEXT
  5
6986
  8
SP
 10
-2697.1386798530621
 20
1082.4883173226251
 30
0.0
 40
30.0
  1
160
 50
90.0
 51
15.0
  0
POINT
  5
6987
  8
DEFPOINTS
 62
     0
 10
-2814.147374244365
 20
1043.9956548530949
 30
0.0
  0
POINT
  5
6988
  8
DEFPOINTS
 62
     0
 10
-2968.8130032500521
 20
1203.9956548530961
 30
0.0
  0
POINT
  5
6989
  8
DEFPOINTS
 62
     0
 10
-2687.1386798530621
 20
1203.9956548530961
 30
0.0
  0
ENDBLK
  5
4C4C
  8
0
  0
BLOCK
  8
0
  2
*D9
 70
     1
 10
0.0
 20
0.0
 30
0.0
  3
*D9
  1

  0
LINE
  5
698A
  8
SP
 10
-2804.147374244365
 20
1043.9956548530949
 30
0.0
 11
-2677.1386798530621
 21
1043.9956548530949
 31
0.0
  0
LINE
  5
698B
  8
SP
 10
-2814.8130032500499
 20
803.99565485309517
 30
0.0
 11
-2677.1386798530621
 21
803.99565485309517
 31
0.0
  0
LINE
  5
698C
  8
SP
 10
-2687.1386798530621
 20
1018.9956548530949
 30
0.0
 11
-2687.1386798530621
 21
828.99565485309517
 31
0.0
  0
INSERT
  5
698D
  8
SP
  2
_OPEN
 10
-2687.1386798530611
 20
1043.9956548530949
 30
0.0
 41
25.0
 42
25.0
 43
25.0
 50
90.0
  0
INSERT
  5
698E
  8
SP
  2
_OPEN
 10
-2687.1386798530621
 20
803.99565485309517
 30
0.0
 41
25.0
 42
25.0
 43
25.0
 50
270.0
  0
TEXT
  5
698F
  8
SP
 10
-2697.1386798530621
 20
882.8848432307168
 30
0.0
 40
30.0
  1
240
 50
90.0
 51
15.0
  0
POINT
  5
6990
  8
DEFPOINTS
 62
     0
 10
-2814.147374244365
 20
1043.9956548530949
 30
0.0
  0
POINT
  5
6991
  8
DEFPOINTS
 62
     0
 10
-2824.8130032500499
 20
803.9956548530954
 30
0.0
  0
POINT
  5
6992
  8
DEFPOINTS
 62
     0
 10
-2687.1386798530621
 20
803.99565485309517
 30
0.0
  0
ENDBLK
  5
4C58
  8
0
  0
BLOCK
  8
0
  2
*D10
 70
     1
 10
0.0
 20
0.0
 30
0.0
  3
*D10
  1

  0
LINE
  5
4CDD
  8
SP
 10
-2989.8130032500521
 20
1230.1561682696949
 30
0.0
 11
-2989.8130032500521
 21
1283.9956548530949
 31
0.0
  0
LINE
  5
4CDE
  8
SP
 10
-2849.8130032500521
 20
1039.9956548530961
 30
0.0
 11
-2849.8130032500521
 21
1283.9956548530949
 31
0.0
  0
LINE
  5
4CDF
  8
SP
 10
-2964.8130032500521
 20
1273.9956548530949
 30
0.0
 11
-2874.8130032500521
 21
1273.9956548530949
 31
0.0
  0
INSERT
  5
4CE0
  8
SP
  2
_OPEN
 10
-2989.8130032500521
 20
1273.9956548530949
 30
0.0
 41
25.0
 42
25.0
 43
25.0
 50
180.0
  0
INSERT
  5
4CE1
  8
SP
  2
_OPEN
 10
-2849.8130032500521
 20
1273.9956548530949
 30
0.0
 41
25.0
 42
25.0
 43
25.0
  0
TEXT
  5
4CE2
  8
SP
 10
-2961.3203407805222
 20
1283.9956548530949
 30
0.0
 40
30.0
  1
140
 51
15.0
  0
POINT
  5
4CE3
  8
DEFPOINTS
 62
     0
 10
-2989.8130032500521
 20
1220.1561682696949
 30
0.0
  0
POINT
  5
4CE4
  8
DEFPOINTS
 62
     0
 10
-2849.8130032500521
 20
1029.9956548530961
 30
0.0
  0
POINT
  5
4CE5
  8
DEFPOINTS
 62
     0
 10
-2849.8130032500521
 20
1273.9956548530949
 30
0.0
  0
ENDBLK
  5
4C64
  8
0
  0
BLOCK
  8
0
  2
*D11
 70
     1
 10
0.0
 20
0.0
 30
0.0
  3
*D11
  1

  0
LINE
  5
4CE6
  8
SP
 10
-2989.8130032500521
 20
1230.1561682696949
 30
0.0
 11
-2989.8130032500521
 21
1283.9956548530949
 31
0.0
  0
LINE
  5
4CE7
  8
SP
 10
-3189.8130032500512
 20
1213.9956548530961
 30
0.0
 11
-3189.8130032500512
 21
1283.9956548530949
 31
0.0
  0
LINE
  5
4CE8
  8
SP
 10
-3014.8130032500521
 20
1273.9956548530949
 30
0.0
 11
-3164.8130032500512
 21
1273.9956548530949
 31
0.0
  0
INSERT
  5
4CE9
  8
SP
  2
_OPEN
 10
-2989.8130032500521
 20
1273.9956548530949
 30
0.0
 41
25.0
 42
25.0
 43
25.0
  0
INSERT
  5
4CEA
  8
SP
  2
_OPEN
 10
-3189.8130032500512
 20
1273.9956548530949
 30
0.0
 41
25.0
 42
25.0
 43
25.0
 50
180.0
  0
TEXT
  5
4CEB
  8
SP
 10
-3130.9238148724298
 20
1283.9956548530949
 30
0.0
 40
30.0
  1
200
 51
15.0
  0
POINT
  5
4CEC
  8
DEFPOINTS
 62
     0
 10
-2989.8130032500521
 20
1220.1561682696949
 30
0.0
  0
POINT
  5
4CED
  8
DEFPOINTS
 62
     0
 10
-3189.8130032500512
 20
1203.9956548530961
 30
0.0
  0
POINT
  5
4CEE
  8
DEFPOINTS
 62
     0
 10
-3189.8130032500512
 20
1273.9956548530949
 30
0.0
  0
ENDBLK
  5
4C70
  8
0
  0
BLOCK
  8
0
  2
*D12
 70
     1
 10
0.0
 20
0.0
 30
0.0
  3
*D12
  1

  0
LINE
  5
6F17
  8
SP
 10
-2754.8130032500521
 20
781.99565485309563
 30
0.0
 11
-2677.1386798530621
 21
781.99565485309563
 31
0.0
  0
LINE
  5
6F18
  8
SP
 10
-2754.8130032500521
 20
751.99565485309552
 30
0.0
 11
-2677.1386798530621
 21
751.99565485309552
 31
0.0
  0
LINE
  5
6F19
  8
SP
 10
-2687.1386798530621
 20
806.99565485309574
 30
0.0
 11
-2687.1386798530621
 21
831.99565485309574
 31
0.0
  0
LINE
  5
6F1A
  8
SP
 10
-2687.1386798530621
 20
726.99565485309552
 30
0.0
 11
-2687.1386798530621
 21
629.87659842223195
 31
0.0
  0
LINE
  5
6F1B
  8
SP
 10
-2687.1386798530621
 20
781.99565485309563
 30
0.0
 11
-2687.1386798530621
 21
751.99565485309552
 31
0.0
  0
INSERT
  5
6F1C
  8
SP
  2
_DOT
 10
-2687.1386798530621
 20
781.99565485309563
 30
0.0
 41
25.0
 42
25.0
 43
25.0
 50
270.0
  0
INSERT
  5
6F1D
  8
SP
  2
_OPEN
 10
-2687.1386798530621
 20
751.99565485309552
 30
0.0
 41
25.0
 42
25.0
 43
25.0
 50
90.0
  0
TEXT
  8
0
  40
30
  5
6F27
  72
0
  71
0
 10
-2772.14
 20
612.836
 30
0.000000
  1
30
  0
POINT
  5
6F1F
  8
DEFPOINTS
 62
     0
 10
-2764.8130032500521
 20
781.99565485309563
 30
0.0
  0
POINT
  5
6F20
  8
DEFPOINTS
 62
     0
 10
-2764.8130032500521
 20
751.99565485309552
 30
0.0
  0
POINT
  5
6F21
  8
DEFPOINTS
 62
     0
 10
-2687.1386798530621
 20
751.99565485309552
 30
0.0
  0
ENDBLK
  5
64A9
  8
0
  0
BLOCK
  8
0
  2
*D13
 70
     1
 10
0.0
 20
0.0
 30
0.0
  3
*D13
  1

  0
LINE
  5
6F10
  8
SP
 10
-2814.8130032500499
 20
803.99565485309245
 30
0.0
 11
-2677.1386798530621
 21
803.99565485309245
 31
0.0
  0
LINE
  5
6F11
  8
SP
 10
-2754.8130032500521
 20
781.99565485309563
 30
0.0
 11
-2677.1386798530621
 21
781.99565485309563
 31
0.0
  0
LINE
  5
6F12
  8
SP
 10
-2687.1386798530621
 20
803.99565485309245
 30
0.0
 11
-2687.1386798530621
 21
781.99565485309563
 31
0.0
  0
TEXT
  8
0
  40
30
  5
6F28
  72
0
  71
0
 10
-2711.36
 20
729.954
 30
0.000000
  1
（22）
  0
POINT
  5
6F14
  8
DEFPOINTS
 62
     0
 10
-2824.813003250049
 20
803.99565485309267
 30
0.0
  0
POINT
  5
6F15
  8
DEFPOINTS
 62
     0
 10
-2764.8130032500521
 20
781.99565485309563
 30
0.0
  0
POINT
  5
6F16
  8
DEFPOINTS
 62
     0
 10
-2687.1386798530621
 20
781.99565485309563
 30
0.0
  0
ENDBLK
  5
64B3
  8
0
  0
BLOCK
  8
0
  2
L-30-3
 70
     0
 10
0.0
 20
0.0
 30
0.0
  3
L-30-3
  1

  0
LINE
  5
676F
  8
0
 10
115.2488417492448
 20
98.116970357453638
 30
0.0
 11
145.2488417492448
 21
98.116970357453638
 31
0.0
  0
LINE
  5
6770
  8
0
 10
115.2488417492448
 20
98.116970357453638
 30
0.0
 11
115.2488417492448
 21
128.1169703574536
 31
0.0
  0
LINE
  5
6771
  8
0
 10
145.2488417492448
 20
98.116970357453638
 30
0.0
 11
145.2488417492448
 21
99.116970357453638
 31
0.0
  0
LINE
  5
6772
  8
0
 10
115.2488417492448
 20
128.1169703574536
 30
0.0
 11
116.2488417492448
 21
128.1169703574536
 31
0.0
  0
LINE
  5
6773
  8
0
 10
122.2488417492448
 20
101.1169703574536
 30
0.0
 11
143.2488417492448
 21
101.1169703574536
 31
0.0
  0
LINE
  5
6774
  8
0
 10
118.2488417492448
 20
105.1169703574536
 30
0.0
 11
118.2488417492448
 21
126.1169703574536
 31
0.0
  0
ARC
  5
6775
  8
0
 10
143.2488417492448
 20
99.116970357453638
 30
0.0
 40
2.0
 50
0.0
 51
90.0
  0
ARC
  5
6776
  8
0
 10
116.2488417492448
 20
126.1169703574536
 30
0.0
 40
2.0
 50
0.0
 51
90.0
  0
ARC
  5
6777
  8
0
 10
122.2488417492448
 20
105.1169703574536
 30
0.0
 40
4.0
 50
180.0
 51
270.0
  0
ENDBLK
  5
6779
  8
0
  0
BLOCK
  8
0
  2
*D15
 70
     1
 10
0.0
 20
0.0
 30
0.0
  3
*D15
  1

  0
LINE
  5
682B
  8
SP
 10
-3214.813003250053
 20
741.99565485309574
 30
0.0
 11
-3214.813003250053
 21
601.99565485309552
 31
0.0
  0
LINE
  5
682C
  8
SP
 10
-2764.8130032500521
 20
741.9956548530954
 30
0.0
 11
-2764.8130032500521
 21
601.99565485309552
 31
0.0
  0
LINE
  5
682D
  8
SP
 10
-3189.813003250053
 20
611.99565485309552
 30
0.0
 11
-2789.8130032500521
 21
611.99565485309552
 31
0.0
  0
INSERT
  5
682E
  8
SP
  2
_OPEN
 10
-3214.813003250053
 20
611.99565485309552
 30
0.0
 41
25.0
 42
25.0
 43
25.0
 50
180.0
  0
INSERT
  5
682F
  8
SP
  2
_OPEN
 10
-2764.8130032500521
 20
611.99565485309552
 30
0.0
 41
25.0
 42
25.0
 43
25.0
  0
TEXT
  5
6830
  8
SP
 10
-3032.2635608345859
 20
621.99565485309552
 30
0.0
 40
30.0
  1
450
 51
15.0
  0
POINT
  5
6831
  8
DEFPOINTS
 62
     0
 10
-3214.813003250053
 20
751.99565485309574
 30
0.0
  0
POINT
  5
6832
  8
DEFPOINTS
 62
     0
 10
-2764.8130032500521
 20
751.99565485309552
 30
0.0
  0
POINT
  5
6833
  8
DEFPOINTS
 62
     0
 10
-2764.8130032500521
 20
611.99565485309552
 30
0.0
  0
ENDBLK
  5
67EE
  8
0
  0
BLOCK
  8
0
  2
*D16
 70
     1
 10
0.0
 20
0.0
 30
0.0
  3
*D16
  1

  0
LINE
  5
69DB
  8
SP
 10
-2989.8130032500521
 20
721.92250128847809
 30
0.0
 11
-2989.8130032500521
 21
671.99565485309563
 31
0.0
  0
LINE
  5
69DC
  8
SP
 10
-3214.8130032500521
 20
741.99565485309574
 30
0.0
 11
-3214.8130032500521
 21
671.99565485309563
 31
0.0
  0
LINE
  5
69DD
  8
SP
 10
-3014.8130032500521
 20
681.99565485309563
 30
0.0
 11
-3189.8130032500521
 21
681.99565485309563
 31
0.0
  0
INSERT
  5
69DE
  8
SP
  2
_OPEN
 10
-2989.8130032500521
 20
681.99565485309563
 30
0.0
 41
25.0
 42
25.0
 43
25.0
  0
INSERT
  5
69DF
  8
SP
  2
_OPEN
 10
-3214.8130032500521
 20
681.99565485309563
 30
0.0
 41
25.0
 42
25.0
 43
25.0
 50
180.0
  0
TEXT
  5
69E0
  8
SP
 10
-3143.4750982793762
 20
691.99565485309563
 30
0.0
 40
30.0
  1
225
 51
15.0
  0
POINT
  5
69E1
  8
DEFPOINTS
 62
     0
 10
-2989.8130032500521
 20
731.92250128847797
 30
0.0
  0
POINT
  5
69E2
  8
DEFPOINTS
 62
     0
 10
-3214.8130032500521
 20
751.99565485309574
 30
0.0
  0
POINT
  5
69E3
  8
DEFPOINTS
 62
     0
 10
-3214.8130032500521
 20
681.99565485309563
 30
0.0
  0
ENDBLK
  5
67FA
  8
0
  0
BLOCK
  8
0
  2
*D17
 70
     1
 10
0.0
 20
0.0
 30
0.0
  3
*D17
  1

  0
LINE
  5
69E4
  8
SP
 10
-2989.8130032500521
 20
721.92250128847809
 30
0.0
 11
-2989.8130032500521
 21
671.99565485309563
 31
0.0
  0
LINE
  5
69E5
  8
SP
 10
-2764.8130032500521
 20
741.9956548530954
 30
0.0
 11
-2764.8130032500521
 21
671.99565485309563
 31
0.0
  0
LINE
  5
69E6
  8
SP
 10
-2964.8130032500521
 20
681.99565485309563
 30
0.0
 11
-2789.8130032500521
 21
681.99565485309563
 31
0.0
  0
INSERT
  5
69E7
  8
SP
  2
_OPEN
 10
-2989.8130032500521
 20
681.99565485309563
 30
0.0
 41
25.0
 42
25.0
 43
25.0
 50
180.0
  0
INSERT
  5
69E8
  8
SP
  2
_OPEN
 10
-2764.8130032500521
 20
681.99565485309563
 30
0.0
 41
25.0
 42
25.0
 43
25.0
  0
TEXT
  5
69E9
  8
SP
 10
-2918.4750982793762
 20
691.99565485309563
 30
0.0
 40
30.0
  1
225
 51
15.0
  0
POINT
  5
69EA
  8
DEFPOINTS
 62
     0
 10
-2989.8130032500521
 20
731.92250128847797
 30
0.0
  0
POINT
  5
69EB
  8
DEFPOINTS
 62
     0
 10
-2764.8130032500521
 20
751.99565485309552
 30
0.0
  0
POINT
  5
69EC
  8
DEFPOINTS
 62
     0
 10
-2764.8130032500521
 20
681.99565485309563
 30
0.0
  0
ENDBLK
  5
6806
  8
0
  0
BLOCK
  8
0
  2
*D18
 70
     1
 10
0.0
 20
0.0
 30
0.0
  3
*D18
  1

  0
LINE
  5
686C
  8
SP
 10
-2045.2701199802621
 20
865.01297153561973
 30
0.0
 11
-2045.2701199802621
 21
671.99565485309552
 31
0.0
  0
LINE
  5
686D
  8
SP
 10
-2391.2701199802609
 20
771.99565485309563
 30
0.0
 11
-2391.2701199802609
 21
671.99565485309552
 31
0.0
  0
LINE
  5
686E
  8
SP
 10
-2070.2701199802618
 20
681.99565485309552
 30
0.0
 11
-2366.2701199802609
 21
681.99565485309552
 31
0.0
  0
INSERT
  5
686F
  8
SP
  2
_OPEN
 10
-2045.2701199802621
 20
681.99565485309552
 30
0.0
 41
25.0
 42
25.0
 43
25.0
  0
INSERT
  5
6870
  8
SP
  2
_OPEN
 10
-2391.2701199802609
 20
681.99565485309552
 30
0.0
 41
25.0
 42
25.0
 43
25.0
 50
180.0
  0
TEXT
  5
6871
  8
SP
 10
-2259.6236072898928
 20
691.9956548530954
 30
0.0
 40
30.0
  1
346
 51
15.0
  0
POINT
  5
6872
  8
DEFPOINTS
 62
     0
 10
-2045.2701199802621
 20
875.01297153561961
 30
0.0
  0
POINT
  5
6873
  8
DEFPOINTS
 62
     0
 10
-2391.2701199802609
 20
781.99565485309563
 30
0.0
  0
POINT
  5
6874
  8
DEFPOINTS
 62
     0
 10
-2391.2701199802609
 20
681.99565485309552
 30
0.0
  0
ENDBLK
  5
6812
  8
0
  0
BLOCK
  8
0
  2
*D19
 70
     1
 10
0.0
 20
0.0
 30
0.0
  3
*D19
  1

  0
LINE
  5
6863
  8
SP
 10
-2045.2701199802609
 20
865.01297153561973
 30
0.0
 11
-2045.2701199802609
 21
671.99565485309552
 31
0.0
  0
LINE
  5
6864
  8
SP
 10
-1891.2701199802609
 20
771.99565485309563
 30
0.0
 11
-1891.2701199802609
 21
671.99565485309552
 31
0.0
  0
LINE
  5
6865
  8
SP
 10
-2020.2701199802609
 20
681.99565485309552
 30
0.0
 11
-1916.2701199802609
 21
681.99565485309552
 31
0.0
  0
INSERT
  5
6866
  8
SP
  2
_OPEN
 10
-2045.2701199802609
 20
681.99565485309552
 30
0.0
 41
25.0
 42
25.0
 43
25.0
 50
180.0
  0
INSERT
  5
6867
  8
SP
  2
_OPEN
 10
-1891.2701199802609
 20
681.99565485309552
 30
0.0
 41
25.0
 42
25.0
 43
25.0
  0
TEXT
  5
6868
  8
SP
 10
-2009.2921061362231
 20
691.9956548530954
 30
0.0
 40
30.0
  1
154
 51
15.0
  0
POINT
  5
6869
  8
DEFPOINTS
 62
     0
 10
-2045.2701199802609
 20
875.01297153561961
 30
0.0
  0
POINT
  5
686A
  8
DEFPOINTS
 62
     0
 10
-1891.2701199802609
 20
781.99565485309563
 30
0.0
  0
POINT
  5
686B
  8
DEFPOINTS
 62
     0
 10
-1891.2701199802609
 20
681.99565485309552
 30
0.0
  0
ENDBLK
  5
681E
  8
0
  0
BLOCK
  8
0
  2
*D20
 70
     1
 10
0.0
 20
0.0
 30
0.0
  3
*D20
  1

  0
LINE
  5
6858
  8
SP
 10
-2391.2701199802609
 20
771.99565485309563
 30
0.0
 11
-2391.2701199802609
 21
601.99565485309552
 31
0.0
  0
LINE
  5
6859
  8
SP
 10
-1891.2701199802609
 20
771.99565485309563
 30
0.0
 11
-1891.2701199802609
 21
601.99565485309552
 31
0.0
  0
LINE
  5
685A
  8
SP
 10
-2366.2701199802609
 20
611.99565485309552
 30
0.0
 11
-1916.2701199802609
 21
611.99565485309552
 31
0.0
  0
INSERT
  5
685B
  8
SP
  2
_OPEN
 10
-2391.2701199802609
 20
611.99565485309552
 30
0.0
 41
25.0
 42
25.0
 43
25.0
 50
180.0
  0
INSERT
  5
685C
  8
SP
  2
_OPEN
 10
-1891.2701199802609
 20
611.99565485309552
 30
0.0
 41
25.0
 42
25.0
 43
25.0
  0
TEXT
  5
685D
  8
SP
 10
-2183.1465007238712
 20
621.99565485309552
 30
0.0
 40
30.0
  1
500
 51
15.0
  0
POINT
  5
685E
  8
DEFPOINTS
 62
     0
 10
-2391.2701199802609
 20
781.99565485309563
 30
0.0
  0
POINT
  5
685F
  8
DEFPOINTS
 62
     0
 10
-1891.2701199802609
 20
781.99565485309563
 30
0.0
  0
POINT
  5
6860
  8
DEFPOINTS
 62
     0
 10
-1891.2701199802609
 20
611.99565485309552
 30
0.0
  0
ENDBLK
  5
682A
  8
0
  0
BLOCK
  8
0
  2
*D21
 70
     1
 10
0.0
 20
0.0
 30
0.0
  3
*D21
  1

  0
LINE
  5
6ED7
  8
SP
 10
-3214.8130032500521
 20
2119.8970137353699
 30
0.0
 11
-3214.8130032500521
 21
2189.897013735369
 31
0.0
  0
LINE
  5
6ED8
  8
SP
 10
-2764.8130032500512
 20
2119.8970137353699
 30
0.0
 11
-2764.8130032500512
 21
2189.897013735369
 31
0.0
  0
LINE
  5
6ED9
  8
SP
 10
-3189.8130032500512
 20
2179.8970137353699
 30
0.0
 11
-2789.8130032500499
 21
2179.8970137353699
 31
0.0
  0
INSERT
  5
6EDA
  8
SP
  2
_OPEN
 10
-3214.8130032500521
 20
2179.8970137353699
 30
0.0
 41
25.0
 42
25.0
 43
25.0
 50
180.0
  0
INSERT
  5
6EDB
  8
SP
  2
_OPEN
 10
-2764.8130032500512
 20
2179.8970137353699
 30
0.0
 41
25.0
 42
25.0
 43
25.0
  0
TEXT
  5
6EDC
  8
SP
 10
-3032.263560834584
 20
2189.897013735369
 30
0.0
 40
30.0
  1
450
 51
15.0
  0
POINT
  5
6EDD
  8
DEFPOINTS
 62
     0
 10
-3214.8130032500521
 20
2109.897013735369
 30
0.0
  0
POINT
  5
6EDE
  8
DEFPOINTS
 62
     0
 10
-2764.8130032500512
 20
2109.897013735369
 30
0.0
  0
POINT
  5
6EDF
  8
DEFPOINTS
 62
     0
 10
-2764.8130032500512
 20
2179.8970137353699
 30
0.0
  0
ENDBLK
  5
6EB2
  8
0
  0
BLOCK
  8
0
  2
*D22
 70
     1
 10
0.0
 20
0.0
 30
0.0
  3
*D22
  1

  0
LINE
  5
6EE0
  8
SP
 10
-2792.5123623725099
 20
1955.8970137353699
 30
0.0
 11
-2658.227427103332
 21
1955.8970137353699
 31
0.0
  0
LINE
  5
6EE1
  8
SP
 10
-2754.8130032500512
 20
1609.8970137353699
 30
0.0
 11
-2658.227427103332
 21
1609.8970137353699
 31
0.0
  0
LINE
  5
6EE2
  8
SP
 10
-2668.227427103332
 20
1930.8970137353699
 30
0.0
 11
-2668.227427103332
 21
1634.897013735369
 31
0.0
  0
INSERT
  5
6EE3
  8
SP
  2
_OPEN
 10
-2668.227427103332
 20
1955.8970137353699
 30
0.0
 41
25.0
 42
25.0
 43
25.0
 50
90.0
  0
INSERT
  5
6EE4
  8
SP
  2
_OPEN
 10
-2668.227427103332
 20
1609.8970137353699
 30
0.0
 41
25.0
 42
25.0
 43
25.0
 50
270.0
  0
TEXT
  5
6EE5
  8
SP
 10
-2678.227427103333
 20
1741.5435264257369
 30
0.0
 40
30.0
  1
346
 50
90.0
 51
15.0
  0
POINT
  5
6EE6
  8
DEFPOINTS
 62
     0
 10
-2802.5123623725099
 20
1955.8970137353699
 30
0.0
  0
POINT
  5
6EE7
  8
DEFPOINTS
 62
     0
 10
-2764.8130032500512
 20
1609.8970137353699
 30
0.0
  0
POINT
  5
6EE8
  8
DEFPOINTS
 62
     0
 10
-2668.227427103332
 20
1609.8970137353699
 30
0.0
  0
ENDBLK
  5
6EBE
  8
0
  0
BLOCK
  8
0
  2
*D23
 70
     1
 10
0.0
 20
0.0
 30
0.0
  3
*D23
  1

  0
LINE
  5
6EE9
  8
SP
 10
-2754.8130032500512
 20
2109.897013735369
 30
0.0
 11
-2588.089600473766
 21
2109.897013735369
 31
0.0
  0
LINE
  5
6EEA
  8
SP
 10
-2754.8130032500512
 20
1609.8970137353699
 30
0.0
 11
-2588.089600473766
 21
1609.8970137353699
 31
0.0
  0
LINE
  5
6EEB
  8
SP
 10
-2598.089600473766
 20
2084.897013735369
 30
0.0
 11
-2598.089600473766
 21
1634.897013735369
 31
0.0
  0
INSERT
  5
6EEC
  8
SP
  2
_OPEN
 10
-2598.089600473766
 20
2109.897013735369
 30
0.0
 41
25.0
 42
25.0
 43
25.0
 50
90.0
  0
INSERT
  5
6EED
  8
SP
  2
_OPEN
 10
-2598.089600473766
 20
1609.8970137353699
 30
0.0
 41
25.0
 42
25.0
 43
25.0
 50
270.0
  0
TEXT
  5
6EEE
  8
SP
 10
-2608.089600473766
 20
1818.0206329917601
 30
0.0
 40
30.0
  1
500
 50
90.0
 51
15.0
  0
POINT
  5
6EEF
  8
DEFPOINTS
 62
     0
 10
-2764.8130032500512
 20
2109.897013735369
 30
0.0
  0
POINT
  5
6EF0
  8
DEFPOINTS
 62
     0
 10
-2764.8130032500512
 20
1609.8970137353699
 30
0.0
  0
POINT
  5
6EF1
  8
DEFPOINTS
 62
     0
 10
-2598.089600473766
 20
1609.8970137353699
 30
0.0
  0
ENDBLK
  5
6ECA
  8
0
  0
BLOCK
  8
0
  2
*D24
 70
     1
 10
0.0
 20
0.0
 30
0.0
  3
*D24
  1

  0
LINE
  5
6EF2
  8
SP
 10
-2792.5123623725099
 20
1955.8970137353699
 30
0.0
 11
-2658.2274271033311
 21
1955.8970137353699
 31
0.0
  0
LINE
  5
6EF3
  8
SP
 10
-2754.8130032500512
 20
2109.897013735369
 30
0.0
 11
-2658.2274271033311
 21
2109.897013735369
 31
0.0
  0
LINE
  5
6EF4
  8
SP
 10
-2668.227427103332
 20
1980.8970137353699
 30
0.0
 11
-2668.227427103332
 21
2084.897013735369
 31
0.0
  0
INSERT
  5
6EF5
  8
SP
  2
_OPEN
 10
-2668.227427103332
 20
1955.8970137353699
 30
0.0
 41
25.0
 42
25.0
 43
25.0
 50
270.0
  0
INSERT
  5
6EF6
  8
SP
  2
_OPEN
 10
-2668.227427103332
 20
2109.897013735369
 30
0.0
 41
25.0
 42
25.0
 43
25.0
 50
90.0
  0
TEXT
  5
6EF7
  8
SP
 10
-2678.2274271033311
 20
1991.8750275794071
 30
0.0
 40
30.0
  1
154
 50
90.0
 51
15.0
  0
POINT
  5
6EF8
  8
DEFPOINTS
 62
     0
 10
-2802.5123623725099
 20
1955.8970137353699
 30
0.0
  0
POINT
  5
6EF9
  8
DEFPOINTS
 62
     0
 10
-2764.8130032500512
 20
2109.897013735369
 30
0.0
  0
POINT
  5
6EFA
  8
DEFPOINTS
 62
     0
 10
-2668.227427103332
 20
2109.897013735369
 30
0.0
  0
ENDBLK
  5
6ED6
  8
0
  0
BLOCK
  8
0
  2
*U25
 70
     1
 10
0.0
 20
0.0
 30
0.0
  3
*U25
  1

  0
TEXT
  5
6F23
  8
SP
 10
-1853.7272226286709
 20
981.17237207246285
 30
0.0
 40
30.0
  1
\U+2205
 50
90.0
 51
15.0
  0
TEXT
  5
6F24
  8
SP
 10
-1853.7272226286709
 20
1008.31522921532
 30
0.0
 40
30.0
  1
200
 50
90.0
 51
15.0
  0
ENDBLK
  5
6F26
  8
0
  0
ENDSEC
  0
SECTION
  2
ENTITIES
  0
LINE
  5
3A5D
  8
4
 10
-1496.233098944816
 20
2950.0000009706878
 30
0.0
 11
-1496.233098944816
 21
0.0000009706882338
 31
0.0
  0
LINE
  5
3A5E
  8
4
 10
-3596.233098944816
 20
0.0000009706882338
 30
0.0
 11
-3596.233098944816
 21
2950.0000009706878
 31
0.0
  0
LINE
  5
3A67
  8
4
 10
-1496.233098944816
 20
0.0000009706882338
 30
0.0
 11
-3596.233098944816
 21
0.0000009706882338
 31
0.0
  0
LINE
  5
3A72
  8
1
 10
-2092.27011998026
 20
805.59565485309543
 30
0.0
 11
-2122.2701199802609
 21
805.59565485309543
 31
0.0
  0
LINE
  5
3A74
  8
1
 10
-2165.5701199802602
 20
1063.9956548530949
 30
0.0
 11
-2122.2701199802609
 21
1110.7956548530949
 31
0.0
  0
LINE
  5
3A78
  8
1
 10
-2092.27011998026
 20
803.9956548530954
 30
0.0
 11
-2292.27011998026
 21
803.9956548530954
 31
0.0
  0
LINE
  5
3A79
  8
2
 10
-2385.2701199802609
 20
1043.995654853094
 30
0.0
 11
-1931.944238340111
 21
1043.9956548530949
 31
0.0
  0
LINE
  5
3A8C
  8
1
 10
-2165.5701199802602
 20
1063.9956548530949
 30
0.0
 11
-2292.27011998026
 21
805.59565485309543
 31
0.0
  0
LINE
  5
3A8E
  8
1
 10
-2345.2701199802609
 20
1104.0342853677109
 30
0.0
 11
-2345.2701199802609
 21
983.95702433847816
 31
0.0
  0
LINE
  5
3A8F
  8
1
 10
-2283.403245781396
 20
1118.9956548530949
 30
0.0
 11
-2283.403245781396
 21
974.60748589178945
 31
0.0
  0
LINE
  5
3A90
  8
1
 10
-2310.3470289712891
 20
1118.9956548530949
 30
0.0
 11
-2310.3470289712891
 21
974.60748589178945
 31
0.0
  0
LINE
  5
3A91
  8
2
 10
-2224.2701199802609
 20
1132.286808899627
 30
0.0
 11
-2224.2701199802609
 21
964.87221010250676
 31
0.0
  0
LINE
  5
3ADA
  8
1
 10
-2292.27011998026
 20
805.59565485309543
 30
0.0
 11
-2292.27011998026
 21
803.9956548530954
 31
0.0
  0
LINE
  5
3ADB
  8
1
 10
-2283.403245781396
 20
974.60748589178945
 30
0.0
 11
-2310.3470289712891
 21
974.60748589178945
 31
0.0
  0
LINE
  5
3ADC
  8
1
 10
-2345.2701199802609
 20
983.95702433847816
 30
0.0
 11
-2310.3470289712891
 21
977.49133173880375
 31
0.0
  0
LINE
  5
3ADE
  8
1
 10
-2291.1701199802601
 20
971.99565485309529
 30
0.0
 11
-2255.3384427168471
 21
895.08667189806465
 31
0.0
  0
LINE
  5
3AE0
  8
1
 10
-2255.3384427168471
 20
895.08667189806465
 30
0.0
 11
-2251.9531843179579
 21
887.82056546981835
 31
0.0
  0
LINE
  5
3AE1
  8
1
 10
-2292.7843907042911
 20
970.39565485309549
 30
0.0
 11
-2214.1384533135929
 21
970.39565485309549
 31
0.0
  0
LINE
  5
3AE2
  8
1
 10
-2213.610536646926
 20
972.99565485309495
 30
0.0
 11
-2279.2701199802618
 21
972.99565485309495
 31
0.0
  0
LINE
  5
3AE3
  8
1
 10
-2295.5701199802602
 20
971.99565485309529
 30
0.0
 11
-2214.1384533135929
 21
971.99565485309529
 31
0.0
  0
LINE
  5
3AE4
  8
1
 10
-2247.5065235693528
 20
992.73714099371875
 30
0.0
 11
-2203.1886770885221
 21
992.73714099371875
 31
0.0
  0
LINE
  5
3AE5
  8
1
 10
-2252.9186593343052
 20
976.94027839224054
 30
0.0
 11
-2211.5281041368862
 21
976.94027839224054
 31
0.0
  0
ARC
  5
3AE6
  8
1
 10
-2295.5701199802611
 20
969.39565485309549
 30
0.0
 40
1.0
 50
90.0
 51
180.0
  0
LINE
  5
3AE7
  8
1
 10
-2295.5701199802611
 20
970.39565485309549
 30
0.0
 11
-2292.7843907042911
 21
970.39565485309549
 31
0.0
  0
LINE
  5
3AE8
  8
1
 10
-2296.5701199802611
 20
969.39565485309549
 30
0.0
 11
-2296.5701199802602
 21
953.5956548530952
 31
0.0
  0
LINE
  5
3AE9
  8
1
 10
-2298.1701199802601
 20
953.5956548530952
 30
0.0
 11
-2296.5701199802602
 21
953.5956548530952
 31
0.0
  0
ARC
  5
3AEA
  8
1
 10
-2295.5701199802602
 20
969.39565485309549
 30
0.0
 40
2.6000000000000001
 50
90.0
 51
180.0
  0
LINE
  5
3AEB
  8
1
 10
-2298.1701199802601
 20
969.39565485309549
 30
0.0
 11
-2298.1701199802601
 21
953.5956548530952
 31
0.0
  0
LINE
  5
3AEC
  8
1
 10
-2279.2701199802618
 20
981.58749494825679
 30
0.0
 11
-2251.32648451043
 21
981.58749494825679
 31
0.0
  0
LINE
  5
3AED
  8
1
 10
-2247.5065235693528
 20
992.73714099371875
 30
0.0
 11
-2254.2701199802609
 21
972.99565485309495
 31
0.0
  0
LINE
  5
3AEE
  8
CT
 10
-2269.2701199802618
 20
985.29792081511539
 30
0.0
 11
-2269.2701199802618
 21
964.87221010250676
 31
0.0
  0
LINE
  5
3AEF
  8
1
 10
-2279.2701199802618
 20
981.58749494825679
 30
0.0
 11
-2279.2701199802618
 21
971.99565485309529
 31
0.0
  0
LINE
  5
3AF0
  8
1
 10
-2254.2701199802609
 20
972.99565485309495
 30
0.0
 11
-2279.2701199802618
 21
972.99565485309495
 31
0.0
  0
LINE
  5
3AF1
  8
1
 10
-2283.403245781396
 20
978.04512189848128
 30
0.0
 11
-2279.2701199802618
 21
978.04512189848128
 31
0.0
  0
LINE
  5
3AF3
  8
1
 10
-2214.1384533135929
 20
970.39565485309549
 30
0.0
 11
-2211.4645472248421
 21
970.39565485309549
 31
0.0
  0
LINE
  5
3AF5
  8
1
 10
-2214.1384533135929
 20
971.99565485309529
 30
0.0
 11
-2210.6800271010029
 21
971.99565485309529
 31
0.0
  0
LINE
  5
3AF6
  8
1
 10
-2211.5281041368862
 20
976.94027839224054
 30
0.0
 11
-2208.2555541814609
 21
976.94027839224066
 31
0.0
  0
LINE
  5
3AF7
  8
1
 10
-2203.1886770885221
 20
992.73714099371875
 30
0.0
 11
-2201.0337163911699
 21
992.73714099371875
 31
0.0
  0
LINE
  5
3AFB
  8
1
 10
-2201.0337163911699
 20
992.73714099371875
 30
0.0
 11
-2200.8182795402272
 21
992.10832706859935
 31
0.0
  0
LINE
  5
3B34
  8
1
 10
-2310.3470289712891
 20
1118.9956548530949
 30
0.0
 11
-2283.403245781396
 21
1118.9956548530949
 31
0.0
  0
POINT
  5
3B35
  8
1
 10
-2345.2701199802609
 20
1104.0342853677109
 30
0.0
  0
LINE
  5
3B36
  8
1
 10
-2345.2701199802609
 20
1104.0342853677109
 30
0.0
 11
-2310.3470289712891
 21
1115.3492474171419
 31
0.0
  0
LINE
  5
3B37
  8
1
 10
-2152.7701199802618
 20
1107.246026409548
 30
0.0
 11
-2152.7701199802618
 21
1077.8302968854259
 31
0.0
  0
LINE
  5
3B38
  8
1
 10
-2283.403245781396
 20
1107.246026409548
 30
0.0
 11
-2152.7701199802618
 21
1107.246026409548
 31
0.0
  0
LINE
  5
3B3A
  8
2
 10
-2045.2701199802621
 20
1265.834665581631
 30
0.0
 11
-2045.2701199802621
 21
875.01297153561961
 31
0.0
  0
DIMENSION
  5
3B3B
  8
3
  2
*D4
 10
-1843.7272226286709
 20
943.9956548530954
 30
0.0
 11
-1868.7272226286709
 21
1043.9956548530949
 31
0.0
 70
     0
  1
%%c<>
 13
-1968.2701199802621
 23
1143.9956548530949
 33
0.0
 14
-1968.2701199802621
 24
943.9956548530954
 34
0.0
 50
90.0
  0
LINE
  5
3B3D
  8
1
 10
-2123.8701199802608
 20
1168.9956548530949
 30
0.0
 11
-2123.8701199802599
 21
803.9956548530954
 31
0.0
  0
LINE
  5
3B42
  8
1
 10
-1968.2701199802621
 20
1160.995654853094
 30
0.0
 11
-1968.2701199802621
 21
926.9956548530954
 31
0.0
  0
LINE
  5
3B43
  8
1
 10
-2122.2701199802609
 20
1168.9956548530949
 30
0.0
 11
-2122.2701199802609
 21
803.99565485309517
 31
0.0
  0
LINE
  5
3B4A
  8
1
 10
-2092.27011998026
 20
805.59565485309543
 30
0.0
 11
-2092.27011998026
 21
803.9956548530954
 31
0.0
  0
LINE
  5
3B4B
  8
1
 10
-2092.27011998026
 20
805.59565485309543
 30
0.0
 11
-2120.6701199802601
 21
805.59565485309543
 31
0.0
  0
LINE
  5
3B56
  8
1
 10
-2106.2701199802609
 20
903.9956548530954
 30
0.0
 11
-1984.2701199802621
 21
903.9956548530954
 31
0.0
  0
POINT
  5
3B58
  8
1
 10
-2045.2701199802621
 20
878.78906864535838
 30
0.0
  0
ARC
  5
3B68
  8
1
 10
-1971.2701199802621
 20
926.9956548530954
 30
0.0
 40
3.0
 50
270.0
 51
0.0
  0
ARC
  5
3B69
  8
1
 10
-1972.2701199802609
 20
920.9956548530954
 30
0.0
 40
3.0
 50
90.0
 51
131.81031489577811
  0
LINE
  5
3B6B
  8
1
 10
-1972.2701199802609
 20
923.99565485309529
 30
0.0
 11
-1971.2701199802621
 21
923.99565485309529
 31
0.0
  0
LINE
  5
3B85
  8
FUTO
 10
-2136.2701199802609
 20
1203.9956548530949
 30
0.0
 11
-1954.2701199802609
 21
1203.9956548530949
 31
0.0
  0
LINE
  5
3B86
  8
1
  6
CONTINUOUS
 10
-2101.2701199802609
 20
1188.9956548530949
 30
0.0
 11
-1989.2701199802609
 21
1188.9956548530949
 31
0.0
  0
LINE
  5
3B87
  8
1
  6
CONTINUOUS
 10
-2116.2701199802609
 20
1203.9956548530949
 30
0.0
 11
-2101.2701199802609
 21
1188.9956548530949
 31
0.0
  0
LINE
  5
3B89
  8
1
 10
-2123.8701199802608
 20
1168.9956548530949
 30
0.0
 11
-2123.8701199802608
 21
1168.9956548530949
 31
0.0
  0
LINE
  5
3B8A
  8
1
 10
-2123.8701199802608
 20
1168.9956548530949
 30
0.0
 11
-2123.8701199802608
 21
1168.9956548530949
 31
0.0
  0
LINE
  5
3B8B
  8
1
 10
-2123.8701199802608
 20
1168.9956548530949
 30
0.0
 11
-2123.8701199802608
 21
1168.9956548530949
 31
0.0
  0
LINE
  5
3B8C
  8
1
 10
-2122.2701199802609
 20
1168.9956548530949
 30
0.0
 11
-2123.8701199802608
 21
1168.9956548530949
 31
0.0
  0
LINE
  5
3B8F
  8
1
  6
CONTINUOUS
 10
-1974.2701199802609
 20
1203.9956548530949
 30
0.0
 11
-1989.2701199802609
 21
1188.9956548530949
 31
0.0
  0
POINT
  5
3B90
  8
1
 10
-1968.2701199802621
 20
1160.995654853094
 30
0.0
  0
ARC
  5
3B91
  8
1
 10
-1971.2701199802621
 20
1160.995654853094
 30
0.0
 40
3.0
 50
0.0
 51
90.0
  0
ARC
  5
3B92
  8
1
 10
-1972.2701199802609
 20
1166.9956548530949
 30
0.0
 40
3.0
 50
228.18968510422039
 51
270.0
  0
LINE
  5
3B93
  8
1
 10
-1972.2701199802609
 20
1163.9956548530949
 30
0.0
 11
-1971.2701199802621
 21
1163.995654853094
 31
0.0
  0
LINE
  5
3B94
  8
1
 10
-1975.2701199802621
 20
1203.9956548530949
 30
0.0
 11
-1975.2701199802621
 21
912.99565485309529
 31
0.0
  0
LINE
  5
3B96
  8
4
 10
-3596.233098944816
 20
2950.0000009706878
 30
0.0
 11
-1496.233098944816
 21
2950.0000009706878
 31
0.0
  0
LINE
  5
3BDD
  8
4
 10
-1496.233098944816
 20
2950.0000009706878
 30
0.0
 11
-1496.233098944816
 21
2950.0000009706878
 31
0.0
  0
LINE
  5
4B43
  8
FUTO
 10
-2136.2701199802609
 20
1202.9956548530949
 30
0.0
 11
-1954.2701199802609
 21
1202.9956548530949
 31
0.0
  0
LINE
  5
4B44
  8
1
 10
-1974.2701199802609
 20
1203.9956548530949
 30
0.0
 11
-1974.2701199802621
 21
912.99565485309529
 31
0.0
  0
LINE
  5
4B46
  8
1
 10
-2106.2701199802609
 20
902.9956548530954
 30
0.0
 11
-1984.2701199802621
 21
902.9956548530954
 31
0.0
  0
ARC
  5
4B47
  8
1
 10
-1984.2701199802621
 20
912.99565485309529
 30
0.0
 40
10.0
 50
269.99999999999989
 51
0.0
  0
ARC
  5
4B48
  8
1
 10
-1984.2701199802621
 20
912.99565485309529
 30
0.0
 40
9.0
 50
269.99999999999989
 51
0.0
  0
LINE
  5
4B4A
  8
FUTO
 10
-2136.2701199802609
 20
1202.9956548530949
 30
0.0
 11
-2136.2701199802609
 21
1203.9956548530949
 31
0.0
  0
LINE
  5
4B4B
  8
FUTO
 10
-1954.2701199802609
 20
1202.9956548530949
 30
0.0
 11
-1954.2701199802609
 21
1203.9956548530949
 31
0.0
  0
DIMENSION
  5
4B4C
  8
SP
  2
*D5
 10
-1975.2701199802621
 20
1273.9956548530949
 30
0.0
 11
-2045.2701199802621
 21
1298.9956548530949
 31
0.0
 70
     0
 13
-2115.2701199802618
 23
1203.9956548530949
 33
0.0
 14
-1975.2701199802621
 24
1203.9956548530949
 34
0.0
  0
DIMENSION
  5
4B59
  8
SP
  2
*D6
 10
-1968.2701199802621
 20
1343.9956548530949
 30
0.0
 11
-2006.7701199802621
 21
1368.9956548530949
 31
0.0
 70
     0
 13
-2045.2701199802621
 23
1308.908141808362
 33
0.0
 14
-1968.2701199802621
 24
1160.995654853094
 34
0.0
  0
LINE
  5
4B7A
  8
FUTO
 10
-1975.2701199802609
 20
1143.9956548530949
 30
0.0
 11
-1968.2701199802621
 21
1143.9956548530949
 31
0.0
  0
LINE
  5
4B7B
  8
FUTO
 10
-1975.2701199802609
 20
943.99565485309563
 30
0.0
 11
-1968.2701199802621
 21
943.99565485309563
 31
0.0
  0
LINE
  5
4B85
  8
1
 10
-2115.2701199802609
 20
1203.9956548530949
 30
0.0
 11
-2115.2701199802609
 21
912.99565485309529
 31
0.0
  0
LINE
  5
4B86
  8
1
 10
-2116.2701199802609
 20
1203.9956548530949
 30
0.0
 11
-2116.2701199802609
 21
912.99565485309529
 31
0.0
  0
ARC
  5
4B87
  8
1
 10
-2118.2701199802618
 20
1166.9956548530949
 30
0.0
 40
3.0
 50
270.0
 51
311.81031489577953
  0
LINE
  5
4B88
  8
1
 10
-2118.2701199802618
 20
1163.9956548530949
 30
0.0
 11
-2119.2701199802609
 21
1163.995654853094
 31
0.0
  0
ARC
  5
4B89
  8
1
 10
-2119.2701199802609
 20
1160.995654853094
 30
0.0
 40
3.0
 50
90.0
 51
180.0
  0
POINT
  5
4B8A
  8
1
 10
-2122.2701199802609
 20
1160.995654853094
 30
0.0
  0
ARC
  5
4B8C
  8
1
 10
-2118.2701199802618
 20
920.9956548530954
 30
0.0
 40
3.0
 50
48.189685104221901
 51
90.0
  0
LINE
  5
4B8D
  8
1
 10
-2118.2701199802618
 20
923.99565485309529
 30
0.0
 11
-2119.2701199802609
 21
923.99565485309529
 31
0.0
  0
ARC
  5
4B8E
  8
1
 10
-2119.2701199802609
 20
926.9956548530954
 30
0.0
 40
3.0
 50
180.0
 51
270.0
  0
ARC
  5
4B8F
  8
1
 10
-2106.2701199802609
 20
912.99565485309529
 30
0.0
 40
9.0
 50
180.0
 51
270.0
  0
ARC
  5
4B90
  8
1
 10
-2106.2701199802609
 20
912.99565485309529
 30
0.0
 40
10.0
 50
180.0
 51
270.0
  0
LINE
  5
4B92
  8
1
 10
-2210.1897020236029
 20
972.99565485309483
 30
0.0
 11
-2213.610536646926
 21
972.99565485309495
 31
0.0
  0
DIMENSION
  5
4B95
  8
SP
  2
*D7
 10
-2345.2701199802609
 20
1343.9956548530949
 30
0.0
 11
-2195.2701199802618
 21
1368.9956548530949
 31
0.0
 70
     0
  1
（340）
 13
-2045.2701199802621
 23
1313.9956548530949
 33
0.0
 14
-2345.2701199802609
 24
1104.0342853677109
 34
0.0
  0
DIMENSION
  5
4BB4
  8
SP
  2
*D11
 10
-3189.8130032500512
 20
1273.9956548530949
 30
0.0
 11
-3089.8130032500521
 21
1298.9956548530949
 31
0.0
 70
     0
 13
-2989.8130032500521
 23
1220.1561682696949
 33
0.0
 14
-3189.8130032500512
 24
1203.9956548530961
 34
0.0
  0
ARC
  5
4BB7
  8
1
 10
-3005.8130032500521
 20
1059.9956548530961
 30
0.0
 40
195.0
 50
180.0
 51
277.32205959044722
  0
ARC
  5
4BB8
  8
1
 10
-3005.8130032500521
 20
1059.9956548530961
 30
0.0
 40
184.0
 50
180.0
 51
277.30291128240623
  0
LINE
  5
4BB9
  8
2
 10
-3221.61933919289
 20
1043.9956548530949
 30
0.0
 11
-2814.147374244365
 21
1043.9956548530949
 31
0.0
  0
LINE
  5
4BBA
  8
1
 10
-3154.8130032500521
 20
805.59565485309543
 30
0.0
 11
-3125.8130032500512
 21
805.59565485309543
 31
0.0
  0
LINE
  5
4BBB
  8
1
 10
-3154.8130032500521
 20
803.99565485309483
 30
0.0
 11
-2824.8130032500499
 21
803.9956548530954
 31
0.0
  0
ARC
  5
4BBC
  8
1
 10
-3003.8130032500521
 20
1029.9956548530961
 30
0.0
 40
165.0
 50
277.96090473736149
 51
312.83342806606601
  0
ARC
  5
4BBD
  8
1
 10
-3003.8130032500521
 20
1029.9956548530961
 30
0.0
 40
154.0
 50
277.98365855593647
 51
308.21321070174127
  0
LINE
  5
4BBE
  8
1
 10
-3154.8130032500512
 20
805.59565485309543
 30
0.0
 11
-3154.8130032500512
 21
803.9956548530954
 31
0.0
  0
DIMENSION
  5
4BBF
  8
SP
  2
*D9
 10
-2687.1386798530621
 20
803.99565485309517
 30
0.0
 11
-2712.1386798530621
 21
923.99565485309483
 31
0.0
 70
     0
 13
-2814.147374244365
 23
1043.9956548530949
 33
0.0
 14
-2824.8130032500499
 24
803.9956548530954
 34
0.0
 50
90.0
  0
LINE
  5
4BC0
  8
2
 10
-2989.8130032500521
 20
1220.1561682696949
 30
0.0
 11
-2989.8130032500521
 21
731.92250128847797
 31
0.0
  0
CIRCLE
  5
4BC1
  8
CT
 10
-2989.8130032500512
 20
1043.9956548530949
 30
0.0
 40
110.0
  0
ARC
  5
4BC2
  8
1
 10
-2926.8130032500521
 20
1236.995654853097
 30
0.0
 40
71.0
 50
234.77580501938399
 51
250.28718125888281
  0
ARC
  5
4BC3
  8
1
 10
-2926.8130032500521
 20
1236.995654853097
 30
0.0
 40
82.0
 50
222.59881289245331
 51
250.8659075255641
  0
ARC
  5
4BC4
  8
1
 10
-2989.8130032500521
 20
1043.9956548530949
 30
0.0
 40
75.0
 50
292.3051532135043
 51
247.69484678649559
  0
CIRCLE
  5
4BC5
  8
1
 10
-2989.8130032500521
 20
1043.9956548530949
 30
0.0
 40
69.388168961305382
  0
CIRCLE
  5
4BC6
  8
1
 10
-2989.8130032500521
 20
1043.9956548530949
 30
0.0
 40
60.038630514616607
  0
LINE
  5
4BC7
  8
1
 10
-2856.4130032500511
 20
1099.037772500154
 30
0.0
 11
-2856.4130032500511
 21
971.99565485309529
 31
0.0
  0
LINE
  5
4BC8
  8
1
 10
-3123.2130032500509
 20
1099.037772500154
 30
0.0
 11
-3123.2130032500509
 21
969.39565485309549
 31
0.0
  0
LINE
  5
4BC9
  8
1
 10
-3124.8130032500512
 20
1097.695654853095
 30
0.0
 11
-3124.8130032500512
 21
803.99565485309483
 31
0.0
  0
LINE
  5
4BCA
  8
1
 10
-2854.8130032500521
 20
1097.695654853095
 30
0.0
 11
-2854.8130032500521
 21
803.99565485309483
 31
0.0
  0
ARC
  5
4BCC
  8
1
 10
-2978.8130032500521
 20
1032.995654853097
 30
0.0
 40
129.0
 50
14.32230433795298
 51
78.770205931455934
  0
LINE
  5
4BCD
  8
1
 10
-2856.413003250052
 20
969.39565485309549
 30
0.0
 11
-2856.413003250052
 21
876.69565485309522
 31
0.0
  0
LINE
  5
4BCE
  8
1
 10
-2858.0130032500529
 20
969.39565485309504
 30
0.0
 11
-2858.013003250052
 21
876.69565485309522
 31
0.0
  0
LINE
  5
4BCF
  8
1
 10
-3123.2130032500509
 20
969.39565485309549
 30
0.0
 11
-3123.2130032500522
 21
876.69565485309522
 31
0.0
  0
LINE
  5
4BD0
  8
1
 10
-3121.613003250051
 20
969.39565485309504
 30
0.0
 11
-3121.613003250051
 21
876.69565485309522
 31
0.0
  0
ARC
  5
4BD1
  8
1
 10
-3003.8130032500521
 20
1029.9956548530961
 30
0.0
 40
165.0
 50
312.83342806606601
 51
0.0
  0
ARC
  5
4BD2
  8
1
 10
-3003.8130032500521
 20
1029.9956548530961
 30
0.0
 40
154.0
 50
308.21321070174127
 51
13.10276203410236
  0
ARC
  5
4BD3
  8
1
 10
-2978.8130032500521
 20
1032.995654853097
 30
0.0
 40
140.0
 50
0.0
 51
78.441619844374202
  0
LINE
  5
4BD4
  8
1
 10
-3123.2130032500522
 20
876.69565485309522
 30
0.0
 11
-3123.2130032500522
 21
806.59565485309531
 31
0.0
  0
ARC
  5
4BD5
  8
1
 10
-3125.8130032500512
 20
806.59565485309531
 30
0.0
 40
2.6000000000000001
 50
270.0
 51
0.0
  0
ARC
  5
4BD6
  8
1
 10
-3125.8130032500512
 20
806.59565485309531
 30
0.0
 40
1.0
 50
270.0
 51
0.0
  0
LINE
  5
4BD8
  8
1
 10
-2838.8130032500512
 20
1032.9956548530961
 30
0.0
 11
-2838.8130032500512
 21
1029.9956548530949
 31
0.0
  0
LINE
  5
4BD9
  8
1
 10
-3123.2130032500509
 20
876.69565485309522
 30
0.0
 11
-3121.613003250051
 21
876.69565485309522
 31
0.0
  0
LINE
  5
4BDA
  8
1
 10
-2856.413003250052
 20
876.69565485309522
 30
0.0
 11
-2856.413003250052
 21
806.59565485309531
 31
0.0
  0
LINE
  5
4BDB
  8
1
 10
-2824.8130032500512
 20
805.59565485309543
 30
0.0
 11
-2824.8130032500499
 21
803.9956548530954
 31
0.0
  0
ARC
  5
4BDD
  8
1
 10
-2853.8130032500521
 20
806.59565485309531
 30
0.0
 40
1.0
 50
180.0
 51
270.0
  0
ARC
  5
4BDE
  8
1
 10
-2853.8130032500521
 20
806.59565485309531
 30
0.0
 40
2.6000000000000001
 50
180.0
 51
270.0
  0
LINE
  5
4BDF
  8
1
 10
-2853.8130032500521
 20
805.59565485309543
 30
0.0
 11
-2824.8130032500499
 21
805.59565485309543
 31
0.0
  0
LINE
  5
4BE0
  8
1
 10
-2858.013003250052
 20
876.69565485309522
 30
0.0
 11
-2856.413003250052
 21
876.69565485309522
 31
0.0
  0
ARC
  5
4BE1
  8
1
 10
-2859.0130032500529
 20
969.39565485309504
 30
0.0
 40
1.0
 50
0.0
 51
90.0
  0
ARC
  5
4BE2
  8
1
 10
-2859.013003250052
 20
969.39565485309549
 30
0.0
 40
2.6000000000000001
 50
0.0
 51
90.0
  0
LINE
  5
4BE3
  8
1
 10
-2939.8130032500521
 20
953.5956548530952
 30
0.0
 11
-2897.8130032500521
 21
971.99565485309529
 31
0.0
  0
LINE
  5
4BE4
  8
1
 10
-3039.8130032500521
 20
953.5956548530952
 30
0.0
 11
-3081.8130032500521
 21
971.99565485309529
 31
0.0
  0
LINE
  5
4BE5
  8
1
 10
-3039.8130032500521
 20
953.5956548530952
 30
0.0
 11
-2939.8130032500521
 21
953.5956548530952
 31
0.0
  0
LINE
  5
4BE6
  8
CT
 10
-3028.9353642345641
 20
949.54592037222619
 30
0.0
 11
-3034.9426365546442
 21
935.0430820642232
 31
0.0
  0
CIRCLE
  5
4BE7
  8
1
 10
-3031.908180810211
 20
942.36890627685489
 30
0.0
 40
4.0
  0
LINE
  5
4BE8
  8
CT
 10
-2950.690642265537
 20
949.54592037222574
 30
0.0
 11
-2944.6833699454578
 21
935.04308206422274
 31
0.0
  0
CIRCLE
  5
4BE9
  8
1
 10
-2947.7178256898919
 20
942.36890627685341
 30
0.0
 40
4.0
  0
LINE
  5
4BEA
  8
1
 10
-2961.3475503606751
 20
974.60748589179002
 30
0.0
 11
-3018.2784561394292
 21
974.60748589179002
 31
0.0
  0
LINE
  5
4BEB
  8
1
 10
-3078.1608293370082
 20
970.39565485309504
 30
0.0
 11
-2901.4651771630961
 21
970.39565485309504
 31
0.0
  0
LINE
  5
4BEC
  8
1
 10
-3120.613003250051
 20
971.99565485309529
 30
0.0
 11
-2859.013003250052
 21
971.99565485309529
 31
0.0
  0
LINE
  5
4BED
  8
CT
 10
-3084.2627377309209
 20
1004.873293868582
 30
0.0
 11
-3098.7655760389239
 21
998.86602154850277
 31
0.0
  0
CIRCLE
  5
4BEE
  8
1
 10
-3091.4397518262931
 20
1001.900477292935
 30
0.0
 40
4.0
  0
LINE
  5
4BEF
  8
1
 10
-3029.8130032500521
 20
972.99565485309529
 30
0.0
 11
-3029.8130032500512
 21
971.99565485309529
 31
0.0
  0
LINE
  5
4BF0
  8
1
 10
-3045.8130032500521
 20
963.99565485309529
 30
0.0
 11
-3045.8130032500521
 21
981.92271906741871
 31
0.0
  0
LINE
  5
4BF1
  8
1
 10
-3029.8130032500521
 20
972.99565485309529
 30
0.0
 11
-3021.634142994531
 21
976.08089161738735
 31
0.0
  0
LINE
  5
4BF2
  8
1
 10
-3059.8130032500521
 20
972.99565485309529
 30
0.0
 11
-3059.8130032500512
 21
971.99565485309529
 31
0.0
  0
ARC
  5
4BF3
  8
1
 10
-3120.613003250051
 20
969.39565485309549
 30
0.0
 40
2.6000000000000001
 50
90.0
 51
180.0
  0
ARC
  5
4BF4
  8
1
 10
-3120.613003250051
 20
969.39565485309504
 30
0.0
 40
1.0
 50
90.0
 51
180.0
  0
LINE
  5
4BF5
  8
1
 10
-3120.613003250051
 20
970.39565485309504
 30
0.0
 11
-3078.1608293370082
 21
970.39565485309504
 31
0.0
  0
LINE
  5
4BF6
  8
1
 10
-3029.8130032500521
 20
972.99565485309529
 30
0.0
 11
-3059.8130032500521
 21
972.99565485309529
 31
0.0
  0
LINE
  5
4BF7
  8
1
 10
-3059.8130032500521
 20
972.99565485309529
 30
0.0
 11
-3042.3436547640572
 21
990.46500333908898
 31
0.0
  0
LINE
  5
4BF8
  8
CT
 10
-2895.3632687691802
 20
1004.873293868581
 30
0.0
 11
-2880.8604304611781
 21
998.86602154850277
 31
0.0
  0
CIRCLE
  5
4BF9
  8
1
 10
-2888.1862546738098
 20
1001.900477292936
 30
0.0
 40
4.0
  0
LINE
  5
4BFA
  8
1
 10
-2901.4651771630961
 20
970.39565485309504
 30
0.0
 11
-2859.0130032500529
 21
970.39565485309504
 31
0.0
  0
LINE
  5
4BFB
  8
1
 10
-2919.8130032500521
 20
972.99565485309529
 30
0.0
 11
-2919.8130032500512
 21
971.99565485309529
 31
0.0
  0
LINE
  5
4BFC
  8
1
 10
-2949.8130032500521
 20
972.99565485309529
 30
0.0
 11
-2949.8130032500521
 21
971.99565485309529
 31
0.0
  0
LINE
  5
4BFD
  8
1
 10
-2949.8130032500521
 20
972.99565485309529
 30
0.0
 11
-2957.991863505571
 21
976.08089161738735
 31
0.0
  0
LINE
  5
4BFE
  8
1
 10
-2919.8130032500521
 20
972.99565485309529
 30
0.0
 11
-2937.2823517360439
 21
990.46500333908898
 31
0.0
  0
LINE
  5
4BFF
  8
1
 10
-2933.8130032500521
 20
963.99565485309529
 30
0.0
 11
-2933.8130032500521
 21
981.92271906741871
 31
0.0
  0
LINE
  5
4C00
  8
1
 10
-2949.8130032500521
 20
972.99565485309529
 30
0.0
 11
-2919.8130032500521
 21
972.99565485309529
 31
0.0
  0
LINE
  5
4C01
  8
1
 10
-3200.8130032500512
 20
1188.9956548530961
 30
0.0
 11
-3189.8130032500521
 21
1188.9956548530961
 31
0.0
  0
LINE
  5
4C02
  8
1
 10
-3210.8130032500521
 20
1202.3956548530959
 30
0.0
 11
-2968.8130032500521
 21
1202.3956548530959
 31
0.0
  0
LINE
  5
4C03
  8
1
 10
-3210.8130032500521
 20
1203.9956548530961
 30
0.0
 11
-2968.8130032500521
 21
1203.9956548530961
 31
0.0
  0
DIMENSION
  5
4C04
  8
SP
  2
*D8
 10
-2687.1386798530621
 20
1203.9956548530961
 30
0.0
 11
-2712.1386798530621
 21
1123.9956548530949
 31
0.0
 70
     0
 13
-2814.147374244365
 23
1043.9956548530949
 33
0.0
 14
-2968.8130032500521
 24
1203.9956548530961
 34
0.0
 50
90.0
  0
LINE
  5
4C05
  8
1
 10
-2939.8130032500521
 20
1168.9956548530949
 30
0.0
 11
-2854.8130032500521
 21
1097.695654853095
 31
0.0
  0
LINE
  5
4C06
  8
1
 10
-3178.0130032500529
 20
1188.995654853097
 30
0.0
 11
-3001.6130032500519
 21
1188.9956548530961
 31
0.0
  0
LINE
  5
4C07
  8
1
 10
-3039.8130032500521
 20
1168.9956548530949
 30
0.0
 11
-3124.8130032500521
 21
1097.695654853095
 31
0.0
  0
LINE
  5
4C08
  8
CT
 10
-3084.2627377309209
 20
1083.1180158376089
 30
0.0
 11
-3098.7655760389239
 21
1089.1252881576879
 31
0.0
  0
CIRCLE
  5
4C09
  8
1
 10
-3091.4397518262922
 20
1086.0908324132561
 30
0.0
 40
4.0
  0
LINE
  5
4C0A
  8
CT
 10
-2895.3632687691811
 20
1083.118015837608
 30
0.0
 11
-2880.8604304611781
 21
1089.125288157687
 31
0.0
  0
CIRCLE
  5
4C0B
  8
1
 10
-2888.1862546738089
 20
1086.0908324132549
 30
0.0
 40
4.0
  0
LINE
  5
4C0C
  8
1
 10
-2989.8130032500521
 20
1200.795654853096
 30
0.0
 11
-3001.6130032500519
 21
1188.995654853097
 31
0.0
  0
LINE
  5
4C0D
  8
1
 10
-2968.8130032500521
 20
1202.3956548530959
 30
0.0
 11
-2968.8130032500521
 21
1203.9956548530961
 31
0.0
  0
LINE
  5
4C0E
  8
1
 10
-2989.8130032500521
 20
1188.9956548530961
 30
0.0
 11
-2989.8130032500521
 21
1202.3956548530959
 31
0.0
  0
ARC
  5
4C0F
  8
1
 10
-2979.8130032500512
 20
1188.26168312905
 30
0.0
 40
10.0
 50
180.0
 51
222.59881289245331
  0
LINE
  5
4C10
  8
1
 10
-2989.8130032500521
 20
1188.9956548530961
 30
0.0
 11
-2989.8130032500521
 21
1188.26168312905
 31
0.0
  0
LINE
  5
4C11
  8
1
 10
-2989.8130032500521
 20
1188.9956548530961
 30
0.0
 11
-2979.129348688165
 21
1188.9956548530961
 31
0.0
  0
ARC
  5
4C12
  8
1
 10
-2926.8130032500521
 20
1236.995654853097
 30
0.0
 40
71.0
 50
222.53623473352661
 51
234.77580501938399
  0
LINE
  5
4C13
  8
1
 10
-3189.8130032500521
 20
1059.9956548530961
 30
0.0
 11
-3189.8130032500512
 21
1203.9956548530961
 31
0.0
  0
LINE
  5
4C14
  8
1
 10
-3039.8130032500521
 20
1168.995654853094
 30
0.0
 11
-2939.8130032500512
 21
1168.9956548530949
 31
0.0
  0
LINE
  5
4C15
  8
CT
 10
-3028.9353642345641
 20
1138.4453893339651
 30
0.0
 11
-3034.9426365546442
 21
1152.9482276419681
 31
0.0
  0
CIRCLE
  5
4C16
  8
1
 10
-3031.908180810211
 20
1145.6224034293371
 30
0.0
 40
4.0
  0
LINE
  5
4C17
  8
CT
 10
-2950.690642265537
 20
1138.4453893339651
 30
0.0
 11
-2944.6833699454578
 21
1152.9482276419681
 31
0.0
  0
CIRCLE
  5
4C18
  8
1
 10
-2947.7178256898919
 20
1145.6224034293371
 30
0.0
 40
4.0
  0
LINE
  5
4C19
  8
1
 10
-3189.8130032500521
 20
1200.795654853096
 30
0.0
 11
-3178.0130032500529
 21
1188.995654853097
 31
0.0
  0
DIMENSION
  5
4C1A
  8
SP
  2
*D10
 10
-2849.8130032500521
 20
1273.9956548530949
 30
0.0
 11
-2919.8130032500521
 21
1298.9956548530949
 31
0.0
 70
     0
 13
-2989.8130032500521
 23
1220.1561682696949
 33
0.0
 14
-2849.8130032500521
 24
1029.9956548530961
 34
0.0
  0
LINE
  5
4C1B
  8
1
 10
-3200.8130032500521
 20
1059.9956548530961
 30
0.0
 11
-3200.8130032500521
 21
1188.9956548530961
 31
0.0
  0
LINE
  5
4C1C
  8
1
 10
-3210.8130032500521
 20
1202.3956548530959
 30
0.0
 11
-3210.8130032500521
 21
1203.9956548530961
 31
0.0
  0
LINE
  5
4D0F
  8
1
 10
-2123.8701199802599
 20
805.5956548530952
 30
0.0
 11
-2292.27011998026
 21
805.59565485309543
 31
0.0
  0
TEXT
  5
5576
  8
4
 10
-2142.3752109575098
 20
2383.4288423032031
 30
0.0
 40
53.999999999999993
  1
縮尺：1/10
  0
TEXT
  5
5577
  8
4
 10
-3293.9629509225579
 20
2382.3194785170322
 30
0.0
 40
53.999999999999993
  1
右回転上向
  0
LINE
  5
5578
  8
4
 10
-3346.233098944816
 20
2469.4087552354931
 30
0.0
 11
-1746.233098944816
 21
2469.4087552354931
 31
0.0
  0
LINE
  5
5579
  8
4
 10
-3346.233098944816
 20
2669.4087552354931
 30
0.0
 11
-1746.233098944816
 21
2669.4087552354931
 31
0.0
  0
LINE
  5
557A
  8
4
 10
-3346.233098944816
 20
2669.4087552354931
 30
0.0
 11
-3346.233098944816
 21
2469.4087552354931
 31
0.0
  0
TEXT
  5
557B
  8
4
 10
-3093.4330989448158
 20
2533.4087552354931
 30
0.0
 40
72.0
  1
遠心式片吸込片持多翼ファン
 72
     4
 11
-2546.233098944816
 21
2569.4087552354931
 31
0.0
  0
LINE
  5
557C
  8
4
 10
-2155.6156765849519
 20
2786.6522625204411
 30
0.0
 11
-1746.233098944816
 21
2786.6522625204411
 31
0.0
  0
LINE
  5
557D
  8
4
 10
-1746.233098944816
 20
2681.2635840960888
 30
0.0
 11
-2155.6156765849519
 21
2681.2635840960888
 31
0.0
  0
TEXT
  5
557E
  8
4
 10
-2127.2635396955261
 20
2706.0610824659971
 30
0.0
 40
56.000000000000007
  1
No.
  0
LINE
  5
557F
  8
4
 10
-2155.6156765849519
 20
2681.2635840960888
 30
0.0
 11
-2155.6156765849519
 21
2786.6522625204411
 31
0.0
  0
LINE
  5
5580
  8
4
 10
-1746.233098944816
 20
2669.4087552354931
 30
0.0
 11
-1746.233098944816
 21
2469.4087552354931
 31
0.0
  0
LINE
  5
5581
  8
4
 10
-1746.233098944816
 20
2786.6522625204411
 30
0.0
 11
-1746.233098944816
 21
2681.2635840960888
 31
0.0
  0
LINE
  5
5583
  8
4
 10
-3146.233098944816
 20
226.55314220080771
 30
0.0
 11
-1946.233098944816
 21
226.55314220080771
 31
0.0
  0
LINE
  5
5584
  8
4
 10
-3146.233098944816
 20
326.55314220080771
 30
0.0
 11
-1946.233098944816
 21
326.55314220080771
 31
0.0
  0
LINE
  5
5585
  8
4
 10
-3146.233098944816
 20
426.55314220080771
 30
0.0
 11
-1946.233098944816
 21
426.55314220080771
 31
0.0
  0
LINE
  5
5586
  8
4
 10
-3146.233098944816
 20
426.55314220080771
 30
0.0
 11
-3146.233098944816
 21
226.55314220080771
 31
0.0
  0
LINE
  5
5587
  8
4
 10
-2646.233098944816
 20
426.55314220080771
 30
0.0
 11
-2646.233098944816
 21
226.55314220080771
 31
0.0
  0
TEXT
  5
5589
  8
4
 10
-2609.5786033593358
 20
243.71272648075109
 30
0.0
 40
50.0
  1
MF＃1 1/4- 7
  0
TEXT
  5
558B
  8
4
 10
-3109.9749929200188
 20
248.19829893281869
 30
0.0
 40
50.0
  1
機器型番
  0
TEXT
  5
558C
  8
4
 10
-2618.5543534571511
 20
349.12491115837628
 30
0.0
 40
50.0
  1
ミツヤ多翼送風機
  0
TEXT
  5
558D
  8
4
 10
-3107.7310180979139
 20
358.09616806742059
 30
0.0
 40
50.0
  1
機器名称
  0
LINE
  5
558E
  8
4
 10
-1946.233098944816
 20
426.55314220080771
 30
0.0
 11
-1946.233098944816
 21
226.55314220080771
 31
0.0
  0
LINE
  5
5FBA
  8
2
 10
-2839.813003250049
 20
815.97682377140382
 30
0.0
 11
-2839.8130032500512
 21
771.30690476956738
 31
0.0
  0
LINE
  5
5FBB
  8
2
 10
-3139.8130032500499
 20
815.97682377140382
 30
0.0
 11
-3139.8130032500499
 21
768.20417841581661
 31
0.0
  0
DIMENSION
  5
649A
  8
SP
  2
*D13
 10
-2687.1386798530621
 20
781.99565485309563
 30
0.0
 11
-2651.3561854056861
 21
783.05420095454906
 31
0.0
 70
   128
 13
-2824.813003250049
 23
803.99565485309267
 33
0.0
 14
-2764.8130032500521
 24
781.99565485309563
 34
0.0
 50
90.0
1001
ACAD
1000
DSTYLE
1002
{
1070
   287
1070
     5
1070
   279
1070
     2
1070
     3
1000
（<>）
1070
     6
1000
NONE
1070
     7
1000
NONE
1002
}
  0
DIMENSION
  5
649B
  8
SP
  2
*D12
 10
-2687.1386798530621
 20
751.99565485309552
 30
0.0
 11
-2712.1386798530621
 21
665.93612663766328
 31
0.0
 70
     0
 13
-2764.8130032500521
 23
781.99565485309563
 33
0.0
 14
-2764.8130032500521
 24
751.99565485309552
 34
0.0
 50
90.0
1001
ACAD
1000
DSTYLE
1002
{
1070
     6
1000
DOT
1002
}
  0
DIMENSION
  5
67C5
  8
SP
  2
*D20
 10
-1891.2701199802609
 20
611.99565485309552
 30
0.0
 11
-2141.2701199802609
 21
636.99565485309552
 31
0.0
 70
     0
 13
-2391.2701199802609
 23
781.99565485309563
 33
0.0
 14
-1891.2701199802609
 24
781.99565485309563
 34
0.0
  0
DIMENSION
  5
67C6
  8
SP
  2
*D19
 10
-1891.2701199802609
 20
681.99565485309552
 30
0.0
 11
-1968.2701199802609
 21
706.99565485309552
 31
0.0
 70
     0
 13
-2045.2701199802609
 23
875.01297153561961
 33
0.0
 14
-1891.2701199802609
 24
781.99565485309563
 34
0.0
  0
LINE
  5
67C7
  8
FUTO
 10
-2361.2701199802609
 20
751.99565485309563
 30
0.0
 11
-1921.2701199802609
 21
751.99565485309563
 31
0.0
  0
LINE
  5
67C8
  8
FUTO
 10
-2361.2701199802609
 20
781.99565485309563
 30
0.0
 11
-1921.2701199802609
 21
781.99565485309563
 31
0.0
  0
DIMENSION
  5
67C9
  8
SP
  2
*D18
 10
-2391.2701199802609
 20
681.99565485309552
 30
0.0
 11
-2218.2701199802609
 21
706.99565485309552
 31
0.0
 70
     0
 13
-2045.2701199802621
 23
875.01297153561961
 33
0.0
 14
-2391.2701199802609
 24
781.99565485309563
 34
0.0
  0
LINE
  5
67CA
  8
FUTO
 10
-2361.2701199802609
 20
781.99565485309563
 30
0.0
 11
-2391.2701199802609
 21
781.99565485309563
 31
0.0
  0
LINE
  5
67CB
  8
FUTO
 10
-2391.2701199802609
 20
781.99565485309563
 30
0.0
 11
-2391.2701199802609
 21
780.99565485309563
 31
0.0
  0
LINE
  5
67CC
  8
FUTO
 10
-2368.2701199802609
 20
778.99565485309563
 30
0.0
 11
-2389.2701199802609
 21
778.99565485309563
 31
0.0
  0
ARC
  5
67CD
  8
FUTO
 10
-2389.2701199802609
 20
780.99565485309563
 30
0.0
 40
2.0
 50
180.0
 51
270.0
  0
ARC
  5
67CE
  8
FUTO
 10
-2368.2701199802609
 20
774.99565485309563
 30
0.0
 40
4.0
 50
0.0
 51
90.0
  0
LINE
  5
67CF
  8
FUTO
 10
-2361.2701199802609
 20
751.99565485309563
 30
0.0
 11
-2362.2701199802609
 21
751.99565485309563
 31
0.0
  0
ARC
  5
67D0
  8
FUTO
 10
-2362.2701199802609
 20
753.99565485309563
 30
0.0
 40
2.0
 50
180.0
 51
270.0
  0
LINE
  5
67D1
  8
FUTO
 10
-2361.2701199802609
 20
781.99565485309563
 30
0.0
 11
-2361.2701199802609
 21
751.99565485309563
 31
0.0
  0
LINE
  5
67D2
  8
FUTO
 10
-2364.2701199802609
 20
774.99565485309563
 30
0.0
 11
-2364.2701199802609
 21
753.99565485309563
 31
0.0
  0
LINE
  5
67D3
  8
FUTO
 10
-1891.2701199802609
 20
781.99565485309563
 30
0.0
 11
-1891.2701199802609
 21
780.99565485309563
 31
0.0
  0
ARC
  5
67D4
  8
FUTO
 10
-1893.2701199802609
 20
780.99565485309563
 30
0.0
 40
2.0
 50
270.0
 51
0.000000000000007
  0
LINE
  5
67D5
  8
FUTO
 10
-1921.2701199802609
 20
781.99565485309552
 30
0.0
 11
-1921.2701199802609
 21
751.9956548530954
 31
0.0
  0
ARC
  5
67D6
  8
FUTO
 10
-1914.2701199802609
 20
774.99565485309563
 30
0.0
 40
4.0
 50
90.0
 51
180.0
  0
LINE
  5
67D7
  8
FUTO
 10
-1921.2701199802609
 20
751.99565485309563
 30
0.0
 11
-1920.2701199802609
 21
751.99565485309563
 31
0.0
  0
ARC
  5
67D8
  8
FUTO
 10
-1920.2701199802609
 20
753.99565485309563
 30
0.0
 40
2.0
 50
270.0
 51
0.000000000000007
  0
LINE
  5
67D9
  8
FUTO
 10
-1918.2701199802609
 20
774.99565485309563
 30
0.0
 11
-1918.2701199802609
 21
753.99565485309563
 31
0.0
  0
LINE
  5
67DA
  8
FUTO
 10
-1921.2701199802609
 20
781.99565485309563
 30
0.0
 11
-1891.2701199802609
 21
781.99565485309563
 31
0.0
  0
LINE
  5
67DB
  8
FUTO
 10
-1914.2701199802609
 20
778.99565485309563
 30
0.0
 11
-1893.2701199802609
 21
778.99565485309563
 31
0.0
  0
DIMENSION
  5
67DC
  8
SP
  2
*D15
 10
-2764.8130032500521
 20
611.99565485309552
 30
0.0
 11
-2989.8130032500521
 21
636.99565485309552
 31
0.0
 70
     0
 13
-3214.813003250053
 23
751.99565485309574
 33
0.0
 14
-2764.8130032500521
 24
751.99565485309552
 34
0.0
  0
DIMENSION
  5
67DD
  8
SP
  2
*D16
 10
-3214.8130032500521
 20
681.99565485309563
 30
0.0
 11
-3102.3130032500521
 21
706.99565485309563
 31
0.0
 70
     0
 13
-2989.8130032500521
 23
731.92250128847797
 33
0.0
 14
-3214.8130032500521
 24
751.99565485309574
 34
0.0
  0
LINE
  5
67DE
  8
FUTO
 10
-3214.8130032500521
 20
751.99565485309574
 30
0.0
 11
-2764.8130032500521
 21
751.99565485309552
 31
0.0
  0
LINE
  5
67DF
  8
FUTO
 10
-3214.8130032500521
 20
781.99565485309563
 30
0.0
 11
-2764.8130032500521
 21
781.99565485309563
 31
0.0
  0
LINE
  5
67E0
  8
FUTO
 10
-3214.8130032500521
 20
781.99565485309563
 30
0.0
 11
-3214.8130032500521
 21
751.99565485309574
 31
0.0
  0
DIMENSION
  5
67E1
  8
SP
  2
*D17
 10
-2764.8130032500521
 20
681.99565485309563
 30
0.0
 11
-2877.3130032500521
 21
706.99565485309563
 31
0.0
 70
     0
 13
-2989.8130032500521
 23
731.92250128847797
 33
0.0
 14
-2764.8130032500521
 24
751.99565485309552
 34
0.0
  0
LINE
  5
67E2
  8
FUTO
 10
-2764.8130032500521
 20
781.99565485309563
 30
0.0
 11
-2764.8130032500521
 21
751.99565485309552
 31
0.0
  0
LINE
  5
69EE
  8
FUTO
 10
-3214.8130032500521
 20
778.99565485309563
 30
0.0
 11
-2764.8130032500521
 21
778.99565485309563
 31
0.0
  0
LINE
  5
6A53
  8
SL
 10
-2378.2701199802618
 20
766.18854598597989
 30
0.0
 11
-2378.2701199802618
 21
1098.3735936713631
 31
0.0
  0
LINE
  5
6A54
  8
SL
 10
-1904.2701199802609
 20
766.18854598597989
 30
0.0
 11
-1904.2701199802609
 21
1098.3735936713631
 31
0.0
  0
TEXT
  5
6D88
  8
4
 10
-2840.6343410686159
 20
2383.4288423032031
 30
0.0
 40
53.999999999999993
  1
天井吊防振ベッド型
  0
DIMENSION
  5
6E3F
  8
SP
  2
*D21
 10
-2764.8130032500512
 20
2179.8970137353699
 30
0.0
 11
-2989.8130032500512
 21
2204.8970137353699
 31
0.0
 70
     0
 13
-3214.8130032500521
 23
2109.897013735369
 33
0.0
 14
-2764.8130032500512
 24
2109.897013735369
 34
0.0
  0
LINE
  5
6E40
  8
FUTO
 10
-3214.8130032500521
 20
1609.8970137353699
 30
0.0
 11
-2764.8130032500512
 21
1609.8970137353699
 31
0.0
  0
LINE
  5
6E41
  8
FUTO
 10
-3214.8130032500521
 20
1639.8970137353699
 30
0.0
 11
-2764.8130032500512
 21
1639.8970137353699
 31
0.0
  0
LINE
  5
6E42
  8
FUTO
 10
-3214.8130032500521
 20
2109.897013735369
 30
0.0
 11
-2764.8130032500512
 21
2109.897013735369
 31
0.0
  0
LINE
  5
6E43
  8
FUTO
 10
-3214.8130032500521
 20
2079.8970137353699
 30
0.0
 11
-2764.8130032500512
 21
2079.8970137353699
 31
0.0
  0
LINE
  5
6E44
  8
FUTO
 10
-3106.8130032500512
 20
1878.8970137353699
 30
0.0
 11
-2854.8130032500512
 21
1878.8970137353699
 31
0.0
  0
LINE
  5
6E45
  8
FUTO
 10
-2854.8130032500512
 20
1702.997013735371
 30
0.0
 11
-2914.8130032500512
 21
1702.997013735371
 31
0.0
  0
LINE
  5
6E46
  8
1
  6
CONTINUOUS
 10
-2859.8130032500521
 20
2026.8970137353699
 30
0.0
 11
-2969.3181058222199
 21
2026.8970137353699
 31
0.0
  0
LINE
  5
6E47
  8
1
  6
CONTINUOUS
 10
-2969.3181058222208
 20
1884.897013735369
 30
0.0
 11
-2859.8130032500521
 21
1884.897013735369
 31
0.0
  0
LINE
  5
6E48
  8
1
  6
CONTINUOUS
 10
-2859.8130032500521
 20
2025.8970137353699
 30
0.0
 11
-2969.1350778915462
 21
2025.8970137353699
 31
0.0
  0
LINE
  5
6E49
  8
1
  6
CONTINUOUS
 10
-2854.8130032500512
 20
1837.897013735369
 30
0.0
 11
-2926.5626316935982
 21
1837.8970137353699
 31
0.0
  0
LINE
  5
6E4A
  8
2
 10
-3254.6097953550602
 20
1955.8970137353699
 30
0.0
 11
-2803.0601228943542
 21
1955.8970137353699
 31
0.0
  0
LINE
  5
6E4B
  8
1
  6
CONTINUOUS
 10
-2969.1350778915471
 20
1885.8970137353699
 30
0.0
 11
-2859.8130032500521
 21
1885.8970137353699
 31
0.0
  0
LINE
  5
6E4C
  8
HOSO
 10
-3186.4196049678499
 20
1889.290412017571
 30
0.0
 11
-2993.206401532253
 21
2022.5036154531681
 31
0.0
  0
LINE
  5
6E4D
  8
HOSO
 10
-3186.4196049678499
 20
2022.5036154531681
 30
0.0
 11
-2993.206401532253
 21
1889.290412017571
 31
0.0
  0
LINE
  5
6E4E
  8
FUTO
 10
-2988.8130032500521
 20
2011.897013735369
 30
0.0
 11
-2988.8130032500521
 21
1899.897013735369
 31
0.0
  0
LINE
  5
6E4F
  8
FUTO
 10
-3190.8130032500521
 20
1899.897013735369
 30
0.0
 11
-3190.8130032500521
 21
2011.897013735369
 31
0.0
  0
LINE
  5
6E50
  8
FUTO
 10
-2968.8130032500521
 20
1889.8970137353699
 30
0.0
 11
-2968.8130032500521
 21
2021.8970137353699
 31
0.0
  0
LINE
  5
6E51
  8
FUTO
 10
-3210.8130032500521
 20
2021.8970137353699
 30
0.0
 11
-3210.8130032500521
 21
1889.8970137353699
 31
0.0
  0
LINE
  5
6E52
  8
2
 10
-2989.8130032500521
 20
2059.5174519938369
 30
0.0
 11
-2989.8130032500521
 21
1620.448324852048
 31
0.0
  0
LINE
  5
6E53
  8
FUTO
 10
-3175.8130032500521
 20
1884.897013735369
 30
0.0
 11
-3003.8130032500521
 21
1884.897013735369
 31
0.0
  0
LINE
  5
6E54
  8
FUTO
 10
-3185.8130032500521
 20
1864.8970137353699
 30
0.0
 11
-2993.8130032500521
 21
1864.8970137353699
 31
0.0
  0
LINE
  5
6E55
  8
FUTO
 10
-3214.8130032500521
 20
1639.8970137353699
 30
0.0
 11
-3214.8130032500521
 21
1609.8970137353699
 31
0.0
  0
LINE
  5
6E56
  8
CT
 10
-3189.8130032500499
 20
1610.437534176901
 30
0.0
 11
-3189.8130032500499
 21
1635.3564932938391
 31
0.0
  0
LINE
  5
6E57
  8
CT
 10
-3202.2724828085188
 20
1622.8970137353699
 30
0.0
 11
-3177.3535236915818
 21
1622.8970137353699
 31
0.0
  0
CIRCLE
  5
6E58
  8
FUTO
 10
-3189.8130032500499
 20
1622.8970137353699
 30
0.0
 40
6.5
  0
ARC
  5
6E59
  8
FUTO
 10
-3185.8130032500512
 20
1889.8970137353699
 30
0.0
 40
25.0
 50
180.0
 51
270.0
  0
ARC
  5
6E5A
  8
FUTO
 10
-3175.8130032500521
 20
1899.8970137353699
 30
0.0
 40
15.0
 50
180.0
 51
270.0
  0
LINE
  5
6E5B
  8
FUTO
 10
-3124.8130032500512
 20
1864.8970137353699
 30
0.0
 11
-3124.8130032500512
 21
1639.8970137353699
 31
0.0
  0
LINE
  5
6E5C
  8
FUTO
 10
-3154.8130032500512
 20
1864.8970137353699
 30
0.0
 11
-3154.8130032500512
 21
1639.8970137353699
 31
0.0
  0
LINE
  5
6E5D
  8
1
 10
-2914.8130032500512
 20
1690.8201047443411
 30
0.0
 11
-2914.8130032500512
 21
1717.7638879342351
 31
0.0
  0
LINE
  5
6E5E
  8
1
 10
-3059.2011722113571
 20
1717.7638879342351
 30
0.0
 11
-3059.2011722113571
 21
1690.8201047443411
 31
0.0
  0
LINE
  5
6E5F
  8
1
 10
-2929.774372735435
 20
1655.8970137353699
 30
0.0
 11
-3049.8516337646679
 21
1655.8970137353699
 31
0.0
  0
LINE
  5
6E60
  8
1
 10
-2914.8130032500512
 20
1690.8201047443411
 30
0.0
 11
-3059.2011722113571
 21
1690.8201047443411
 31
0.0
  0
LINE
  5
6E61
  8
FUTO
 10
-3124.8130032500512
 20
1702.997013735371
 30
0.0
 11
-3059.2011722113571
 21
1702.997013735371
 31
0.0
  0
LINE
  5
6E62
  8
1
 10
-3049.8516337646679
 20
1655.8970137353699
 30
0.0
 11
-3056.317326364343
 21
1690.8201047443411
 31
0.0
  0
LINE
  5
6E63
  8
1
 10
-2929.774372735435
 20
1655.8970137353699
 30
0.0
 11
-2918.459410686004
 21
1690.8201047443411
 31
0.0
  0
POINT
  5
6E64
  8
1
 10
-2929.774372735435
 20
1655.8970137353699
 30
0.0
  0
LINE
  5
6E65
  8
1
 10
-2926.5626316935982
 20
1848.3970137353699
 30
0.0
 11
-3053.0633748065052
 21
1848.3970137353699
 31
0.0
  0
LINE
  5
6E66
  8
2
 10
-2906.1057038514909
 20
1776.8970137353699
 30
0.0
 11
-3073.520302648612
 21
1776.8970137353699
 31
0.0
  0
LINE
  5
6E67
  8
1
 10
-2914.8130032500512
 20
1717.7638879342351
 30
0.0
 11
-3059.2011722113571
 21
1717.7638879342351
 31
0.0
  0
LINE
  5
6E68
  8
1
 10
-3053.0633748065052
 20
1717.7638879342351
 30
0.0
 11
-3053.0633748065052
 21
1848.3970137353699
 31
0.0
  0
LINE
  5
6E69
  8
FUTO
 10
-3124.8130032500512
 20
1708.897013735369
 30
0.0
 11
-3154.8130032500512
 21
1708.897013735369
 31
0.0
  0
LINE
  5
6E6A
  8
1
  6
CONTINUOUS
 10
-3053.0633748065038
 20
1837.8970137353699
 30
0.0
 11
-3122.8130032500512
 21
1837.8970137353699
 31
0.0
  0
ARC
  5
6E6B
  8
1
 10
-3106.8130032500512
 20
1881.8970137353699
 30
0.0
 40
3.0
 50
180.0
 51
270.0
  0
POINT
  5
6E6C
  8
1
 10
-3106.8130032500512
 20
1878.8970137353699
 30
0.0
  0
LINE
  5
6E6D
  8
1
 10
-3109.8130032500512
 20
1882.897013735369
 30
0.0
 11
-3109.8130032500512
 21
1881.8970137353699
 31
0.0
  0
ARC
  5
6E6E
  8
1
 10
-3112.8130032500512
 20
1882.897013735369
 30
0.0
 40
3.0
 50
0.0
 51
41.810314895788572
  0
LINE
  5
6E6F
  8
1
 10
-2926.5626316935982
 20
1717.7638879342351
 30
0.0
 11
-2926.5626316935982
 21
1848.3970137353699
 31
0.0
  0
ARC
  5
6E70
  8
FUTO
 10
-2993.8130032500521
 20
1889.8970137353699
 30
0.0
 40
25.0
 50
270.0
 51
0.0
  0
LINE
  5
6E71
  8
FUTO
 10
-2969.8130032500521
 20
1878.8970137353699
 30
0.0
 11
-2969.8130032500521
 21
1866.897013735369
 31
0.0
  0
LINE
  5
6E72
  8
FUTO
 10
-3009.8130032500521
 20
1878.8970137353699
 30
0.0
 11
-3009.8130032500521
 21
1866.897013735369
 31
0.0
  0
LINE
  5
6E73
  8
1
 10
-2978.3983831603091
 20
1853.397013735369
 30
0.0
 11
-3001.2276233397952
 21
1853.397013735369
 31
0.0
  0
LINE
  5
6E74
  8
FUTO
 10
-2969.8130032500521
 20
1866.897013735369
 30
0.0
 11
-3009.8130032500521
 21
1866.8970137353699
 31
0.0
  0
LINE
  5
6E75
  8
1
 10
-2998.8130032500512
 20
1853.397013735369
 30
0.0
 11
-2998.8130032500512
 21
1866.897013735369
 31
0.0
  0
LINE
  5
6E76
  8
1
 10
-3001.2276233397952
 20
1848.3970137353699
 30
0.0
 11
-3001.2276233397952
 21
1853.397013735369
 31
0.0
  0
LINE
  5
6E77
  8
1
 10
-2980.8130032500521
 20
1853.397013735369
 30
0.0
 11
-2980.8130032500521
 21
1866.897013735369
 31
0.0
  0
LINE
  5
6E78
  8
1
 10
-2978.3983831603091
 20
1848.3970137353699
 30
0.0
 11
-2978.3983831603091
 21
1853.397013735369
 31
0.0
  0
ARC
  5
6E79
  8
FUTO
 10
-3003.8130032500512
 20
1899.8970137353699
 30
0.0
 40
15.0
 50
270.0
 51
0.0
  0
ARC
  5
6E7A
  8
1
 10
-2872.8130032500512
 20
1881.8970137353699
 30
0.0
 40
3.0
 50
270.0
 51
0.0
  0
LINE
  5
6E7B
  8
1
 10
-2869.8130032500512
 20
1882.897013735369
 30
0.0
 11
-2869.8130032500512
 21
1881.8970137353699
 31
0.0
  0
ARC
  5
6E7C
  8
1
 10
-2866.8130032500512
 20
1882.897013735369
 30
0.0
 40
3.0
 50
138.18968510421141
 51
180.0
  0
LINE
  5
6E7D
  8
FUTO
 10
-3175.8130032500521
 20
2026.8970137353699
 30
0.0
 11
-3003.8130032500521
 21
2026.8970137353699
 31
0.0
  0
LINE
  5
6E7E
  8
FUTO
 10
-3185.8130032500521
 20
2046.8970137353699
 30
0.0
 11
-2993.8130032500521
 21
2046.8970137353699
 31
0.0
  0
ARC
  5
6E7F
  8
FUTO
 10
-3185.8130032500521
 20
2021.8970137353699
 30
0.0
 40
25.0
 50
90.0
 51
180.0
  0
ARC
  5
6E80
  8
FUTO
 10
-3175.8130032500521
 20
2011.8970137353699
 30
0.0
 40
15.0
 50
90.0
 51
180.0
  0
LINE
  5
6E81
  8
FUTO
 10
-3214.8130032500512
 20
2109.897013735369
 30
0.0
 11
-3214.8130032500512
 21
2079.8970137353699
 31
0.0
  0
LINE
  5
6E82
  8
CT
 10
-3189.8130032500499
 20
2109.3564932938389
 30
0.0
 11
-3189.8130032500499
 21
2084.4375341769
 31
0.0
  0
CIRCLE
  5
6E83
  8
FUTO
 10
-3189.8130032500499
 20
2096.897013735369
 30
0.0
 40
6.5
  0
LINE
  5
6E84
  8
CT
 10
-3202.2724828085188
 20
2096.897013735369
 30
0.0
 11
-3177.3535236915818
 21
2096.897013735369
 31
0.0
  0
LINE
  5
6E85
  8
1
 10
-3106.8130032500512
 20
2032.897013735369
 30
0.0
 11
-2872.8130032500512
 21
2032.897013735369
 31
0.0
  0
LINE
  5
6E86
  8
FUTO
 10
-3124.8130032500521
 20
2079.8970137353699
 30
0.0
 11
-3124.8130032500521
 21
2046.8970137353699
 31
0.0
  0
LINE
  5
6E87
  8
FUTO
 10
-3154.8130032500512
 20
2079.8970137353699
 30
0.0
 11
-3154.8130032500512
 21
2046.8970137353699
 31
0.0
  0
ARC
  5
6E88
  8
1
 10
-3112.8130032500512
 20
2028.8970137353699
 30
0.0
 40
3.0
 50
318.18968510421138
 51
0.0
  0
LINE
  5
6E89
  8
1
 10
-3109.8130032500512
 20
2028.8970137353699
 30
0.0
 11
-3109.8130032500512
 21
2029.897013735369
 31
0.0
  0
ARC
  5
6E8A
  8
1
 10
-3106.8130032500512
 20
2029.897013735369
 30
0.0
 40
3.0
 50
90.0
 51
180.0
  0
POINT
  5
6E8B
  8
1
 10
-3106.8130032500512
 20
2032.897013735369
 30
0.0
  0
ARC
  5
6E8C
  8
FUTO
 10
-2993.8130032500521
 20
2021.8970137353699
 30
0.0
 40
25.0
 50
0.0
 51
90.0
  0
ARC
  5
6E8D
  8
FUTO
 10
-3003.8130032500512
 20
2011.8970137353699
 30
0.0
 40
15.0
 50
0.0
 51
90.0
  0
ARC
  5
6E8E
  8
1
 10
-2866.8130032500512
 20
2028.8970137353699
 30
0.0
 40
3.0
 50
180.0
 51
221.81031489578859
  0
LINE
  5
6E8F
  8
1
 10
-2869.8130032500512
 20
2028.8970137353699
 30
0.0
 11
-2869.8130032500512
 21
2029.897013735369
 31
0.0
  0
ARC
  5
6E90
  8
1
 10
-2872.8130032500512
 20
2029.897013735369
 30
0.0
 40
3.0
 50
0.0
 51
90.0
  0
DIMENSION
  5
6E91
  8
SP
  2
*D22
 10
-2668.227427103332
 20
1609.8970137353699
 30
0.0
 11
-2693.227427103332
 21
1782.897013735369
 31
0.0
 70
     0
 13
-2802.5123623725099
 23
1955.8970137353699
 33
0.0
 14
-2764.8130032500512
 24
1609.8970137353699
 34
0.0
 50
90.0
  0
DIMENSION
  5
6E92
  8
SP
  2
*D23
 10
-2598.089600473766
 20
1609.8970137353699
 30
0.0
 11
-2623.089600473766
 21
1859.897013735369
 31
0.0
 70
     0
 13
-2764.8130032500512
 23
2109.897013735369
 33
0.0
 14
-2764.8130032500512
 24
1609.8970137353699
 34
0.0
 50
90.0
  0
LINE
  5
6E93
  8
FUTO
 10
-2824.8130032500512
 20
2079.8970137353699
 30
0.0
 11
-2824.8130032500512
 21
1639.8970137353699
 31
0.0
  0
LINE
  5
6E94
  8
FUTO
 10
-2848.8130032500521
 20
2015.8970137353699
 30
0.0
 11
-2848.8130032500521
 21
1895.897013735369
 31
0.0
  0
LINE
  5
6E95
  8
FUTO
 10
-2849.8130032500521
 20
2015.8970137353699
 30
0.0
 11
-2849.8130032500521
 21
1895.897013735369
 31
0.0
  0
LINE
  5
6E96
  8
FUTO
 10
-2854.8130032500512
 20
1886.0990547642371
 30
0.0
 11
-2854.8130032500512
 21
1639.8970137353699
 31
0.0
  0
CIRCLE
  5
6E97
  8
FUTO
 10
-2789.8130032500499
 20
1622.8970137353699
 30
0.0
 40
6.5
  0
LINE
  5
6E98
  8
CT
 10
-2802.2724828085202
 20
1622.8970137353699
 30
0.0
 11
-2777.3535236915818
 21
1622.8970137353699
 31
0.0
  0
LINE
  5
6E99
  8
FUTO
 10
-2764.8130032500512
 20
1639.8970137353699
 30
0.0
 11
-2764.8130032500512
 21
1609.8970137353699
 31
0.0
  0
LINE
  5
6E9A
  8
CT
 10
-2789.8130032500499
 20
1610.437534176901
 30
0.0
 11
-2789.8130032500499
 21
1635.3564932938391
 31
0.0
  0
LINE
  5
6E9B
  8
FUTO
 10
-2854.8130032500512
 20
1708.897013735369
 30
0.0
 11
-2824.8130032500512
 21
1708.897013735369
 31
0.0
  0
LINE
  5
6E9C
  8
FUTO
 10
-2854.8130032500512
 20
1878.8970137353699
 30
0.0
 11
-2824.8130032500512
 21
1878.8970137353699
 31
0.0
  0
ARC
  5
6E9D
  8
FUTO
 10
-2859.8130032500521
 20
1895.897013735369
 30
0.0
 40
11.0
 50
270.0
 51
0.0
  0
ARC
  5
6E9E
  8
FUTO
 10
-2859.8130032500521
 20
1895.897013735369
 30
0.0
 40
10.0
 50
270.0
 51
0.0
  0
DIMENSION
  5
6E9F
  8
SP
  2
*D24
 10
-2668.227427103332
 20
2109.897013735369
 30
0.0
 11
-2693.227427103332
 21
2032.897013735369
 31
0.0
 70
     0
 13
-2802.5123623725099
 23
1955.8970137353699
 33
0.0
 14
-2764.8130032500512
 24
2109.897013735369
 34
0.0
 50
90.0
  0
LINE
  5
6EA0
  8
FUTO
 10
-2854.8130032500499
 20
2079.8970137353699
 30
0.0
 11
-2854.8130032500512
 21
2025.6949727065021
 31
0.0
  0
ARC
  5
6EA1
  8
FUTO
 10
-2859.8130032500521
 20
2015.8970137353699
 30
0.0
 40
11.0
 50
0.0
 51
90.0
  0
ARC
  5
6EA2
  8
FUTO
 10
-2859.8130032500521
 20
2015.8970137353699
 30
0.0
 40
10.0
 50
0.0
 51
90.0
  0
LINE
  5
6EA3
  8
CT
 10
-2802.2724828085202
 20
2096.897013735369
 30
0.0
 11
-2777.3535236915818
 21
2096.897013735369
 31
0.0
  0
CIRCLE
  5
6EA4
  8
FUTO
 10
-2789.8130032500499
 20
2096.897013735369
 30
0.0
 40
6.5
  0
LINE
  5
6EA5
  8
FUTO
 10
-2764.8130032500512
 20
2109.897013735369
 30
0.0
 11
-2764.8130032500499
 21
2079.8970137353699
 31
0.0
  0
LINE
  5
6EA6
  8
CT
 10
-2789.8130032500499
 20
2109.3564932938389
 30
0.0
 11
-2789.8130032500499
 21
2084.4375341769
 31
0.0
  0
ENDSEC
  0
EOF
