  0
SECTION
  2
HEADER
  9
$ACADVER
  1
AC1009
  9
$INSBASE
 10
0.0
 20
0.0
 30
0.0
  9
$EXTMIN
 10
1281.9192336154081
 20
0.0000009706889159
 30
0.0
  9
$EXTMAX
 10
3381.9192336154078
 20
2950.0000009706891
 30
0.0
  9
$LIMMIN
 10
0.0
 20
0.0
  9
$LIMMAX
 10
297.0
 20
210.0
  9
$ORTHOMODE
 70
     0
  9
$REGENMODE
 70
     1
  9
$FILLMODE
 70
     1
  9
$QTEXTMODE
 70
     0
  9
$MIRRTEXT
 70
     0
  9
$DRAGMODE
 70
     2
  9
$LTSCALE
 40
50.0
  9
$OSMODE
 70
   545
  9
$ATTMODE
 70
     1
  9
$TEXTSIZE
 40
3.5
  9
$TRACEWID
 40
0.05
  9
$TEXTSTYLE
  7
STANDARD
  9
$CLAYER
  8
SP
  9
$CELTYPE
  6
BYLAYER
  9
$CECOLOR
 62
   256
  9
$DIMSCALE
 40
10.0
  9
$DIMASZ
 40
2.5
  9
$DIMEXO
 40
1.0
  9
$DIMDLI
 40
7.0
  9
$DIMRND
 40
0.0
  9
$DIMDLE
 40
0.0
  9
$DIMEXE
 40
1.0
  9
$DIMTP
 40
0.0
  9
$DIMTM
 40
0.0
  9
$DIMTXT
 40
3.0
  9
$DIMCEN
 40
0.0
  9
$DIMTSZ
 40
0.0
  9
$DIMTOL
 70
     0
  9
$DIMLIM
 70
     0
  9
$DIMTIH
 70
     0
  9
$DIMTOH
 70
     0
  9
$DIMSE1
 70
     0
  9
$DIMSE2
 70
     0
  9
$DIMTAD
 70
     1
  9
$DIMZIN
 70
     8
  9
$DIMBLK
  1

  9
$DIMASO
 70
     1
  9
$DIMSHO
 70
     1
  9
$DIMPOST
  1

  9
$DIMAPOST
  1

  9
$DIMALT
 70
     0
  9
$DIMALTD
 70
     2
  9
$DIMALTF
 40
0.03937
  9
$DIMLFAC
 40
1.0
  9
$DIMTOFL
 70
     1
  9
$DIMTVP
 40
0.0
  9
$DIMTIX
 70
     0
  9
$DIMSOXD
 70
     0
  9
$DIMSAH
 70
     1
  9
$DIMBLK1
  1
OPEN
  9
$DIMBLK2
  1
OPEN
  9
$DIMSTYLE
  2
GOD
  9
$DIMCLRD
 70
   256
  9
$DIMCLRE
 70
   256
  9
$DIMCLRT
 70
   256
  9
$DIMTFAC
 40
1.0
  9
$DIMGAP
 40
1.0
  9
$LUNITS
 70
     2
  9
$LUPREC
 70
     3
  9
$SKETCHINC
 40
0.1
  9
$FILLETRAD
 40
0.0
  9
$AUNITS
 70
     0
  9
$AUPREC
 70
     2
  9
$MENU
  1
acad
  9
$ELEVATION
 40
0.0
  9
$PELEVATION
 40
0.0
  9
$THICKNESS
 40
0.0
  9
$LIMCHECK
 70
     0
  9
$BLIPMODE
 70
     0
  9
$CHAMFERA
 40
0.0
  9
$CHAMFERB
 40
0.0
  9
$SKPOLY
 70
     0
  9
$TDCREATE
 40
2454939.5747812148
  9
$TDUPDATE
 40
2454953.8302846411
  9
$TDINDWG
 40
0.106402419
  9
$TDUSRTIMER
 40
0.106402419
  9
$USRTIMER
 70
     1
  9
$ANGBASE
 50
0.0
  9
$ANGDIR
 70
     0
  9
$PDMODE
 70
     0
  9
$PDSIZE
 40
1.0
  9
$PLINEWID
 40
0.0
  9
$COORDS
 70
     2
  9
$SPLFRAME
 70
     0
  9
$SPLINETYPE
 70
     6
  9
$SPLINESEGS
 70
     8
  9
$ATTDIA
 70
     0
  9
$ATTREQ
 70
     1
  9
$HANDLING
 70
 22529
  9
$HANDSEED
  5
6F35
  9
$SURFTAB1
 70
     6
  9
$SURFTAB2
 70
     6
  9
$SURFTYPE
 70
     6
  9
$SURFU
 70
     6
  9
$SURFV
 70
     6
  9
$UCSNAME
  2

  9
$UCSORG
 10
0.0
 20
0.0
 30
0.0
  9
$UCSXDIR
 10
1.0
 20
0.0
 30
0.0
  9
$UCSYDIR
 10
0.0
 20
1.0
 30
0.0
  9
$PUCSNAME
  2

  9
$PUCSORG
 10
0.0
 20
0.0
 30
0.0
  9
$PUCSXDIR
 10
1.0
 20
0.0
 30
0.0
  9
$PUCSYDIR
 10
0.0
 20
1.0
 30
0.0
  9
$USERI1
 70
     0
  9
$USERI2
 70
     0
  9
$USERI3
 70
     0
  9
$USERI4
 70
     0
  9
$USERI5
 70
     0
  9
$USERR1
 40
0.0
  9
$USERR2
 40
0.0
  9
$USERR3
 40
0.0
  9
$USERR4
 40
0.0
  9
$USERR5
 40
0.0
  9
$WORLDVIEW
 70
     1
  9
$SHADEDGE
 70
     3
  9
$SHADEDIF
 70
    70
  9
$TILEMODE
 70
     1
  9
$MAXACTVP
 70
    16
  9
$PLIMCHECK
 70
     0
  9
$PEXTMIN
 10
1.0000000000000000E+020
 20
1.0000000000000000E+020
 30
1.0000000000000000E+020
  9
$PEXTMAX
 10
-1.0000000000000000E+020
 20
-1.0000000000000000E+020
 30
-1.0000000000000000E+020
  9
$PLIMMIN
 10
0.0
 20
0.0
  9
$PLIMMAX
 10
12.0
 20
9.0
  9
$UNITMODE
 70
     0
  9
$VISRETAIN
 70
     0
  9
$PLINEGEN
 70
     0
  9
$PSLTSCALE
 70
     0
  0
ENDSEC
  0
SECTION
  2
TABLES
  0
TABLE
  2
VPORT
 70
     2
  0
VPORT
  2
*ACTIVE
 70
     0
 10
0.0
 20
0.0
 11
1.0
 21
1.0
 12
2518.6838496022369
 22
1475.0000073538481
 13
0.0
 23
0.0
 14
5.0
 24
5.0
 15
0.0
 25
0.0
 16
0.0
 26
0.0
 36
1.0
 17
0.0
 27
0.0
 37
0.0
 40
2972.7867983959331
 41
1.6307901907356941
 42
50.0
 43
0.0
 44
0.0
 50
0.0
 51
0.0
 71
     0
 72
   100
 73
     1
 74
     0
 75
     0
 76
     0
 77
     0
 78
     0
  0
ENDTAB
  0
TABLE
  2
LTYPE
 70
     4
  0
LTYPE
  2
CONTINUOUS
 70
     0
  3
Solid line
 72
    65
 73
     0
 40
0.0
  0
LTYPE
  2
CENTER
 70
     0
  3
____ _ ____ _ ____ _ ____ _ ____ _ ____ _ ____ 
 72
    65
 73
     4
 40
2.0
 49
1.25
 49
-0.25
 49
0.25
 49
-0.25
  0
LTYPE
  2
HIDDEN
 70
     0
  3
__ __ __ __ __ __ __ __ __ __ __ __ __ __ __ __
 72
    65
 73
     2
 40
0.375
 49
0.25
 49
-0.125
  0
LTYPE
  2
PHANTOM
 70
     0
  3
______  __  __  ______  __  __  ______  __  __ 
 72
    65
 73
     6
 40
2.5
 49
1.25
 49
-0.25
 49
0.25
 49
-0.25
 49
0.25
 49
-0.25
  0
ENDTAB
  0
TABLE
  2
LAYER
 70
    13
  0
LAYER
  2
0
 70
     0
 62
     7
  6
CONTINUOUS
  0
LAYER
  2
CT
 70
     0
 62
     3
  6
CENTER
  0
LAYER
  2
FUTO
 70
     0
 62
     4
  6
CONTINUOUS
  0
LAYER
  2
HOSO
 70
     0
 62
     7
  6
CONTINUOUS
  0
LAYER
  2
KL
 70
     0
 62
     7
  6
HIDDEN
  0
LAYER
  2
MOJI
 70
     0
 62
     3
  6
CONTINUOUS
  0
LAYER
  2
SL
 70
     0
 62
     1
  6
PHANTOM
  0
LAYER
  2
SP
 70
     0
 62
     2
  6
CONTINUOUS
  0
LAYER
  2
DEFPOINTS
 70
     0
 62
     7
  6
CONTINUOUS
  0
LAYER
  2
1
 70
     0
 62
     4
  6
CONTINUOUS
  0
LAYER
  2
3
 70
     0
 62
     2
  6
CONTINUOUS
  0
LAYER
  2
2
 70
     0
 62
     3
  6
CENTER
  0
LAYER
  2
4
 70
     0
 62
     7
  6
CONTINUOUS
  0
ENDTAB
  0
TABLE
  2
STYLE
 70
     1
  0
STYLE
  2
STANDARD
 70
     0
 40
0.0
 41
1.0
 50
15.0
 71
     0
 42
3.5
  3
C:\Program Files\AutoCAD LT\simplex.shx
  4
C:\Program Files\AutoCAD LT\extfont.shx
  0
ENDTAB
  0
TABLE
  2
VIEW
 70
     0
  0
ENDTAB
  0
TABLE
  2
UCS
 70
     0
  0
ENDTAB
  0
TABLE
  2
APPID
 70
     1
  0
APPID
  2
ACAD
 70
     0
  0
ENDTAB
  0
TABLE
  2
DIMSTYLE
 70
     3
  0
DIMSTYLE
  2
STANDARD
 70
     0
  3

  4

  5

  6

  7

 40
1.0
 41
0.18
 42
0.0625
 43
0.38
 44
0.18
 45
0.0
 46
0.0
 47
0.0
 48
0.0
140
0.18
141
0.09
142
0.0
143
25.399999999999999
144
1.0
145
0.0
146
1.0
147
0.09
 71
     0
 72
     0
 73
     1
 74
     1
 75
     0
 76
     0
 77
     0
 78
     0
170
     0
171
     2
172
     0
173
     0
174
     0
175
     0
176
     0
177
     0
178
     0
  0
DIMSTYLE
  2
GOD
 70
     0
  3

  4

  5

  6
OPEN
  7
OPEN
 40
10.0
 41
2.5
 42
1.0
 43
7.0
 44
1.0
 45
0.0
 46
0.0
 47
0.0
 48
0.0
140
3.0
141
0.0
142
0.0
143
0.03937
144
1.0
145
0.0
146
1.0
147
1.0
 71
     0
 72
     0
 73
     0
 74
     0
 75
     0
 76
     0
 77
     1
 78
     8
170
     0
171
     2
172
     1
173
     1
174
     0
175
     0
176
   256
177
   256
178
   256
  0
DIMSTYLE
  2
DIA1
 70
     0
  3

  4

  5
ARROW
  6

  7

 40
1.0
 41
2.0
 42
1.0
 43
10.0
 44
1.0
 45
0.0
 46
0.0
 47
0.0
 48
0.0
140
2.5
141
0.0
142
0.0
143
25.399999999999999
144
1.0
145
0.0
146
1.0
147
0.09
 71
     0
 72
     0
 73
     0
 74
     0
 75
     0
 76
     0
 77
     1
 78
     8
170
     0
171
     2
172
     1
173
     0
174
     0
175
     0
176
     2
177
     2
178
     2
  0
ENDTAB
  0
ENDSEC
  0
SECTION
  2
BLOCKS
  0
BLOCK
  8
0
  2
$MODEL_SPACE
 70
     0
 10
0.0
 20
0.0
 30
0.0
  3
$MODEL_SPACE
  1

  0
ENDBLK
  5
1B
  8
0
  0
BLOCK
 67
     1
  8
0
  2
$PAPER_SPACE
 70
     0
 10
0.0
 20
0.0
 30
0.0
  3
$PAPER_SPACE
  1

  0
ENDBLK
  5
18
 67
     1
  8
0
  0
BLOCK
  8
0
  2
_OPEN
 70
     0
 10
0.0
 20
0.0
 30
0.0
  3
_OPEN
  1

  0
LINE
  5
1E81
  8
0
  6
BYBLOCK
 62
     0
 10
-1.0
 20
0.1666666666666666
 30
0.0
 11
0.0
 21
0.0
 31
0.0
  0
LINE
  5
1E82
  8
0
  6
BYBLOCK
 62
     0
 10
0.0
 20
0.0
 30
0.0
 11
-1.0
 21
-0.1666666666666666
 31
0.0
  0
LINE
  5
1E83
  8
0
  6
BYBLOCK
 62
     0
 10
0.0
 20
0.0
 30
0.0
 11
-1.0
 21
0.0
 31
0.0
  0
ENDBLK
  5
1E84
  8
0
  0
BLOCK
  8
0
  2
_DOT
 70
     0
 10
0.0
 20
0.0
 30
0.0
  3
_DOT
  1

  0
LINE
  5
1EC3
  8
0
  6
BYBLOCK
 62
     0
 10
0.0
 20
0.0
 30
0.0
 11
-1.0
 21
-0.0000000000000284
 31
0.0
  0
POLYLINE
  5
1EC4
  8
0
  6
BYBLOCK
 62
     0
 66
     1
 10
0.0
 20
0.0
 30
0.0
 70
     1
 40
0.1666666666666666
 41
0.1666666666666666
  0
VERTEX
  5
6F19
  8
0
  6
BYBLOCK
 62
     0
 10
-0.0833333333333286
 20
-0.0000000000000284
 30
0.0
 42
1.0
  0
VERTEX
  5
6F1A
  8
0
  6
BYBLOCK
 62
     0
 10
0.0833333333333286
 20
-0.0000000000000284
 30
0.0
 42
1.0
  0
SEQEND
  5
6F1B
  8
0
  6
BYBLOCK
 62
     0
  0
ENDBLK
  5
1EB8
  8
0
  0
BLOCK
  8
0
  2
ARROW
 70
     0
 10
0.0
 20
0.0
 30
0.0
  3
ARROW
  1

  0
LINE
  5
1EEF
  8
0
 10
-0.9999999999999991
 20
0.1666666667000003
 30
0.0
 11
0.0
 21
0.0
 31
0.0
  0
LINE
  5
1EF0
  8
0
 10
-0.9999999999999991
 20
0.0
 30
0.0
 11
0.0
 21
0.0
 31
0.0
  0
LINE
  5
1EF1
  8
0
 10
-0.9999999999999991
 20
-0.1666666667000003
 30
0.0
 11
0.0
 21
0.0
 31
0.0
  0
ENDBLK
  5
1EF3
  8
0
  0
BLOCK
  8
0
  2
_NONE
 70
     0
 10
0.0
 20
0.0
 30
0.0
  3
_NONE
  1

  0
ENDBLK
  5
1F6F
  8
0
  0
BLOCK
  8
0
  2
*D4
 70
     1
 10
0.0
 20
0.0
 30
0.0
  3
*D4
  1

  0
LINE
  5
6A0B
  8
SP
 10
1702.6737003044859
 20
1043.9956548530961
 30
0.0
 11
1582.6836330749211
 21
1043.9956548530961
 31
0.0
  0
LINE
  5
6A0C
  8
SP
 10
1719.9393293101721
 20
1243.9956548530961
 30
0.0
 11
1582.6836330749211
 21
1243.9956548530961
 31
0.0
  0
LINE
  5
6A0D
  8
SP
 10
1592.6836330749211
 20
1068.9956548530961
 30
0.0
 11
1592.6836330749211
 21
1218.9956548530961
 31
0.0
  0
INSERT
  5
6A0E
  8
SP
  2
_OPEN
 10
1592.6836330749211
 20
1043.9956548530961
 30
0.0
 41
25.0
 42
25.0
 43
25.0
 50
270.0
  0
INSERT
  5
6A0F
  8
SP
  2
_OPEN
 10
1592.6836330749211
 20
1243.9956548530961
 30
0.0
 41
25.0
 42
25.0
 43
25.0
 50
90.0
  0
TEXT
  5
6A10
  8
SP
 10
1582.68363307492
 20
1102.8848432307191
 30
0.0
 40
30.0
  1
200
 50
90.0
 51
15.0
  0
POINT
  5
6A11
  8
DEFPOINTS
 62
     0
 10
1712.6737003044859
 20
1043.9956548530961
 30
0.0
  0
POINT
  5
6A12
  8
DEFPOINTS
 62
     0
 10
1729.9393293101721
 20
1243.9956548530961
 30
0.0
  0
POINT
  5
6A13
  8
DEFPOINTS
 62
     0
 10
1592.6836330749211
 20
1243.9956548530961
 30
0.0
  0
ENDBLK
  5
59A6
  8
0
  0
BLOCK
  8
0
  2
*D5
 70
     1
 10
0.0
 20
0.0
 30
0.0
  3
*D5
  1

  0
LINE
  5
6A14
  8
SP
 10
1702.6737003044859
 20
1043.9956548530961
 30
0.0
 11
1582.6836330749211
 21
1043.9956548530961
 31
0.0
  0
LINE
  5
6A15
  8
SP
 10
1713.3393293101719
 20
803.9956548530962
 30
0.0
 11
1582.6836330749211
 21
803.9956548530962
 31
0.0
  0
LINE
  5
6A16
  8
SP
 10
1592.6836330749211
 20
1018.995654853096
 30
0.0
 11
1592.6836330749211
 21
828.9956548530962
 31
0.0
  0
INSERT
  5
6A17
  8
SP
  2
_OPEN
 10
1592.6836330749211
 20
1043.9956548530961
 30
0.0
 41
25.0
 42
25.0
 43
25.0
 50
90.0
  0
INSERT
  5
6A18
  8
SP
  2
_OPEN
 10
1592.6836330749211
 20
803.9956548530962
 30
0.0
 41
25.0
 42
25.0
 43
25.0
 50
270.0
  0
TEXT
  5
6A19
  8
SP
 10
1582.68363307492
 20
882.88484323071862
 30
0.0
 40
30.0
  1
240
 50
90.0
 51
15.0
  0
POINT
  5
6A1A
  8
DEFPOINTS
 62
     0
 10
1712.6737003044859
 20
1043.9956548530961
 30
0.0
  0
POINT
  5
6A1B
  8
DEFPOINTS
 62
     0
 10
1723.3393293101719
 20
803.9956548530962
 30
0.0
  0
POINT
  5
6A1C
  8
DEFPOINTS
 62
     0
 10
1592.6836330749211
 20
803.9956548530962
 30
0.0
  0
ENDBLK
  5
59B2
  8
0
  0
BLOCK
  8
0
  2
*D6
 70
     1
 10
0.0
 20
0.0
 30
0.0
  3
*D6
  1

  0
LINE
  5
5DA6
  8
SP
 10
1888.339329310174
 20
1279.8082707222729
 30
0.0
 11
1888.339329310174
 21
1334.9956548530961
 31
0.0
  0
LINE
  5
5DA7
  8
SP
 10
1728.3393293101731
 20
1274.9956548530961
 30
0.0
 11
1728.3393293101731
 21
1334.9956548530961
 31
0.0
  0
LINE
  5
5DA8
  8
SP
 10
1863.339329310174
 20
1324.9956548530961
 30
0.0
 11
1753.3393293101731
 21
1324.9956548530961
 31
0.0
  0
INSERT
  5
5DA9
  8
SP
  2
_OPEN
 10
1888.339329310174
 20
1324.9956548530961
 30
0.0
 41
25.0
 42
25.0
 43
25.0
  0
INSERT
  5
5DAA
  8
SP
  2
_OPEN
 10
1728.3393293101731
 20
1324.9956548530961
 30
0.0
 41
25.0
 42
25.0
 43
25.0
 50
180.0
  0
TEXT
  5
5DAB
  8
SP
 10
1766.831991779703
 20
1334.9956548530961
 30
0.0
 40
30.0
  1
160
 51
15.0
  0
POINT
  5
5DAC
  8
DEFPOINTS
 62
     0
 10
1888.339329310174
 20
1269.8082707222729
 30
0.0
  0
POINT
  5
5DAD
  8
DEFPOINTS
 62
     0
 10
1728.3393293101731
 20
1264.9956548530961
 30
0.0
  0
POINT
  5
5DAE
  8
DEFPOINTS
 62
     0
 10
1728.3393293101731
 20
1324.9956548530961
 30
0.0
  0
ENDBLK
  5
59BE
  8
0
  0
BLOCK
  8
0
  2
*D7
 70
     1
 10
0.0
 20
0.0
 30
0.0
  3
*D7
  1

  0
LINE
  5
5D94
  8
SP
 10
1888.339329310174
 20
1279.8082707222729
 30
0.0
 11
1888.339329310174
 21
1334.9956548530949
 31
0.0
  0
LINE
  5
5D95
  8
SP
 10
2056.3393293101722
 20
1069.9956548530961
 30
0.0
 11
2056.3393293101722
 21
1334.9956548530949
 31
0.0
  0
LINE
  5
5D96
  8
SP
 10
1913.339329310174
 20
1324.9956548530949
 30
0.0
 11
2031.3393293101719
 21
1324.9956548530949
 31
0.0
  0
INSERT
  5
5D97
  8
SP
  2
_OPEN
 10
1888.339329310174
 20
1324.9956548530949
 30
0.0
 41
25.0
 42
25.0
 43
25.0
 50
180.0
  0
INSERT
  5
5D98
  8
SP
  2
_OPEN
 10
2056.3393293101722
 20
1324.9956548530949
 30
0.0
 41
25.0
 42
25.0
 43
25.0
  0
TEXT
  5
5D99
  8
SP
 10
1930.640599499395
 20
1334.9956548530949
 30
0.0
 40
30.0
  1
168
 51
15.0
  0
POINT
  5
5D9A
  8
DEFPOINTS
 62
     0
 10
1888.339329310174
 20
1269.8082707222729
 30
0.0
  0
POINT
  5
5D9B
  8
DEFPOINTS
 62
     0
 10
2056.3393293101722
 20
1059.9956548530949
 30
0.0
  0
POINT
  5
5D9C
  8
DEFPOINTS
 62
     0
 10
2056.3393293101722
 20
1324.9956548530949
 30
0.0
  0
ENDBLK
  5
59CA
  8
0
  0
BLOCK
  8
0
  2
*D8
 70
     1
 10
0.0
 20
0.0
 30
0.0
  3
*D8
  1

  0
LINE
  5
5EA3
  8
SP
 10
2762.8822125799629
 20
1254.9956548530961
 30
0.0
 11
2762.8822125799629
 21
1344.9956548530961
 31
0.0
  0
LINE
  5
5EA4
  8
SP
 10
2902.8822125799638
 20
1254.9956548530961
 30
0.0
 11
2902.8822125799638
 21
1344.9956548530961
 31
0.0
  0
LINE
  5
5EA5
  8
SP
 10
2787.8822125799629
 20
1334.9956548530949
 30
0.0
 11
2877.8822125799629
 21
1334.9956548530949
 31
0.0
  0
INSERT
  5
5EA6
  8
SP
  2
_OPEN
 10
2762.8822125799629
 20
1334.9956548530949
 30
0.0
 41
25.0
 42
25.0
 43
25.0
 50
180.0
  0
INSERT
  5
5EA7
  8
SP
  2
_OPEN
 10
2902.8822125799638
 20
1334.9956548530949
 30
0.0
 41
25.0
 42
25.0
 43
25.0
  0
TEXT
  5
5EA8
  8
SP
 10
2791.3748750494929
 20
1344.9956548530961
 30
0.0
 40
30.0
  1
140
 51
15.0
  0
POINT
  5
5EA9
  8
DEFPOINTS
 62
     0
 10
2762.8822125799629
 20
1244.9956548530961
 30
0.0
  0
POINT
  5
5EAA
  8
DEFPOINTS
 62
     0
 10
2902.8822125799638
 20
1244.9956548530961
 30
0.0
  0
POINT
  5
5EAB
  8
DEFPOINTS
 62
     0
 10
2902.8822125799638
 20
1334.9956548530949
 30
0.0
  0
ENDBLK
  5
5B62
  8
0
  0
BLOCK
  8
0
  2
*D9
 70
     1
 10
0.0
 20
0.0
 30
0.0
  3
*D9
  1

  0
LINE
  5
5D31
  8
SP
 10
2832.8822125799629
 20
1384.9956548530949
 30
0.0
 11
2832.8822125799629
 21
1414.9956548530949
 31
0.0
  0
LINE
  5
5D32
  8
SP
 10
2909.882212579962
 20
1170.9956548530949
 30
0.0
 11
2909.882212579962
 21
1414.9956548530949
 31
0.0
  0
LINE
  5
5D33
  8
SP
 10
2857.8822125799629
 20
1404.9956548530949
 30
0.0
 11
2884.882212579962
 21
1404.9956548530949
 31
0.0
  0
INSERT
  5
5D34
  8
SP
  2
_OPEN
 10
2832.8822125799629
 20
1404.9956548530949
 30
0.0
 41
25.0
 42
25.0
 43
25.0
 50
180.0
  0
INSERT
  5
5D35
  8
SP
  2
_OPEN
 10
2909.882212579962
 20
1404.9956548530949
 30
0.0
 41
25.0
 42
25.0
 43
25.0
  0
TEXT
  5
5D36
  8
SP
 10
2840.220117550638
 20
1414.9956548530949
 30
0.0
 40
30.0
  1
77
 51
15.0
  0
POINT
  5
5D37
  8
DEFPOINTS
 62
     0
 10
2832.8822125799629
 20
1374.9956548530949
 30
0.0
  0
POINT
  5
5D38
  8
DEFPOINTS
 62
     0
 10
2909.882212579962
 20
1160.995654853094
 30
0.0
  0
POINT
  5
5D39
  8
DEFPOINTS
 62
     0
 10
2909.882212579962
 20
1404.9956548530949
 30
0.0
  0
ENDBLK
  5
5B6E
  8
0
  0
BLOCK
  8
0
  2
*D10
 70
     1
 10
0.0
 20
0.0
 30
0.0
  3
*D10
  1

  0
LINE
  5
5D3A
  8
SP
 10
2832.8822125799629
 20
1384.9956548530949
 30
0.0
 11
2832.8822125799629
 21
1414.9956548530949
 31
0.0
  0
LINE
  5
5D3B
  8
SP
 10
2532.8822125799629
 20
1114.0342853677121
 30
0.0
 11
2532.8822125799629
 21
1414.9956548530949
 31
0.0
  0
LINE
  5
5D3C
  8
SP
 10
2807.8822125799629
 20
1404.9956548530949
 30
0.0
 11
2557.8822125799629
 21
1404.9956548530949
 31
0.0
  0
INSERT
  5
5D3D
  8
SP
  2
_OPEN
 10
2832.8822125799629
 20
1404.9956548530949
 30
0.0
 41
25.0
 42
25.0
 43
25.0
  0
INSERT
  5
5D3E
  8
SP
  2
_OPEN
 10
2532.8822125799629
 20
1404.9956548530949
 30
0.0
 41
25.0
 42
25.0
 43
25.0
 50
180.0
  0
TEXT
  5
5D3F
  8
SP
 10
2615.9725108395628
 20
1414.9956548530949
 30
0.0
 40
30.0
  1
（340）
 51
15.0
  0
POINT
  5
5D40
  8
DEFPOINTS
 62
     0
 10
2832.8822125799629
 20
1374.9956548530949
 30
0.0
  0
POINT
  5
5D41
  8
DEFPOINTS
 62
     0
 10
2532.8822125799629
 20
1104.0342853677121
 30
0.0
  0
POINT
  5
5D42
  8
DEFPOINTS
 62
     0
 10
2532.8822125799629
 20
1404.9956548530949
 30
0.0
  0
ENDBLK
  5
5B7A
  8
0
  0
BLOCK
  8
0
  2
*D11
 70
     1
 10
0.0
 20
0.0
 30
0.0
  3
*D11
  1

  0
LINE
  5
6A81
  8
3
 10
2919.882212579962
 20
1143.9956548530949
 30
0.0
 11
3055.0258055394452
 21
1143.9956548530949
 31
0.0
  0
LINE
  5
6A82
  8
3
 10
2919.882212579962
 20
943.99565485309574
 30
0.0
 11
3055.0258055394438
 21
943.99565485309574
 31
0.0
  0
LINE
  5
6A83
  8
3
 10
3045.0258055394438
 20
1118.9956548530949
 30
0.0
 11
3045.0258055394438
 21
968.99565485309574
 31
0.0
  0
INSERT
  5
6A84
  8
3
  2
_OPEN
 10
3045.0258055394438
 20
1143.9956548530949
 30
0.0
 41
25.0
 42
25.0
 43
25.0
 50
90.0
  0
INSERT
  5
6A85
  8
3
  2
_OPEN
 10
3045.0258055394438
 20
943.99565485309574
 30
0.0
 41
25.0
 42
25.0
 43
25.0
 50
270.0
  0
INSERT
  5
6A86
  8
SP
  2
*U25
 10
0.0
 20
0.0
 30
0.0
  0
POINT
  5
6A87
  8
DEFPOINTS
 62
     0
 10
2909.882212579962
 20
1143.9956548530949
 30
0.0
  0
POINT
  5
6A88
  8
DEFPOINTS
 62
     0
 10
2909.882212579962
 20
943.99565485309574
 30
0.0
  0
POINT
  5
6A89
  8
DEFPOINTS
 62
     0
 10
3045.0258055394438
 20
943.99565485309574
 30
0.0
  0
ENDBLK
  5
5B86
  8
0
  0
BLOCK
  8
0
  2
*D12
 70
     1
 10
0.0
 20
0.0
 30
0.0
  3
*D12
  1

  0
LINE
  5
6F1C
  8
SP
 10
1653.3393293101719
 20
781.99565485309631
 30
0.0
 11
1582.6836330749211
 21
781.99565485309631
 31
0.0
  0
LINE
  5
6F1D
  8
SP
 10
1653.3393293101719
 20
751.99565485309643
 30
0.0
 11
1582.6836330749211
 21
751.99565485309643
 31
0.0
  0
LINE
  5
6F1E
  8
SP
 10
1592.6836330749211
 20
806.99565485309643
 30
0.0
 11
1592.6836330749211
 21
831.99565485309643
 31
0.0
  0
LINE
  5
6F1F
  8
SP
 10
1592.6836330749211
 20
726.99565485309643
 30
0.0
 11
1592.6836330749211
 21
629.87659842223275
 31
0.0
  0
LINE
  5
6F20
  8
SP
 10
1592.6836330749211
 20
781.99565485309631
 30
0.0
 11
1592.6836330749211
 21
751.99565485309643
 31
0.0
  0
INSERT
  5
6F21
  8
SP
  2
_DOT
 10
1592.6836330749211
 20
781.99565485309631
 30
0.0
 41
25.0
 42
25.0
 43
25.0
 50
270.0
  0
INSERT
  5
6F22
  8
SP
  2
_OPEN
 10
1592.6836330749211
 20
751.99565485309643
 30
0.0
 41
25.0
 42
25.0
 43
25.0
 50
90.0
  0
TEXT
  8
0
  40
30
  5
6F33
  72
0
  71
0
 10
1507.68
 20
612.836
 30
0.000000
  1
30
  0
POINT
  5
6F24
  8
DEFPOINTS
 62
     0
 10
1663.3393293101719
 20
781.99565485309631
 30
0.0
  0
POINT
  5
6F25
  8
DEFPOINTS
 62
     0
 10
1663.3393293101719
 20
751.99565485309643
 30
0.0
  0
POINT
  5
6F26
  8
DEFPOINTS
 62
     0
 10
1592.6836330749211
 20
751.99565485309643
 30
0.0
  0
ENDBLK
  5
656A
  8
0
  0
BLOCK
  8
0
  2
*D13
 70
     1
 10
0.0
 20
0.0
 30
0.0
  3
*D13
  1

  0
LINE
  5
6F27
  8
SP
 10
1713.3393293101719
 20
803.99565485309586
 30
0.0
 11
1582.6836330749211
 21
803.99565485309586
 31
0.0
  0
LINE
  5
6F28
  8
SP
 10
1653.3393293101719
 20
781.99565485309631
 30
0.0
 11
1582.6836330749211
 21
781.99565485309631
 31
0.0
  0
LINE
  5
6F29
  8
SP
 10
1592.6836330749211
 20
803.99565485309586
 30
0.0
 11
1592.6836330749211
 21
781.99565485309631
 31
0.0
  0
TEXT
  8
0
  40
30
  5
6F34
  72
0
  71
0
 10
1500.52
 20
729.954
 30
0.000000
  1
（22）
  0
POINT
  5
6F2B
  8
DEFPOINTS
 62
     0
 10
1723.3393293101719
 20
803.99565485309586
 30
0.0
  0
POINT
  5
6F2C
  8
DEFPOINTS
 62
     0
 10
1663.3393293101719
 20
781.99565485309631
 30
0.0
  0
POINT
  5
6F2D
  8
DEFPOINTS
 62
     0
 10
1592.6836330749211
 20
781.99565485309631
 30
0.0
  0
ENDBLK
  5
6574
  8
0
  0
BLOCK
  8
0
  2
L-30-3
 70
     0
 10
0.0
 20
0.0
 30
0.0
  3
L-30-3
  1

  0
LINE
  5
676F
  8
0
 10
115.2488417492448
 20
98.116970357453638
 30
0.0
 11
145.2488417492448
 21
98.116970357453638
 31
0.0
  0
LINE
  5
6770
  8
0
 10
115.2488417492448
 20
98.116970357453638
 30
0.0
 11
115.2488417492448
 21
128.1169703574536
 31
0.0
  0
LINE
  5
6771
  8
0
 10
145.2488417492448
 20
98.116970357453638
 30
0.0
 11
145.2488417492448
 21
99.116970357453638
 31
0.0
  0
LINE
  5
6772
  8
0
 10
115.2488417492448
 20
128.1169703574536
 30
0.0
 11
116.2488417492448
 21
128.1169703574536
 31
0.0
  0
LINE
  5
6773
  8
0
 10
122.2488417492448
 20
101.1169703574536
 30
0.0
 11
143.2488417492448
 21
101.1169703574536
 31
0.0
  0
LINE
  5
6774
  8
0
 10
118.2488417492448
 20
105.1169703574536
 30
0.0
 11
118.2488417492448
 21
126.1169703574536
 31
0.0
  0
ARC
  5
6775
  8
0
 10
143.2488417492448
 20
99.116970357453638
 30
0.0
 40
2.0
 50
0.0
 51
90.0
  0
ARC
  5
6776
  8
0
 10
116.2488417492448
 20
126.1169703574536
 30
0.0
 40
2.0
 50
0.0
 51
90.0
  0
ARC
  5
6777
  8
0
 10
122.2488417492448
 20
105.1169703574536
 30
0.0
 40
4.0
 50
180.0
 51
270.0
  0
ENDBLK
  5
6779
  8
0
  0
BLOCK
  8
0
  2
*D15
 70
     1
 10
0.0
 20
0.0
 30
0.0
  3
*D15
  1

  0
LINE
  5
6B85
  8
SP
 10
1888.3393293101731
 20
721.46063476290499
 30
0.0
 11
1888.3393293101731
 21
671.99565485309563
 31
0.0
  0
LINE
  5
6B86
  8
SP
 10
2113.3393293101722
 20
741.9956548530954
 30
0.0
 11
2113.3393293101722
 21
671.99565485309563
 31
0.0
  0
LINE
  5
6B87
  8
SP
 10
1913.3393293101731
 20
681.99565485309563
 30
0.0
 11
2088.3393293101722
 21
681.99565485309563
 31
0.0
  0
INSERT
  5
6B88
  8
SP
  2
_OPEN
 10
1888.3393293101731
 20
681.99565485309563
 30
0.0
 41
25.0
 42
25.0
 43
25.0
 50
180.0
  0
INSERT
  5
6B89
  8
SP
  2
_OPEN
 10
2113.3393293101722
 20
681.99565485309563
 30
0.0
 41
25.0
 42
25.0
 43
25.0
  0
TEXT
  5
6B8A
  8
SP
 10
1959.677234280849
 20
691.99565485309563
 30
0.0
 40
30.0
  1
225
 51
15.0
  0
POINT
  5
6B8B
  8
DEFPOINTS
 62
     0
 10
1888.3393293101731
 20
731.4606347629051
 30
0.0
  0
POINT
  5
6B8C
  8
DEFPOINTS
 62
     0
 10
2113.3393293101722
 20
751.99565485309552
 30
0.0
  0
POINT
  5
6B8D
  8
DEFPOINTS
 62
     0
 10
2113.3393293101722
 20
681.99565485309563
 30
0.0
  0
ENDBLK
  5
6B3F
  8
0
  0
BLOCK
  8
0
  2
*D16
 70
     1
 10
0.0
 20
0.0
 30
0.0
  3
*D16
  1

  0
LINE
  5
6B61
  8
SP
 10
1663.339329310171
 20
741.99565485309574
 30
0.0
 11
1663.339329310171
 21
601.99565485309552
 31
0.0
  0
LINE
  5
6B62
  8
SP
 10
2113.3393293101722
 20
741.9956548530954
 30
0.0
 11
2113.3393293101722
 21
601.99565485309552
 31
0.0
  0
LINE
  5
6B63
  8
SP
 10
1688.339329310171
 20
611.99565485309552
 30
0.0
 11
2088.3393293101722
 21
611.99565485309552
 31
0.0
  0
INSERT
  5
6B64
  8
SP
  2
_OPEN
 10
1663.339329310171
 20
611.99565485309552
 30
0.0
 41
25.0
 42
25.0
 43
25.0
 50
180.0
  0
INSERT
  5
6B65
  8
SP
  2
_OPEN
 10
2113.3393293101722
 20
611.99565485309552
 30
0.0
 41
25.0
 42
25.0
 43
25.0
  0
TEXT
  5
6B66
  8
SP
 10
1845.888771725638
 20
621.99565485309552
 30
0.0
 40
30.0
  1
450
 51
15.0
  0
POINT
  5
6B67
  8
DEFPOINTS
 62
     0
 10
1663.339329310171
 20
751.99565485309574
 30
0.0
  0
POINT
  5
6B68
  8
DEFPOINTS
 62
     0
 10
2113.3393293101722
 20
751.99565485309552
 30
0.0
  0
POINT
  5
6B69
  8
DEFPOINTS
 62
     0
 10
2113.3393293101722
 20
611.99565485309552
 30
0.0
  0
ENDBLK
  5
6B4B
  8
0
  0
BLOCK
  8
0
  2
*D17
 70
     1
 10
0.0
 20
0.0
 30
0.0
  3
*D17
  1

  0
LINE
  5
6B8E
  8
SP
 10
1888.3393293101731
 20
721.46063476290499
 30
0.0
 11
1888.3393293101731
 21
671.99565485309563
 31
0.0
  0
LINE
  5
6B8F
  8
SP
 10
1663.3393293101719
 20
741.99565485309574
 30
0.0
 11
1663.3393293101719
 21
671.99565485309563
 31
0.0
  0
LINE
  5
6B90
  8
SP
 10
1863.3393293101731
 20
681.99565485309563
 30
0.0
 11
1688.3393293101719
 21
681.99565485309563
 31
0.0
  0
INSERT
  5
6B91
  8
SP
  2
_OPEN
 10
1888.3393293101731
 20
681.99565485309563
 30
0.0
 41
25.0
 42
25.0
 43
25.0
  0
INSERT
  5
6B92
  8
SP
  2
_OPEN
 10
1663.3393293101719
 20
681.99565485309563
 30
0.0
 41
25.0
 42
25.0
 43
25.0
 50
180.0
  0
TEXT
  5
6B93
  8
SP
 10
1734.6772342808481
 20
691.99565485309563
 30
0.0
 40
30.0
  1
225
 51
15.0
  0
POINT
  5
6B94
  8
DEFPOINTS
 62
     0
 10
1888.3393293101731
 20
731.4606347629051
 30
0.0
  0
POINT
  5
6B95
  8
DEFPOINTS
 62
     0
 10
1663.3393293101719
 20
751.99565485309574
 30
0.0
  0
POINT
  5
6B96
  8
DEFPOINTS
 62
     0
 10
1663.3393293101719
 20
681.99565485309563
 30
0.0
  0
ENDBLK
  5
6B57
  8
0
  0
BLOCK
  8
0
  2
*D18
 70
     1
 10
0.0
 20
0.0
 30
0.0
  3
*D18
  1

  0
LINE
  5
6BBE
  8
SP
 10
2486.8822125799629
 20
771.99565485309529
 30
0.0
 11
2486.8822125799629
 21
601.99565485309517
 31
0.0
  0
LINE
  5
6BBF
  8
SP
 10
2986.8822125799629
 20
771.99565485309529
 30
0.0
 11
2986.8822125799629
 21
601.99565485309517
 31
0.0
  0
LINE
  5
6BC0
  8
SP
 10
2511.882212579962
 20
611.99565485309529
 30
0.0
 11
2961.8822125799629
 21
611.99565485309529
 31
0.0
  0
INSERT
  5
6BC1
  8
SP
  2
_OPEN
 10
2486.8822125799629
 20
611.99565485309529
 30
0.0
 41
25.0
 42
25.0
 43
25.0
 50
180.0
  0
INSERT
  5
6BC2
  8
SP
  2
_OPEN
 10
2986.8822125799629
 20
611.99565485309529
 30
0.0
 41
25.0
 42
25.0
 43
25.0
  0
TEXT
  5
6BC3
  8
SP
 10
2695.0058318363531
 20
621.99565485309517
 30
0.0
 40
30.0
  1
500
 51
15.0
  0
POINT
  5
6BC4
  8
DEFPOINTS
 62
     0
 10
2486.8822125799629
 20
781.9956548530954
 30
0.0
  0
POINT
  5
6BC5
  8
DEFPOINTS
 62
     0
 10
2986.8822125799629
 20
781.9956548530954
 30
0.0
  0
POINT
  5
6BC6
  8
DEFPOINTS
 62
     0
 10
2986.8822125799629
 20
611.99565485309529
 30
0.0
  0
ENDBLK
  5
6BA5
  8
0
  0
BLOCK
  8
0
  2
*D19
 70
     1
 10
0.0
 20
0.0
 30
0.0
  3
*D19
  1

  0
LINE
  5
6BE2
  8
SP
 10
2832.8822125799629
 20
843.82143378090768
 30
0.0
 11
2832.8822125799629
 21
671.99565485309517
 31
0.0
  0
LINE
  5
6BE3
  8
SP
 10
2486.8822125799629
 20
771.99565485309529
 30
0.0
 11
2486.8822125799629
 21
671.99565485309517
 31
0.0
  0
LINE
  5
6BE4
  8
SP
 10
2807.8822125799629
 20
681.99565485309529
 30
0.0
 11
2511.882212579962
 21
681.99565485309529
 31
0.0
  0
INSERT
  5
6BE5
  8
SP
  2
_OPEN
 10
2832.8822125799629
 20
681.99565485309529
 30
0.0
 41
25.0
 42
25.0
 43
25.0
  0
INSERT
  5
6BE6
  8
SP
  2
_OPEN
 10
2486.8822125799629
 20
681.99565485309529
 30
0.0
 41
25.0
 42
25.0
 43
25.0
 50
180.0
  0
TEXT
  5
6BE7
  8
SP
 10
2618.5287252703311
 20
691.99565485309529
 30
0.0
 40
30.0
  1
346
 51
15.0
  0
POINT
  5
6BE8
  8
DEFPOINTS
 62
     0
 10
2832.8822125799629
 20
853.82143378090757
 30
0.0
  0
POINT
  5
6BE9
  8
DEFPOINTS
 62
     0
 10
2486.8822125799629
 20
781.9956548530954
 30
0.0
  0
POINT
  5
6BEA
  8
DEFPOINTS
 62
     0
 10
2486.8822125799629
 20
681.99565485309529
 30
0.0
  0
ENDBLK
  5
6BB1
  8
0
  0
BLOCK
  8
0
  2
*D20
 70
     1
 10
0.0
 20
0.0
 30
0.0
  3
*D20
  1

  0
LINE
  5
6BD9
  8
SP
 10
2832.8822125799638
 20
843.82143378090768
 30
0.0
 11
2832.8822125799638
 21
671.99565485309517
 31
0.0
  0
LINE
  5
6BDA
  8
SP
 10
2986.8822125799629
 20
771.99565485309529
 30
0.0
 11
2986.8822125799629
 21
671.99565485309517
 31
0.0
  0
LINE
  5
6BDB
  8
SP
 10
2857.8822125799638
 20
681.99565485309529
 30
0.0
 11
2961.8822125799629
 21
681.99565485309529
 31
0.0
  0
INSERT
  5
6BDC
  8
SP
  2
_OPEN
 10
2832.8822125799638
 20
681.99565485309529
 30
0.0
 41
25.0
 42
25.0
 43
25.0
 50
180.0
  0
INSERT
  5
6BDD
  8
SP
  2
_OPEN
 10
2986.8822125799629
 20
681.99565485309529
 30
0.0
 41
25.0
 42
25.0
 43
25.0
  0
TEXT
  5
6BDE
  8
SP
 10
2868.8602264240012
 20
691.99565485309529
 30
0.0
 40
30.0
  1
154
 51
15.0
  0
POINT
  5
6BDF
  8
DEFPOINTS
 62
     0
 10
2832.8822125799638
 20
853.82143378090757
 30
0.0
  0
POINT
  5
6BE0
  8
DEFPOINTS
 62
     0
 10
2986.8822125799629
 20
781.9956548530954
 30
0.0
  0
POINT
  5
6BE1
  8
DEFPOINTS
 62
     0
 10
2986.8822125799629
 20
681.99565485309529
 30
0.0
  0
ENDBLK
  5
6BBD
  8
0
  0
BLOCK
  8
0
  2
*D21
 70
     1
 10
0.0
 20
0.0
 30
0.0
  3
*D21
  1

  0
LINE
  5
6EE3
  8
SP
 10
2113.3393293101731
 20
2069.8970137353699
 30
0.0
 11
2113.3393293101731
 21
2139.8970137353708
 31
0.0
  0
LINE
  5
6EE4
  8
SP
 10
1663.3393293101719
 20
2069.8970137353699
 30
0.0
 11
1663.3393293101719
 21
2139.8970137353708
 31
0.0
  0
LINE
  5
6EE5
  8
SP
 10
2088.3393293101722
 20
2129.8970137353708
 30
0.0
 11
1688.3393293101719
 21
2129.8970137353708
 31
0.0
  0
INSERT
  5
6EE6
  8
SP
  2
_OPEN
 10
2113.3393293101731
 20
2129.8970137353708
 30
0.0
 41
25.0
 42
25.0
 43
25.0
  0
INSERT
  5
6EE7
  8
SP
  2
_OPEN
 10
1663.3393293101719
 20
2129.8970137353708
 30
0.0
 41
25.0
 42
25.0
 43
25.0
 50
180.0
  0
TEXT
  5
6EE8
  8
SP
 10
1845.8887717256389
 20
2139.8970137353708
 30
0.0
 40
30.0
  1
450
 51
15.0
  0
POINT
  5
6EE9
  8
DEFPOINTS
 62
     0
 10
2113.3393293101731
 20
2059.8970137353699
 30
0.0
  0
POINT
  5
6EEA
  8
DEFPOINTS
 62
     0
 10
1663.3393293101719
 20
2059.8970137353699
 30
0.0
  0
POINT
  5
6EEB
  8
DEFPOINTS
 62
     0
 10
1663.3393293101719
 20
2129.8970137353708
 30
0.0
  0
ENDBLK
  5
6E9A
  8
0
  0
BLOCK
  8
0
  2
*D22
 70
     1
 10
0.0
 20
0.0
 30
0.0
  3
*D22
  1

  0
LINE
  5
6EEC
  8
SP
 10
2123.3393293101722
 20
2059.8970137353699
 30
0.0
 11
2302.7259517757288
 21
2059.8970137353699
 31
0.0
  0
LINE
  5
6EED
  8
SP
 10
2123.3393293101722
 20
1559.8970137353699
 30
0.0
 11
2302.7259517757288
 21
1559.8970137353699
 31
0.0
  0
LINE
  5
6EEE
  8
SP
 10
2292.7259517757288
 20
2034.897013735371
 30
0.0
 11
2292.7259517757288
 21
1584.8970137353699
 31
0.0
  0
INSERT
  5
6EEF
  8
SP
  2
_OPEN
 10
2292.7259517757288
 20
2059.8970137353699
 30
0.0
 41
25.0
 42
25.0
 43
25.0
 50
90.0
  0
INSERT
  5
6EF0
  8
SP
  2
_OPEN
 10
2292.7259517757288
 20
1559.8970137353699
 30
0.0
 41
25.0
 42
25.0
 43
25.0
 50
270.0
  0
TEXT
  5
6EF1
  8
SP
 10
2282.7259517757288
 20
1768.020632991761
 30
0.0
 40
30.0
  1
500
 50
90.0
 51
15.0
  0
POINT
  5
6EF2
  8
DEFPOINTS
 62
     0
 10
2113.3393293101731
 20
2059.8970137353699
 30
0.0
  0
POINT
  5
6EF3
  8
DEFPOINTS
 62
     0
 10
2113.3393293101731
 20
1559.8970137353699
 30
0.0
  0
POINT
  5
6EF4
  8
DEFPOINTS
 62
     0
 10
2292.7259517757288
 20
1559.8970137353699
 30
0.0
  0
ENDBLK
  5
6EA6
  8
0
  0
BLOCK
  8
0
  2
*D23
 70
     1
 10
0.0
 20
0.0
 30
0.0
  3
*D23
  1

  0
LINE
  5
6EF5
  8
SP
 10
2088.1967544270901
 20
1905.8970137353699
 30
0.0
 11
2214.050745642834
 21
1905.8970137353699
 31
0.0
  0
LINE
  5
6EF6
  8
SP
 10
2123.3393293101722
 20
1559.8970137353699
 30
0.0
 11
2214.050745642834
 21
1559.8970137353699
 31
0.0
  0
LINE
  5
6EF7
  8
SP
 10
2204.050745642834
 20
1880.8970137353699
 30
0.0
 11
2204.050745642834
 21
1584.8970137353699
 31
0.0
  0
INSERT
  5
6EF8
  8
SP
  2
_OPEN
 10
2204.050745642834
 20
1905.8970137353699
 30
0.0
 41
25.0
 42
25.0
 43
25.0
 50
90.0
  0
INSERT
  5
6EF9
  8
SP
  2
_OPEN
 10
2204.050745642834
 20
1559.8970137353699
 30
0.0
 41
25.0
 42
25.0
 43
25.0
 50
270.0
  0
TEXT
  5
6EFA
  8
SP
 10
2194.0507456428331
 20
1691.5435264257389
 30
0.0
 40
30.0
  1
346
 50
90.0
 51
15.0
  0
POINT
  5
6EFB
  8
DEFPOINTS
 62
     0
 10
2078.1967544270901
 20
1905.8970137353699
 30
0.0
  0
POINT
  5
6EFC
  8
DEFPOINTS
 62
     0
 10
2113.3393293101731
 20
1559.8970137353699
 30
0.0
  0
POINT
  5
6EFD
  8
DEFPOINTS
 62
     0
 10
2204.050745642834
 20
1559.8970137353699
 30
0.0
  0
ENDBLK
  5
6EB2
  8
0
  0
BLOCK
  8
0
  2
*D24
 70
     1
 10
0.0
 20
0.0
 30
0.0
  3
*D24
  1

  0
LINE
  5
6EFE
  8
SP
 10
2088.1967544270901
 20
1905.8970137353699
 30
0.0
 11
2214.050745642834
 21
1905.8970137353699
 31
0.0
  0
LINE
  5
6EFF
  8
SP
 10
2123.3393293101722
 20
2059.8970137353699
 30
0.0
 11
2214.050745642834
 21
2059.8970137353699
 31
0.0
  0
LINE
  5
6F00
  8
SP
 10
2204.050745642834
 20
1930.8970137353699
 30
0.0
 11
2204.050745642834
 21
2034.897013735371
 31
0.0
  0
INSERT
  5
6F01
  8
SP
  2
_OPEN
 10
2204.050745642834
 20
1905.8970137353699
 30
0.0
 41
25.0
 42
25.0
 43
25.0
 50
270.0
  0
INSERT
  5
6F02
  8
SP
  2
_OPEN
 10
2204.050745642834
 20
2059.8970137353699
 30
0.0
 41
25.0
 42
25.0
 43
25.0
 50
90.0
  0
TEXT
  5
6F03
  8
SP
 10
2194.0507456428331
 20
1941.8750275794091
 30
0.0
 40
30.0
  1
154
 50
90.0
 51
15.0
  0
POINT
  5
6F04
  8
DEFPOINTS
 62
     0
 10
2078.1967544270901
 20
1905.8970137353699
 30
0.0
  0
POINT
  5
6F05
  8
DEFPOINTS
 62
     0
 10
2113.3393293101731
 20
2059.8970137353699
 30
0.0
  0
POINT
  5
6F06
  8
DEFPOINTS
 62
     0
 10
2204.050745642834
 20
2059.8970137353699
 30
0.0
  0
ENDBLK
  5
6EBE
  8
0
  0
BLOCK
  8
0
  2
*U25
 70
     1
 10
0.0
 20
0.0
 30
0.0
  3
*U25
  1

  0
TEXT
  5
6F2F
  8
SP
 10
3035.0258055394438
 20
981.17237207246387
 30
0.0
 40
30.0
  1
\U+2205
 50
90.0
 51
15.0
  0
TEXT
  5
6F30
  8
SP
 10
3035.0258055394438
 20
1008.315229215321
 30
0.0
 40
30.0
  1
200
 50
90.0
 51
15.0
  0
ENDBLK
  5
6F32
  8
0
  0
ENDSEC
  0
SECTION
  2
ENTITIES
  0
LINE
  5
55AD
  8
4
 10
1281.9192336154081
 20
0.0000009706889159
 30
0.0
 11
1281.9192336154081
 21
2950.0000009706891
 31
0.0
  0
LINE
  5
55AE
  8
4
 10
3381.9192336154078
 20
2950.0000009706891
 30
0.0
 11
3381.9192336154078
 21
0.0000009706889159
 31
0.0
  0
LINE
  5
55B1
  8
4
 10
1731.9192336154081
 20
226.55314220080859
 30
0.0
 11
2931.9192336154078
 21
226.55314220080859
 31
0.0
  0
LINE
  5
55B2
  8
4
 10
1731.9192336154081
 20
326.55314220080862
 30
0.0
 11
2931.9192336154078
 21
326.55314220080862
 31
0.0
  0
LINE
  5
55B3
  8
4
 10
1731.9192336154081
 20
426.55314220080862
 30
0.0
 11
2931.9192336154078
 21
426.55314220080862
 31
0.0
  0
LINE
  5
55B4
  8
4
 10
3381.9192336154078
 20
0.0000009706889159
 30
0.0
 11
1281.9192336154081
 21
0.0000009706889159
 31
0.0
  0
LINE
  5
55B5
  8
4
 10
1731.9192336154081
 20
426.55314220080862
 30
0.0
 11
1731.9192336154081
 21
226.55314220080859
 31
0.0
  0
LINE
  5
55B6
  8
4
 10
2231.9192336154078
 20
426.55314220080862
 30
0.0
 11
2231.9192336154078
 21
226.55314220080859
 31
0.0
  0
TEXT
  5
55B8
  8
4
 10
2268.5737292008889
 20
243.712726480752
 30
0.0
 40
50.0
  1
MF＃1 1/4- 7
  0
TEXT
  5
55BA
  8
4
 10
1768.1773396402059
 20
248.1982989328196
 30
0.0
 40
50.0
  1
機器型番
  0
TEXT
  5
55BB
  8
4
 10
2259.5979791030732
 20
349.12491115837719
 30
0.0
 40
50.0
  1
ミツヤ多翼送風機
  0
TEXT
  5
55BC
  8
4
 10
1770.42131446231
 20
358.0961680674215
 30
0.0
 40
50.0
  1
機器名称
  0
LINE
  5
55BD
  8
4
 10
2931.9192336154078
 20
426.55314220080862
 30
0.0
 11
2931.9192336154078
 21
226.55314220080859
 31
0.0
  0
DIMENSION
  5
55BE
  8
SP
  2
*D7
 10
2056.3393293101722
 20
1324.9956548530949
 30
0.0
 11
1972.3393293101731
 21
1349.9956548530961
 31
0.0
 70
     0
 13
1888.339329310174
 23
1269.8082707222729
 33
0.0
 14
2056.3393293101722
 24
1059.9956548530949
 34
0.0
 50
179.99999999999989
  0
ARC
  5
55C1
  8
1
 10
1872.3393293101731
 20
1059.9956548530961
 30
0.0
 40
195.0
 50
352.67794040955272
 51
89.999999999999986
  0
ARC
  5
55C2
  8
1
 10
1872.3393293101731
 20
1059.9956548530961
 30
0.0
 40
184.0
 50
352.6970887175936
 51
89.999999999999986
  0
LINE
  5
55C3
  8
2
 10
2083.9463609893628
 20
1043.9956548530949
 30
0.0
 11
1712.6737003044859
 21
1043.9956548530961
 31
0.0
  0
LINE
  5
55C4
  8
1
 10
2053.3393293101731
 20
805.59565485309588
 30
0.0
 11
2024.3393293101719
 21
805.59565485309588
 31
0.0
  0
LINE
  5
55C5
  8
1
 10
2053.3393293101731
 20
803.99565485309552
 30
0.0
 11
1723.3393293101719
 21
803.9956548530962
 31
0.0
  0
ARC
  5
55C6
  8
1
 10
1902.3393293101731
 20
1057.9956548530961
 30
0.0
 40
165.0
 50
317.16657193393388
 51
352.0390952626384
  0
ARC
  5
55C7
  8
1
 10
1902.3393293101731
 20
1057.9956548530961
 30
0.0
 40
154.0
 50
321.78678929825861
 51
352.0163414440633
  0
LINE
  5
55C8
  8
1
 10
2053.3393293101722
 20
805.59565485309588
 30
0.0
 11
2053.3393293101722
 21
803.99565485309608
 31
0.0
  0
DIMENSION
  5
55C9
  8
3
  2
*D11
 10
3045.0258055394438
 20
943.99565485309574
 30
0.0
 11
3020.0258055394438
 21
1043.9956548530961
 31
0.0
 70
     0
  1
%%c<>
 13
2909.882212579962
 23
1143.9956548530949
 33
0.0
 14
2909.882212579962
 24
943.99565485309574
 34
0.0
 50
90.0
  0
LINE
  5
55CA
  8
2
 10
2832.8822125799629
 20
1326.607219115881
 30
0.0
 11
2832.8822125799629
 21
853.82143378090757
 31
0.0
  0
LINE
  5
55CB
  8
1
 10
2532.8822125799629
 20
1104.0342853677121
 30
0.0
 11
2532.8822125799629
 21
983.95702433847885
 31
0.0
  0
LINE
  5
55CC
  8
1
 10
2594.7490867788279
 20
1118.9956548530949
 30
0.0
 11
2594.7490867788279
 21
974.60748589179002
 31
0.0
  0
LINE
  5
55CD
  8
1
 10
2567.8053035889352
 20
1118.9956548530949
 30
0.0
 11
2567.8053035889352
 21
974.60748589179002
 31
0.0
  0
LINE
  5
55CE
  8
2
 10
2653.8822125799629
 20
1132.286808899627
 30
0.0
 11
2653.8822125799629
 21
964.87221010250732
 31
0.0
  0
LINE
  5
55CF
  8
1
 10
2712.582212579965
 20
1063.9956548530949
 30
0.0
 11
2585.8822125799652
 21
805.59565485309565
 31
0.0
  0
LINE
  5
55D0
  8
1
 10
2755.8822125799638
 20
1168.9956548530949
 30
0.0
 11
2755.8822125799638
 21
803.99565485309586
 31
0.0
  0
LINE
  5
55D1
  8
1
 10
2754.2822125799639
 20
1168.9956548530949
 30
0.0
 11
2754.2822125799648
 21
803.99565485309586
 31
0.0
  0
LINE
  5
55D3
  8
1
  6
CONTINUOUS
 10
2762.8822125799629
 20
1244.9956548530961
 30
0.0
 11
2762.8822125799629
 21
913.99565485309586
 31
0.0
  0
LINE
  5
55D4
  8
1
  6
CONTINUOUS
 10
2902.8822125799629
 20
913.99565485309586
 30
0.0
 11
2902.8822125799629
 21
1244.9956548530961
 31
0.0
  0
LINE
  5
55D6
  8
1
 10
2909.882212579962
 20
1160.995654853094
 30
0.0
 11
2909.8822125799611
 21
926.99565485309574
 31
0.0
  0
DIMENSION
  5
55D7
  8
SP
  2
*D5
 10
1592.6836330749211
 20
803.9956548530962
 30
0.0
 11
1567.6836330749211
 21
923.99565485309654
 31
0.0
 70
     0
 13
1712.6737003044859
 23
1043.9956548530961
 33
0.0
 14
1723.3393293101719
 24
803.9956548530962
 34
0.0
 50
90.0
  0
LINE
  5
55D8
  8
2
 10
1888.339329310174
 20
1269.8082707222729
 30
0.0
 11
1888.3393293101731
 21
731.4606347629051
 31
0.0
  0
CIRCLE
  5
55D9
  8
CT
 10
1888.3393293101731
 20
1043.9956548530961
 30
0.0
 40
110.0
  0
ARC
  5
55DA
  8
1
 10
1695.3393293101719
 20
980.9956548530962
 30
0.0
 40
71.0
 50
19.712818741117211
 51
35.224194980615927
  0
ARC
  5
55DB
  8
1
 10
1695.3393293101719
 20
980.9956548530962
 30
0.0
 40
82.0
 50
19.134092474435882
 51
47.401187107546683
  0
ARC
  5
55DC
  8
1
 10
1888.3393293101731
 20
1043.9956548530961
 30
0.0
 40
75.0
 50
292.3051532135043
 51
247.69484678649559
  0
CIRCLE
  5
55DD
  8
1
 10
1888.3393293101731
 20
1043.9956548530961
 30
0.0
 40
69.388168961305382
  0
CIRCLE
  5
55DE
  8
1
 10
1888.3393293101731
 20
1043.9956548530961
 30
0.0
 40
60.038630514616607
  0
LINE
  5
55DF
  8
1
 10
1754.939329310173
 20
1099.0377725001549
 30
0.0
 11
1754.939329310173
 21
971.99565485309597
 31
0.0
  0
LINE
  5
55E0
  8
1
 10
2021.739329310172
 20
1099.037772500154
 30
0.0
 11
2021.739329310172
 21
969.39565485309606
 31
0.0
  0
LINE
  5
55E1
  8
1
 10
2023.3393293101719
 20
1097.6956548530959
 30
0.0
 11
2023.3393293101719
 21
803.99565485309552
 31
0.0
  0
LINE
  5
55E2
  8
1
 10
1753.339329310174
 20
1097.6956548530959
 30
0.0
 11
1753.339329310174
 21
803.99565485309552
 31
0.0
  0
LINE
  5
55E3
  8
FUTO
 10
2892.8822125799629
 20
903.99565485309586
 30
0.0
 11
2772.8822125799629
 21
903.99565485309586
 31
0.0
  0
LINE
  5
55E4
  8
FUTO
 10
2892.8822125799629
 20
902.99565485309586
 30
0.0
 11
2772.8822125799629
 21
902.99565485309586
 31
0.0
  0
ARC
  5
55E8
  8
1
 10
1899.339329310171
 20
1032.9956548530961
 30
0.0
 40
129.0
 50
191.22979406854401
 51
255.677695662047
  0
LINE
  5
55E9
  8
1
 10
1754.9393293101739
 20
969.39565485309606
 30
0.0
 11
1754.9393293101739
 21
876.6956548530959
 31
0.0
  0
LINE
  5
55EA
  8
1
 10
1756.539329310174
 20
969.39565485309572
 30
0.0
 11
1756.5393293101729
 21
876.6956548530959
 31
0.0
  0
LINE
  5
55EB
  8
1
 10
2021.739329310172
 20
969.39565485309606
 30
0.0
 11
2021.7393293101729
 21
876.6956548530959
 31
0.0
  0
LINE
  5
55EC
  8
1
 10
2020.139329310173
 20
969.39565485309572
 30
0.0
 11
2020.139329310173
 21
876.6956548530959
 31
0.0
  0
ARC
  5
55ED
  8
1
 10
1902.3393293101731
 20
1057.9956548530961
 30
0.0
 40
165.0
 50
270.0
 51
317.16657193393388
  0
ARC
  5
55EE
  8
1
 10
1902.3393293101731
 20
1057.9956548530961
 30
0.0
 40
154.0
 50
256.8972379658976
 51
321.78678929825861
  0
ARC
  5
55EF
  8
1
 10
1899.339329310171
 20
1032.9956548530961
 30
0.0
 40
140.0
 50
191.55838015562571
 51
270.0
  0
LINE
  5
55F0
  8
1
 10
2021.7393293101729
 20
876.6956548530959
 30
0.0
 11
2021.7393293101729
 21
806.59565485309588
 31
0.0
  0
ARC
  5
55F1
  8
1
 10
2024.3393293101719
 20
806.59565485309588
 30
0.0
 40
2.6000000000000001
 50
179.99999999999989
 51
270.0
  0
ARC
  5
55F2
  8
1
 10
2024.3393293101719
 20
806.59565485309588
 30
0.0
 40
1.0
 50
179.99999999999989
 51
270.0
  0
LINE
  5
55F4
  8
1
 10
1899.339329310171
 20
892.99565485309608
 30
0.0
 11
1902.3393293101731
 21
892.99565485309608
 31
0.0
  0
LINE
  5
55F5
  8
1
 10
2021.739329310172
 20
876.6956548530959
 30
0.0
 11
2020.139329310173
 21
876.6956548530959
 31
0.0
  0
LINE
  5
55F6
  8
1
 10
1754.9393293101739
 20
876.6956548530959
 30
0.0
 11
1754.9393293101739
 21
806.59565485309588
 31
0.0
  0
LINE
  5
55F7
  8
1
 10
1723.3393293101731
 20
805.59565485309611
 30
0.0
 11
1723.3393293101719
 21
803.9956548530962
 31
0.0
  0
ARC
  5
55F9
  8
1
 10
1752.3393293101731
 20
806.59565485309588
 30
0.0
 40
1.0
 50
270.0
 51
0.0
  0
ARC
  5
55FA
  8
1
 10
1752.3393293101731
 20
806.59565485309588
 30
0.0
 40
2.6000000000000001
 50
270.0
 51
0.0
  0
LINE
  5
55FB
  8
1
 10
1752.3393293101731
 20
805.59565485309588
 30
0.0
 11
1723.3393293101719
 21
805.59565485309611
 31
0.0
  0
LINE
  5
55FC
  8
1
 10
1756.5393293101729
 20
876.6956548530959
 30
0.0
 11
1754.9393293101739
 21
876.6956548530959
 31
0.0
  0
ARC
  5
55FD
  8
1
 10
1757.539329310174
 20
969.39565485309572
 30
0.0
 40
1.0
 50
89.999999999999986
 51
179.99999999999989
  0
ARC
  5
55FE
  8
1
 10
1757.5393293101729
 20
969.39565485309606
 30
0.0
 40
2.6000000000000001
 50
89.999999999999986
 51
179.99999999999989
  0
LINE
  5
55FF
  8
1
 10
1838.3393293101731
 20
953.59565485309588
 30
0.0
 11
1796.3393293101731
 21
971.99565485309597
 31
0.0
  0
LINE
  5
5600
  8
1
 10
1938.3393293101731
 20
953.59565485309588
 30
0.0
 11
1980.3393293101731
 21
971.99565485309597
 31
0.0
  0
LINE
  5
5601
  8
1
 10
1938.3393293101731
 20
953.59565485309588
 30
0.0
 11
1838.3393293101731
 21
953.59565485309588
 31
0.0
  0
LINE
  5
5602
  8
CT
 10
1927.4616902946859
 20
949.54592037222687
 30
0.0
 11
1933.4689626147649
 21
935.04308206422388
 31
0.0
  0
CIRCLE
  5
5603
  8
1
 10
1930.4345068703319
 20
942.36890627685557
 30
0.0
 40
4.0
  0
LINE
  5
5604
  8
CT
 10
1849.2169683256591
 20
949.54592037222642
 30
0.0
 11
1843.209696005579
 21
935.04308206422343
 31
0.0
  0
CIRCLE
  5
5605
  8
1
 10
1846.2441517500131
 20
942.36890627685409
 30
0.0
 40
4.0
  0
LINE
  5
5606
  8
1
 10
1859.873876420796
 20
974.6074858917907
 30
0.0
 11
1916.8047821995499
 21
974.6074858917907
 31
0.0
  0
LINE
  5
5607
  8
1
 10
1976.6871553971289
 20
970.39565485309572
 30
0.0
 11
1799.991503223217
 21
970.39565485309572
 31
0.0
  0
LINE
  5
5608
  8
1
 10
2019.1393293101719
 20
971.99565485309597
 30
0.0
 11
1757.5393293101729
 21
971.99565485309597
 31
0.0
  0
LINE
  5
5609
  8
CT
 10
1982.7890637910421
 20
1004.873293868582
 30
0.0
 11
1997.291902099046
 21
998.86602154850345
 31
0.0
  0
CIRCLE
  5
560A
  8
1
 10
1989.966077886414
 20
1001.900477292936
 30
0.0
 40
4.0
  0
LINE
  5
560B
  8
1
 10
1928.339329310174
 20
972.99565485309597
 30
0.0
 11
1928.3393293101719
 21
971.99565485309597
 31
0.0
  0
LINE
  5
560C
  8
1
 10
1944.339329310174
 20
963.99565485309597
 30
0.0
 11
1944.339329310174
 21
981.92271906741939
 31
0.0
  0
LINE
  5
560D
  8
1
 10
1928.339329310174
 20
972.99565485309597
 30
0.0
 11
1920.160469054653
 21
976.08089161738803
 31
0.0
  0
LINE
  5
560E
  8
1
 10
1958.339329310174
 20
972.99565485309597
 30
0.0
 11
1958.3393293101719
 21
971.99565485309597
 31
0.0
  0
ARC
  5
560F
  8
1
 10
2019.1393293101719
 20
969.39565485309606
 30
0.0
 40
2.6000000000000001
 50
0.0
 51
89.999999999999986
  0
ARC
  5
5610
  8
1
 10
2019.1393293101719
 20
969.39565485309572
 30
0.0
 40
1.0
 50
0.0
 51
89.999999999999986
  0
LINE
  5
5611
  8
1
 10
2019.1393293101719
 20
970.39565485309572
 30
0.0
 11
1976.6871553971289
 21
970.39565485309572
 31
0.0
  0
LINE
  5
5612
  8
1
 10
1928.339329310174
 20
972.99565485309597
 30
0.0
 11
1958.339329310174
 21
972.99565485309597
 31
0.0
  0
LINE
  5
5613
  8
1
 10
1958.339329310174
 20
972.99565485309597
 30
0.0
 11
1940.869980824179
 21
990.46500333908966
 31
0.0
  0
LINE
  5
5614
  8
CT
 10
1793.889594829302
 20
1004.873293868581
 30
0.0
 11
1779.386756521299
 21
998.86602154850345
 31
0.0
  0
CIRCLE
  5
5615
  8
1
 10
1786.7125807339321
 20
1001.900477292937
 30
0.0
 40
4.0
  0
LINE
  5
5616
  8
1
 10
1799.991503223217
 20
970.39565485309572
 30
0.0
 11
1757.539329310174
 21
970.39565485309572
 31
0.0
  0
LINE
  5
5617
  8
1
 10
1818.3393293101731
 20
972.99565485309597
 30
0.0
 11
1818.3393293101731
 21
971.99565485309597
 31
0.0
  0
LINE
  5
5618
  8
1
 10
1848.3393293101731
 20
972.99565485309597
 30
0.0
 11
1848.3393293101731
 21
971.99565485309597
 31
0.0
  0
LINE
  5
5619
  8
1
 10
1848.3393293101731
 20
972.99565485309597
 30
0.0
 11
1856.518189565692
 21
976.08089161738803
 31
0.0
  0
LINE
  5
561A
  8
1
 10
1818.3393293101731
 20
972.99565485309597
 30
0.0
 11
1835.808677796166
 21
990.46500333908966
 31
0.0
  0
LINE
  5
561B
  8
1
 10
1832.3393293101731
 20
963.99565485309597
 30
0.0
 11
1832.3393293101731
 21
981.92271906741939
 31
0.0
  0
LINE
  5
561C
  8
1
 10
1848.3393293101731
 20
972.99565485309597
 30
0.0
 11
1818.3393293101731
 21
972.99565485309597
 31
0.0
  0
LINE
  5
561D
  8
1
 10
2586.9822125799628
 20
971.99565485309586
 30
0.0
 11
2622.8138898433781
 21
895.08667189806499
 31
0.0
  0
LINE
  5
561E
  8
1
 10
2785.8822125799638
 20
803.99565485309586
 30
0.0
 11
2585.8822125799652
 21
803.99565485309586
 31
0.0
  0
LINE
  5
561F
  8
1
 10
2754.2822125799648
 20
805.59565485309565
 30
0.0
 11
2585.8822125799652
 21
805.59565485309565
 31
0.0
  0
LINE
  5
5620
  8
1
 10
2585.8822125799652
 20
805.59565485309565
 30
0.0
 11
2585.8822125799652
 21
803.99565485309586
 31
0.0
  0
LINE
  5
5622
  8
1
 10
2785.8822125799638
 20
805.59565485309565
 30
0.0
 11
2785.8822125799638
 21
803.99565485309586
 31
0.0
  0
LINE
  5
5624
  8
1
 10
2785.8822125799638
 20
805.59565485309565
 30
0.0
 11
2757.4822125799642
 21
805.59565485309565
 31
0.0
  0
LINE
  5
5625
  8
1
 10
2785.8822125799638
 20
805.59565485309565
 30
0.0
 11
2755.8822125799638
 21
805.59565485309565
 31
0.0
  0
LINE
  5
5626
  8
1
 10
2622.8138898433781
 20
895.08667189806499
 30
0.0
 11
2626.1991482422668
 21
887.82056546981903
 31
0.0
  0
LINE
  5
5627
  8
1
 10
2594.7490867788279
 20
974.60748589179002
 30
0.0
 11
2567.8053035889352
 21
974.60748589179002
 31
0.0
  0
LINE
  5
5628
  8
1
 10
2585.3679418559332
 20
970.39565485309595
 30
0.0
 11
2664.0138792466309
 21
970.39565485309595
 31
0.0
  0
LINE
  5
5629
  8
1
 10
2582.5822125799641
 20
971.99565485309586
 30
0.0
 11
2664.0138792466309
 21
971.99565485309586
 31
0.0
  0
LINE
  5
562A
  8
1
 10
2581.5822125799641
 20
969.39565485309595
 30
0.0
 11
2581.5822125799641
 21
953.59565485309577
 31
0.0
  0
LINE
  5
562B
  8
1
 10
2579.9822125799642
 20
969.39565485309595
 30
0.0
 11
2579.9822125799642
 21
953.59565485309577
 31
0.0
  0
LINE
  5
562C
  8
1
 10
2579.9822125799642
 20
953.59565485309577
 30
0.0
 11
2581.5822125799641
 21
953.59565485309577
 31
0.0
  0
LINE
  5
562D
  8
1
 10
2532.8822125799629
 20
983.95702433847885
 30
0.0
 11
2567.8053035889352
 21
977.49133173880398
 31
0.0
  0
ARC
  5
562E
  8
1
 10
2582.5822125799641
 20
969.39565485309595
 30
0.0
 40
1.0
 50
90.0
 51
180.0
  0
LINE
  5
562F
  8
1
 10
2582.5822125799641
 20
970.39565485309595
 30
0.0
 11
2585.3679418559332
 21
970.39565485309595
 31
0.0
  0
ARC
  5
5630
  8
1
 10
2582.5822125799641
 20
969.39565485309595
 30
0.0
 40
2.6000000000000001
 50
90.0
 51
180.0
  0
ARC
  5
5631
  8
1
 10
2759.8822125799629
 20
920.99565485309461
 30
0.0
 40
3.0
 50
48.18968510422188
 51
89.999999999999986
  0
LINE
  5
5632
  8
1
 10
2759.8822125799629
 20
923.99565485309574
 30
0.0
 11
2758.8822125799629
 21
923.99565485309574
 31
0.0
  0
ARC
  5
5633
  8
1
 10
2758.8822125799629
 20
926.99565485309472
 30
0.0
 40
3.0
 50
180.0
 51
270.0
  0
ARC
  5
5634
  8
FUTO
 10
2772.8822125799629
 20
913.99565485309574
 30
0.0
 40
10.0
 50
180.0
 51
270.0
  0
ARC
  5
5635
  8
FUTO
 10
2772.8822125799629
 20
913.99565485309574
 30
0.0
 40
11.0
 50
180.0
 51
270.0
  0
LINE
  5
5636
  8
1
 10
2674.9636554717031
 20
992.73714099371898
 30
0.0
 11
2677.1186161690539
 21
992.73714099371898
 31
0.0
  0
LINE
  5
5637
  8
1
 10
2677.1186161690539
 20
992.73714099371898
 30
0.0
 11
2677.3340530199971
 21
992.10832706859992
 31
0.0
  0
LINE
  5
5638
  8
1
 10
2666.624228423339
 20
976.940278392241
 30
0.0
 11
2669.896778378763
 21
976.940278392241
 31
0.0
  0
LINE
  5
5639
  8
1
 10
2667.9626305366219
 20
972.99565485309506
 30
0.0
 11
2664.5417959132978
 21
972.99565485309529
 31
0.0
  0
LINE
  5
563A
  8
1
 10
2664.0138792466309
 20
970.39565485309595
 30
0.0
 11
2666.6877853353831
 21
970.39565485309595
 31
0.0
  0
LINE
  5
563B
  8
1
 10
2664.0138792466309
 20
971.99565485309586
 30
0.0
 11
2667.4723054592209
 21
971.99565485309586
 31
0.0
  0
LINE
  5
563C
  8
1
 10
2598.8822125799629
 20
981.58749494825724
 30
0.0
 11
2626.8258480497948
 21
981.58749494825724
 31
0.0
  0
LINE
  5
563D
  8
1
 10
2630.645808990871
 20
992.73714099371898
 30
0.0
 11
2623.8822125799629
 21
972.99565485309529
 31
0.0
  0
LINE
  5
563E
  8
1
 10
2598.8822125799629
 20
981.58749494825724
 30
0.0
 11
2598.882212579962
 21
971.99565485309586
 31
0.0
  0
LINE
  5
563F
  8
1
 10
2623.8822125799629
 20
972.99565485309529
 30
0.0
 11
2598.8822125799629
 21
972.99565485309529
 31
0.0
  0
LINE
  5
5640
  8
1
 10
2594.7490867788279
 20
978.04512189848174
 30
0.0
 11
2598.8822125799629
 21
978.04512189848174
 31
0.0
  0
LINE
  5
5641
  8
CT
 10
2608.8822125799629
 20
985.29792081511584
 30
0.0
 11
2608.8822125799629
 21
964.87221010250732
 31
0.0
  0
LINE
  5
5642
  8
1
 10
2664.5417959132978
 20
972.99565485309529
 30
0.0
 11
2598.8822125799629
 21
972.99565485309529
 31
0.0
  0
LINE
  5
5643
  8
1
 10
2630.645808990871
 20
992.73714099371898
 30
0.0
 11
2674.9636554717031
 21
992.73714099371898
 31
0.0
  0
LINE
  5
5644
  8
1
 10
2625.23367322592
 20
976.940278392241
 30
0.0
 11
2666.624228423339
 21
976.940278392241
 31
0.0
  0
LINE
  5
5645
  8
FUTO
 10
2902.8822125799629
 20
943.99565485309574
 30
0.0
 11
2909.882212579962
 21
943.99565485309574
 31
0.0
  0
ARC
  5
5646
  8
1
 10
2906.882212579962
 20
926.99565485309472
 30
0.0
 40
3.0
 50
270.0
 51
0.0
  0
LINE
  5
5647
  8
1
 10
2905.8822125799629
 20
923.99565485309574
 30
0.0
 11
2906.882212579962
 21
923.99565485309574
 31
0.0
  0
ARC
  5
5648
  8
1
 10
2905.8822125799629
 20
920.99565485309461
 30
0.0
 40
3.0
 50
89.999999999999986
 51
131.81031489577811
  0
ARC
  5
5649
  8
FUTO
 10
2892.8822125799629
 20
913.99565485309574
 30
0.0
 40
10.0
 50
270.0
 51
0.0000000000000509
  0
ARC
  5
564A
  8
FUTO
 10
2892.8822125799629
 20
913.99565485309574
 30
0.0
 40
11.0
 50
270.0
 51
0.0000000000000509
  0
DIMENSION
  5
564B
  8
SP
  2
*D9
 10
2909.882212579962
 20
1404.9956548530949
 30
0.0
 11
2871.3822125799629
 21
1429.9956548530961
 31
0.0
 70
     0
 13
2832.8822125799629
 23
1374.9956548530949
 33
0.0
 14
2909.882212579962
 24
1160.995654853094
 34
0.0
  0
DIMENSION
  5
564C
  8
SP
  2
*D8
 10
2902.8822125799638
 20
1334.9956548530949
 30
0.0
 11
2832.8822125799629
 21
1359.9956548530949
 31
0.0
 70
     0
 13
2762.8822125799629
 23
1244.9956548530961
 33
0.0
 14
2902.8822125799638
 24
1244.9956548530961
 34
0.0
  0
LINE
  5
564D
  8
FUTO
 10
2898.8822125799629
 20
1264.9956548530961
 30
0.0
 11
2766.8822125799629
 21
1264.9956548530961
 31
0.0
  0
LINE
  5
5653
  8
2
 10
2492.8822125799629
 20
1043.9956548530949
 30
0.0
 11
2961.1934875838269
 21
1043.9956548530961
 31
0.0
  0
DIMENSION
  5
5654
  8
SP
  2
*D10
 10
2532.8822125799629
 20
1404.9956548530949
 30
0.0
 11
2682.8822125799629
 21
1429.9956548530961
 31
0.0
 70
     0
  1
（340）
 13
2832.8822125799629
 23
1374.9956548530949
 33
0.0
 14
2532.8822125799629
 24
1104.0342853677121
 34
0.0
  0
ARC
  5
5656
  8
FUTO
 10
2766.8822125799629
 20
1239.995654853094
 30
0.0
 40
25.0
 50
90.000000000001037
 51
179.9999999999979
  0
LINE
  5
5657
  8
1
 10
1743.3393293101731
 20
1254.9956548530961
 30
0.0
 11
1743.3393293101731
 21
1243.9956548530961
 31
0.0
  0
LINE
  5
5658
  8
1
 10
1729.9393293101721
 20
1264.9956548530961
 30
0.0
 11
1729.9393293101721
 21
1022.995654853096
 31
0.0
  0
LINE
  5
5659
  8
1
 10
1728.3393293101731
 20
1264.9956548530961
 30
0.0
 11
1728.3393293101731
 21
1022.995654853096
 31
0.0
  0
DIMENSION
  5
565A
  8
SP
  2
*D4
 10
1592.6836330749211
 20
1243.9956548530961
 30
0.0
 11
1567.6836330749211
 21
1143.9956548530961
 31
0.0
 70
     0
 13
1712.6737003044859
 23
1043.9956548530961
 33
0.0
 14
1729.9393293101721
 24
1243.9956548530961
 34
0.0
 50
90.0
  0
LINE
  5
565B
  8
1
 10
1838.339329310174
 20
1168.9956548530961
 30
0.0
 11
1753.339329310174
 21
1097.6956548530959
 31
0.0
  0
LINE
  5
565C
  8
1
 10
1743.3393293101719
 20
1232.195654853097
 30
0.0
 11
1743.3393293101731
 21
1055.795654853096
 31
0.0
  0
LINE
  5
565D
  8
1
 10
1938.339329310174
 20
1168.9956548530949
 30
0.0
 11
2023.3393293101731
 21
1097.695654853095
 31
0.0
  0
LINE
  5
565E
  8
CT
 10
1982.7890637910421
 20
1083.1180158376101
 30
0.0
 11
1997.291902099046
 21
1089.1252881576891
 31
0.0
  0
CIRCLE
  5
565F
  8
1
 10
1989.9660778864129
 20
1086.0908324132561
 30
0.0
 40
4.0
  0
LINE
  5
5660
  8
CT
 10
1793.889594829303
 20
1083.1180158376089
 30
0.0
 11
1779.386756521299
 21
1089.1252881576879
 31
0.0
  0
CIRCLE
  5
5661
  8
1
 10
1786.7125807339301
 20
1086.0908324132561
 30
0.0
 40
4.0
  0
LINE
  5
5662
  8
1
 10
1731.539329310172
 20
1043.9956548530949
 30
0.0
 11
1743.339329310171
 21
1055.795654853096
 31
0.0
  0
LINE
  5
5663
  8
1
 10
1729.9393293101721
 20
1022.995654853096
 30
0.0
 11
1728.3393293101731
 21
1022.995654853096
 31
0.0
  0
LINE
  5
5664
  8
1
 10
1743.3393293101731
 20
1043.9956548530961
 30
0.0
 11
1729.9393293101721
 21
1043.9956548530961
 31
0.0
  0
ARC
  5
5665
  8
1
 10
1744.073301034218
 20
1033.9956548530961
 30
0.0
 40
10.0
 50
47.401187107546683
 51
89.999999999999986
  0
LINE
  5
5666
  8
1
 10
1743.3393293101731
 20
1043.9956548530961
 30
0.0
 11
1744.073301034218
 21
1043.9956548530961
 31
0.0
  0
LINE
  5
5667
  8
1
 10
1743.3393293101731
 20
1043.9956548530961
 30
0.0
 11
1743.3393293101731
 21
1033.312000291209
 31
0.0
  0
ARC
  5
5668
  8
1
 10
1695.3393293101719
 20
980.9956548530962
 30
0.0
 40
71.0
 50
35.224194980615927
 51
47.463765266473288
  0
LINE
  5
5669
  8
1
 10
1872.3393293101731
 20
1243.9956548530961
 30
0.0
 11
1729.9393293101721
 21
1243.9956548530961
 31
0.0
  0
LINE
  5
566A
  8
1
 10
1938.339329310174
 20
1168.9956548530949
 30
0.0
 11
1838.3393293101731
 21
1168.9956548530961
 31
0.0
  0
LINE
  5
566B
  8
CT
 10
1927.4616902946859
 20
1138.4453893339651
 30
0.0
 11
1933.468962614766
 21
1152.9482276419681
 31
0.0
  0
CIRCLE
  5
566C
  8
1
 10
1930.4345068703319
 20
1145.6224034293371
 30
0.0
 40
4.0
  0
LINE
  5
566D
  8
CT
 10
1849.2169683256591
 20
1138.445389333966
 30
0.0
 11
1843.2096960055801
 21
1152.948227641969
 31
0.0
  0
CIRCLE
  5
566E
  8
1
 10
1846.2441517500131
 20
1145.622403429338
 30
0.0
 40
4.0
  0
LINE
  5
566F
  8
1
 10
1731.539329310172
 20
1243.9956548530961
 30
0.0
 11
1743.3393293101719
 21
1232.195654853097
 31
0.0
  0
LINE
  5
5671
  8
FUTO
 10
2741.8822125799629
 20
1239.9956548530949
 30
0.0
 11
2741.8822125799629
 21
1095.6640151302311
 31
0.0
  0
LINE
  5
5673
  8
1
 10
2567.8053035889352
 20
1118.9956548530949
 30
0.0
 11
2594.7490867788279
 21
1118.9956548530949
 31
0.0
  0
POINT
  5
5674
  8
1
 10
2532.8822125799629
 20
1104.0342853677121
 30
0.0
  0
LINE
  5
5675
  8
1
 10
2532.8822125799629
 20
1104.0342853677121
 30
0.0
 11
2567.8053035889352
 21
1115.349247417143
 31
0.0
  0
LINE
  5
5676
  8
1
 10
2712.582212579965
 20
1063.9956548530949
 30
0.0
 11
2755.8822125799638
 21
1110.795654853096
 31
0.0
  0
LINE
  5
5679
  8
1
 10
2725.3822125799629
 20
1107.2460264095489
 30
0.0
 11
2725.3822125799629
 21
1077.8302968854259
 31
0.0
  0
LINE
  5
567A
  8
1
 10
2594.7490867788279
 20
1107.2460264095489
 30
0.0
 11
2725.3822125799629
 21
1107.2460264095489
 31
0.0
  0
LINE
  5
567B
  8
FUTO
 10
2755.8822125799638
 20
1168.9956548530949
 30
0.0
 11
2754.2822125799639
 21
1168.9956548530949
 31
0.0
  0
ARC
  5
567C
  8
FUTO
 10
2759.8822125799629
 20
1166.9956548530949
 30
0.0
 40
3.0
 50
270.0
 51
311.81031489577953
  0
LINE
  5
567D
  8
FUTO
 10
2759.8822125799629
 20
1163.9956548530949
 30
0.0
 11
2758.8822125799629
 21
1163.995654853094
 31
0.0
  0
POINT
  5
567E
  8
FUTO
 10
2755.8822125799629
 20
1160.995654853094
 30
0.0
  0
ARC
  5
567F
  8
FUTO
 10
2758.8822125799629
 20
1160.995654853094
 30
0.0
 40
3.0
 50
89.999999999999986
 51
180.0
  0
DIMENSION
  5
5680
  8
SP
  2
*D6
 10
1728.3393293101731
 20
1324.9956548530961
 30
0.0
 11
1808.3393293101731
 21
1349.9956548530961
 31
0.0
 70
     0
 13
1888.339329310174
 23
1269.8082707222729
 33
0.0
 14
1728.3393293101731
 24
1264.9956548530961
 34
0.0
 50
179.99999999999989
  0
LINE
  5
5681
  8
1
 10
1872.3393293101731
 20
1254.9956548530961
 30
0.0
 11
1743.3393293101731
 21
1254.9956548530961
 31
0.0
  0
LINE
  5
5682
  8
1
 10
1729.9393293101721
 20
1264.9956548530961
 30
0.0
 11
1728.3393293101731
 21
1264.9956548530961
 31
0.0
  0
ARC
  5
5684
  8
FUTO
 10
2898.8822125799629
 20
1239.9956548530949
 30
0.0
 40
25.0
 50
0.0000000000010305
 51
90.000000000000483
  0
LINE
  5
5686
  8
FUTO
 10
2923.8822125799629
 20
1239.9956548530949
 30
0.0
 11
2923.8822125799629
 21
1047.9956548530949
 31
0.0
  0
LINE
  5
568A
  8
FUTO
 10
2902.8822125799629
 20
1143.9956548530961
 30
0.0
 11
2909.882212579962
 21
1143.9956548530961
 31
0.0
  0
POINT
  5
568B
  8
1
 10
2909.882212579962
 20
1160.995654853094
 30
0.0
  0
ARC
  5
568C
  8
1
 10
2906.882212579962
 20
1160.995654853094
 30
0.0
 40
3.0
 50
0.0
 51
89.999999999999986
  0
LINE
  5
568D
  8
1
 10
2905.8822125799629
 20
1163.9956548530949
 30
0.0
 11
2906.882212579962
 21
1163.995654853094
 31
0.0
  0
ARC
  5
568E
  8
1
 10
2905.8822125799629
 20
1166.9956548530949
 30
0.0
 40
3.0
 50
228.18968510422039
 51
270.0
  0
TEXT
  5
5843
  8
4
 10
2735.777121602714
 20
2383.428842303204
 30
0.0
 40
53.999999999999993
  1
縮尺：1/10
  0
TEXT
  5
5844
  8
4
 10
1584.1893816376671
 20
2382.3194785170322
 30
0.0
 40
53.999999999999993
  1
左回転左横向
  0
LINE
  5
5895
  8
4
 10
1531.9192336154081
 20
2469.408755235494
 30
0.0
 11
3131.9192336154078
 21
2469.408755235494
 31
0.0
  0
LINE
  5
5896
  8
4
 10
1531.9192336154081
 20
2669.408755235494
 30
0.0
 11
3131.9192336154078
 21
2669.408755235494
 31
0.0
  0
LINE
  5
5897
  8
4
 10
1281.9192336154081
 20
2950.0000009706891
 30
0.0
 11
3381.9192336154078
 21
2950.0000009706891
 31
0.0
  0
LINE
  5
5898
  8
4
 10
1531.9192336154081
 20
2669.408755235494
 30
0.0
 11
1531.9192336154081
 21
2469.408755235494
 31
0.0
  0
TEXT
  5
5899
  8
4
 10
1784.719233615408
 20
2533.408755235494
 30
0.0
 40
72.0
  1
遠心式片吸込片持多翼ファン
 72
     4
 11
2331.9192336154078
 21
2569.408755235494
 31
0.0
  0
LINE
  5
589A
  8
4
 10
2722.5366559752729
 20
2786.6522625204411
 30
0.0
 11
3131.9192336154078
 21
2786.6522625204411
 31
0.0
  0
LINE
  5
589B
  8
4
 10
3131.9192336154078
 20
2681.2635840960902
 30
0.0
 11
2722.5366559752729
 21
2681.2635840960902
 31
0.0
  0
TEXT
  5
589C
  8
4
 10
2750.8887928646982
 20
2706.061082465998
 30
0.0
 40
56.000000000000007
  1
No.
  0
LINE
  5
589D
  8
4
 10
2722.5366559752729
 20
2681.2635840960902
 30
0.0
 11
2722.5366559752729
 21
2786.6522625204411
 31
0.0
  0
LINE
  5
589E
  8
4
 10
3131.9192336154078
 20
2669.408755235494
 30
0.0
 11
3131.9192336154078
 21
2469.408755235494
 31
0.0
  0
LINE
  5
589F
  8
4
 10
3131.9192336154078
 20
2786.6522625204411
 30
0.0
 11
3131.9192336154078
 21
2681.2635840960902
 31
0.0
  0
LINE
  5
58A0
  8
4
 10
3381.9192336154078
 20
2950.0000009706891
 30
0.0
 11
3381.9192336154078
 21
2950.0000009706891
 31
0.0
  0
LINE
  5
5E91
  8
FUTO
 10
2892.8822125799629
 20
1254.9956548530961
 30
0.0
 11
2772.8822125799629
 21
1254.9956548530961
 31
0.0
  0
ARC
  5
5E92
  8
FUTO
 10
2892.8822125799629
 20
1244.9956548530961
 30
0.0
 40
10.0
 50
0.0000000000013028
 51
89.999999999997385
  0
ARC
  5
5E93
  8
FUTO
 10
2772.8822125799629
 20
1244.9956548530961
 30
0.0
 40
10.0
 50
90.000000000002615
 51
179.99999999999861
  0
LINE
  5
5E94
  8
FUTO
 10
2892.8822125799629
 20
1255.9956548530961
 30
0.0
 11
2772.8822125799629
 21
1255.9956548530961
 31
0.0
  0
ARC
  5
5E95
  8
FUTO
 10
2772.8822125799629
 20
1244.9956548530961
 30
0.0
 40
11.0
 50
90.000000000002615
 51
179.99999999999861
  0
LINE
  5
5E96
  8
1
  6
CONTINUOUS
 10
2761.8822125799629
 20
1244.9956548530961
 30
0.0
 11
2761.8822125799629
 21
913.99565485309586
 31
0.0
  0
ARC
  5
5E97
  8
FUTO
 10
2898.8822125799629
 20
1047.9956548530949
 30
0.0
 40
25.0
 50
296.10388113733632
 51
0.0
  0
LINE
  5
5E98
  8
1
  6
CONTINUOUS
 10
2903.8822125799629
 20
913.99565485309586
 30
0.0
 11
2903.8822125799629
 21
1244.9956548530961
 31
0.0
  0
ARC
  5
5E99
  8
FUTO
 10
2892.8822125799629
 20
1244.9956548530961
 30
0.0
 40
11.0
 50
0.0000000000013028
 51
89.999999999997385
  0
LINE
  5
6188
  8
2
 10
2038.3393293101749
 20
815.9768237714045
 30
0.0
 11
2038.3393293101731
 21
771.30690476956806
 31
0.0
  0
LINE
  5
6189
  8
2
 10
1738.3393293101749
 20
815.9768237714045
 30
0.0
 11
1738.3393293101749
 21
768.20417841581718
 31
0.0
  0
DIMENSION
  5
655B
  8
SP
  2
*D12
 10
1592.6836330749211
 20
751.99565485309643
 30
0.0
 11
1567.6836330749211
 21
665.93612663766487
 31
0.0
 70
     0
 13
1663.3393293101719
 23
781.99565485309631
 33
0.0
 14
1663.3393293101719
 24
751.99565485309643
 34
0.0
 50
90.0
1001
ACAD
1000
DSTYLE
1002
{
1070
     6
1000
DOT
1002
}
  0
DIMENSION
  5
655C
  8
SP
  2
*D13
 10
1592.6836330749211
 20
781.99565485309631
 30
0.0
 11
1560.520539167097
 21
783.05420095454735
 31
0.0
 70
   128
 13
1723.3393293101719
 23
803.99565485309586
 33
0.0
 14
1663.3393293101719
 24
781.99565485309631
 34
0.0
 50
90.0
1001
ACAD
1000
DSTYLE
1002
{
1070
   287
1070
     5
1070
   279
1070
     2
1070
     3
1000
（<>）
1070
     6
1000
NONE
1070
     7
1000
NONE
1002
}
  0
LINE
  5
69F0
  8
FUTO
 10
1663.3393293101719
 20
778.9956548530962
 30
0.0
 11
2113.3393293101722
 21
778.9956548530962
 31
0.0
  0
LINE
  5
69F1
  8
FUTO
 10
1663.3393293101719
 20
751.99565485309643
 30
0.0
 11
2113.3393293101722
 21
751.9956548530962
 31
0.0
  0
LINE
  5
69F2
  8
FUTO
 10
1663.3393293101719
 20
781.99565485309631
 30
0.0
 11
2113.3393293101722
 21
781.99565485309631
 31
0.0
  0
LINE
  5
69F3
  8
FUTO
 10
1663.3393293101719
 20
781.99565485309631
 30
0.0
 11
1663.3393293101719
 21
751.99565485309643
 31
0.0
  0
LINE
  5
69F4
  8
FUTO
 10
2113.3393293101722
 20
781.99565485309631
 30
0.0
 11
2113.3393293101722
 21
751.9956548530962
 31
0.0
  0
LINE
  5
6A69
  8
SL
 10
2973.8822125799629
 20
766.18854598598023
 30
0.0
 11
2973.8822125799629
 21
1098.3735936713631
 31
0.0
  0
LINE
  5
6A6A
  8
SL
 10
2499.8822125799629
 20
766.18854598598023
 30
0.0
 11
2499.8822125799629
 21
1098.3735936713631
 31
0.0
  0
LINE
  5
6A8A
  8
FUTO
 10
2516.8822125799629
 20
781.99565485309563
 30
0.0
 11
2956.8822125799629
 21
781.99565485309563
 31
0.0
  0
LINE
  5
6A8B
  8
FUTO
 10
2516.8822125799629
 20
751.99565485309563
 30
0.0
 11
2956.8822125799629
 21
751.99565485309563
 31
0.0
  0
LINE
  5
6A8C
  8
FUTO
 10
2513.8822125799629
 20
774.99565485309563
 30
0.0
 11
2513.8822125799629
 21
753.99565485309563
 31
0.0
  0
LINE
  5
6A8D
  8
FUTO
 10
2516.8822125799629
 20
781.99565485309563
 30
0.0
 11
2516.8822125799629
 21
751.99565485309563
 31
0.0
  0
ARC
  5
6A8E
  8
FUTO
 10
2515.8822125799629
 20
753.99565485309563
 30
0.0
 40
2.0
 50
180.0
 51
270.0
  0
LINE
  5
6A8F
  8
FUTO
 10
2516.8822125799629
 20
751.99565485309563
 30
0.0
 11
2515.8822125799629
 21
751.99565485309563
 31
0.0
  0
ARC
  5
6A90
  8
FUTO
 10
2509.8822125799629
 20
774.99565485309563
 30
0.0
 40
4.0
 50
0.0
 51
90.0
  0
ARC
  5
6A91
  8
FUTO
 10
2488.8822125799629
 20
780.99565485309563
 30
0.0
 40
2.0
 50
180.0
 51
270.0
  0
LINE
  5
6A92
  8
FUTO
 10
2509.8822125799629
 20
778.99565485309563
 30
0.0
 11
2488.8822125799629
 21
778.99565485309563
 31
0.0
  0
LINE
  5
6A93
  8
FUTO
 10
2486.8822125799629
 20
781.99565485309563
 30
0.0
 11
2486.8822125799629
 21
780.99565485309563
 31
0.0
  0
LINE
  5
6A94
  8
FUTO
 10
2516.8822125799629
 20
781.99565485309563
 30
0.0
 11
2486.8822125799629
 21
781.99565485309563
 31
0.0
  0
LINE
  5
6A95
  8
FUTO
 10
2963.8822125799629
 20
778.99565485309563
 30
0.0
 11
2984.8822125799629
 21
778.99565485309563
 31
0.0
  0
LINE
  5
6A96
  8
FUTO
 10
2956.8822125799629
 20
781.99565485309563
 30
0.0
 11
2986.8822125799629
 21
781.99565485309563
 31
0.0
  0
LINE
  5
6A97
  8
FUTO
 10
2959.882212579962
 20
774.99565485309563
 30
0.0
 11
2959.882212579962
 21
753.99565485309563
 31
0.0
  0
ARC
  5
6A98
  8
FUTO
 10
2957.8822125799629
 20
753.99565485309563
 30
0.0
 40
2.0
 50
270.0
 51
0.000000000000007
  0
LINE
  5
6A99
  8
FUTO
 10
2956.8822125799629
 20
751.99565485309563
 30
0.0
 11
2957.8822125799629
 21
751.99565485309563
 31
0.0
  0
ARC
  5
6A9A
  8
FUTO
 10
2963.8822125799629
 20
774.99565485309563
 30
0.0
 40
4.0
 50
90.0
 51
180.0
  0
LINE
  5
6A9B
  8
FUTO
 10
2956.8822125799629
 20
781.99565485309552
 30
0.0
 11
2956.8822125799629
 21
751.9956548530954
 31
0.0
  0
ARC
  5
6A9C
  8
FUTO
 10
2984.8822125799629
 20
780.99565485309563
 30
0.0
 40
2.0
 50
270.0
 51
0.000000000000007
  0
LINE
  5
6A9D
  8
FUTO
 10
2986.8822125799629
 20
781.99565485309563
 30
0.0
 11
2986.8822125799629
 21
780.99565485309563
 31
0.0
  0
DIMENSION
  5
6B31
  8
SP
  2
*D17
 10
1663.3393293101719
 20
681.99565485309563
 30
0.0
 11
1775.8393293101731
 21
706.99565485309563
 31
0.0
 70
     0
 13
1888.3393293101731
 23
731.4606347629051
 33
0.0
 14
1663.3393293101719
 24
751.99565485309574
 34
0.0
  0
DIMENSION
  5
6B32
  8
SP
  2
*D16
 10
2113.3393293101722
 20
611.99565485309552
 30
0.0
 11
1888.3393293101719
 21
636.99565485309552
 31
0.0
 70
     0
 13
1663.339329310171
 23
751.99565485309574
 33
0.0
 14
2113.3393293101722
 24
751.99565485309552
 34
0.0
  0
DIMENSION
  5
6B33
  8
SP
  2
*D15
 10
2113.3393293101722
 20
681.99565485309563
 30
0.0
 11
2000.8393293101719
 21
706.99565485309563
 31
0.0
 70
     0
 13
1888.3393293101731
 23
731.4606347629051
 33
0.0
 14
2113.3393293101722
 24
751.99565485309552
 34
0.0
  0
DIMENSION
  5
6B97
  8
SP
  2
*D20
 10
2986.8822125799629
 20
681.99565485309529
 30
0.0
 11
2909.8822125799629
 21
706.99565485309529
 31
0.0
 70
     0
 13
2832.8822125799638
 23
853.82143378090757
 33
0.0
 14
2986.8822125799629
 24
781.9956548530954
 34
0.0
  0
DIMENSION
  5
6B98
  8
SP
  2
*D19
 10
2486.8822125799629
 20
681.99565485309529
 30
0.0
 11
2659.8822125799629
 21
706.99565485309529
 31
0.0
 70
     0
 13
2832.8822125799629
 23
853.82143378090757
 33
0.0
 14
2486.8822125799629
 24
781.9956548530954
 34
0.0
  0
DIMENSION
  5
6B99
  8
SP
  2
*D18
 10
2986.8822125799629
 20
611.99565485309529
 30
0.0
 11
2736.8822125799629
 21
636.99565485309529
 31
0.0
 70
     0
 13
2486.8822125799629
 23
781.9956548530954
 33
0.0
 14
2986.8822125799629
 24
781.9956548530954
 34
0.0
  0
TEXT
  5
6D8A
  8
4
 10
2070.405998636902
 20
2383.4288423032031
 30
0.0
 40
53.999999999999993
  1
天井吊防振ベッド型
  0
LINE
  5
6E33
  8
CT
 10
1700.7988088686409
 20
2046.897013735371
 30
0.0
 11
1675.879849751703
 21
2046.897013735371
 31
0.0
  0
CIRCLE
  5
6E34
  8
FUTO
 10
1688.3393293101719
 20
2046.897013735371
 30
0.0
 40
6.5
  0
LINE
  5
6E35
  8
FUTO
 10
2113.3393293101731
 20
2059.8970137353699
 30
0.0
 11
1663.3393293101719
 21
2059.8970137353699
 31
0.0
  0
LINE
  5
6E36
  8
FUTO
 10
2113.3393293101731
 20
2029.897013735371
 30
0.0
 11
1663.3393293101719
 21
2029.897013735371
 31
0.0
  0
DIMENSION
  5
6E37
  8
SP
  2
*D21
 10
1663.3393293101719
 20
2129.8970137353708
 30
0.0
 11
1888.3393293101719
 21
2154.8970137353708
 31
0.0
 70
     0
 13
2113.3393293101731
 23
2059.8970137353699
 33
0.0
 14
1663.3393293101719
 24
2059.8970137353699
 34
0.0
 50
180.0
  0
CIRCLE
  5
6E38
  8
FUTO
 10
1688.3393293101719
 20
1572.897013735371
 30
0.0
 40
6.5
  0
LINE
  5
6E39
  8
CT
 10
1700.7988088686409
 20
1572.897013735371
 30
0.0
 11
1675.879849751703
 21
1572.897013735371
 31
0.0
  0
LINE
  5
6E3A
  8
FUTO
 10
2113.3393293101731
 20
1559.8970137353699
 30
0.0
 11
1663.3393293101719
 21
1559.8970137353699
 31
0.0
  0
LINE
  5
6E3B
  8
FUTO
 10
2113.3393293101731
 20
1589.8970137353699
 30
0.0
 11
1663.3393293101731
 21
1589.897013735371
 31
0.0
  0
LINE
  5
6E3C
  8
FUTO
 10
1663.3393293101731
 20
1589.897013735371
 30
0.0
 11
1663.3393293101719
 21
1559.8970137353699
 31
0.0
  0
LINE
  5
6E3D
  8
CT
 10
1688.3393293101719
 20
1560.4375341769021
 30
0.0
 11
1688.3393293101719
 21
1585.3564932938391
 31
0.0
  0
LINE
  5
6E3E
  8
FUTO
 10
1663.3393293101719
 20
2059.8970137353699
 30
0.0
 11
1663.339329310171
 21
2029.897013735371
 31
0.0
  0
LINE
  5
6E3F
  8
CT
 10
1688.3393293101719
 20
2059.3564932938398
 30
0.0
 11
1688.3393293101719
 21
2034.437534176901
 31
0.0
  0
DIMENSION
  5
6E40
  8
SP
  2
*D22
 10
2292.7259517757288
 20
1559.8970137353699
 30
0.0
 11
2267.7259517757279
 21
1809.897013735371
 31
0.0
 70
     0
 13
2113.3393293101731
 23
2059.8970137353699
 33
0.0
 14
2113.3393293101731
 24
1559.8970137353699
 34
0.0
 50
90.0
  0
DIMENSION
  5
6E41
  8
SP
  2
*D23
 10
2204.050745642834
 20
1559.8970137353699
 30
0.0
 11
2179.0507456428331
 21
1732.897013735371
 31
0.0
 70
     0
 13
2078.1967544270901
 23
1905.8970137353699
 33
0.0
 14
2113.3393293101731
 24
1559.8970137353699
 34
0.0
 50
90.0
  0
LINE
  5
6E42
  8
2
 10
1888.3393293101731
 20
2001.49674598566
 30
0.0
 11
1888.3393293101731
 21
1581.2226149740391
 31
0.0
  0
LINE
  5
6E43
  8
1
 10
1729.9393293101709
 20
1814.8970137353699
 30
0.0
 11
1729.9393293101709
 21
1996.897013735371
 31
0.0
  0
LINE
  5
6E44
  8
1
 10
1728.3393293101719
 20
1814.8970137353699
 30
0.0
 11
1728.3393293101719
 21
1996.897013735371
 31
0.0
  0
LINE
  5
6E45
  8
1
  6
CONTINUOUS
 10
1746.303475599186
 20
1961.8970137353699
 30
0.0
 11
1746.303475599186
 21
1849.8970137353699
 31
0.0
  0
LINE
  5
6E46
  8
FUTO
 10
1723.3393293101719
 20
2029.897013735371
 30
0.0
 11
1723.3393293101731
 21
1589.897013735371
 31
0.0
  0
LINE
  5
6E47
  8
FUTO
 10
2057.3393293101722
 20
1965.897013735371
 30
0.0
 11
2057.3393293101731
 21
1845.8970137353699
 31
0.0
  0
LINE
  5
6E48
  8
FUTO
 10
2056.3393293101731
 20
1965.897013735371
 30
0.0
 11
2056.3393293101731
 21
1845.8970137353699
 31
0.0
  0
LINE
  5
6E49
  8
1
  6
CONTINUOUS
 10
2023.3393293101731
 20
1787.8970137353699
 30
0.0
 11
1951.589700866625
 21
1787.897013735371
 31
0.0
  0
LINE
  5
6E4A
  8
FUTO
 10
1753.3393293101731
 20
1828.897013735371
 30
0.0
 11
2023.3393293101731
 21
1828.897013735371
 31
0.0
  0
LINE
  5
6E4B
  8
1
  6
CONTINUOUS
 10
1728.3393293101719
 20
1834.897013735371
 30
0.0
 11
2046.3393293101719
 21
1834.8970137353699
 31
0.0
  0
LINE
  5
6E4C
  8
1
  6
CONTINUOUS
 10
1728.3393293101719
 20
1835.8970137353699
 30
0.0
 11
2046.3393293101731
 21
1835.8970137353699
 31
0.0
  0
LINE
  5
6E4D
  8
1
 10
1963.3393293101731
 20
1667.7638879342351
 30
0.0
 11
1818.9511603488661
 21
1667.7638879342351
 31
0.0
  0
LINE
  5
6E4E
  8
2
 10
1972.0466287087329
 20
1726.897013735371
 30
0.0
 11
1804.6320299116121
 21
1726.897013735371
 31
0.0
  0
LINE
  5
6E4F
  8
1
 10
1948.37795982479
 20
1605.8970137353699
 30
0.0
 11
1959.6929218742191
 21
1640.820104744342
 31
0.0
  0
LINE
  5
6E50
  8
1
 10
1963.3393293101731
 20
1640.820104744342
 30
0.0
 11
1818.9511603488661
 21
1640.820104744342
 31
0.0
  0
LINE
  5
6E51
  8
1
 10
1818.9511603488661
 20
1667.7638879342351
 30
0.0
 11
1818.9511603488661
 21
1640.820104744342
 31
0.0
  0
LINE
  5
6E52
  8
FUTO
 10
1753.339329310171
 20
1834.8970137353699
 30
0.0
 11
1753.3393293101731
 21
1589.897013735371
 31
0.0
  0
LINE
  5
6E53
  8
1
 10
1828.3006987955559
 20
1605.8970137353699
 30
0.0
 11
1821.8350061958811
 21
1640.820104744342
 31
0.0
  0
LINE
  5
6E54
  8
FUTO
 10
1753.3393293101731
 20
1652.9970137353721
 30
0.0
 11
1818.9511603488661
 21
1652.9970137353721
 31
0.0
  0
LINE
  5
6E55
  8
1
 10
1948.37795982479
 20
1605.8970137353699
 30
0.0
 11
1828.3006987955559
 21
1605.8970137353699
 31
0.0
  0
POINT
  5
6E56
  8
1
 10
1948.37795982479
 20
1605.8970137353699
 30
0.0
  0
LINE
  5
6E57
  8
1
  6
CONTINUOUS
 10
1825.0889577537189
 20
1787.897013735371
 30
0.0
 11
1755.3393293101731
 21
1787.8970137353699
 31
0.0
  0
LINE
  5
6E58
  8
FUTO
 10
1753.3393293101731
 20
1658.8970137353699
 30
0.0
 11
1723.3393293101731
 21
1658.8970137353699
 31
0.0
  0
LINE
  5
6E59
  8
2
 10
1729.9393293101709
 20
1814.897013735371
 30
0.0
 11
1728.3393293101719
 21
1814.897013735371
 31
0.0
  0
LINE
  5
6E5A
  8
FUTO
 10
1753.3393293101731
 20
1828.897013735371
 30
0.0
 11
1723.3393293101731
 21
1828.897013735371
 31
0.0
  0
LINE
  5
6E5B
  8
1
  6
CONTINUOUS
 10
1731.303475599186
 20
1834.897013735371
 30
0.0
 11
1746.303475599186
 21
1849.8970137353699
 31
0.0
  0
ARC
  5
6E5C
  8
1
 10
1771.3393293101719
 20
1831.897013735371
 30
0.0
 40
3.0
 50
180.0
 51
270.0
  0
LINE
  5
6E5D
  8
1
 10
1768.3393293101731
 20
1832.8970137353699
 30
0.0
 11
1768.3393293101731
 21
1831.897013735371
 31
0.0
  0
ARC
  5
6E5E
  8
1
 10
1765.3393293101719
 20
1832.8970137353699
 30
0.0
 40
3.0
 50
0.0
 51
41.810314895779882
  0
LINE
  5
6E5F
  8
1
 10
1951.589700866625
 20
1667.7638879342351
 30
0.0
 11
1951.589700866625
 21
1798.3970137353699
 31
0.0
  0
LINE
  5
6E60
  8
1
 10
1825.088957753718
 20
1667.7638879342351
 30
0.0
 11
1825.088957753718
 21
1798.3970137353699
 31
0.0
  0
LINE
  5
6E61
  8
1
 10
1899.7539493999161
 20
1803.3970137353699
 30
0.0
 11
1876.924709220428
 21
1803.3970137353699
 31
0.0
  0
LINE
  5
6E62
  8
1
 10
1951.589700866625
 20
1798.3970137353699
 30
0.0
 11
1825.088957753718
 21
1798.397013735371
 31
0.0
  0
LINE
  5
6E63
  8
FUTO
 10
1908.3393293101731
 20
1816.8970137353699
 30
0.0
 11
1868.3393293101731
 21
1816.897013735371
 31
0.0
  0
LINE
  5
6E64
  8
FUTO
 10
1868.3393293101719
 20
1828.897013735371
 30
0.0
 11
1868.3393293101719
 21
1816.8970137353699
 31
0.0
  0
LINE
  5
6E65
  8
1
 10
1876.924709220428
 20
1798.3970137353699
 30
0.0
 11
1876.924709220428
 21
1803.3970137353699
 31
0.0
  0
LINE
  5
6E66
  8
1
 10
1879.3393293101719
 20
1803.3970137353699
 30
0.0
 11
1879.3393293101719
 21
1816.8970137353699
 31
0.0
  0
LINE
  5
6E67
  8
FUTO
 10
1908.3393293101719
 20
1828.897013735371
 30
0.0
 11
1908.3393293101719
 21
1816.8970137353699
 31
0.0
  0
LINE
  5
6E68
  8
1
 10
1899.7539493999161
 20
1798.3970137353699
 30
0.0
 11
1899.7539493999161
 21
1803.3970137353699
 31
0.0
  0
LINE
  5
6E69
  8
1
 10
1897.3393293101731
 20
1803.3970137353699
 30
0.0
 11
1897.3393293101731
 21
1816.8970137353699
 31
0.0
  0
LINE
  5
6E6A
  8
1
 10
1963.3393293101731
 20
1640.820104744342
 30
0.0
 11
1963.3393293101731
 21
1667.7638879342351
 31
0.0
  0
LINE
  5
6E6B
  8
FUTO
 10
2023.3393293101731
 20
1834.8970137353699
 30
0.0
 11
2023.3393293101719
 21
1589.8970137353699
 31
0.0
  0
LINE
  5
6E6C
  8
FUTO
 10
2053.3393293101731
 20
1837.411732361132
 30
0.0
 11
2053.3393293101731
 21
1589.8970137353699
 31
0.0
  0
LINE
  5
6E6D
  8
CT
 10
2100.7988088686411
 20
1572.897013735371
 30
0.0
 11
2075.8798497517032
 21
1572.897013735371
 31
0.0
  0
CIRCLE
  5
6E6E
  8
FUTO
 10
2088.3393293101722
 20
1572.897013735371
 30
0.0
 40
6.5
  0
LINE
  5
6E6F
  8
FUTO
 10
2023.3393293101731
 20
1652.9970137353721
 30
0.0
 11
1963.3393293101731
 21
1652.9970137353721
 31
0.0
  0
LINE
  5
6E70
  8
FUTO
 10
2113.3393293101731
 20
1589.8970137353699
 30
0.0
 11
2113.3393293101731
 21
1559.8970137353699
 31
0.0
  0
LINE
  5
6E71
  8
CT
 10
2088.3393293101722
 20
1560.4375341769021
 30
0.0
 11
2088.3393293101722
 21
1585.3564932938391
 31
0.0
  0
LINE
  5
6E72
  8
FUTO
 10
2023.3393293101731
 20
1658.8970137353699
 30
0.0
 11
2053.3393293101731
 21
1658.8970137353699
 31
0.0
  0
ARC
  5
6E73
  8
1
 10
2005.3393293101731
 20
1831.897013735371
 30
0.0
 40
3.0
 50
270.0
 51
0.0
  0
ARC
  5
6E74
  8
1
 10
2011.3393293101719
 20
1832.8970137353699
 30
0.0
 40
3.0
 50
138.1896851042201
 51
180.0
  0
LINE
  5
6E75
  8
1
 10
2008.3393293101731
 20
1832.8970137353699
 30
0.0
 11
2008.3393293101731
 21
1831.897013735371
 31
0.0
  0
ARC
  5
6E76
  8
FUTO
 10
2046.3393293101719
 20
1845.8970137353699
 30
0.0
 40
11.0
 50
270.0
 51
0.0
  0
ARC
  5
6E77
  8
FUTO
 10
2046.3393293101731
 20
1845.8970137353699
 30
0.0
 40
10.0
 50
270.0
 51
0.0
  0
LINE
  5
6E78
  8
FUTO
 10
2023.3393293101731
 20
1828.897013735371
 30
0.0
 11
2053.3393293101731
 21
1828.897013735371
 31
0.0
  0
LINE
  5
6E79
  8
FUTO
 10
1771.3393293101719
 20
1982.8970137353699
 30
0.0
 11
2005.3393293101731
 21
1982.8970137353699
 31
0.0
  0
LINE
  5
6E7A
  8
2
 10
2078.1967544270901
 20
1905.8970137353699
 30
0.0
 11
1701.038688432631
 21
1905.8970137353699
 31
0.0
  0
LINE
  5
6E7B
  8
1
  6
CONTINUOUS
 10
1729.9393293101709
 20
1976.897013735371
 30
0.0
 11
2046.3393293101719
 21
1976.897013735371
 31
0.0
  0
LINE
  5
6E7C
  8
1
  6
CONTINUOUS
 10
1729.9393293101709
 20
1975.897013735371
 30
0.0
 11
2046.3393293101731
 21
1975.897013735371
 31
0.0
  0
LINE
  5
6E7D
  8
FUTO
 10
1753.3393293101719
 20
2029.897013735371
 30
0.0
 11
1753.339329310171
 21
1976.897013735371
 31
0.0
  0
LINE
  5
6E7E
  8
2
 10
1729.9393293101709
 20
1996.897013735371
 30
0.0
 11
1728.3393293101719
 21
1996.897013735371
 31
0.0
  0
LINE
  5
6E7F
  8
1
  6
CONTINUOUS
 10
1731.303475599186
 20
1976.897013735371
 30
0.0
 11
1746.303475599186
 21
1961.8970137353699
 31
0.0
  0
ARC
  5
6E80
  8
1
 10
1765.3393293101719
 20
1978.897013735371
 30
0.0
 40
3.0
 50
318.18968510422008
 51
0.0
  0
LINE
  5
6E81
  8
1
 10
1768.3393293101731
 20
1978.8970137353699
 30
0.0
 11
1768.3393293101731
 21
1979.897013735369
 31
0.0
  0
ARC
  5
6E82
  8
1
 10
1771.3393293101719
 20
1979.8970137353699
 30
0.0
 40
3.0
 50
90.0
 51
180.0
  0
DIMENSION
  5
6E83
  8
SP
  2
*D24
 10
2204.050745642834
 20
2059.8970137353699
 30
0.0
 11
2179.0507456428331
 21
1982.897013735371
 31
0.0
 70
     0
 13
2078.1967544270901
 23
1905.8970137353699
 33
0.0
 14
2113.3393293101731
 24
2059.8970137353699
 34
0.0
 50
90.0
  0
CIRCLE
  5
6E84
  8
FUTO
 10
2088.3393293101722
 20
2046.897013735371
 30
0.0
 40
6.5
  0
LINE
  5
6E85
  8
CT
 10
2100.7988088686411
 20
2046.897013735371
 30
0.0
 11
2075.8798497517032
 21
2046.897013735371
 31
0.0
  0
LINE
  5
6E86
  8
FUTO
 10
2023.339329310174
 20
2029.897013735371
 30
0.0
 11
2023.339329310174
 21
1976.897013735371
 31
0.0
  0
LINE
  5
6E87
  8
FUTO
 10
2053.3393293101731
 20
2029.897013735371
 30
0.0
 11
2053.3393293101731
 21
1974.382295109609
 31
0.0
  0
LINE
  5
6E88
  8
1
 10
2008.3393293101731
 20
1978.8970137353699
 30
0.0
 11
2008.3393293101731
 21
1979.897013735369
 31
0.0
  0
ARC
  5
6E89
  8
1
 10
2011.3393293101719
 20
1978.897013735371
 30
0.0
 40
3.0
 50
180.0
 51
221.8103148957799
  0
ARC
  5
6E8A
  8
1
 10
2005.3393293101731
 20
1979.8970137353699
 30
0.0
 40
3.0
 50
0.0
 51
90.0
  0
ARC
  5
6E8B
  8
FUTO
 10
2046.3393293101719
 20
1965.897013735371
 30
0.0
 40
11.0
 50
0.0
 51
90.0
  0
ARC
  5
6E8C
  8
FUTO
 10
2046.3393293101731
 20
1965.897013735371
 30
0.0
 40
10.0
 50
0.0
 51
90.0
  0
LINE
  5
6E8D
  8
FUTO
 10
2113.3393293101722
 20
2059.8970137353699
 30
0.0
 11
2113.3393293101722
 21
2029.897013735371
 31
0.0
  0
LINE
  5
6E8E
  8
CT
 10
2088.3393293101722
 20
2059.3564932938398
 30
0.0
 11
2088.3393293101722
 21
2034.437534176901
 31
0.0
  0
ENDSEC
  0
EOF
