  0
SECTION
  2
HEADER
  9
$ACADVER
  1
AC1009
  9
$INSBASE
 10
0.0
 20
0.0
 30
0.0
  9
$EXTMIN
 10
6208.32856416303
 20
0.0000009706882338
 30
0.0
  9
$EXTMAX
 10
8308.32856416303
 20
2950.0000009706878
 30
0.0
  9
$LIMMIN
 10
0.0
 20
0.0
  9
$LIMMAX
 10
297.0
 20
210.0
  9
$ORTHOMODE
 70
     0
  9
$REGENMODE
 70
     1
  9
$FILLMODE
 70
     1
  9
$QTEXTMODE
 70
     0
  9
$MIRRTEXT
 70
     0
  9
$DRAGMODE
 70
     2
  9
$LTSCALE
 40
50.0
  9
$OSMODE
 70
   545
  9
$ATTMODE
 70
     1
  9
$TEXTSIZE
 40
3.5
  9
$TRACEWID
 40
0.05
  9
$TEXTSTYLE
  7
STANDARD
  9
$CLAYER
  8
SP
  9
$CELTYPE
  6
BYLAYER
  9
$CECOLOR
 62
   256
  9
$DIMSCALE
 40
10.0
  9
$DIMASZ
 40
2.5
  9
$DIMEXO
 40
1.0
  9
$DIMDLI
 40
7.0
  9
$DIMRND
 40
0.0
  9
$DIMDLE
 40
0.0
  9
$DIMEXE
 40
1.0
  9
$DIMTP
 40
0.0
  9
$DIMTM
 40
0.0
  9
$DIMTXT
 40
3.0
  9
$DIMCEN
 40
0.0
  9
$DIMTSZ
 40
0.0
  9
$DIMTOL
 70
     0
  9
$DIMLIM
 70
     0
  9
$DIMTIH
 70
     0
  9
$DIMTOH
 70
     0
  9
$DIMSE1
 70
     0
  9
$DIMSE2
 70
     0
  9
$DIMTAD
 70
     1
  9
$DIMZIN
 70
     8
  9
$DIMBLK
  1

  9
$DIMASO
 70
     1
  9
$DIMSHO
 70
     1
  9
$DIMPOST
  1

  9
$DIMAPOST
  1

  9
$DIMALT
 70
     0
  9
$DIMALTD
 70
     2
  9
$DIMALTF
 40
0.03937
  9
$DIMLFAC
 40
1.0
  9
$DIMTOFL
 70
     1
  9
$DIMTVP
 40
0.0
  9
$DIMTIX
 70
     0
  9
$DIMSOXD
 70
     0
  9
$DIMSAH
 70
     1
  9
$DIMBLK1
  1
OPEN
  9
$DIMBLK2
  1
OPEN
  9
$DIMSTYLE
  2
GOD
  9
$DIMCLRD
 70
   256
  9
$DIMCLRE
 70
   256
  9
$DIMCLRT
 70
   256
  9
$DIMTFAC
 40
1.0
  9
$DIMGAP
 40
1.0
  9
$LUNITS
 70
     2
  9
$LUPREC
 70
     3
  9
$SKETCHINC
 40
0.1
  9
$FILLETRAD
 40
0.0
  9
$AUNITS
 70
     0
  9
$AUPREC
 70
     2
  9
$MENU
  1
acad
  9
$ELEVATION
 40
0.0
  9
$PELEVATION
 40
0.0
  9
$THICKNESS
 40
0.0
  9
$LIMCHECK
 70
     0
  9
$BLIPMODE
 70
     0
  9
$CHAMFERA
 40
0.0
  9
$CHAMFERB
 40
0.0
  9
$SKPOLY
 70
     0
  9
$TDCREATE
 40
2454939.5747812148
  9
$TDUPDATE
 40
2455012.4085130901
  9
$TDINDWG
 40
0.1485011227
  9
$TDUSRTIMER
 40
0.1485011227
  9
$USRTIMER
 70
     1
  9
$ANGBASE
 50
0.0
  9
$ANGDIR
 70
     0
  9
$PDMODE
 70
     0
  9
$PDSIZE
 40
1.0
  9
$PLINEWID
 40
0.0
  9
$COORDS
 70
     2
  9
$SPLFRAME
 70
     0
  9
$SPLINETYPE
 70
     6
  9
$SPLINESEGS
 70
     8
  9
$ATTDIA
 70
     0
  9
$ATTREQ
 70
     1
  9
$HANDLING
 70
 22529
  9
$HANDSEED
  5
8004
  9
$SURFTAB1
 70
     6
  9
$SURFTAB2
 70
     6
  9
$SURFTYPE
 70
     6
  9
$SURFU
 70
     6
  9
$SURFV
 70
     6
  9
$UCSNAME
  2

  9
$UCSORG
 10
0.0
 20
0.0
 30
0.0
  9
$UCSXDIR
 10
1.0
 20
0.0
 30
0.0
  9
$UCSYDIR
 10
0.0
 20
1.0
 30
0.0
  9
$PUCSNAME
  2

  9
$PUCSORG
 10
0.0
 20
0.0
 30
0.0
  9
$PUCSXDIR
 10
1.0
 20
0.0
 30
0.0
  9
$PUCSYDIR
 10
0.0
 20
1.0
 30
0.0
  9
$USERI1
 70
     0
  9
$USERI2
 70
     0
  9
$USERI3
 70
     0
  9
$USERI4
 70
     0
  9
$USERI5
 70
     0
  9
$USERR1
 40
0.0
  9
$USERR2
 40
0.0
  9
$USERR3
 40
0.0
  9
$USERR4
 40
0.0
  9
$USERR5
 40
0.0
  9
$WORLDVIEW
 70
     1
  9
$SHADEDGE
 70
     3
  9
$SHADEDIF
 70
    70
  9
$TILEMODE
 70
     1
  9
$MAXACTVP
 70
    16
  9
$PLIMCHECK
 70
     0
  9
$PEXTMIN
 10
1.0000000000000000E+020
 20
1.0000000000000000E+020
 30
1.0000000000000000E+020
  9
$PEXTMAX
 10
-1.0000000000000000E+020
 20
-1.0000000000000000E+020
 30
-1.0000000000000000E+020
  9
$PLIMMIN
 10
0.0
 20
0.0
  9
$PLIMMAX
 10
12.0
 20
9.0
  9
$UNITMODE
 70
     0
  9
$VISRETAIN
 70
     0
  9
$PLINEGEN
 70
     0
  9
$PSLTSCALE
 70
     0
  0
ENDSEC
  0
SECTION
  2
TABLES
  0
TABLE
  2
VPORT
 70
     2
  0
VPORT
  2
*ACTIVE
 70
     0
 10
0.0
 20
0.0
 11
1.0
 21
1.0
 12
7258.2509885955687
 22
1475.000007353849
 13
0.0
 23
0.0
 14
5.0
 24
5.0
 15
0.0
 25
0.0
 16
0.0
 26
0.0
 36
1.0
 17
0.0
 27
0.0
 37
0.0
 40
2974.263157169094
 41
1.6307901907356941
 42
50.0
 43
0.0
 44
0.0
 50
0.0
 51
0.0
 71
     0
 72
   100
 73
     1
 74
     0
 75
     0
 76
     0
 77
     0
 78
     0
  0
ENDTAB
  0
TABLE
  2
LTYPE
 70
     4
  0
LTYPE
  2
CONTINUOUS
 70
     0
  3
Solid line
 72
    65
 73
     0
 40
0.0
  0
LTYPE
  2
CENTER
 70
     0
  3
____ _ ____ _ ____ _ ____ _ ____ _ ____ _ ____ 
 72
    65
 73
     4
 40
2.0
 49
1.25
 49
-0.25
 49
0.25
 49
-0.25
  0
LTYPE
  2
HIDDEN
 70
     0
  3
__ __ __ __ __ __ __ __ __ __ __ __ __ __ __ __
 72
    65
 73
     2
 40
0.375
 49
0.25
 49
-0.125
  0
LTYPE
  2
PHANTOM
 70
     0
  3
______  __  __  ______  __  __  ______  __  __ 
 72
    65
 73
     6
 40
2.5
 49
1.25
 49
-0.25
 49
0.25
 49
-0.25
 49
0.25
 49
-0.25
  0
ENDTAB
  0
TABLE
  2
LAYER
 70
    13
  0
LAYER
  2
0
 70
     0
 62
     7
  6
CONTINUOUS
  0
LAYER
  2
CT
 70
     0
 62
     3
  6
CENTER
  0
LAYER
  2
FUTO
 70
     0
 62
     4
  6
CONTINUOUS
  0
LAYER
  2
HOSO
 70
     0
 62
     7
  6
CONTINUOUS
  0
LAYER
  2
KL
 70
     0
 62
     7
  6
HIDDEN
  0
LAYER
  2
MOJI
 70
     0
 62
     3
  6
CONTINUOUS
  0
LAYER
  2
SL
 70
     0
 62
     1
  6
PHANTOM
  0
LAYER
  2
SP
 70
     0
 62
     2
  6
CONTINUOUS
  0
LAYER
  2
DEFPOINTS
 70
     0
 62
     7
  6
CONTINUOUS
  0
LAYER
  2
1
 70
     0
 62
     4
  6
CONTINUOUS
  0
LAYER
  2
3
 70
     0
 62
     2
  6
CONTINUOUS
  0
LAYER
  2
2
 70
     0
 62
     3
  6
CENTER
  0
LAYER
  2
4
 70
     0
 62
     7
  6
CONTINUOUS
  0
ENDTAB
  0
TABLE
  2
STYLE
 70
     1
  0
STYLE
  2
STANDARD
 70
     0
 40
0.0
 41
1.0
 50
15.0
 71
     0
 42
3.5
  3
C:\Program Files\AutoCAD LT\simplex.shx
  4
C:\Program Files\AutoCAD LT\extfont.shx
  0
ENDTAB
  0
TABLE
  2
VIEW
 70
     0
  0
ENDTAB
  0
TABLE
  2
UCS
 70
     0
  0
ENDTAB
  0
TABLE
  2
APPID
 70
     1
  0
APPID
  2
ACAD
 70
     0
  0
ENDTAB
  0
TABLE
  2
DIMSTYLE
 70
     3
  0
DIMSTYLE
  2
STANDARD
 70
     0
  3

  4

  5

  6

  7

 40
1.0
 41
0.18
 42
0.0625
 43
0.38
 44
0.18
 45
0.0
 46
0.0
 47
0.0
 48
0.0
140
0.18
141
0.09
142
0.0
143
25.399999999999999
144
1.0
145
0.0
146
1.0
147
0.09
 71
     0
 72
     0
 73
     1
 74
     1
 75
     0
 76
     0
 77
     0
 78
     0
170
     0
171
     2
172
     0
173
     0
174
     0
175
     0
176
     0
177
     0
178
     0
  0
DIMSTYLE
  2
GOD
 70
     0
  3

  4

  5

  6
OPEN
  7
OPEN
 40
10.0
 41
2.5
 42
1.0
 43
7.0
 44
1.0
 45
0.0
 46
0.0
 47
0.0
 48
0.0
140
3.0
141
0.0
142
0.0
143
0.03937
144
1.0
145
0.0
146
1.0
147
1.0
 71
     0
 72
     0
 73
     0
 74
     0
 75
     0
 76
     0
 77
     1
 78
     8
170
     0
171
     2
172
     1
173
     1
174
     0
175
     0
176
   256
177
   256
178
   256
  0
DIMSTYLE
  2
DIA1
 70
     0
  3

  4

  5
ARROW
  6

  7

 40
1.0
 41
2.0
 42
1.0
 43
10.0
 44
1.0
 45
0.0
 46
0.0
 47
0.0
 48
0.0
140
2.5
141
0.0
142
0.0
143
25.399999999999999
144
1.0
145
0.0
146
1.0
147
0.09
 71
     0
 72
     0
 73
     0
 74
     0
 75
     0
 76
     0
 77
     1
 78
     8
170
     0
171
     2
172
     1
173
     0
174
     0
175
     0
176
     2
177
     2
178
     2
  0
ENDTAB
  0
ENDSEC
  0
SECTION
  2
BLOCKS
  0
BLOCK
  8
0
  2
$MODEL_SPACE
 70
     0
 10
0.0
 20
0.0
 30
0.0
  3
$MODEL_SPACE
  1

  0
ENDBLK
  5
1B
  8
0
  0
BLOCK
 67
     1
  8
0
  2
$PAPER_SPACE
 70
     0
 10
0.0
 20
0.0
 30
0.0
  3
$PAPER_SPACE
  1

  0
ENDBLK
  5
18
 67
     1
  8
0
  0
BLOCK
  8
0
  2
_OPEN
 70
     0
 10
0.0
 20
0.0
 30
0.0
  3
_OPEN
  1

  0
LINE
  5
1E81
  8
0
  6
BYBLOCK
 62
     0
 10
-1.0
 20
0.1666666666666666
 30
0.0
 11
0.0
 21
0.0
 31
0.0
  0
LINE
  5
1E82
  8
0
  6
BYBLOCK
 62
     0
 10
0.0
 20
0.0
 30
0.0
 11
-1.0
 21
-0.1666666666666666
 31
0.0
  0
LINE
  5
1E83
  8
0
  6
BYBLOCK
 62
     0
 10
0.0
 20
0.0
 30
0.0
 11
-1.0
 21
0.0
 31
0.0
  0
ENDBLK
  5
1E84
  8
0
  0
BLOCK
  8
0
  2
_DOT
 70
     0
 10
0.0
 20
0.0
 30
0.0
  3
_DOT
  1

  0
LINE
  5
1EC3
  8
0
  6
BYBLOCK
 62
     0
 10
0.0
 20
0.0
 30
0.0
 11
-1.0
 21
-0.0000000000000284
 31
0.0
  0
POLYLINE
  5
1EC4
  8
0
  6
BYBLOCK
 62
     0
 66
     1
 10
0.0
 20
0.0
 30
0.0
 70
     1
 40
0.1666666666666666
 41
0.1666666666666666
  0
VERTEX
  5
7FF2
  8
0
  6
BYBLOCK
 62
     0
 10
-0.0833333333333286
 20
-0.0000000000000284
 30
0.0
 42
1.0
  0
VERTEX
  5
7FF3
  8
0
  6
BYBLOCK
 62
     0
 10
0.0833333333333286
 20
-0.0000000000000284
 30
0.0
 42
1.0
  0
SEQEND
  5
7FF4
  8
0
  6
BYBLOCK
 62
     0
  0
ENDBLK
  5
1EB8
  8
0
  0
BLOCK
  8
0
  2
ARROW
 70
     0
 10
0.0
 20
0.0
 30
0.0
  3
ARROW
  1

  0
LINE
  5
1EEF
  8
0
 10
-0.9999999999999991
 20
0.1666666667000003
 30
0.0
 11
0.0
 21
0.0
 31
0.0
  0
LINE
  5
1EF0
  8
0
 10
-0.9999999999999991
 20
0.0
 30
0.0
 11
0.0
 21
0.0
 31
0.0
  0
LINE
  5
1EF1
  8
0
 10
-0.9999999999999991
 20
-0.1666666667000003
 30
0.0
 11
0.0
 21
0.0
 31
0.0
  0
ENDBLK
  5
1EF3
  8
0
  0
BLOCK
  8
0
  2
_NONE
 70
     0
 10
0.0
 20
0.0
 30
0.0
  3
_NONE
  1

  0
ENDBLK
  5
1F6F
  8
0
  0
BLOCK
  8
0
  2
L-30-3
 70
     0
 10
0.0
 20
0.0
 30
0.0
  3
L-30-3
  1

  0
LINE
  5
676F
  8
0
 10
115.2488417492448
 20
98.116970357453638
 30
0.0
 11
145.2488417492448
 21
98.116970357453638
 31
0.0
  0
LINE
  5
6770
  8
0
 10
115.2488417492448
 20
98.116970357453638
 30
0.0
 11
115.2488417492448
 21
128.1169703574536
 31
0.0
  0
LINE
  5
6771
  8
0
 10
145.2488417492448
 20
98.116970357453638
 30
0.0
 11
145.2488417492448
 21
99.116970357453638
 31
0.0
  0
LINE
  5
6772
  8
0
 10
115.2488417492448
 20
128.1169703574536
 30
0.0
 11
116.2488417492448
 21
128.1169703574536
 31
0.0
  0
LINE
  5
6773
  8
0
 10
122.2488417492448
 20
101.1169703574536
 30
0.0
 11
143.2488417492448
 21
101.1169703574536
 31
0.0
  0
LINE
  5
6774
  8
0
 10
118.2488417492448
 20
105.1169703574536
 30
0.0
 11
118.2488417492448
 21
126.1169703574536
 31
0.0
  0
ARC
  5
6775
  8
0
 10
143.2488417492448
 20
99.116970357453638
 30
0.0
 40
2.0
 50
0.0
 51
90.0
  0
ARC
  5
6776
  8
0
 10
116.2488417492448
 20
126.1169703574536
 30
0.0
 40
2.0
 50
0.0
 51
90.0
  0
ARC
  5
6777
  8
0
 10
122.2488417492448
 20
105.1169703574536
 30
0.0
 40
4.0
 50
180.0
 51
270.0
  0
ENDBLK
  5
6779
  8
0
  0
BLOCK
  8
0
  2
*D14
 70
     1
 10
0.0
 20
0.0
 30
0.0
  3
*D14
  1

  0
LINE
  5
6E74
  8
SP
 10
-5724.4242060181869
 20
763.99565485309574
 30
0.0
 11
-5724.4242060181869
 21
623.99565485309552
 31
0.0
  0
LINE
  5
6E75
  8
SP
 10
-5274.4242060181859
 20
763.99565485309552
 30
0.0
 11
-5274.4242060181859
 21
623.99565485309552
 31
0.0
  0
LINE
  5
6E76
  8
SP
 10
-5699.4242060181869
 20
633.99565485309552
 30
0.0
 11
-5299.4242060181859
 21
633.99565485309552
 31
0.0
  0
INSERT
  5
6E77
  8
SP
  2
_OPEN
 10
-5724.4242060181869
 20
633.99565485309552
 30
0.0
 41
25.0
 42
25.0
 43
25.0
 50
180.0
  0
INSERT
  5
6E78
  8
SP
  2
_OPEN
 10
-5274.4242060181859
 20
633.99565485309552
 30
0.0
 41
25.0
 42
25.0
 43
25.0
  0
TEXT
  5
6E79
  8
SP
 10
-5541.8747636027192
 20
643.99565485309552
 30
0.0
 40
30.0
  1
450
 51
15.0
  0
POINT
  5
6E7A
  8
DEFPOINTS
 62
     0
 10
-5724.4242060181869
 20
773.99565485309574
 30
0.0
  0
POINT
  5
6E7B
  8
DEFPOINTS
 62
     0
 10
-5274.4242060181859
 20
773.99565485309552
 30
0.0
  0
POINT
  5
6E7C
  8
DEFPOINTS
 62
     0
 10
-5274.4242060181859
 20
633.99565485309552
 30
0.0
  0
ENDBLK
  5
6E7E
  8
0
  0
BLOCK
  8
0
  2
*D15
 70
     1
 10
0.0
 20
0.0
 30
0.0
  3
*D15
  1

  0
LINE
  5
6E80
  8
SP
 10
-5499.4242060181859
 20
746.04084370005864
 30
0.0
 11
-5499.4242060181859
 21
693.99565485309563
 31
0.0
  0
LINE
  5
6E81
  8
SP
 10
-5724.4242060181859
 20
763.99565485309574
 30
0.0
 11
-5724.4242060181859
 21
693.99565485309563
 31
0.0
  0
LINE
  5
6E82
  8
SP
 10
-5524.4242060181859
 20
703.99565485309563
 30
0.0
 11
-5699.4242060181859
 21
703.99565485309563
 31
0.0
  0
INSERT
  5
6E83
  8
SP
  2
_OPEN
 10
-5499.4242060181859
 20
703.99565485309563
 30
0.0
 41
25.0
 42
25.0
 43
25.0
  0
INSERT
  5
6E84
  8
SP
  2
_OPEN
 10
-5724.4242060181859
 20
703.99565485309563
 30
0.0
 41
25.0
 42
25.0
 43
25.0
 50
180.0
  0
TEXT
  5
6E85
  8
SP
 10
-5653.0863010475086
 20
713.99565485309563
 30
0.0
 40
30.0
  1
225
 51
15.0
  0
POINT
  5
6E86
  8
DEFPOINTS
 62
     0
 10
-5499.4242060181859
 20
756.04084370005864
 30
0.0
  0
POINT
  5
6E87
  8
DEFPOINTS
 62
     0
 10
-5724.4242060181859
 20
773.99565485309574
 30
0.0
  0
POINT
  5
6E88
  8
DEFPOINTS
 62
     0
 10
-5724.4242060181859
 20
703.99565485309563
 30
0.0
  0
ENDBLK
  5
6E8A
  8
0
  0
BLOCK
  8
0
  2
*D16
 70
     1
 10
0.0
 20
0.0
 30
0.0
  3
*D16
  1

  0
LINE
  5
6E8C
  8
SP
 10
-5499.4242060181859
 20
746.04084370005864
 30
0.0
 11
-5499.4242060181859
 21
693.99565485309563
 31
0.0
  0
LINE
  5
6E8D
  8
SP
 10
-5274.4242060181859
 20
763.99565485309552
 30
0.0
 11
-5274.4242060181859
 21
693.99565485309563
 31
0.0
  0
LINE
  5
6E8E
  8
SP
 10
-5474.4242060181859
 20
703.99565485309563
 30
0.0
 11
-5299.4242060181859
 21
703.99565485309563
 31
0.0
  0
INSERT
  5
6E8F
  8
SP
  2
_OPEN
 10
-5499.4242060181859
 20
703.99565485309563
 30
0.0
 41
25.0
 42
25.0
 43
25.0
 50
180.0
  0
INSERT
  5
6E90
  8
SP
  2
_OPEN
 10
-5274.4242060181859
 20
703.99565485309563
 30
0.0
 41
25.0
 42
25.0
 43
25.0
  0
TEXT
  5
6E91
  8
SP
 10
-5428.0863010475086
 20
713.99565485309563
 30
0.0
 40
30.0
  1
225
 51
15.0
  0
POINT
  5
6E92
  8
DEFPOINTS
 62
     0
 10
-5499.4242060181859
 20
756.04084370005864
 30
0.0
  0
POINT
  5
6E93
  8
DEFPOINTS
 62
     0
 10
-5274.4242060181859
 20
773.99565485309552
 30
0.0
  0
POINT
  5
6E94
  8
DEFPOINTS
 62
     0
 10
-5274.4242060181859
 20
703.99565485309563
 30
0.0
  0
ENDBLK
  5
6E96
  8
0
  0
BLOCK
  8
0
  2
A$C1B3C3548
 70
     0
 10
0.0
 20
0.0
 30
0.0
  3
A$C1B3C3548
  1

  0
LINE
  5
6E98
  8
FUTO
 10
225.0
 20
-240.0000000000004
 30
0.0
 11
225.0
 21
-270.00000000000051
 31
0.0
  0
DIMENSION
  5
6E99
  8
SP
  2
*D15
 10
-225.0
 20
-340.0000000000004
 30
0.0
 11
-112.5
 21
-315.0000000000004
 31
0.0
 12
5499.4242060181859
 22
-1043.9956548530961
 32
0.0
  3
GOD
 13
0.0
 23
-287.95481115303733
 33
0.0
 14
-225.0
 24
-270.00000000000028
 34
0.0
  0
DIMENSION
  5
6E9A
  8
SP
  2
*D14
 10
225.0
 20
-410.00000000000051
 30
0.0
 11
0.0
 21
-385.00000000000051
 31
0.0
 12
5499.4242060181859
 22
-1043.9956548530961
 32
0.0
  3
GOD
 13
-225.00000000000091
 23
-270.00000000000028
 33
0.0
 14
225.0
 24
-270.00000000000051
 34
0.0
  0
LINE
  5
6E9B
  8
FUTO
 10
-225.0
 20
-240.0000000000004
 30
0.0
 11
225.0
 21
-240.0000000000004
 31
0.0
  0
LINE
  5
6E9C
  8
FUTO
 10
-225.0
 20
-270.00000000000028
 30
0.0
 11
225.0
 21
-270.00000000000051
 31
0.0
  0
LINE
  5
6E9D
  8
FUTO
 10
-225.0
 20
-243.0000000000004
 30
0.0
 11
225.0
 21
-243.0000000000004
 31
0.0
  0
LINE
  5
6E9E
  8
FUTO
 10
-225.0
 20
-240.0000000000004
 30
0.0
 11
-225.0
 21
-270.00000000000028
 31
0.0
  0
DIMENSION
  5
6E9F
  8
SP
  2
*D16
 10
225.0
 20
-340.0000000000004
 30
0.0
 11
112.5
 21
-315.0000000000004
 31
0.0
 12
5499.4242060181859
 22
-1043.9956548530961
 32
0.0
  3
GOD
 13
0.0
 23
-287.95481115303733
 33
0.0
 14
225.0
 24
-270.00000000000051
 34
0.0
  0
ENDBLK
  5
6EA1
  8
0
  0
BLOCK
  8
0
  2
*D47
 70
     1
 10
0.0
 20
0.0
 30
0.0
  3
*D47
  1

  0
LINE
  5
7EF7
  8
SP
 10
6842.4925094798382
 20
1287.6039837191479
 30
0.0
 11
6842.4925094798382
 21
1341.4434703025479
 31
0.0
  0
LINE
  5
7EF8
  8
SP
 10
6682.4925094798346
 20
1132.4434703025479
 30
0.0
 11
6682.4925094798346
 21
1341.4434703025479
 31
0.0
  0
LINE
  5
7EF9
  8
SP
 10
6817.4925094798382
 20
1331.4434703025479
 30
0.0
 11
6707.4925094798364
 21
1331.4434703025479
 31
0.0
  0
INSERT
  5
7EFA
  8
SP
  2
_OPEN
 10
6842.4925094798382
 20
1331.4434703025479
 30
0.0
 41
25.0
 42
25.0
 43
25.0
  0
INSERT
  5
7EFB
  8
SP
  2
_OPEN
 10
6682.4925094798346
 20
1331.4434703025479
 30
0.0
 41
25.0
 42
25.0
 43
25.0
 50
180.0
  0
TEXT
  5
7EFC
  8
SP
 10
6720.9851719493672
 20
1341.4434703025479
 30
0.0
 40
30.0
  1
160
 51
15.0
  0
POINT
  5
7EFD
  8
DEFPOINTS
 62
     0
 10
6842.4925094798382
 20
1277.6039837191479
 30
0.0
  0
POINT
  5
7EFE
  8
DEFPOINTS
 62
     0
 10
6682.4925094798346
 20
1122.443470302549
 30
0.0
  0
POINT
  5
7EFF
  8
DEFPOINTS
 62
     0
 10
6682.4925094798346
 20
1331.4434703025479
 30
0.0
  0
ENDBLK
  5
7D46
  8
0
  0
BLOCK
  8
0
  2
*D48
 70
     1
 10
0.0
 20
0.0
 30
0.0
  3
*D48
  1

  0
LINE
  5
7F6C
  8
SP
 10
7067.4925094798373
 20
2074.773010839383
 30
0.0
 11
7067.4925094798373
 21
2144.773010839383
 31
0.0
  0
LINE
  5
7F6D
  8
SP
 10
6617.4925094798373
 20
2074.773010839383
 30
0.0
 11
6617.4925094798373
 21
2144.773010839383
 31
0.0
  0
LINE
  5
7F6E
  8
SP
 10
7042.4925094798373
 20
2134.773010839383
 30
0.0
 11
6642.4925094798364
 21
2134.773010839383
 31
0.0
  0
INSERT
  5
7F6F
  8
SP
  2
_OPEN
 10
7067.4925094798373
 20
2134.773010839383
 30
0.0
 41
25.0
 42
25.0
 43
25.0
  0
INSERT
  5
7F70
  8
SP
  2
_OPEN
 10
6617.4925094798373
 20
2134.773010839383
 30
0.0
 41
25.0
 42
25.0
 43
25.0
 50
180.0
  0
TEXT
  5
7F71
  8
SP
 10
6800.041951895304
 20
2144.773010839383
 30
0.0
 40
30.0
  1
450
 51
15.0
  0
POINT
  5
7F72
  8
DEFPOINTS
 62
     0
 10
7067.4925094798373
 20
2064.773010839383
 30
0.0
  0
POINT
  5
7F73
  8
DEFPOINTS
 62
     0
 10
6617.4925094798373
 20
2064.773010839383
 30
0.0
  0
POINT
  5
7F74
  8
DEFPOINTS
 62
     0
 10
6617.4925094798373
 20
2134.773010839383
 30
0.0
  0
ENDBLK
  5
7D52
  8
0
  0
BLOCK
  8
0
  2
*D49
 70
     1
 10
0.0
 20
0.0
 30
0.0
  3
*D49
  1

  0
LINE
  5
7F5A
  8
SP
 10
7042.3499345967539
 20
1910.773010839383
 30
0.0
 11
7168.203925812496
 21
1910.773010839383
 31
0.0
  0
LINE
  5
7F5B
  8
SP
 10
7077.4925094798364
 20
2064.773010839383
 30
0.0
 11
7168.2039258124969
 21
2064.7730108393821
 31
0.0
  0
LINE
  5
7F5C
  8
SP
 10
7158.2039258124969
 20
1935.773010839383
 30
0.0
 11
7158.2039258124969
 21
2039.773010839383
 31
0.0
  0
INSERT
  5
7F5D
  8
SP
  2
_OPEN
 10
7158.2039258124969
 20
1910.773010839383
 30
0.0
 41
25.0
 42
25.0
 43
25.0
 50
270.0
  0
INSERT
  5
7F5E
  8
SP
  2
_OPEN
 10
7158.2039258124969
 20
2064.773010839383
 30
0.0
 41
25.0
 42
25.0
 43
25.0
 50
90.0
  0
TEXT
  5
7F5F
  8
SP
 10
7148.2039258124951
 20
1946.751024683422
 30
0.0
 40
30.0
  1
154
 50
90.0
 51
15.0
  0
POINT
  5
7F60
  8
DEFPOINTS
 62
     0
 10
7032.349934596753
 20
1910.773010839383
 30
0.0
  0
POINT
  5
7F61
  8
DEFPOINTS
 62
     0
 10
7067.4925094798373
 20
2064.773010839383
 30
0.0
  0
POINT
  5
7F62
  8
DEFPOINTS
 62
     0
 10
7158.2039258124969
 20
2064.773010839383
 30
0.0
  0
ENDBLK
  5
7D5E
  8
0
  0
BLOCK
  8
0
  2
*D50
 70
     1
 10
0.0
 20
0.0
 30
0.0
  3
*D50
  1

  0
LINE
  5
7F51
  8
SP
 10
7077.4925094798364
 20
2064.773010839383
 30
0.0
 11
7256.8791319453931
 21
2064.7730108393821
 31
0.0
  0
LINE
  5
7F52
  8
SP
 10
7077.4925094798364
 20
1564.773010839383
 30
0.0
 11
7256.8791319453921
 21
1564.773010839383
 31
0.0
  0
LINE
  5
7F53
  8
SP
 10
7246.8791319453931
 20
2039.773010839383
 30
0.0
 11
7246.8791319453931
 21
1589.773010839383
 31
0.0
  0
INSERT
  5
7F54
  8
SP
  2
_OPEN
 10
7246.8791319453931
 20
2064.7730108393821
 30
0.0
 41
25.0
 42
25.0
 43
25.0
 50
90.0
  0
INSERT
  5
7F55
  8
SP
  2
_OPEN
 10
7246.8791319453931
 20
1564.773010839383
 30
0.0
 41
25.0
 42
25.0
 43
25.0
 50
270.0
  0
TEXT
  5
7F56
  8
SP
 10
7236.8791319453921
 20
1772.8966300957741
 30
0.0
 40
30.0
  1
500
 50
90.0
 51
15.0
  0
POINT
  5
7F57
  8
DEFPOINTS
 62
     0
 10
7067.4925094798373
 20
2064.773010839383
 30
0.0
  0
POINT
  5
7F58
  8
DEFPOINTS
 62
     0
 10
7067.4925094798373
 20
1564.773010839383
 30
0.0
  0
POINT
  5
7F59
  8
DEFPOINTS
 62
     0
 10
7246.8791319453931
 20
1564.773010839383
 30
0.0
  0
ENDBLK
  5
7D6A
  8
0
  0
BLOCK
  8
0
  2
*D51
 70
     1
 10
0.0
 20
0.0
 30
0.0
  3
*D51
  1

  0
LINE
  5
7F63
  8
SP
 10
7042.3499345967539
 20
1910.773010839383
 30
0.0
 11
7168.2039258124969
 21
1910.773010839383
 31
0.0
  0
LINE
  5
7F64
  8
SP
 10
7077.4925094798364
 20
1564.773010839383
 30
0.0
 11
7168.2039258124969
 21
1564.773010839383
 31
0.0
  0
LINE
  5
7F65
  8
SP
 10
7158.2039258124969
 20
1885.773010839383
 30
0.0
 11
7158.2039258124969
 21
1589.773010839383
 31
0.0
  0
INSERT
  5
7F66
  8
SP
  2
_OPEN
 10
7158.2039258124969
 20
1910.773010839383
 30
0.0
 41
25.0
 42
25.0
 43
25.0
 50
90.0
  0
INSERT
  5
7F67
  8
SP
  2
_OPEN
 10
7158.2039258124969
 20
1564.773010839383
 30
0.0
 41
25.0
 42
25.0
 43
25.0
 50
270.0
  0
TEXT
  5
7F68
  8
SP
 10
7148.2039258124969
 20
1696.419523529753
 30
0.0
 40
30.0
  1
346
 50
90.0
 51
15.0
  0
POINT
  5
7F69
  8
DEFPOINTS
 62
     0
 10
7032.349934596753
 20
1910.773010839383
 30
0.0
  0
POINT
  5
7F6A
  8
DEFPOINTS
 62
     0
 10
7067.4925094798373
 20
1564.773010839383
 30
0.0
  0
POINT
  5
7F6B
  8
DEFPOINTS
 62
     0
 10
7158.2039258124969
 20
1564.773010839383
 30
0.0
  0
ENDBLK
  5
7D76
  8
0
  0
BLOCK
  8
0
  2
*D52
 70
     1
 10
0.0
 20
0.0
 30
0.0
  3
*D52
  1

  0
LINE
  5
7F12
  8
3
 10
7831.8241808568901
 20
1201.4434703025479
 30
0.0
 11
7978.6777456247864
 21
1201.4434703025479
 31
0.0
  0
LINE
  5
7F13
  8
3
 10
7831.8241808568901
 20
1001.443470302548
 30
0.0
 11
7978.6777456247864
 21
1001.443470302548
 31
0.0
  0
LINE
  5
7F14
  8
3
 10
7968.6777456247846
 20
1176.4434703025479
 30
0.0
 11
7968.6777456247846
 21
1026.4434703025479
 31
0.0
  0
INSERT
  5
7F15
  8
3
  2
_OPEN
 10
7968.6777456247846
 20
1201.4434703025479
 30
0.0
 41
25.0
 42
25.0
 43
25.0
 50
90.0
  0
INSERT
  5
7F16
  8
3
  2
_OPEN
 10
7968.6777456247846
 20
1001.443470302548
 30
0.0
 41
25.0
 42
25.0
 43
25.0
 50
270.0
  0
INSERT
  5
7F17
  8
SP
  2
*U68
 10
0.0
 20
0.0
 30
0.0
  0
POINT
  5
7F18
  8
DEFPOINTS
 62
     0
 10
7821.8241808568891
 20
1201.4434703025479
 30
0.0
  0
POINT
  5
7F19
  8
DEFPOINTS
 62
     0
 10
7821.8241808568891
 20
1001.443470302548
 30
0.0
  0
POINT
  5
7F1A
  8
DEFPOINTS
 62
     0
 10
7968.6777456247846
 20
1001.443470302548
 30
0.0
  0
ENDBLK
  5
7D82
  8
0
  0
BLOCK
  8
0
  2
*D53
 70
     1
 10
0.0
 20
0.0
 30
0.0
  3
*D53
  1

  0
LINE
  5
7F2D
  8
SP
 10
7744.8241808568891
 20
804.34836912299477
 30
0.0
 11
7744.8241808568891
 21
751.44347030254835
 31
0.0
  0
LINE
  5
7F2E
  8
SP
 10
7398.824180856891
 20
851.44347030254858
 30
0.0
 11
7398.824180856891
 21
751.44347030254835
 31
0.0
  0
LINE
  5
7F2F
  8
SP
 10
7719.8241808568891
 20
761.44347030254846
 30
0.0
 11
7423.824180856891
 21
761.44347030254846
 31
0.0
  0
INSERT
  5
7F30
  8
SP
  2
_OPEN
 10
7744.8241808568891
 20
761.44347030254846
 30
0.0
 41
25.0
 42
25.0
 43
25.0
  0
INSERT
  5
7F31
  8
SP
  2
_OPEN
 10
7398.824180856891
 20
761.44347030254846
 30
0.0
 41
25.0
 42
25.0
 43
25.0
 50
180.0
  0
TEXT
  5
7F32
  8
SP
 10
7530.4706935472586
 20
771.44347030254835
 30
0.0
 40
30.0
  1
346
 51
15.0
  0
POINT
  5
7F33
  8
DEFPOINTS
 62
     0
 10
7744.8241808568891
 20
814.34836912299488
 30
0.0
  0
POINT
  5
7F34
  8
DEFPOINTS
 62
     0
 10
7398.824180856891
 20
861.44347030254846
 30
0.0
  0
POINT
  5
7F35
  8
DEFPOINTS
 62
     0
 10
7398.824180856891
 20
761.44347030254846
 30
0.0
  0
ENDBLK
  5
7D8E
  8
0
  0
BLOCK
  8
0
  2
*D54
 70
     1
 10
0.0
 20
0.0
 30
0.0
  3
*D54
  1

  0
LINE
  5
7F24
  8
SP
 10
7398.824180856891
 20
851.44347030254858
 30
0.0
 11
7398.824180856891
 21
681.44347030254835
 31
0.0
  0
LINE
  5
7F25
  8
SP
 10
7898.824180856891
 20
851.44347030254858
 30
0.0
 11
7898.824180856891
 21
681.44347030254835
 31
0.0
  0
LINE
  5
7F26
  8
SP
 10
7423.824180856891
 20
691.44347030254835
 30
0.0
 11
7873.8241808568919
 21
691.44347030254835
 31
0.0
  0
INSERT
  5
7F27
  8
SP
  2
_OPEN
 10
7398.824180856891
 20
691.44347030254835
 30
0.0
 41
25.0
 42
25.0
 43
25.0
 50
180.0
  0
INSERT
  5
7F28
  8
SP
  2
_OPEN
 10
7898.824180856891
 20
691.44347030254835
 30
0.0
 41
25.0
 42
25.0
 43
25.0
  0
TEXT
  5
7F29
  8
SP
 10
7606.9478001132811
 20
701.44347030254835
 30
0.0
 40
30.0
  1
500
 51
15.0
  0
POINT
  5
7F2A
  8
DEFPOINTS
 62
     0
 10
7398.824180856891
 20
861.44347030254846
 30
0.0
  0
POINT
  5
7F2B
  8
DEFPOINTS
 62
     0
 10
7898.824180856891
 20
861.44347030254846
 30
0.0
  0
POINT
  5
7F2C
  8
DEFPOINTS
 62
     0
 10
7898.824180856891
 20
691.44347030254835
 30
0.0
  0
ENDBLK
  5
7D9A
  8
0
  0
BLOCK
  8
0
  2
*D55
 70
     1
 10
0.0
 20
0.0
 30
0.0
  3
*D55
  1

  0
LINE
  5
7F48
  8
SP
 10
7744.824180856891
 20
1356.0584328235329
 30
0.0
 11
7744.824180856891
 21
1392.4434703025479
 31
0.0
  0
LINE
  5
7F49
  8
SP
 10
7444.8241808568901
 20
1171.482100817165
 30
0.0
 11
7444.8241808568901
 21
1392.4434703025479
 31
0.0
  0
LINE
  5
7F4A
  8
SP
 10
7719.824180856891
 20
1382.4434703025479
 30
0.0
 11
7469.824180856891
 21
1382.4434703025479
 31
0.0
  0
INSERT
  5
7F4B
  8
SP
  2
_OPEN
 10
7744.824180856891
 20
1382.4434703025479
 30
0.0
 41
25.0
 42
25.0
 43
25.0
  0
INSERT
  5
7F4C
  8
SP
  2
_OPEN
 10
7444.8241808568901
 20
1382.4434703025479
 30
0.0
 41
25.0
 42
25.0
 43
25.0
 50
180.0
  0
TEXT
  5
7F4D
  8
SP
 10
7552.9478001132811
 20
1392.4434703025479
 30
0.0
 40
30.0
  1
300
 51
15.0
  0
POINT
  5
7F4E
  8
DEFPOINTS
 62
     0
 10
7744.824180856891
 20
1346.0584328235329
 30
0.0
  0
POINT
  5
7F4F
  8
DEFPOINTS
 62
     0
 10
7444.8241808568901
 20
1161.482100817165
 30
0.0
  0
POINT
  5
7F50
  8
DEFPOINTS
 62
     0
 10
7444.8241808568901
 20
1382.4434703025479
 30
0.0
  0
ENDBLK
  5
7DA6
  8
0
  0
BLOCK
  8
0
  2
*D56
 70
     1
 10
0.0
 20
0.0
 30
0.0
  3
*D56
  1

  0
LINE
  5
7F1B
  8
SP
 10
7744.824180856891
 20
804.34836912299477
 30
0.0
 11
7744.824180856891
 21
751.44347030254835
 31
0.0
  0
LINE
  5
7F1C
  8
SP
 10
7898.824180856891
 20
851.44347030254858
 30
0.0
 11
7898.824180856891
 21
751.44347030254835
 31
0.0
  0
LINE
  5
7F1D
  8
SP
 10
7769.824180856891
 20
761.44347030254846
 30
0.0
 11
7873.8241808568919
 21
761.44347030254846
 31
0.0
  0
INSERT
  5
7F1E
  8
SP
  2
_OPEN
 10
7744.824180856891
 20
761.44347030254846
 30
0.0
 41
25.0
 42
25.0
 43
25.0
 50
180.0
  0
INSERT
  5
7F1F
  8
SP
  2
_OPEN
 10
7898.824180856891
 20
761.44347030254846
 30
0.0
 41
25.0
 42
25.0
 43
25.0
  0
TEXT
  5
7F20
  8
SP
 10
7780.8021947009292
 20
771.44347030254835
 30
0.0
 40
30.0
  1
154
 51
15.0
  0
POINT
  5
7F21
  8
DEFPOINTS
 62
     0
 10
7744.824180856891
 20
814.34836912299488
 30
0.0
  0
POINT
  5
7F22
  8
DEFPOINTS
 62
     0
 10
7898.824180856891
 20
861.44347030254846
 30
0.0
  0
POINT
  5
7F23
  8
DEFPOINTS
 62
     0
 10
7898.824180856891
 20
761.44347030254846
 30
0.0
  0
ENDBLK
  5
7DB2
  8
0
  0
BLOCK
  8
0
  2
*D57
 70
     1
 10
0.0
 20
0.0
 30
0.0
  3
*D57
  1

  0
LINE
  5
7F3F
  8
SP
 10
7744.824180856891
 20
1356.0584328235329
 30
0.0
 11
7744.824180856891
 21
1392.4434703025479
 31
0.0
  0
LINE
  5
7F40
  8
SP
 10
7821.8241808568891
 20
1228.4434703025499
 30
0.0
 11
7821.8241808568891
 21
1392.4434703025479
 31
0.0
  0
LINE
  5
7F41
  8
SP
 10
7769.824180856891
 20
1382.4434703025479
 30
0.0
 11
7796.8241808568891
 21
1382.4434703025479
 31
0.0
  0
INSERT
  5
7F42
  8
SP
  2
_OPEN
 10
7744.824180856891
 20
1382.4434703025479
 30
0.0
 41
25.0
 42
25.0
 43
25.0
 50
180.0
  0
INSERT
  5
7F43
  8
SP
  2
_OPEN
 10
7821.8241808568891
 20
1382.4434703025479
 30
0.0
 41
25.0
 42
25.0
 43
25.0
  0
TEXT
  5
7F44
  8
SP
 10
7752.1620858275674
 20
1392.4434703025479
 30
0.0
 40
30.0
  1
77
 51
15.0
  0
POINT
  5
7F45
  8
DEFPOINTS
 62
     0
 10
7744.824180856891
 20
1346.0584328235329
 30
0.0
  0
POINT
  5
7F46
  8
DEFPOINTS
 62
     0
 10
7821.8241808568891
 20
1218.4434703025499
 30
0.0
  0
POINT
  5
7F47
  8
DEFPOINTS
 62
     0
 10
7821.8241808568891
 20
1382.4434703025479
 30
0.0
  0
ENDBLK
  5
7DBE
  8
0
  0
BLOCK
  8
0
  2
*D58
 70
     1
 10
0.0
 20
0.0
 30
0.0
  3
*D58
  1

  0
LINE
  5
7F36
  8
SP
 10
7674.824180856891
 20
1241.443470302549
 30
0.0
 11
7674.824180856891
 21
1322.4434703025479
 31
0.0
  0
LINE
  5
7F37
  8
SP
 10
7814.8241808568901
 20
1241.443470302549
 30
0.0
 11
7814.8241808568901
 21
1322.4434703025479
 31
0.0
  0
LINE
  5
7F38
  8
SP
 10
7699.8241808568901
 20
1312.4434703025479
 30
0.0
 11
7789.8241808568891
 21
1312.4434703025479
 31
0.0
  0
INSERT
  5
7F39
  8
SP
  2
_OPEN
 10
7674.824180856891
 20
1312.4434703025479
 30
0.0
 41
25.0
 42
25.0
 43
25.0
 50
180.0
  0
INSERT
  5
7F3A
  8
SP
  2
_OPEN
 10
7814.8241808568901
 20
1312.4434703025479
 30
0.0
 41
25.0
 42
25.0
 43
25.0
  0
TEXT
  5
7F3B
  8
SP
 10
7703.3168433264209
 20
1322.4434703025479
 30
0.0
 40
30.0
  1
140
 51
15.0
  0
POINT
  5
7F3C
  8
DEFPOINTS
 62
     0
 10
7674.824180856891
 20
1231.443470302549
 30
0.0
  0
POINT
  5
7F3D
  8
DEFPOINTS
 62
     0
 10
7814.8241808568901
 20
1231.443470302549
 30
0.0
  0
POINT
  5
7F3E
  8
DEFPOINTS
 62
     0
 10
7814.8241808568901
 20
1312.4434703025479
 30
0.0
  0
ENDBLK
  5
7DCA
  8
0
  0
BLOCK
  8
0
  2
*D59
 70
     1
 10
0.0
 20
0.0
 30
0.0
  3
*D59
  1

  0
LINE
  5
7EE5
  8
SP
 10
6617.4925094798373
 20
821.44347030254778
 30
0.0
 11
6617.4925094798373
 21
681.44347030254755
 31
0.0
  0
LINE
  5
7EE6
  8
SP
 10
7067.4925094798382
 20
821.44347030254744
 30
0.0
 11
7067.4925094798382
 21
681.44347030254755
 31
0.0
  0
LINE
  5
7EE7
  8
SP
 10
6642.4925094798364
 20
691.44347030254755
 30
0.0
 11
7042.4925094798382
 21
691.44347030254755
 31
0.0
  0
INSERT
  5
7EE8
  8
SP
  2
_OPEN
 10
6617.4925094798373
 20
691.44347030254755
 30
0.0
 41
25.0
 42
25.0
 43
25.0
 50
180.0
  0
INSERT
  5
7EE9
  8
SP
  2
_OPEN
 10
7067.4925094798382
 20
691.44347030254755
 30
0.0
 41
25.0
 42
25.0
 43
25.0
  0
TEXT
  5
7EEA
  8
SP
 10
6800.041951895304
 20
701.44347030254755
 30
0.0
 40
30.0
  1
450
 51
15.0
  0
POINT
  5
7EEB
  8
DEFPOINTS
 62
     0
 10
6617.4925094798373
 20
831.44347030254778
 30
0.0
  0
POINT
  5
7EEC
  8
DEFPOINTS
 62
     0
 10
7067.4925094798382
 20
831.44347030254755
 30
0.0
  0
POINT
  5
7EED
  8
DEFPOINTS
 62
     0
 10
7067.4925094798382
 20
691.44347030254755
 30
0.0
  0
ENDBLK
  5
7DD6
  8
0
  0
BLOCK
  8
0
  2
*D60
 70
     1
 10
0.0
 20
0.0
 30
0.0
  3
*D60
  1

  0
LINE
  5
7EDC
  8
SP
 10
6842.4925094798382
 20
803.48865914951068
 30
0.0
 11
6842.4925094798382
 21
751.44347030254755
 31
0.0
  0
LINE
  5
7EDD
  8
SP
 10
6617.4925094798382
 20
821.44347030254778
 30
0.0
 11
6617.4925094798382
 21
751.44347030254755
 31
0.0
  0
LINE
  5
7EDE
  8
SP
 10
6817.4925094798382
 20
761.44347030254767
 30
0.0
 11
6642.4925094798382
 21
761.44347030254767
 31
0.0
  0
INSERT
  5
7EDF
  8
SP
  2
_OPEN
 10
6842.4925094798382
 20
761.44347030254767
 30
0.0
 41
25.0
 42
25.0
 43
25.0
  0
INSERT
  5
7EE0
  8
SP
  2
_OPEN
 10
6617.4925094798382
 20
761.44347030254767
 30
0.0
 41
25.0
 42
25.0
 43
25.0
 50
180.0
  0
TEXT
  5
7EE1
  8
SP
 10
6688.8304144505137
 20
771.44347030254755
 30
0.0
 40
30.0
  1
225
 51
15.0
  0
POINT
  5
7EE2
  8
DEFPOINTS
 62
     0
 10
6842.4925094798382
 20
813.4886591495108
 30
0.0
  0
POINT
  5
7EE3
  8
DEFPOINTS
 62
     0
 10
6617.4925094798382
 20
831.44347030254778
 30
0.0
  0
POINT
  5
7EE4
  8
DEFPOINTS
 62
     0
 10
6617.4925094798382
 20
761.44347030254767
 30
0.0
  0
ENDBLK
  5
7DE2
  8
0
  0
BLOCK
  8
0
  2
*D61
 70
     1
 10
0.0
 20
0.0
 30
0.0
  3
*D61
  1

  0
LINE
  5
7F00
  8
SP
 10
6655.5969733443899
 20
1101.4434703025479
 30
0.0
 11
6532.4925094798364
 21
1101.4434703025479
 31
0.0
  0
LINE
  5
7F01
  8
SP
 10
6818.4925094798382
 20
1241.443470302549
 30
0.0
 11
6532.4925094798364
 21
1241.443470302549
 31
0.0
  0
LINE
  5
7F02
  8
SP
 10
6542.4925094798373
 20
1126.4434703025479
 30
0.0
 11
6542.4925094798373
 21
1216.443470302549
 31
0.0
  0
INSERT
  5
7F03
  8
SP
  2
_OPEN
 10
6542.4925094798373
 20
1101.4434703025479
 30
0.0
 41
25.0
 42
25.0
 43
25.0
 50
270.0
  0
INSERT
  5
7F04
  8
SP
  2
_OPEN
 10
6542.4925094798373
 20
1241.443470302549
 30
0.0
 41
25.0
 42
25.0
 43
25.0
 50
90.0
  0
TEXT
  5
7F05
  8
SP
 10
6532.4925094798364
 20
1129.936132772079
 30
0.0
 40
30.0
  1
140
 50
90.0
 51
15.0
  0
POINT
  5
7F06
  8
DEFPOINTS
 62
     0
 10
6665.5969733443908
 20
1101.4434703025479
 30
0.0
  0
POINT
  5
7F07
  8
DEFPOINTS
 62
     0
 10
6828.4925094798382
 20
1241.443470302549
 30
0.0
  0
POINT
  5
7F08
  8
DEFPOINTS
 62
     0
 10
6542.4925094798373
 20
1241.443470302549
 30
0.0
  0
ENDBLK
  5
7DEE
  8
0
  0
BLOCK
  8
0
  2
*D62
 70
     1
 10
0.0
 20
0.0
 30
0.0
  3
*D62
  1

  0
LINE
  5
7ED3
  8
SP
 10
6655.5969733443899
 20
1101.4434703025479
 30
0.0
 11
6532.4925094798364
 21
1101.4434703025479
 31
0.0
  0
LINE
  5
7ED4
  8
SP
 10
6607.4925094798391
 20
831.44347030254778
 30
0.0
 11
6532.4925094798364
 21
831.44347030254778
 31
0.0
  0
LINE
  5
7ED5
  8
SP
 10
6542.4925094798373
 20
1076.4434703025479
 30
0.0
 11
6542.4925094798373
 21
856.44347030254778
 31
0.0
  0
INSERT
  5
7ED6
  8
SP
  2
_OPEN
 10
6542.4925094798373
 20
1101.4434703025479
 30
0.0
 41
25.0
 42
25.0
 43
25.0
 50
90.0
  0
INSERT
  5
7ED7
  8
SP
  2
_OPEN
 10
6542.4925094798373
 20
831.44347030254778
 30
0.0
 41
25.0
 42
25.0
 43
25.0
 50
270.0
  0
TEXT
  5
7ED8
  8
SP
 10
6532.4925094798364
 20
925.33265868017099
 30
0.0
 40
30.0
  1
270
 50
90.0
 51
15.0
  0
POINT
  5
7ED9
  8
DEFPOINTS
 62
     0
 10
6665.5969733443908
 20
1101.4434703025479
 30
0.0
  0
POINT
  5
7EDA
  8
DEFPOINTS
 62
     0
 10
6617.4925094798382
 20
831.44347030254778
 30
0.0
  0
POINT
  5
7EDB
  8
DEFPOINTS
 62
     0
 10
6542.4925094798373
 20
831.44347030254778
 30
0.0
  0
ENDBLK
  5
7DFA
  8
0
  0
BLOCK
  8
0
  2
*D63
 70
     1
 10
0.0
 20
0.0
 30
0.0
  3
*D63
  1

  0
LINE
  5
7ECA
  8
SP
 10
6655.5969733443899
 20
1101.4434703025479
 30
0.0
 11
6602.4925094798364
 21
1101.4434703025479
 31
0.0
  0
LINE
  5
7ECB
  8
SP
 10
6672.4925094798373
 20
901.4434703025496
 30
0.0
 11
6602.4925094798364
 21
901.4434703025496
 31
0.0
  0
LINE
  5
7ECC
  8
SP
 10
6612.4925094798373
 20
1076.4434703025479
 30
0.0
 11
6612.4925094798373
 21
926.4434703025496
 31
0.0
  0
INSERT
  5
7ECD
  8
SP
  2
_OPEN
 10
6612.4925094798373
 20
1101.4434703025479
 30
0.0
 41
25.0
 42
25.0
 43
25.0
 50
90.0
  0
INSERT
  5
7ECE
  8
SP
  2
_OPEN
 10
6612.4925094798373
 20
901.4434703025496
 30
0.0
 41
25.0
 42
25.0
 43
25.0
 50
270.0
  0
TEXT
  5
7ECF
  8
SP
 10
6602.4925094798364
 20
960.33265868017213
 30
0.0
 40
30.0
  1
200
 50
90.0
 51
15.0
  0
POINT
  5
7ED0
  8
DEFPOINTS
 62
     0
 10
6665.5969733443908
 20
1101.4434703025479
 30
0.0
  0
POINT
  5
7ED1
  8
DEFPOINTS
 62
     0
 10
6682.4925094798346
 20
901.4434703025496
 30
0.0
  0
POINT
  5
7ED2
  8
DEFPOINTS
 62
     0
 10
6612.4925094798373
 20
901.4434703025496
 30
0.0
  0
ENDBLK
  5
7E06
  8
0
  0
BLOCK
  8
0
  2
*D64
 70
     1
 10
0.0
 20
0.0
 30
0.0
  3
*D64
  1

  0
LINE
  5
7EEE
  8
SP
 10
6842.4925094798382
 20
803.48865914951068
 30
0.0
 11
6842.4925094798382
 21
751.44347030254755
 31
0.0
  0
LINE
  5
7EEF
  8
SP
 10
7067.4925094798382
 20
821.44347030254744
 30
0.0
 11
7067.4925094798382
 21
751.44347030254755
 31
0.0
  0
LINE
  5
7EF0
  8
SP
 10
6867.4925094798382
 20
761.44347030254767
 30
0.0
 11
7042.4925094798382
 21
761.44347030254767
 31
0.0
  0
INSERT
  5
7EF1
  8
SP
  2
_OPEN
 10
6842.4925094798382
 20
761.44347030254767
 30
0.0
 41
25.0
 42
25.0
 43
25.0
 50
180.0
  0
INSERT
  5
7EF2
  8
SP
  2
_OPEN
 10
7067.4925094798382
 20
761.44347030254767
 30
0.0
 41
25.0
 42
25.0
 43
25.0
  0
TEXT
  5
7EF3
  8
SP
 10
6913.8304144505137
 20
771.44347030254755
 30
0.0
 40
30.0
  1
225
 51
15.0
  0
POINT
  5
7EF4
  8
DEFPOINTS
 62
     0
 10
6842.4925094798382
 20
813.4886591495108
 30
0.0
  0
POINT
  5
7EF5
  8
DEFPOINTS
 62
     0
 10
7067.4925094798382
 20
831.44347030254755
 30
0.0
  0
POINT
  5
7EF6
  8
DEFPOINTS
 62
     0
 10
7067.4925094798382
 20
761.44347030254767
 30
0.0
  0
ENDBLK
  5
7E12
  8
0
  0
BLOCK
  8
0
  2
*D65
 70
     1
 10
0.0
 20
0.0
 30
0.0
  3
*D65
  1

  0
LINE
  5
7F09
  8
SP
 10
6842.4925094798382
 20
1287.6039837191479
 30
0.0
 11
6842.4925094798382
 21
1341.4434703025479
 31
0.0
  0
LINE
  5
7F0A
  8
SP
 10
7010.4925094798364
 20
1095.443470302549
 30
0.0
 11
7010.4925094798364
 21
1341.4434703025479
 31
0.0
  0
LINE
  5
7F0B
  8
SP
 10
6867.4925094798382
 20
1331.4434703025479
 30
0.0
 11
6985.4925094798364
 21
1331.4434703025479
 31
0.0
  0
INSERT
  5
7F0C
  8
SP
  2
_OPEN
 10
6842.4925094798382
 20
1331.4434703025479
 30
0.0
 41
25.0
 42
25.0
 43
25.0
 50
180.0
  0
INSERT
  5
7F0D
  8
SP
  2
_OPEN
 10
7010.4925094798364
 20
1331.4434703025479
 30
0.0
 41
25.0
 42
25.0
 43
25.0
  0
TEXT
  5
7F0E
  8
SP
 10
6884.7937796690603
 20
1341.4434703025479
 30
0.0
 40
30.0
  1
168
 51
15.0
  0
POINT
  5
7F0F
  8
DEFPOINTS
 62
     0
 10
6842.4925094798382
 20
1277.6039837191479
 30
0.0
  0
POINT
  5
7F10
  8
DEFPOINTS
 62
     0
 10
7010.4925094798364
 20
1085.443470302549
 30
0.0
  0
POINT
  5
7F11
  8
DEFPOINTS
 62
     0
 10
7010.4925094798364
 20
1331.4434703025479
 30
0.0
  0
ENDBLK
  5
7E1E
  8
0
  0
BLOCK
  8
0
  2
*U66
 70
     1
 10
0.0
 20
0.0
 30
0.0
  3
*U66
  1

  0
TEXT
  5
7FF6
  8
SP
 10
7914.5290931023228
 20
981.17237207246455
 30
0.0
 40
30.0
  1
\U+2205
 50
90.0
 51
15.0
  0
TEXT
  5
7FF7
  8
SP
 10
7914.5290931023228
 20
1008.315229215321
 30
0.0
 40
30.0
  1
200
 50
90.0
 51
15.0
  0
ENDBLK
  5
7FF9
  8
0
  0
BLOCK
  8
0
  2
*U67
 70
     1
 10
0.0
 20
0.0
 30
0.0
  3
*U67
  1

  0
TEXT
  5
7FFB
  8
SP
 10
543.17036067438323
 20
981.17237207246296
 30
0.0
 40
30.0
  1
\U+2205
 50
90.0
 51
15.0
  0
TEXT
  5
7FFC
  8
SP
 10
543.17036067438323
 20
1008.31522921532
 30
0.0
 40
30.0
  1
200
 50
90.0
 51
15.0
  0
ENDBLK
  5
7FFE
  8
0
  0
BLOCK
  8
0
  2
*U68
 70
     1
 10
0.0
 20
0.0
 30
0.0
  3
*U68
  1

  0
TEXT
  5
8000
  8
SP
 10
7958.6777456247864
 20
1038.6201875219169
 30
0.0
 40
30.0
  1
\U+2205
 50
90.0
 51
15.0
  0
TEXT
  5
8001
  8
SP
 10
7958.6777456247864
 20
1065.763044664774
 30
0.0
 40
30.0
  1
200
 50
90.0
 51
15.0
  0
ENDBLK
  5
8003
  8
0
  0
ENDSEC
  0
SECTION
  2
ENTITIES
  0
LINE
  5
55A9
  8
4
 10
6208.32856416303
 20
0.0000009706882338
 30
0.0
 11
6208.32856416303
 21
2950.0000009706878
 31
0.0
  0
LINE
  5
55AA
  8
4
 10
8308.32856416303
 20
2950.0000009706878
 30
0.0
 11
8308.32856416303
 21
0.0000009706882338
 31
0.0
  0
LINE
  5
568F
  8
4
 10
8308.32856416303
 20
0.0000009706882338
 30
0.0
 11
6208.32856416303
 21
0.0000009706882338
 31
0.0
  0
LINE
  5
569F
  8
4
 10
6658.32856416303
 20
226.553142200808
 30
0.0
 11
7858.32856416303
 21
226.553142200808
 31
0.0
  0
LINE
  5
56A0
  8
4
 10
6658.32856416303
 20
326.553142200808
 30
0.0
 11
7858.32856416303
 21
326.553142200808
 31
0.0
  0
LINE
  5
56A1
  8
4
 10
6658.32856416303
 20
426.553142200808
 30
0.0
 11
7858.32856416303
 21
426.553142200808
 31
0.0
  0
TEXT
  5
56A2
  8
4
 10
7194.9830597485097
 20
243.71272648075129
 30
0.0
 40
50.0
  1
MF＃1 1/4- 7
  0
TEXT
  5
56A3
  8
4
 10
7186.0073096506949
 20
349.12491115837651
 30
0.0
 40
50.0
  1
ミツヤ多翼送風機
  0
LINE
  5
56A4
  8
4
 10
6658.32856416303
 20
426.553142200808
 30
0.0
 11
6658.32856416303
 21
226.553142200808
 31
0.0
  0
LINE
  5
56A5
  8
4
 10
7158.32856416303
 20
426.553142200808
 30
0.0
 11
7158.3285641630309
 21
226.553142200808
 31
0.0
  0
TEXT
  5
56A6
  8
4
 10
6694.5866701878276
 20
248.19829893281889
 30
0.0
 40
50.0
  1
機器型番
  0
TEXT
  5
56A8
  8
4
 10
6696.8306450099308
 20
358.09616806742082
 30
0.0
 40
50.0
  1
機器名称
  0
LINE
  5
56A9
  8
4
 10
7858.32856416303
 20
426.553142200808
 30
0.0
 11
7858.3285641630309
 21
226.553142200808
 31
0.0
  0
TEXT
  5
58A1
  8
4
 10
6510.5987121852886
 20
2382.3194785170322
 30
0.0
 40
53.999999999999993
  1
右回転左横向
  0
TEXT
  5
58A4
  8
4
 10
7662.1864521503358
 20
2383.4288423032031
 30
0.0
 40
53.999999999999993
  1
縮尺：1/10
  0
LINE
  5
5954
  8
4
 10
6208.32856416303
 20
2950.0000009706878
 30
0.0
 11
8308.32856416303
 21
2950.0000009706878
 31
0.0
  0
LINE
  5
5960
  8
4
 10
6458.3285641630291
 20
2469.4087552354931
 30
0.0
 11
8058.32856416303
 21
2469.4087552354931
 31
0.0
  0
LINE
  5
5961
  8
4
 10
6458.3285641630291
 20
2669.4087552354931
 30
0.0
 11
8058.32856416303
 21
2669.4087552354931
 31
0.0
  0
TEXT
  5
5962
  8
4
 10
6711.1285641630302
 20
2533.4087552354931
 30
0.0
 40
72.0
  1
遠心式片吸込片持多翼ファン
 72
     4
 11
7258.3285641630291
 21
2569.4087552354931
 31
0.0
  0
LINE
  5
5963
  8
4
 10
6458.3285641630291
 20
2669.4087552354931
 30
0.0
 11
6458.3285641630291
 21
2469.4087552354931
 31
0.0
  0
LINE
  5
5964
  8
4
 10
8058.32856416303
 20
2669.4087552354931
 30
0.0
 11
8058.32856416303
 21
2469.4087552354931
 31
0.0
  0
LINE
  5
5965
  8
4
 10
7648.9459865228946
 20
2786.6522625204411
 30
0.0
 11
8058.32856416303
 21
2786.6522625204411
 31
0.0
  0
LINE
  5
5966
  8
4
 10
8058.32856416303
 20
2681.2635840960888
 30
0.0
 11
7648.9459865228946
 21
2681.2635840960888
 31
0.0
  0
TEXT
  5
5967
  8
4
 10
7677.2981234123199
 20
2706.0610824659971
 30
0.0
 40
56.000000000000007
  1
No.
  0
LINE
  5
5968
  8
4
 10
7648.9459865228946
 20
2681.2635840960888
 30
0.0
 11
7648.9459865228946
 21
2786.6522625204411
 31
0.0
  0
LINE
  5
5969
  8
4
 10
8058.32856416303
 20
2786.6522625204411
 30
0.0
 11
8058.32856416303
 21
2681.2635840960888
 31
0.0
  0
LINE
  5
596A
  8
4
 10
8308.32856416303
 20
2950.0000009706878
 30
0.0
 11
8308.32856416303
 21
2950.0000009706878
 31
0.0
  0
TEXT
  5
763C
  8
4
 10
7028.7231404580252
 20
2383.428842303204
 30
0.0
 40
53.999999999999993
  1
天井吊ベッド型
  0
LINE
  5
7BFE
  8
FUTO
 10
6617.4925094798382
 20
858.44347030254767
 30
0.0
 11
7067.4925094798382
 21
858.44347030254767
 31
0.0
  0
LINE
  5
7BFF
  8
FUTO
 10
6617.4925094798382
 20
831.44347030254778
 30
0.0
 11
7067.4925094798382
 21
831.44347030254755
 31
0.0
  0
LINE
  5
7C00
  8
FUTO
 10
6617.4925094798382
 20
861.44347030254767
 30
0.0
 11
7067.4925094798382
 21
861.44347030254767
 31
0.0
  0
DIMENSION
  5
7C01
  8
SP
  2
*D59
 10
7067.4925094798382
 20
691.44347030254755
 30
0.0
 11
6842.4925094798373
 21
716.44347030254755
 31
0.0
 70
     0
 13
6617.4925094798373
 23
831.44347030254778
 33
0.0
 14
7067.4925094798382
 24
831.44347030254755
 34
0.0
  0
DIMENSION
  5
7C02
  8
SP
  2
*D60
 10
6617.4925094798382
 20
761.44347030254767
 30
0.0
 11
6729.9925094798382
 21
786.44347030254767
 31
0.0
 70
     0
 13
6842.4925094798382
 23
813.4886591495108
 33
0.0
 14
6617.4925094798382
 24
831.44347030254778
 34
0.0
  0
DIMENSION
  5
7C03
  8
SP
  2
*D61
 10
6542.4925094798373
 20
1241.443470302549
 30
0.0
 11
6517.4925094798364
 21
1171.443470302549
 31
0.0
 70
     0
 13
6665.5969733443908
 23
1101.4434703025479
 33
0.0
 14
6828.4925094798382
 24
1241.443470302549
 34
0.0
 50
90.0
  0
DIMENSION
  5
7C04
  8
SP
  2
*D62
 10
6542.4925094798373
 20
831.44347030254778
 30
0.0
 11
6517.4925094798364
 21
966.44347030254903
 31
0.0
 70
     0
 13
6665.5969733443908
 23
1101.4434703025479
 33
0.0
 14
6617.4925094798382
 24
831.44347030254778
 34
0.0
 50
90.0
  0
DIMENSION
  5
7C05
  8
SP
  2
*D63
 10
6612.4925094798373
 20
901.4434703025496
 30
0.0
 11
6587.4925094798373
 21
1001.443470302549
 31
0.0
 70
     0
 13
6665.5969733443908
 23
1101.4434703025479
 33
0.0
 14
6682.4925094798346
 24
901.4434703025496
 34
0.0
 50
90.0
  0
LINE
  5
7C06
  8
FUTO
 10
6617.4925094798382
 20
861.44347030254767
 30
0.0
 11
6617.4925094798382
 21
831.44347030254778
 31
0.0
  0
DIMENSION
  5
7C07
  8
SP
  2
*D64
 10
7067.4925094798382
 20
761.44347030254767
 30
0.0
 11
6954.9925094798382
 21
786.44347030254767
 31
0.0
 70
     0
 13
6842.4925094798382
 23
813.4886591495108
 33
0.0
 14
7067.4925094798382
 24
831.44347030254755
 34
0.0
  0
LINE
  5
7C08
  8
2
 10
6665.5969733443908
 20
1101.4434703025479
 30
0.0
 11
7048.66172400905
 21
1101.4434703025479
 31
0.0
  0
LINE
  5
7C09
  8
1
 10
6892.4925094798382
 20
1226.4434703025479
 30
0.0
 11
6977.4925094798373
 21
1155.1434703025479
 31
0.0
  0
DIMENSION
  5
7C0A
  8
SP
  2
*D65
 10
7010.4925094798364
 20
1331.4434703025479
 30
0.0
 11
6926.4925094798373
 21
1356.4434703025479
 31
0.0
 70
     0
 13
6842.4925094798382
 23
1277.6039837191479
 33
0.0
 14
7010.4925094798364
 24
1085.443470302549
 34
0.0
  0
LINE
  5
7C0B
  8
1
 10
6930.8403355667951
 20
1027.8434703025471
 30
0.0
 11
6973.2925094798366
 21
1027.8434703025471
 31
0.0
  0
LINE
  5
7C0C
  8
1
 10
6711.692509479838
 20
1029.4434703025479
 30
0.0
 11
6973.2925094798366
 21
1029.4434703025479
 31
0.0
  0
LINE
  5
7C0D
  8
1
 10
6677.4925094798373
 20
861.44347030254767
 30
0.0
 11
7007.49250947984
 21
861.44347030254801
 31
0.0
  0
ARC
  5
7C0E
  8
1
 10
6826.4925094798373
 20
1085.443470302549
 30
0.0
 40
184.0
 50
270.0
 51
7.3029112824112383
  0
ARC
  5
7C0F
  8
1
 10
6826.4925094798373
 20
1085.443470302549
 30
0.0
 40
195.0
 50
270.0
 51
7.3220595904489754
  0
ARC
  5
7C10
  8
1
 10
6856.4925094798373
 20
1087.443470302549
 30
0.0
 40
154.0
 50
38.213210701757461
 51
103.1027620341531
  0
ARC
  5
7C11
  8
1
 10
6856.4925094798373
 20
1087.443470302549
 30
0.0
 40
165.0
 50
42.833428066057223
 51
90.0
  0
LINE
  5
7C12
  8
1
 10
6682.4925094798346
 20
880.44347030254903
 30
0.0
 11
6682.4925094798346
 21
1122.443470302549
 31
0.0
  0
LINE
  5
7C13
  8
1
 10
6684.0925094798358
 20
880.44347030254903
 30
0.0
 11
6684.0925094798358
 21
1122.443470302549
 31
0.0
  0
LINE
  5
7C14
  8
1
 10
6697.4925094798364
 20
913.24347030254842
 30
0.0
 11
6697.4925094798364
 21
1089.6434703025491
 31
0.0
  0
CIRCLE
  5
7C15
  8
CT
 10
6842.4925094798382
 20
1101.4434703025479
 30
0.0
 40
110.0
  0
ARC
  5
7C16
  8
1
 10
6842.4925094798382
 20
1101.4434703025479
 30
0.0
 40
75.0
 50
292.30515321345479
 51
247.69484678654501
  0
CIRCLE
  5
7C17
  8
1
 10
6842.4925094798382
 20
1101.4434703025479
 30
0.0
 40
69.388168961305382
  0
CIRCLE
  5
7C18
  8
1
 10
6842.4925094798382
 20
1101.4434703025479
 30
0.0
 40
60.038630514616607
  0
LINE
  5
7C19
  8
1
 10
6709.0925094798386
 20
1156.485587949607
 30
0.0
 11
6709.0925094798386
 21
1026.843470302548
 31
0.0
  0
LINE
  5
7C1A
  8
1
 10
6707.4925094798382
 20
1155.1434703025479
 30
0.0
 11
6707.4925094798382
 21
861.44347030254767
 31
0.0
  0
LINE
  5
7C1B
  8
2
 10
6842.4925094798382
 20
1277.6039837191479
 30
0.0
 11
6842.4925094798382
 21
813.48865914951136
 31
0.0
  0
LINE
  5
7C1C
  8
1
 10
6826.4925094798373
 20
890.44347030254914
 30
0.0
 11
6697.4925094798364
 21
890.44347030254914
 31
0.0
  0
LINE
  5
7C1D
  8
1
 10
6826.4925094798373
 20
901.44347030254914
 30
0.0
 11
6682.4925094798391
 21
901.4434703025496
 31
0.0
  0
LINE
  5
7C1E
  8
1
 10
6802.4925094798373
 20
1030.4434703025479
 30
0.0
 11
6772.4925094798382
 21
1030.4434703025479
 31
0.0
  0
LINE
  5
7C1F
  8
1
 10
6754.1446833928812
 20
1027.8434703025471
 30
0.0
 11
6930.8403355667951
 21
1027.8434703025471
 31
0.0
  0
LINE
  5
7C20
  8
1
 10
6792.4925094798382
 20
1011.043470302548
 30
0.0
 11
6892.4925094798382
 21
1011.043470302548
 31
0.0
  0
LINE
  5
7C21
  8
1
 10
6711.692509479838
 20
1027.8434703025471
 30
0.0
 11
6754.1446833928812
 21
1027.8434703025471
 31
0.0
  0
LINE
  5
7C22
  8
1
 10
6709.0925094798386
 20
1026.843470302548
 30
0.0
 11
6709.0925094798386
 21
934.14347030254794
 31
0.0
  0
LINE
  5
7C23
  8
1
 10
6710.692509479838
 20
1026.8434703025471
 30
0.0
 11
6710.692509479838
 21
934.14347030254794
 31
0.0
  0
LINE
  5
7C24
  8
1
 10
6697.4925094798364
 20
890.44347030254949
 30
0.0
 11
6697.4925094798364
 21
901.44347030254914
 31
0.0
  0
LINE
  5
7C25
  8
1
 10
6709.0925094798386
 20
934.14347030254794
 30
0.0
 11
6709.0925094798386
 21
864.04347030254803
 31
0.0
  0
LINE
  5
7C26
  8
1
 10
6677.4925094798373
 20
863.04347030254803
 30
0.0
 11
6706.4925094798382
 21
863.04347030254803
 31
0.0
  0
LINE
  5
7C27
  8
1
 10
6684.0925094798358
 20
880.44347030254903
 30
0.0
 11
6682.4925094798346
 21
880.44347030254903
 31
0.0
  0
LINE
  5
7C28
  8
1
 10
6677.4925094798373
 20
863.04347030254803
 30
0.0
 11
6677.4925094798373
 21
861.44347030254801
 31
0.0
  0
ARC
  5
7C29
  8
1
 10
6706.4925094798382
 20
864.04347030254803
 30
0.0
 40
2.6000000000000001
 50
270.0
 51
0.0
  0
ARC
  5
7C2A
  8
1
 10
6706.4925094798382
 20
864.04347030254803
 30
0.0
 40
1.0
 50
270.0
 51
0.0
  0
LINE
  5
7C2B
  8
1
 10
6685.6925094798371
 20
901.44347030254914
 30
0.0
 11
6697.4925094798364
 21
913.24347030254842
 31
0.0
  0
LINE
  5
7C2C
  8
1
 10
6709.0925094798386
 20
934.14347030254794
 30
0.0
 11
6710.692509479838
 21
934.14347030254794
 31
0.0
  0
ARC
  5
7C2D
  8
1
 10
6711.692509479838
 20
1026.843470302548
 30
0.0
 40
2.6000000000000001
 50
90.0
 51
180.0
  0
ARC
  5
7C2E
  8
1
 10
6711.692509479838
 20
1026.8434703025471
 30
0.0
 40
1.0
 50
90.0
 51
180.0
  0
LINE
  5
7C2F
  8
1
 10
6792.4925094798382
 20
1011.043470302548
 30
0.0
 11
6750.4925094798382
 21
1029.4434703025479
 31
0.0
  0
LINE
  5
7C30
  8
CT
 10
6748.0427749989676
 20
1062.3211093180339
 30
0.0
 11
6733.539936690966
 21
1056.3138369979549
 31
0.0
  0
CIRCLE
  5
7C31
  8
1
 10
6740.8657609035972
 20
1059.3482927423879
 30
0.0
 40
4.0
  0
LINE
  5
7C32
  8
1
 10
6772.4925094798382
 20
1030.4434703025479
 30
0.0
 11
6789.9618579658318
 21
1047.912818788541
 31
0.0
  0
LINE
  5
7C33
  8
1
 10
6772.4925094798382
 20
1030.4434703025479
 30
0.0
 11
6772.4925094798382
 21
1029.4434703025479
 31
0.0
  0
LINE
  5
7C34
  8
1
 10
6786.4925094798382
 20
1021.443470302548
 30
0.0
 11
6786.4925094798382
 21
1039.370534516871
 31
0.0
  0
LINE
  5
7C35
  8
1
 10
6882.4925094798382
 20
1030.4434703025479
 30
0.0
 11
6874.3136492243193
 21
1033.5287070668389
 31
0.0
  0
LINE
  5
7C36
  8
1
 10
6870.9579623692152
 20
1032.0553013412421
 30
0.0
 11
6814.0270565904611
 21
1032.0553013412421
 31
0.0
  0
LINE
  5
7C37
  8
CT
 10
6803.3701484953253
 20
1006.993735821678
 30
0.0
 11
6797.3628761752461
 21
992.49089751367592
 31
0.0
  0
CIRCLE
  5
7C38
  8
1
 10
6800.3973319196793
 20
999.81672172630749
 30
0.0
 40
4.0
  0
LINE
  5
7C39
  8
1
 10
6802.4925094798373
 20
1030.4434703025479
 30
0.0
 11
6802.4925094798373
 21
1029.4434703025479
 31
0.0
  0
LINE
  5
7C3A
  8
1
 10
6802.4925094798373
 20
1030.4434703025479
 30
0.0
 11
6810.671369735358
 21
1033.5287070668389
 31
0.0
  0
LINE
  5
7C3B
  8
1
 10
6892.4925094798382
 20
1011.043470302548
 30
0.0
 11
6934.4925094798382
 21
1029.4434703025479
 31
0.0
  0
LINE
  5
7C3C
  8
CT
 10
6881.614870464352
 20
1006.993735821678
 30
0.0
 11
6887.622142784433
 21
992.49089751367546
 31
0.0
  0
CIRCLE
  5
7C3D
  8
1
 10
6884.5876870399989
 20
999.81672172630635
 30
0.0
 40
4.0
  0
LINE
  5
7C3E
  8
1
 10
6912.4925094798391
 20
1030.4434703025479
 30
0.0
 11
6895.0231609938446
 21
1047.912818788541
 31
0.0
  0
LINE
  5
7C3F
  8
1
 10
6882.4925094798382
 20
1030.4434703025479
 30
0.0
 11
6912.4925094798391
 21
1030.4434703025479
 31
0.0
  0
LINE
  5
7C40
  8
1
 10
6882.4925094798382
 20
1030.4434703025479
 30
0.0
 11
6882.4925094798382
 21
1029.4434703025479
 31
0.0
  0
LINE
  5
7C41
  8
1
 10
6912.4925094798391
 20
1030.4434703025479
 30
0.0
 11
6912.4925094798391
 21
1029.4434703025479
 31
0.0
  0
LINE
  5
7C42
  8
1
 10
6898.4925094798382
 20
1021.443470302548
 30
0.0
 11
6898.4925094798382
 21
1039.370534516871
 31
0.0
  0
LINE
  5
7C43
  8
CT
 10
6936.9422439607088
 20
1062.3211093180339
 30
0.0
 11
6951.4450822687122
 21
1056.3138369979549
 31
0.0
  0
CIRCLE
  5
7C44
  8
1
 10
6944.119258056081
 20
1059.348292742389
 30
0.0
 40
4.0
  0
LINE
  5
7C45
  8
1
 10
6792.4925094798382
 20
1226.443470302547
 30
0.0
 11
6892.4925094798382
 21
1226.4434703025479
 31
0.0
  0
ARC
  5
7C46
  8
1
 10
6853.4925094798373
 20
1112.443470302549
 30
0.0
 40
140.0
 50
90.0
 51
168.44161984437221
  0
ARC
  5
7C47
  8
1
 10
6853.4925094798373
 20
1112.443470302549
 30
0.0
 40
129.0
 50
104.3223043379403
 51
168.7702059314644
  0
DIMENSION
  5
7C48
  8
SP
  2
*D47
 10
6682.4925094798346
 20
1331.4434703025479
 30
0.0
 11
6762.4925094798373
 21
1356.4434703025479
 31
0.0
 70
     0
 13
6842.4925094798382
 23
1277.6039837191479
 33
0.0
 14
6682.4925094798346
 24
1122.443470302549
 34
0.0
  0
ARC
  5
7C49
  8
1
 10
6649.4925094798364
 20
1164.443470302549
 30
0.0
 40
82.0
 50
312.59881289245322
 51
340.86590752557811
  0
ARC
  5
7C4A
  8
1
 10
6649.4925094798364
 20
1164.443470302549
 30
0.0
 40
71.0
 50
324.77580501937922
 51
340.2871812588682
  0
LINE
  5
7C4B
  8
1
 10
6792.4925094798382
 20
1226.4434703025479
 30
0.0
 11
6707.4925094798382
 21
1155.1434703025479
 31
0.0
  0
LINE
  5
7C4C
  8
1
 10
6697.4925094798364
 20
1101.443470302549
 30
0.0
 11
6684.0925094798358
 21
1101.443470302549
 31
0.0
  0
LINE
  5
7C4D
  8
1
 10
6685.6925094798371
 20
1101.443470302549
 30
0.0
 11
6697.4925094798364
 21
1089.6434703025491
 31
0.0
  0
LINE
  5
7C4E
  8
1
 10
6684.0925094798358
 20
1122.443470302549
 30
0.0
 11
6682.4925094798346
 21
1122.443470302549
 31
0.0
  0
LINE
  5
7C4F
  8
1
 10
6697.4925094798364
 20
1101.4434703025479
 30
0.0
 11
6697.4925094798364
 21
1112.127124864435
 31
0.0
  0
LINE
  5
7C50
  8
1
 10
6697.4925094798364
 20
1101.443470302549
 30
0.0
 11
6698.2264812038829
 21
1101.443470302549
 31
0.0
  0
ARC
  5
7C51
  8
1
 10
6649.4925094798364
 20
1164.443470302549
 30
0.0
 40
71.0
 50
312.53623473353622
 51
324.77580501937922
  0
ARC
  5
7C52
  8
1
 10
6698.2264812038829
 20
1111.443470302549
 30
0.0
 40
10.0
 50
270.0
 51
312.59881289245322
  0
LINE
  5
7C53
  8
CT
 10
6748.0427749989676
 20
1140.5658312870621
 30
0.0
 11
6733.539936690966
 21
1146.5731036071411
 31
0.0
  0
CIRCLE
  5
7C54
  8
1
 10
6740.865760903599
 20
1143.5386478627081
 30
0.0
 40
4.0
  0
LINE
  5
7C55
  8
CT
 10
6803.3701484953253
 20
1195.8932047834171
 30
0.0
 11
6797.3628761752461
 21
1210.3960430914201
 31
0.0
  0
CIRCLE
  5
7C56
  8
1
 10
6800.3973319196793
 20
1203.07021887879
 30
0.0
 40
4.0
  0
LINE
  5
7C57
  8
1
 10
6853.4925094798373
 20
1252.443470302549
 30
0.0
 11
6856.4925094798391
 21
1252.443470302549
 31
0.0
  0
LINE
  5
7C58
  8
CT
 10
6936.9422439607069
 20
1140.565831287061
 30
0.0
 11
6951.4450822687122
 21
1146.57310360714
 31
0.0
  0
CIRCLE
  5
7C59
  8
1
 10
6944.119258056081
 20
1143.538647862707
 30
0.0
 40
4.0
  0
LINE
  5
7C5A
  8
CT
 10
6881.614870464352
 20
1195.8932047834171
 30
0.0
 11
6887.622142784433
 21
1210.3960430914201
 31
0.0
  0
CIRCLE
  5
7C5B
  8
1
 10
6884.5876870399989
 20
1203.07021887879
 30
0.0
 40
4.0
  0
LINE
  5
7C5C
  8
1
 10
6975.8925094798378
 20
1156.485587949607
 30
0.0
 11
6975.8925094798378
 21
1029.4434703025479
 31
0.0
  0
LINE
  5
7C5D
  8
1
 10
6977.4925094798373
 20
1155.1434703025479
 30
0.0
 11
6977.4925094798373
 21
861.44347030254767
 31
0.0
  0
LINE
  5
7C5E
  8
FUTO
 10
7067.4925094798382
 20
861.44347030254767
 30
0.0
 11
7067.4925094798382
 21
831.44347030254755
 31
0.0
  0
LINE
  5
7C5F
  8
1
 10
6975.8925094798378
 20
1026.843470302548
 30
0.0
 11
6975.8925094798378
 21
934.14347030254794
 31
0.0
  0
LINE
  5
7C60
  8
1
 10
6974.2925094798384
 20
1026.8434703025471
 30
0.0
 11
6974.2925094798384
 21
934.14347030254794
 31
0.0
  0
LINE
  5
7C61
  8
1
 10
6978.4925094798382
 20
863.04347030254803
 30
0.0
 11
7007.49250947984
 21
863.04347030254803
 31
0.0
  0
LINE
  5
7C62
  8
1
 10
6975.8925094798378
 20
934.14347030254794
 30
0.0
 11
6975.8925094798378
 21
864.04347030254803
 31
0.0
  0
ARC
  5
7C63
  8
1
 10
6978.4925094798382
 20
864.04347030254803
 30
0.0
 40
1.0
 50
180.0
 51
270.0
  0
ARC
  5
7C64
  8
1
 10
6978.4925094798382
 20
864.04347030254803
 30
0.0
 40
2.6000000000000001
 50
180.0
 51
270.0
  0
LINE
  5
7C65
  8
1
 10
6974.2925094798384
 20
934.14347030254794
 30
0.0
 11
6975.8925094798378
 21
934.14347030254794
 31
0.0
  0
LINE
  5
7C66
  8
1
 10
7007.4925094798382
 20
863.04347030254803
 30
0.0
 11
7007.49250947984
 21
861.44347030254801
 31
0.0
  0
ARC
  5
7C67
  8
1
 10
6973.2925094798366
 20
1026.8434703025471
 30
0.0
 40
1.0
 50
0.0
 51
90.0
  0
ARC
  5
7C68
  8
1
 10
6973.2925094798366
 20
1026.843470302548
 30
0.0
 40
2.6000000000000001
 50
0.0
 51
90.0
  0
ARC
  5
7C69
  8
1
 10
6856.4925094798373
 20
1087.443470302549
 30
0.0
 40
165.0
 50
7.9609047373633324
 51
42.833428066057223
  0
ARC
  5
7C6A
  8
1
 10
6856.4925094798373
 20
1087.443470302549
 30
0.0
 40
154.0
 50
7.9836585559416786
 51
38.213210701757461
  0
LINE
  5
7C6B
  8
FUTO
 10
7067.4925094798373
 20
1594.773010839383
 30
0.0
 11
6617.4925094798373
 21
1594.7730108393839
 31
0.0
  0
LINE
  5
7C6C
  8
FUTO
 10
7067.4925094798373
 20
1564.773010839383
 30
0.0
 11
6617.4925094798373
 21
1564.773010839383
 31
0.0
  0
DIMENSION
  5
7C6D
  8
SP
  2
*D48
 10
6617.4925094798373
 20
2134.773010839383
 30
0.0
 11
6842.4925094798373
 21
2159.773010839383
 31
0.0
 70
     0
 13
7067.4925094798373
 23
2064.773010839383
 33
0.0
 14
6617.4925094798373
 24
2064.773010839383
 34
0.0
 50
180.0
  0
LINE
  5
7C6E
  8
FUTO
 10
7067.4925094798373
 20
2034.773010839383
 30
0.0
 11
6617.4925094798373
 21
2034.773010839383
 31
0.0
  0
LINE
  5
7C6F
  8
FUTO
 10
7067.4925094798373
 20
2064.773010839383
 30
0.0
 11
6617.4925094798373
 21
2064.773010839383
 31
0.0
  0
LINE
  5
7C70
  8
FUTO
 10
6617.4925094798373
 20
1594.7730108393839
 30
0.0
 11
6617.4925094798373
 21
1564.773010839383
 31
0.0
  0
LINE
  5
7C71
  8
FUTO
 10
6617.4925094798373
 20
2064.773010839383
 30
0.0
 11
6617.4925094798336
 21
2034.773010839383
 31
0.0
  0
LINE
  5
7C72
  8
1
  6
CONTINUOUS
 10
6684.0925094798349
 20
1980.773010839383
 30
0.0
 11
7000.4925094798373
 21
1980.7730108393839
 31
0.0
  0
LINE
  5
7C73
  8
1
  6
CONTINUOUS
 10
6684.0925094798349
 20
1981.7730108393839
 30
0.0
 11
7000.4925094798373
 21
1981.7730108393839
 31
0.0
  0
LINE
  5
7C74
  8
2
 10
7032.349934596753
 20
1910.773010839383
 30
0.0
 11
6655.1918686022937
 21
1910.773010839383
 31
0.0
  0
LINE
  5
7C75
  8
FUTO
 10
6725.4925094798373
 20
1987.773010839383
 30
0.0
 11
6959.4925094798364
 21
1987.773010839383
 31
0.0
  0
LINE
  5
7C76
  8
FUTO
 10
6977.4925094798364
 20
1657.8730108393841
 30
0.0
 11
6917.4925094798373
 21
1657.8730108393841
 31
0.0
  0
LINE
  5
7C77
  8
1
  6
CONTINUOUS
 10
6682.4925094798346
 20
1840.7730108393839
 30
0.0
 11
7000.4925094798373
 21
1840.7730108393839
 31
0.0
  0
LINE
  5
7C78
  8
1
  6
CONTINUOUS
 10
6682.4925094798346
 20
1839.773010839383
 30
0.0
 11
7000.4925094798373
 21
1839.773010839383
 31
0.0
  0
LINE
  5
7C79
  8
FUTO
 10
6707.4925094798364
 20
1833.773010839383
 30
0.0
 11
6977.4925094798364
 21
1833.773010839383
 31
0.0
  0
LINE
  5
7C7A
  8
1
  6
CONTINUOUS
 10
6977.4925094798364
 20
1792.773010839383
 30
0.0
 11
6905.742881036289
 21
1792.7730108393839
 31
0.0
  0
LINE
  5
7C7B
  8
FUTO
 10
6707.4925094798364
 20
2034.773010839383
 30
0.0
 11
6707.4925094798336
 21
1981.7730108393839
 31
0.0
  0
LINE
  5
7C7C
  8
FUTO
 10
6677.4925094798364
 20
2034.773010839383
 30
0.0
 11
6677.4925094798364
 21
1594.7730108393839
 31
0.0
  0
LINE
  5
7C7D
  8
1
 10
6682.4925094798346
 20
1819.773010839383
 30
0.0
 11
6682.4925094798346
 21
2001.7730108393839
 31
0.0
  0
LINE
  5
7C7E
  8
1
 10
6684.0925094798349
 20
1819.773010839383
 30
0.0
 11
6684.0925094798349
 21
2001.7730108393839
 31
0.0
  0
LINE
  5
7C7F
  8
2
 10
6842.4925094798373
 20
2006.3727430896729
 30
0.0
 11
6842.4925094798373
 21
1586.0986120780519
 31
0.0
  0
LINE
  5
7C80
  8
1
 10
6905.742881036289
 20
1803.273010839383
 30
0.0
 11
6779.242137923382
 21
1803.2730108393839
 31
0.0
  0
LINE
  5
7C81
  8
1
 10
6902.531139994453
 20
1610.773010839383
 30
0.0
 11
6782.4538789652197
 21
1610.773010839383
 31
0.0
  0
LINE
  5
7C82
  8
1
 10
6917.4925094798373
 20
1645.6961018483551
 30
0.0
 11
6773.1043405185301
 21
1645.6961018483551
 31
0.0
  0
LINE
  5
7C83
  8
2
 10
6926.1998088783967
 20
1731.7730108393839
 30
0.0
 11
6758.785210081277
 21
1731.7730108393839
 31
0.0
  0
LINE
  5
7C84
  8
1
 10
6917.4925094798373
 20
1672.6398850382479
 30
0.0
 11
6773.1043405185301
 21
1672.6398850382479
 31
0.0
  0
LINE
  5
7C85
  8
1
 10
6779.242137923382
 20
1672.6398850382479
 30
0.0
 11
6779.242137923382
 21
1803.273010839383
 31
0.0
  0
LINE
  5
7C86
  8
FUTO
 10
6707.4925094798336
 20
1839.773010839383
 30
0.0
 11
6707.4925094798364
 21
1594.7730108393839
 31
0.0
  0
LINE
  5
7C87
  8
FUTO
 10
6707.4925094798364
 20
1657.8730108393841
 30
0.0
 11
6773.1043405185301
 21
1657.873010839385
 31
0.0
  0
LINE
  5
7C88
  8
CT
 10
6642.4925094798364
 20
1565.313531280914
 30
0.0
 11
6642.4925094798364
 21
1590.232490397852
 31
0.0
  0
LINE
  5
7C89
  8
CT
 10
6654.9519890383053
 20
1577.773010839383
 30
0.0
 11
6630.0330299213674
 21
1577.773010839383
 31
0.0
  0
CIRCLE
  5
7C8A
  8
FUTO
 10
6642.4925094798364
 20
1577.773010839383
 30
0.0
 40
6.5
  0
LINE
  5
7C8B
  8
FUTO
 10
6707.4925094798364
 20
1663.773010839383
 30
0.0
 11
6677.4925094798364
 21
1663.773010839383
 31
0.0
  0
LINE
  5
7C8C
  8
1
 10
6773.1043405185301
 20
1672.6398850382479
 30
0.0
 11
6773.1043405185301
 21
1645.6961018483551
 31
0.0
  0
LINE
  5
7C8D
  8
1
 10
6782.4538789652197
 20
1610.773010839383
 30
0.0
 11
6775.9881863655446
 21
1645.6961018483551
 31
0.0
  0
LINE
  5
7C8E
  8
1
  6
CONTINUOUS
 10
6779.2421379233838
 20
1792.7730108393839
 30
0.0
 11
6709.4925094798364
 21
1792.7730108393839
 31
0.0
  0
LINE
  5
7C8F
  8
1
  6
CONTINUOUS
 10
6700.4566557688504
 20
1966.773010839383
 30
0.0
 11
6700.4566557688504
 21
1854.773010839383
 31
0.0
  0
LINE
  5
7C90
  8
2
 10
6684.0925094798349
 20
1819.773010839383
 30
0.0
 11
6682.4925094798346
 21
1819.773010839383
 31
0.0
  0
LINE
  5
7C91
  8
1
  6
CONTINUOUS
 10
6685.4566557688504
 20
1839.773010839383
 30
0.0
 11
6700.4566557688504
 21
1854.773010839383
 31
0.0
  0
LINE
  5
7C92
  8
FUTO
 10
6707.4925094798364
 20
1833.773010839383
 30
0.0
 11
6677.4925094798364
 21
1833.773010839383
 31
0.0
  0
LINE
  5
7C93
  8
1
  6
CONTINUOUS
 10
6685.4566557688504
 20
1981.7730108393839
 30
0.0
 11
6700.4566557688504
 21
1966.773010839383
 31
0.0
  0
ARC
  5
7C94
  8
1
 10
6719.4925094798364
 20
1837.773010839383
 30
0.0
 40
3.0
 50
0.0
 51
41.810314895788572
  0
LINE
  5
7C95
  8
1
 10
6722.4925094798364
 20
1837.773010839383
 30
0.0
 11
6722.4925094798364
 21
1836.7730108393839
 31
0.0
  0
ARC
  5
7C96
  8
1
 10
6725.4925094798373
 20
1836.7730108393839
 30
0.0
 40
3.0
 50
180.0
 51
270.0
  0
ARC
  5
7C97
  8
1
 10
6725.4925094798373
 20
1984.773010839383
 30
0.0
 40
3.0
 50
90.0
 51
180.0
  0
LINE
  5
7C98
  8
1
 10
6722.4925094798364
 20
1983.773010839383
 30
0.0
 11
6722.4925094798364
 21
1984.773010839383
 31
0.0
  0
ARC
  5
7C99
  8
1
 10
6719.4925094798364
 20
1983.773010839383
 30
0.0
 40
3.0
 50
318.18968510421138
 51
0.0
  0
LINE
  5
7C9A
  8
1
 10
6905.742881036289
 20
1672.6398850382479
 30
0.0
 11
6905.742881036289
 21
1803.273010839383
 31
0.0
  0
LINE
  5
7C9B
  8
1
 10
6917.4925094798373
 20
1645.6961018483551
 30
0.0
 11
6917.4925094798373
 21
1672.6398850382479
 31
0.0
  0
POINT
  5
7C9C
  8
1
 10
6902.531139994453
 20
1610.773010839383
 30
0.0
  0
LINE
  5
7C9D
  8
1
 10
6902.531139994453
 20
1610.773010839383
 30
0.0
 11
6913.8461020438826
 21
1645.6961018483551
 31
0.0
  0
LINE
  5
7C9E
  8
FUTO
 10
6862.4925094798373
 20
1821.773010839383
 30
0.0
 11
6822.4925094798364
 21
1821.7730108393839
 31
0.0
  0
LINE
  5
7C9F
  8
1
 10
6853.9071295695794
 20
1808.273010839383
 30
0.0
 11
6831.0778893900906
 21
1808.273010839383
 31
0.0
  0
LINE
  5
7CA0
  8
1
 10
6833.4925094798364
 20
1808.273010839383
 30
0.0
 11
6833.4925094798364
 21
1821.773010839383
 31
0.0
  0
LINE
  5
7CA1
  8
1
 10
6831.0778893900906
 20
1803.273010839383
 30
0.0
 11
6831.0778893900906
 21
1808.273010839383
 31
0.0
  0
LINE
  5
7CA2
  8
FUTO
 10
6822.4925094798364
 20
1833.773010839383
 30
0.0
 11
6822.4925094798364
 21
1821.773010839383
 31
0.0
  0
LINE
  5
7CA3
  8
1
 10
6851.4925094798373
 20
1808.273010839383
 30
0.0
 11
6851.4925094798373
 21
1821.773010839383
 31
0.0
  0
LINE
  5
7CA4
  8
1
 10
6853.9071295695794
 20
1803.273010839383
 30
0.0
 11
6853.9071295695794
 21
1808.273010839383
 31
0.0
  0
LINE
  5
7CA5
  8
FUTO
 10
6862.4925094798373
 20
1833.773010839383
 30
0.0
 11
6862.4925094798373
 21
1821.773010839383
 31
0.0
  0
LINE
  5
7CA6
  8
CT
 10
6642.4925094798364
 20
2064.232490397852
 30
0.0
 11
6642.4925094798364
 21
2039.313531280914
 31
0.0
  0
CIRCLE
  5
7CA7
  8
FUTO
 10
6642.4925094798364
 20
2051.773010839383
 30
0.0
 40
6.5
  0
LINE
  5
7CA8
  8
CT
 10
6654.9519890383053
 20
2051.773010839383
 30
0.0
 11
6630.0330299213674
 21
2051.773010839383
 31
0.0
  0
LINE
  5
7CA9
  8
2
 10
6684.0925094798349
 20
2001.7730108393839
 30
0.0
 11
6682.4925094798346
 21
2001.7730108393839
 31
0.0
  0
LINE
  5
7CAA
  8
FUTO
 10
7007.4925094798364
 20
2034.773010839383
 30
0.0
 11
7007.4925094798364
 21
1979.258292213621
 31
0.0
  0
LINE
  5
7CAB
  8
FUTO
 10
6977.4925094798373
 20
2034.773010839383
 30
0.0
 11
6977.4925094798373
 21
1981.7730108393839
 31
0.0
  0
DIMENSION
  5
7CAC
  8
SP
  2
*D49
 10
7158.2039258124969
 20
2064.773010839383
 30
0.0
 11
7133.203925812496
 21
1987.7730108393839
 31
0.0
 70
     0
 13
7032.349934596753
 23
1910.773010839383
 33
0.0
 14
7067.4925094798373
 24
2064.773010839383
 34
0.0
 50
90.0
  0
DIMENSION
  5
7CAD
  8
SP
  2
*D50
 10
7246.8791319453931
 20
1564.773010839383
 30
0.0
 11
7221.8791319453921
 21
1814.7730108393839
 31
0.0
 70
     0
 13
7067.4925094798373
 23
2064.773010839383
 33
0.0
 14
7067.4925094798373
 24
1564.773010839383
 34
0.0
 50
90.0
  0
DIMENSION
  5
7CAE
  8
SP
  2
*D51
 10
7158.2039258124969
 20
1564.773010839383
 30
0.0
 11
7133.203925812496
 21
1737.7730108393851
 31
0.0
 70
     0
 13
7032.349934596753
 23
1910.773010839383
 33
0.0
 14
7067.4925094798373
 24
1564.773010839383
 34
0.0
 50
90.0
  0
LINE
  5
7CAF
  8
FUTO
 10
7007.4925094798364
 20
1842.287729465145
 30
0.0
 11
7007.4925094798364
 21
1594.773010839383
 31
0.0
  0
LINE
  5
7CB0
  8
FUTO
 10
6977.4925094798364
 20
1839.773010839383
 30
0.0
 11
6977.4925094798364
 21
1594.773010839383
 31
0.0
  0
CIRCLE
  5
7CB1
  8
FUTO
 10
7042.4925094798373
 20
1577.773010839383
 30
0.0
 40
6.5
  0
LINE
  5
7CB2
  8
CT
 10
7054.9519890383053
 20
1577.773010839383
 30
0.0
 11
7030.0330299213674
 21
1577.773010839383
 31
0.0
  0
LINE
  5
7CB3
  8
FUTO
 10
6977.4925094798364
 20
1663.773010839383
 30
0.0
 11
7007.4925094798364
 21
1663.773010839383
 31
0.0
  0
LINE
  5
7CB4
  8
CT
 10
7042.4925094798373
 20
1565.313531280914
 30
0.0
 11
7042.4925094798373
 21
1590.232490397852
 31
0.0
  0
LINE
  5
7CB5
  8
FUTO
 10
7067.4925094798373
 20
1594.773010839383
 30
0.0
 11
7067.4925094798373
 21
1564.773010839383
 31
0.0
  0
LINE
  5
7CB6
  8
FUTO
 10
7010.4925094798364
 20
1970.773010839383
 30
0.0
 11
7010.4925094798364
 21
1850.773010839383
 31
0.0
  0
LINE
  5
7CB7
  8
FUTO
 10
7011.4925094798364
 20
1970.773010839383
 30
0.0
 11
7011.4925094798364
 21
1850.773010839383
 31
0.0
  0
LINE
  5
7CB8
  8
FUTO
 10
6977.4925094798364
 20
1833.773010839383
 30
0.0
 11
7007.4925094798364
 21
1833.773010839383
 31
0.0
  0
LINE
  5
7CB9
  8
1
 10
6962.4925094798373
 20
1837.773010839383
 30
0.0
 11
6962.4925094798373
 21
1836.7730108393839
 31
0.0
  0
ARC
  5
7CBA
  8
1
 10
6965.4925094798373
 20
1837.773010839383
 30
0.0
 40
3.0
 50
138.18968510421141
 51
180.0
  0
ARC
  5
7CBB
  8
1
 10
6959.4925094798364
 20
1836.7730108393839
 30
0.0
 40
3.0
 50
270.0
 51
0.0
  0
ARC
  5
7CBC
  8
FUTO
 10
7000.4925094798373
 20
1850.773010839383
 30
0.0
 40
10.0
 50
270.0
 51
0.0
  0
ARC
  5
7CBD
  8
FUTO
 10
7000.4925094798373
 20
1850.773010839383
 30
0.0
 40
11.0
 50
270.0
 51
0.0
  0
ARC
  5
7CBE
  8
1
 10
6959.4925094798364
 20
1984.773010839383
 30
0.0
 40
3.0
 50
0.0
 51
90.0
  0
ARC
  5
7CBF
  8
1
 10
6965.4925094798373
 20
1983.773010839383
 30
0.0
 40
3.0
 50
180.0
 51
221.81031489578851
  0
LINE
  5
7CC0
  8
1
 10
6962.4925094798373
 20
1983.773010839383
 30
0.0
 11
6962.4925094798373
 21
1984.773010839383
 31
0.0
  0
ARC
  5
7CC1
  8
FUTO
 10
7000.4925094798373
 20
1970.773010839383
 30
0.0
 40
10.0
 50
0.0
 51
90.0
  0
ARC
  5
7CC2
  8
FUTO
 10
7000.4925094798373
 20
1970.773010839383
 30
0.0
 40
11.0
 50
0.0
 51
90.0
  0
LINE
  5
7CC3
  8
CT
 10
7054.9519890383053
 20
2051.773010839383
 30
0.0
 11
7030.0330299213674
 21
2051.773010839383
 31
0.0
  0
CIRCLE
  5
7CC4
  8
FUTO
 10
7042.4925094798373
 20
2051.773010839383
 30
0.0
 40
6.5
  0
LINE
  5
7CC5
  8
CT
 10
7042.4925094798373
 20
2064.232490397852
 30
0.0
 11
7042.4925094798373
 21
2039.313531280914
 31
0.0
  0
LINE
  5
7CC6
  8
FUTO
 10
7067.4925094798373
 20
2064.773010839383
 30
0.0
 11
7067.4925094798373
 21
2034.773010839383
 31
0.0
  0
DIMENSION
  5
7CC7
  8
3
  2
*D52
 10
7968.6777456247846
 20
1001.443470302548
 30
0.0
 11
7943.6777456247864
 21
1101.443470302549
 31
0.0
 70
     0
  1
%%c<>
 13
7821.8241808568891
 23
1201.4434703025479
 33
0.0
 14
7821.8241808568891
 24
1001.443470302548
 34
0.0
 50
90.0
  0
DIMENSION
  5
7CC8
  8
SP
  2
*D53
 10
7398.824180856891
 20
761.44347030254846
 30
0.0
 11
7571.8241808568901
 21
786.44347030254846
 31
0.0
 70
     0
 13
7744.8241808568891
 23
814.34836912299488
 33
0.0
 14
7398.824180856891
 24
861.44347030254846
 34
0.0
  0
DIMENSION
  5
7CC9
  8
SP
  2
*D54
 10
7898.824180856891
 20
691.44347030254835
 30
0.0
 11
7648.824180856891
 21
716.44347030254835
 31
0.0
 70
     0
 13
7398.824180856891
 23
861.44347030254846
 33
0.0
 14
7898.824180856891
 24
861.44347030254846
 34
0.0
  0
LINE
  5
7CCA
  8
FUTO
 10
7428.824180856891
 20
861.44347030254846
 30
0.0
 11
7868.8241808568919
 21
861.44347030254846
 31
0.0
  0
LINE
  5
7CCB
  8
FUTO
 10
7428.824180856891
 20
831.44347030254846
 30
0.0
 11
7868.8241808568919
 21
831.44347030254846
 31
0.0
  0
DIMENSION
  5
7CCC
  8
SP
  2
*D55
 10
7444.8241808568901
 20
1382.4434703025479
 30
0.0
 11
7594.824180856891
 21
1407.4434703025479
 31
0.0
 70
     0
 13
7744.824180856891
 23
1346.0584328235329
 33
0.0
 14
7444.8241808568901
 24
1161.482100817165
 34
0.0
  0
LINE
  5
7CCD
  8
1
 10
7624.5241808568917
 20
1121.4434703025479
 30
0.0
 11
7497.8241808568919
 21
863.04347030254871
 31
0.0
  0
LINE
  5
7CCE
  8
1
 10
7697.824180856891
 20
861.44347030254869
 30
0.0
 11
7497.8241808568919
 21
861.44347030254869
 31
0.0
  0
LINE
  5
7CCF
  8
1
 10
7666.2241808568897
 20
863.04347030254849
 30
0.0
 11
7497.8241808568919
 21
863.04347030254871
 31
0.0
  0
LINE
  5
7CD0
  8
1
 10
7506.691055055755
 20
1164.6938418590021
 30
0.0
 11
7637.3241808568901
 21
1164.6938418590021
 31
0.0
  0
LINE
  5
7CD1
  8
2
 10
7874.1208179903888
 20
1101.443470302549
 30
0.0
 11
7413.3783704272591
 21
1101.4434703025479
 31
0.0
  0
LINE
  5
7CD2
  8
SL
 10
7411.824180856891
 20
845.6363614354334
 30
0.0
 11
7411.824180856891
 21
1177.821409120816
 31
0.0
  0
LINE
  5
7CD3
  8
1
 10
7444.8241808568901
 20
1161.482100817165
 30
0.0
 11
7444.8241808568901
 21
1041.404839787931
 31
0.0
  0
LINE
  5
7CD4
  8
1
 10
7506.691055055755
 20
1176.4434703025479
 30
0.0
 11
7506.691055055755
 21
1032.055301341243
 31
0.0
  0
LINE
  5
7CD5
  8
1
 10
7479.7472718658619
 20
1176.4434703025479
 30
0.0
 11
7479.7472718658619
 21
1032.055301341243
 31
0.0
  0
LINE
  5
7CD6
  8
2
 10
7565.8241808568919
 20
1189.7346243490799
 30
0.0
 11
7565.8241808568919
 21
1022.32002555196
 31
0.0
  0
LINE
  5
7CD7
  8
1
 10
7444.8241808568901
 20
1041.404839787931
 30
0.0
 11
7479.7472718658619
 21
1034.939147188257
 31
0.0
  0
LINE
  5
7CD8
  8
FUTO
 10
7425.824180856891
 20
854.44347030254846
 30
0.0
 11
7425.824180856891
 21
833.44347030254858
 31
0.0
  0
LINE
  5
7CD9
  8
FUTO
 10
7428.824180856891
 20
861.44347030254846
 30
0.0
 11
7428.824180856891
 21
831.44347030254846
 31
0.0
  0
ARC
  5
7CDA
  8
FUTO
 10
7427.824180856891
 20
833.44347030254858
 30
0.0
 40
2.0
 50
180.0
 51
270.0
  0
LINE
  5
7CDB
  8
FUTO
 10
7428.824180856891
 20
831.44347030254846
 30
0.0
 11
7427.824180856891
 21
831.44347030254846
 31
0.0
  0
LINE
  5
7CDC
  8
FUTO
 10
7421.824180856891
 20
858.44347030254858
 30
0.0
 11
7400.824180856891
 21
858.44347030254858
 31
0.0
  0
LINE
  5
7CDD
  8
FUTO
 10
7428.824180856891
 20
861.44347030254846
 30
0.0
 11
7398.824180856891
 21
861.44347030254846
 31
0.0
  0
ARC
  5
7CDE
  8
FUTO
 10
7400.824180856891
 20
860.44347030254858
 30
0.0
 40
2.0
 50
180.0
 51
270.0
  0
LINE
  5
7CDF
  8
FUTO
 10
7398.824180856891
 20
861.44347030254846
 30
0.0
 11
7398.824180856891
 21
860.44347030254858
 31
0.0
  0
ARC
  5
7CE0
  8
FUTO
 10
7421.824180856891
 20
854.44347030254846
 30
0.0
 40
4.0
 50
0.0
 51
90.0
  0
LINE
  5
7CE1
  8
1
 10
7510.8241808568901
 20
1039.03531039771
 30
0.0
 11
7538.7678163267219
 21
1039.03531039771
 31
0.0
  0
LINE
  5
7CE2
  8
1
 10
7535.824180856891
 20
1030.4434703025479
 30
0.0
 11
7510.8241808568901
 21
1030.4434703025479
 31
0.0
  0
LINE
  5
7CE3
  8
1
 10
7498.9241808568922
 20
1029.4434703025479
 30
0.0
 11
7534.7558581203048
 21
952.53448734751805
 31
0.0
  0
LINE
  5
7CE4
  8
1
 10
7497.3099101328608
 20
1027.843470302548
 30
0.0
 11
7575.955847523559
 21
1027.843470302548
 31
0.0
  0
LINE
  5
7CE5
  8
1
 10
7576.483764190225
 20
1030.4434703025479
 30
0.0
 11
7510.8241808568901
 21
1030.4434703025479
 31
0.0
  0
LINE
  5
7CE6
  8
1
 10
7494.5241808568917
 20
1029.4434703025479
 30
0.0
 11
7575.955847523559
 21
1029.4434703025479
 31
0.0
  0
LINE
  5
7CE7
  8
1
 10
7497.8241808568919
 20
863.04347030254871
 30
0.0
 11
7497.8241808568919
 21
861.44347030254869
 31
0.0
  0
LINE
  5
7CE8
  8
1
 10
7506.691055055755
 20
1032.055301341243
 30
0.0
 11
7479.7472718658619
 21
1032.055301341243
 31
0.0
  0
LINE
  5
7CE9
  8
1
 10
7493.5241808568908
 20
1026.8434703025489
 30
0.0
 11
7493.5241808568908
 21
1011.043470302548
 31
0.0
  0
LINE
  5
7CEA
  8
1
 10
7491.9241808568913
 20
1026.8434703025489
 30
0.0
 11
7491.9241808568913
 21
1011.043470302548
 31
0.0
  0
LINE
  5
7CEB
  8
1
 10
7491.9241808568913
 20
1011.043470302548
 30
0.0
 11
7493.5241808568908
 21
1011.043470302548
 31
0.0
  0
ARC
  5
7CEC
  8
1
 10
7494.5241808568917
 20
1026.8434703025489
 30
0.0
 40
1.0
 50
90.0
 51
180.0
  0
LINE
  5
7CED
  8
1
 10
7494.5241808568917
 20
1027.843470302548
 30
0.0
 11
7497.3099101328608
 21
1027.843470302548
 31
0.0
  0
ARC
  5
7CEE
  8
1
 10
7494.5241808568917
 20
1026.8434703025489
 30
0.0
 40
2.6000000000000001
 50
90.0
 51
180.0
  0
LINE
  5
7CEF
  8
1
 10
7510.8241808568901
 20
1039.03531039771
 30
0.0
 11
7510.8241808568891
 21
1029.4434703025479
 31
0.0
  0
LINE
  5
7CF0
  8
1
 10
7506.691055055755
 20
1035.492937347934
 30
0.0
 11
7510.8241808568901
 21
1035.492937347934
 31
0.0
  0
LINE
  5
7CF1
  8
CT
 10
7520.824180856891
 20
1042.7457362645689
 30
0.0
 11
7520.824180856891
 21
1022.32002555196
 31
0.0
  0
LINE
  5
7CF2
  8
1
 10
7542.5877772677986
 20
1050.184956443172
 30
0.0
 11
7586.9056237486293
 21
1050.184956443172
 31
0.0
  0
LINE
  5
7CF3
  8
1
 10
7537.1756415028467
 20
1034.3880938416939
 30
0.0
 11
7578.5661967002652
 21
1034.3880938416939
 31
0.0
  0
LINE
  5
7CF4
  8
1
 10
7542.5877772677986
 20
1050.184956443172
 30
0.0
 11
7535.824180856891
 21
1030.4434703025479
 31
0.0
  0
LINE
  5
7CF5
  8
1
 10
7586.9056237486293
 20
1050.184956443172
 30
0.0
 11
7589.0605844459833
 21
1050.184956443172
 31
0.0
  0
LINE
  5
7CF6
  8
1
 10
7589.0605844459833
 20
1050.184956443172
 30
0.0
 11
7589.2760212969251
 21
1049.556142518052
 31
0.0
  0
LINE
  5
7CF7
  8
1
 10
7578.5661967002652
 20
1034.3880938416939
 30
0.0
 11
7581.8387466556906
 21
1034.3880938416939
 31
0.0
  0
LINE
  5
7CF8
  8
1
 10
7579.9045988135476
 20
1030.4434703025479
 30
0.0
 11
7576.483764190225
 21
1030.4434703025479
 31
0.0
  0
LINE
  5
7CF9
  8
1
 10
7575.955847523559
 20
1027.843470302548
 30
0.0
 11
7578.6297536123102
 21
1027.843470302548
 31
0.0
  0
LINE
  5
7CFA
  8
1
 10
7575.955847523559
 20
1029.4434703025479
 30
0.0
 11
7579.4142737361499
 21
1029.4434703025479
 31
0.0
  0
LINE
  5
7CFB
  8
1
 10
7444.8241808568901
 20
1161.482100817165
 30
0.0
 11
7479.7472718658619
 21
1172.797062866596
 31
0.0
  0
POINT
  5
7CFC
  8
1
 10
7444.8241808568901
 20
1161.482100817165
 30
0.0
  0
LINE
  5
7CFD
  8
1
 10
7479.7472718658619
 20
1176.4434703025479
 30
0.0
 11
7506.691055055755
 21
1176.4434703025479
 31
0.0
  0
LINE
  5
7CFE
  8
SL
 10
7885.8241808568901
 20
845.6363614354334
 30
0.0
 11
7885.8241808568901
 21
1177.821409120816
 31
0.0
  0
LINE
  5
7CFF
  8
1
  6
CONTINUOUS
 10
7673.824180856891
 20
1231.4434703025479
 30
0.0
 11
7673.824180856891
 21
900.44347030254903
 31
0.0
  0
LINE
  5
7D00
  8
1
 10
7667.824180856891
 20
1226.4434703025479
 30
0.0
 11
7667.824180856891
 21
861.44347030254869
 31
0.0
  0
LINE
  5
7D01
  8
1
 10
7666.2241808568897
 20
1226.4434703025479
 30
0.0
 11
7666.2241808568897
 21
861.44347030254869
 31
0.0
  0
LINE
  5
7D02
  8
1
 10
7821.8241808568891
 20
984.44347030254971
 30
0.0
 11
7821.8241808568891
 21
1218.4434703025479
 31
0.0
  0
LINE
  5
7D03
  8
FUTO
 10
7835.8241808568901
 20
905.44347030254892
 30
0.0
 11
7835.8241808568901
 21
1097.4434703025479
 31
0.0
  0
LINE
  5
7D04
  8
1
  6
CONTINUOUS
 10
7674.824180856891
 20
1231.4434703025479
 30
0.0
 11
7674.824180856891
 21
900.44347030254903
 31
0.0
  0
LINE
  5
7D05
  8
1
  6
CONTINUOUS
 10
7814.824180856891
 20
900.44347030254903
 30
0.0
 11
7814.824180856891
 21
1231.4434703025479
 31
0.0
  0
LINE
  5
7D06
  8
1
  6
CONTINUOUS
 10
7815.8241808568919
 20
900.44347030254903
 30
0.0
 11
7815.8241808568919
 21
1231.4434703025479
 31
0.0
  0
LINE
  5
7D07
  8
2
 10
7744.8241808568891
 20
814.34836912299488
 30
0.0
 11
7744.824180856891
 21
1291.6176913747361
 31
0.0
  0
DIMENSION
  5
7D08
  8
SP
  2
*D56
 10
7898.824180856891
 20
761.44347030254846
 30
0.0
 11
7821.8241808568901
 21
786.44347030254846
 31
0.0
 70
     0
 13
7744.824180856891
 23
814.34836912299488
 33
0.0
 14
7898.824180856891
 24
861.44347030254846
 34
0.0
  0
LINE
  5
7D09
  8
FUTO
 10
7804.8241808568919
 20
889.44347030254903
 30
0.0
 11
7684.8241808568919
 21
889.44347030254903
 31
0.0
  0
LINE
  5
7D0A
  8
FUTO
 10
7804.8241808568919
 20
890.44347030254903
 30
0.0
 11
7684.8241808568919
 21
890.44347030254903
 31
0.0
  0
LINE
  5
7D0B
  8
FUTO
 10
7678.824180856891
 20
880.44347030254892
 30
0.0
 11
7810.8241808568901
 21
880.44347030254892
 31
0.0
  0
LINE
  5
7D0C
  8
1
 10
7697.824180856891
 20
863.04347030254871
 30
0.0
 11
7669.4241808568922
 21
863.04347030254871
 31
0.0
  0
LINE
  5
7D0D
  8
1
 10
7697.824180856891
 20
863.04347030254871
 30
0.0
 11
7667.824180856891
 21
863.04347030254871
 31
0.0
  0
ARC
  5
7D0E
  8
FUTO
 10
7684.8241808568919
 20
900.44347030254903
 30
0.0
 40
11.0
 50
180.0
 51
270.0
  0
ARC
  5
7D0F
  8
FUTO
 10
7684.8241808568919
 20
900.44347030254903
 30
0.0
 40
10.0
 50
180.0
 51
270.0
  0
ARC
  5
7D10
  8
FUTO
 10
7678.8241808568901
 20
905.44347030254914
 30
0.0
 40
25.0
 50
243.89611886263421
 51
270.0
  0
ARC
  5
7D11
  8
1
 10
7671.8241808568891
 20
978.44347030254926
 30
0.0
 40
3.0
 50
48.189685104244909
 51
90.0
  0
LINE
  5
7D12
  8
1
 10
7671.824180856891
 20
981.4434703025488
 30
0.0
 11
7670.824180856891
 21
981.44347030254971
 31
0.0
  0
ARC
  5
7D13
  8
1
 10
7670.824180856891
 20
984.44347030255017
 30
0.0
 40
3.0
 50
180.0
 51
270.0
  0
POINT
  5
7D14
  8
1
 10
7667.824180856891
 20
984.44347030254971
 30
0.0
  0
LINE
  5
7D15
  8
1
 10
7697.824180856891
 20
863.04347030254871
 30
0.0
 11
7697.824180856891
 21
861.44347030254869
 31
0.0
  0
LINE
  5
7D16
  8
FUTO
 10
7871.8241808568901
 20
854.44347030254846
 30
0.0
 11
7871.8241808568901
 21
833.44347030254858
 31
0.0
  0
LINE
  5
7D17
  8
FUTO
 10
7868.8241808568919
 20
861.44347030254835
 30
0.0
 11
7868.8241808568919
 21
831.44347030254835
 31
0.0
  0
ARC
  5
7D18
  8
FUTO
 10
7869.824180856891
 20
833.44347030254858
 30
0.0
 40
2.0
 50
270.0
 51
0.0
  0
LINE
  5
7D19
  8
FUTO
 10
7868.8241808568919
 20
831.44347030254846
 30
0.0
 11
7869.824180856891
 21
831.44347030254846
 31
0.0
  0
ARC
  5
7D1A
  8
FUTO
 10
7810.8241808568891
 20
905.44347030255005
 30
0.0
 40
25.0
 50
270.0
 51
0.0
  0
ARC
  5
7D1B
  8
FUTO
 10
7804.8241808568919
 20
900.44347030254903
 30
0.0
 40
11.0
 50
270.0
 51
0.0
  0
ARC
  5
7D1C
  8
FUTO
 10
7804.8241808568919
 20
900.44347030254903
 30
0.0
 40
10.0
 50
270.0
 51
0.0
  0
LINE
  5
7D1D
  8
FUTO
 10
7814.824180856891
 20
1001.443470302548
 30
0.0
 11
7821.8241808568891
 21
1001.443470302548
 31
0.0
  0
ARC
  5
7D1E
  8
FUTO
 10
7818.8241808568891
 20
984.44347030255017
 30
0.0
 40
3.0
 50
270.0
 51
0.0
  0
LINE
  5
7D1F
  8
FUTO
 10
7817.8241808568919
 20
981.4434703025488
 30
0.0
 11
7818.8241808568919
 21
981.44347030254971
 31
0.0
  0
ARC
  5
7D20
  8
FUTO
 10
7817.8241808568901
 20
978.44347030254926
 30
0.0
 40
3.0
 50
90.0
 51
131.81031489575511
  0
POINT
  5
7D21
  8
FUTO
 10
7821.8241808568901
 20
984.44347030254971
 30
0.0
  0
LINE
  5
7D22
  8
FUTO
 10
7875.824180856891
 20
858.44347030254858
 30
0.0
 11
7896.8241808568901
 21
858.44347030254858
 31
0.0
  0
LINE
  5
7D23
  8
FUTO
 10
7868.8241808568919
 20
861.44347030254846
 30
0.0
 11
7898.824180856891
 21
861.44347030254846
 31
0.0
  0
ARC
  5
7D24
  8
FUTO
 10
7875.824180856891
 20
854.44347030254846
 30
0.0
 40
4.0
 50
90.0
 51
180.0
  0
ARC
  5
7D25
  8
FUTO
 10
7896.8241808568901
 20
860.44347030254858
 30
0.0
 40
2.0
 50
270.0
 51
0.0
  0
LINE
  5
7D26
  8
FUTO
 10
7898.824180856891
 20
861.44347030254846
 30
0.0
 11
7898.824180856891
 21
860.44347030254858
 31
0.0
  0
DIMENSION
  5
7D27
  8
SP
  2
*D57
 10
7821.8241808568891
 20
1382.4434703025479
 30
0.0
 11
7783.3241808568901
 21
1407.4434703025479
 31
0.0
 70
     0
 13
7744.824180856891
 23
1346.0584328235329
 33
0.0
 14
7821.8241808568891
 24
1218.4434703025499
 34
0.0
  0
DIMENSION
  5
7D28
  8
SP
  2
*D58
 10
7814.8241808568901
 20
1312.4434703025479
 30
0.0
 11
7744.824180856891
 21
1337.4434703025479
 31
0.0
 70
     0
 13
7674.824180856891
 23
1231.443470302549
 33
0.0
 14
7814.8241808568901
 24
1231.443470302549
 34
0.0
  0
LINE
  5
7D29
  8
FUTO
 10
7684.8241808568919
 20
1242.4434703025479
 30
0.0
 11
7804.8241808568919
 21
1242.4434703025479
 31
0.0
  0
LINE
  5
7D2A
  8
FUTO
 10
7684.8241808568919
 20
1241.4434703025479
 30
0.0
 11
7804.8241808568919
 21
1241.4434703025479
 31
0.0
  0
LINE
  5
7D2B
  8
1
  6
CONTINUOUS
 10
7673.824180856891
 20
1231.4434703025479
 30
0.0
 11
7673.824180856891
 21
1121.9383677303799
 31
0.0
  0
LINE
  5
7D2C
  8
1
 10
7624.5241808568917
 20
1121.4434703025479
 30
0.0
 11
7667.824180856891
 21
1168.243470302549
 31
0.0
  0
LINE
  5
7D2D
  8
1
 10
7637.3241808568901
 20
1164.6938418590021
 30
0.0
 11
7637.3241808568901
 21
1135.2781123348791
 31
0.0
  0
ARC
  5
7D2E
  8
FUTO
 10
7684.8241808568891
 20
1231.443470302549
 30
0.0
 40
11.0
 50
90.0
 51
180.0
  0
ARC
  5
7D2F
  8
FUTO
 10
7684.8241808568891
 20
1231.443470302549
 30
0.0
 40
10.0
 50
90.0
 51
180.0
  0
LINE
  5
7D30
  8
FUTO
 10
7667.824180856891
 20
1226.4434703025479
 30
0.0
 11
7666.2241808568897
 21
1226.4434703025479
 31
0.0
  0
ARC
  5
7D31
  8
FUTO
 10
7671.8241808568891
 20
1224.4434703025499
 30
0.0
 40
3.0
 50
270.0
 51
311.81031489575071
  0
LINE
  5
7D32
  8
FUTO
 10
7671.824180856891
 20
1221.4434703025479
 30
0.0
 11
7670.8241808568928
 21
1221.4434703025479
 31
0.0
  0
ARC
  5
7D33
  8
FUTO
 10
7670.824180856891
 20
1218.4434703025499
 30
0.0
 40
3.0
 50
90.0
 51
180.0
  0
ARC
  5
7D34
  8
FUTO
 10
7810.8241808568891
 20
1097.443470302549
 30
0.0
 40
25.0
 50
0.0
 51
63.896118862634268
  0
LINE
  5
7D35
  8
FUTO
 10
7814.824180856891
 20
1201.4434703025479
 30
0.0
 11
7821.8241808568891
 21
1201.4434703025479
 31
0.0
  0
ARC
  5
7D36
  8
1
 10
7818.8241808568891
 20
1218.4434703025499
 30
0.0
 40
3.0
 50
0.0
 51
90.0
  0
ARC
  5
7D37
  8
FUTO
 10
7804.8241808568891
 20
1231.443470302549
 30
0.0
 40
11.0
 50
0.0
 51
90.0
  0
ARC
  5
7D38
  8
FUTO
 10
7804.8241808568891
 20
1231.443470302549
 30
0.0
 40
10.0
 50
0.0
 51
90.0
  0
LINE
  5
7D39
  8
1
 10
7817.8241808568919
 20
1221.4434703025479
 30
0.0
 11
7818.8241808568919
 21
1221.4434703025479
 31
0.0
  0
ARC
  5
7D3A
  8
1
 10
7817.8241808568901
 20
1224.4434703025499
 30
0.0
 40
3.0
 50
228.18968510424921
 51
270.0
  0
ENDSEC
  0
EOF
