  0
SECTION
  2
HEADER
  9
$ACADVER
  1
AC1009
  9
$INSBASE
 10
0.0
 20
0.0
 30
0.0
  9
$EXTMIN
 10
3791.5304363835421
 20
0.0000009706882338
 30
0.0
  9
$EXTMAX
 10
5891.530436383543
 20
2950.0000009706878
 30
0.0
  9
$LIMMIN
 10
0.0
 20
0.0
  9
$LIMMAX
 10
297.0
 20
210.0
  9
$ORTHOMODE
 70
     0
  9
$REGENMODE
 70
     1
  9
$FILLMODE
 70
     1
  9
$QTEXTMODE
 70
     0
  9
$MIRRTEXT
 70
     0
  9
$DRAGMODE
 70
     2
  9
$LTSCALE
 40
50.0
  9
$OSMODE
 70
   545
  9
$ATTMODE
 70
     1
  9
$TEXTSIZE
 40
3.5
  9
$TRACEWID
 40
0.05
  9
$TEXTSTYLE
  7
STANDARD
  9
$CLAYER
  8
SP
  9
$CELTYPE
  6
BYLAYER
  9
$CECOLOR
 62
   256
  9
$DIMSCALE
 40
10.0
  9
$DIMASZ
 40
2.5
  9
$DIMEXO
 40
1.0
  9
$DIMDLI
 40
7.0
  9
$DIMRND
 40
0.0
  9
$DIMDLE
 40
0.0
  9
$DIMEXE
 40
1.0
  9
$DIMTP
 40
0.0
  9
$DIMTM
 40
0.0
  9
$DIMTXT
 40
3.0
  9
$DIMCEN
 40
0.0
  9
$DIMTSZ
 40
0.0
  9
$DIMTOL
 70
     0
  9
$DIMLIM
 70
     0
  9
$DIMTIH
 70
     0
  9
$DIMTOH
 70
     0
  9
$DIMSE1
 70
     0
  9
$DIMSE2
 70
     0
  9
$DIMTAD
 70
     1
  9
$DIMZIN
 70
     8
  9
$DIMBLK
  1

  9
$DIMASO
 70
     1
  9
$DIMSHO
 70
     1
  9
$DIMPOST
  1

  9
$DIMAPOST
  1

  9
$DIMALT
 70
     0
  9
$DIMALTD
 70
     2
  9
$DIMALTF
 40
0.03937
  9
$DIMLFAC
 40
1.0
  9
$DIMTOFL
 70
     1
  9
$DIMTVP
 40
0.0
  9
$DIMTIX
 70
     0
  9
$DIMSOXD
 70
     0
  9
$DIMSAH
 70
     1
  9
$DIMBLK1
  1
OPEN
  9
$DIMBLK2
  1
OPEN
  9
$DIMSTYLE
  2
GOD
  9
$DIMCLRD
 70
   256
  9
$DIMCLRE
 70
   256
  9
$DIMCLRT
 70
   256
  9
$DIMTFAC
 40
1.0
  9
$DIMGAP
 40
1.0
  9
$LUNITS
 70
     2
  9
$LUPREC
 70
     3
  9
$SKETCHINC
 40
0.1
  9
$FILLETRAD
 40
0.0
  9
$AUNITS
 70
     0
  9
$AUPREC
 70
     2
  9
$MENU
  1
acad
  9
$ELEVATION
 40
0.0
  9
$PELEVATION
 40
0.0
  9
$THICKNESS
 40
0.0
  9
$LIMCHECK
 70
     0
  9
$BLIPMODE
 70
     0
  9
$CHAMFERA
 40
0.0
  9
$CHAMFERB
 40
0.0
  9
$SKPOLY
 70
     0
  9
$TDCREATE
 40
2454939.5747812148
  9
$TDUPDATE
 40
2454953.8305533798
  9
$TDINDWG
 40
0.121202581
  9
$TDUSRTIMER
 40
0.121202581
  9
$USRTIMER
 70
     1
  9
$ANGBASE
 50
0.0
  9
$ANGDIR
 70
     0
  9
$PDMODE
 70
     0
  9
$PDSIZE
 40
1.0
  9
$PLINEWID
 40
0.0
  9
$COORDS
 70
     2
  9
$SPLFRAME
 70
     0
  9
$SPLINETYPE
 70
     6
  9
$SPLINESEGS
 70
     8
  9
$ATTDIA
 70
     0
  9
$ATTREQ
 70
     1
  9
$HANDLING
 70
 22529
  9
$HANDSEED
  5
7810
  9
$SURFTAB1
 70
     6
  9
$SURFTAB2
 70
     6
  9
$SURFTYPE
 70
     6
  9
$SURFU
 70
     6
  9
$SURFV
 70
     6
  9
$UCSNAME
  2

  9
$UCSORG
 10
0.0
 20
0.0
 30
0.0
  9
$UCSXDIR
 10
1.0
 20
0.0
 30
0.0
  9
$UCSYDIR
 10
0.0
 20
1.0
 30
0.0
  9
$PUCSNAME
  2

  9
$PUCSORG
 10
0.0
 20
0.0
 30
0.0
  9
$PUCSXDIR
 10
1.0
 20
0.0
 30
0.0
  9
$PUCSYDIR
 10
0.0
 20
1.0
 30
0.0
  9
$USERI1
 70
     0
  9
$USERI2
 70
     0
  9
$USERI3
 70
     0
  9
$USERI4
 70
     0
  9
$USERI5
 70
     0
  9
$USERR1
 40
0.0
  9
$USERR2
 40
0.0
  9
$USERR3
 40
0.0
  9
$USERR4
 40
0.0
  9
$USERR5
 40
0.0
  9
$WORLDVIEW
 70
     1
  9
$SHADEDGE
 70
     3
  9
$SHADEDIF
 70
    70
  9
$TILEMODE
 70
     1
  9
$MAXACTVP
 70
    16
  9
$PLIMCHECK
 70
     0
  9
$PEXTMIN
 10
1.0000000000000000E+020
 20
1.0000000000000000E+020
 30
1.0000000000000000E+020
  9
$PEXTMAX
 10
-1.0000000000000000E+020
 20
-1.0000000000000000E+020
 30
-1.0000000000000000E+020
  9
$PLIMMIN
 10
0.0
 20
0.0
  9
$PLIMMAX
 10
12.0
 20
9.0
  9
$UNITMODE
 70
     0
  9
$VISRETAIN
 70
     0
  9
$PLINEGEN
 70
     0
  9
$PSLTSCALE
 70
     0
  0
ENDSEC
  0
SECTION
  2
TABLES
  0
TABLE
  2
VPORT
 70
     2
  0
VPORT
  2
*ACTIVE
 70
     0
 10
0.0
 20
0.0
 11
1.0
 21
1.0
 12
5028.2839406470111
 22
1475.000007353849
 13
0.0
 23
0.0
 14
5.0
 24
5.0
 15
0.0
 25
0.0
 16
0.0
 26
0.0
 36
1.0
 17
0.0
 27
0.0
 37
0.0
 40
2972.7867983959318
 41
1.6307901907356941
 42
50.0
 43
0.0
 44
0.0
 50
0.0
 51
0.0
 71
     0
 72
   100
 73
     1
 74
     0
 75
     0
 76
     0
 77
     0
 78
     0
  0
ENDTAB
  0
TABLE
  2
LTYPE
 70
     4
  0
LTYPE
  2
CONTINUOUS
 70
     0
  3
Solid line
 72
    65
 73
     0
 40
0.0
  0
LTYPE
  2
CENTER
 70
     0
  3
____ _ ____ _ ____ _ ____ _ ____ _ ____ _ ____ 
 72
    65
 73
     4
 40
2.0
 49
1.25
 49
-0.25
 49
0.25
 49
-0.25
  0
LTYPE
  2
HIDDEN
 70
     0
  3
__ __ __ __ __ __ __ __ __ __ __ __ __ __ __ __
 72
    65
 73
     2
 40
0.375
 49
0.25
 49
-0.125
  0
LTYPE
  2
PHANTOM
 70
     0
  3
______  __  __  ______  __  __  ______  __  __ 
 72
    65
 73
     6
 40
2.5
 49
1.25
 49
-0.25
 49
0.25
 49
-0.25
 49
0.25
 49
-0.25
  0
ENDTAB
  0
TABLE
  2
LAYER
 70
    13
  0
LAYER
  2
0
 70
     0
 62
     7
  6
CONTINUOUS
  0
LAYER
  2
CT
 70
     0
 62
     3
  6
CENTER
  0
LAYER
  2
FUTO
 70
     0
 62
     4
  6
CONTINUOUS
  0
LAYER
  2
HOSO
 70
     0
 62
     7
  6
CONTINUOUS
  0
LAYER
  2
KL
 70
     0
 62
     7
  6
HIDDEN
  0
LAYER
  2
MOJI
 70
     0
 62
     3
  6
CONTINUOUS
  0
LAYER
  2
SL
 70
     0
 62
     1
  6
PHANTOM
  0
LAYER
  2
SP
 70
     0
 62
     2
  6
CONTINUOUS
  0
LAYER
  2
DEFPOINTS
 70
     0
 62
     7
  6
CONTINUOUS
  0
LAYER
  2
1
 70
     0
 62
     4
  6
CONTINUOUS
  0
LAYER
  2
3
 70
     0
 62
     2
  6
CONTINUOUS
  0
LAYER
  2
2
 70
     0
 62
     3
  6
CENTER
  0
LAYER
  2
4
 70
     0
 62
     7
  6
CONTINUOUS
  0
ENDTAB
  0
TABLE
  2
STYLE
 70
     1
  0
STYLE
  2
STANDARD
 70
     0
 40
0.0
 41
1.0
 50
15.0
 71
     0
 42
3.5
  3
C:\Program Files\AutoCAD LT\simplex.shx
  4
C:\Program Files\AutoCAD LT\extfont.shx
  0
ENDTAB
  0
TABLE
  2
VIEW
 70
     0
  0
ENDTAB
  0
TABLE
  2
UCS
 70
     0
  0
ENDTAB
  0
TABLE
  2
APPID
 70
     1
  0
APPID
  2
ACAD
 70
     0
  0
ENDTAB
  0
TABLE
  2
DIMSTYLE
 70
     3
  0
DIMSTYLE
  2
STANDARD
 70
     0
  3

  4

  5

  6

  7

 40
1.0
 41
0.18
 42
0.0625
 43
0.38
 44
0.18
 45
0.0
 46
0.0
 47
0.0
 48
0.0
140
0.18
141
0.09
142
0.0
143
25.399999999999999
144
1.0
145
0.0
146
1.0
147
0.09
 71
     0
 72
     0
 73
     1
 74
     1
 75
     0
 76
     0
 77
     0
 78
     0
170
     0
171
     2
172
     0
173
     0
174
     0
175
     0
176
     0
177
     0
178
     0
  0
DIMSTYLE
  2
GOD
 70
     0
  3

  4

  5

  6
OPEN
  7
OPEN
 40
10.0
 41
2.5
 42
1.0
 43
7.0
 44
1.0
 45
0.0
 46
0.0
 47
0.0
 48
0.0
140
3.0
141
0.0
142
0.0
143
0.03937
144
1.0
145
0.0
146
1.0
147
1.0
 71
     0
 72
     0
 73
     0
 74
     0
 75
     0
 76
     0
 77
     1
 78
     8
170
     0
171
     2
172
     1
173
     1
174
     0
175
     0
176
   256
177
   256
178
   256
  0
DIMSTYLE
  2
DIA1
 70
     0
  3

  4

  5
ARROW
  6

  7

 40
1.0
 41
2.0
 42
1.0
 43
10.0
 44
1.0
 45
0.0
 46
0.0
 47
0.0
 48
0.0
140
2.5
141
0.0
142
0.0
143
25.399999999999999
144
1.0
145
0.0
146
1.0
147
0.09
 71
     0
 72
     0
 73
     0
 74
     0
 75
     0
 76
     0
 77
     1
 78
     8
170
     0
171
     2
172
     1
173
     0
174
     0
175
     0
176
     2
177
     2
178
     2
  0
ENDTAB
  0
ENDSEC
  0
SECTION
  2
BLOCKS
  0
BLOCK
  8
0
  2
$MODEL_SPACE
 70
     0
 10
0.0
 20
0.0
 30
0.0
  3
$MODEL_SPACE
  1

  0
ENDBLK
  5
1B
  8
0
  0
BLOCK
 67
     1
  8
0
  2
$PAPER_SPACE
 70
     0
 10
0.0
 20
0.0
 30
0.0
  3
$PAPER_SPACE
  1

  0
ENDBLK
  5
18
 67
     1
  8
0
  0
BLOCK
  8
0
  2
_OPEN
 70
     0
 10
0.0
 20
0.0
 30
0.0
  3
_OPEN
  1

  0
LINE
  5
1E81
  8
0
  6
BYBLOCK
 62
     0
 10
-1.0
 20
0.1666666666666666
 30
0.0
 11
0.0
 21
0.0
 31
0.0
  0
LINE
  5
1E82
  8
0
  6
BYBLOCK
 62
     0
 10
0.0
 20
0.0
 30
0.0
 11
-1.0
 21
-0.1666666666666666
 31
0.0
  0
LINE
  5
1E83
  8
0
  6
BYBLOCK
 62
     0
 10
0.0
 20
0.0
 30
0.0
 11
-1.0
 21
0.0
 31
0.0
  0
ENDBLK
  5
1E84
  8
0
  0
BLOCK
  8
0
  2
_DOT
 70
     0
 10
0.0
 20
0.0
 30
0.0
  3
_DOT
  1

  0
LINE
  5
1EC3
  8
0
  6
BYBLOCK
 62
     0
 10
0.0
 20
0.0
 30
0.0
 11
-1.0
 21
-0.0000000000000284
 31
0.0
  0
POLYLINE
  5
1EC4
  8
0
  6
BYBLOCK
 62
     0
 66
     1
 10
0.0
 20
0.0
 30
0.0
 70
     1
 40
0.1666666666666666
 41
0.1666666666666666
  0
VERTEX
  5
7808
  8
0
  6
BYBLOCK
 62
     0
 10
-0.0833333333333286
 20
-0.0000000000000284
 30
0.0
 42
1.0
  0
VERTEX
  5
7809
  8
0
  6
BYBLOCK
 62
     0
 10
0.0833333333333286
 20
-0.0000000000000284
 30
0.0
 42
1.0
  0
SEQEND
  5
780A
  8
0
  6
BYBLOCK
 62
     0
  0
ENDBLK
  5
1EB8
  8
0
  0
BLOCK
  8
0
  2
ARROW
 70
     0
 10
0.0
 20
0.0
 30
0.0
  3
ARROW
  1

  0
LINE
  5
1EEF
  8
0
 10
-0.9999999999999991
 20
0.1666666667000003
 30
0.0
 11
0.0
 21
0.0
 31
0.0
  0
LINE
  5
1EF0
  8
0
 10
-0.9999999999999991
 20
0.0
 30
0.0
 11
0.0
 21
0.0
 31
0.0
  0
LINE
  5
1EF1
  8
0
 10
-0.9999999999999991
 20
-0.1666666667000003
 30
0.0
 11
0.0
 21
0.0
 31
0.0
  0
ENDBLK
  5
1EF3
  8
0
  0
BLOCK
  8
0
  2
_NONE
 70
     0
 10
0.0
 20
0.0
 30
0.0
  3
_NONE
  1

  0
ENDBLK
  5
1F6F
  8
0
  0
BLOCK
  8
0
  2
*D4
 70
     1
 10
0.0
 20
0.0
 30
0.0
  3
*D4
  1

  0
LINE
  5
6A78
  8
3
 10
5429.4934153480954
 20
1143.9956548530949
 30
0.0
 11
5554.1280260249741
 21
1143.9956548530949
 31
0.0
  0
LINE
  5
6A79
  8
3
 10
5429.4934153480954
 20
943.9956548530954
 30
0.0
 11
5554.1280260249741
 21
943.9956548530954
 31
0.0
  0
LINE
  5
6A7A
  8
3
 10
5544.1280260249741
 20
1118.9956548530949
 30
0.0
 11
5544.1280260249741
 21
968.9956548530954
 31
0.0
  0
INSERT
  5
6A7B
  8
3
  2
_OPEN
 10
5544.1280260249741
 20
1143.9956548530949
 30
0.0
 41
25.0
 42
25.0
 43
25.0
 50
90.0
  0
INSERT
  5
6A7C
  8
3
  2
_OPEN
 10
5544.1280260249741
 20
943.9956548530954
 30
0.0
 41
25.0
 42
25.0
 43
25.0
 50
270.0
  0
INSERT
  5
6A7D
  8
SP
  2
*U27
 10
0.0
 20
0.0
 30
0.0
  0
POINT
  5
6A7E
  8
DEFPOINTS
 62
     0
 10
5419.4934153480963
 20
1143.9956548530949
 30
0.0
  0
POINT
  5
6A7F
  8
DEFPOINTS
 62
     0
 10
5419.4934153480963
 20
943.9956548530954
 30
0.0
  0
POINT
  5
6A80
  8
DEFPOINTS
 62
     0
 10
5544.1280260249741
 20
943.9956548530954
 30
0.0
  0
ENDBLK
  5
5976
  8
0
  0
BLOCK
  8
0
  2
*D5
 70
     1
 10
0.0
 20
0.0
 30
0.0
  3
*D5
  1

  0
LINE
  5
5BFF
  8
SP
 10
5272.4934153480954
 20
1213.9956548530949
 30
0.0
 11
5272.4934153480954
 21
1283.9956548530949
 31
0.0
  0
LINE
  5
5C00
  8
SP
 10
5412.4934153480972
 20
1213.9956548530949
 30
0.0
 11
5412.4934153480972
 21
1283.9956548530949
 31
0.0
  0
LINE
  5
5C01
  8
SP
 10
5297.4934153480954
 20
1273.9956548530949
 30
0.0
 11
5387.4934153480972
 21
1273.9956548530949
 31
0.0
  0
INSERT
  5
5C02
  8
SP
  2
_OPEN
 10
5272.4934153480954
 20
1273.9956548530949
 30
0.0
 41
25.0
 42
25.0
 43
25.0
 50
180.0
  0
INSERT
  5
5C03
  8
SP
  2
_OPEN
 10
5412.4934153480972
 20
1273.9956548530949
 30
0.0
 41
25.0
 42
25.0
 43
25.0
  0
TEXT
  5
5C04
  8
SP
 10
5300.9860778176262
 20
1283.9956548530949
 30
0.0
 40
30.0
  1
140
 51
15.0
  0
POINT
  5
5C05
  8
DEFPOINTS
 62
     0
 10
5272.4934153480954
 20
1203.9956548530949
 30
0.0
  0
POINT
  5
5C06
  8
DEFPOINTS
 62
     0
 10
5412.4934153480972
 20
1203.9956548530949
 30
0.0
  0
POINT
  5
5C07
  8
DEFPOINTS
 62
     0
 10
5412.4934153480972
 20
1273.9956548530949
 30
0.0
  0
ENDBLK
  5
59D6
  8
0
  0
BLOCK
  8
0
  2
*D6
 70
     1
 10
0.0
 20
0.0
 30
0.0
  3
*D6
  1

  0
LINE
  5
5C08
  8
SP
 10
5342.4934153480981
 20
1318.908141808362
 30
0.0
 11
5342.4934153480981
 21
1353.9956548530949
 31
0.0
  0
LINE
  5
5C09
  8
SP
 10
5419.4934153480963
 20
1170.9956548530949
 30
0.0
 11
5419.4934153480963
 21
1353.9956548530949
 31
0.0
  0
LINE
  5
5C0A
  8
SP
 10
5367.4934153480972
 20
1343.9956548530949
 30
0.0
 11
5394.4934153480963
 21
1343.9956548530949
 31
0.0
  0
INSERT
  5
5C0B
  8
SP
  2
_OPEN
 10
5342.4934153480981
 20
1343.9956548530949
 30
0.0
 41
25.0
 42
25.0
 43
25.0
 50
180.0
  0
INSERT
  5
5C0C
  8
SP
  2
_OPEN
 10
5419.4934153480963
 20
1343.9956548530949
 30
0.0
 41
25.0
 42
25.0
 43
25.0
  0
TEXT
  5
5C0D
  8
SP
 10
5349.8313203187727
 20
1353.9956548530949
 30
0.0
 40
30.0
  1
77
 51
15.0
  0
POINT
  5
5C0E
  8
DEFPOINTS
 62
     0
 10
5342.4934153480981
 20
1308.908141808362
 30
0.0
  0
POINT
  5
5C0F
  8
DEFPOINTS
 62
     0
 10
5419.4934153480963
 20
1160.995654853094
 30
0.0
  0
POINT
  5
5C10
  8
DEFPOINTS
 62
     0
 10
5419.4934153480963
 20
1343.9956548530949
 30
0.0
  0
ENDBLK
  5
59E2
  8
0
  0
BLOCK
  8
0
  2
*D7
 70
     1
 10
0.0
 20
0.0
 30
0.0
  3
*D7
  1

  0
LINE
  5
5C11
  8
SP
 10
5342.4934153480981
 20
1323.9956548530949
 30
0.0
 11
5342.4934153480981
 21
1353.9956548530949
 31
0.0
  0
LINE
  5
5C12
  8
SP
 10
5042.4934153480972
 20
1114.0342853677109
 30
0.0
 11
5042.4934153480972
 21
1353.9956548530949
 31
0.0
  0
LINE
  5
5C13
  8
SP
 10
5317.4934153480972
 20
1343.9956548530949
 30
0.0
 11
5067.4934153480972
 21
1343.9956548530949
 31
0.0
  0
INSERT
  5
5C14
  8
SP
  2
_OPEN
 10
5342.4934153480981
 20
1343.9956548530949
 30
0.0
 41
25.0
 42
25.0
 43
25.0
  0
INSERT
  5
5C15
  8
SP
  2
_OPEN
 10
5042.4934153480972
 20
1343.9956548530949
 30
0.0
 41
25.0
 42
25.0
 43
25.0
 50
180.0
  0
TEXT
  5
5C16
  8
SP
 10
5125.5837136076971
 20
1353.9956548530949
 30
0.0
 40
30.0
  1
（340）
 51
15.0
  0
POINT
  5
5C17
  8
DEFPOINTS
 62
     0
 10
5342.4934153480981
 20
1313.9956548530949
 30
0.0
  0
POINT
  5
5C18
  8
DEFPOINTS
 62
     0
 10
5042.4934153480972
 20
1104.0342853677109
 30
0.0
  0
POINT
  5
5C19
  8
DEFPOINTS
 62
     0
 10
5042.4934153480972
 20
1343.9956548530949
 30
0.0
  0
ENDBLK
  5
59EE
  8
0
  0
BLOCK
  8
0
  2
*D8
 70
     1
 10
0.0
 20
0.0
 30
0.0
  3
*D8
  1

  0
LINE
  5
5E00
  8
SP
 10
4397.9505320783064
 20
1230.1561682696949
 30
0.0
 11
4397.9505320783064
 21
1283.9956548530949
 31
0.0
  0
LINE
  5
5E01
  8
SP
 10
4597.9505320783064
 20
1213.9956548530961
 30
0.0
 11
4597.9505320783064
 21
1283.9956548530949
 31
0.0
  0
LINE
  5
5E02
  8
SP
 10
4422.9505320783064
 20
1273.9956548530949
 30
0.0
 11
4572.9505320783064
 21
1273.9956548530949
 31
0.0
  0
INSERT
  5
5E03
  8
SP
  2
_OPEN
 10
4397.9505320783064
 20
1273.9956548530949
 30
0.0
 41
25.0
 42
25.0
 43
25.0
 50
180.0
  0
INSERT
  5
5E04
  8
SP
  2
_OPEN
 10
4597.9505320783064
 20
1273.9956548530949
 30
0.0
 41
25.0
 42
25.0
 43
25.0
  0
TEXT
  5
5E05
  8
SP
 10
4456.8397204559287
 20
1283.9956548530949
 30
0.0
 40
30.0
  1
200
 51
15.0
  0
POINT
  5
5E06
  8
DEFPOINTS
 62
     0
 10
4397.9505320783064
 20
1220.1561682696949
 30
0.0
  0
POINT
  5
5E07
  8
DEFPOINTS
 62
     0
 10
4597.9505320783064
 20
1203.9956548530961
 30
0.0
  0
POINT
  5
5E08
  8
DEFPOINTS
 62
     0
 10
4597.9505320783064
 20
1273.9956548530949
 30
0.0
  0
ENDBLK
  5
59FA
  8
0
  0
BLOCK
  8
0
  2
*D9
 70
     1
 10
0.0
 20
0.0
 30
0.0
  3
*D9
  1

  0
LINE
  5
6FD5
  8
SP
 10
4212.2849030726193
 20
1043.9956548530949
 30
0.0
 11
4080.0288407241969
 21
1043.9956548530949
 31
0.0
  0
LINE
  5
6FD6
  8
SP
 10
4162.9505320783073
 20
773.99565485309495
 30
0.0
 11
4080.0288407241969
 21
773.99565485309495
 31
0.0
  0
LINE
  5
6FD7
  8
SP
 10
4090.0288407241969
 20
1018.9956548530949
 30
0.0
 11
4090.0288407241969
 21
798.99565485309495
 31
0.0
  0
INSERT
  5
6FD8
  8
SP
  2
_OPEN
 10
4090.0288407241969
 20
1043.9956548530949
 30
0.0
 41
25.0
 42
25.0
 43
25.0
 50
90.0
  0
INSERT
  5
6FD9
  8
SP
  2
_OPEN
 10
4090.0288407241969
 20
773.99565485309495
 30
0.0
 41
25.0
 42
25.0
 43
25.0
 50
270.0
  0
TEXT
  5
6FDA
  8
SP
 10
4080.0288407241969
 20
867.88484323071782
 30
0.0
 40
30.0
  1
270
 50
90.0
 51
15.0
  0
POINT
  5
6FDB
  8
DEFPOINTS
 62
     0
 10
4222.2849030726193
 20
1043.9956548530949
 30
0.0
  0
POINT
  5
6FDC
  8
DEFPOINTS
 62
     0
 10
4172.9505320783064
 20
773.99565485309495
 30
0.0
  0
POINT
  5
6FDD
  8
DEFPOINTS
 62
     0
 10
4090.0288407241969
 20
773.99565485309495
 30
0.0
  0
ENDBLK
  5
5A1E
  8
0
  0
BLOCK
  8
0
  2
*D10
 70
     1
 10
0.0
 20
0.0
 30
0.0
  3
*D10
  1

  0
LINE
  5
6ACC
  8
SP
 10
4212.2849030726193
 20
1043.9956548530949
 30
0.0
 11
4080.0288407241969
 21
1043.9956548530949
 31
0.0
  0
LINE
  5
6ACD
  8
SP
 10
4366.9505320783064
 20
1203.9956548530961
 30
0.0
 11
4080.0288407241969
 21
1203.9956548530961
 31
0.0
  0
LINE
  5
6ACE
  8
SP
 10
4090.0288407241969
 20
1068.9956548530949
 30
0.0
 11
4090.0288407241969
 21
1178.9956548530961
 31
0.0
  0
INSERT
  5
6ACF
  8
SP
  2
_OPEN
 10
4090.0288407241969
 20
1043.9956548530949
 30
0.0
 41
25.0
 42
25.0
 43
25.0
 50
270.0
  0
INSERT
  5
6AD0
  8
SP
  2
_OPEN
 10
4090.0288407241969
 20
1203.9956548530961
 30
0.0
 41
25.0
 42
25.0
 43
25.0
 50
90.0
  0
TEXT
  5
6AD1
  8
SP
 10
4080.028840724196
 20
1082.488317322626
 30
0.0
 40
30.0
  1
160
 50
90.0
 51
15.0
  0
POINT
  5
6AD2
  8
DEFPOINTS
 62
     0
 10
4222.2849030726193
 20
1043.9956548530949
 30
0.0
  0
POINT
  5
6AD3
  8
DEFPOINTS
 62
     0
 10
4376.9505320783064
 20
1203.9956548530961
 30
0.0
  0
POINT
  5
6AD4
  8
DEFPOINTS
 62
     0
 10
4090.0288407241969
 20
1203.9956548530961
 30
0.0
  0
ENDBLK
  5
5A36
  8
0
  0
BLOCK
  8
0
  2
*D11
 70
     1
 10
0.0
 20
0.0
 30
0.0
  3
*D11
  1

  0
LINE
  5
5DF7
  8
SP
 10
4397.9505320783064
 20
1230.1561682696949
 30
0.0
 11
4397.9505320783064
 21
1283.9956548530949
 31
0.0
  0
LINE
  5
5DF8
  8
SP
 10
4257.9505320783064
 20
1039.9956548530961
 30
0.0
 11
4257.9505320783064
 21
1283.9956548530949
 31
0.0
  0
LINE
  5
5DF9
  8
SP
 10
4372.9505320783064
 20
1273.9956548530949
 30
0.0
 11
4282.9505320783064
 21
1273.9956548530949
 31
0.0
  0
INSERT
  5
5DFA
  8
SP
  2
_OPEN
 10
4397.9505320783064
 20
1273.9956548530949
 30
0.0
 41
25.0
 42
25.0
 43
25.0
  0
INSERT
  5
5DFB
  8
SP
  2
_OPEN
 10
4257.9505320783064
 20
1273.9956548530949
 30
0.0
 41
25.0
 42
25.0
 43
25.0
 50
180.0
  0
TEXT
  5
5DFC
  8
SP
 10
4286.4431945478364
 20
1283.9956548530949
 30
0.0
 40
30.0
  1
140
 51
15.0
  0
POINT
  5
5DFD
  8
DEFPOINTS
 62
     0
 10
4397.9505320783064
 20
1220.1561682696949
 30
0.0
  0
POINT
  5
5DFE
  8
DEFPOINTS
 62
     0
 10
4257.9505320783064
 20
1029.9956548530961
 30
0.0
  0
POINT
  5
5DFF
  8
DEFPOINTS
 62
     0
 10
4257.9505320783064
 20
1273.9956548530949
 30
0.0
  0
ENDBLK
  5
5A42
  8
0
  0
BLOCK
  8
0
  2
L-30-3
 70
     0
 10
0.0
 20
0.0
 30
0.0
  3
L-30-3
  1

  0
LINE
  5
676F
  8
0
 10
115.2488417492448
 20
98.116970357453638
 30
0.0
 11
145.2488417492448
 21
98.116970357453638
 31
0.0
  0
LINE
  5
6770
  8
0
 10
115.2488417492448
 20
98.116970357453638
 30
0.0
 11
115.2488417492448
 21
128.1169703574536
 31
0.0
  0
LINE
  5
6771
  8
0
 10
145.2488417492448
 20
98.116970357453638
 30
0.0
 11
145.2488417492448
 21
99.116970357453638
 31
0.0
  0
LINE
  5
6772
  8
0
 10
115.2488417492448
 20
128.1169703574536
 30
0.0
 11
116.2488417492448
 21
128.1169703574536
 31
0.0
  0
LINE
  5
6773
  8
0
 10
122.2488417492448
 20
101.1169703574536
 30
0.0
 11
143.2488417492448
 21
101.1169703574536
 31
0.0
  0
LINE
  5
6774
  8
0
 10
118.2488417492448
 20
105.1169703574536
 30
0.0
 11
118.2488417492448
 21
126.1169703574536
 31
0.0
  0
ARC
  5
6775
  8
0
 10
143.2488417492448
 20
99.116970357453638
 30
0.0
 40
2.0
 50
0.0
 51
90.0
  0
ARC
  5
6776
  8
0
 10
116.2488417492448
 20
126.1169703574536
 30
0.0
 40
2.0
 50
0.0
 51
90.0
  0
ARC
  5
6777
  8
0
 10
122.2488417492448
 20
105.1169703574536
 30
0.0
 40
4.0
 50
180.0
 51
270.0
  0
ENDBLK
  5
6779
  8
0
  0
BLOCK
  8
0
  2
*D13
 70
     1
 10
0.0
 20
0.0
 30
0.0
  3
*D13
  1

  0
LINE
  5
6E74
  8
SP
 10
-5724.4242060181869
 20
763.99565485309574
 30
0.0
 11
-5724.4242060181869
 21
623.99565485309552
 31
0.0
  0
LINE
  5
6E75
  8
SP
 10
-5274.4242060181859
 20
763.99565485309552
 30
0.0
 11
-5274.4242060181859
 21
623.99565485309552
 31
0.0
  0
LINE
  5
6E76
  8
SP
 10
-5699.4242060181869
 20
633.99565485309552
 30
0.0
 11
-5299.4242060181859
 21
633.99565485309552
 31
0.0
  0
INSERT
  5
6E77
  8
SP
  2
_OPEN
 10
-5724.4242060181869
 20
633.99565485309552
 30
0.0
 41
25.0
 42
25.0
 43
25.0
 50
180.0
  0
INSERT
  5
6E78
  8
SP
  2
_OPEN
 10
-5274.4242060181859
 20
633.99565485309552
 30
0.0
 41
25.0
 42
25.0
 43
25.0
  0
TEXT
  5
6E79
  8
SP
 10
-5541.8747636027192
 20
643.99565485309552
 30
0.0
 40
30.0
  1
450
 51
15.0
  0
POINT
  5
6E7A
  8
DEFPOINTS
 62
     0
 10
-5724.4242060181869
 20
773.99565485309574
 30
0.0
  0
POINT
  5
6E7B
  8
DEFPOINTS
 62
     0
 10
-5274.4242060181859
 20
773.99565485309552
 30
0.0
  0
POINT
  5
6E7C
  8
DEFPOINTS
 62
     0
 10
-5274.4242060181859
 20
633.99565485309552
 30
0.0
  0
ENDBLK
  5
6E7E
  8
0
  0
BLOCK
  8
0
  2
*D14
 70
     1
 10
0.0
 20
0.0
 30
0.0
  3
*D14
  1

  0
LINE
  5
6E80
  8
SP
 10
-5499.4242060181859
 20
746.04084370005864
 30
0.0
 11
-5499.4242060181859
 21
693.99565485309563
 31
0.0
  0
LINE
  5
6E81
  8
SP
 10
-5724.4242060181859
 20
763.99565485309574
 30
0.0
 11
-5724.4242060181859
 21
693.99565485309563
 31
0.0
  0
LINE
  5
6E82
  8
SP
 10
-5524.4242060181859
 20
703.99565485309563
 30
0.0
 11
-5699.4242060181859
 21
703.99565485309563
 31
0.0
  0
INSERT
  5
6E83
  8
SP
  2
_OPEN
 10
-5499.4242060181859
 20
703.99565485309563
 30
0.0
 41
25.0
 42
25.0
 43
25.0
  0
INSERT
  5
6E84
  8
SP
  2
_OPEN
 10
-5724.4242060181859
 20
703.99565485309563
 30
0.0
 41
25.0
 42
25.0
 43
25.0
 50
180.0
  0
TEXT
  5
6E85
  8
SP
 10
-5653.0863010475086
 20
713.99565485309563
 30
0.0
 40
30.0
  1
225
 51
15.0
  0
POINT
  5
6E86
  8
DEFPOINTS
 62
     0
 10
-5499.4242060181859
 20
756.04084370005864
 30
0.0
  0
POINT
  5
6E87
  8
DEFPOINTS
 62
     0
 10
-5724.4242060181859
 20
773.99565485309574
 30
0.0
  0
POINT
  5
6E88
  8
DEFPOINTS
 62
     0
 10
-5724.4242060181859
 20
703.99565485309563
 30
0.0
  0
ENDBLK
  5
6E8A
  8
0
  0
BLOCK
  8
0
  2
*D15
 70
     1
 10
0.0
 20
0.0
 30
0.0
  3
*D15
  1

  0
LINE
  5
6E8C
  8
SP
 10
-5499.4242060181859
 20
746.04084370005864
 30
0.0
 11
-5499.4242060181859
 21
693.99565485309563
 31
0.0
  0
LINE
  5
6E8D
  8
SP
 10
-5274.4242060181859
 20
763.99565485309552
 30
0.0
 11
-5274.4242060181859
 21
693.99565485309563
 31
0.0
  0
LINE
  5
6E8E
  8
SP
 10
-5474.4242060181859
 20
703.99565485309563
 30
0.0
 11
-5299.4242060181859
 21
703.99565485309563
 31
0.0
  0
INSERT
  5
6E8F
  8
SP
  2
_OPEN
 10
-5499.4242060181859
 20
703.99565485309563
 30
0.0
 41
25.0
 42
25.0
 43
25.0
 50
180.0
  0
INSERT
  5
6E90
  8
SP
  2
_OPEN
 10
-5274.4242060181859
 20
703.99565485309563
 30
0.0
 41
25.0
 42
25.0
 43
25.0
  0
TEXT
  5
6E91
  8
SP
 10
-5428.0863010475086
 20
713.99565485309563
 30
0.0
 40
30.0
  1
225
 51
15.0
  0
POINT
  5
6E92
  8
DEFPOINTS
 62
     0
 10
-5499.4242060181859
 20
756.04084370005864
 30
0.0
  0
POINT
  5
6E93
  8
DEFPOINTS
 62
     0
 10
-5274.4242060181859
 20
773.99565485309552
 30
0.0
  0
POINT
  5
6E94
  8
DEFPOINTS
 62
     0
 10
-5274.4242060181859
 20
703.99565485309563
 30
0.0
  0
ENDBLK
  5
6E96
  8
0
  0
BLOCK
  8
0
  2
A$C1B3C3548
 70
     0
 10
0.0
 20
0.0
 30
0.0
  3
A$C1B3C3548
  1

  0
LINE
  5
6E98
  8
FUTO
 10
225.0
 20
-240.0000000000004
 30
0.0
 11
225.0
 21
-270.00000000000051
 31
0.0
  0
DIMENSION
  5
6E99
  8
SP
  2
*D14
 10
-225.0
 20
-340.0000000000004
 30
0.0
 11
-112.5
 21
-315.0000000000004
 31
0.0
 12
5499.4242060181859
 22
-1043.9956548530961
 32
0.0
  3
GOD
 13
0.0
 23
-287.95481115303733
 33
0.0
 14
-225.0
 24
-270.00000000000028
 34
0.0
  0
DIMENSION
  5
6E9A
  8
SP
  2
*D13
 10
225.0
 20
-410.00000000000051
 30
0.0
 11
0.0
 21
-385.00000000000051
 31
0.0
 12
5499.4242060181859
 22
-1043.9956548530961
 32
0.0
  3
GOD
 13
-225.00000000000091
 23
-270.00000000000028
 33
0.0
 14
225.0
 24
-270.00000000000051
 34
0.0
  0
LINE
  5
6E9B
  8
FUTO
 10
-225.0
 20
-240.0000000000004
 30
0.0
 11
225.0
 21
-240.0000000000004
 31
0.0
  0
LINE
  5
6E9C
  8
FUTO
 10
-225.0
 20
-270.00000000000028
 30
0.0
 11
225.0
 21
-270.00000000000051
 31
0.0
  0
LINE
  5
6E9D
  8
FUTO
 10
-225.0
 20
-243.0000000000004
 30
0.0
 11
225.0
 21
-243.0000000000004
 31
0.0
  0
LINE
  5
6E9E
  8
FUTO
 10
-225.0
 20
-240.0000000000004
 30
0.0
 11
-225.0
 21
-270.00000000000028
 31
0.0
  0
DIMENSION
  5
6E9F
  8
SP
  2
*D15
 10
225.0
 20
-340.0000000000004
 30
0.0
 11
112.5
 21
-315.0000000000004
 31
0.0
 12
5499.4242060181859
 22
-1043.9956548530961
 32
0.0
  3
GOD
 13
0.0
 23
-287.95481115303733
 33
0.0
 14
225.0
 24
-270.00000000000051
 34
0.0
  0
ENDBLK
  5
6EA1
  8
0
  0
BLOCK
  8
0
  2
*D17
 70
     1
 10
0.0
 20
0.0
 30
0.0
  3
*D17
  1

  0
LINE
  5
6F60
  8
SP
 10
4397.9505320783064
 20
746.04084370005796
 30
0.0
 11
4397.9505320783064
 21
693.99565485309495
 31
0.0
  0
LINE
  5
6F61
  8
SP
 10
4172.9505320783064
 20
763.99565485309506
 30
0.0
 11
4172.9505320783064
 21
693.99565485309495
 31
0.0
  0
LINE
  5
6F62
  8
SP
 10
4372.9505320783064
 20
703.99565485309495
 30
0.0
 11
4197.9505320783064
 21
703.99565485309495
 31
0.0
  0
INSERT
  5
6F63
  8
SP
  2
_OPEN
 10
4397.9505320783064
 20
703.99565485309495
 30
0.0
 41
25.0
 42
25.0
 43
25.0
  0
INSERT
  5
6F64
  8
SP
  2
_OPEN
 10
4172.9505320783064
 20
703.99565485309495
 30
0.0
 41
25.0
 42
25.0
 43
25.0
 50
180.0
  0
TEXT
  5
6F65
  8
SP
 10
4244.2884370489819
 20
713.99565485309495
 30
0.0
 40
30.0
  1
225
 51
15.0
  0
POINT
  5
6F66
  8
DEFPOINTS
 62
     0
 10
4397.9505320783064
 20
756.04084370005808
 30
0.0
  0
POINT
  5
6F67
  8
DEFPOINTS
 62
     0
 10
4172.9505320783064
 20
773.99565485309495
 30
0.0
  0
POINT
  5
6F68
  8
DEFPOINTS
 62
     0
 10
4172.9505320783064
 20
703.99565485309495
 30
0.0
  0
ENDBLK
  5
6F47
  8
0
  0
BLOCK
  8
0
  2
*D18
 70
     1
 10
0.0
 20
0.0
 30
0.0
  3
*D18
  1

  0
LINE
  5
6F69
  8
SP
 10
4172.9505320783064
 20
763.99565485309506
 30
0.0
 11
4172.9505320783064
 21
623.99565485309483
 31
0.0
  0
LINE
  5
6F6A
  8
SP
 10
4622.9505320783064
 20
763.99565485309483
 30
0.0
 11
4622.9505320783064
 21
623.99565485309483
 31
0.0
  0
LINE
  5
6F6B
  8
SP
 10
4197.9505320783046
 20
633.99565485309483
 30
0.0
 11
4597.9505320783064
 21
633.99565485309483
 31
0.0
  0
INSERT
  5
6F6C
  8
SP
  2
_OPEN
 10
4172.9505320783064
 20
633.99565485309483
 30
0.0
 41
25.0
 42
25.0
 43
25.0
 50
180.0
  0
INSERT
  5
6F6D
  8
SP
  2
_OPEN
 10
4622.9505320783064
 20
633.99565485309483
 30
0.0
 41
25.0
 42
25.0
 43
25.0
  0
TEXT
  5
6F6E
  8
SP
 10
4355.4999744937732
 20
643.99565485309483
 30
0.0
 40
30.0
  1
450
 51
15.0
  0
POINT
  5
6F6F
  8
DEFPOINTS
 62
     0
 10
4172.9505320783064
 20
773.99565485309495
 30
0.0
  0
POINT
  5
6F70
  8
DEFPOINTS
 62
     0
 10
4622.9505320783064
 20
773.99565485309483
 30
0.0
  0
POINT
  5
6F71
  8
DEFPOINTS
 62
     0
 10
4622.9505320783064
 20
633.99565485309483
 30
0.0
  0
ENDBLK
  5
6F53
  8
0
  0
BLOCK
  8
0
  2
*D19
 70
     1
 10
0.0
 20
0.0
 30
0.0
  3
*D19
  1

  0
LINE
  5
6F72
  8
SP
 10
4397.9505320783064
 20
746.04084370005796
 30
0.0
 11
4397.9505320783064
 21
693.99565485309495
 31
0.0
  0
LINE
  5
6F73
  8
SP
 10
4622.9505320783064
 20
763.99565485309483
 30
0.0
 11
4622.9505320783064
 21
693.99565485309495
 31
0.0
  0
LINE
  5
6F74
  8
SP
 10
4422.9505320783064
 20
703.99565485309495
 30
0.0
 11
4597.9505320783064
 21
703.99565485309495
 31
0.0
  0
INSERT
  5
6F75
  8
SP
  2
_OPEN
 10
4397.9505320783064
 20
703.99565485309495
 30
0.0
 41
25.0
 42
25.0
 43
25.0
 50
180.0
  0
INSERT
  5
6F76
  8
SP
  2
_OPEN
 10
4622.9505320783064
 20
703.99565485309495
 30
0.0
 41
25.0
 42
25.0
 43
25.0
  0
TEXT
  5
6F77
  8
SP
 10
4469.2884370489828
 20
713.99565485309495
 30
0.0
 40
30.0
  1
225
 51
15.0
  0
POINT
  5
6F78
  8
DEFPOINTS
 62
     0
 10
4397.9505320783064
 20
756.04084370005808
 30
0.0
  0
POINT
  5
6F79
  8
DEFPOINTS
 62
     0
 10
4622.9505320783064
 20
773.99565485309483
 30
0.0
  0
POINT
  5
6F7A
  8
DEFPOINTS
 62
     0
 10
4622.9505320783064
 20
703.99565485309495
 30
0.0
  0
ENDBLK
  5
6F5F
  8
0
  0
BLOCK
  8
0
  2
*D20
 70
     1
 10
0.0
 20
0.0
 30
0.0
  3
*D20
  1

  0
LINE
  5
731C
  8
SP
 10
5342.4934153480981
 20
865.01297153561973
 30
0.0
 11
5342.4934153480981
 21
693.99565485309495
 31
0.0
  0
LINE
  5
731D
  8
SP
 10
5496.4934153480981
 20
793.99565485309506
 30
0.0
 11
5496.4934153480981
 21
693.99565485309495
 31
0.0
  0
LINE
  5
731E
  8
SP
 10
5367.4934153480981
 20
703.99565485309495
 30
0.0
 11
5471.4934153480972
 21
703.99565485309495
 31
0.0
  0
INSERT
  5
731F
  8
SP
  2
_OPEN
 10
5342.4934153480981
 20
703.99565485309495
 30
0.0
 41
25.0
 42
25.0
 43
25.0
 50
180.0
  0
INSERT
  5
7320
  8
SP
  2
_OPEN
 10
5496.4934153480981
 20
703.99565485309495
 30
0.0
 41
25.0
 42
25.0
 43
25.0
  0
TEXT
  5
7321
  8
SP
 10
5378.4714291921346
 20
713.99565485309506
 30
0.0
 40
30.0
  1
154
 51
15.0
  0
POINT
  5
7322
  8
DEFPOINTS
 62
     0
 10
5342.4934153480981
 20
875.01297153561961
 30
0.0
  0
POINT
  5
7323
  8
DEFPOINTS
 62
     0
 10
5496.4934153480981
 20
803.99565485309517
 30
0.0
  0
POINT
  5
7324
  8
DEFPOINTS
 62
     0
 10
5496.4934153480981
 20
703.99565485309495
 30
0.0
  0
ENDBLK
  5
7222
  8
0
  0
BLOCK
  8
0
  2
*D21
 70
     1
 10
0.0
 20
0.0
 30
0.0
  3
*D21
  1

  0
LINE
  5
7244
  8
SP
 10
4996.4934153480981
 20
793.99565485309506
 30
0.0
 11
4996.4934153480981
 21
623.99565485309495
 31
0.0
  0
LINE
  5
7245
  8
SP
 10
5496.4934153480981
 20
793.99565485309506
 30
0.0
 11
5496.4934153480981
 21
623.99565485309495
 31
0.0
  0
LINE
  5
7246
  8
SP
 10
5021.4934153480972
 20
633.99565485309495
 30
0.0
 11
5471.4934153480972
 21
633.99565485309495
 31
0.0
  0
INSERT
  5
7247
  8
SP
  2
_OPEN
 10
4996.4934153480981
 20
633.99565485309495
 30
0.0
 41
25.0
 42
25.0
 43
25.0
 50
180.0
  0
INSERT
  5
7248
  8
SP
  2
_OPEN
 10
5496.4934153480981
 20
633.99565485309495
 30
0.0
 41
25.0
 42
25.0
 43
25.0
  0
TEXT
  5
7249
  8
SP
 10
5204.6170346044873
 20
643.99565485309495
 30
0.0
 40
30.0
  1
500
 51
15.0
  0
POINT
  5
724A
  8
DEFPOINTS
 62
     0
 10
4996.4934153480981
 20
803.99565485309517
 30
0.0
  0
POINT
  5
724B
  8
DEFPOINTS
 62
     0
 10
5496.4934153480981
 20
803.99565485309517
 30
0.0
  0
POINT
  5
724C
  8
DEFPOINTS
 62
     0
 10
5496.4934153480981
 20
633.99565485309495
 30
0.0
  0
ENDBLK
  5
722E
  8
0
  0
BLOCK
  8
0
  2
*D22
 70
     1
 10
0.0
 20
0.0
 30
0.0
  3
*D22
  1

  0
LINE
  5
7325
  8
SP
 10
5342.4934153480981
 20
865.01297153561973
 30
0.0
 11
5342.4934153480981
 21
693.99565485309495
 31
0.0
  0
LINE
  5
7326
  8
SP
 10
4996.4934153480981
 20
793.99565485309506
 30
0.0
 11
4996.4934153480981
 21
693.99565485309495
 31
0.0
  0
LINE
  5
7327
  8
SP
 10
5317.4934153480972
 20
703.99565485309495
 30
0.0
 11
5021.4934153480972
 21
703.99565485309495
 31
0.0
  0
INSERT
  5
7328
  8
SP
  2
_OPEN
 10
5342.4934153480981
 20
703.99565485309495
 30
0.0
 41
25.0
 42
25.0
 43
25.0
  0
INSERT
  5
7329
  8
SP
  2
_OPEN
 10
4996.4934153480981
 20
703.99565485309495
 30
0.0
 41
25.0
 42
25.0
 43
25.0
 50
180.0
  0
TEXT
  5
732A
  8
SP
 10
5128.1399280384658
 20
713.99565485309506
 30
0.0
 40
30.0
  1
346
 51
15.0
  0
POINT
  5
732B
  8
DEFPOINTS
 62
     0
 10
5342.4934153480981
 20
875.01297153561961
 30
0.0
  0
POINT
  5
732C
  8
DEFPOINTS
 62
     0
 10
4996.4934153480981
 20
803.99565485309517
 30
0.0
  0
POINT
  5
732D
  8
DEFPOINTS
 62
     0
 10
4996.4934153480981
 20
703.99565485309495
 30
0.0
  0
ENDBLK
  5
723A
  8
0
  0
BLOCK
  8
0
  2
*D23
 70
     1
 10
0.0
 20
0.0
 30
0.0
  3
*D23
  1

  0
LINE
  5
7630
  8
SP
 10
4622.9505320783064
 20
2119.897013735369
 30
0.0
 11
4622.9505320783064
 21
2189.897013735369
 31
0.0
  0
LINE
  5
7631
  8
SP
 10
4172.9505320783064
 20
2119.897013735369
 30
0.0
 11
4172.9505320783064
 21
2189.897013735369
 31
0.0
  0
LINE
  5
7632
  8
SP
 10
4597.9505320783064
 20
2179.897013735369
 30
0.0
 11
4197.9505320783064
 21
2179.897013735369
 31
0.0
  0
INSERT
  5
7633
  8
SP
  2
_OPEN
 10
4622.9505320783064
 20
2179.897013735369
 30
0.0
 41
25.0
 42
25.0
 43
25.0
  0
INSERT
  5
7634
  8
SP
  2
_OPEN
 10
4172.9505320783064
 20
2179.897013735369
 30
0.0
 41
25.0
 42
25.0
 43
25.0
 50
180.0
  0
TEXT
  5
7635
  8
SP
 10
4355.4999744937732
 20
2189.897013735369
 30
0.0
 40
30.0
  1
450
 51
15.0
  0
POINT
  5
7636
  8
DEFPOINTS
 62
     0
 10
4622.9505320783064
 20
2109.8970137353681
 30
0.0
  0
POINT
  5
7637
  8
DEFPOINTS
 62
     0
 10
4172.9505320783064
 20
2109.8970137353681
 30
0.0
  0
POINT
  5
7638
  8
DEFPOINTS
 62
     0
 10
4172.9505320783064
 20
2179.897013735369
 30
0.0
  0
ENDBLK
  5
7607
  8
0
  0
BLOCK
  8
0
  2
*D24
 70
     1
 10
0.0
 20
0.0
 30
0.0
  3
*D24
  1

  0
LINE
  5
7759
  8
SP
 10
4632.9505320783064
 20
2109.8970137353708
 30
0.0
 11
4812.3371545438631
 21
2109.8970137353708
 31
0.0
  0
LINE
  5
775A
  8
SP
 10
4632.9505320783064
 20
1609.897013735371
 30
0.0
 11
4812.3371545438622
 21
1609.897013735371
 31
0.0
  0
LINE
  5
775B
  8
SP
 10
4802.3371545438631
 20
2084.8970137353708
 30
0.0
 11
4802.3371545438622
 21
1634.897013735371
 31
0.0
  0
INSERT
  5
775C
  8
SP
  2
_OPEN
 10
4802.3371545438631
 20
2109.8970137353708
 30
0.0
 41
25.0
 42
25.0
 43
25.0
 50
90.0
  0
INSERT
  5
775D
  8
SP
  2
_OPEN
 10
4802.3371545438622
 20
1609.897013735371
 30
0.0
 41
25.0
 42
25.0
 43
25.0
 50
270.0
  0
TEXT
  5
775E
  8
SP
 10
4792.3371545438613
 20
1818.020632991761
 30
0.0
 40
30.0
  1
500
 50
90.0
 51
15.0
  0
POINT
  5
775F
  8
DEFPOINTS
 62
     0
 10
4622.9505320783064
 20
2109.8970137353708
 30
0.0
  0
POINT
  5
7760
  8
DEFPOINTS
 62
     0
 10
4622.9505320783064
 20
1609.897013735371
 30
0.0
  0
POINT
  5
7761
  8
DEFPOINTS
 62
     0
 10
4802.3371545438622
 20
1609.897013735371
 30
0.0
  0
ENDBLK
  5
7740
  8
0
  0
BLOCK
  8
0
  2
*D25
 70
     1
 10
0.0
 20
0.0
 30
0.0
  3
*D25
  1

  0
LINE
  5
778F
  8
SP
 10
4671.3610726997058
 20
1955.8970137353699
 30
0.0
 11
4723.661948410966
 21
1955.8970137353699
 31
0.0
  0
LINE
  5
7790
  8
SP
 10
4632.9505320783064
 20
1609.897013735371
 30
0.0
 11
4723.661948410966
 21
1609.897013735371
 31
0.0
  0
LINE
  5
7791
  8
SP
 10
4713.6619484109669
 20
1930.8970137353699
 30
0.0
 11
4713.6619484109669
 21
1634.897013735371
 31
0.0
  0
INSERT
  5
7792
  8
SP
  2
_OPEN
 10
4713.6619484109669
 20
1955.8970137353699
 30
0.0
 41
25.0
 42
25.0
 43
25.0
 50
90.0
  0
INSERT
  5
7793
  8
SP
  2
_OPEN
 10
4713.6619484109669
 20
1609.897013735371
 30
0.0
 41
25.0
 42
25.0
 43
25.0
 50
270.0
  0
TEXT
  5
7794
  8
SP
 10
4703.661948410966
 20
1741.5435264257401
 30
0.0
 40
30.0
  1
346
 50
90.0
 51
15.0
  0
POINT
  5
7795
  8
DEFPOINTS
 62
     0
 10
4661.3610726997067
 20
1955.8970137353699
 30
0.0
  0
POINT
  5
7796
  8
DEFPOINTS
 62
     0
 10
4622.9505320783064
 20
1609.897013735371
 30
0.0
  0
POINT
  5
7797
  8
DEFPOINTS
 62
     0
 10
4713.6619484109669
 20
1609.897013735371
 30
0.0
  0
ENDBLK
  5
774C
  8
0
  0
BLOCK
  8
0
  2
*D26
 70
     1
 10
0.0
 20
0.0
 30
0.0
  3
*D26
  1

  0
LINE
  5
7786
  8
SP
 10
4671.3610726997058
 20
1955.8970137353699
 30
0.0
 11
4723.661948410966
 21
1955.8970137353699
 31
0.0
  0
LINE
  5
7787
  8
SP
 10
4632.9505320783064
 20
2109.8970137353708
 30
0.0
 11
4723.661948410966
 21
2109.8970137353708
 31
0.0
  0
LINE
  5
7788
  8
SP
 10
4713.6619484109651
 20
1980.8970137353699
 30
0.0
 11
4713.6619484109669
 21
2084.8970137353708
 31
0.0
  0
INSERT
  5
7789
  8
SP
  2
_OPEN
 10
4713.6619484109651
 20
1955.8970137353699
 30
0.0
 41
25.0
 42
25.0
 43
25.0
 50
270.0
  0
INSERT
  5
778A
  8
SP
  2
_OPEN
 10
4713.6619484109669
 20
2109.8970137353708
 30
0.0
 41
25.0
 42
25.0
 43
25.0
 50
90.0
  0
TEXT
  5
778B
  8
SP
 10
4703.661948410966
 20
1991.8750275794091
 30
0.0
 40
30.0
  1
154
 50
90.0
 51
15.0
  0
POINT
  5
778C
  8
DEFPOINTS
 62
     0
 10
4661.3610726997067
 20
1955.8970137353699
 30
0.0
  0
POINT
  5
778D
  8
DEFPOINTS
 62
     0
 10
4622.9505320783064
 20
2109.8970137353708
 30
0.0
  0
POINT
  5
778E
  8
DEFPOINTS
 62
     0
 10
4713.6619484109669
 20
2109.8970137353708
 30
0.0
  0
ENDBLK
  5
7758
  8
0
  0
BLOCK
  8
0
  2
*U27
 70
     1
 10
0.0
 20
0.0
 30
0.0
  3
*U27
  1

  0
TEXT
  5
780C
  8
SP
 10
5534.1280260249741
 20
981.17237207246387
 30
0.0
 40
30.0
  1
\U+2205
 50
90.0
 51
15.0
  0
TEXT
  5
780D
  8
SP
 10
5534.1280260249741
 20
1008.315229215321
 30
0.0
 40
30.0
  1
200
 50
90.0
 51
15.0
  0
ENDBLK
  5
780F
  8
0
  0
ENDSEC
  0
SECTION
  2
ENTITIES
  0
LINE
  5
55AB
  8
4
 10
3791.5304363835421
 20
0.0000009706882338
 30
0.0
 11
3791.5304363835421
 21
2950.0000009706878
 31
0.0
  0
LINE
  5
55AC
  8
4
 10
5891.530436383543
 20
2950.0000009706878
 30
0.0
 11
5891.530436383543
 21
0.0000009706882338
 31
0.0
  0
LINE
  5
55AF
  8
4
 10
5891.530436383543
 20
0.0000009706882338
 30
0.0
 11
3791.5304363835421
 21
0.0000009706882338
 31
0.0
  0
TEXT
  5
5691
  8
4
 10
4769.209181871207
 20
349.12491115837628
 30
0.0
 40
50.0
  1
ミツヤ多翼送風機
  0
TEXT
  5
5692
  8
4
 10
4778.1849319690227
 20
243.71272648075109
 30
0.0
 40
50.0
  1
MF＃1 1/4- 7
  0
LINE
  5
5693
  8
4
 10
4241.5304363835421
 20
426.55314220080771
 30
0.0
 11
5441.5304363835421
 21
426.55314220080771
 31
0.0
  0
LINE
  5
5694
  8
4
 10
4241.5304363835421
 20
326.55314220080771
 30
0.0
 11
5441.5304363835421
 21
326.55314220080771
 31
0.0
  0
LINE
  5
5695
  8
4
 10
4241.5304363835421
 20
226.55314220080771
 30
0.0
 11
5441.5304363835421
 21
226.55314220080771
 31
0.0
  0
LINE
  5
5697
  8
4
 10
4741.5304363835421
 20
426.55314220080771
 30
0.0
 11
4741.530436383543
 21
226.55314220080771
 31
0.0
  0
LINE
  5
5698
  8
4
 10
4241.5304363835421
 20
426.55314220080771
 30
0.0
 11
4241.530436383543
 21
226.55314220080771
 31
0.0
  0
TEXT
  5
569A
  8
4
 10
4277.7885424083397
 20
248.19829893281869
 30
0.0
 40
50.0
  1
機器型番
  0
TEXT
  5
569B
  8
4
 10
4280.0325172304438
 20
358.09616806742059
 30
0.0
 40
50.0
  1
機器名称
  0
LINE
  5
569C
  8
4
 10
5441.5304363835421
 20
426.55314220080771
 30
0.0
 11
5441.530436383543
 21
226.55314220080771
 31
0.0
  0
LINE
  5
56AA
  8
1
 10
5263.8934153480959
 20
1168.9956548530949
 30
0.0
 11
5263.8934153480977
 21
803.9956548530954
 31
0.0
  0
LINE
  5
56AB
  8
1
 10
5265.4934153480972
 20
1168.9956548530949
 30
0.0
 11
5265.4934153480972
 21
803.9956548530954
 31
0.0
  0
LINE
  5
56AC
  8
2
 10
5342.4934153480981
 20
1265.834665581631
 30
0.0
 11
5342.4934153480981
 21
875.01297153561961
 31
0.0
  0
LINE
  5
56AD
  8
2
 10
4397.9505320783064
 20
1220.1561682696949
 30
0.0
 11
4397.9505320783064
 21
756.04084370005864
 31
0.0
  0
ARC
  5
56AE
  8
1
 10
4411.9505320783064
 20
1029.9956548530961
 30
0.0
 40
165.0
 50
180.0
 51
227.16657193393391
  0
ARC
  5
56AF
  8
1
 10
4411.9505320783064
 20
1029.9956548530961
 30
0.0
 40
154.0
 50
166.8972379658976
 51
231.78678929825861
  0
ARC
  5
56B0
  8
1
 10
4413.9505320783064
 20
1059.9956548530961
 30
0.0
 40
195.0
 50
262.67794040955272
 51
0.000000000000007
  0
ARC
  5
56B1
  8
1
 10
4413.9505320783064
 20
1059.9956548530961
 30
0.0
 40
184.0
 50
262.69708871759372
 51
0.000000000000007
  0
LINE
  5
56B2
  8
1
 10
4262.9505320783064
 20
1097.695654853095
 30
0.0
 11
4262.9505320783064
 21
803.99565485309483
 31
0.0
  0
LINE
  5
56B3
  8
1
 10
4532.9505320783046
 20
1097.695654853095
 30
0.0
 11
4532.9505320783046
 21
803.99565485309483
 31
0.0
  0
LINE
  5
56B4
  8
1
 10
4531.3505320783052
 20
1099.037772500154
 30
0.0
 11
4531.3505320783052
 21
969.39565485309549
 31
0.0
  0
LINE
  5
56B5
  8
1
 10
4264.550532078305
 20
1099.037772500154
 30
0.0
 11
4264.550532078305
 21
971.99565485309529
 31
0.0
  0
CIRCLE
  5
56B6
  8
1
 10
4397.9505320783064
 20
1043.9956548530949
 30
0.0
 40
60.038630514616607
  0
CIRCLE
  5
56B7
  8
1
 10
4397.9505320783064
 20
1043.9956548530949
 30
0.0
 40
69.388168961305382
  0
ARC
  5
56B8
  8
1
 10
4397.9505320783064
 20
1043.9956548530949
 30
0.0
 40
75.0
 50
292.3051532135043
 51
247.69484678649559
  0
CIRCLE
  5
56B9
  8
CT
 10
4397.9505320783046
 20
1043.9956548530949
 30
0.0
 40
110.0
  0
DIMENSION
  5
56BA
  8
SP
  2
*D9
 10
4090.0288407241969
 20
773.99565485309495
 30
0.0
 11
4065.0288407241969
 21
908.99565485309574
 31
0.0
 70
     0
 13
4222.2849030726193
 23
1043.9956548530949
 33
0.0
 14
4172.9505320783064
 24
773.99565485309495
 34
0.0
 50
90.0
  0
LINE
  5
56BB
  8
1
 10
5271.4934153480972
 20
1203.9956548530949
 30
0.0
 11
5271.4934153480972
 21
912.99565485309529
 31
0.0
  0
LINE
  5
56BC
  8
1
 10
5272.4934153480981
 20
1203.9956548530949
 30
0.0
 11
5272.4934153480981
 21
912.99565485309529
 31
0.0
  0
DIMENSION
  5
56BD
  8
3
  2
*D4
 10
5544.1280260249741
 20
943.9956548530954
 30
0.0
 11
5519.1280260249741
 21
1043.9956548530961
 31
0.0
 70
     0
  1
%%c<>
 13
5419.4934153480963
 23
1143.9956548530949
 33
0.0
 14
5419.4934153480963
 24
943.9956548530954
 34
0.0
 50
90.0
  0
LINE
  5
56BE
  8
1
 10
5419.4934153480963
 20
1160.995654853094
 30
0.0
 11
5419.4934153480963
 21
926.9956548530954
 31
0.0
  0
LINE
  5
56BF
  8
1
 10
5412.4934153480972
 20
1203.9956548530949
 30
0.0
 11
5412.4934153480972
 21
912.99565485309529
 31
0.0
  0
LINE
  5
56C0
  8
1
 10
5413.4934153480972
 20
1203.9956548530949
 30
0.0
 11
5413.4934153480963
 21
912.99565485309529
 31
0.0
  0
LINE
  5
56C1
  8
2
 10
5163.4934153480972
 20
1132.286808899627
 30
0.0
 11
5163.4934153480972
 21
964.87221010250676
 31
0.0
  0
LINE
  5
56C2
  8
1
 10
5077.416506357069
 20
1118.9956548530949
 30
0.0
 11
5077.416506357069
 21
974.60748589178945
 31
0.0
  0
LINE
  5
56C3
  8
1
 10
5104.3602895469612
 20
1118.9956548530949
 30
0.0
 11
5104.3602895469612
 21
974.60748589178945
 31
0.0
  0
LINE
  5
56C4
  8
1
 10
5042.4934153480972
 20
1104.0342853677109
 30
0.0
 11
5042.4934153480972
 21
983.95702433847816
 31
0.0
  0
LINE
  5
56C5
  8
1
 10
5222.1934153480979
 20
1063.9956548530949
 30
0.0
 11
5095.4934153480981
 21
805.59565485309543
 31
0.0
  0
LINE
  5
56C6
  8
1
 10
5263.8934153480977
 20
805.59565485309543
 30
0.0
 11
5095.4934153480981
 21
805.59565485309543
 31
0.0
  0
LINE
  5
56C8
  8
1
 10
5134.8448759940529
 20
976.94027839224054
 30
0.0
 11
5176.2354311914723
 21
976.94027839224054
 31
0.0
  0
LINE
  5
56C9
  8
1
 10
5140.2570117590058
 20
992.73714099371875
 30
0.0
 11
5184.5748582398364
 21
992.73714099371875
 31
0.0
  0
LINE
  5
56CA
  8
1
 10
5092.1934153480979
 20
971.99565485309529
 30
0.0
 11
5173.6250820147661
 21
971.99565485309529
 31
0.0
  0
LINE
  5
56CB
  8
1
 10
5174.1529986814321
 20
972.99565485309495
 30
0.0
 11
5108.4934153480972
 21
972.99565485309495
 31
0.0
  0
LINE
  5
56CC
  8
1
 10
5094.979144624067
 20
970.39565485309549
 30
0.0
 11
5173.6250820147661
 21
970.39565485309549
 31
0.0
  0
LINE
  5
56CD
  8
1
 10
5295.4934153480972
 20
803.9956548530954
 30
0.0
 11
5095.4934153480981
 21
803.9956548530954
 31
0.0
  0
ARC
  5
56D1
  8
1
 10
4411.9505320783064
 20
1029.9956548530961
 30
0.0
 40
165.0
 50
227.16657193393391
 51
262.03909526263851
  0
ARC
  5
56D2
  8
1
 10
4411.9505320783064
 20
1029.9956548530961
 30
0.0
 40
154.0
 50
231.78678929825861
 51
262.01634144406341
  0
LINE
  5
56D3
  8
1
 10
4529.7505320783048
 20
969.39565485309504
 30
0.0
 11
4529.7505320783048
 21
876.69565485309522
 31
0.0
  0
LINE
  5
56D4
  8
1
 10
4531.3505320783052
 20
969.39565485309549
 30
0.0
 11
4531.3505320783052
 21
876.69565485309522
 31
0.0
  0
LINE
  5
56D5
  8
1
 10
4266.1505320783072
 20
969.39565485309504
 30
0.0
 11
4266.1505320783062
 21
876.69565485309522
 31
0.0
  0
LINE
  5
56D6
  8
1
 10
4264.5505320783059
 20
969.39565485309549
 30
0.0
 11
4264.5505320783059
 21
876.69565485309522
 31
0.0
  0
LINE
  5
56D7
  8
1
 10
4562.9505320783064
 20
803.99565485309483
 30
0.0
 11
4232.9505320783037
 21
803.9956548530954
 31
0.0
  0
LINE
  5
56D8
  8
1
 10
4531.3505320783052
 20
876.69565485309522
 30
0.0
 11
4531.3505320783052
 21
806.59565485309531
 31
0.0
  0
ARC
  5
56DA
  8
1
 10
4533.9505320783046
 20
806.59565485309531
 30
0.0
 40
1.0
 50
180.0
 51
270.0
  0
ARC
  5
56DB
  8
1
 10
4533.9505320783046
 20
806.59565485309531
 30
0.0
 40
2.6000000000000001
 50
180.0
 51
270.0
  0
LINE
  5
56DC
  8
1
 10
4562.9505320783046
 20
805.59565485309543
 30
0.0
 11
4562.9505320783046
 21
803.9956548530954
 31
0.0
  0
LINE
  5
56DD
  8
1
 10
4562.9505320783064
 20
805.59565485309543
 30
0.0
 11
4533.9505320783046
 21
805.59565485309543
 31
0.0
  0
LINE
  5
56DE
  8
1
 10
4531.3505320783052
 20
876.69565485309522
 30
0.0
 11
4529.7505320783048
 21
876.69565485309522
 31
0.0
  0
LINE
  5
56DF
  8
1
 10
4264.5505320783059
 20
876.69565485309522
 30
0.0
 11
4264.5505320783059
 21
806.59565485309531
 31
0.0
  0
LINE
  5
56E0
  8
1
 10
4261.9505320783064
 20
805.59565485309543
 30
0.0
 11
4232.9505320783037
 21
805.59565485309543
 31
0.0
  0
ARC
  5
56E1
  8
1
 10
4261.9505320783064
 20
806.59565485309531
 30
0.0
 40
2.6000000000000001
 50
270.0
 51
0.000000000000007
  0
ARC
  5
56E2
  8
1
 10
4261.9505320783064
 20
806.59565485309531
 30
0.0
 40
1.0
 50
270.0
 51
0.000000000000007
  0
LINE
  5
56E4
  8
1
 10
4232.9505320783046
 20
805.59565485309543
 30
0.0
 11
4232.9505320783037
 21
803.9956548530954
 31
0.0
  0
LINE
  5
56E5
  8
1
 10
4266.1505320783062
 20
876.69565485309522
 30
0.0
 11
4264.5505320783059
 21
876.69565485309522
 31
0.0
  0
LINE
  5
56E6
  8
1
 10
4528.7505320783048
 20
970.39565485309504
 30
0.0
 11
4486.2983581652634
 21
970.39565485309504
 31
0.0
  0
CIRCLE
  5
56E7
  8
1
 10
4499.5772806545474
 20
1001.900477292935
 30
0.0
 40
4.0
  0
LINE
  5
56E8
  8
CT
 10
4492.4002665591752
 20
1004.873293868582
 30
0.0
 11
4506.9031048671786
 21
998.86602154850277
 31
0.0
  0
LINE
  5
56E9
  8
1
 10
4528.7505320783048
 20
971.99565485309529
 30
0.0
 11
4267.1505320783062
 21
971.99565485309529
 31
0.0
  0
ARC
  5
56EA
  8
1
 10
4528.7505320783048
 20
969.39565485309504
 30
0.0
 40
1.0
 50
0.000000000000007
 51
90.0
  0
ARC
  5
56EB
  8
1
 10
4528.7505320783048
 20
969.39565485309549
 30
0.0
 40
2.6000000000000001
 50
0.000000000000007
 51
90.0
  0
LINE
  5
56EC
  8
1
 10
4447.9505320783064
 20
953.5956548530952
 30
0.0
 11
4489.9505320783064
 21
971.99565485309529
 31
0.0
  0
LINE
  5
56ED
  8
1
 10
4347.9505320783064
 20
953.5956548530952
 30
0.0
 11
4305.9505320783064
 21
971.99565485309529
 31
0.0
  0
CIRCLE
  5
56EE
  8
1
 10
4355.8553545181458
 20
942.36890627685341
 30
0.0
 40
4.0
  0
LINE
  5
56EF
  8
1
 10
4447.9505320783064
 20
953.5956548530952
 30
0.0
 11
4347.9505320783064
 21
953.5956548530952
 31
0.0
  0
CIRCLE
  5
56F0
  8
1
 10
4440.0457096384653
 20
942.36890627685489
 30
0.0
 40
4.0
  0
LINE
  5
56F1
  8
CT
 10
4437.0728930628193
 20
949.54592037222619
 30
0.0
 11
4443.0801653828976
 21
935.0430820642232
 31
0.0
  0
LINE
  5
56F2
  8
CT
 10
4358.8281710937918
 20
949.54592037222574
 30
0.0
 11
4352.8208987737116
 21
935.04308206422274
 31
0.0
  0
LINE
  5
56F3
  8
1
 10
4357.9505320783064
 20
972.99565485309529
 30
0.0
 11
4366.1293923338253
 21
976.08089161738735
 31
0.0
  0
LINE
  5
56F4
  8
1
 10
4486.2983581652634
 20
970.39565485309504
 30
0.0
 11
4309.6027059913504
 21
970.39565485309504
 31
0.0
  0
LINE
  5
56F5
  8
1
 10
4467.9505320783064
 20
972.99565485309529
 30
0.0
 11
4450.481183592311
 21
990.46500333908898
 31
0.0
  0
LINE
  5
56F6
  8
1
 10
4437.9505320783064
 20
972.99565485309529
 30
0.0
 11
4467.9505320783064
 21
972.99565485309529
 31
0.0
  0
LINE
  5
56F7
  8
1
 10
4467.9505320783064
 20
972.99565485309529
 30
0.0
 11
4467.9505320783046
 21
971.99565485309529
 31
0.0
  0
LINE
  5
56F8
  8
1
 10
4437.9505320783064
 20
972.99565485309529
 30
0.0
 11
4429.7716718227857
 21
976.08089161738735
 31
0.0
  0
LINE
  5
56F9
  8
1
 10
4453.9505320783064
 20
963.99565485309529
 30
0.0
 11
4453.9505320783064
 21
981.92271906741871
 31
0.0
  0
LINE
  5
56FA
  8
1
 10
4437.9505320783064
 20
972.99565485309529
 30
0.0
 11
4437.9505320783046
 21
971.99565485309529
 31
0.0
  0
LINE
  5
56FB
  8
1
 10
4369.4850791889294
 20
974.60748589179002
 30
0.0
 11
4426.4159849676826
 21
974.60748589179002
 31
0.0
  0
LINE
  5
56FC
  8
1
 10
4357.9505320783064
 20
972.99565485309529
 30
0.0
 11
4327.9505320783073
 21
972.99565485309529
 31
0.0
  0
LINE
  5
56FD
  8
1
 10
4341.9505320783064
 20
963.99565485309529
 30
0.0
 11
4341.9505320783064
 21
981.92271906741871
 31
0.0
  0
LINE
  5
56FE
  8
1
 10
4327.9505320783073
 20
972.99565485309529
 30
0.0
 11
4345.4198805642991
 21
990.46500333908898
 31
0.0
  0
LINE
  5
56FF
  8
1
 10
4357.9505320783064
 20
972.99565485309529
 30
0.0
 11
4357.9505320783064
 21
971.99565485309529
 31
0.0
  0
LINE
  5
5700
  8
1
 10
4327.9505320783073
 20
972.99565485309529
 30
0.0
 11
4327.9505320783064
 21
971.99565485309529
 31
0.0
  0
LINE
  5
5701
  8
1
 10
4309.6027059913504
 20
970.39565485309504
 30
0.0
 11
4267.1505320783062
 21
970.39565485309504
 31
0.0
  0
CIRCLE
  5
5702
  8
1
 10
4296.3237835020655
 20
1001.900477292936
 30
0.0
 40
4.0
  0
LINE
  5
5703
  8
CT
 10
4303.5007975974349
 20
1004.873293868581
 30
0.0
 11
4288.9979592894324
 21
998.86602154850277
 31
0.0
  0
ARC
  5
5704
  8
1
 10
4267.1505320783062
 20
969.39565485309549
 30
0.0
 40
2.6000000000000001
 50
90.0
 51
180.0
  0
ARC
  5
5705
  8
1
 10
4267.1505320783062
 20
969.39565485309504
 30
0.0
 40
1.0
 50
90.0
 51
180.0
  0
LINE
  5
5706
  8
1
 10
5096.5934153480976
 20
971.99565485309529
 30
0.0
 11
5132.425092611511
 21
895.08667189806465
 31
0.0
  0
LINE
  5
5707
  8
1
 10
5095.4934153480981
 20
805.59565485309543
 30
0.0
 11
5095.4934153480981
 21
803.9956548530954
 31
0.0
  0
LINE
  5
5709
  8
1
 10
5132.425092611511
 20
895.08667189806465
 30
0.0
 11
5135.8103510104002
 21
887.82056546981858
 31
0.0
  0
LINE
  5
570A
  8
1
 10
5089.5934153480966
 20
969.39565485309549
 30
0.0
 11
5089.5934153480966
 21
953.5956548530952
 31
0.0
  0
LINE
  5
570B
  8
1
 10
5091.193415348097
 20
969.39565485309549
 30
0.0
 11
5091.193415348097
 21
953.5956548530952
 31
0.0
  0
LINE
  5
570C
  8
1
 10
5089.5934153480966
 20
953.5956548530952
 30
0.0
 11
5091.193415348097
 21
953.5956548530952
 31
0.0
  0
LINE
  5
570D
  8
CT
 10
5118.4934153480981
 20
985.29792081511539
 30
0.0
 11
5118.4934153480981
 21
964.87221010250676
 31
0.0
  0
LINE
  5
570E
  8
1
 10
5104.3602895469612
 20
978.04512189848128
 30
0.0
 11
5108.4934153480972
 21
978.04512189848128
 31
0.0
  0
LINE
  5
570F
  8
1
 10
5133.4934153480972
 20
972.99565485309495
 30
0.0
 11
5108.4934153480972
 21
972.99565485309495
 31
0.0
  0
LINE
  5
5710
  8
1
 10
5108.4934153480972
 20
981.58749494825679
 30
0.0
 11
5108.4934153480963
 21
971.99565485309529
 31
0.0
  0
LINE
  5
5711
  8
1
 10
5140.2570117590058
 20
992.73714099371875
 30
0.0
 11
5133.4934153480972
 21
972.99565485309495
 31
0.0
  0
LINE
  5
5712
  8
1
 10
5108.4934153480972
 20
981.58749494825679
 30
0.0
 11
5136.437050817929
 21
981.58749494825679
 31
0.0
  0
ARC
  5
5713
  8
1
 10
5092.1934153480979
 20
969.39565485309549
 30
0.0
 40
2.6000000000000001
 50
90.0
 51
180.0
  0
LINE
  5
5714
  8
1
 10
5092.1934153480979
 20
970.39565485309549
 30
0.0
 11
5094.979144624067
 21
970.39565485309549
 31
0.0
  0
ARC
  5
5715
  8
1
 10
5092.1934153480979
 20
969.39565485309549
 30
0.0
 40
1.0
 50
90.0
 51
180.0
  0
LINE
  5
5716
  8
1
 10
5042.4934153480972
 20
983.95702433847816
 30
0.0
 11
5077.416506357069
 21
977.49133173880375
 31
0.0
  0
LINE
  5
5717
  8
1
 10
5104.3602895469612
 20
974.60748589178945
 30
0.0
 11
5077.416506357069
 21
974.60748589178945
 31
0.0
  0
LINE
  5
5719
  8
1
 10
5295.4934153480972
 20
805.59565485309543
 30
0.0
 11
5265.4934153480972
 21
805.59565485309543
 31
0.0
  0
LINE
  5
571A
  8
1
 10
5295.4934153480972
 20
805.59565485309543
 30
0.0
 11
5267.0934153480976
 21
805.59565485309543
 31
0.0
  0
LINE
  5
571C
  8
1
 10
5295.4934153480972
 20
805.59565485309543
 30
0.0
 11
5295.4934153480972
 21
803.9956548530954
 31
0.0
  0
POINT
  5
571D
  8
1
 10
5342.4934153480981
 20
878.78906864535838
 30
0.0
  0
LINE
  5
571E
  8
1
 10
5281.4934153480981
 20
902.9956548530954
 30
0.0
 11
5403.4934153480963
 21
902.9956548530954
 31
0.0
  0
LINE
  5
571F
  8
1
 10
5281.4934153480981
 20
903.9956548530954
 30
0.0
 11
5403.4934153480963
 21
903.9956548530954
 31
0.0
  0
ARC
  5
5720
  8
1
 10
5281.4934153480981
 20
912.99565485309529
 30
0.0
 40
10.0
 50
180.0
 51
270.0
  0
ARC
  5
5721
  8
1
 10
5281.4934153480981
 20
912.99565485309529
 30
0.0
 40
9.0
 50
180.0
 51
270.0
  0
ARC
  5
5722
  8
1
 10
5268.4934153480972
 20
926.9956548530954
 30
0.0
 40
3.0
 50
180.0
 51
270.0
  0
LINE
  5
5723
  8
1
 10
5269.4934153480972
 20
923.99565485309529
 30
0.0
 11
5268.4934153480972
 21
923.99565485309529
 31
0.0
  0
ARC
  5
5724
  8
1
 10
5269.4934153480972
 20
920.9956548530954
 30
0.0
 40
3.0
 50
48.189685104221901
 51
90.0
  0
LINE
  5
5725
  8
FUTO
 10
5412.4934153480972
 20
943.9956548530954
 30
0.0
 11
5419.4934153480963
 21
943.9956548530954
 31
0.0
  0
ARC
  5
5726
  8
1
 10
5415.4934153480972
 20
920.9956548530954
 30
0.0
 40
3.0
 50
90.0
 51
131.81031489577811
  0
ARC
  5
5727
  8
1
 10
5403.4934153480963
 20
912.99565485309529
 30
0.0
 40
9.0
 50
269.99999999999989
 51
0.0
  0
ARC
  5
5728
  8
1
 10
5403.4934153480963
 20
912.99565485309529
 30
0.0
 40
10.0
 50
269.99999999999989
 51
0.0
  0
LINE
  5
5729
  8
1
 10
5415.4934153480972
 20
923.99565485309529
 30
0.0
 11
5416.4934153480963
 21
923.99565485309529
 31
0.0
  0
ARC
  5
572A
  8
1
 10
5416.4934153480963
 20
926.9956548530954
 30
0.0
 40
3.0
 50
270.0
 51
0.0
  0
LINE
  5
572B
  8
1
 10
5173.6250820147661
 20
971.99565485309529
 30
0.0
 11
5177.0835082273543
 21
971.99565485309529
 31
0.0
  0
LINE
  5
572C
  8
1
 10
5173.6250820147661
 20
970.39565485309549
 30
0.0
 11
5176.2989881035173
 21
970.39565485309549
 31
0.0
  0
LINE
  5
572D
  8
1
 10
5177.5738333047548
 20
972.99565485309483
 30
0.0
 11
5174.1529986814321
 21
972.99565485309495
 31
0.0
  0
LINE
  5
572E
  8
1
 10
5176.2354311914723
 20
976.94027839224054
 30
0.0
 11
5179.5079811468968
 21
976.94027839224054
 31
0.0
  0
LINE
  5
572F
  8
1
 10
5186.7298189371877
 20
992.73714099371875
 30
0.0
 11
5186.9452557881305
 21
992.10832706859946
 31
0.0
  0
LINE
  5
5730
  8
1
 10
5184.5748582398364
 20
992.73714099371875
 30
0.0
 11
5186.7298189371877
 21
992.73714099371875
 31
0.0
  0
DIMENSION
  5
5731
  8
SP
  2
*D7
 10
5042.4934153480972
 20
1343.9956548530949
 30
0.0
 11
5192.4934153480972
 21
1368.9956548530949
 31
0.0
 70
     0
  1
（340）
 13
5342.4934153480981
 23
1313.9956548530949
 33
0.0
 14
5042.4934153480972
 24
1104.0342853677109
 34
0.0
  0
LINE
  5
5732
  8
2
 10
5002.4934153480972
 20
1043.995654853094
 30
0.0
 11
5462.7073753132636
 21
1043.9956548530949
 31
0.0
  0
LINE
  5
5733
  8
1
 10
5104.3602895469612
 20
1107.246026409548
 30
0.0
 11
5234.9934153480972
 21
1107.246026409548
 31
0.0
  0
DIMENSION
  5
5734
  8
SP
  2
*D8
 10
4597.9505320783064
 20
1273.9956548530949
 30
0.0
 11
4497.9505320783064
 21
1298.9956548530949
 31
0.0
 70
     0
 13
4397.9505320783064
 23
1220.1561682696949
 33
0.0
 14
4597.9505320783064
 24
1203.9956548530961
 34
0.0
 50
180.0
  0
DIMENSION
  5
5735
  8
SP
  2
*D11
 10
4257.9505320783064
 20
1273.9956548530949
 30
0.0
 11
4327.9505320783073
 21
1298.9956548530949
 31
0.0
 70
     0
 13
4397.9505320783064
 23
1220.1561682696949
 33
0.0
 14
4257.9505320783064
 24
1029.9956548530961
 34
0.0
 50
180.0
  0
DIMENSION
  5
5736
  8
SP
  2
*D10
 10
4090.0288407241969
 20
1203.9956548530961
 30
0.0
 11
4065.028840724196
 21
1123.9956548530961
 31
0.0
 70
     0
 13
4222.2849030726193
 23
1043.9956548530949
 33
0.0
 14
4376.9505320783064
 24
1203.9956548530961
 34
0.0
 50
90.0
  0
LINE
  5
5737
  8
1
 10
4597.9505320783064
 20
1059.9956548530961
 30
0.0
 11
4597.9505320783064
 21
1203.9956548530961
 31
0.0
  0
ARC
  5
5738
  8
1
 10
4386.9505320783064
 20
1032.995654853097
 30
0.0
 40
129.0
 50
101.229794068544
 51
165.677695662047
  0
ARC
  5
5739
  8
1
 10
4386.9505320783064
 20
1032.995654853097
 30
0.0
 40
140.0
 50
101.5583801556257
 51
180.0
  0
LINE
  5
573A
  8
1
 10
4608.9505320783064
 20
1059.9956548530961
 30
0.0
 11
4608.9505320783064
 21
1188.9956548530961
 31
0.0
  0
LINE
  5
573B
  8
1
 10
4447.9505320783064
 20
1168.9956548530949
 30
0.0
 11
4532.9505320783064
 21
1097.695654853095
 31
0.0
  0
LINE
  5
573C
  8
1
 10
4347.9505320783064
 20
1168.9956548530949
 30
0.0
 11
4262.9505320783064
 21
1097.695654853095
 31
0.0
  0
LINE
  5
573D
  8
2
 10
4629.7568680211443
 20
1043.9956548530949
 30
0.0
 11
4222.2849030726193
 21
1043.9956548530949
 31
0.0
  0
CIRCLE
  5
573E
  8
1
 10
4499.5772806545474
 20
1086.0908324132561
 30
0.0
 40
4.0
  0
LINE
  5
573F
  8
CT
 10
4492.4002665591752
 20
1083.1180158376089
 30
0.0
 11
4506.9031048671786
 21
1089.1252881576879
 31
0.0
  0
LINE
  5
5740
  8
1
 10
4246.9505320783046
 20
1032.9956548530961
 30
0.0
 11
4246.9505320783046
 21
1029.9956548530949
 31
0.0
  0
CIRCLE
  5
5741
  8
1
 10
4296.3237835020627
 20
1086.0908324132549
 30
0.0
 40
4.0
  0
LINE
  5
5742
  8
CT
 10
4303.5007975974349
 20
1083.118015837608
 30
0.0
 11
4288.9979592894324
 21
1089.125288157687
 31
0.0
  0
LINE
  5
5743
  8
1
 10
4586.1505320783072
 20
1188.995654853097
 30
0.0
 11
4409.7505320783057
 21
1188.9956548530961
 31
0.0
  0
LINE
  5
5744
  8
1
 10
4618.9505320783064
 20
1202.3956548530959
 30
0.0
 11
4376.9505320783064
 21
1202.3956548530959
 31
0.0
  0
LINE
  5
5745
  8
1
 10
4618.9505320783064
 20
1203.9956548530961
 30
0.0
 11
4376.9505320783064
 21
1203.9956548530961
 31
0.0
  0
LINE
  5
5746
  8
1
 10
4618.9505320783064
 20
1202.3956548530959
 30
0.0
 11
4618.9505320783064
 21
1203.9956548530961
 31
0.0
  0
LINE
  5
5747
  8
1
 10
4597.9505320783064
 20
1200.795654853096
 30
0.0
 11
4586.1505320783072
 21
1188.995654853097
 31
0.0
  0
LINE
  5
5748
  8
1
 10
4608.9505320783064
 20
1188.9956548530961
 30
0.0
 11
4597.9505320783064
 21
1188.9956548530961
 31
0.0
  0
ARC
  5
5749
  8
1
 10
4387.9505320783046
 20
1188.26168312905
 30
0.0
 40
10.0
 50
317.4011871075466
 51
0.000000000000007
  0
ARC
  5
574A
  8
1
 10
4334.9505320783064
 20
1236.995654853097
 30
0.0
 40
71.0
 50
305.22419498061589
 51
317.46376526647327
  0
ARC
  5
574B
  8
1
 10
4334.9505320783064
 20
1236.995654853097
 30
0.0
 40
71.0
 50
289.71281874111719
 51
305.22419498061589
  0
CIRCLE
  5
574C
  8
1
 10
4355.8553545181458
 20
1145.6224034293371
 30
0.0
 40
4.0
  0
LINE
  5
574D
  8
1
 10
4447.9505320783064
 20
1168.995654853094
 30
0.0
 11
4347.9505320783046
 21
1168.9956548530949
 31
0.0
  0
ARC
  5
574E
  8
1
 10
4334.9505320783064
 20
1236.995654853097
 30
0.0
 40
82.0
 50
289.13409247443582
 51
317.4011871075466
  0
CIRCLE
  5
574F
  8
1
 10
4440.0457096384653
 20
1145.6224034293371
 30
0.0
 40
4.0
  0
LINE
  5
5750
  8
CT
 10
4437.0728930628193
 20
1138.4453893339651
 30
0.0
 11
4443.0801653828976
 21
1152.9482276419681
 31
0.0
  0
LINE
  5
5751
  8
CT
 10
4358.8281710937918
 20
1138.4453893339651
 30
0.0
 11
4352.8208987737116
 21
1152.9482276419681
 31
0.0
  0
LINE
  5
5752
  8
1
 10
4397.9505320783064
 20
1200.795654853096
 30
0.0
 11
4409.7505320783048
 21
1188.995654853097
 31
0.0
  0
LINE
  5
5753
  8
1
 10
4376.9505320783064
 20
1202.3956548530959
 30
0.0
 11
4376.9505320783064
 21
1203.9956548530961
 31
0.0
  0
LINE
  5
5754
  8
1
 10
4397.9505320783064
 20
1188.9956548530961
 30
0.0
 11
4397.9505320783064
 21
1202.3956548530959
 31
0.0
  0
LINE
  5
5755
  8
1
 10
4397.9505320783064
 20
1188.9956548530961
 30
0.0
 11
4397.9505320783064
 21
1188.26168312905
 31
0.0
  0
LINE
  5
5756
  8
1
 10
4397.9505320783064
 20
1188.9956548530961
 30
0.0
 11
4387.2668775164193
 21
1188.9956548530961
 31
0.0
  0
LINE
  5
5757
  8
1
 10
5042.4934153480972
 20
1104.0342853677109
 30
0.0
 11
5077.416506357069
 21
1115.3492474171419
 31
0.0
  0
POINT
  5
5758
  8
1
 10
5042.4934153480972
 20
1104.0342853677109
 30
0.0
  0
LINE
  5
5759
  8
1
 10
5077.416506357069
 20
1118.9956548530949
 30
0.0
 11
5104.3602895469612
 21
1118.9956548530949
 31
0.0
  0
DIMENSION
  5
575A
  8
SP
  2
*D6
 10
5419.4934153480963
 20
1343.9956548530949
 30
0.0
 11
5380.9934153480972
 21
1368.9956548530949
 31
0.0
 70
     0
 13
5342.4934153480981
 23
1308.908141808362
 33
0.0
 14
5419.4934153480963
 24
1160.995654853094
 34
0.0
  0
DIMENSION
  5
575B
  8
SP
  2
*D5
 10
5412.4934153480972
 20
1273.9956548530949
 30
0.0
 11
5342.4934153480963
 21
1298.9956548530949
 31
0.0
 70
     0
 13
5272.4934153480954
 23
1203.9956548530949
 33
0.0
 14
5412.4934153480972
 24
1203.9956548530949
 34
0.0
  0
LINE
  5
575C
  8
1
 10
5222.1934153480979
 20
1063.9956548530949
 30
0.0
 11
5265.4934153480972
 21
1110.7956548530949
 31
0.0
  0
LINE
  5
575D
  8
1
 10
5234.9934153480972
 20
1107.246026409548
 30
0.0
 11
5234.9934153480972
 21
1077.8302968854259
 31
0.0
  0
LINE
  5
575E
  8
FUTO
 10
5251.4934153480972
 20
1202.9956548530949
 30
0.0
 11
5433.4934153480972
 21
1202.9956548530949
 31
0.0
  0
LINE
  5
575F
  8
FUTO
 10
5251.4934153480972
 20
1203.9956548530949
 30
0.0
 11
5433.4934153480972
 21
1203.9956548530949
 31
0.0
  0
POINT
  5
5760
  8
1
 10
5265.4934153480972
 20
1160.995654853094
 30
0.0
  0
ARC
  5
5761
  8
1
 10
5268.4934153480972
 20
1160.995654853094
 30
0.0
 40
3.0
 50
90.0
 51
180.0
  0
LINE
  5
5762
  8
1
 10
5269.4934153480972
 20
1163.9956548530949
 30
0.0
 11
5268.4934153480972
 21
1163.995654853094
 31
0.0
  0
ARC
  5
5763
  8
1
 10
5269.4934153480972
 20
1166.9956548530949
 30
0.0
 40
3.0
 50
270.0
 51
311.81031489577953
  0
LINE
  5
5764
  8
1
 10
5265.4934153480972
 20
1168.9956548530949
 30
0.0
 11
5263.8934153480959
 21
1168.9956548530949
 31
0.0
  0
LINE
  5
5765
  8
1
 10
5263.8934153480959
 20
1168.9956548530949
 30
0.0
 11
5263.8934153480959
 21
1168.9956548530949
 31
0.0
  0
LINE
  5
5766
  8
1
 10
5263.8934153480959
 20
1168.9956548530949
 30
0.0
 11
5263.8934153480959
 21
1168.9956548530949
 31
0.0
  0
LINE
  5
5767
  8
1
 10
5263.8934153480959
 20
1168.9956548530949
 30
0.0
 11
5263.8934153480959
 21
1168.9956548530949
 31
0.0
  0
LINE
  5
5768
  8
FUTO
 10
5412.4934153480972
 20
1143.9956548530949
 30
0.0
 11
5419.4934153480963
 21
1143.9956548530949
 31
0.0
  0
ARC
  5
5769
  8
1
 10
5415.4934153480972
 20
1166.9956548530949
 30
0.0
 40
3.0
 50
228.18968510422039
 51
270.0
  0
LINE
  5
576A
  8
1
 10
5415.4934153480972
 20
1163.9956548530949
 30
0.0
 11
5416.4934153480963
 21
1163.995654853094
 31
0.0
  0
ARC
  5
576B
  8
1
 10
5416.4934153480963
 20
1160.995654853094
 30
0.0
 40
3.0
 50
0.0
 51
90.0
  0
POINT
  5
576C
  8
1
 10
5419.4934153480963
 20
1160.995654853094
 30
0.0
  0
LINE
  5
576D
  8
1
  6
CONTINUOUS
 10
5286.4934153480972
 20
1188.9956548530949
 30
0.0
 11
5398.4934153480972
 21
1188.9956548530949
 31
0.0
  0
LINE
  5
576E
  8
FUTO
 10
5251.4934153480972
 20
1202.9956548530949
 30
0.0
 11
5251.4934153480972
 21
1203.9956548530949
 31
0.0
  0
LINE
  5
576F
  8
1
  6
CONTINUOUS
 10
5271.4934153480972
 20
1203.9956548530949
 30
0.0
 11
5286.4934153480972
 21
1188.9956548530949
 31
0.0
  0
LINE
  5
5770
  8
1
  6
CONTINUOUS
 10
5413.4934153480972
 20
1203.9956548530949
 30
0.0
 11
5398.4934153480972
 21
1188.9956548530949
 31
0.0
  0
LINE
  5
5771
  8
FUTO
 10
5433.4934153480972
 20
1202.9956548530949
 30
0.0
 11
5433.4934153480972
 21
1203.9956548530949
 31
0.0
  0
LINE
  5
5841
  8
4
 10
3791.5304363835421
 20
2950.0000009706878
 30
0.0
 11
5891.530436383543
 21
2950.0000009706878
 31
0.0
  0
TEXT
  5
58A2
  8
4
 10
4093.8005844057998
 20
2382.3194785170322
 30
0.0
 40
53.999999999999993
  1
左回転上向
  0
TEXT
  5
58A5
  8
4
 10
5245.3883243708478
 20
2383.4288423032031
 30
0.0
 40
53.999999999999993
  1
縮尺：1/10
  0
TEXT
  5
5955
  8
4
 10
4294.3304363835423
 20
2533.4087552354931
 30
0.0
 40
72.0
  1
遠心式片吸込片持多翼ファン
 72
     4
 11
4841.530436383543
 21
2569.4087552354931
 31
0.0
  0
LINE
  5
5956
  8
4
 10
4041.5304363835421
 20
2669.4087552354931
 30
0.0
 11
5641.530436383543
 21
2669.4087552354931
 31
0.0
  0
LINE
  5
5957
  8
4
 10
4041.5304363835421
 20
2469.4087552354931
 30
0.0
 11
5641.530436383543
 21
2469.4087552354931
 31
0.0
  0
LINE
  5
5958
  8
4
 10
4041.5304363835421
 20
2669.4087552354931
 30
0.0
 11
4041.5304363835421
 21
2469.4087552354931
 31
0.0
  0
LINE
  5
5959
  8
4
 10
5641.530436383543
 20
2669.4087552354931
 30
0.0
 11
5641.530436383543
 21
2469.4087552354931
 31
0.0
  0
LINE
  5
595A
  8
4
 10
5641.530436383543
 20
2786.6522625204411
 30
0.0
 11
5641.530436383543
 21
2681.2635840960888
 31
0.0
  0
LINE
  5
595B
  8
4
 10
5232.1478587434058
 20
2681.2635840960888
 30
0.0
 11
5232.1478587434058
 21
2786.6522625204411
 31
0.0
  0
TEXT
  5
595C
  8
4
 10
5260.499995632832
 20
2706.0610824659971
 30
0.0
 40
56.000000000000007
  1
No.
  0
LINE
  5
595D
  8
4
 10
5641.530436383543
 20
2681.2635840960888
 30
0.0
 11
5232.1478587434058
 21
2681.2635840960888
 31
0.0
  0
LINE
  5
595E
  8
4
 10
5232.1478587434058
 20
2786.6522625204411
 30
0.0
 11
5641.530436383543
 21
2786.6522625204411
 31
0.0
  0
LINE
  5
595F
  8
4
 10
5891.530436383543
 20
2950.0000009706878
 30
0.0
 11
5891.530436383543
 21
2950.0000009706878
 31
0.0
  0
LINE
  5
6F34
  8
FUTO
 10
4622.9505320783064
 20
803.99565485309483
 30
0.0
 11
4622.9505320783064
 21
773.99565485309483
 31
0.0
  0
DIMENSION
  5
6F35
  8
SP
  2
*D17
 10
4172.9505320783064
 20
703.99565485309495
 30
0.0
 11
4285.4505320783064
 21
728.99565485309495
 31
0.0
 70
     0
 13
4397.9505320783064
 23
756.04084370005808
 33
0.0
 14
4172.9505320783064
 24
773.99565485309495
 34
0.0
  0
DIMENSION
  5
6F36
  8
SP
  2
*D18
 10
4622.9505320783064
 20
633.99565485309483
 30
0.0
 11
4397.9505320783064
 21
658.99565485309483
 31
0.0
 70
     0
 13
4172.9505320783064
 23
773.99565485309495
 33
0.0
 14
4622.9505320783064
 24
773.99565485309483
 34
0.0
  0
LINE
  5
6F37
  8
FUTO
 10
4172.9505320783064
 20
803.99565485309483
 30
0.0
 11
4622.9505320783064
 21
803.99565485309483
 31
0.0
  0
LINE
  5
6F38
  8
FUTO
 10
4172.9505320783064
 20
773.99565485309495
 30
0.0
 11
4622.9505320783064
 21
773.99565485309483
 31
0.0
  0
LINE
  5
6F39
  8
FUTO
 10
4172.9505320783064
 20
800.99565485309495
 30
0.0
 11
4622.9505320783064
 21
800.99565485309495
 31
0.0
  0
LINE
  5
6F3A
  8
FUTO
 10
4172.9505320783064
 20
803.99565485309483
 30
0.0
 11
4172.9505320783064
 21
773.99565485309495
 31
0.0
  0
DIMENSION
  5
6F3B
  8
SP
  2
*D19
 10
4622.9505320783064
 20
703.99565485309495
 30
0.0
 11
4510.4505320783064
 21
728.99565485309495
 31
0.0
 70
     0
 13
4397.9505320783064
 23
756.04084370005808
 33
0.0
 14
4622.9505320783064
 24
773.99565485309483
 34
0.0
  0
LINE
  5
71FE
  8
SL
 10
5009.4934153480972
 20
788.18854598598
 30
0.0
 11
5009.4934153480972
 21
1120.3735936713631
 31
0.0
  0
LINE
  5
71FF
  8
FUTO
 10
5026.4934153480972
 20
803.99565485309517
 30
0.0
 11
5026.4934153480972
 21
773.99565485309506
 31
0.0
  0
LINE
  5
7200
  8
FUTO
 10
5023.4934153480972
 20
796.99565485309517
 30
0.0
 11
5023.4934153480972
 21
775.99565485309517
 31
0.0
  0
LINE
  5
7201
  8
FUTO
 10
5026.4934153480972
 20
773.99565485309506
 30
0.0
 11
5025.4934153480981
 21
773.99565485309506
 31
0.0
  0
ARC
  5
7202
  8
FUTO
 10
5025.4934153480981
 20
775.99565485309517
 30
0.0
 40
2.0
 50
180.0
 51
270.0
  0
LINE
  5
7203
  8
FUTO
 10
5026.4934153480972
 20
803.99565485309517
 30
0.0
 11
4996.4934153480981
 21
803.99565485309517
 31
0.0
  0
LINE
  5
7204
  8
FUTO
 10
4996.4934153480981
 20
803.99565485309517
 30
0.0
 11
4996.4934153480981
 21
802.99565485309517
 31
0.0
  0
LINE
  5
7205
  8
FUTO
 10
5019.4934153480972
 20
800.99565485309506
 30
0.0
 11
4998.4934153480972
 21
800.99565485309506
 31
0.0
  0
ARC
  5
7206
  8
FUTO
 10
4998.4934153480972
 20
802.99565485309517
 30
0.0
 40
2.0
 50
180.0
 51
270.0
  0
ARC
  5
7207
  8
FUTO
 10
5019.4934153480972
 20
796.99565485309517
 30
0.0
 40
4.0
 50
0.0
 51
90.0
  0
LINE
  5
7208
  8
SL
 10
5483.4934153480972
 20
788.18854598598
 30
0.0
 11
5483.4934153480972
 21
1120.3735936713631
 31
0.0
  0
DIMENSION
  5
7209
  8
SP
  2
*D20
 10
5496.4934153480981
 20
703.99565485309495
 30
0.0
 11
5419.4934153480972
 21
728.99565485309495
 31
0.0
 70
     0
 13
5342.4934153480981
 23
875.01297153561961
 33
0.0
 14
5496.4934153480981
 24
803.99565485309517
 34
0.0
  0
LINE
  5
720A
  8
FUTO
 10
5026.4934153480972
 20
773.99565485309506
 30
0.0
 11
5466.4934153480972
 21
773.99565485309506
 31
0.0
  0
LINE
  5
720B
  8
FUTO
 10
5026.4934153480972
 20
803.99565485309517
 30
0.0
 11
5466.4934153480972
 21
803.99565485309517
 31
0.0
  0
DIMENSION
  5
720C
  8
SP
  2
*D21
 10
5496.4934153480981
 20
633.99565485309495
 30
0.0
 11
5246.4934153480981
 21
658.99565485309495
 31
0.0
 70
     0
 13
4996.4934153480981
 23
803.99565485309517
 33
0.0
 14
5496.4934153480981
 24
803.99565485309517
 34
0.0
  0
LINE
  5
720D
  8
FUTO
 10
5466.4934153480972
 20
803.99565485309495
 30
0.0
 11
5466.4934153480972
 21
773.99565485309495
 31
0.0
  0
LINE
  5
720E
  8
FUTO
 10
5469.4934153480972
 20
796.99565485309517
 30
0.0
 11
5469.4934153480972
 21
775.99565485309517
 31
0.0
  0
LINE
  5
720F
  8
FUTO
 10
5466.4934153480972
 20
773.99565485309506
 30
0.0
 11
5467.4934153480981
 21
773.99565485309506
 31
0.0
  0
ARC
  5
7210
  8
FUTO
 10
5467.4934153480981
 20
775.99565485309517
 30
0.0
 40
2.0
 50
270.0
 51
0.0
  0
LINE
  5
7211
  8
FUTO
 10
5466.4934153480972
 20
803.99565485309517
 30
0.0
 11
5496.4934153480981
 21
803.99565485309517
 31
0.0
  0
LINE
  5
7212
  8
FUTO
 10
5496.4934153480981
 20
803.99565485309517
 30
0.0
 11
5496.4934153480981
 21
802.99565485309517
 31
0.0
  0
LINE
  5
7213
  8
FUTO
 10
5473.4934153480972
 20
800.99565485309506
 30
0.0
 11
5494.4934153480972
 21
800.99565485309506
 31
0.0
  0
ARC
  5
7214
  8
FUTO
 10
5494.4934153480972
 20
802.99565485309517
 30
0.0
 40
2.0
 50
270.0
 51
0.0
  0
ARC
  5
7215
  8
FUTO
 10
5473.4934153480972
 20
796.99565485309517
 30
0.0
 40
4.0
 50
90.0
 51
180.0
  0
DIMENSION
  5
7216
  8
SP
  2
*D22
 10
4996.4934153480981
 20
703.99565485309495
 30
0.0
 11
5169.4934153480972
 21
728.99565485309495
 31
0.0
 70
     0
 13
5342.4934153480981
 23
875.01297153561961
 33
0.0
 14
4996.4934153480981
 24
803.99565485309517
 34
0.0
  0
LINE
  5
7597
  8
2
 10
4397.9505320783064
 20
2059.5174519938359
 30
0.0
 11
4397.9505320783064
 21
1620.4483248520471
 31
0.0
  0
LINE
  5
7598
  8
FUTO
 10
4232.9505320783064
 20
2079.897013735369
 30
0.0
 11
4232.9505320783064
 21
1639.897013735369
 31
0.0
  0
LINE
  5
7599
  8
FUTO
 10
4256.9505320783073
 20
2015.897013735369
 30
0.0
 11
4256.9505320783073
 21
1895.897013735369
 31
0.0
  0
LINE
  5
759A
  8
FUTO
 10
4257.9505320783073
 20
2015.897013735369
 30
0.0
 11
4257.9505320783073
 21
1895.897013735369
 31
0.0
  0
LINE
  5
759B
  8
HOSO
 10
4594.5571337961046
 20
1889.2904120175699
 30
0.0
 11
4401.3439303605082
 21
2022.503615453167
 31
0.0
  0
LINE
  5
759C
  8
HOSO
 10
4594.5571337961046
 20
2022.503615453167
 30
0.0
 11
4401.3439303605082
 21
1889.2904120175699
 31
0.0
  0
LINE
  5
759D
  8
FUTO
 10
4396.9505320783073
 20
2011.897013735369
 30
0.0
 11
4396.9505320783073
 21
1899.897013735369
 31
0.0
  0
LINE
  5
759E
  8
FUTO
 10
4598.9505320783073
 20
1899.897013735369
 30
0.0
 11
4598.9505320783073
 21
2011.897013735369
 31
0.0
  0
LINE
  5
759F
  8
FUTO
 10
4376.9505320783073
 20
1889.8970137353681
 30
0.0
 11
4376.9505320783073
 21
2021.8970137353681
 31
0.0
  0
LINE
  5
75A0
  8
FUTO
 10
4618.9505320783073
 20
2021.8970137353681
 30
0.0
 11
4618.9505320783073
 21
1889.8970137353681
 31
0.0
  0
LINE
  5
75A1
  8
FUTO
 10
4532.9505320783064
 20
1864.897013735369
 30
0.0
 11
4532.9505320783064
 21
1639.897013735369
 31
0.0
  0
LINE
  5
75A2
  8
FUTO
 10
4262.9505320783064
 20
1886.0990547642359
 30
0.0
 11
4262.9505320783064
 21
1639.897013735369
 31
0.0
  0
LINE
  5
75A3
  8
FUTO
 10
4562.9505320783064
 20
1864.897013735369
 30
0.0
 11
4562.9505320783064
 21
1639.8970137353681
 31
0.0
  0
LINE
  5
75A4
  8
1
 10
4322.9505320783064
 20
1690.8201047443399
 30
0.0
 11
4322.9505320783064
 21
1717.7638879342339
 31
0.0
  0
LINE
  5
75A5
  8
1
 10
4467.3387010396109
 20
1717.7638879342339
 30
0.0
 11
4467.3387010396109
 21
1690.8201047443399
 31
0.0
  0
LINE
  5
75A6
  8
FUTO
 10
4622.9505320783064
 20
1609.8970137353681
 30
0.0
 11
4172.9505320783064
 21
1609.8970137353681
 31
0.0
  0
LINE
  5
75A7
  8
FUTO
 10
4622.9505320783064
 20
1639.8970137353681
 30
0.0
 11
4172.9505320783064
 21
1639.897013735369
 31
0.0
  0
LINE
  5
75A8
  8
FUTO
 10
4532.9505320783064
 20
1702.99701373537
 30
0.0
 11
4467.3387010396109
 21
1702.99701373537
 31
0.0
  0
LINE
  5
75A9
  8
FUTO
 10
4622.9505320783064
 20
1639.8970137353681
 30
0.0
 11
4622.9505320783064
 21
1609.8970137353681
 31
0.0
  0
LINE
  5
75AA
  8
CT
 10
4597.9505320783046
 20
1610.4375341769
 30
0.0
 11
4597.9505320783046
 21
1635.356493293838
 31
0.0
  0
LINE
  5
75AB
  8
CT
 10
4610.4100116367736
 20
1622.897013735369
 30
0.0
 11
4585.4910525198356
 21
1622.897013735369
 31
0.0
  0
CIRCLE
  5
75AC
  8
FUTO
 10
4597.9505320783046
 20
1622.897013735369
 30
0.0
 40
6.5
  0
LINE
  5
75AD
  8
1
 10
4337.9119015636888
 20
1655.8970137353681
 30
0.0
 11
4457.9891625929222
 21
1655.8970137353681
 31
0.0
  0
LINE
  5
75AE
  8
1
 10
4322.9505320783064
 20
1690.8201047443399
 30
0.0
 11
4467.3387010396109
 21
1690.8201047443399
 31
0.0
  0
LINE
  5
75AF
  8
1
 10
4457.9891625929222
 20
1655.8970137353681
 30
0.0
 11
4464.4548551925982
 21
1690.8201047443399
 31
0.0
  0
LINE
  5
75B0
  8
FUTO
 10
4262.9505320783064
 20
1702.99701373537
 30
0.0
 11
4322.9505320783064
 21
1702.99701373537
 31
0.0
  0
LINE
  5
75B1
  8
1
 10
4337.9119015636888
 20
1655.8970137353681
 30
0.0
 11
4326.5969395142592
 21
1690.8201047443399
 31
0.0
  0
POINT
  5
75B2
  8
1
 10
4337.9119015636888
 20
1655.8970137353681
 30
0.0
  0
LINE
  5
75B3
  8
FUTO
 10
4172.9505320783064
 20
1639.897013735369
 30
0.0
 11
4172.9505320783064
 21
1609.8970137353681
 31
0.0
  0
LINE
  5
75B4
  8
CT
 10
4197.9505320783046
 20
1610.4375341769
 30
0.0
 11
4197.9505320783046
 21
1635.356493293838
 31
0.0
  0
CIRCLE
  5
75B5
  8
FUTO
 10
4197.9505320783046
 20
1622.897013735369
 30
0.0
 40
6.5
  0
LINE
  5
75B6
  8
CT
 10
4210.4100116367736
 20
1622.897013735369
 30
0.0
 11
4185.4910525198356
 21
1622.897013735369
 31
0.0
  0
LINE
  5
75B7
  8
FUTO
 10
4262.9505320783064
 20
1708.897013735369
 30
0.0
 11
4232.9505320783064
 21
1708.897013735369
 31
0.0
  0
LINE
  5
75B8
  8
FUTO
 10
4262.9505320783064
 20
1878.897013735369
 30
0.0
 11
4232.9505320783064
 21
1878.897013735369
 31
0.0
  0
LINE
  5
75B9
  8
1
 10
4334.7001605218529
 20
1717.7638879342339
 30
0.0
 11
4334.7001605218538
 21
1848.397013735369
 31
0.0
  0
LINE
  5
75BA
  8
1
 10
4461.2009036347599
 20
1717.7638879342339
 30
0.0
 11
4461.2009036347599
 21
1848.397013735369
 31
0.0
  0
LINE
  5
75BB
  8
FUTO
 10
4532.9505320783064
 20
1708.897013735369
 30
0.0
 11
4562.9505320783064
 21
1708.897013735369
 31
0.0
  0
LINE
  5
75BC
  8
1
 10
4322.9505320783064
 20
1717.7638879342339
 30
0.0
 11
4467.3387010396109
 21
1717.7638879342339
 31
0.0
  0
LINE
  5
75BD
  8
2
 10
4314.2432326797452
 20
1776.897013735369
 30
0.0
 11
4481.6578314768667
 21
1776.897013735369
 31
0.0
  0
LINE
  5
75BE
  8
FUTO
 10
4583.9505320783073
 20
1884.8970137353681
 30
0.0
 11
4411.9505320783073
 21
1884.8970137353681
 31
0.0
  0
LINE
  5
75BF
  8
FUTO
 10
4593.9505320783082
 20
1864.897013735369
 30
0.0
 11
4401.9505320783073
 21
1864.897013735369
 31
0.0
  0
LINE
  5
75C0
  8
1
  6
CONTINUOUS
 10
4461.2009036347599
 20
1837.897013735369
 30
0.0
 11
4530.9505320783064
 21
1837.897013735369
 31
0.0
  0
ARC
  5
75C1
  8
FUTO
 10
4593.9505320783064
 20
1889.897013735369
 30
0.0
 40
25.0
 50
270.0000000000021
 51
359.99999999999892
  0
ARC
  5
75C2
  8
FUTO
 10
4583.9505320783073
 20
1899.897013735369
 30
0.0
 40
15.0
 50
270.00000000000171
 51
359.99999999999898
  0
ARC
  5
75C3
  8
1
 10
4280.9505320783064
 20
1881.897013735369
 30
0.0
 40
3.0
 50
179.99999999999989
 51
270.0
  0
ARC
  5
75C4
  8
1
 10
4514.9505320783064
 20
1881.897013735369
 30
0.0
 40
3.0
 50
270.0
 51
0.0
  0
ARC
  5
75C5
  8
FUTO
 10
4401.9505320783082
 20
1889.897013735369
 30
0.0
 40
25.0
 50
180.00000000000091
 51
269.99999999999892
  0
LINE
  5
75C6
  8
FUTO
 10
4377.9505320783073
 20
1878.897013735369
 30
0.0
 11
4377.9505320783073
 21
1866.8970137353681
 31
0.0
  0
LINE
  5
75C7
  8
FUTO
 10
4417.9505320783073
 20
1878.897013735369
 30
0.0
 11
4417.9505320783073
 21
1866.897013735369
 31
0.0
  0
LINE
  5
75C8
  8
1
 10
4386.5359119885634
 20
1853.397013735369
 30
0.0
 11
4409.3651521680513
 21
1853.397013735369
 31
0.0
  0
LINE
  5
75C9
  8
1
 10
4334.7001605218538
 20
1848.397013735369
 30
0.0
 11
4461.2009036347599
 21
1848.3970137353699
 31
0.0
  0
LINE
  5
75CA
  8
FUTO
 10
4377.9505320783064
 20
1866.897013735369
 30
0.0
 11
4417.9505320783073
 21
1866.897013735369
 31
0.0
  0
LINE
  5
75CB
  8
1
 10
4406.9505320783064
 20
1853.397013735369
 30
0.0
 11
4406.9505320783064
 21
1866.897013735369
 31
0.0
  0
LINE
  5
75CC
  8
1
 10
4409.3651521680513
 20
1848.397013735369
 30
0.0
 11
4409.3651521680513
 21
1853.397013735369
 31
0.0
  0
LINE
  5
75CD
  8
1
 10
4388.9505320783073
 20
1853.397013735369
 30
0.0
 11
4388.9505320783073
 21
1866.897013735369
 31
0.0
  0
LINE
  5
75CE
  8
1
 10
4386.5359119885634
 20
1848.397013735369
 30
0.0
 11
4386.5359119885634
 21
1853.397013735369
 31
0.0
  0
LINE
  5
75CF
  8
1
  6
CONTINUOUS
 10
4262.9505320783064
 20
1837.8970137353681
 30
0.0
 11
4334.7001605218538
 21
1837.897013735369
 31
0.0
  0
LINE
  5
75D0
  8
FUTO
 10
4514.9505320783064
 20
1878.897013735369
 30
0.0
 11
4262.9505320783064
 21
1878.897013735369
 31
0.0
  0
POINT
  5
75D1
  8
1
 10
4514.9505320783064
 20
1878.897013735369
 30
0.0
  0
LINE
  5
75D2
  8
1
 10
4517.9505320783064
 20
1882.897013735369
 30
0.0
 11
4517.9505320783064
 21
1881.897013735369
 31
0.0
  0
ARC
  5
75D3
  8
1
 10
4520.9505320783064
 20
1882.897013735369
 30
0.0
 40
3.0
 50
138.18968510422039
 51
179.99999999999989
  0
ARC
  5
75D4
  8
FUTO
 10
4411.9505320783064
 20
1899.897013735369
 30
0.0
 40
15.0
 50
180.0000000000008
 51
270.00000000000171
  0
LINE
  5
75D5
  8
1
 10
4277.9505320783064
 20
1882.897013735369
 30
0.0
 11
4277.9505320783064
 21
1881.897013735369
 31
0.0
  0
ARC
  5
75D6
  8
1
 10
4274.9505320783064
 20
1882.897013735369
 30
0.0
 40
3.0
 50
0.0
 51
41.810314895778092
  0
ARC
  5
75D7
  8
FUTO
 10
4267.9505320783073
 20
1895.897013735369
 30
0.0
 40
11.0
 50
179.99999999999989
 51
269.99999999999989
  0
LINE
  5
75D8
  8
1
  6
CONTINUOUS
 10
4377.455634650476
 20
1884.8970137353681
 30
0.0
 11
4267.9505320783073
 21
1884.8970137353681
 31
0.0
  0
ARC
  5
75D9
  8
FUTO
 10
4267.9505320783073
 20
1895.897013735369
 30
0.0
 40
10.0
 50
179.99999999999989
 51
269.99999999999989
  0
LINE
  5
75DA
  8
1
  6
CONTINUOUS
 10
4377.2726067198018
 20
1885.897013735369
 30
0.0
 11
4267.9505320783073
 21
1885.897013735369
 31
0.0
  0
DIMENSION
  5
75DB
  8
SP
  2
*D23
 10
4172.9505320783064
 20
2179.897013735369
 30
0.0
 11
4397.9505320783064
 21
2204.897013735369
 31
0.0
 70
     0
 13
4622.9505320783064
 23
2109.8970137353681
 33
0.0
 14
4172.9505320783064
 24
2109.8970137353681
 34
0.0
 50
179.99999999999989
  0
LINE
  5
75DC
  8
2
 10
4662.747324183315
 20
1955.8970137353681
 30
0.0
 11
4211.1976517226103
 21
1955.8970137353681
 31
0.0
  0
LINE
  5
75DD
  8
FUTO
 10
4622.9505320783064
 20
2109.8970137353681
 30
0.0
 11
4172.9505320783064
 21
2109.8970137353681
 31
0.0
  0
LINE
  5
75DE
  8
FUTO
 10
4622.9505320783064
 20
2079.897013735369
 30
0.0
 11
4172.9505320783064
 21
2079.897013735369
 31
0.0
  0
LINE
  5
75DF
  8
FUTO
 10
4262.9505320783064
 20
2079.897013735369
 30
0.0
 11
4262.9505320783064
 21
2025.6949727065009
 31
0.0
  0
LINE
  5
75E0
  8
FUTO
 10
4562.9505320783064
 20
2079.897013735369
 30
0.0
 11
4562.9505320783064
 21
2046.897013735369
 31
0.0
  0
LINE
  5
75E1
  8
FUTO
 10
4532.9505320783092
 20
2079.897013735369
 30
0.0
 11
4532.9505320783092
 21
2046.897013735369
 31
0.0
  0
ARC
  5
75E2
  8
FUTO
 10
4401.9505320783073
 20
2021.8970137353681
 30
0.0
 40
25.0
 50
89.999999999999986
 51
179.99999999999989
  0
ARC
  5
75E3
  8
FUTO
 10
4593.9505320783064
 20
2021.897013735369
 30
0.0
 40
25.0
 50
359.99999999999937
 51
89.999999999998948
  0
LINE
  5
75E4
  8
FUTO
 10
4583.9505320783073
 20
2026.897013735369
 30
0.0
 11
4411.9505320783073
 21
2026.897013735369
 31
0.0
  0
LINE
  5
75E5
  8
FUTO
 10
4593.9505320783082
 20
2046.897013735369
 30
0.0
 11
4401.9505320783073
 21
2046.897013735369
 31
0.0
  0
ARC
  5
75E6
  8
FUTO
 10
4583.9505320783073
 20
2011.897013735369
 30
0.0
 40
15.0
 50
359.99999999999898
 51
89.999999999999986
  0
LINE
  5
75E7
  8
1
 10
4514.9505320783064
 20
2032.8970137353681
 30
0.0
 11
4280.9505320783064
 21
2032.8970137353681
 31
0.0
  0
ARC
  5
75E8
  8
1
 10
4520.9505320783064
 20
2028.897013735369
 30
0.0
 40
3.0
 50
179.99999999999989
 51
221.8103148957795
  0
LINE
  5
75E9
  8
1
 10
4517.9505320783064
 20
2028.897013735369
 30
0.0
 11
4517.9505320783064
 21
2029.8970137353681
 31
0.0
  0
ARC
  5
75EA
  8
1
 10
4514.9505320783064
 20
2029.8970137353681
 30
0.0
 40
3.0
 50
0.0
 51
89.999999999999986
  0
POINT
  5
75EB
  8
1
 10
4514.9505320783064
 20
2032.8970137353681
 30
0.0
  0
ARC
  5
75EC
  8
FUTO
 10
4411.9505320783064
 20
2011.897013735369
 30
0.0
 40
15.0
 50
89.999999999998238
 51
180.0000000000008
  0
ARC
  5
75ED
  8
1
 10
4274.9505320783064
 20
2028.897013735369
 30
0.0
 40
3.0
 50
318.18968510422178
 51
0.0
  0
LINE
  5
75EE
  8
1
 10
4277.9505320783064
 20
2028.897013735369
 30
0.0
 11
4277.9505320783064
 21
2029.8970137353681
 31
0.0
  0
ARC
  5
75EF
  8
1
 10
4280.9505320783064
 20
2029.8970137353681
 30
0.0
 40
3.0
 50
89.999999999999986
 51
179.99999999999989
  0
ARC
  5
75F0
  8
FUTO
 10
4267.9505320783073
 20
2015.897013735369
 30
0.0
 40
11.0
 50
89.999999999999915
 51
179.99999999999989
  0
LINE
  5
75F1
  8
1
  6
CONTINUOUS
 10
4267.9505320783073
 20
2026.897013735369
 30
0.0
 11
4377.455634650476
 21
2026.897013735369
 31
0.0
  0
ARC
  5
75F2
  8
FUTO
 10
4267.9505320783073
 20
2015.897013735369
 30
0.0
 40
10.0
 50
89.999999999999915
 51
179.99999999999989
  0
LINE
  5
75F3
  8
1
  6
CONTINUOUS
 10
4267.9505320783073
 20
2025.8970137353681
 30
0.0
 11
4377.2726067198018
 21
2025.8970137353681
 31
0.0
  0
LINE
  5
75F4
  8
FUTO
 10
4622.9505320783064
 20
2109.8970137353681
 30
0.0
 11
4622.9505320783064
 21
2079.897013735369
 31
0.0
  0
LINE
  5
75F5
  8
CT
 10
4597.9505320783064
 20
2109.356493293838
 30
0.0
 11
4597.9505320783064
 21
2084.4375341769
 31
0.0
  0
CIRCLE
  5
75F6
  8
FUTO
 10
4597.9505320783064
 20
2096.897013735369
 30
0.0
 40
6.5
  0
LINE
  5
75F7
  8
CT
 10
4610.4100116367754
 20
2096.897013735369
 30
0.0
 11
4585.4910525198366
 21
2096.897013735369
 31
0.0
  0
LINE
  5
75F8
  8
FUTO
 10
4172.9505320783064
 20
2109.8970137353681
 30
0.0
 11
4172.9505320783046
 21
2079.897013735369
 31
0.0
  0
LINE
  5
75F9
  8
CT
 10
4197.9505320783064
 20
2109.356493293838
 30
0.0
 11
4197.9505320783064
 21
2084.4375341769
 31
0.0
  0
LINE
  5
75FA
  8
CT
 10
4210.4100116367754
 20
2096.897013735369
 30
0.0
 11
4185.4910525198384
 21
2096.897013735369
 31
0.0
  0
CIRCLE
  5
75FB
  8
FUTO
 10
4197.9505320783064
 20
2096.897013735369
 30
0.0
 40
6.5
  0
TEXT
  5
763B
  8
4
 10
4611.9250126785373
 20
2383.428842303204
 30
0.0
 40
53.999999999999993
  1
天井吊ベッド型
  0
DIMENSION
  5
7732
  8
SP
  2
*D25
 10
4713.6619484109669
 20
1609.897013735371
 30
0.0
 11
4688.6619484109669
 21
1782.897013735371
 31
0.0
 70
     0
 13
4661.3610726997067
 23
1955.8970137353699
 33
0.0
 14
4622.9505320783064
 24
1609.897013735371
 34
0.0
 50
90.0
  0
DIMENSION
  5
7733
  8
SP
  2
*D24
 10
4802.3371545438622
 20
1609.897013735371
 30
0.0
 11
4777.3371545438622
 21
1859.897013735371
 31
0.0
 70
     0
 13
4622.9505320783064
 23
2109.8970137353708
 33
0.0
 14
4622.9505320783064
 24
1609.897013735371
 34
0.0
 50
90.0
  0
DIMENSION
  5
7734
  8
SP
  2
*D26
 10
4713.6619484109669
 20
2109.8970137353708
 30
0.0
 11
4688.661948410966
 21
2032.897013735371
 31
0.0
 70
     0
 13
4661.3610726997067
 23
1955.8970137353699
 33
0.0
 14
4622.9505320783064
 24
2109.8970137353708
 34
0.0
 50
90.0
  0
ENDSEC
  0
EOF
