  0
SECTION
  2
HEADER
  9
$ACADVER
  1
AC1027
  9
$ACADMAINTVER
 70
    81
  9
$DWGCODEPAGE
  3
ANSI_932
  9
$LASTSAVEDBY
  1
reiko.miyawaki
  9
$REQUIREDVERSIONS
160
                 0
  9
$INSBASE
 10
0.0
 20
0.0
 30
0.0
  9
$EXTMIN
 10
0.0
 20
0.0
 30
0.0
  9
$EXTMAX
 10
2520.0
 20
3540.0
 30
0.0
  9
$LIMMIN
 10
0.0
 20
0.0
  9
$LIMMAX
 10
297.0
 20
210.0
  9
$ORTHOMODE
 70
     0
  9
$REGENMODE
 70
     1
  9
$FILLMODE
 70
     0
  9
$QTEXTMODE
 70
     0
  9
$MIRRTEXT
 70
     1
  9
$LTSCALE
 40
100.0
  9
$ATTMODE
 70
     1
  9
$TEXTSIZE
 40
180.0
  9
$TRACEWID
 40
0.05
  9
$TEXTSTYLE
  7
STANDARD
  9
$CLAYER
  8
3
  9
$CELTYPE
  6
BYLAYER
  9
$CECOLOR
 62
   256
  9
$CELTSCALE
 40
1.0
  9
$DISPSILH
 70
     0
  9
$DIMSCALE
 40
12.0
  9
$DIMASZ
 40
2.0
  9
$DIMEXO
 40
0.5
  9
$DIMDLI
 40
10.0
  9
$DIMRND
 40
0.0
  9
$DIMDLE
 40
0.0
  9
$DIMEXE
 40
1.0
  9
$DIMTP
 40
1.0
  9
$DIMTM
 40
1.0
  9
$DIMTXT
 40
3.0
  9
$DIMCEN
 40
0.0
  9
$DIMTSZ
 40
0.0
  9
$DIMTOL
 70
     0
  9
$DIMLIM
 70
     0
  9
$DIMTIH
 70
     0
  9
$DIMTOH
 70
     0
  9
$DIMSE1
 70
     0
  9
$DIMSE2
 70
     0
  9
$DIMTAD
 70
     1
  9
$DIMZIN
 70
     8
  9
$DIMBLK
  1

  9
$DIMASO
 70
     1
  9
$DIMSHO
 70
     1
  9
$DIMPOST
  1
(<>)
  9
$DIMAPOST
  1

  9
$DIMALT
 70
     0
  9
$DIMALTD
 70
     2
  9
$DIMALTF
 40
0.039
  9
$DIMLFAC
 40
1.0
  9
$DIMTOFL
 70
     1
  9
$DIMTVP
 40
0.0
  9
$DIMTIX
 70
     0
  9
$DIMSOXD
 70
     0
  9
$DIMSAH
 70
     1
  9
$DIMBLK1
  1
OPEN
  9
$DIMBLK2
  1
OPEN
  9
$DIMSTYLE
  2
IGA
  9
$DIMCLRD
 70
     0
  9
$DIMCLRE
 70
     0
  9
$DIMCLRT
 70
     0
  9
$DIMTFAC
 40
10.0
  9
$DIMGAP
 40
1.0
  9
$DIMJUST
 70
     0
  9
$DIMSD1
 70
     0
  9
$DIMSD2
 70
     0
  9
$DIMTOLJ
 70
     1
  9
$DIMTZIN
 70
     8
  9
$DIMALTZ
 70
     0
  9
$DIMALTTZ
 70
     0
  9
$DIMUPT
 70
     0
  9
$DIMDEC
 70
     0
  9
$DIMTDEC
 70
     0
  9
$DIMALTU
 70
     2
  9
$DIMALTTD
 70
     2
  9
$DIMTXSTY
  7
STANDARD
  9
$DIMAUNIT
 70
     0
  9
$DIMADEC
 70
     0
  9
$DIMALTRND
 40
0.0
  9
$DIMAZIN
 70
     0
  9
$DIMDSEP
 70
    46
  9
$DIMATFIT
 70
     3
  9
$DIMFRAC
 70
     0
  9
$DIMLDRBLK
  1
OPEN
  9
$DIMLUNIT
 70
     2
  9
$DIMLWD
 70
    -2
  9
$DIMLWE
 70
    -2
  9
$DIMTMOVE
 70
     2
  9
$DIMFXL
 40
1.0
  9
$DIMFXLON
 70
     0
  9
$DIMJOGANG
 40
0.7853981633974483
  9
$DIMTFILL
 70
     0
  9
$DIMTFILLCLR
 70
     0
  9
$DIMARCSYM
 70
     0
  9
$DIMLTYPE
  6

  9
$DIMLTEX1
  6

  9
$DIMLTEX2
  6

  9
$DIMTXTDIRECTION
 70
     0
  9
$LUNITS
 70
     2
  9
$LUPREC
 70
     3
  9
$SKETCHINC
 40
0.1
  9
$FILLETRAD
 40
50.0
  9
$AUNITS
 70
     0
  9
$AUPREC
 70
     0
  9
$MENU
  1
acad
  9
$ELEVATION
 40
0.0
  9
$PELEVATION
 40
0.0
  9
$THICKNESS
 40
0.0
  9
$LIMCHECK
 70
     0
  9
$CHAMFERA
 40
0.5
  9
$CHAMFERB
 40
0.5
  9
$CHAMFERC
 40
20.0
  9
$CHAMFERD
 40
0.0
  9
$SKPOLY
 70
     0
  9
$TDCREATE
 40
2451936.434461922
  9
$TDUCREATE
 40
2451936.059461921
  9
$TDUPDATE
 40
2459024.489177014
  9
$TDUUPDATE
 40
2459024.114177014
  9
$TDINDWG
 40
0.1403320255
  9
$TDUSRTIMER
 40
0.1403320255
  9
$USRTIMER
 70
     1
  9
$ANGBASE
 50
0.0
  9
$ANGDIR
 70
     0
  9
$PDMODE
 70
     0
  9
$PDSIZE
 40
0.0
  9
$PLINEWID
 40
0.0
  9
$SPLFRAME
 70
     0
  9
$SPLINETYPE
 70
     6
  9
$SPLINESEGS
 70
     8
  9
$HANDSEED
  5
843C
  9
$SURFTAB1
 70
     6
  9
$SURFTAB2
 70
     6
  9
$SURFTYPE
 70
     6
  9
$SURFU
 70
     6
  9
$SURFV
 70
     6
  9
$UCSBASE
  2

  9
$UCSNAME
  2

  9
$UCSORG
 10
0.0
 20
0.0
 30
0.0
  9
$UCSXDIR
 10
1.0
 20
0.0
 30
0.0
  9
$UCSYDIR
 10
0.0
 20
1.0
 30
0.0
  9
$UCSORTHOREF
  2

  9
$UCSORTHOVIEW
 70
     0
  9
$UCSORGTOP
 10
0.0
 20
0.0
 30
0.0
  9
$UCSORGBOTTOM
 10
0.0
 20
0.0
 30
0.0
  9
$UCSORGLEFT
 10
0.0
 20
0.0
 30
0.0
  9
$UCSORGRIGHT
 10
0.0
 20
0.0
 30
0.0
  9
$UCSORGFRONT
 10
0.0
 20
0.0
 30
0.0
  9
$UCSORGBACK
 10
0.0
 20
0.0
 30
0.0
  9
$PUCSBASE
  2

  9
$PUCSNAME
  2

  9
$PUCSORG
 10
0.0
 20
0.0
 30
0.0
  9
$PUCSXDIR
 10
1.0
 20
0.0
 30
0.0
  9
$PUCSYDIR
 10
0.0
 20
1.0
 30
0.0
  9
$PUCSORTHOREF
  2

  9
$PUCSORTHOVIEW
 70
     0
  9
$PUCSORGTOP
 10
0.0
 20
0.0
 30
0.0
  9
$PUCSORGBOTTOM
 10
0.0
 20
0.0
 30
0.0
  9
$PUCSORGLEFT
 10
0.0
 20
0.0
 30
0.0
  9
$PUCSORGRIGHT
 10
0.0
 20
0.0
 30
0.0
  9
$PUCSORGFRONT
 10
0.0
 20
0.0
 30
0.0
  9
$PUCSORGBACK
 10
0.0
 20
0.0
 30
0.0
  9
$USERI1
 70
     0
  9
$USERI2
 70
     0
  9
$USERI3
 70
     0
  9
$USERI4
 70
     0
  9
$USERI5
 70
     0
  9
$USERR1
 40
0.0
  9
$USERR2
 40
0.0
  9
$USERR3
 40
0.0
  9
$USERR4
 40
0.0
  9
$USERR5
 40
0.0
  9
$WORLDVIEW
 70
     1
  9
$SHADEDGE
 70
     3
  9
$SHADEDIF
 70
    70
  9
$TILEMODE
 70
     1
  9
$MAXACTVP
 70
    16
  9
$PINSBASE
 10
0.0
 20
0.0
 30
0.0
  9
$PLIMCHECK
 70
     0
  9
$PEXTMIN
 10
1.000000000000000E+20
 20
1.000000000000000E+20
 30
1.000000000000000E+20
  9
$PEXTMAX
 10
-1.000000000000000E+20
 20
-1.000000000000000E+20
 30
-1.000000000000000E+20
  9
$PLIMMIN
 10
0.0
 20
0.0
  9
$PLIMMAX
 10
12.0
 20
9.0
  9
$UNITMODE
 70
     0
  9
$VISRETAIN
 70
     0
  9
$PLINEGEN
 70
     0
  9
$PSLTSCALE
 70
     1
  9
$TREEDEPTH
 70
  3020
  9
$CMLSTYLE
  2
STANDARD
  9
$CMLJUST
 70
     0
  9
$CMLSCALE
 40
20.0
  9
$PROXYGRAPHICS
 70
     1
  9
$MEASUREMENT
 70
     1
  9
$CELWEIGHT
370
    -1
  9
$ENDCAPS
280
     0
  9
$JOINSTYLE
280
     0
  9
$LWDISPLAY
290
     0
  9
$INSUNITS
 70
     0
  9
$HYPERLINKBASE
  1

  9
$STYLESHEET
  1

  9
$XEDIT
290
     1
  9
$CEPSNTYPE
380
     0
  9
$PSTYLEMODE
290
     1
  9
$FINGERPRINTGUID
  2
{23BB8525-26B1-48AD-8058-DD12259ACC0A}
  9
$VERSIONGUID
  2
{BC14B616-7EF3-41DC-88DC-D26A40FE876F}
  9
$EXTNAMES
290
     1
  9
$PSVPSCALE
 40
0.0
  9
$OLESTARTUP
290
     0
  9
$SORTENTS
280
   127
  9
$INDEXCTL
280
     0
  9
$HIDETEXT
280
     0
  9
$XCLIPFRAME
280
     2
  9
$HALOGAP
280
     0
  9
$OBSCOLOR
 70
   257
  9
$OBSLTYPE
280
     0
  9
$INTERSECTIONDISPLAY
280
     0
  9
$INTERSECTIONCOLOR
 70
   257
  9
$DIMASSOC
280
     1
  9
$PROJECTNAME
  1

  9
$CAMERADISPLAY
290
     0
  9
$LENSLENGTH
 40
50.0
  9
$CAMERAHEIGHT
 40
0.0
  9
$STEPSPERSEC
 40
2.0
  9
$STEPSIZE
 40
6.0
  9
$3DDWFPREC
 40
2.0
  9
$PSOLWIDTH
 40
0.25
  9
$PSOLHEIGHT
 40
4.0
  9
$LOFTANG1
 40
1.570796326794896
  9
$LOFTANG2
 40
1.570796326794896
  9
$LOFTMAG1
 40
0.0
  9
$LOFTMAG2
 40
0.0
  9
$LOFTPARAM
 70
     7
  9
$LOFTNORMALS
280
     1
  9
$LATITUDE
 40
37.795
  9
$LONGITUDE
 40
-122.394
  9
$NORTHDIRECTION
 40
0.0
  9
$TIMEZONE
 70
 -8000
  9
$LIGHTGLYPHDISPLAY
280
     1
  9
$TILEMODELIGHTSYNCH
280
     1
  9
$CMATERIAL
347
8314
  9
$SOLIDHIST
280
     0
  9
$SHOWHIST
280
     1
  9
$DWFFRAME
280
     2
  9
$DGNFRAME
280
     0
  9
$REALWORLDSCALE
290
     1
  9
$INTERFERECOLOR
 62
     1
  9
$INTERFEREOBJVS
345
8336
  9
$INTERFEREVPVS
346
8333
  9
$CSHADOW
280
     0
  9
$SHADOWPLANELOCATION
 40
0.0
  0
ENDSEC
  0
SECTION
  2
CLASSES
  0
CLASS
  1
ACDBDICTIONARYWDFLT
  2
AcDbDictionaryWithDefault
  3
ObjectDBX Classes
 90
        0
 91
        1
280
     0
281
     0
  0
CLASS
  1
MATERIAL
  2
AcDbMaterial
  3
ObjectDBX Classes
 90
     1153
 91
        3
280
     0
281
     0
  0
CLASS
  1
VISUALSTYLE
  2
AcDbVisualStyle
  3
ObjectDBX Classes
 90
     4095
 91
       24
280
     0
281
     0
  0
CLASS
  1
TABLESTYLE
  2
AcDbTableStyle
  3
ObjectDBX Classes
 90
     4095
 91
        1
280
     0
281
     0
  0
CLASS
  1
SCALE
  2
AcDbScale
  3
ObjectDBX Classes
 90
     1153
 91
       17
280
     0
281
     0
  0
CLASS
  1
MLEADERSTYLE
  2
AcDbMLeaderStyle
  3
ACDB_MLEADERSTYLE_CLASS
 90
     4095
 91
        1
280
     0
281
     0
  0
CLASS
  1
ACDBSECTIONVIEWSTYLE
  2
AcDbSectionViewStyle
  3
ObjectDBX Classes
 90
     1025
 91
        1
280
     0
281
     0
  0
CLASS
  1
ACDBDETAILVIEWSTYLE
  2
AcDbDetailViewStyle
  3
ObjectDBX Classes
 90
     1025
 91
        1
280
     0
281
     0
  0
CLASS
  1
SORTENTSTABLE
  2
AcDbSortentsTable
  3
ObjectDBX Classes
 90
        0
 91
        1
280
     0
281
     0
  0
CLASS
  1
DICTIONARYVAR
  2
AcDbDictionaryVar
  3
ObjectDBX Classes
 90
        0
 91
        9
280
     0
281
     0
  0
CLASS
  1
CELLSTYLEMAP
  2
AcDbCellStyleMap
  3
ObjectDBX Classes
 90
     1152
 91
        1
280
     0
281
     0
  0
ENDSEC
  0
SECTION
  2
TABLES
  0
TABLE
  2
VPORT
  5
8
330
0
100
AcDbSymbolTable
 70
     1
  0
VPORT
  5
8311
330
8
100
AcDbSymbolTableRecord
100
AcDbViewportTableRecord
  2
*Active
 70
     0
 10
0.0
 20
0.0
 11
1.0
 21
1.0
 12
1260.000017603069
 22
1854.754105454894
 13
0.0
 23
0.0
 14
10.0
 24
10.0
 15
10.0
 25
10.0
 16
0.0
 26
0.0
 36
1.0
 17
0.0
 27
0.0
 37
0.0
 40
3732.612049341129
 41
1.957107843137254
 42
50.0
 43
0.0
 44
0.0
 50
0.0
 51
0.0
 71
     0
 72
   100
 73
     1
 74
     0
 75
     0
 76
     0
 77
     0
 78
     0
281
     0
 65
     1
110
0.0
120
0.0
130
0.0
111
1.0
121
0.0
131
0.0
112
0.0
122
1.0
132
0.0
 79
     0
146
0.0
348
8332
 60
     3
 61
     5
292
     1
282
     1
141
0.0
142
0.0
 63
   250
421
  3355443
1001
ACAD_NAV_VCDISPLAY
1070
     3
  0
ENDTAB
  0
TABLE
  2
LTYPE
  5
5
330
0
100
AcDbSymbolTable
 70
     2
  0
LTYPE
  5
13
330
5
100
AcDbSymbolTableRecord
100
AcDbLinetypeTableRecord
  2
BYBLOCK
 70
     0
  3

 72
    65
 73
     0
 40
0.0
  0
LTYPE
  5
14
330
5
100
AcDbSymbolTableRecord
100
AcDbLinetypeTableRecord
  2
BYLAYER
 70
     0
  3

 72
    65
 73
     0
 40
0.0
  0
LTYPE
  5
15
330
5
100
AcDbSymbolTableRecord
100
AcDbLinetypeTableRecord
  2
CONTINUOUS
 70
     0
  3
Solid line
 72
    65
 73
     0
 40
0.0
  0
LTYPE
  5
1F
330
5
100
AcDbSymbolTableRecord
100
AcDbLinetypeTableRecord
  2
CENTER
 70
     0
  3
____ _ ____ _ ____ _ ____ _ ____ _ ____ _ ____ 
 72
    65
 73
     4
 40
2.0
 49
1.25
 74
     0
 49
-0.25
 74
     0
 49
0.25
 74
     0
 49
-0.25
 74
     0
  0
ENDTAB
  0
TABLE
  2
LAYER
  5
2
102
{ACAD_XDICTIONARY
360
83B8
102
}
330
0
100
AcDbSymbolTable
 70
     6
  0
LAYER
  5
F
102
{ACAD_XDICTIONARY
360
83AB
102
}
330
2
100
AcDbSymbolTableRecord
100
AcDbLayerTableRecord
  2
0
 70
     0
 62
     7
  6
CONTINUOUS
370
    -3
390
8304
347
8324
348
0
  0
LAYER
  5
31
102
{ACAD_XDICTIONARY
360
83AD
102
}
330
2
100
AcDbSymbolTableRecord
100
AcDbLayerTableRecord
  2
3
 70
     0
 62
     2
  6
CONTINUOUS
370
    -3
390
8304
347
8324
348
0
  0
LAYER
  5
76D0
102
{ACAD_XDICTIONARY
360
83AF
102
}
330
2
100
AcDbSymbolTableRecord
100
AcDbLayerTableRecord
  2
2
 70
     0
 62
     3
  6
CENTER
370
    -3
390
8304
347
8324
348
0
  0
LAYER
  5
76D1
102
{ACAD_XDICTIONARY
360
83B1
102
}
330
2
100
AcDbSymbolTableRecord
100
AcDbLayerTableRecord
  2
1
 70
     0
 62
     4
  6
CONTINUOUS
370
    -3
390
8304
347
8324
348
0
  0
LAYER
  5
76D2
102
{ACAD_XDICTIONARY
360
83B3
102
}
330
2
100
AcDbSymbolTableRecord
100
AcDbLayerTableRecord
  2
4
 70
     0
 62
     7
  6
CONTINUOUS
370
    -3
390
8304
347
8324
348
0
  0
LAYER
  5
7B02
330
2
100
AcDbSymbolTableRecord
100
AcDbLayerTableRecord
  2
DEFPOINTS
 70
     0
 62
     7
  6
CONTINUOUS
290
     0
370
    -3
390
8304
347
8324
348
0
  0
ENDTAB
  0
TABLE
  2
STYLE
  5
3
330
0
100
AcDbSymbolTable
 70
     1
  0
STYLE
  5
10
330
3
100
AcDbSymbolTableRecord
100
AcDbTextStyleTableRecord
  2
STANDARD
 70
     0
 40
0.0
 41
1.0
 50
0.0
 71
     0
 42
180.0
  3
simplex.shx
  4
extfont.shx
  0
ENDTAB
  0
TABLE
  2
VIEW
  5
6
330
0
100
AcDbSymbolTable
 70
     0
  0
ENDTAB
  0
TABLE
  2
UCS
  5
7
330
0
100
AcDbSymbolTable
 70
     0
  0
ENDTAB
  0
TABLE
  2
APPID
  5
9
330
0
100
AcDbSymbolTable
 70
     4
  0
APPID
  5
11
330
9
100
AcDbSymbolTableRecord
100
AcDbRegAppTableRecord
  2
ACAD
 70
     0
  0
APPID
  5
83BE
330
9
100
AcDbSymbolTableRecord
100
AcDbRegAppTableRecord
  2
ACAD_NAV_VCDISPLAY
 70
     0
  0
APPID
  5
8407
330
9
100
AcDbSymbolTableRecord
100
AcDbRegAppTableRecord
  2
AcadAnnoMonitorAlertIconDisabled
 70
     0
  0
APPID
  5
8408
330
9
100
AcDbSymbolTableRecord
100
AcDbRegAppTableRecord
  2
ACAD_EXEMPT_FROM_CAD_STANDARDS
 70
     0
  0
ENDTAB
  0
TABLE
  2
DIMSTYLE
  5
A
330
0
100
AcDbSymbolTable
 70
     1
100
AcDbDimStyleTable
 71
     1
340
1D
  0
DIMSTYLE
105
1D
102
{ACAD_REACTORS
330
7C82
330
7C83
330
7CAA
330
7CAB
330
7CAC
330
7CAD
330
7CBE
330
7CBF
330
7CC2
330
7CC3
330
8123
330
81C1
330
81CE
330
8274
330
8281
330
828E
330
829D
330
82C8
330
82F3
330
8300
102
}
330
A
100
AcDbSymbolTableRecord
100
AcDbDimStyleTableRecord
  2
IGA
 70
     0
 40
2.0
 41
2.0
 42
0.5
 43
10.0
 44
1.0
 47
1.0
 48
1.0
 73
     0
 74
     0
 77
     1
 78
     8
140
3.0
141
0.0
143
0.03937
146
10.0
147
1.0
173
     1
271
     1
272
     0
279
     2
284
     8
340
10
341
79FC
343
79FC
344
79FC
  0
ENDTAB
  0
TABLE
  2
BLOCK_RECORD
  5
1
330
0
100
AcDbSymbolTable
 70
    22
  0
BLOCK_RECORD
  5
19
102
{ACAD_XDICTIONARY
360
8364
102
}
330
1
100
AcDbSymbolTableRecord
100
AcDbBlockTableRecord
  2
*MODEL_SPACE
340
8307
 70
     0
280
     1
281
     0
  0
BLOCK_RECORD
  5
16
330
1
100
AcDbSymbolTableRecord
100
AcDbBlockTableRecord
  2
*PAPER_SPACE
340
8308
 70
     0
280
     1
281
     0
  0
BLOCK_RECORD
  5
79FC
330
1
100
AcDbSymbolTableRecord
100
AcDbBlockTableRecord
  2
_OPEN
340
0
102
{BLKREFS
331
81BA
331
81BB
331
81C7
331
81C8
331
8219
331
821A
331
8225
331
8226
331
822F
331
8230
331
7FC9
331
7FCA
331
8054
331
8055
331
806A
331
806B
331
80D3
331
80D4
331
80FD
331
80FE
331
8108
331
8109
331
8128
331
8129
331
8369
331
836A
331
8372
331
8373
331
837B
331
837C
331
8386
331
8387
331
8392
331
83A5
331
83A6
331
83D5
331
8416
331
8417
102
}
 70
     0
280
     1
281
     0
  0
BLOCK_RECORD
  5
7D37
330
1
100
AcDbSymbolTableRecord
100
AcDbBlockTableRecord
  2
*D1
340
0
 70
     0
280
     1
281
     0
  0
BLOCK_RECORD
  5
7D43
330
1
100
AcDbSymbolTableRecord
100
AcDbBlockTableRecord
  2
*D2
340
0
 70
     0
280
     1
281
     0
  0
BLOCK_RECORD
  5
7D4F
330
1
100
AcDbSymbolTableRecord
100
AcDbBlockTableRecord
  2
*D3
340
0
 70
     0
280
     1
281
     0
  0
BLOCK_RECORD
  5
7D5B
330
1
100
AcDbSymbolTableRecord
100
AcDbBlockTableRecord
  2
*D4
340
0
 70
     0
280
     1
281
     0
  0
BLOCK_RECORD
  5
7D66
330
1
100
AcDbSymbolTableRecord
100
AcDbBlockTableRecord
  2
*D5
340
0
 70
     0
280
     1
281
     0
  0
BLOCK_RECORD
  5
7D72
330
1
100
AcDbSymbolTableRecord
100
AcDbBlockTableRecord
  2
*D6
340
0
 70
     0
280
     1
281
     0
  0
BLOCK_RECORD
  5
7DAD
330
1
100
AcDbSymbolTableRecord
100
AcDbBlockTableRecord
  2
*D7
340
0
 70
     0
280
     1
281
     0
  0
BLOCK_RECORD
  5
7DB9
330
1
100
AcDbSymbolTableRecord
100
AcDbBlockTableRecord
  2
*D8
340
0
 70
     0
280
     1
281
     0
  0
BLOCK_RECORD
  5
7DDF
330
1
100
AcDbSymbolTableRecord
100
AcDbBlockTableRecord
  2
*D9
340
0
 70
     0
280
     1
281
     0
  0
BLOCK_RECORD
  5
7DEB
330
1
100
AcDbSymbolTableRecord
100
AcDbBlockTableRecord
  2
*D10
340
0
 70
     0
280
     1
281
     0
  0
BLOCK_RECORD
  5
8093
330
1
100
AcDbSymbolTableRecord
100
AcDbBlockTableRecord
  2
_DOT
340
0
102
{BLKREFS
331
8391
331
83D4
102
}
 70
     0
280
     1
281
     0
  0
BLOCK_RECORD
  5
8117
330
1
100
AcDbSymbolTableRecord
100
AcDbBlockTableRecord
  2
*D12
340
0
 70
     0
280
     1
281
     0
  0
BLOCK_RECORD
  5
81B5
330
1
100
AcDbSymbolTableRecord
100
AcDbBlockTableRecord
  2
*D13
340
0
 70
     0
280
     1
281
     0
  0
BLOCK_RECORD
  5
81C2
330
1
100
AcDbSymbolTableRecord
100
AcDbBlockTableRecord
  2
*D14
340
0
 70
     0
280
     1
281
     0
  0
BLOCK_RECORD
  5
8268
330
1
100
AcDbSymbolTableRecord
100
AcDbBlockTableRecord
  2
*D15
340
0
 70
     0
280
     1
281
     0
  0
BLOCK_RECORD
  5
8275
330
1
100
AcDbSymbolTableRecord
100
AcDbBlockTableRecord
  2
*D16
340
0
 70
     0
280
     1
281
     0
  0
BLOCK_RECORD
  5
8282
330
1
100
AcDbSymbolTableRecord
100
AcDbBlockTableRecord
  2
*D17
340
0
 70
     0
280
     1
281
     0
  0
BLOCK_RECORD
  5
828F
330
1
100
AcDbSymbolTableRecord
100
AcDbBlockTableRecord
  2
*D18
340
0
 70
     0
280
     1
281
     0
  0
BLOCK_RECORD
  5
82BA
330
1
100
AcDbSymbolTableRecord
100
AcDbBlockTableRecord
  2
*D19
340
0
 70
     0
280
     1
281
     0
  0
BLOCK_RECORD
  5
82E7
330
1
100
AcDbSymbolTableRecord
100
AcDbBlockTableRecord
  2
*D20
340
0
 70
     0
280
     1
281
     0
  0
BLOCK_RECORD
  5
82F4
330
1
100
AcDbSymbolTableRecord
100
AcDbBlockTableRecord
  2
*D21
340
0
 70
     0
280
     1
281
     0
  0
ENDTAB
  0
ENDSEC
  0
SECTION
  2
BLOCKS
  0
BLOCK
  5
1A
330
19
100
AcDbEntity
  8
0
100
AcDbBlockBegin
  2
*MODEL_SPACE
 70
     0
 10
0.0
 20
0.0
 30
0.0
  3
*MODEL_SPACE
  1

  0
ENDBLK
  5
1B
330
19
100
AcDbEntity
  8
0
100
AcDbBlockEnd
  0
BLOCK
  5
17
330
16
100
AcDbEntity
 67
     1
  8
0
100
AcDbBlockBegin
  2
*PAPER_SPACE
 70
     0
 10
0.0
 20
0.0
 30
0.0
  3
*PAPER_SPACE
  1

  0
ENDBLK
  5
18
330
16
100
AcDbEntity
 67
     1
  8
0
100
AcDbBlockEnd
  0
BLOCK
  5
7A00
330
79FC
100
AcDbEntity
  8
0
100
AcDbBlockBegin
  2
_OPEN
 70
     0
 10
0.0
 20
0.0
 30
0.0
  3
_OPEN
  1

  0
LINE
  5
79FD
330
79FC
100
AcDbEntity
  8
0
  6
ByBlock
 62
     0
100
AcDbLine
 10
-1.0
 20
0.1666666666666666
 30
0.0
 11
0.0
 21
0.0
 31
0.0
  0
LINE
  5
79FE
330
79FC
100
AcDbEntity
  8
0
  6
ByBlock
 62
     0
100
AcDbLine
 10
0.0
 20
0.0
 30
0.0
 11
-1.0
 21
-0.1666666666666666
 31
0.0
  0
LINE
  5
79FF
330
79FC
100
AcDbEntity
  8
0
  6
ByBlock
 62
     0
100
AcDbLine
 10
0.0
 20
0.0
 30
0.0
 11
-1.0
 21
0.0
 31
0.0
  0
ENDBLK
  5
7A01
330
79FC
100
AcDbEntity
  8
0
100
AcDbBlockEnd
  0
BLOCK
  5
7FC5
330
7D37
100
AcDbEntity
  8
0
100
AcDbBlockBegin
  2
*D1
 70
     1
 10
0.0
 20
0.0
 30
0.0
  3
*D1
  1

  0
LINE
  5
7FC6
330
7D37
100
AcDbEntity
  8
0
  6
ByBlock
 62
     0
440
 16777216
100
AcDbLine
 10
497.960433090549
 20
1233.274467347751
 30
0.0
 11
445.5022032011597
 21
1233.274467347751
 31
0.0
  0
LINE
  5
7FC7
330
7D37
100
AcDbEntity
  8
0
  6
ByBlock
 62
     0
440
 16777216
100
AcDbLine
 10
497.960433090549
 20
1033.274467347751
 30
0.0
 11
445.5022032011597
 21
1033.274467347751
 31
0.0
  0
LINE
  5
7FC8
330
7D37
100
AcDbEntity
  8
0
  6
ByBlock
 62
     0
440
 16777216
100
AcDbLine
 10
457.5022032011597
 20
1209.274467347751
 30
0.0
 11
457.5022032011597
 21
1057.274467347751
 31
0.0
  0
INSERT
  5
7FC9
330
7D37
100
AcDbEntity
  8
0
  6
ByBlock
 62
     0
440
 16777216
100
AcDbBlockReference
  2
_OPEN
 10
457.5022032011597
 20
1233.274467347751
 30
0.0
 41
24.0
 42
24.0
 43
24.0
 50
90.0
  0
INSERT
  5
7FCA
330
7D37
100
AcDbEntity
  8
0
  6
ByBlock
 62
     0
440
 16777216
100
AcDbBlockReference
  2
_OPEN
 10
457.5022032011597
 20
1033.274467347751
 30
0.0
 41
24.0
 42
24.0
 43
24.0
 50
270.0
  0
MTEXT
  5
7FCB
330
7D37
100
AcDbEntity
  8
0
  6
ByBlock
 62
     0
440
 16777216
100
AcDbMText
 10
427.5022032011597
 20
1133.274467347751
 30
0.0
 40
36.0
 41
0.0
 46
0.0
 71
     5
 72
     5
  1
\A1;200
 11
0.0
 21
1.0
 31
0.0
 73
     1
 44
1.0
  0
POINT
  5
7FCC
330
7D37
100
AcDbEntity
  8
DEFPOINTS
  6
ByBlock
 62
     0
440
 16777216
100
AcDbPoint
 10
503.960433090549
 20
1233.274467347751
 30
0.0
  0
POINT
  5
7FCD
330
7D37
100
AcDbEntity
  8
DEFPOINTS
  6
ByBlock
 62
     0
440
 16777216
100
AcDbPoint
 10
503.960433090549
 20
1033.274467347751
 30
0.0
  0
POINT
  5
7FCE
330
7D37
100
AcDbEntity
  8
DEFPOINTS
  6
ByBlock
 62
     0
440
 16777216
100
AcDbPoint
 10
457.5022032011597
 20
1033.274467347751
 30
0.0
  0
ENDBLK
  5
7FCF
330
7D37
100
AcDbEntity
  8
0
100
AcDbBlockEnd
  0
BLOCK
  5
822B
330
7D43
100
AcDbEntity
  8
0
100
AcDbBlockBegin
  2
*D2
 70
     1
 10
0.0
 20
0.0
 30
0.0
  3
*D2
  1

  0
LINE
  5
822C
330
7D43
100
AcDbEntity
  8
0
  6
ByBlock
 62
     0
440
 16777216
100
AcDbLine
 10
497.5960309663787
 20
1232.274467347751
 30
0.0
 11
387.4363220413011
 21
1232.274467347751
 31
0.0
  0
LINE
  5
822D
330
7D43
100
AcDbEntity
  8
0
  6
ByBlock
 62
     0
440
 16777216
100
AcDbLine
 10
497.960433090549
 20
1033.274467347751
 30
0.0
 11
387.4363220413011
 21
1033.274467347751
 31
0.0
  0
LINE
  5
822E
330
7D43
100
AcDbEntity
  8
0
  6
ByBlock
 62
     0
440
 16777216
100
AcDbLine
 10
399.4363220413011
 20
1208.274467347751
 30
0.0
 11
399.4363220413011
 21
1057.274467347751
 31
0.0
  0
INSERT
  5
822F
330
7D43
100
AcDbEntity
  8
0
  6
ByBlock
 62
     0
440
 16777216
100
AcDbBlockReference
  2
_OPEN
 10
399.4363220413011
 20
1232.274467347751
 30
0.0
 41
24.0
 42
24.0
 43
24.0
 50
90.0
  0
INSERT
  5
8230
330
7D43
100
AcDbEntity
  8
0
  6
ByBlock
 62
     0
440
 16777216
100
AcDbBlockReference
  2
_OPEN
 10
399.4363220413011
 20
1033.274467347751
 30
0.0
 41
24.0
 42
24.0
 43
24.0
 50
270.0
  0
MTEXT
  5
8231
330
7D43
100
AcDbEntity
  8
0
  6
ByBlock
 62
     0
440
 16777216
100
AcDbMText
 10
369.4363220413011
 20
1132.774467347751
 30
0.0
 40
36.0
 41
0.0
 46
0.0
 71
     5
 72
     5
  1
\A1;199
 11
0.0
 21
1.0
 31
0.0
 73
     1
 44
1.0
  0
POINT
  5
8232
330
7D43
100
AcDbEntity
  8
DEFPOINTS
  6
ByBlock
 62
     0
440
 16777216
100
AcDbPoint
 10
503.5960309663787
 20
1232.274467347751
 30
0.0
  0
POINT
  5
8233
330
7D43
100
AcDbEntity
  8
DEFPOINTS
  6
ByBlock
 62
     0
440
 16777216
100
AcDbPoint
 10
503.960433090549
 20
1033.274467347751
 30
0.0
  0
POINT
  5
8234
330
7D43
100
AcDbEntity
  8
DEFPOINTS
  6
ByBlock
 62
     0
440
 16777216
100
AcDbPoint
 10
399.4363220413011
 20
1033.274467347751
 30
0.0
  0
ENDBLK
  5
8235
330
7D43
100
AcDbEntity
  8
0
100
AcDbBlockEnd
  0
BLOCK
  5
8065
330
7D4F
100
AcDbEntity
  8
0
100
AcDbBlockBegin
  2
*D3
 70
     1
 10
0.0
 20
0.0
 30
0.0
  3
*D3
  1

  0
LINE
  5
8066
330
7D4F
100
AcDbEntity
  8
0
  6
ByBlock
 62
     0
440
 16777216
100
AcDbLine
 10
2133.189425511099
 20
1383.224283578283
 30
0.0
 11
2133.189425511099
 21
1511.307957059832
 31
0.0
  0
LINE
  5
8067
330
7D4F
100
AcDbEntity
  8
0
  6
ByBlock
 62
     0
440
 16777216
100
AcDbLine
 10
2056.1894255111
 20
1467.751055404746
 30
0.0
 11
2056.1894255111
 21
1511.307957059832
 31
0.0
  0
LINE
  5
8068
330
7D4F
100
AcDbEntity
  8
0
  6
ByBlock
 62
     0
440
 16777216
100
AcDbLine
 10
2109.1894255111
 20
1499.307957059832
 30
0.0
 11
2080.1894255111
 21
1499.307957059832
 31
0.0
  0
MTEXT
  5
8069
330
7D4F
100
AcDbEntity
  8
0
  6
ByBlock
 62
     0
440
 16777216
100
AcDbMText
 10
2094.514778666291
 20
1528.617496807827
 30
0.0
 40
36.0
 41
0.0
 46
0.0
 71
     5
 72
     5
  1
\A1;79
 73
     1
 44
1.0
  0
INSERT
  5
806A
330
7D4F
100
AcDbEntity
  8
0
  6
ByBlock
 62
     0
440
 16777216
100
AcDbBlockReference
  2
_OPEN
 10
2133.189425511099
 20
1499.307957059832
 30
0.0
 41
24.0
 42
24.0
 43
24.0
  0
INSERT
  5
806B
330
7D4F
100
AcDbEntity
  8
0
  6
ByBlock
 62
     0
440
 16777216
100
AcDbBlockReference
  2
_OPEN
 10
2056.1894255111
 20
1499.307957059832
 30
0.0
 41
24.0
 42
24.0
 43
24.0
 50
180.0
  0
POINT
  5
806C
330
7D4F
100
AcDbEntity
  8
DEFPOINTS
  6
ByBlock
 62
     0
440
 16777216
100
AcDbPoint
 10
2133.189425511099
 20
1377.224283578283
 30
0.0
  0
POINT
  5
806D
330
7D4F
100
AcDbEntity
  8
DEFPOINTS
  6
ByBlock
 62
     0
440
 16777216
100
AcDbPoint
 10
2056.1894255111
 20
1461.751055404746
 30
0.0
  0
POINT
  5
806E
330
7D4F
100
AcDbEntity
  8
DEFPOINTS
  6
ByBlock
 62
     0
440
 16777216
100
AcDbPoint
 10
2056.1894255111
 20
1499.307957059832
 30
0.0
  0
ENDBLK
  5
806F
330
7D4F
100
AcDbEntity
  8
0
100
AcDbBlockEnd
  0
BLOCK
  5
80C4
330
7D5B
100
AcDbEntity
  8
0
100
AcDbBlockBegin
  2
*D4
 70
     1
 10
0.0
 20
0.0
 30
0.0
  3
*D4
  1

  0
LINE
  5
8413
330
7D5B
100
AcDbEntity
  8
3
 62
     0
440
 16777216
370
    -2
100
AcDbLine
 10
2056.1894255111
 20
1467.751055404746
 30
0.0
 11
2056.1894255111
 21
1511.307957059832
 31
0.0
  0
LINE
  5
8414
330
7D5B
100
AcDbEntity
  8
3
 62
     0
440
 16777216
370
    -2
100
AcDbLine
 10
1623.189425511099
 20
1318.366526321129
 30
0.0
 11
1623.189425511099
 21
1511.307957059832
 31
0.0
  0
LINE
  5
8415
330
7D5B
100
AcDbEntity
  8
3
 62
     0
440
 16777216
370
    -2
100
AcDbLine
 10
2032.1894255111
 20
1499.307957059832
 30
0.0
 11
1647.189425511099
 21
1499.307957059832
 31
0.0
  0
INSERT
  5
8416
330
7D5B
100
AcDbEntity
  8
3
 62
     0
440
 16777216
370
    -2
100
AcDbBlockReference
  2
_OPEN
 10
2056.1894255111
 20
1499.307957059832
 30
0.0
 41
24.0
 42
24.0
 43
24.0
  0
INSERT
  5
8417
330
7D5B
100
AcDbEntity
  8
3
 62
     0
440
 16777216
370
    -2
100
AcDbBlockReference
  2
_OPEN
 10
1623.189425511099
 20
1499.307957059832
 30
0.0
 41
24.0
 42
24.0
 43
24.0
 50
180.0
  0
MTEXT
  5
8418
330
7D5B
100
AcDbEntity
  8
3
 62
     0
440
 16777216
100
AcDbMText
 10
1839.6894255111
 20
1568.736528488404
 30
0.0
 40
36.0
 41
0.0
 46
0.0
 71
     5
 72
     1
  1
\A1;\P(520)
 73
     1
 44
1.0
  0
POINT
  5
8419
330
7D5B
100
AcDbEntity
  8
DEFPOINTS
 62
     0
440
 16777216
100
AcDbPoint
 10
2056.1894255111
 20
1461.751055404746
 30
0.0
  0
POINT
  5
841A
330
7D5B
100
AcDbEntity
  8
DEFPOINTS
 62
     0
440
 16777216
100
AcDbPoint
 10
1623.189425511099
 20
1312.366526321129
 30
0.0
  0
POINT
  5
841B
330
7D5B
100
AcDbEntity
  8
DEFPOINTS
 62
     0
440
 16777216
100
AcDbPoint
 10
1623.189425511099
 20
1499.307957059832
 30
0.0
  0
ENDBLK
  5
80CE
330
7D5B
100
AcDbEntity
  8
0
100
AcDbBlockEnd
  0
BLOCK
  5
804F
330
7D66
100
AcDbEntity
  8
0
100
AcDbBlockBegin
  2
*D5
 70
     1
 10
0.0
 20
0.0
 30
0.0
  3
*D5
  1

  0
LINE
  5
8050
330
7D66
100
AcDbEntity
  8
0
  6
ByBlock
 62
     0
440
 16777216
100
AcDbLine
 10
1981.189425511099
 20
1383.224278441139
 30
0.0
 11
1981.189425511099
 21
1430.040346676846
 31
0.0
  0
LINE
  5
8051
330
7D66
100
AcDbEntity
  8
0
  6
ByBlock
 62
     0
440
 16777216
100
AcDbLine
 10
2131.189425511099
 20
1383.224283578283
 30
0.0
 11
2131.189425511099
 21
1430.040346676846
 31
0.0
  0
LINE
  5
8052
330
7D66
100
AcDbEntity
  8
0
  6
ByBlock
 62
     0
440
 16777216
100
AcDbLine
 10
2005.189425511099
 20
1418.040346676846
 30
0.0
 11
2107.189425511099
 21
1418.040346676846
 31
0.0
  0
MTEXT
  5
8053
330
7D66
100
AcDbEntity
  8
0
  6
ByBlock
 62
     0
440
 16777216
100
AcDbMText
 10
2056.189425511099
 20
1445.700411905221
 30
0.0
 40
36.0
 41
0.0
 46
0.0
 71
     5
 72
     5
  1
\A1;150
 73
     1
 44
1.0
  0
INSERT
  5
8054
330
7D66
100
AcDbEntity
  8
0
  6
ByBlock
 62
     0
440
 16777216
100
AcDbBlockReference
  2
_OPEN
 10
1981.189425511099
 20
1418.040346676846
 30
0.0
 41
24.0
 42
24.0
 43
24.0
 50
180.0
  0
INSERT
  5
8055
330
7D66
100
AcDbEntity
  8
0
  6
ByBlock
 62
     0
440
 16777216
100
AcDbBlockReference
  2
_OPEN
 10
2131.189425511099
 20
1418.040346676846
 30
0.0
 41
24.0
 42
24.0
 43
24.0
  0
POINT
  5
8056
330
7D66
100
AcDbEntity
  8
DEFPOINTS
  6
ByBlock
 62
     0
440
 16777216
100
AcDbPoint
 10
1981.189425511099
 20
1377.224278441139
 30
0.0
  0
POINT
  5
8057
330
7D66
100
AcDbEntity
  8
DEFPOINTS
  6
ByBlock
 62
     0
440
 16777216
100
AcDbPoint
 10
2131.189425511099
 20
1377.224283578283
 30
0.0
  0
POINT
  5
8058
330
7D66
100
AcDbEntity
  8
DEFPOINTS
  6
ByBlock
 62
     0
440
 16777216
100
AcDbPoint
 10
2131.189425511099
 20
1418.040346676846
 30
0.0
  0
ENDBLK
  5
8059
330
7D66
100
AcDbEntity
  8
0
100
AcDbBlockEnd
  0
BLOCK
  5
80CF
330
7D72
100
AcDbEntity
  8
0
100
AcDbBlockBegin
  2
*D6
 70
     1
 10
0.0
 20
0.0
 30
0.0
  3
*D6
  1

  0
LINE
  5
80D0
330
7D72
100
AcDbEntity
  8
0
  6
ByBlock
 62
     0
440
 16777216
100
AcDbLine
 10
2160.189425511099
 20
1342.36056123501
 30
0.0
 11
2247.206465374938
 21
1342.36056123501
 31
0.0
  0
LINE
  5
80D1
330
7D72
100
AcDbEntity
  8
0
  6
ByBlock
 62
     0
440
 16777216
100
AcDbLine
 10
2160.189425511099
 20
1122.36056123501
 30
0.0
 11
2247.206465374938
 21
1122.36056123501
 31
0.0
  0
LINE
  5
80D2
330
7D72
100
AcDbEntity
  8
0
  6
ByBlock
 62
     0
440
 16777216
100
AcDbLine
 10
2235.206465374938
 20
1318.36056123501
 30
0.0
 11
2235.206465374938
 21
1146.36056123501
 31
0.0
  0
INSERT
  5
80D3
330
7D72
100
AcDbEntity
  8
0
  6
ByBlock
 62
     0
440
 16777216
100
AcDbBlockReference
  2
_OPEN
 10
2235.206465374938
 20
1342.36056123501
 30
0.0
 41
24.0
 42
24.0
 43
24.0
 50
90.0
  0
INSERT
  5
80D4
330
7D72
100
AcDbEntity
  8
0
  6
ByBlock
 62
     0
440
 16777216
100
AcDbBlockReference
  2
_OPEN
 10
2235.206465374938
 20
1122.36056123501
 30
0.0
 41
24.0
 42
24.0
 43
24.0
 50
270.0
  0
MTEXT
  5
80D5
330
7D72
100
AcDbEntity
  8
0
  6
ByBlock
 62
     0
440
 16777216
100
AcDbMText
 10
2205.206465374939
 20
1232.36056123501
 30
0.0
 40
36.0
 41
0.0
 46
0.0
 71
     5
 72
     5
  1
\A1;φ220
 11
0.0
 21
1.0
 31
0.0
 73
     1
 44
1.0
  0
POINT
  5
80D6
330
7D72
100
AcDbEntity
  8
DEFPOINTS
  6
ByBlock
 62
     0
440
 16777216
100
AcDbPoint
 10
2154.189425511099
 20
1342.36056123501
 30
0.0
  0
POINT
  5
80D7
330
7D72
100
AcDbEntity
  8
DEFPOINTS
  6
ByBlock
 62
     0
440
 16777216
100
AcDbPoint
 10
2154.189425511099
 20
1122.36056123501
 30
0.0
  0
POINT
  5
80D8
330
7D72
100
AcDbEntity
  8
DEFPOINTS
  6
ByBlock
 62
     0
440
 16777216
100
AcDbPoint
 10
2235.206465374938
 20
1122.36056123501
 30
0.0
  0
ENDBLK
  5
80D9
330
7D72
100
AcDbEntity
  8
0
100
AcDbBlockEnd
  0
BLOCK
  5
8220
330
7DAD
100
AcDbEntity
  8
0
100
AcDbBlockBegin
  2
*D7
 70
     1
 10
0.0
 20
0.0
 30
0.0
  3
*D7
  1

  0
LINE
  5
8221
330
7DAD
100
AcDbEntity
  8
0
  6
ByBlock
 62
     0
440
 16777216
100
AcDbLine
 10
693.960433090549
 20
1380.274467347751
 30
0.0
 11
328.4718232223868
 21
1380.274467347751
 31
0.0
  0
LINE
  5
8222
330
7DAD
100
AcDbEntity
  8
0
  6
ByBlock
 62
     0
440
 16777216
100
AcDbLine
 10
497.5960309663787
 20
1232.274467347751
 30
0.0
 11
328.4718232223868
 21
1232.274467347751
 31
0.0
  0
LINE
  5
8223
330
7DAD
100
AcDbEntity
  8
0
  6
ByBlock
 62
     0
440
 16777216
100
AcDbLine
 10
340.4718232223868
 20
1356.274467347751
 30
0.0
 11
340.4718232223868
 21
1256.274467347751
 31
0.0
  0
MTEXT
  5
8224
330
7DAD
100
AcDbEntity
  8
0
  6
ByBlock
 62
     0
440
 16777216
100
AcDbMText
 10
309.8731291269378
 20
1306.274467347751
 30
0.0
 40
36.0
 41
0.0
 46
0.0
 71
     5
 72
     5
  1
\A1;148
 11
0.0
 21
1.0
 31
0.0
 73
     1
 44
1.0
  0
INSERT
  5
8225
330
7DAD
100
AcDbEntity
  8
0
  6
ByBlock
 62
     0
440
 16777216
100
AcDbBlockReference
  2
_OPEN
 10
340.4718232223868
 20
1380.274467347751
 30
0.0
 41
24.0
 42
24.0
 43
24.0
 50
90.0
  0
INSERT
  5
8226
330
7DAD
100
AcDbEntity
  8
0
  6
ByBlock
 62
     0
440
 16777216
100
AcDbBlockReference
  2
_OPEN
 10
340.4718232223868
 20
1232.274467347751
 30
0.0
 41
24.0
 42
24.0
 43
24.0
 50
270.0
  0
POINT
  5
8227
330
7DAD
100
AcDbEntity
  8
DEFPOINTS
  6
ByBlock
 62
     0
440
 16777216
100
AcDbPoint
 10
699.960433090549
 20
1380.274467347751
 30
0.0
  0
POINT
  5
8228
330
7DAD
100
AcDbEntity
  8
DEFPOINTS
  6
ByBlock
 62
     0
440
 16777216
100
AcDbPoint
 10
503.5960309663787
 20
1232.274467347751
 30
0.0
  0
POINT
  5
8229
330
7DAD
100
AcDbEntity
  8
DEFPOINTS
  6
ByBlock
 62
     0
440
 16777216
100
AcDbPoint
 10
340.4718232223868
 20
1232.274467347751
 30
0.0
  0
ENDBLK
  5
822A
330
7DAD
100
AcDbEntity
  8
0
100
AcDbBlockEnd
  0
BLOCK
  5
8215
330
7DB9
100
AcDbEntity
  8
0
100
AcDbBlockBegin
  2
*D8
 70
     1
 10
0.0
 20
0.0
 30
0.0
  3
*D8
  1

  0
LINE
  5
8216
330
7DB9
100
AcDbEntity
  8
0
  6
ByBlock
 62
     0
440
 16777216
100
AcDbLine
 10
497.5960309663787
 20
1232.274467347751
 30
0.0
 11
328.4718232223868
 21
1232.274467347751
 31
0.0
  0
LINE
  5
8217
330
7DB9
100
AcDbEntity
  8
0
  6
ByBlock
 62
     0
440
 16777216
100
AcDbLine
 10
507.9604330905494
 20
972.2744673477514
 30
0.0
 11
328.4718232223868
 21
972.2744673477514
 31
0.0
  0
LINE
  5
8218
330
7DB9
100
AcDbEntity
  8
0
  6
ByBlock
 62
     0
440
 16777216
100
AcDbLine
 10
340.4718232223868
 20
1208.274467347751
 30
0.0
 11
340.4718232223868
 21
996.2744673477514
 31
0.0
  0
INSERT
  5
8219
330
7DB9
100
AcDbEntity
  8
0
  6
ByBlock
 62
     0
440
 16777216
100
AcDbBlockReference
  2
_OPEN
 10
340.4718232223868
 20
1232.274467347751
 30
0.0
 41
24.0
 42
24.0
 43
24.0
 50
90.0
  0
INSERT
  5
821A
330
7DB9
100
AcDbEntity
  8
0
  6
ByBlock
 62
     0
440
 16777216
100
AcDbBlockReference
  2
_OPEN
 10
340.4718232223868
 20
972.2744673477514
 30
0.0
 41
24.0
 42
24.0
 43
24.0
 50
270.0
  0
MTEXT
  5
821B
330
7DB9
100
AcDbEntity
  8
0
  6
ByBlock
 62
     0
440
 16777216
100
AcDbMText
 10
310.4718232223868
 20
1102.274467347751
 30
0.0
 40
36.0
 41
0.0
 46
0.0
 71
     5
 72
     5
  1
\A1;260
 11
0.0
 21
1.0
 31
0.0
 73
     1
 44
1.0
  0
POINT
  5
821C
330
7DB9
100
AcDbEntity
  8
DEFPOINTS
  6
ByBlock
 62
     0
440
 16777216
100
AcDbPoint
 10
503.5960309663787
 20
1232.274467347751
 30
0.0
  0
POINT
  5
821D
330
7DB9
100
AcDbEntity
  8
DEFPOINTS
  6
ByBlock
 62
     0
440
 16777216
100
AcDbPoint
 10
513.9604330905495
 20
972.2744673477514
 30
0.0
  0
POINT
  5
821E
330
7DB9
100
AcDbEntity
  8
DEFPOINTS
  6
ByBlock
 62
     0
440
 16777216
100
AcDbPoint
 10
340.4718232223868
 20
972.2744673477514
 30
0.0
  0
ENDBLK
  5
821F
330
7DB9
100
AcDbEntity
  8
0
100
AcDbBlockEnd
  0
BLOCK
  5
80F9
330
7DDF
100
AcDbEntity
  8
0
100
AcDbBlockBegin
  2
*D9
 70
     1
 10
0.0
 20
0.0
 30
0.0
  3
*D9
  1

  0
LINE
  5
80FA
330
7DDF
100
AcDbEntity
  8
0
  6
ByBlock
 62
     0
440
 16777216
100
AcDbLine
 10
503.960433090549
 20
1261.274467347751
 30
0.0
 11
503.960433090549
 21
1463.840468166837
 31
0.0
  0
LINE
  5
80FB
330
7DDF
100
AcDbEntity
  8
0
  6
ByBlock
 62
     0
440
 16777216
100
AcDbLine
 10
688.9604330905495
 20
1419.813026692561
 30
0.0
 11
688.9604330905495
 21
1463.840468166837
 31
0.0
  0
LINE
  5
80FC
330
7DDF
100
AcDbEntity
  8
0
  6
ByBlock
 62
     0
440
 16777216
100
AcDbLine
 10
527.960433090549
 20
1451.840468166837
 30
0.0
 11
664.9604330905495
 21
1451.840468166837
 31
0.0
  0
INSERT
  5
80FD
330
7DDF
100
AcDbEntity
  8
0
  6
ByBlock
 62
     0
440
 16777216
100
AcDbBlockReference
  2
_OPEN
 10
503.960433090549
 20
1451.840468166837
 30
0.0
 41
24.0
 42
24.0
 43
24.0
 50
180.0
  0
INSERT
  5
80FE
330
7DDF
100
AcDbEntity
  8
0
  6
ByBlock
 62
     0
440
 16777216
100
AcDbBlockReference
  2
_OPEN
 10
688.9604330905495
 20
1451.840468166837
 30
0.0
 41
24.0
 42
24.0
 43
24.0
  0
MTEXT
  5
80FF
330
7DDF
100
AcDbEntity
  8
0
  6
ByBlock
 62
     0
440
 16777216
100
AcDbMText
 10
596.4604330905492
 20
1481.840468166837
 30
0.0
 40
36.0
 41
0.0
 46
0.0
 71
     5
 72
     5
  1
\A1;185
 73
     1
 44
1.0
  0
POINT
  5
8100
330
7DDF
100
AcDbEntity
  8
DEFPOINTS
  6
ByBlock
 62
     0
440
 16777216
100
AcDbPoint
 10
503.960433090549
 20
1255.274467347751
 30
0.0
  0
POINT
  5
8101
330
7DDF
100
AcDbEntity
  8
DEFPOINTS
  6
ByBlock
 62
     0
440
 16777216
100
AcDbPoint
 10
688.9604330905495
 20
1413.813026692561
 30
0.0
  0
POINT
  5
8102
330
7DDF
100
AcDbEntity
  8
DEFPOINTS
  6
ByBlock
 62
     0
440
 16777216
100
AcDbPoint
 10
688.9604330905495
 20
1451.840468166837
 30
0.0
  0
ENDBLK
  5
8103
330
7DDF
100
AcDbEntity
  8
0
100
AcDbBlockEnd
  0
BLOCK
  5
8104
330
7DEB
100
AcDbEntity
  8
0
100
AcDbBlockBegin
  2
*D10
 70
     1
 10
0.0
 20
0.0
 30
0.0
  3
*D10
  1

  0
LINE
  5
8105
330
7DEB
100
AcDbEntity
  8
0
  6
ByBlock
 62
     0
440
 16777216
100
AcDbLine
 10
688.9604330905495
 20
1419.813026692561
 30
0.0
 11
688.9604330905495
 21
1463.840468166837
 31
0.0
  0
LINE
  5
8106
330
7DEB
100
AcDbEntity
  8
0
  6
ByBlock
 62
     0
440
 16777216
100
AcDbLine
 10
858.9604330905491
 20
1224.274467347751
 30
0.0
 11
858.9604330905491
 21
1463.840468166837
 31
0.0
  0
LINE
  5
8107
330
7DEB
100
AcDbEntity
  8
0
  6
ByBlock
 62
     0
440
 16777216
100
AcDbLine
 10
712.9604330905494
 20
1451.840468166837
 30
0.0
 11
834.960433090549
 21
1451.840468166837
 31
0.0
  0
INSERT
  5
8108
330
7DEB
100
AcDbEntity
  8
0
  6
ByBlock
 62
     0
440
 16777216
100
AcDbBlockReference
  2
_OPEN
 10
688.9604330905495
 20
1451.840468166837
 30
0.0
 41
24.0
 42
24.0
 43
24.0
 50
180.0
  0
INSERT
  5
8109
330
7DEB
100
AcDbEntity
  8
0
  6
ByBlock
 62
     0
440
 16777216
100
AcDbBlockReference
  2
_OPEN
 10
858.9604330905491
 20
1451.840468166837
 30
0.0
 41
24.0
 42
24.0
 43
24.0
  0
MTEXT
  5
810A
330
7DEB
100
AcDbEntity
  8
0
  6
ByBlock
 62
     0
440
 16777216
100
AcDbMText
 10
773.9604330905493
 20
1481.840468166837
 30
0.0
 40
36.0
 41
0.0
 46
0.0
 71
     5
 72
     5
  1
\A1;170
 73
     1
 44
1.0
  0
POINT
  5
810B
330
7DEB
100
AcDbEntity
  8
DEFPOINTS
  6
ByBlock
 62
     0
440
 16777216
100
AcDbPoint
 10
688.9604330905495
 20
1413.813026692561
 30
0.0
  0
POINT
  5
810C
330
7DEB
100
AcDbEntity
  8
DEFPOINTS
  6
ByBlock
 62
     0
440
 16777216
100
AcDbPoint
 10
858.9604330905491
 20
1218.274467347751
 30
0.0
  0
POINT
  5
810D
330
7DEB
100
AcDbEntity
  8
DEFPOINTS
  6
ByBlock
 62
     0
440
 16777216
100
AcDbPoint
 10
858.9604330905491
 20
1451.840468166837
 30
0.0
  0
ENDBLK
  5
810E
330
7DEB
100
AcDbEntity
  8
0
100
AcDbBlockEnd
  0
BLOCK
  5
8094
330
8093
100
AcDbEntity
  8
0
100
AcDbBlockBegin
  2
_DOT
 70
     0
 10
0.0
 20
0.0
 30
0.0
  3
_DOT
  1

  0
LINE
  5
80DE
330
8093
100
AcDbEntity
  8
0
  6
ByBlock
 62
     0
100
AcDbLine
 10
0.0
 20
0.0
 30
0.0
 11
-1.0
 21
-0.0000000000000284
 31
0.0
  0
LWPOLYLINE
  5
80DF
330
8093
100
AcDbEntity
  8
0
  6
ByBlock
 62
     0
100
AcDbPolyline
 90
        2
 70
     1
 43
0.1666666666666666
 10
-0.0833333333333286
 20
-0.0000000000000284
 42
1.0
 10
0.0833333333333286
 20
-0.0000000000000284
 42
1.0
  0
ENDBLK
  5
809A
330
8093
100
AcDbEntity
  8
0
100
AcDbBlockEnd
  0
BLOCK
  5
8124
330
8117
100
AcDbEntity
  8
0
100
AcDbBlockBegin
  2
*D12
 70
     1
 10
0.0
 20
0.0
 30
0.0
  3
*D12
  1

  0
LINE
  5
8125
330
8117
100
AcDbEntity
  8
0
  6
ByBlock
 62
     0
440
 16777216
100
AcDbLine
 10
503.960433090549
 20
1261.274467347751
 30
0.0
 11
503.960433090549
 21
1547.012009060021
 31
0.0
  0
LINE
  5
8126
330
8117
100
AcDbEntity
  8
0
  6
ByBlock
 62
     0
440
 16777216
100
AcDbLine
 10
1133.960433090549
 20
1018.274467347751
 30
0.0
 11
1133.960433090549
 21
1547.012009060021
 31
0.0
  0
LINE
  5
8127
330
8117
100
AcDbEntity
  8
0
  6
ByBlock
 62
     0
440
 16777216
100
AcDbLine
 10
527.960433090549
 20
1535.012009060021
 30
0.0
 11
1109.960433090549
 21
1535.012009060021
 31
0.0
  0
INSERT
  5
8128
330
8117
100
AcDbEntity
  8
0
  6
ByBlock
 62
     0
440
 16777216
100
AcDbBlockReference
  2
_OPEN
 10
503.960433090549
 20
1535.012009060021
 30
0.0
 41
24.0
 42
24.0
 43
24.0
 50
180.0
  0
INSERT
  5
8129
330
8117
100
AcDbEntity
  8
0
  6
ByBlock
 62
     0
440
 16777216
100
AcDbBlockReference
  2
_OPEN
 10
1133.960433090549
 20
1535.012009060021
 30
0.0
 41
24.0
 42
24.0
 43
24.0
  0
MTEXT
  5
812A
330
8117
100
AcDbEntity
  8
0
  6
ByBlock
 62
     0
440
 16777216
100
AcDbMText
 10
779.2560429819022
 20
1565.012009060021
 30
0.0
 40
36.0
 41
0.0
 46
0.0
 71
     5
 72
     5
  1
\A1;630
 73
     1
 44
1.0
  0
POINT
  5
812B
330
8117
100
AcDbEntity
  8
DEFPOINTS
  6
ByBlock
 62
     0
440
 16777216
100
AcDbPoint
 10
503.960433090549
 20
1255.274467347751
 30
0.0
  0
POINT
  5
812C
330
8117
100
AcDbEntity
  8
DEFPOINTS
  6
ByBlock
 62
     0
440
 16777216
100
AcDbPoint
 10
1133.960433090549
 20
1012.274467347751
 30
0.0
  0
POINT
  5
812D
330
8117
100
AcDbEntity
  8
DEFPOINTS
  6
ByBlock
 62
     0
440
 16777216
100
AcDbPoint
 10
1133.960433090549
 20
1535.012009060021
 30
0.0
  0
ENDBLK
  5
812E
330
8117
100
AcDbEntity
  8
0
100
AcDbBlockEnd
  0
BLOCK
  5
81B6
330
81B5
100
AcDbEntity
  8
0
100
AcDbBlockBegin
  2
*D13
 70
     1
 10
0.0
 20
0.0
 30
0.0
  3
*D13
  1

  0
LINE
  5
81B7
330
81B5
100
AcDbEntity
  8
0
  6
ByBlock
 62
     0
440
 16777216
100
AcDbLine
 10
513.9604330905497
 20
1899.679632197752
 30
0.0
 11
513.9604330905497
 21
1789.126444641751
 31
0.0
  0
LINE
  5
81B8
330
81B5
100
AcDbEntity
  8
0
  6
ByBlock
 62
     0
440
 16777216
100
AcDbLine
 10
1133.960433090549
 20
1899.679632197752
 30
0.0
 11
1133.960433090549
 21
1789.126444641751
 31
0.0
  0
LINE
  5
81B9
330
81B5
100
AcDbEntity
  8
0
  6
ByBlock
 62
     0
440
 16777216
100
AcDbLine
 10
537.9604330905497
 20
1801.126444641751
 30
0.0
 11
1109.960433090549
 21
1801.126444641751
 31
0.0
  0
INSERT
  5
81BA
330
81B5
100
AcDbEntity
  8
0
  6
ByBlock
 62
     0
440
 16777216
100
AcDbBlockReference
  2
_OPEN
 10
513.9604330905497
 20
1801.126444641751
 30
0.0
 41
24.0
 42
24.0
 43
24.0
 50
180.0
  0
INSERT
  5
81BB
330
81B5
100
AcDbEntity
  8
0
  6
ByBlock
 62
     0
440
 16777216
100
AcDbBlockReference
  2
_OPEN
 10
1133.960433090549
 20
1801.126444641751
 30
0.0
 41
24.0
 42
24.0
 43
24.0
  0
MTEXT
  5
81BC
330
81B5
100
AcDbEntity
  8
0
  6
ByBlock
 62
     0
440
 16777216
100
AcDbMText
 10
808.2297574111889
 20
1831.126444641751
 30
0.0
 40
36.0
 41
0.0
 46
0.0
 71
     5
 72
     5
  1
\A1;620
 73
     1
 44
1.0
  0
POINT
  5
81BD
330
81B5
100
AcDbEntity
  8
DEFPOINTS
  6
ByBlock
 62
     0
440
 16777216
100
AcDbPoint
 10
513.9604330905497
 20
1905.679632197752
 30
0.0
  0
POINT
  5
81BE
330
81B5
100
AcDbEntity
  8
DEFPOINTS
  6
ByBlock
 62
     0
440
 16777216
100
AcDbPoint
 10
1133.960433090549
 20
1905.679632197752
 30
0.0
  0
POINT
  5
81BF
330
81B5
100
AcDbEntity
  8
DEFPOINTS
  6
ByBlock
 62
     0
440
 16777216
100
AcDbPoint
 10
1133.960433090549
 20
1801.126444641751
 30
0.0
  0
ENDBLK
  5
81C0
330
81B5
100
AcDbEntity
  8
0
100
AcDbBlockEnd
  0
BLOCK
  5
81C3
330
81C2
100
AcDbEntity
  8
0
100
AcDbBlockBegin
  2
*D14
 70
     1
 10
0.0
 20
0.0
 30
0.0
  3
*D14
  1

  0
LINE
  5
81C4
330
81C2
100
AcDbEntity
  8
0
  6
ByBlock
 62
     0
440
 16777216
100
AcDbLine
 10
1139.960433090549
 20
2285.679632197753
 30
0.0
 11
1243.445031596775
 21
2285.679632197753
 31
0.0
  0
LINE
  5
81C5
330
81C2
100
AcDbEntity
  8
0
  6
ByBlock
 62
     0
440
 16777216
100
AcDbLine
 10
1139.960433090549
 20
1905.679632197752
 30
0.0
 11
1243.445031596775
 21
1905.679632197752
 31
0.0
  0
LINE
  5
81C6
330
81C2
100
AcDbEntity
  8
0
  6
ByBlock
 62
     0
440
 16777216
100
AcDbLine
 10
1231.445031596775
 20
2261.679632197753
 30
0.0
 11
1231.445031596775
 21
1929.679632197753
 31
0.0
  0
INSERT
  5
81C7
330
81C2
100
AcDbEntity
  8
0
  6
ByBlock
 62
     0
440
 16777216
100
AcDbBlockReference
  2
_OPEN
 10
1231.445031596775
 20
2285.679632197753
 30
0.0
 41
24.0
 42
24.0
 43
24.0
 50
90.0
  0
INSERT
  5
81C8
330
81C2
100
AcDbEntity
  8
0
  6
ByBlock
 62
     0
440
 16777216
100
AcDbBlockReference
  2
_OPEN
 10
1231.445031596775
 20
1905.679632197752
 30
0.0
 41
24.0
 42
24.0
 43
24.0
 50
270.0
  0
MTEXT
  5
81C9
330
81C2
100
AcDbEntity
  8
0
  6
ByBlock
 62
     0
440
 16777216
100
AcDbMText
 10
1201.445031596775
 20
2081.453364275404
 30
0.0
 40
36.0
 41
0.0
 46
0.0
 71
     5
 72
     5
  1
\A1;380
 11
0.0
 21
1.0
 31
0.0
 73
     1
 44
1.0
  0
POINT
  5
81CA
330
81C2
100
AcDbEntity
  8
DEFPOINTS
  6
ByBlock
 62
     0
440
 16777216
100
AcDbPoint
 10
1133.960433090549
 20
2285.679632197753
 30
0.0
  0
POINT
  5
81CB
330
81C2
100
AcDbEntity
  8
DEFPOINTS
  6
ByBlock
 62
     0
440
 16777216
100
AcDbPoint
 10
1133.960433090549
 20
1905.679632197752
 30
0.0
  0
POINT
  5
81CC
330
81C2
100
AcDbEntity
  8
DEFPOINTS
  6
ByBlock
 62
     0
440
 16777216
100
AcDbPoint
 10
1231.445031596775
 20
1905.679632197752
 30
0.0
  0
ENDBLK
  5
81CD
330
81C2
100
AcDbEntity
  8
0
100
AcDbBlockEnd
  0
BLOCK
  5
8269
330
8268
100
AcDbEntity
  8
0
100
AcDbBlockBegin
  2
*D15
 70
     1
 10
0.0
 20
0.0
 30
0.0
  3
*D15
  1

  0
LINE
  5
8366
330
8268
100
AcDbEntity
  8
3
 62
     0
440
 16777216
370
    -2
100
AcDbLine
 10
513.9604330905495
 20
856.2744673477514
 30
0.0
 11
513.9604330905495
 21
771.8287983783302
 31
0.0
  0
LINE
  5
8367
330
8268
100
AcDbEntity
  8
3
 62
     0
440
 16777216
370
    -2
100
AcDbLine
 10
688.9604330905499
 20
856.2744673477514
 30
0.0
 11
688.9604330905499
 21
771.8287983783302
 31
0.0
  0
LINE
  5
8368
330
8268
100
AcDbEntity
  8
3
 62
     0
440
 16777216
370
    -2
100
AcDbLine
 10
537.9604330905494
 20
783.8287983783303
 30
0.0
 11
664.9604330905499
 21
783.8287983783303
 31
0.0
  0
INSERT
  5
8369
330
8268
100
AcDbEntity
  8
3
 62
     0
440
 16777216
370
    -2
100
AcDbBlockReference
  2
_OPEN
 10
513.9604330905495
 20
783.8287983783303
 30
0.0
 41
24.0
 42
24.0
 43
24.0
 50
180.0
  0
INSERT
  5
836A
330
8268
100
AcDbEntity
  8
3
 62
     0
440
 16777216
370
    -2
100
AcDbBlockReference
  2
_OPEN
 10
688.9604330905499
 20
783.8287983783303
 30
0.0
 41
24.0
 42
24.0
 43
24.0
  0
MTEXT
  5
836B
330
8268
100
AcDbEntity
  8
3
 62
     0
440
 16777216
100
AcDbMText
 10
601.4604330905497
 20
813.8287983783301
 30
0.0
 40
36.0
 41
0.0
 46
0.0
 71
     5
 72
     1
  1
\A1;175
 73
     1
 44
1.0
  0
POINT
  5
836C
330
8268
100
AcDbEntity
  8
DEFPOINTS
 62
     0
440
 16777216
100
AcDbPoint
 10
513.9604330905495
 20
862.2744673477514
 30
0.0
  0
POINT
  5
836D
330
8268
100
AcDbEntity
  8
DEFPOINTS
 62
     0
440
 16777216
100
AcDbPoint
 10
688.9604330905499
 20
862.2744673477514
 30
0.0
  0
POINT
  5
836E
330
8268
100
AcDbEntity
  8
DEFPOINTS
 62
     0
440
 16777216
100
AcDbPoint
 10
688.9604330905499
 20
783.8287983783303
 30
0.0
  0
ENDBLK
  5
8273
330
8268
100
AcDbEntity
  8
0
100
AcDbBlockEnd
  0
BLOCK
  5
8276
330
8275
100
AcDbEntity
  8
0
100
AcDbBlockBegin
  2
*D16
 70
     1
 10
0.0
 20
0.0
 30
0.0
  3
*D16
  1

  0
LINE
  5
836F
330
8275
100
AcDbEntity
  8
3
 62
     0
440
 16777216
370
    -2
100
AcDbLine
 10
688.9604330905499
 20
856.2744673477514
 30
0.0
 11
688.9604330905499
 21
771.8287983783302
 31
0.0
  0
LINE
  5
8370
330
8275
100
AcDbEntity
  8
3
 62
     0
440
 16777216
370
    -2
100
AcDbLine
 10
1133.960433090549
 20
856.2744673477514
 30
0.0
 11
1133.960433090549
 21
771.8287983783302
 31
0.0
  0
LINE
  5
8371
330
8275
100
AcDbEntity
  8
3
 62
     0
440
 16777216
370
    -2
100
AcDbLine
 10
712.9604330905499
 20
783.8287983783303
 30
0.0
 11
1109.960433090549
 21
783.8287983783303
 31
0.0
  0
INSERT
  5
8372
330
8275
100
AcDbEntity
  8
3
 62
     0
440
 16777216
370
    -2
100
AcDbBlockReference
  2
_OPEN
 10
688.9604330905499
 20
783.8287983783303
 30
0.0
 41
24.0
 42
24.0
 43
24.0
 50
180.0
  0
INSERT
  5
8373
330
8275
100
AcDbEntity
  8
3
 62
     0
440
 16777216
370
    -2
100
AcDbBlockReference
  2
_OPEN
 10
1133.960433090549
 20
783.8287983783303
 30
0.0
 41
24.0
 42
24.0
 43
24.0
  0
MTEXT
  5
8374
330
8275
100
AcDbEntity
  8
3
 62
     0
440
 16777216
100
AcDbMText
 10
911.4604330905496
 20
813.8287983783301
 30
0.0
 40
36.0
 41
0.0
 46
0.0
 71
     5
 72
     1
  1
\A1;445
 73
     1
 44
1.0
  0
POINT
  5
8375
330
8275
100
AcDbEntity
  8
DEFPOINTS
 62
     0
440
 16777216
100
AcDbPoint
 10
688.9604330905499
 20
862.2744673477514
 30
0.0
  0
POINT
  5
8376
330
8275
100
AcDbEntity
  8
DEFPOINTS
 62
     0
440
 16777216
100
AcDbPoint
 10
1133.960433090549
 20
862.2744673477514
 30
0.0
  0
POINT
  5
8377
330
8275
100
AcDbEntity
  8
DEFPOINTS
 62
     0
440
 16777216
100
AcDbPoint
 10
1133.960433090549
 20
783.8287983783303
 30
0.0
  0
ENDBLK
  5
8280
330
8275
100
AcDbEntity
  8
0
100
AcDbBlockEnd
  0
BLOCK
  5
8283
330
8282
100
AcDbEntity
  8
0
100
AcDbBlockBegin
  2
*D17
 70
     1
 10
0.0
 20
0.0
 30
0.0
  3
*D17
  1

  0
LINE
  5
8378
330
8282
100
AcDbEntity
  8
3
 62
     0
440
 16777216
370
    -2
100
AcDbLine
 10
1636.1894255111
 20
856.3605612350103
 30
0.0
 11
1636.1894255111
 21
771.8287983783302
 31
0.0
  0
LINE
  5
8379
330
8282
100
AcDbEntity
  8
3
 62
     0
440
 16777216
370
    -2
100
AcDbLine
 10
2016.1894255111
 20
856.3605612350107
 30
0.0
 11
2016.1894255111
 21
771.8287983783302
 31
0.0
  0
LINE
  5
837A
330
8282
100
AcDbEntity
  8
3
 62
     0
440
 16777216
370
    -2
100
AcDbLine
 10
1660.1894255111
 20
783.8287983783303
 30
0.0
 11
1992.1894255111
 21
783.8287983783303
 31
0.0
  0
INSERT
  5
837B
330
8282
100
AcDbEntity
  8
3
 62
     0
440
 16777216
370
    -2
100
AcDbBlockReference
  2
_OPEN
 10
1636.1894255111
 20
783.8287983783303
 30
0.0
 41
24.0
 42
24.0
 43
24.0
 50
180.0
  0
INSERT
  5
837C
330
8282
100
AcDbEntity
  8
3
 62
     0
440
 16777216
370
    -2
100
AcDbBlockReference
  2
_OPEN
 10
2016.1894255111
 20
783.8287983783303
 30
0.0
 41
24.0
 42
24.0
 43
24.0
  0
MTEXT
  5
837D
330
8282
100
AcDbEntity
  8
3
 62
     0
440
 16777216
100
AcDbMText
 10
1826.1894255111
 20
813.8287983783301
 30
0.0
 40
36.0
 41
0.0
 46
0.0
 71
     5
 72
     1
  1
\A1;380
 73
     1
 44
1.0
  0
POINT
  5
837E
330
8282
100
AcDbEntity
  8
DEFPOINTS
 62
     0
440
 16777216
100
AcDbPoint
 10
1636.1894255111
 20
862.3605612350104
 30
0.0
  0
POINT
  5
837F
330
8282
100
AcDbEntity
  8
DEFPOINTS
 62
     0
440
 16777216
100
AcDbPoint
 10
2016.1894255111
 20
862.3605612350106
 30
0.0
  0
POINT
  5
8380
330
8282
100
AcDbEntity
  8
DEFPOINTS
 62
     0
440
 16777216
100
AcDbPoint
 10
2016.1894255111
 20
783.8287983783303
 30
0.0
  0
ENDBLK
  5
828D
330
8282
100
AcDbEntity
  8
0
100
AcDbBlockEnd
  0
BLOCK
  5
8290
330
828F
100
AcDbEntity
  8
0
100
AcDbBlockBegin
  2
*D18
 70
     1
 10
0.0
 20
0.0
 30
0.0
  3
*D18
  1

  0
LINE
  5
8381
330
828F
100
AcDbEntity
  8
3
 62
     0
440
 16777216
370
    -2
100
AcDbLine
 10
2016.1894255111
 20
856.3605612350107
 30
0.0
 11
2016.1894255111
 21
771.8287983783302
 31
0.0
  0
LINE
  5
8382
330
828F
100
AcDbEntity
  8
3
 62
     0
440
 16777216
370
    -2
100
AcDbLine
 10
2056.1894255111
 20
856.3605612350107
 30
0.0
 11
2056.1894255111
 21
771.8287983783302
 31
0.0
  0
LINE
  5
8383
330
828F
100
AcDbEntity
  8
3
 62
     0
440
 16777216
370
    -2
100
AcDbLine
 10
1992.1894255111
 20
783.8287983783303
 30
0.0
 11
1968.1894255111
 21
783.8287983783303
 31
0.0
  0
LINE
  5
8384
330
828F
100
AcDbEntity
  8
3
 62
     0
440
 16777216
370
    -2
100
AcDbLine
 10
2080.1894255111
 20
783.8287983783303
 30
0.0
 11
2186.475139796815
 21
783.8287983783303
 31
0.0
  0
LINE
  5
8385
330
828F
100
AcDbEntity
  8
3
 62
     0
440
 16777216
370
    -2
100
AcDbLine
 10
2016.1894255111
 20
783.8287983783303
 30
0.0
 11
2056.1894255111
 21
783.8287983783303
 31
0.0
  0
INSERT
  5
8386
330
828F
100
AcDbEntity
  8
3
 62
     0
440
 16777216
370
    -2
100
AcDbBlockReference
  2
_OPEN
 10
2016.1894255111
 20
783.8287983783303
 30
0.0
 41
24.0
 42
24.0
 43
24.0
  0
INSERT
  5
8387
330
828F
100
AcDbEntity
  8
3
 62
     0
440
 16777216
370
    -2
100
AcDbBlockReference
  2
_OPEN
 10
2056.1894255111
 20
783.8287983783303
 30
0.0
 41
24.0
 42
24.0
 43
24.0
 50
180.0
  0
MTEXT
  5
8388
330
828F
100
AcDbEntity
  8
3
 62
     0
440
 16777216
100
AcDbMText
 10
2145.332282653958
 20
813.8287983783301
 30
0.0
 40
36.0
 41
0.0
 46
0.0
 71
     5
 72
     1
  1
\A1;40
 73
     1
 44
1.0
  0
POINT
  5
8389
330
828F
100
AcDbEntity
  8
DEFPOINTS
 62
     0
440
 16777216
100
AcDbPoint
 10
2016.1894255111
 20
862.3605612350106
 30
0.0
  0
POINT
  5
838A
330
828F
100
AcDbEntity
  8
DEFPOINTS
 62
     0
440
 16777216
100
AcDbPoint
 10
2056.1894255111
 20
862.3605612350106
 30
0.0
  0
POINT
  5
838B
330
828F
100
AcDbEntity
  8
DEFPOINTS
 62
     0
440
 16777216
100
AcDbPoint
 10
2056.1894255111
 20
783.8287983783303
 30
0.0
  0
ENDBLK
  5
829C
330
828F
100
AcDbEntity
  8
0
100
AcDbBlockEnd
  0
BLOCK
  5
82BB
330
82BA
100
AcDbEntity
  8
0
100
AcDbBlockBegin
  2
*D19
 70
     1
 10
0.0
 20
0.0
 30
0.0
  3
*D19
  1

  0
LINE
  5
838C
330
82BA
100
AcDbEntity
  8
3
 62
     0
440
 16777216
370
    -2
100
AcDbLine
 10
507.9604330905494
 20
902.2744673477509
 30
0.0
 11
328.8657297720129
 21
902.2744673477509
 31
0.0
  0
LINE
  5
838D
330
82BA
100
AcDbEntity
  8
3
 62
     0
440
 16777216
370
    -2
100
AcDbLine
 10
507.9604330905494
 20
862.2744673477514
 30
0.0
 11
328.8657297720129
 21
862.2744673477514
 31
0.0
  0
LINE
  5
838E
330
82BA
100
AcDbEntity
  8
3
 62
     0
440
 16777216
370
    -2
100
AcDbLine
 10
340.8657297720129
 20
926.2744673477509
 30
0.0
 11
340.8657297720129
 21
950.274467347751
 31
0.0
  0
LINE
  5
838F
330
82BA
100
AcDbEntity
  8
3
 62
     0
440
 16777216
370
    -2
100
AcDbLine
 10
340.8657297720129
 20
838.2744673477514
 30
0.0
 11
340.8657297720129
 21
731.988753062037
 31
0.0
  0
LINE
  5
8390
330
82BA
100
AcDbEntity
  8
3
 62
     0
440
 16777216
370
    -2
100
AcDbLine
 10
340.8657297720129
 20
902.2744673477509
 30
0.0
 11
340.8657297720129
 21
862.2744673477514
 31
0.0
  0
INSERT
  5
8391
330
82BA
100
AcDbEntity
  8
3
 62
     0
440
 16777216
370
    -2
100
AcDbBlockReference
  2
_DOT
 10
340.8657297720129
 20
902.2744673477509
 30
0.0
 41
24.0
 42
24.0
 43
24.0
 50
270.0
  0
INSERT
  5
8392
330
82BA
100
AcDbEntity
  8
3
 62
     0
440
 16777216
370
    -2
100
AcDbBlockReference
  2
_OPEN
 10
340.8657297720129
 20
862.2744673477514
 30
0.0
 41
24.0
 42
24.0
 43
24.0
 50
90.0
  0
MTEXT
  5
8393
330
82BA
100
AcDbEntity
  8
3
 62
     0
440
 16777216
100
AcDbMText
 10
310.8657297720128
 20
773.1316102048944
 30
0.0
 40
36.0
 41
0.0
 46
0.0
 71
     5
 72
     1
  1
\A1;40
 11
0.0000000000000001
 21
1.0
 31
0.0
 73
     1
 44
1.0
  0
POINT
  5
8394
330
82BA
100
AcDbEntity
  8
DEFPOINTS
 62
     0
440
 16777216
100
AcDbPoint
 10
513.9604330905495
 20
902.2744673477509
 30
0.0
  0
POINT
  5
8395
330
82BA
100
AcDbEntity
  8
DEFPOINTS
 62
     0
440
 16777216
100
AcDbPoint
 10
513.9604330905495
 20
862.2744673477514
 30
0.0
  0
POINT
  5
8396
330
82BA
100
AcDbEntity
  8
DEFPOINTS
 62
     0
440
 16777216
100
AcDbPoint
 10
340.8657297720129
 20
862.2744673477514
 30
0.0
  0
ENDBLK
  5
82C7
330
82BA
100
AcDbEntity
  8
0
100
AcDbBlockEnd
  0
BLOCK
  5
82E8
330
82E7
100
AcDbEntity
  8
0
100
AcDbBlockBegin
  2
*D20
 70
     1
 10
0.0
 20
0.0
 30
0.0
  3
*D20
  1

  0
LINE
  5
83CE
330
82E7
100
AcDbEntity
  8
3
 62
     0
440
 16777216
370
    -2
100
AcDbLine
 10
507.9604330905494
 20
902.2744673477509
 30
0.0
 11
329.0571918849146
 21
902.2744673477509
 31
0.0
  0
LINE
  5
83CF
330
82E7
100
AcDbEntity
  8
3
 62
     0
440
 16777216
370
    -2
100
AcDbLine
 10
507.9604330905494
 20
972.2744673477508
 30
0.0
 11
329.0571918849146
 21
972.2744673477508
 31
0.0
  0
LINE
  5
83D0
330
82E7
100
AcDbEntity
  8
3
 62
     0
440
 16777216
370
    -2
100
AcDbLine
 10
341.0571918849145
 20
878.2744673477509
 30
0.0
 11
341.0571918849145
 21
854.2744673477509
 31
0.0
  0
LINE
  5
83D1
330
82E7
100
AcDbEntity
  8
3
 62
     0
440
 16777216
370
    -2
100
AcDbLine
 10
341.0571918849146
 20
996.2744673477509
 30
0.0
 11
341.0571918849146
 21
1020.274467347751
 31
0.0
  0
MTEXT
  5
83D2
330
82E7
100
AcDbEntity
  8
3
 62
     0
440
 16777216
100
AcDbMText
 10
302.928208379024
 20
936.2068728898639
 30
0.0
 40
36.0
 41
0.0
 46
0.0
 71
     5
 72
     1
  1
\A1;(70)
 11
0.0000000000000001
 21
1.0
 31
0.0
 73
     1
 44
1.0
  0
LINE
  5
83D3
330
82E7
100
AcDbEntity
  8
3
 62
     0
440
 16777216
370
    -2
100
AcDbLine
 10
341.0571918849146
 20
902.2744673477509
 30
0.0
 11
341.0571918849146
 21
972.2744673477508
 31
0.0
  0
INSERT
  5
83D4
330
82E7
100
AcDbEntity
  8
3
 62
     0
440
 16777216
370
    -2
100
AcDbBlockReference
  2
_DOT
 10
341.0571918849146
 20
902.2744673477509
 30
0.0
 41
24.0
 42
24.0
 43
24.0
 50
90.0
  0
INSERT
  5
83D5
330
82E7
100
AcDbEntity
  8
3
 62
     0
440
 16777216
370
    -2
100
AcDbBlockReference
  2
_OPEN
 10
341.0571918849146
 20
972.2744673477508
 30
0.0
 41
24.0
 42
24.0
 43
24.0
 50
270.0
  0
POINT
  5
83D6
330
82E7
100
AcDbEntity
  8
DEFPOINTS
 62
     0
440
 16777216
100
AcDbPoint
 10
513.9604330905495
 20
902.2744673477509
 30
0.0
  0
POINT
  5
83D7
330
82E7
100
AcDbEntity
  8
DEFPOINTS
 62
     0
440
 16777216
100
AcDbPoint
 10
513.9604330905495
 20
972.2744673477508
 30
0.0
  0
POINT
  5
83D8
330
82E7
100
AcDbEntity
  8
DEFPOINTS
 62
     0
440
 16777216
100
AcDbPoint
 10
341.0571918849146
 20
972.2744673477508
 30
0.0
  0
ENDBLK
  5
82F2
330
82E7
100
AcDbEntity
  8
0
100
AcDbBlockEnd
  0
BLOCK
  5
82F5
330
82F4
100
AcDbEntity
  8
0
100
AcDbBlockBegin
  2
*D21
 70
     1
 10
0.0
 20
0.0
 30
0.0
  3
*D21
  1

  0
LINE
  5
83A2
330
82F4
100
AcDbEntity
  8
3
 62
     0
440
 16777216
370
    -2
100
AcDbLine
 10
692.9268377908642
 20
1380.271107817783
 30
0.0
 11
220.9170990253461
 21
1380.271107817783
 31
0.0
  0
LINE
  5
83A3
330
82F4
100
AcDbEntity
  8
3
 62
     0
440
 16777216
370
    -2
100
AcDbLine
 10
507.9604330905494
 20
862.2744673477514
 30
0.0
 11
220.917099025346
 21
862.2744673477514
 31
0.0
  0
LINE
  5
83A4
330
82F4
100
AcDbEntity
  8
3
 62
     0
440
 16777216
370
    -2
100
AcDbLine
 10
232.9170990253461
 20
1356.271107817783
 30
0.0
 11
232.917099025346
 21
886.2744673477514
 31
0.0
  0
INSERT
  5
83A5
330
82F4
100
AcDbEntity
  8
3
 62
     0
440
 16777216
370
    -2
100
AcDbBlockReference
  2
_OPEN
 10
232.9170990253461
 20
1380.271107817783
 30
0.0
 41
24.0
 42
24.0
 43
24.0
 50
90.0
  0
INSERT
  5
83A6
330
82F4
100
AcDbEntity
  8
3
 62
     0
440
 16777216
370
    -2
100
AcDbBlockReference
  2
_OPEN
 10
232.917099025346
 20
862.2744673477514
 30
0.0
 41
24.0
 42
24.0
 43
24.0
 50
270.0
  0
MTEXT
  5
83A7
330
82F4
100
AcDbEntity
  8
3
 62
     0
440
 16777216
100
AcDbMText
 10
193.4885275967745
 20
1121.272787582767
 30
0.0
 40
36.0
 41
0.0
 46
0.0
 71
     5
 72
     1
  1
\A1;(518)
 11
0.0000000000000001
 21
1.0
 31
0.0
 73
     1
 44
1.0
  0
POINT
  5
83A8
330
82F4
100
AcDbEntity
  8
DEFPOINTS
 62
     0
440
 16777216
100
AcDbPoint
 10
698.9268377908643
 20
1380.271107817783
 30
0.0
  0
POINT
  5
83A9
330
82F4
100
AcDbEntity
  8
DEFPOINTS
 62
     0
440
 16777216
100
AcDbPoint
 10
513.9604330905495
 20
862.2744673477514
 30
0.0
  0
POINT
  5
83AA
330
82F4
100
AcDbEntity
  8
DEFPOINTS
 62
     0
440
 16777216
100
AcDbPoint
 10
232.917099025346
 20
862.2744673477514
 30
0.0
  0
ENDBLK
  5
82FF
330
82F4
100
AcDbEntity
  8
0
100
AcDbBlockEnd
  0
ENDSEC
  0
SECTION
  2
ENTITIES
  0
LINE
  5
7C08
330
19
100
AcDbEntity
  8
2
100
AcDbLine
 10
688.9604330905495
 20
1413.813026692561
 30
0.0
 11
688.9604330905499
 21
862.2744673477514
 31
0.0
  0
LINE
  5
7C0A
330
19
100
AcDbEntity
  8
1
100
AcDbLine
 10
1133.960433090549
 20
1012.274467347751
 30
0.0
 11
513.9604330905495
 21
1012.274467347751
 31
0.0
  0
LINE
  5
7C0C
330
19
100
AcDbEntity
  8
1
100
AcDbLine
 10
1133.960433090549
 20
1012.274467347751
 30
0.0
 11
1133.960433090549
 21
972.2744673477514
 31
0.0
  0
LINE
  5
7C0D
330
19
100
AcDbEntity
  8
2
100
AcDbLine
 10
503.5960309663787
 20
1232.274467347751
 30
0.0
 11
871.8122091675832
 21
1232.274467347751
 31
0.0
  0
LINE
  5
7C0F
330
19
100
AcDbEntity
  8
1
100
AcDbLine
 10
513.9604330905495
 20
1012.274467347751
 30
0.0
 11
513.9604330905495
 21
972.2744673477508
 31
0.0
  0
LINE
  5
7C10
330
19
100
AcDbEntity
  8
2
100
AcDbLine
 10
2056.1894255111
 20
1422.110529599095
 30
0.0
 11
2056.1894255111
 21
862.3605612350109
 31
0.0
  0
LINE
  5
7C11
330
19
100
AcDbEntity
  8
2
100
AcDbLine
 10
1600.397200409637
 20
1232.36056123501
 30
0.0
 11
2163.65713110368
 21
1232.36056123501
 31
0.0
  0
LINE
  5
7C12
330
19
100
AcDbEntity
  8
1
100
AcDbLine
 10
1093.960433090549
 20
2285.679632197753
 30
0.0
 11
1093.960433090549
 21
2207.879632197752
 31
0.0
  0
LINE
  5
7C13
330
19
100
AcDbEntity
  8
1
100
AcDbLine
 10
1133.960433090549
 20
2285.679632197753
 30
0.0
 11
1133.960433090549
 21
1905.679632197752
 31
0.0
  0
LINE
  5
7C17
330
19
100
AcDbEntity
  8
2
100
AcDbLine
 10
1018.960433090549
 20
2238.370612754969
 30
0.0
 11
1018.960433090549
 21
1903.553509188467
 31
0.0
  0
LINE
  5
7C18
330
19
100
AcDbEntity
  8
1
100
AcDbLine
 10
858.9604330905494
 20
2285.679632197753
 30
0.0
 11
1133.960433090549
 21
2285.679632197753
 31
0.0
  0
LINE
  5
7C21
330
19
100
AcDbEntity
  8
1
100
AcDbLine
 10
1133.960433090549
 20
1905.679632197752
 30
0.0
 11
513.9604330905496
 21
1905.679632197752
 31
0.0
  0
LINE
  5
7C28
330
19
100
AcDbEntity
  8
1
100
AcDbLine
 10
1093.960433090549
 20
1905.679632197752
 30
0.0
 11
1133.960433090549
 21
1905.679632197752
 31
0.0
  0
CIRCLE
  5
7C29
330
19
100
AcDbEntity
  8
1
100
AcDbCircle
 10
688.9604330905495
 20
1102.274467347752
 30
0.0
 40
60.0
  0
LINE
  5
7C2A
330
19
100
AcDbEntity
  8
1
100
AcDbLine
 10
1623.189425511099
 20
1312.366526321129
 30
0.0
 11
1623.189425511099
 21
1012.36056123501
 31
0.0
  0
LINE
  5
7C2B
330
19
100
AcDbEntity
  8
1
100
AcDbLine
 10
1698.189425511099
 20
1312.366526321129
 30
0.0
 11
1698.189425511099
 21
1275.050791861588
 31
0.0
  0
LINE
  5
7C2C
330
19
100
AcDbEntity
  8
1
100
AcDbLine
 10
638.8120996246198
 20
1312.230437732012
 30
0.0
 11
638.8120996246198
 21
1012.274467347751
 31
0.0
  0
LINE
  5
7C2D
330
19
100
AcDbEntity
  8
1
100
AcDbLine
 10
1118.81209962462
 20
1312.230437732012
 30
0.0
 11
1118.81209962462
 21
1012.274467347751
 31
0.0
  0
ARC
  5
7C2E
330
19
100
AcDbEntity
  8
1
100
AcDbCircle
 10
699.960433090549
 20
1221.274467347751
 30
0.0
 40
159.0
100
AcDbArc
 50
3.967027762044112
 51
44.27582171153022
  0
LINE
  5
7C2F
330
19
100
AcDbEntity
  8
1
100
AcDbLine
 10
588.9604330905495
 20
1192.574467347751
 30
0.0
 11
588.9604330905495
 21
1012.274467347751
 31
0.0
  0
LINE
  5
7C30
330
19
100
AcDbEntity
  8
1
100
AcDbLine
 10
788.9604330905495
 20
1192.574467347751
 30
0.0
 11
788.9604330905495
 21
1012.274467347751
 31
0.0
  0
ARC
  5
7C31
330
19
100
AcDbEntity
  8
1
100
AcDbCircle
 10
674.960433090549
 20
1218.274467347751
 30
0.0
 40
184.0
100
AcDbArc
 50
270.3340116471661
 51
4.363678797895458
  0
LINE
  5
7C32
330
19
100
AcDbEntity
  8
1
100
AcDbLine
 10
1953.8894255111
 20
1298.36056123501
 30
0.0
 11
1953.8894255111
 21
1048.360561235011
 31
0.0
  0
LINE
  5
7C34
330
19
100
AcDbEntity
  8
1
100
AcDbLine
 10
1981.189425511099
 20
1232.36056123501
 30
0.0
 11
1981.189425511099
 21
1033.36056123501
 31
0.0
  0
LINE
  5
7C35
330
19
100
AcDbEntity
  8
1
100
AcDbLine
 10
2131.189425511099
 20
1209.36056123501
 30
0.0
 11
2131.189425511099
 21
1033.36056123501
 31
0.0
  0
LINE
  5
7C37
330
19
100
AcDbEntity
  8
1
100
AcDbLine
 10
1702.8894255111
 20
1012.36056123501
 30
0.0
 11
1702.8894255111
 21
1112.86056123501
 31
0.0
  0
LINE
  5
7C38
330
19
100
AcDbEntity
  8
1
100
AcDbLine
 10
1636.1894255111
 20
1012.36056123501
 30
0.0
 11
2016.1894255111
 21
1012.36056123501
 31
0.0
  0
LINE
  5
7C39
330
19
100
AcDbEntity
  8
1
100
AcDbLine
 10
1636.1894255111
 20
972.3605612350104
 30
0.0
 11
2016.1894255111
 21
972.3605612350107
 31
0.0
  0
LINE
  5
7C3A
330
19
100
AcDbEntity
  8
1
100
AcDbLine
 10
1973.8894255111
 20
1048.360561235011
 30
0.0
 11
1973.8894255111
 21
1012.36056123501
 31
0.0
  0
LINE
  5
7C3B
330
19
100
AcDbEntity
  8
1
100
AcDbLine
 10
1981.189425511099
 20
1048.360561235011
 30
0.0
 11
1953.8894255111
 21
1048.360561235011
 31
0.0
  0
LINE
  5
7C3C
330
19
100
AcDbEntity
  8
1
100
AcDbLine
 10
676.0330739639214
 20
1034.277593891823
 30
0.0
 11
503.960433090549
 21
1033.274467347751
 31
0.0
  0
ARC
  5
7C3D
330
19
100
AcDbEntity
  8
1
100
AcDbCircle
 10
697.960433090549
 20
1241.274467347751
 30
0.0
 40
139.0
100
AcDbArc
 50
89.60164491564267
 51
180.6359598980193
  0
LINE
  5
7C3E
330
19
100
AcDbEntity
  8
1
100
AcDbLine
 10
1118.81209962462
 20
1312.230437732012
 30
0.0
 11
638.8120996246198
 21
1312.230437732012
 31
0.0
  0
LINE
  5
7C40
330
19
100
AcDbEntity
  8
2
100
AcDbLine
 10
1123.425633090549
 20
1122.274467347751
 30
0.0
 11
912.8576330905499
 21
1122.274467347751
 31
0.0
  0
LINE
  5
7C42
330
19
100
AcDbEntity
  8
1
100
AcDbLine
 10
613.9604330905495
 20
1195.774467347751
 30
0.0
 11
613.9604330905495
 21
1198.974467347751
 31
0.0
  0
LINE
  5
7C43
330
19
100
AcDbEntity
  8
1
100
AcDbLine
 10
763.9604330905495
 20
1198.974467347751
 30
0.0
 11
763.9604330905495
 21
1195.774467347751
 31
0.0
  0
LINE
  5
7C44
330
19
100
AcDbEntity
  8
1
100
AcDbLine
 10
596.4604330905494
 20
1298.274467347751
 30
0.0
 11
596.4604330905494
 21
1195.774467347751
 31
0.0
  0
LINE
  5
7C45
330
19
100
AcDbEntity
  8
1
100
AcDbLine
 10
590.4604330905494
 20
1298.274467347751
 30
0.0
 11
590.4604330905494
 21
1195.774467347751
 31
0.0
  0
LINE
  5
7C46
330
19
100
AcDbEntity
  8
1
100
AcDbLine
 10
781.4604330905495
 20
1298.274467347751
 30
0.0
 11
781.4604330905495
 21
1195.774467347751
 31
0.0
  0
LINE
  5
7C47
330
19
100
AcDbEntity
  8
1
100
AcDbLine
 10
787.4604330905494
 20
1298.274467347751
 30
0.0
 11
787.4604330905494
 21
1195.774467347751
 31
0.0
  0
ARC
  5
7C48
330
19
100
AcDbEntity
  8
1
100
AcDbCircle
 10
699.960433090549
 20
1221.274467347751
 30
0.0
 40
159.0
100
AcDbArc
 50
44.27582171153022
 51
90.37245953140503
  0
LINE
  5
7C49
330
19
100
AcDbEntity
  8
1
100
AcDbLine
 10
793.9604330905495
 20
1195.774467347751
 30
0.0
 11
583.9604330905494
 21
1195.774467347751
 31
0.0
  0
LINE
  5
7C4A
330
19
100
AcDbEntity
  8
1
100
AcDbLine
 10
793.9604330905495
 20
1192.574467347751
 30
0.0
 11
583.9604330905494
 21
1192.574467347751
 31
0.0
  0
LINE
  5
7C4B
330
19
100
AcDbEntity
  8
1
100
AcDbLine
 10
793.9604330905495
 20
1195.774467347752
 30
0.0
 11
793.9604330905495
 21
1192.574467347752
 31
0.0
  0
LINE
  5
7C4C
330
19
100
AcDbEntity
  8
1
100
AcDbLine
 10
583.9604330905494
 20
1195.774467347752
 30
0.0
 11
583.9604330905494
 21
1192.574467347752
 31
0.0
  0
LINE
  5
7C4D
330
19
100
AcDbEntity
  8
1
100
AcDbLine
 10
613.9604330905495
 20
1198.974467347751
 30
0.0
 11
763.9604330905495
 21
1198.974467347751
 31
0.0
  0
LINE
  5
7C4E
330
19
100
AcDbEntity
  8
1
100
AcDbLine
 10
787.4604330905494
 20
1298.274467347751
 30
0.0
 11
781.4604330905495
 21
1298.274467347751
 31
0.0
  0
LINE
  5
7C4F
330
19
100
AcDbEntity
  8
1
100
AcDbLine
 10
596.4604330905494
 20
1298.274467347751
 30
0.0
 11
590.4604330905494
 21
1298.274467347751
 31
0.0
  0
LINE
  5
7C50
330
19
100
AcDbEntity
  8
1
100
AcDbLine
 10
523.9604330905486
 20
1013.274127500229
 30
0.0
 11
523.960433090549
 21
1255.274467347751
 31
0.0
  0
LINE
  5
7C51
330
19
100
AcDbEntity
  8
1
100
AcDbLine
 10
503.9604330905485
 20
1013.274127500229
 30
0.0
 11
503.960433090549
 21
1243.274467347751
 31
0.0
  0
LINE
  5
7C52
330
19
100
AcDbEntity
  8
1
100
AcDbLine
 10
559.0612805510745
 20
1233.274467347751
 30
0.0
 11
503.960433090549
 21
1233.274467347751
 31
0.0
  0
ARC
  5
7C53
330
19
100
AcDbEntity
  8
1
100
AcDbCircle
 10
682.960433090549
 20
1238.274467347751
 30
0.0
 40
124.0
100
AcDbArc
 50
179.326672180611
 51
182.3109402091024
  0
LINE
  5
7C54
330
19
100
AcDbEntity
  8
1
100
AcDbLine
 10
523.960433090549
 20
1235.274467347751
 30
0.0
 11
523.960433090549
 21
1236.274467347751
 31
0.0
  0
LINE
  5
7C55
330
19
100
AcDbEntity
  8
1
100
AcDbLine
 10
503.960433090549
 20
1255.274467347751
 30
0.0
 11
503.960433090549
 21
1235.274467347751
 31
0.0
  0
LINE
  5
7C56
330
19
100
AcDbEntity
  8
1
100
AcDbLine
 10
523.960433090549
 20
1255.274467347751
 30
0.0
 11
503.960433090549
 21
1255.274467347751
 31
0.0
  0
LINE
  5
7C57
330
19
100
AcDbEntity
  8
1
100
AcDbLine
 10
2131.189425511098
 20
1380.36056123501
 30
0.0
 11
2131.189425511099
 21
1231.36056123501
 31
0.0
  0
LINE
  5
7C58
330
19
100
AcDbEntity
  8
1
100
AcDbLine
 10
1981.1894255111
 20
1380.36056123501
 30
0.0
 11
1981.189425511099
 21
1231.36056123501
 31
0.0
  0
LINE
  5
7C59
330
19
100
AcDbEntity
  8
1
100
AcDbLine
 10
2154.189425511099
 20
1342.36056123501
 30
0.0
 11
2154.189425511099
 21
1122.36056123501
 31
0.0
  0
LINE
  5
7C5C
330
19
100
AcDbEntity
  8
1
100
AcDbLine
 10
1698.189425511099
 20
1195.86056123501
 30
0.0
 11
1720.389425511098
 21
1195.86056123501
 31
0.0
  0
LINE
  5
7C5E
330
19
100
AcDbEntity
  8
1
100
AcDbLine
 10
1684.3894255111
 20
1282.36056123501
 30
0.0
 11
1684.3894255111
 21
1187.91056123501
 31
0.0
  0
LINE
  5
7C5F
330
19
100
AcDbEntity
  8
1
100
AcDbLine
 10
1646.3894255111
 20
1282.36056123501
 30
0.0
 11
1646.389425511099
 21
1187.91056123501
 31
0.0
  0
LINE
  5
7C62
330
19
100
AcDbEntity
  8
1
100
AcDbLine
 10
1646.389425511099
 20
1187.91056123501
 30
0.0
 11
1646.389425511098
 21
1072.36056123501
 31
0.0
  0
LINE
  5
7C63
330
19
100
AcDbEntity
  8
1
100
AcDbLine
 10
1684.3894255111
 20
1187.91056123501
 30
0.0
 11
1684.389425511099
 21
1072.36056123501
 31
0.0
  0
LINE
  5
7C67
330
19
100
AcDbEntity
  8
1
100
AcDbLine
 10
1623.189425511099
 20
1312.366526321129
 30
0.0
 11
1698.189425511099
 21
1312.366526321129
 31
0.0
  0
LINE
  5
7C68
330
19
100
AcDbEntity
  8
1
100
AcDbLine
 10
1684.3894255111
 20
1222.86056123501
 30
0.0
 11
1694.3894255111
 21
1222.86056123501
 31
0.0
  0
LINE
  5
7C69
330
19
100
AcDbEntity
  8
1
100
AcDbLine
 10
1694.3894255111
 20
1222.36056123501
 30
0.0
 11
1721.0894255111
 21
1222.36056123501
 31
0.0
  0
LINE
  5
7C6A
330
19
100
AcDbEntity
  8
1
100
AcDbLine
 10
1953.8894255111
 20
1222.36056123501
 30
0.0
 11
1694.3894255111
 21
1222.36056123501
 31
0.0
  0
LINE
  5
7C6B
330
19
100
AcDbEntity
  8
1
100
AcDbLine
 10
1684.3894255111
 20
1241.86056123501
 30
0.0
 11
1694.3894255111
 21
1241.86056123501
 31
0.0
  0
LINE
  5
7C6D
330
19
100
AcDbEntity
  8
1
100
AcDbLine
 10
2134.189425511099
 20
1122.36056123501
 30
0.0
 11
2154.189425511099
 21
1122.36056123501
 31
0.0
  0
LINE
  5
7C6E
330
19
100
AcDbEntity
  8
1
100
AcDbLine
 10
2154.189425511099
 20
1122.36056123501
 30
0.0
 11
2154.189425511099
 21
1121.36056123501
 31
0.0
  0
ARC
  5
7C6F
330
19
100
AcDbEntity
  8
1
100
AcDbCircle
 10
2152.1894255111
 20
1121.36056123501
 30
0.0
 40
2.0
100
AcDbArc
 50
270.0
 51
0.0
  0
LINE
  5
7C70
330
19
100
AcDbEntity
  8
1
100
AcDbLine
 10
2152.1894255111
 20
1119.36056123501
 30
0.0
 11
2141.189425511099
 21
1119.36056123501
 31
0.0
  0
ARC
  5
7C71
330
19
100
AcDbEntity
  8
1
100
AcDbCircle
 10
2141.189425511099
 20
1115.36056123501
 30
0.0
 40
4.0
100
AcDbArc
 50
90.0
 51
180.0
  0
LINE
  5
7C72
330
19
100
AcDbEntity
  8
1
100
AcDbLine
 10
2137.189425511099
 20
1115.36056123501
 30
0.0
 11
2137.189425511099
 21
1104.36056123501
 31
0.0
  0
ARC
  5
7C73
330
19
100
AcDbEntity
  8
1
100
AcDbCircle
 10
2135.189425511099
 20
1104.36056123501
 30
0.0
 40
2.0
100
AcDbArc
 50
270.0
 51
0.0
  0
LINE
  5
7C74
330
19
100
AcDbEntity
  8
1
100
AcDbLine
 10
2135.189425511099
 20
1102.36056123501
 30
0.0
 11
2134.189425511099
 21
1102.36056123501
 31
0.0
  0
LINE
  5
7C75
330
19
100
AcDbEntity
  8
1
100
AcDbLine
 10
2134.189425511099
 20
1102.36056123501
 30
0.0
 11
2134.189425511099
 21
1342.36056123501
 31
0.0
  0
LINE
  5
7C76
330
19
100
AcDbEntity
  8
1
100
AcDbLine
 10
2131.189425511099
 20
1102.36056123501
 30
0.0
 11
2134.1894255111
 21
1102.36056123501
 31
0.0
  0
LINE
  5
7C79
330
19
100
AcDbEntity
  8
1
100
AcDbLine
 10
1953.8894255111
 20
1298.36056123501
 30
0.0
 11
1978.889425511099
 21
1298.36056123501
 31
0.0
  0
LINE
  5
7C7A
330
19
100
AcDbEntity
  8
1
100
AcDbLine
 10
2131.189425511094
 20
1232.36056123501
 30
0.0
 11
2131.189425511099
 21
1209.36056123501
 31
0.0
  0
LINE
  5
7C7B
330
19
100
AcDbEntity
  8
1
100
AcDbLine
 10
2133.189425511099
 20
1231.36056123501
 30
0.0
 11
2133.189425511099
 21
1232.36056123501
 31
0.0
  0
LINE
  5
7C7C
330
19
100
AcDbEntity
  8
1
100
AcDbLine
 10
2152.1894255111
 20
1345.36056123501
 30
0.0
 11
2151.189425511099
 21
1345.36056123501
 31
0.0
  0
ARC
  5
7C7D
330
19
100
AcDbEntity
  8
1
100
AcDbCircle
 10
2152.1894255111
 20
1343.36056123501
 30
0.0
 40
2.0
100
AcDbArc
 50
0.0
 51
90.0
  0
LINE
  5
7C7E
330
19
100
AcDbEntity
  8
1
100
AcDbLine
 10
2154.189425511099
 20
1342.36056123501
 30
0.0
 11
2154.189425511099
 21
1343.36056123501
 31
0.0
  0
LINE
  5
7C7F
330
19
100
AcDbEntity
  8
1
100
AcDbLine
 10
2151.1894255111
 20
1342.36056123501
 30
0.0
 11
2154.189425511099
 21
1342.36056123501
 31
0.0
  0
LINE
  5
7C81
330
19
100
AcDbEntity
  8
1
100
AcDbLine
 10
513.9604330905495
 20
972.2744673477514
 30
0.0
 11
1133.960433090549
 21
972.2744673477514
 31
0.0
  0
DIMENSION
  5
7C82
330
19
100
AcDbEntity
  8
3
100
AcDbDimension
280
     0
  2
*D1
 10
457.5022032011597
 20
1033.274467347751
 30
0.0
 11
427.5022032011597
 21
1133.274467347751
 31
0.0
 70
    32
 71
     5
 42
-1.0
 73
     0
 74
     0
 75
     0
  3
IGA
100
AcDbAlignedDimension
 13
503.960433090549
 23
1233.274467347751
 33
0.0
 14
503.960433090549
 24
1033.274467347751
 34
0.0
 50
90.0
100
AcDbRotatedDimension
1001
ACAD
1000
DSTYLE
1002
{
1070
    40
1040
12.0
1070
   143
1040
0.039
1070
   172
1070
     1
1070
   271
1070
     0
1070
   279
1070
     0
1070
   288
1070
     1
1002
}
  0
DIMENSION
  5
7C83
330
19
100
AcDbEntity
  8
3
100
AcDbDimension
280
     0
  2
*D2
 10
399.4363220413011
 20
1033.274467347751
 30
0.0
 11
369.4363220413011
 21
1132.774467347751
 31
0.0
 70
    32
 71
     5
 42
-1.0
 73
     0
 74
     0
 75
     0
  3
IGA
100
AcDbAlignedDimension
 13
503.5960309663787
 23
1232.274467347751
 33
0.0
 14
503.960433090549
 24
1033.274467347751
 34
0.0
 50
90.0
100
AcDbRotatedDimension
1001
ACAD
1000
DSTYLE
1002
{
1070
    40
1040
12.0
1070
   143
1040
0.039
1070
   172
1070
     1
1070
   271
1070
     0
1070
   279
1070
     0
1070
   288
1070
     1
1002
}
  0
LINE
  5
7C86
330
19
100
AcDbEntity
  8
1
100
AcDbLine
 10
2016.1894255111
 20
972.3605612350107
 30
0.0
 11
2016.1894255111
 21
1012.36056123501
 31
0.0
  0
LINE
  5
7C87
330
19
100
AcDbEntity
  8
1
100
AcDbLine
 10
1636.1894255111
 20
972.3605612350104
 30
0.0
 11
1636.1894255111
 21
1012.36056123501
 31
0.0
  0
LINE
  5
7C88
330
19
100
AcDbEntity
  8
1
100
AcDbLine
 10
1953.8894255111
 20
1242.36056123501
 30
0.0
 11
1694.3894255111
 21
1242.36056123501
 31
0.0
  0
LINE
  5
7C89
330
19
100
AcDbEntity
  8
1
100
AcDbLine
 10
1694.3894255111
 20
1242.36056123501
 30
0.0
 11
1694.3894255111
 21
1241.86056123501
 31
0.0
  0
LINE
  5
7C8A
330
19
100
AcDbEntity
  8
1
100
AcDbLine
 10
1694.3894255111
 20
1222.86056123501
 30
0.0
 11
1694.3894255111
 21
1222.36056123501
 31
0.0
  0
LINE
  5
7C8B
330
19
100
AcDbEntity
  8
1
100
AcDbLine
 10
1698.189425511099
 20
1012.36056123501
 30
0.0
 11
1623.189425511099
 21
1012.36056123501
 31
0.0
  0
LINE
  5
7C8D
330
19
100
AcDbEntity
  8
2
100
AcDbLine
 10
480.3965482557841
 20
2325.679632197753
 30
0.0
 11
878.8038600807816
 21
2325.679632197753
 31
0.0
  0
LINE
  5
7C8E
330
19
100
AcDbEntity
  8
1
100
AcDbLine
 10
523.9604330905492
 20
2400.679632197752
 30
0.0
 11
688.9604330905495
 21
2400.679632197752
 31
0.0
  0
LINE
  5
7C8F
330
19
100
AcDbEntity
  8
1
100
AcDbLine
 10
523.9604330905492
 20
2250.679632197752
 30
0.0
 11
688.9604330905495
 21
2250.679632197753
 31
0.0
  0
LINE
  5
7C90
330
19
100
AcDbEntity
  8
1
100
AcDbLine
 10
513.9604330905497
 20
2230.679632197752
 30
0.0
 11
513.9604330905496
 21
1905.679632197752
 31
0.0
  0
LINE
  5
7C91
330
19
100
AcDbEntity
  8
1
100
AcDbLine
 10
553.960433090549
 20
2250.679632197753
 30
0.0
 11
553.9604330905496
 21
1905.679632197752
 31
0.0
  0
LINE
  5
7C92
330
19
100
AcDbEntity
  8
2
100
AcDbLine
 10
688.9604330905495
 20
1903.553509188468
 30
0.0
 11
688.9604330905495
 21
2433.147337790332
 31
0.0
  0
LINE
  5
7C93
330
19
100
AcDbEntity
  8
1
100
AcDbLine
 10
608.9544680044309
 20
1892.679632197751
 30
0.0
 11
608.9544680044309
 21
1967.679632197751
 31
0.0
  0
LINE
  5
7C94
330
19
100
AcDbEntity
  8
1
100
AcDbLine
 10
608.9544680044309
 20
1892.679632197751
 30
0.0
 11
1118.81209962462
 21
1892.679632197751
 31
0.0
  0
LINE
  5
7C95
330
19
100
AcDbEntity
  8
1
100
AcDbLine
 10
733.4104330905493
 20
1915.879632197751
 30
0.0
 11
1068.960433090549
 21
1915.879632197749
 31
0.0
  0
LINE
  5
7C96
330
19
100
AcDbEntity
  8
1
100
AcDbLine
 10
733.4104330905493
 20
1953.879632197752
 30
0.0
 11
1068.960433090549
 21
1953.879632197752
 31
0.0
  0
LINE
  5
7C97
330
19
100
AcDbEntity
  8
1
100
AcDbLine
 10
608.9544680044309
 20
1967.679632197751
 30
0.0
 11
1118.81209962462
 21
1967.679632197751
 31
0.0
  0
LINE
  5
7C99
330
19
100
AcDbEntity
  8
1
100
AcDbLine
 10
698.9604330905493
 20
2250.679632197753
 30
0.0
 11
698.9604330905494
 21
1963.879632197753
 31
0.0
  0
LINE
  5
7C9A
330
19
100
AcDbEntity
  8
1
100
AcDbLine
 10
678.9604330905497
 20
2250.679632197752
 30
0.0
 11
678.9604330905494
 21
1963.879632197753
 31
0.0
  0
LINE
  5
7C9B
330
19
100
AcDbEntity
  8
1
100
AcDbLine
 10
638.9604330905495
 20
1915.879632197752
 30
0.0
 11
733.4104330905493
 21
1915.879632197751
 31
0.0
  0
LINE
  5
7C9C
330
19
100
AcDbEntity
  8
1
100
AcDbLine
 10
638.9604330905495
 20
1953.879632197752
 30
0.0
 11
733.4104330905493
 21
1953.879632197752
 31
0.0
  0
LINE
  5
7C9D
330
19
100
AcDbEntity
  8
1
100
AcDbLine
 10
725.4604330905494
 20
1967.679632197753
 30
0.0
 11
632.4604330905494
 21
1967.679632197753
 31
0.0
  0
LINE
  5
7C9F
330
19
100
AcDbEntity
  8
1
100
AcDbLine
 10
679.4604330905494
 20
1953.879632197752
 30
0.0
 11
679.4604330905494
 21
1963.879632197753
 31
0.0
  0
LINE
  5
7CA0
330
19
100
AcDbEntity
  8
1
100
AcDbLine
 10
698.4604330905495
 20
1953.879632197752
 30
0.0
 11
698.4604330905495
 21
1963.879632197753
 31
0.0
  0
LINE
  5
7CA2
330
19
100
AcDbEntity
  8
1
100
AcDbLine
 10
1118.81209962462
 20
1967.679632197751
 30
0.0
 11
1118.81209962462
 21
1892.679632197751
 31
0.0
  0
LINE
  5
7CA4
330
19
100
AcDbEntity
  8
1
100
AcDbLine
 10
1093.960433090549
 20
1989.879632197751
 30
0.0
 11
1093.960433090549
 21
1905.679632197752
 31
0.0
  0
LINE
  5
7CA5
330
19
100
AcDbEntity
  8
1
100
AcDbLine
 10
588.9604330905495
 20
1972.75723628539
 30
0.0
 11
588.9604330905495
 21
2250.679632197753
 31
0.0
  0
LINE
  5
7CA6
330
19
100
AcDbEntity
  8
1
100
AcDbLine
 10
788.9604330905495
 20
1972.75723628539
 30
0.0
 11
788.9604330905492
 21
2250.679632197753
 31
0.0
  0
LINE
  5
7CA7
330
19
100
AcDbEntity
  8
1
100
AcDbLine
 10
588.9604330905495
 20
1972.757236285389
 30
0.0
 11
678.9604330905494
 21
1972.75723628539
 31
0.0
  0
LINE
  5
7CA9
330
19
100
AcDbEntity
  8
1
100
AcDbLine
 10
698.9604330905486
 20
1972.75723628539
 30
0.0
 11
788.9604330905495
 21
1972.757236285389
 31
0.0
  0
DIMENSION
  5
7CAA
330
19
100
AcDbEntity
  8
3
100
AcDbDimension
280
     0
  2
*D3
 10
2056.1894255111
 20
1499.307957059832
 30
0.0
 11
2094.514778666291
 21
1528.617496807827
 31
0.0
 70
   160
  1
79
 71
     5
 42
-1.0
 73
     0
 74
     0
 75
     0
  3
IGA
100
AcDbAlignedDimension
 13
2133.189425511099
 23
1377.224283578283
 33
0.0
 14
2056.1894255111
 24
1461.751055404746
 34
0.0
100
AcDbRotatedDimension
1001
ACAD
1000
DSTYLE
1002
{
1070
   288
1070
     1
1070
   172
1070
     1
1070
    40
1040
12.0
1070
   271
1070
     0
1070
   143
1040
0.039
1002
}
  0
DIMENSION
  5
7CAB
330
19
100
AcDbEntity
  8
3
100
AcDbDimension
280
     0
  2
*D4
 10
1623.189425511099
 20
1499.307957059832
 30
0.0
 11
1839.6894255111
 21
1568.736528488404
 31
0.0
 70
    32
  1
\P(520)
 71
     5
 42
433.0000000000008
 73
     0
 74
     0
 75
     0
  3
IGA
100
AcDbAlignedDimension
 13
2056.1894255111
 23
1461.751055404746
 33
0.0
 14
1623.189425511099
 24
1312.366526321129
 34
0.0
100
AcDbRotatedDimension
1001
ACAD
1000
DSTYLE
1002
{
1070
    40
1040
12.0
1070
   143
1040
0.039
1070
   172
1070
     1
1070
   271
1070
     0
1070
   279
1070
     0
1070
   288
1070
     1
1002
}
  0
DIMENSION
  5
7CAC
330
19
100
AcDbEntity
  8
3
100
AcDbDimension
280
     0
  2
*D5
 10
2131.189425511099
 20
1418.040346676846
 30
0.0
 11
2056.189425511099
 21
1445.700411905221
 31
0.0
 70
   160
 71
     5
 42
-1.0
 73
     0
 74
     0
 75
     0
  3
IGA
100
AcDbAlignedDimension
 13
1981.189425511099
 23
1377.224278441139
 33
0.0
 14
2131.189425511099
 24
1377.224283578283
 34
0.0
100
AcDbRotatedDimension
1001
ACAD
1000
DSTYLE
1002
{
1070
   288
1070
     1
1070
   172
1070
     1
1070
    40
1040
12.0
1070
   271
1070
     0
1070
   143
1040
0.039
1002
}
  0
DIMENSION
  5
7CAD
330
19
100
AcDbEntity
  8
3
100
AcDbDimension
280
     0
  2
*D6
 10
2235.206465374938
 20
1122.36056123501
 30
0.0
 11
2205.206465374939
 21
1232.36056123501
 31
0.0
 70
    32
 71
     5
 42
-1.0
 73
     0
 74
     0
 75
     0
  3
IGA
100
AcDbAlignedDimension
 13
2154.189425511099
 23
1342.36056123501
 33
0.0
 14
2154.189425511099
 24
1122.36056123501
 34
0.0
 50
90.0
100
AcDbRotatedDimension
1001
ACAD
1000
DSTYLE
1002
{
1070
     3
1000
φ<>
1070
    40
1040
12.0
1070
   143
1040
0.039
1070
   172
1070
     1
1070
   271
1070
     0
1070
   279
1070
     0
1070
   288
1070
     1
1002
}
  0
LINE
  5
7CB2
330
19
100
AcDbEntity
  8
1
100
AcDbLine
 10
2134.189425511099
 20
1362.36056123501
 30
0.0
 11
2134.189425511099
 21
1342.36056123501
 31
0.0
  0
LINE
  5
7CB3
330
19
100
AcDbEntity
  8
1
100
AcDbLine
 10
2137.189425511099
 20
1349.36056123501
 30
0.0
 11
2137.189425511099
 21
1360.36056123501
 31
0.0
  0
LINE
  5
7CB4
330
19
100
AcDbEntity
  8
1
100
AcDbLine
 10
2131.189425511099
 20
1362.36056123501
 30
0.0
 11
2134.1894255111
 21
1362.36056123501
 31
0.0
  0
LINE
  5
7CB5
330
19
100
AcDbEntity
  8
1
100
AcDbLine
 10
2135.189425511099
 20
1362.36056123501
 30
0.0
 11
2134.189425511099
 21
1362.36056123501
 31
0.0
  0
ARC
  5
7CB6
330
19
100
AcDbEntity
  8
1
100
AcDbCircle
 10
2135.189425511099
 20
1360.36056123501
 30
0.0
 40
2.0
100
AcDbArc
 50
0.0
 51
90.0
  0
LINE
  5
7CB7
330
19
100
AcDbEntity
  8
1
100
AcDbLine
 10
2152.1894255111
 20
1345.36056123501
 30
0.0
 11
2141.189425511099
 21
1345.36056123501
 31
0.0
  0
LINE
  5
7CB8
330
19
100
AcDbEntity
  8
1
100
AcDbLine
 10
2134.189425511099
 20
1342.36056123501
 30
0.0
 11
2154.189425511099
 21
1342.36056123501
 31
0.0
  0
ARC
  5
7CB9
330
19
100
AcDbEntity
  8
1
100
AcDbCircle
 10
2141.189425511099
 20
1349.36056123501
 30
0.0
 40
4.0
100
AcDbArc
 50
180.0
 51
270.0
  0
ARC
  5
7CBA
330
19
100
AcDbEntity
  8
1
100
AcDbCircle
 10
2152.1894255111
 20
1343.36056123501
 30
0.0
 40
2.0
100
AcDbArc
 50
0.0
 51
90.0
  0
LINE
  5
7CBB
330
19
100
AcDbEntity
  8
1
100
AcDbLine
 10
2154.189425511099
 20
1342.36056123501
 30
0.0
 11
2154.189425511099
 21
1343.36056123501
 31
0.0
  0
LINE
  5
7CBC
330
19
100
AcDbEntity
  8
1
100
AcDbLine
 10
687.9604330905494
 20
2400.679632197752
 30
0.0
 11
858.9604330905492
 21
2400.679632197753
 31
0.0
  0
LINE
  5
7CBD
330
19
100
AcDbEntity
  8
1
100
AcDbLine
 10
687.9604330905494
 20
2250.679632197752
 30
0.0
 11
858.9604330905492
 21
2250.679632197753
 31
0.0
  0
DIMENSION
  5
7CBE
330
19
100
AcDbEntity
  8
3
100
AcDbDimension
280
     0
  2
*D7
 10
340.4718232223868
 20
1232.274467347751
 30
0.0
 11
309.8731291269378
 21
1306.274467347751
 31
0.0
 70
   160
 71
     5
 42
-1.0
 73
     0
 74
     0
 75
     0
  3
IGA
100
AcDbAlignedDimension
 13
699.960433090549
 23
1380.274467347751
 33
0.0
 14
503.5960309663787
 24
1232.274467347751
 34
0.0
 50
90.0
100
AcDbRotatedDimension
1001
ACAD
1000
DSTYLE
1002
{
1070
   288
1070
     1
1070
   172
1070
     1
1070
    40
1040
12.0
1070
   271
1070
     0
1070
   143
1040
0.039
1002
}
  0
DIMENSION
  5
7CBF
330
19
100
AcDbEntity
  8
3
100
AcDbDimension
280
     0
  2
*D8
 10
340.4718232223868
 20
972.2744673477514
 30
0.0
 11
310.4718232223868
 21
1102.274467347751
 31
0.0
 70
    32
 71
     5
 42
-1.0
 73
     0
 74
     0
 75
     0
  3
IGA
100
AcDbAlignedDimension
 13
503.5960309663787
 23
1232.274467347751
 33
0.0
 14
513.9604330905495
 24
972.2744673477514
 34
0.0
 50
90.0
100
AcDbRotatedDimension
1001
ACAD
1000
DSTYLE
1002
{
1070
    40
1040
12.0
1070
   143
1040
0.039
1070
   172
1070
     1
1070
   271
1070
     0
1070
   279
1070
     0
1070
   288
1070
     1
1002
}
  0
DIMENSION
  5
7CC2
330
19
100
AcDbEntity
  8
3
100
AcDbDimension
280
     0
  2
*D9
 10
688.9604330905495
 20
1451.840468166837
 30
0.0
 11
596.4604330905492
 21
1451.840468166837
 31
0.0
 70
   160
 71
     5
 42
-1.0
 73
     0
 74
     0
 75
     0
  3
IGA
100
AcDbAlignedDimension
 13
503.960433090549
 23
1255.274467347751
 33
0.0
 14
688.9604330905495
 24
1413.813026692561
 34
0.0
100
AcDbRotatedDimension
1001
ACAD
1000
DSTYLE
1002
{
1070
    40
1040
12.0
1070
   143
1040
0.039
1070
   172
1070
     1
1070
   271
1070
     0
1070
   279
1070
     0
1070
   288
1070
     1
1002
}
  0
DIMENSION
  5
7CC3
330
19
100
AcDbEntity
  8
3
100
AcDbDimension
280
     0
  2
*D10
 10
858.9604330905491
 20
1451.840468166837
 30
0.0
 11
773.9604330905493
 21
1481.840468166837
 31
0.0
 70
    32
 71
     5
 42
-1.0
 73
     0
 74
     0
 75
     0
  3
IGA
100
AcDbAlignedDimension
 13
688.9604330905495
 23
1413.813026692561
 33
0.0
 14
858.9604330905491
 24
1218.274467347751
 34
0.0
100
AcDbRotatedDimension
1001
ACAD
1000
DSTYLE
1002
{
1070
    40
1040
12.0
1070
   143
1040
0.039
1070
   172
1070
     1
1070
   271
1070
     0
1070
   279
1070
     0
1070
   288
1070
     1
1002
}
  0
LINE
  5
7CC4
330
19
100
AcDbEntity
  8
1
100
AcDbLine
 10
503.9604330905485
 20
1013.274127500229
 30
0.0
 11
523.9604330905486
 21
1013.274127500229
 31
0.0
  0
LINE
  5
7CC5
330
19
100
AcDbEntity
  8
1
100
AcDbLine
 10
1981.189425511099
 20
1033.36056123501
 30
0.0
 11
2131.189425511099
 21
1033.36056123501
 31
0.0
  0
LINE
  5
7CC6
330
19
100
AcDbEntity
  8
1
100
AcDbLine
 10
1981.1894255111
 20
1380.36056123501
 30
0.0
 11
2131.189425511098
 21
1380.36056123501
 31
0.0
  0
LINE
  5
7CC7
330
19
100
AcDbEntity
  8
1
100
AcDbLine
 10
2153.189425511099
 20
1119.628510427441
 30
0.0
 11
2153.189425511099
 21
1013.36056123501
 31
0.0
  0
LINE
  5
7CC8
330
19
100
AcDbEntity
  8
1
100
AcDbLine
 10
1973.889425511099
 20
1013.36056123501
 30
0.0
 11
2153.189425511099
 21
1013.36056123501
 31
0.0
  0
LINE
  5
7CCC
330
19
100
AcDbEntity
  8
1
100
AcDbLine
 10
503.9604330905488
 20
2230.679632197752
 30
0.0
 11
503.960433090549
 21
2420.679632197752
 31
0.0
  0
LINE
  5
7CCD
330
19
100
AcDbEntity
  8
1
100
AcDbLine
 10
858.9604330905492
 20
2250.679632197753
 30
0.0
 11
858.9604330905494
 21
2400.679632197753
 31
0.0
  0
LINE
  5
7CCE
330
19
100
AcDbEntity
  8
1
100
AcDbLine
 10
523.9604330905492
 20
2230.679632197752
 30
0.0
 11
523.9604330905492
 21
2420.679632197752
 31
0.0
  0
LINE
  5
7CCF
330
19
100
AcDbEntity
  8
1
100
AcDbLine
 10
503.9604330905488
 20
2420.679632197752
 30
0.0
 11
523.9604330905492
 21
2420.679632197752
 31
0.0
  0
LINE
  5
7CD0
330
19
100
AcDbEntity
  8
1
100
AcDbLine
 10
503.9604330905488
 20
2230.679632197752
 30
0.0
 11
523.9604330905492
 21
2230.679632197752
 31
0.0
  0
LINE
  5
7CD1
330
19
100
AcDbEntity
  8
2
100
AcDbLine
 10
1907.915303947083
 20
1122.36056123501
 30
0.0
 11
1597.342232539192
 21
1122.36056123501
 31
0.0
  0
LINE
  5
7CD2
330
19
100
AcDbEntity
  8
1
100
AcDbLine
 10
1938.389425511098
 20
1197.16054923501
 30
0.0
 11
1720.389425511098
 21
1197.16054923501
 31
0.0
  0
LINE
  5
7CD3
330
19
100
AcDbEntity
  8
1
100
AcDbLine
 10
1720.389425511098
 20
1044.36056123501
 30
0.0
 11
1938.389425511098
 21
1044.36056123501
 31
0.0
  0
ARC
  5
7CD4
330
19
100
AcDbEntity
  8
1
100
AcDbCircle
 10
1018.960433090549
 20
1122.274467347751
 30
0.0
 40
85.0
100
AcDbArc
 50
0.0
 51
244.1244660000001
  0
LINE
  5
7CD5
330
19
100
AcDbEntity
  8
2
100
AcDbLine
 10
1018.960433090549
 20
1218.562118886084
 30
0.0
 11
1018.960433090549
 21
967.335535283893
 31
0.0
  0
ARC
  5
7CD6
330
19
100
AcDbEntity
  8
1
100
AcDbCircle
 10
1018.960433090549
 20
1122.274467347751
 30
0.0
 40
85.0
100
AcDbArc
 50
0.0
 51
244.1244660000001
  0
LINE
  5
7CD7
330
19
100
AcDbEntity
  8
1
100
AcDbLine
 10
1938.389425511098
 20
1197.16054923501
 30
0.0
 11
1938.389425511098
 21
1044.36056123501
 31
0.0
  0
LINE
  5
7CD8
330
19
100
AcDbEntity
  8
1
100
AcDbLine
 10
911.4604330905494
 20
1012.274467347751
 30
0.0
 11
1126.460433090549
 21
1012.274467347751
 31
0.0
  0
LINE
  5
7CD9
330
19
100
AcDbEntity
  8
1
100
AcDbLine
 10
916.460433090549
 20
1042.274467347751
 30
0.0
 11
1121.460433090549
 21
1042.274467347751
 31
0.0
  0
LINE
  5
7CDA
330
19
100
AcDbEntity
  8
1
100
AcDbLine
 10
937.1858355247855
 20
1042.274467347751
 30
0.0
 11
956.6372650905496
 21
1064.455963347751
 31
0.0
  0
LINE
  5
7CDB
330
19
100
AcDbEntity
  8
1
100
AcDbLine
 10
916.4604330905495
 20
1042.274467347751
 30
0.0
 11
911.4604330905494
 21
1012.274467347751
 31
0.0
  0
LINE
  5
7CDC
330
19
100
AcDbEntity
  8
1
100
AcDbLine
 10
941.4604330905495
 20
1042.274467347751
 30
0.0
 11
976.4604330905495
 21
1042.274467347751
 31
0.0
  0
LINE
  5
7CDD
330
19
100
AcDbEntity
  8
1
100
AcDbLine
 10
1107.427016090549
 20
1122.678031347751
 30
0.0
 11
1103.930763090549
 21
1121.741344347751
 31
0.0
  0
ARC
  5
7CDE
330
19
100
AcDbEntity
  8
1
100
AcDbCircle
 10
1018.960433090549
 20
1122.274467347751
 30
0.0
 40
85.000008
100
AcDbArc
 50
295.917726
 51
0.0
  0
LINE
  5
7CDF
330
19
100
AcDbEntity
  8
1
100
AcDbLine
 10
1100.734941765143
 20
1042.274467347751
 30
0.0
 11
1081.281741090549
 21
1064.458105347751
 31
0.0
  0
LINE
  5
7CE0
330
19
100
AcDbEntity
  8
1
100
AcDbLine
 10
981.8649340905494
 20
1045.823539347751
 30
0.0
 11
1056.112242090549
 21
1045.823539347751
 31
0.0
  0
LINE
  5
7CE1
330
19
100
AcDbEntity
  8
1
100
AcDbLine
 10
1096.460433090549
 20
1042.274467347751
 30
0.0
 11
1061.460433090549
 21
1042.274467347751
 31
0.0
  0
LINE
  5
7CE2
330
19
100
AcDbEntity
  8
1
100
AcDbLine
 10
1121.460433090549
 20
1042.274467347751
 30
0.0
 11
1126.460433090549
 21
1012.274467347751
 31
0.0
  0
LINE
  5
7CE3
330
19
100
AcDbEntity
  8
1
100
AcDbLine
 10
1710.389425511098
 20
1088.86056123501
 30
0.0
 11
1710.389425511098
 21
1155.86056123501
 31
0.0
  0
LINE
  5
7CE4
330
19
100
AcDbEntity
  8
1
100
AcDbLine
 10
1720.389425511098
 20
1044.36056123501
 30
0.0
 11
1720.389425511098
 21
1197.16054923501
 31
0.0
  0
LINE
  5
7CE5
330
19
100
AcDbEntity
  8
1
100
AcDbLine
 10
1865.389425511098
 20
1044.36056123501
 30
0.0
 11
1865.389425511098
 21
1012.36056123501
 31
0.0
  0
LINE
  5
7CE6
330
19
100
AcDbEntity
  8
1
100
AcDbLine
 10
1745.389425511098
 20
1044.36056123501
 30
0.0
 11
1745.389425511098
 21
1012.36056123501
 31
0.0
  0
LINE
  5
7CE7
330
19
100
AcDbEntity
  8
1
100
AcDbLine
 10
1705.389425511098
 20
1132.86056123501
 30
0.0
 11
1710.389425511098
 21
1132.86056123501
 31
0.0
  0
LINE
  5
7CE8
330
19
100
AcDbEntity
  8
1
100
AcDbLine
 10
1705.389425511098
 20
1111.86056123501
 30
0.0
 11
1710.389425511098
 21
1111.86056123501
 31
0.0
  0
LINE
  5
7CE9
330
19
100
AcDbEntity
  8
1
100
AcDbLine
 10
1720.389425511098
 20
1088.86056123501
 30
0.0
 11
1710.389425511098
 21
1088.86056123501
 31
0.0
  0
LINE
  5
7CEA
330
19
100
AcDbEntity
  8
1
100
AcDbLine
 10
1720.389425511098
 20
1092.42556423501
 30
0.0
 11
1720.389425511098
 21
1083.79555923501
 31
0.0
  0
LINE
  5
7CEB
330
19
100
AcDbEntity
  8
1
100
AcDbLine
 10
1720.389425511098
 20
1094.61062223501
 30
0.0
 11
1720.389425511098
 21
1082.34668823501
 31
0.0
  0
LINE
  5
7CEC
330
19
100
AcDbEntity
  8
1
100
AcDbLine
 10
1720.389425511098
 20
1083.67635723501
 30
0.0
 11
1720.389425511098
 21
1092.67635723501
 31
0.0
  0
LINE
  5
7CED
330
19
100
AcDbEntity
  8
1
100
AcDbLine
 10
1705.389425511098
 20
1131.86056123501
 30
0.0
 11
1684.3894255111
 21
1131.86056123501
 31
0.0
  0
LINE
  5
7CEE
330
19
100
AcDbEntity
  8
1
100
AcDbLine
 10
1684.3894255111
 20
1112.86056123501
 30
0.0
 11
1705.389425511098
 21
1112.86056123501
 31
0.0
  0
LINE
  5
7CEF
330
19
100
AcDbEntity
  8
1
100
AcDbLine
 10
1705.389425511098
 20
1111.86056123501
 30
0.0
 11
1705.389425511098
 21
1132.86056123501
 31
0.0
  0
LINE
  5
7CF0
330
19
100
AcDbEntity
  8
1
100
AcDbLine
 10
1710.389425511098
 20
1155.86056123501
 30
0.0
 11
1720.389425511098
 21
1155.86056123501
 31
0.0
  0
LINE
  5
7CF1
330
19
100
AcDbEntity
  8
1
100
AcDbLine
 10
1720.389425511098
 20
1195.17556423501
 30
0.0
 11
1720.389425511098
 21
1186.54555923501
 31
0.0
  0
LINE
  5
7CF2
330
19
100
AcDbEntity
  8
1
100
AcDbLine
 10
1720.389425511098
 20
1186.42635723501
 30
0.0
 11
1720.389425511098
 21
1195.42635723501
 31
0.0
  0
LINE
  5
7CF3
330
19
100
AcDbEntity
  8
1
100
AcDbLine
 10
1096.960433090549
 20
1989.879632197751
 30
0.0
 11
944.1604450905497
 21
1989.879632197751
 31
0.0
  0
LINE
  5
7CF4
330
19
100
AcDbEntity
  8
1
100
AcDbLine
 10
944.1604450905497
 20
2207.879632197751
 30
0.0
 11
1096.960433090549
 21
2207.879632197751
 31
0.0
  0
LINE
  5
7CF5
330
19
100
AcDbEntity
  8
1
100
AcDbLine
 10
1096.960433090549
 20
1989.879632197751
 30
0.0
 11
1096.960433090549
 21
2207.879632197751
 31
0.0
  0
LINE
  5
7CF6
330
19
100
AcDbEntity
  8
1
100
AcDbLine
 10
985.4604330905495
 20
1979.879632197751
 30
0.0
 11
985.4604330905495
 21
1989.879632197751
 31
0.0
  0
LINE
  5
7CF7
330
19
100
AcDbEntity
  8
1
100
AcDbLine
 10
1052.460433090549
 20
1989.879632197751
 30
0.0
 11
1052.460433090549
 21
1979.879632197751
 31
0.0
  0
LINE
  5
7CF8
330
19
100
AcDbEntity
  8
1
100
AcDbLine
 10
1029.460433090549
 20
1974.879632197751
 30
0.0
 11
1008.460433090549
 21
1974.879632197751
 31
0.0
  0
LINE
  5
7CF9
330
19
100
AcDbEntity
  8
1
100
AcDbLine
 10
1052.460433090549
 20
1979.879632197751
 30
0.0
 11
985.4604330905495
 21
1979.879632197751
 31
0.0
  0
LINE
  5
7CFA
330
19
100
AcDbEntity
  8
1
100
AcDbLine
 10
1028.460433090549
 20
1953.879632197752
 30
0.0
 11
1028.460433090549
 21
1974.879632197751
 31
0.0
  0
LINE
  5
7CFB
330
19
100
AcDbEntity
  8
1
100
AcDbLine
 10
1029.460433090549
 20
1974.879632197751
 30
0.0
 11
1029.460433090549
 21
1979.879632197751
 31
0.0
  0
LINE
  5
7CFC
330
19
100
AcDbEntity
  8
1
100
AcDbLine
 10
1009.460433090549
 20
1974.879632197751
 30
0.0
 11
1009.460433090549
 21
1953.879632197752
 31
0.0
  0
LINE
  5
7CFD
330
19
100
AcDbEntity
  8
1
100
AcDbLine
 10
1008.460433090549
 20
1974.879632197751
 30
0.0
 11
1008.460433090549
 21
1979.879632197751
 31
0.0
  0
LINE
  5
7CFE
330
19
100
AcDbEntity
  8
1
100
AcDbLine
 10
1057.644637090549
 20
1989.879632197751
 30
0.0
 11
1048.644637090549
 21
1989.879632197751
 31
0.0
  0
LINE
  5
7CFF
330
19
100
AcDbEntity
  8
1
100
AcDbLine
 10
1046.710372090549
 20
1989.879632197751
 30
0.0
 11
1058.974306090549
 21
1989.879632197751
 31
0.0
  0
LINE
  5
7D00
330
19
100
AcDbEntity
  8
1
100
AcDbLine
 10
1048.895430090549
 20
1989.879632197751
 30
0.0
 11
1057.52543509055
 21
1989.879632197751
 31
0.0
  0
LINE
  5
7D01
330
19
100
AcDbEntity
  8
1
100
AcDbLine
 10
944.1604450905497
 20
2207.879632197751
 30
0.0
 11
944.1604450905497
 21
1989.879632197751
 31
0.0
  0
ARC
  5
7D02
330
19
100
AcDbEntity
  8
1
100
AcDbCircle
 10
950.386138090549
 20
1988.879632197751
 30
0.0
 40
2.0
100
AcDbArc
 50
150.0
 51
168.8609599999999
  0
LINE
  5
7D03
330
19
100
AcDbEntity
  8
1
100
AcDbLine
 10
954.8946370905495
 20
1989.879632197751
 30
0.0
 11
945.8946370905495
 21
1989.879632197751
 31
0.0
  0
LINE
  5
7D04
330
19
100
AcDbEntity
  8
1
100
AcDbLine
 10
946.1454300905497
 20
1989.879632197751
 30
0.0
 11
954.7754350905497
 21
1989.879632197751
 31
0.0
  0
LINE
  5
7D05
330
19
100
AcDbEntity
  8
1
100
AcDbLine
 10
1938.389425511098
 20
1195.86056123501
 30
0.0
 11
1953.8894255111
 21
1195.86056123501
 31
0.0
  0
LINE
  5
7D06
330
19
100
AcDbEntity
  8
1
100
AcDbLine
 10
1702.8894255111
 20
1131.86056123501
 30
0.0
 11
1702.8894255111
 21
1195.86056123501
 31
0.0
  0
LINE
  5
7EE7
330
19
100
AcDbEntity
  8
4
100
AcDbLine
 10
2220.0
 20
600.0
 30
0.0
 11
2220.0
 21
360.0
 31
0.0
  0
LINE
  5
7EE8
330
19
100
AcDbEntity
  8
4
100
AcDbLine
 10
1380.0
 20
600.0
 30
0.0
 11
1380.0
 21
360.0
 31
0.0
  0
LINE
  5
7EE9
330
19
100
AcDbEntity
  8
4
100
AcDbLine
 10
780.0
 20
600.0
 30
0.0
 11
780.0
 21
360.0
 31
0.0
  0
LINE
  5
7EEC
330
19
100
AcDbEntity
  8
4
100
AcDbLine
 10
780.0
 20
360.0
 30
0.0
 11
2220.0
 21
360.0
 31
0.0
  0
LINE
  5
7EED
330
19
100
AcDbEntity
  8
4
100
AcDbLine
 10
780.0
 20
480.0
 30
0.0
 11
2220.0
 21
480.0
 31
0.0
  0
TEXT
  5
7EEE
330
19
100
AcDbEntity
  8
4
100
AcDbText
 10
826.2024970162819
 20
517.8516310399354
 30
0.0
 40
60.0
  1
機器名称
100
AcDbText
  0
TEXT
  5
7EEF
330
19
100
AcDbEntity
  8
4
100
AcDbText
 10
823.509727229757
 20
385.9741880784131
 30
0.0
 40
60.0
  1
機器型番
100
AcDbText
  0
TEXT
  5
7EF0
330
19
100
AcDbEntity
  8
4
100
AcDbText
 10
1413.214494585198
 20
507.0861227490822
 30
0.0
 40
60.0
  1
ミツヤ多翼送風機
100
AcDbText
  0
TEXT
  5
7EF1
330
19
100
AcDbEntity
  8
4
100
AcDbText
 10
1423.985394702577
 20
380.5915011359321
 30
0.0
 40
60.0
  1
MF#1 1/4-1
100
AcDbText
  0
TEXT
  5
7EF3
330
19
100
AcDbEntity
  8
4
100
AcDbText
 10
882.8998187788457
 20
2860.114609599019
 30
0.0
 40
64.8
  1
床置防振ベット
100
AcDbText
  0
TEXT
  5
7EF4
330
19
100
AcDbEntity
  8
4
100
AcDbText
 10
379.4011119953357
 20
3040.657171439157
 30
0.0
 40
86.4
  1
遠心式片吸込片持多翼ファン
100
AcDbText
  0
LINE
  5
7EF5
330
19
100
AcDbEntity
  8
4
100
AcDbLine
 10
300.0
 20
2963.290505117766
 30
0.0
 11
2220.0
 21
2963.290505117766
 31
0.0
  0
LINE
  5
7EF6
330
19
100
AcDbEntity
  8
4
100
AcDbLine
 10
300.0
 20
3203.290505117766
 30
0.0
 11
2220.0
 21
3203.290505117766
 31
0.0
  0
LINE
  5
7EF7
330
19
100
AcDbEntity
  8
4
100
AcDbLine
 10
780.0
 20
600.0
 30
0.0
 11
2220.0
 21
600.0
 31
0.0
  0
LINE
  5
7EF8
330
19
100
AcDbEntity
  8
4
100
AcDbLine
 10
300.0
 20
3203.290505117766
 30
0.0
 11
300.0
 21
2963.290505117766
 31
0.0
  0
TEXT
  5
7EF9
330
19
100
AcDbEntity
  8
4
100
AcDbText
 10
359.869220087603
 20
2858.783373055612
 30
0.0
 40
64.8
  1
右回転左横向
100
AcDbText
  0
TEXT
  5
7EFA
330
19
100
AcDbEntity
  8
4
100
AcDbText
 10
1762.763471099148
 20
3247.273297794371
 30
0.0
 40
67.2
  1
No.
100
AcDbText
  0
TEXT
  5
7EFB
330
19
100
AcDbEntity
  8
4
100
AcDbText
 10
1573.555275120016
 20
2860.114609599019
 30
0.0
 40
64.8
  1
縮尺：1/12
100
AcDbText
  0
LINE
  5
7EFC
330
19
100
AcDbEntity
  8
4
100
AcDbLine
 10
2220.0
 20
3203.290505117766
 30
0.0
 11
2220.0
 21
2963.290505117766
 31
0.0
  0
LINE
  5
7EFD
330
19
100
AcDbEntity
  8
4
100
AcDbLine
 10
2520.0
 20
3540.0
 30
0.0
 11
2520.0
 21
3540.0
 31
0.0
  0
LINE
  5
7EFE
330
19
100
AcDbEntity
  8
4
100
AcDbLine
 10
1728.740906831837
 20
3217.516299750482
 30
0.0
 11
1728.740906831837
 21
3343.982713859703
 31
0.0
  0
LINE
  5
7EFF
330
19
100
AcDbEntity
  8
4
100
AcDbLine
 10
1728.740906831837
 20
3343.982713859703
 30
0.0
 11
2220.0
 21
3343.982713859703
 31
0.0
  0
LINE
  5
7F00
330
19
100
AcDbEntity
  8
4
100
AcDbLine
 10
2220.0
 20
3343.982713859703
 30
0.0
 11
2220.0
 21
3217.516299750482
 31
0.0
  0
LINE
  5
7F01
330
19
100
AcDbEntity
  8
4
100
AcDbLine
 10
2220.0
 20
3217.516299750482
 30
0.0
 11
1728.740906831837
 21
3217.516299750482
 31
0.0
  0
LINE
  5
7F02
330
19
100
AcDbEntity
  8
4
100
AcDbLine
 10
0.0
 20
0.0
 30
0.0
 11
0.0
 21
3540.0
 31
0.0
  0
LINE
  5
7F03
330
19
100
AcDbEntity
  8
4
100
AcDbLine
 10
0.0
 20
3540.0
 30
0.0
 11
2520.0
 21
3540.0
 31
0.0
  0
LINE
  5
7F04
330
19
100
AcDbEntity
  8
4
100
AcDbLine
 10
2520.0
 20
3540.0
 30
0.0
 11
2520.0
 21
0.0
 31
0.0
  0
LINE
  5
7F05
330
19
100
AcDbEntity
  8
4
100
AcDbLine
 10
2520.0
 20
0.0
 30
0.0
 11
0.0
 21
0.0
 31
0.0
  0
CIRCLE
  5
810F
330
19
100
AcDbEntity
  8
1
100
AcDbCircle
 10
688.9604330905497
 20
1232.274467347751
 30
0.0
 40
50.0
  0
CIRCLE
  5
8110
330
19
100
AcDbEntity
  8
1
100
AcDbCircle
 10
1018.960433090549
 20
1122.274467347751
 30
0.0
 40
50.0
  0
LINE
  5
8111
330
19
100
AcDbEntity
  8
1
100
AcDbLine
 10
704.7718213913916
 20
1279.708632250277
 30
0.0
 11
1034.771821391391
 21
1169.708632250277
 31
0.0
  0
LINE
  5
8112
330
19
100
AcDbEntity
  8
1
100
AcDbLine
 10
673.1490447897077
 20
1184.840302445225
 30
0.0
 11
1003.149044789707
 21
1074.840302445225
 31
0.0
  0
LINE
  5
8113
330
19
100
AcDbEntity
  8
1
100
AcDbLine
 10
1646.3894255111
 20
1282.36056123501
 30
0.0
 11
1684.3894255111
 21
1282.36056123501
 31
0.0
  0
LINE
  5
8114
330
19
100
AcDbEntity
  8
1
100
AcDbLine
 10
1646.389425511099
 20
1182.36056123501
 30
0.0
 11
1684.3894255111
 21
1182.36056123501
 31
0.0
  0
LINE
  5
8115
330
19
100
AcDbEntity
  8
1
100
AcDbLine
 10
1684.389425511099
 20
1172.36056123501
 30
0.0
 11
1646.389425511099
 21
1172.36056123501
 31
0.0
  0
LINE
  5
8116
330
19
100
AcDbEntity
  8
1
100
AcDbLine
 10
1684.3894255111
 20
1072.36056123501
 30
0.0
 11
1646.389425511098
 21
1072.36056123501
 31
0.0
  0
DIMENSION
  5
8123
330
19
100
AcDbEntity
  8
3
100
AcDbDimension
280
     0
  2
*D12
 10
1133.960433090549
 20
1535.012009060021
 30
0.0
 11
779.2560429819022
 21
1535.012009060021
 31
0.0
 70
   160
 71
     5
 42
-1.0
 73
     0
 74
     0
 75
     0
  3
IGA
100
AcDbAlignedDimension
 13
503.960433090549
 23
1255.274467347751
 33
0.0
 14
1133.960433090549
 24
1012.274467347751
 34
0.0
100
AcDbRotatedDimension
1001
ACAD
1000
DSTYLE
1002
{
1070
    40
1040
12.0
1070
   143
1040
0.039
1070
   172
1070
     1
1070
   271
1070
     0
1070
   279
1070
     0
1070
   288
1070
     1
1002
}
  0
LINE
  5
8130
330
19
100
AcDbEntity
  8
1
100
AcDbLine
 10
738.9604330905496
 20
1915.879632197751
 30
0.0
 11
738.9604330905495
 21
1953.879632197752
 31
0.0
  0
LINE
  5
8131
330
19
100
AcDbEntity
  8
1
100
AcDbLine
 10
638.9604330905495
 20
1915.879632197752
 30
0.0
 11
638.9604330905493
 21
1953.879632197752
 31
0.0
  0
LINE
  5
8132
330
19
100
AcDbEntity
  8
1
100
AcDbLine
 10
1068.960433090549
 20
1953.879632197752
 30
0.0
 11
1068.960433090549
 21
1915.879632197749
 31
0.0
  0
LINE
  5
8133
330
19
100
AcDbEntity
  8
1
100
AcDbLine
 10
968.9604330905495
 20
1953.879632197752
 30
0.0
 11
968.9604330905495
 21
1915.87963219775
 31
0.0
  0
LINE
  5
8138
330
19
100
AcDbEntity
  8
1
100
AcDbLine
 10
1698.189425511099
 20
1042.513145318569
 30
0.0
 11
1698.189425511099
 21
1012.36056123501
 31
0.0
  0
LINE
  5
81A5
330
19
100
AcDbEntity
  8
1
100
AcDbLine
 10
553.9604330905489
 20
2245.679632197753
 30
0.0
 11
1093.960433090549
 21
2245.679632197753
 31
0.0
  0
LINE
  5
81A6
330
19
100
AcDbEntity
  8
1
100
AcDbLine
 10
1093.960433090549
 20
1945.679632197753
 30
0.0
 11
553.9604330905496
 21
1945.679632197753
 31
0.0
  0
DIMENSION
  5
81C1
330
19
100
AcDbEntity
  8
3
100
AcDbDimension
280
     0
  2
*D13
 10
1133.960433090549
 20
1801.126444641751
 30
0.0
 11
808.2297574111889
 21
1801.126444641751
 31
0.0
 70
   160
 71
     5
 42
-1.0
 73
     0
 74
     0
 75
     0
  3
IGA
100
AcDbAlignedDimension
 13
513.9604330905497
 23
1905.679632197752
 33
0.0
 14
1133.960433090549
 24
1905.679632197752
 34
0.0
100
AcDbRotatedDimension
1001
ACAD
1000
DSTYLE
1002
{
1070
    40
1040
12.0
1070
   143
1040
0.039
1070
   172
1070
     1
1070
   271
1070
     0
1070
   279
1070
     0
1070
   288
1070
     1
1002
}
  0
DIMENSION
  5
81CE
330
19
100
AcDbEntity
  8
3
100
AcDbDimension
280
     0
  2
*D14
 10
1231.445031596775
 20
1905.679632197752
 30
0.0
 11
1231.445031596775
 21
2081.453364275404
 31
0.0
 70
   160
 71
     5
 42
-1.0
 73
     0
 74
     0
 75
     0
  3
IGA
100
AcDbAlignedDimension
 13
1133.960433090549
 23
2285.679632197753
 33
0.0
 14
1133.960433090549
 24
1905.679632197752
 34
0.0
 50
90.0
100
AcDbRotatedDimension
1001
ACAD
1000
DSTYLE
1002
{
1070
    40
1040
12.0
1070
   143
1040
0.039
1070
   172
1070
     1
1070
   271
1070
     0
1070
   279
1070
     0
1070
   288
1070
     1
1002
}
  0
DIMENSION
  5
8274
330
19
100
AcDbEntity
  8
3
100
AcDbDimension
280
     0
  2
*D15
 10
688.9604330905499
 20
783.8287983783303
 30
0.0
 11
601.4604330905497
 21
813.8287983783301
 31
0.0
 70
    32
 71
     5
 42
175.0000000000004
 73
     0
 74
     0
 75
     0
  3
IGA
100
AcDbAlignedDimension
 13
513.9604330905495
 23
862.2744673477514
 33
0.0
 14
688.9604330905499
 24
862.2744673477514
 34
0.0
100
AcDbRotatedDimension
1001
ACAD
1000
DSTYLE
1002
{
1070
    40
1040
12.0
1070
   143
1040
0.039
1070
   172
1070
     1
1070
   271
1070
     0
1070
   279
1070
     0
1002
}
  0
DIMENSION
  5
8281
330
19
100
AcDbEntity
  8
3
100
AcDbDimension
280
     0
  2
*D16
 10
1133.960433090549
 20
783.8287983783303
 30
0.0
 11
911.4604330905496
 21
813.8287983783301
 31
0.0
 70
    32
 71
     5
 42
444.9999999999995
 73
     0
 74
     0
 75
     0
  3
IGA
100
AcDbAlignedDimension
 13
688.9604330905499
 23
862.2744673477514
 33
0.0
 14
1133.960433090549
 24
862.2744673477514
 34
0.0
100
AcDbRotatedDimension
1001
ACAD
1000
DSTYLE
1002
{
1070
    40
1040
12.0
1070
   143
1040
0.039
1070
   172
1070
     1
1070
   271
1070
     0
1070
   279
1070
     0
1002
}
  0
DIMENSION
  5
828E
330
19
100
AcDbEntity
  8
3
100
AcDbDimension
280
     0
  2
*D17
 10
2016.1894255111
 20
783.8287983783303
 30
0.0
 11
1826.1894255111
 21
813.8287983783301
 31
0.0
 70
    32
 71
     5
 42
380.0
 73
     0
 74
     0
 75
     0
  3
IGA
100
AcDbAlignedDimension
 13
1636.1894255111
 23
862.3605612350104
 33
0.0
 14
2016.1894255111
 24
862.3605612350106
 34
0.0
100
AcDbRotatedDimension
1001
ACAD
1000
DSTYLE
1002
{
1070
    40
1040
12.0
1070
   143
1040
0.039
1070
   172
1070
     1
1070
   271
1070
     0
1070
   279
1070
     0
1002
}
  0
DIMENSION
  5
829D
330
19
100
AcDbEntity
  8
3
100
AcDbDimension
280
     0
  2
*D18
 10
2056.1894255111
 20
783.8287983783303
 30
0.0
 11
2145.332282653958
 21
813.8287983783301
 31
0.0
 70
    32
 71
     5
 42
40.0
 73
     0
 74
     0
 75
     0
  3
IGA
100
AcDbAlignedDimension
 13
2016.1894255111
 23
862.3605612350106
 33
0.0
 14
2056.1894255111
 24
862.3605612350106
 34
0.0
100
AcDbRotatedDimension
1001
ACAD
1000
DSTYLE
1002
{
1070
    40
1040
12.0
1070
   143
1040
0.039
1070
   172
1070
     1
1070
   271
1070
     0
1070
   279
1070
     0
1002
}
  0
LINE
  5
82B1
330
19
100
AcDbEntity
  8
1
100
AcDbLine
 10
1636.1894255111
 20
862.3605612350104
 30
0.0
 11
2016.1894255111
 21
862.3605612350106
 31
0.0
  0
LINE
  5
82B2
330
19
100
AcDbEntity
  8
1
100
AcDbLine
 10
2016.1894255111
 20
862.3605612350106
 30
0.0
 11
2016.1894255111
 21
902.3605612350106
 31
0.0
  0
LINE
  5
82B3
330
19
100
AcDbEntity
  8
1
100
AcDbLine
 10
1636.1894255111
 20
862.3605612350104
 30
0.0
 11
1636.1894255111
 21
902.3605612350102
 31
0.0
  0
LINE
  5
82B4
330
19
100
AcDbEntity
  8
1
100
AcDbLine
 10
1636.1894255111
 20
902.3605612350104
 30
0.0
 11
2016.1894255111
 21
902.3605612350106
 31
0.0
  0
LINE
  5
82B5
330
19
100
AcDbEntity
  8
1
100
AcDbLine
 10
513.9604330905495
 20
862.2744673477514
 30
0.0
 11
1133.960433090549
 21
862.2744673477514
 31
0.0
  0
LINE
  5
82B6
330
19
100
AcDbEntity
  8
1
100
AcDbLine
 10
1133.960433090549
 20
902.2744673477514
 30
0.0
 11
1133.960433090549
 21
862.2744673477514
 31
0.0
  0
LINE
  5
82B7
330
19
100
AcDbEntity
  8
1
100
AcDbLine
 10
1133.960433090549
 20
902.2744673477514
 30
0.0
 11
513.9604330905495
 21
902.2744673477509
 31
0.0
  0
LINE
  5
82B8
330
19
100
AcDbEntity
  8
1
100
AcDbLine
 10
513.9604330905495
 20
902.2744673477509
 30
0.0
 11
513.9604330905495
 21
862.2744673477509
 31
0.0
  0
DIMENSION
  5
82C8
330
19
100
AcDbEntity
  8
3
100
AcDbDimension
280
     0
  2
*D19
 10
340.8657297720129
 20
862.2744673477514
 30
0.0
 11
310.8657297720128
 21
773.1316102048944
 31
0.0
 70
    32
 71
     5
 42
39.99999999999955
 73
     0
 74
     0
 75
     0
  3
IGA
100
AcDbAlignedDimension
 13
513.9604330905495
 23
902.2744673477509
 33
0.0
 14
513.9604330905495
 24
862.2744673477514
 34
0.0
 50
90.0
100
AcDbRotatedDimension
1001
ACAD
1000
DSTYLE
1002
{
1070
    40
1040
12.0
1070
   143
1040
0.039
1070
   172
1070
     1
1070
   271
1070
     0
1070
   279
1070
     0
1070
   343
1005
8093
1002
}
  0
DIMENSION
  5
82F3
330
19
100
AcDbEntity
  8
3
100
AcDbDimension
280
     0
  2
*D20
 10
341.0571918849146
 20
972.2744673477508
 30
0.0
 11
302.928208379024
 21
936.2068728898639
 31
0.0
 70
   160
 71
     5
 42
70.0
 73
     0
 74
     0
 75
     0
  3
IGA
100
AcDbAlignedDimension
 13
513.9604330905495
 23
902.2744673477509
 33
0.0
 14
513.9604330905495
 24
972.2744673477508
 34
0.0
 50
90.0
100
AcDbRotatedDimension
1001
ACAD
1000
DSTYLE
1002
{
1070
     3
1000
(<>)
1070
    40
1040
12.0
1070
   143
1040
0.039
1070
   172
1070
     1
1070
   271
1070
     0
1070
   343
1005
8093
1002
}
  0
DIMENSION
  5
8300
330
19
100
AcDbEntity
  8
3
100
AcDbDimension
280
     0
  2
*D21
 10
232.917099025346
 20
862.2744673477514
 30
0.0
 11
193.4885275967745
 21
1121.272787582767
 31
0.0
 70
    32
 71
     5
 42
517.9966404700316
 73
     0
 74
     0
 75
     0
  3
IGA
100
AcDbAlignedDimension
 13
698.9268377908643
 23
1380.271107817783
 33
0.0
 14
513.9604330905495
 24
862.2744673477514
 34
0.0
 50
90.0
100
AcDbRotatedDimension
1001
ACAD
1000
DSTYLE
1002
{
1070
   172
1070
     1
1070
    40
1040
12.0
1070
     3
1000
(<>)
1070
   271
1070
     0
1070
   143
1040
0.039
1002
}
  0
ENDSEC
  0
SECTION
  2
OBJECTS
  0
DICTIONARY
  5
C
330
0
100
AcDbDictionary
281
     1
  3
ACAD_CIP_PREVIOUS_PRODUCT_INFO
350
8362
  3
ACAD_COLOR
350
8345
  3
ACAD_DETAILVIEWSTYLE
350
835E
  3
ACAD_GROUP
350
D
  3
ACAD_LAYOUT
350
8305
  3
ACAD_MATERIAL
350
8313
  3
ACAD_MLEADERSTYLE
350
835A
  3
ACAD_MLINESTYLE
350
E
  3
ACAD_PLOTSETTINGS
350
8306
  3
ACAD_PLOTSTYLENAME
350
8303
  3
ACAD_SCALELIST
350
8348
  3
ACAD_SECTIONVIEWSTYLE
350
835C
  3
ACAD_TABLESTYLE
350
8346
  3
ACAD_VISUALSTYLE
350
832C
  3
ACDB_RECOMPOSE_DATA
350
843B
  3
AcDbVariableDictionary
350
83E5
  0
DICTIONARY
  5
83B8
330
2
100
AcDbDictionary
280
     1
281
     1
  3
ACAD_LAYERSTATES
360
83B9
  0
DICTIONARY
  5
83AB
330
F
100
AcDbDictionary
280
     1
281
     1
  3
ADSK_XREC_LAYER_RECONCILED
360
83AC
  0
DICTIONARY
  5
83AD
330
31
100
AcDbDictionary
280
     1
281
     1
  3
ADSK_XREC_LAYER_RECONCILED
360
83AE
  0
DICTIONARY
  5
83AF
330
76D0
100
AcDbDictionary
280
     1
281
     1
  3
ADSK_XREC_LAYER_RECONCILED
360
83B0
  0
DICTIONARY
  5
83B1
330
76D1
100
AcDbDictionary
280
     1
281
     1
  3
ADSK_XREC_LAYER_RECONCILED
360
83B2
  0
DICTIONARY
  5
83B3
330
76D2
100
AcDbDictionary
280
     1
281
     1
  3
ADSK_XREC_LAYER_RECONCILED
360
83B4
  0
DICTIONARY
  5
8364
330
19
100
AcDbDictionary
280
     1
281
     1
  3
ACAD_SORTENTS
360
8365
  0
XRECORD
  5
8362
102
{ACAD_REACTORS
330
C
102
}
330
C
100
AcDbXrecord
280
     1
300
ACDLT
300
2015
300
INVLTS_F_S
  0
DICTIONARY
  5
8345
102
{ACAD_REACTORS
330
C
102
}
330
C
100
AcDbDictionary
281
     1
  0
DICTIONARY
  5
835E
102
{ACAD_REACTORS
330
C
102
}
330
C
100
AcDbDictionary
281
     1
  3
Metric50
350
835F
  0
DICTIONARY
  5
D
102
{ACAD_REACTORS
330
C
102
}
330
C
100
AcDbDictionary
281
     1
  0
DICTIONARY
  5
8305
102
{ACAD_REACTORS
330
C
102
}
330
C
100
AcDbDictionary
281
     1
  3
Model
350
8307
  3
ﾚｲｱｳﾄ1
350
8308
  0
DICTIONARY
  5
8313
102
{ACAD_REACTORS
330
C
102
}
330
C
100
AcDbDictionary
281
     1
  3
ByBlock
350
831C
  3
ByLayer
350
8314
  3
Global
350
8324
  0
DICTIONARY
  5
835A
102
{ACAD_REACTORS
330
C
102
}
330
C
100
AcDbDictionary
281
     1
  3
Standard
350
835B
  0
DICTIONARY
  5
E
102
{ACAD_REACTORS
330
C
102
}
330
C
100
AcDbDictionary
281
     1
  3
STANDARD
350
1C
  0
DICTIONARY
  5
8306
102
{ACAD_REACTORS
330
C
102
}
330
C
100
AcDbDictionary
281
     1
  0
ACDBDICTIONARYWDFLT
  5
8303
102
{ACAD_REACTORS
330
C
102
}
330
C
100
AcDbDictionary
281
     1
  3
Normal
350
8304
100
AcDbDictionaryWithDefault
340
8304
  0
DICTIONARY
  5
8348
102
{ACAD_REACTORS
330
C
102
}
330
C
100
AcDbDictionary
281
     1
  3
A0
350
8349
  3
A1
350
834A
  3
A2
350
834B
  3
A3
350
834C
  3
A4
350
834D
  3
A5
350
834E
  3
A6
350
834F
  3
A7
350
8350
  3
A8
350
8351
  3
A9
350
8352
  3
B0
350
8353
  3
B1
350
8354
  3
B2
350
8355
  3
B3
350
8356
  3
B4
350
8357
  3
B5
350
8358
  3
B6
350
8359
  0
DICTIONARY
  5
835C
102
{ACAD_REACTORS
330
C
102
}
330
C
100
AcDbDictionary
281
     1
  3
Metric50
350
835D
  0
DICTIONARY
  5
8346
102
{ACAD_REACTORS
330
C
102
}
330
C
100
AcDbDictionary
281
     1
  3
Standard
350
8347
  0
DICTIONARY
  5
832C
102
{ACAD_REACTORS
330
C
102
}
330
C
100
AcDbDictionary
281
     1
  3
2dWireframe
350
8332
  3
Basic
350
8331
  3
Brighten
350
8338
  3
ColorChange
350
833C
  3
Conceptual
350
8335
  3
Dim
350
8337
  3
EdgeColorOff
350
8344
  3
Facepattern
350
833B
  3
Flat
350
832D
  3
FlatWithEdges
350
832E
  3
Gouraud
350
832F
  3
GouraudWithEdges
350
8330
  3
Hidden
350
8334
  3
JitterOff
350
8342
  3
Linepattern
350
833A
  3
OverhangOff
350
8343
  3
Realistic
350
8336
  3
Shaded
350
8341
  3
Shaded with edges
350
8340
  3
Shades of Gray
350
833D
  3
Sketchy
350
833E
  3
Thicken
350
8339
  3
Wireframe
350
8333
  3
X-Ray
350
833F
  0
XRECORD
  5
843B
102
{ACAD_REACTORS
330
C
102
}
330
C
100
AcDbXrecord
280
     1
 90
        1
330
8347
330
835D
330
835F
  0
DICTIONARY
  5
83E5
102
{ACAD_REACTORS
330
C
102
}
330
C
100
AcDbDictionary
281
     1
  3
CANNOSCALE
350
83EB
  3
CMLEADERSTYLE
350
83E7
  3
CTABLESTYLE
350
83E6
  3
CVIEWDETAILSTYLE
350
83E8
  3
CVIEWSECTIONSTYLE
350
83E9
  3
LAYEREVAL
350
83ED
  3
LAYERNOTIFY
350
83EE
  3
LIGHTINGUNITS
350
83EC
  3
MSLTSCALE
350
83EA
  0
DICTIONARY
  5
83B9
102
{ACAD_REACTORS
330
83B8
102
}
330
83B8
100
AcDbDictionary
281
     1
  0
XRECORD
  5
83AC
102
{ACAD_REACTORS
330
83AB
102
}
330
83AB
100
AcDbXrecord
280
     1
290
     1
  0
XRECORD
  5
83AE
102
{ACAD_REACTORS
330
83AD
102
}
330
83AD
100
AcDbXrecord
280
     1
290
     1
  0
XRECORD
  5
83B0
102
{ACAD_REACTORS
330
83AF
102
}
330
83AF
100
AcDbXrecord
280
     1
290
     1
  0
XRECORD
  5
83B2
102
{ACAD_REACTORS
330
83B1
102
}
330
83B1
100
AcDbXrecord
280
     1
290
     1
  0
XRECORD
  5
83B4
102
{ACAD_REACTORS
330
83B3
102
}
330
83B3
100
AcDbXrecord
280
     1
290
     1
  0
SORTENTSTABLE
  5
8365
102
{ACAD_REACTORS
330
8364
102
}
330
8364
100
AcDbSortentsTable
330
19
331
7CED
  5
7CEE
331
7CE9
  5
7CEA
331
7C73
  5
7C74
331
7C6F
  5
7C70
331
7CE5
  5
7CE6
331
7CE1
  5
7CE2
331
7C6B
  5
7C6D
331
7CAA
  5
7CAB
331
7C34
  5
7C34
331
7C30
  5
7C30
331
7EEF
  5
7EF0
331
7EE7
  5
7EE8
331
7CDD
  5
7CDE
331
7CA6
  5
7CA7
331
7C67
  5
7C68
331
7CD9
  5
7CDA
331
7CA2
  5
7CA4
331
7C63
  5
7C67
331
7C5F
  5
7C62
331
7CD5
  5
7CD6
331
7C2C
  5
7C2C
331
7CD1
  5
7CD2
331
7C9A
  5
7C9B
331
7C28
  5
7C28
331
8114
  5
8115
331
8110
  5
8111
331
7CCD
  5
7CCE
331
7C57
  5
7C58
331
7C96
  5
7C97
331
7C92
  5
7C93
331
7C53
  5
7C54
331
82B5
  5
82B6
331
7D04
  5
7D05
331
7C8E
  5
7C8F
331
7C4F
  5
7C50
331
7CC5
  5
7CC6
331
8300
  5
8363
331
82B1
  5
82B2
331
7C8A
  5
7C8B
331
7C4B
  5
7C4C
331
7D00
  5
7D01
331
829D
  5
82B1
331
7C18
  5
7C18
331
7C10
  5
7C10
331
7F02
  5
7F03
331
7CFC
  5
7CFD
331
7CBD
  5
7CBE
331
7C47
  5
7C48
331
7C86
  5
7C87
331
7CB9
  5
7CBA
331
7C82
  5
7C83
331
7C43
  5
7C44
331
7CF8
  5
7CF9
331
7CB5
  5
7CB6
331
7C7E
  5
7C7F
331
7CF4
  5
7CF5
331
7C0C
  5
7C0C
331
7C7A
  5
7C7B
331
7C3B
  5
7C3C
331
7CF0
  5
7CF1
331
7C08
  5
7C08
331
8133
  5
8138
331
7EFE
  5
7EFF
331
7EFA
  5
7EFB
331
7EF6
  5
7EF7
331
7CEC
  5
7CED
331
7C76
  5
7C79
331
7CE8
  5
7CE9
331
7C72
  5
7C73
331
7CAD
  5
7CB2
331
7C6E
  5
7C6F
331
7CE4
  5
7CE5
331
7CE0
  5
7CE1
331
7C6A
  5
7C6B
331
7CA9
  5
7CAA
331
81CE
  5
8274
331
7C37
  5
7C37
331
82C8
  5
82F3
331
8281
  5
828E
331
7EEE
  5
7EEF
331
7CDC
  5
7CDD
331
7CA5
  5
7CA6
331
7CD8
  5
7CD9
331
7C62
  5
7C63
331
7C2F
  5
7C2F
331
7C9D
  5
7C9F
331
7C5E
  5
7C5F
331
7CD4
  5
7CD5
331
7C2B
  5
7C2B
331
7CD0
  5
7CD1
331
7C99
  5
7C9A
331
82B8
  5
82C8
331
8123
  5
8130
331
8113
  5
8114
331
7CCC
  5
7CCD
331
7C95
  5
7C96
331
7C56
  5
7C57
331
7CC8
  5
7CC9
331
7C91
  5
7C92
331
7C52
  5
7C53
331
82B4
  5
82B5
331
7D03
  5
7D04
331
7C8D
  5
7C8E
331
7C4E
  5
7C4F
331
7CC4
  5
7CC5
331
7C4A
  5
7C4B
331
7C89
  5
7C8A
331
7C17
  5
7C17
331
81A6
  5
81C1
331
7C13
  5
7C13
331
810F
  5
8110
331
7F05
  5
810F
331
7F01
  5
7F02
331
7CFF
  5
7D00
331
7CFB
  5
7CFC
331
7C46
  5
7C47
331
7CBC
  5
7CBD
331
7CB8
  5
7CB9
331
7C81
  5
7C82
331
7C42
  5
7C43
331
7CF7
  5
7CF8
331
7C0F
  5
7C0F
331
82F3
  5
8300
331
7CF3
  5
7CF4
331
7C7D
  5
7C7E
331
7C3E
  5
7C40
331
7CB4
  5
7CB5
331
7C79
  5
7C7A
331
7C3A
  5
7C3B
331
8132
  5
8133
331
7EFD
  5
7EFE
331
7EF9
  5
7EFA
331
7EF5
  5
7EF6
331
7EF1
  5
7EF3
331
7CEF
  5
7CF0
331
7CEB
  5
7CEC
331
7C75
  5
7C76
331
7C71
  5
7C72
331
7CE7
  5
7CE8
331
7CAC
  5
7CAD
331
7C6D
  5
7C6E
331
7CE3
  5
7CE4
331
7C69
  5
7C6A
331
7C32
  5
7C32
331
7EED
  5
7EEE
331
7EE9
  5
7EEC
331
7CDF
  5
7CE0
331
7CDB
  5
7CDC
331
7CA4
  5
7CA5
331
7CD7
  5
7CD8
331
7CA0
  5
7CA2
331
7C2E
  5
7C2E
331
8274
  5
8281
331
7C9C
  5
7C9D
331
7CD3
  5
7CD4
331
7C2A
  5
7C2A
331
81C1
  5
81CE
331
7C59
  5
7C5C
331
8116
  5
8123
331
8112
  5
8113
331
7CCF
  5
7CD0
331
7C94
  5
7C95
331
7C55
  5
7C56
331
82B7
  5
82B8
331
7CC7
  5
7CC8
331
7C90
  5
7C91
331
7C51
  5
7C52
331
7D06
  5
7EE7
331
82B3
  5
82B4
331
7D02
  5
7D03
331
7C4D
  5
7C4E
331
7CC3
  5
7CC4
331
7C49
  5
7C4A
331
7C88
  5
7C89
331
81A5
  5
81A6
331
7C12
  5
7C12
331
7F04
  5
7F05
331
7F00
  5
7F01
331
7CFE
  5
7CFF
331
7CBF
  5
7CC2
331
7CFA
  5
7CFB
331
7CBB
  5
7CBC
331
7C45
  5
7C46
331
7CB7
  5
7CB8
331
7CF6
  5
7CF7
331
7CF2
  5
7CF3
331
7C7C
  5
7C7D
331
7C3D
  5
7C3E
331
7CB3
  5
7CB4
331
7C0A
  5
7C0A
331
7C39
  5
7C39
331
8131
  5
8132
331
7EFC
  5
7EFD
331
7EF8
  5
7EF9
331
7EF4
  5
7EF5
331
7EF0
  5
7EF1
331
7CEE
  5
7CEF
331
7CEA
  5
7CEB
331
7C74
  5
7C75
331
7C70
  5
7C71
331
7CE6
  5
7CE7
331
7CE2
  5
7CE3
331
7CAB
  5
7CAC
331
7C68
  5
7C69
331
7C35
  5
7C35
331
7C31
  5
7C31
331
7EEC
  5
7EED
331
7EE8
  5
7EE9
331
7CDE
  5
7CDF
331
7CA7
  5
7CA9
331
7CDA
  5
7CDB
331
7C9F
  5
7CA0
331
7CD6
  5
7CD7
331
7C2D
  5
7C2D
331
7C9B
  5
7C9C
331
7C5C
  5
7C5E
331
7CD2
  5
7CD3
331
7C29
  5
7C29
331
7C58
  5
7C59
331
7C21
  5
7C21
331
8115
  5
8116
331
8111
  5
8112
331
7CCE
  5
7CCF
331
7C97
  5
7C99
331
7C93
  5
7C94
331
7C54
  5
7C55
331
82B6
  5
82B7
331
7CC6
  5
7CC7
331
7C8F
  5
7C90
331
7C50
  5
7C51
331
7D05
  5
7D06
331
82B2
  5
82B3
331
7D01
  5
7D02
331
7C8B
  5
7C8D
331
7C4C
  5
7C4D
331
7CC2
  5
7CC3
331
7C48
  5
7C49
331
7C11
  5
7C11
331
7F03
  5
7F04
331
7CFD
  5
7CFE
331
7CBE
  5
7CBF
331
7C87
  5
7C88
331
7CF9
  5
7CFA
331
7CBA
  5
7CBB
331
7C83
  5
7C86
331
7C44
  5
7C45
331
7CB6
  5
7CB7
331
7C7F
  5
7C81
331
7C40
  5
7C42
331
7CF5
  5
7CF6
331
7C0D
  5
7C0D
331
7CF1
  5
7CF2
331
7C7B
  5
7C7C
331
7C3C
  5
7C3D
331
7CB2
  5
7CB3
331
828E
  5
829D
331
8138
  5
81A5
331
7C38
  5
7C38
331
8130
  5
8131
331
7EFF
  5
7F00
331
7EFB
  5
7EFC
331
7EF7
  5
7EF8
331
7EF3
  5
7EF4
  0
ACDBDETAILVIEWSTYLE
  5
835F
102
{ACAD_XDICTIONARY
360
83E2
102
}
102
{ACAD_REACTORS
330
835E
102
}
330
835E
100
AcDbModelDocViewStyle
 70
     0
  3
Metric50
290
     0
100
AcDbDetailViewStyle
 70
     0
 71
     0
 90
        3
 71
     1
340
10
 62
   256
 40
5.0
340
0
 62
   256
 40
5.0
300

 40
0.0
280
     1
 71
     2
340
15
 90
       25
 62
   256
 71
     3
340
10
 62
   256
 40
5.0
 90
        0
 40
15.0
 90
        1
300
%<\AcVar ViewDetailId>% (%<\AcVar ViewScale \f "%sn">%)
 71
     4
340
15
 90
       25
 62
   256
340
15
 90
       25
 62
   256
280
     0
  0
LAYOUT
  5
8307
102
{ACAD_REACTORS
330
8305
102
}
330
8305
100
AcDbPlotSettings
  1

  2
EPSON LP-9300
  4

  6

 40
0.0
 41
0.0
 42
0.0
 43
0.0
 44
0.0
 45
0.0
 46
0.0
 47
0.0
 48
0.0
 49
0.0
140
0.0
141
0.0
142
1.0
143
1.0
 70
  1712
 72
     0
 73
     0
 74
     0
  7

 75
     0
147
1.0
 76
     0
 77
     2
 78
   300
148
0.0
149
0.0
100
AcDbLayout
  1
Model
 70
     1
 71
     0
 10
0.0
 20
0.0
 11
12.0
 21
9.0
 12
0.0
 22
0.0
 32
0.0
 14
0.0
 24
0.0
 34
0.0
 15
0.0
 25
0.0
 35
0.0
146
0.0
 13
0.0
 23
0.0
 33
0.0
 16
1.0
 26
0.0
 36
0.0
 17
0.0
 27
1.0
 37
0.0
 76
     0
330
19
331
8311
  0
LAYOUT
  5
8308
102
{ACAD_REACTORS
330
8305
102
}
330
8305
100
AcDbPlotSettings
  1

  2
EPSON LP-9300
  4

  6

 40
0.0
 41
0.0
 42
0.0
 43
0.0
 44
0.0
 45
0.0
 46
0.0
 47
0.0
 48
0.0
 49
0.0
140
0.0
141
0.0
142
1.0
143
1.0
 70
   688
 72
     0
 73
     0
 74
     5
  7

 75
    16
147
1.0
 76
     0
 77
     2
 78
   300
148
0.0
149
0.0
100
AcDbLayout
  1
ﾚｲｱｳﾄ1
 70
     1
 71
     1
 10
0.0
 20
0.0
 11
12.0
 21
9.0
 12
0.0
 22
0.0
 32
0.0
 14
1.000000000000000E+20
 24
1.000000000000000E+20
 34
1.000000000000000E+20
 15
-1.000000000000000E+20
 25
-1.000000000000000E+20
 35
-1.000000000000000E+20
146
0.0
 13
0.0
 23
0.0
 33
0.0
 16
1.0
 26
0.0
 36
0.0
 17
0.0
 27
1.0
 37
0.0
 76
     0
330
16
  0
MATERIAL
  5
831C
102
{ACAD_XDICTIONARY
360
831D
102
}
102
{ACAD_REACTORS
330
8313
102
}
330
8313
100
AcDbMaterial
  1
ByBlock
 72
     0
 43
0.0208333333333333
 43
0.0
 43
0.0
 43
0.0
 43
0.0
 43
0.0208333333333333
 43
0.0
 43
0.0
 43
0.0
 43
0.0
 43
1.0
 43
0.0
 43
0.0
 43
0.0
 43
0.0
 43
1.0
 77
     0
 47
0.0208333333333333
 47
0.0
 47
0.0
 47
0.0
 47
0.0
 47
0.0208333333333333
 47
0.0
 47
0.0
 47
0.0
 47
0.0
 47
1.0
 47
0.0
 47
0.0
 47
0.0
 47
0.0
 47
1.0
171
     0
 49
0.0208333333333333
 49
0.0
 49
0.0
 49
0.0
 49
0.0
 49
0.0208333333333333
 49
0.0
 49
0.0
 49
0.0
 49
0.0
 49
1.0
 49
0.0
 49
0.0
 49
0.0
 49
0.0
 49
1.0
175
     0
142
0.0208333333333333
142
0.0
142
0.0
142
0.0
142
0.0
142
0.0208333333333333
142
0.0
142
0.0
142
0.0
142
0.0
142
1.0
142
0.0
142
0.0
142
0.0
142
0.0
142
1.0
179
     0
144
0.0208333333333333
144
0.0
144
0.0
144
0.0
144
0.0
144
0.0208333333333333
144
0.0
144
0.0
144
0.0
144
0.0
144
1.0
144
0.0
144
0.0
144
0.0
144
0.0
144
1.0
147
0.0208333333333333
147
0.0
147
0.0
147
0.0
147
0.0
147
0.0208333333333333
147
0.0
147
0.0
147
0.0
147
0.0
147
1.0
147
0.0
147
0.0
147
0.0
147
0.0
147
1.0
  0
MATERIAL
  5
8314
102
{ACAD_XDICTIONARY
360
8315
102
}
102
{ACAD_REACTORS
330
8313
102
}
330
8313
100
AcDbMaterial
  1
ByLayer
 72
     0
 43
0.0208333333333333
 43
0.0
 43
0.0
 43
0.0
 43
0.0
 43
0.0208333333333333
 43
0.0
 43
0.0
 43
0.0
 43
0.0
 43
1.0
 43
0.0
 43
0.0
 43
0.0
 43
0.0
 43
1.0
 77
     0
 47
0.0208333333333333
 47
0.0
 47
0.0
 47
0.0
 47
0.0
 47
0.0208333333333333
 47
0.0
 47
0.0
 47
0.0
 47
0.0
 47
1.0
 47
0.0
 47
0.0
 47
0.0
 47
0.0
 47
1.0
171
     0
 49
0.0208333333333333
 49
0.0
 49
0.0
 49
0.0
 49
0.0
 49
0.0208333333333333
 49
0.0
 49
0.0
 49
0.0
 49
0.0
 49
1.0
 49
0.0
 49
0.0
 49
0.0
 49
0.0
 49
1.0
175
     0
142
0.0208333333333333
142
0.0
142
0.0
142
0.0
142
0.0
142
0.0208333333333333
142
0.0
142
0.0
142
0.0
142
0.0
142
1.0
142
0.0
142
0.0
142
0.0
142
0.0
142
1.0
179
     0
144
0.0208333333333333
144
0.0
144
0.0
144
0.0
144
0.0
144
0.0208333333333333
144
0.0
144
0.0
144
0.0
144
0.0
144
1.0
144
0.0
144
0.0
144
0.0
144
0.0
144
1.0
147
0.0208333333333333
147
0.0
147
0.0
147
0.0
147
0.0
147
0.0208333333333333
147
0.0
147
0.0
147
0.0
147
0.0
147
1.0
147
0.0
147
0.0
147
0.0
147
0.0
147
1.0
  0
MATERIAL
  5
8324
102
{ACAD_XDICTIONARY
360
8325
102
}
102
{ACAD_REACTORS
330
8313
102
}
330
8313
100
AcDbMaterial
  1
Global
 72
     0
 43
0.0208333333333333
 43
0.0
 43
0.0
 43
0.0
 43
0.0
 43
0.0208333333333333
 43
0.0
 43
0.0
 43
0.0
 43
0.0
 43
1.0
 43
0.0
 43
0.0
 43
0.0
 43
0.0
 43
1.0
 77
     0
 47
0.0208333333333333
 47
0.0
 47
0.0
 47
0.0
 47
0.0
 47
0.0208333333333333
 47
0.0
 47
0.0
 47
0.0
 47
0.0
 47
1.0
 47
0.0
 47
0.0
 47
0.0
 47
0.0
 47
1.0
171
     0
 49
0.0208333333333333
 49
0.0
 49
0.0
 49
0.0
 49
0.0
 49
0.0208333333333333
 49
0.0
 49
0.0
 49
0.0
 49
0.0
 49
1.0
 49
0.0
 49
0.0
 49
0.0
 49
0.0
 49
1.0
175
     0
142
0.0208333333333333
142
0.0
142
0.0
142
0.0
142
0.0
142
0.0208333333333333
142
0.0
142
0.0
142
0.0
142
0.0
142
1.0
142
0.0
142
0.0
142
0.0
142
0.0
142
1.0
179
     0
144
0.0208333333333333
144
0.0
144
0.0
144
0.0
144
0.0
144
0.0208333333333333
144
0.0
144
0.0
144
0.0
144
0.0
144
1.0
144
0.0
144
0.0
144
0.0
144
0.0
144
1.0
147
0.0208333333333333
147
0.0
147
0.0
147
0.0
147
0.0
147
0.0208333333333333
147
0.0
147
0.0
147
0.0
147
0.0
147
1.0
147
0.0
147
0.0
147
0.0
147
0.0
147
1.0
  0
MLEADERSTYLE
  5
835B
102
{ACAD_REACTORS
330
835A
102
}
330
835A
100
AcDbMLeaderStyle
179
     2
170
     2
171
     1
172
     0
 90
        2
 40
0.0
 41
0.0
173
     1
 91
-1056964608
340
13
 92
       -2
290
     1
 42
2.0
291
     1
 43
0.36
  3
Standard
 44
4.0
300

342
10
174
     1
178
     6
175
     1
176
     0
 93
-1056964608
 45
4.0
292
     0
297
     0
 46
4.0
 94
-1056964608
 47
1.0
 49
1.0
140
1.0
293
     1
141
0.0
294
     1
177
     0
142
1.0
295
     1
296
     0
143
0.125
271
     0
272
     9
273
     9
298
     1
  0
MLINESTYLE
  5
1C
102
{ACAD_REACTORS
330
E
102
}
330
E
100
AcDbMlineStyle
  2
STANDARD
 70
     0
  3

 62
     0
 51
90.0
 52
90.0
 71
     2
 49
0.5
 62
   256
  6
BYLAYER
 49
-0.5
 62
   256
  6
BYLAYER
  0
ACDBPLACEHOLDER
  5
8304
102
{ACAD_REACTORS
330
8303
102
}
330
8303
  0
SCALE
  5
8349
102
{ACAD_REACTORS
330
8348
102
}
330
8348
100
AcDbScale
 70
     0
300
1:1
140
1.0
141
1.0
290
     1
  0
SCALE
  5
834A
102
{ACAD_REACTORS
330
8348
102
}
330
8348
100
AcDbScale
 70
     0
300
1:2
140
1.0
141
2.0
290
     0
  0
SCALE
  5
834B
102
{ACAD_REACTORS
330
8348
102
}
330
8348
100
AcDbScale
 70
     0
300
1:4
140
1.0
141
4.0
290
     0
  0
SCALE
  5
834C
102
{ACAD_REACTORS
330
8348
102
}
330
8348
100
AcDbScale
 70
     0
300
1:5
140
1.0
141
5.0
290
     0
  0
SCALE
  5
834D
102
{ACAD_REACTORS
330
8348
102
}
330
8348
100
AcDbScale
 70
     0
300
1:8
140
1.0
141
8.0
290
     0
  0
SCALE
  5
834E
102
{ACAD_REACTORS
330
8348
102
}
330
8348
100
AcDbScale
 70
     0
300
1:10
140
1.0
141
10.0
290
     0
  0
SCALE
  5
834F
102
{ACAD_REACTORS
330
8348
102
}
330
8348
100
AcDbScale
 70
     0
300
1:16
140
1.0
141
16.0
290
     0
  0
SCALE
  5
8350
102
{ACAD_REACTORS
330
8348
102
}
330
8348
100
AcDbScale
 70
     0
300
1:20
140
1.0
141
20.0
290
     0
  0
SCALE
  5
8351
102
{ACAD_REACTORS
330
8348
102
}
330
8348
100
AcDbScale
 70
     0
300
1:30
140
1.0
141
30.0
290
     0
  0
SCALE
  5
8352
102
{ACAD_REACTORS
330
8348
102
}
330
8348
100
AcDbScale
 70
     0
300
1:40
140
1.0
141
40.0
290
     0
  0
SCALE
  5
8353
102
{ACAD_REACTORS
330
8348
102
}
330
8348
100
AcDbScale
 70
     0
300
1:50
140
1.0
141
50.0
290
     0
  0
SCALE
  5
8354
102
{ACAD_REACTORS
330
8348
102
}
330
8348
100
AcDbScale
 70
     0
300
1:100
140
1.0
141
100.0
290
     0
  0
SCALE
  5
8355
102
{ACAD_REACTORS
330
8348
102
}
330
8348
100
AcDbScale
 70
     0
300
2:1
140
2.0
141
1.0
290
     0
  0
SCALE
  5
8356
102
{ACAD_REACTORS
330
8348
102
}
330
8348
100
AcDbScale
 70
     0
300
4:1
140
4.0
141
1.0
290
     0
  0
SCALE
  5
8357
102
{ACAD_REACTORS
330
8348
102
}
330
8348
100
AcDbScale
 70
     0
300
8:1
140
8.0
141
1.0
290
     0
  0
SCALE
  5
8358
102
{ACAD_REACTORS
330
8348
102
}
330
8348
100
AcDbScale
 70
     0
300
10:1
140
10.0
141
1.0
290
     0
  0
SCALE
  5
8359
102
{ACAD_REACTORS
330
8348
102
}
330
8348
100
AcDbScale
 70
     0
300
100:1
140
100.0
141
1.0
290
     0
  0
ACDBSECTIONVIEWSTYLE
  5
835D
102
{ACAD_XDICTIONARY
360
83E0
102
}
102
{ACAD_REACTORS
330
835C
102
}
330
835C
100
AcDbModelDocViewStyle
 70
     0
  3
Metric50
290
     0
100
AcDbSectionViewStyle
 70
     0
 71
     0
 90
      102
 71
     1
340
10
 62
   256
 40
5.0
340
0
340
0
 62
   256
 40
5.0
300
I, O, Q, S, X, Z
 40
10.0
 90
        0
 40
2.5
 90
        0
 71
     2
340
15
 90
       25
 62
   256
340
15
 90
       50
 62
   256
 40
5.0
 40
2.5
 40
5.0
 71
     3
340
10
 62
   256
 40
5.0
 90
        0
 40
15.0
 90
        1
300
%<\AcVar ViewSectionStartId>%-%<\AcVar ViewSectionEndId>% (%<\AcVar ViewScale \f "%sn">%)
 71
     4
 62
   256
 62
   257
300
ANSI31
 40
1.0
 90
        0
290
     0
290
     0
 90
        6
 40
0.0
 40
1.570796326794896
 40
0.2617993877991494
 40
1.308996938995747
 40
-0.2617993877991494
 40
1.832595714594046
  0
TABLESTYLE
  5
8347
102
{ACAD_XDICTIONARY
360
8437
102
}
102
{ACAD_REACTORS
330
8346
102
}
330
8346
100
AcDbTableStyle
280
     0
  3
Standard
 70
     0
 71
     0
 40
1.5
 41
1.5
280
     0
281
     0
  7
STANDARD
140
4.5
170
     2
 62
     0
 63
     7
283
     0
 90
      512
 91
        0
  1

274
    -2
284
     1
 64
     0
275
    -2
285
     1
 65
     0
276
    -2
286
     1
 66
     0
277
    -2
287
     1
 67
     0
278
    -2
288
     1
 68
     0
279
    -2
289
     1
 69
     0
  7
STANDARD
140
6.0
170
     5
 62
     0
 63
     7
283
     0
 90
      512
 91
        0
  1

274
    -2
284
     1
 64
     0
275
    -2
285
     1
 65
     0
276
    -2
286
     1
 66
     0
277
    -2
287
     1
 67
     0
278
    -2
288
     1
 68
     0
279
    -2
289
     1
 69
     0
  7
STANDARD
140
4.5
170
     5
 62
     0
 63
     7
283
     0
 90
      512
 91
        0
  1

274
    -2
284
     1
 64
     0
275
    -2
285
     1
 65
     0
276
    -2
286
     1
 66
     0
277
    -2
287
     1
 67
     0
278
    -2
288
     1
 68
     0
279
    -2
289
     1
 69
     0
  0
VISUALSTYLE
  5
8332
102
{ACAD_REACTORS
330
832C
102
}
330
832C
100
AcDbVisualStyle
  2
2dWireframe
 70
     4
177
     3
291
     0
 70
    58
 90
        0
176
     1
 90
        2
176
     1
 90
        0
176
     1
 90
        0
176
     1
 40
0.6
176
     1
 40
30.0
176
     1
 62
     7
420
 16777215
176
     1
 90
        1
176
     1
 90
        4
176
     1
 62
     7
176
     1
 62
   257
176
     1
 90
        1
176
     1
 90
        1
176
     1
 40
1.0
176
     1
 90
        0
176
     1
 62
   257
176
     1
 40
1.0
176
     1
 90
        1
176
     1
 90
        6
176
     1
 90
        2
176
     1
 62
     7
176
     1
 90
        5
176
     1
 90
        0
176
     1
 90
        0
176
     1
290
     0
176
     1
 90
        1
176
     1
 40
0.0
176
     1
 90
        0
176
     1
290
     1
176
     1
290
     1
176
     1
290
     0
176
     1
290
     0
176
     1
290
     0
176
     1
290
     0
176
     1
290
     0
176
     1
290
     0
176
     1
290
     0
176
     1
 90
       50
176
     1
 40
0.0
176
     1
 40
1.0
176
     1
 90
        0
176
     1
 62
    18
420
        0
176
     1
 90
       50
176
     1
 90
        3
176
     1
 62
     5
420
      255
176
     1
290
     0
176
     1
 90
       50
176
     1
 90
       50
176
     1
 90
       50
176
     1
290
     0
176
     1
 90
       50
176
     1
 62
   256
176
     0
 40
1.0
176
     0
 90
        2
176
     1
  1
strokes_ogs.tif
176
     1
290
     0
176
     1
 40
1.0
176
     1
 40
1.0
176
     1
  0
VISUALSTYLE
  5
8331
102
{ACAD_REACTORS
330
832C
102
}
330
832C
100
AcDbVisualStyle
  2
Basic
 70
     7
177
     3
291
     1
 70
    58
 90
        1
176
     1
 90
        0
176
     1
 90
        1
176
     1
 90
        0
176
     1
 40
0.6
176
     1
 40
30.0
176
     1
 62
     7
420
 16777215
176
     1
 90
        0
176
     1
 90
        4
176
     1
 62
     7
176
     1
 62
   257
176
     1
 90
        1
176
     1
 90
        1
176
     1
 40
1.0
176
     1
 90
        8
176
     1
 62
     7
176
     1
 40
1.0
176
     1
 90
        1
176
     1
 90
        6
176
     1
 90
        2
176
     1
 62
     7
176
     1
 90
        5
176
     1
 90
        0
176
     1
 90
        0
176
     1
290
     0
176
     1
 90
        1
176
     1
 40
0.0
176
     1
 90
        0
176
     1
290
     0
176
     1
290
     1
176
     1
290
     1
176
     1
290
     0
176
     1
290
     0
176
     1
290
     0
176
     1
290
     0
176
     1
290
     0
176
     1
290
     0
176
     1
 90
       50
176
     1
 40
0.0
176
     1
 40
1.0
176
     1
 90
        0
176
     1
 62
    18
420
        0
176
     1
 90
       50
176
     1
 90
        3
176
     1
 62
     5
420
      255
176
     1
290
     0
176
     1
 90
       50
176
     1
 90
       50
176
     1
 90
       50
176
     1
290
     0
176
     1
 90
       50
176
     1
 62
   256
176
     0
 40
1.0
176
     0
 90
        2
176
     1
  1
strokes_ogs.tif
176
     1
290
     0
176
     1
 40
1.0
176
     1
 40
1.0
176
     1
  0
VISUALSTYLE
  5
8338
102
{ACAD_REACTORS
330
832C
102
}
330
832C
100
AcDbVisualStyle
  2
Brighten
 70
    12
177
     3
291
     1
 70
    58
 90
        2
176
     1
 90
        2
176
     1
 90
        0
176
     1
 90
        0
176
     1
 40
0.6
176
     1
 40
30.0
176
     1
 62
     7
420
 16777215
176
     1
 90
        1
176
     1
 90
        4
176
     1
 62
     7
176
     1
 62
   257
176
     1
 90
        1
176
     1
 90
        1
176
     1
 40
1.0
176
     1
 90
        8
176
     1
 62
     7
176
     1
 40
1.0
176
     1
 90
        1
176
     1
 90
        6
176
     1
 90
        2
176
     1
 62
     7
176
     1
 90
        5
176
     1
 90
        0
176
     1
 90
        0
176
     1
290
     0
176
     1
 90
        1
176
     1
 40
50.0
176
     1
 90
        0
176
     1
290
     0
176
     1
290
     1
176
     1
290
     1
176
     1
290
     0
176
     1
290
     0
176
     1
290
     0
176
     1
290
     0
176
     1
290
     0
176
     1
290
     0
176
     1
 90
       50
176
     1
 40
0.0
176
     1
 40
1.0
176
     1
 90
        0
176
     1
 62
    18
420
        0
176
     1
 90
       50
176
     1
 90
        3
176
     1
 62
     5
420
      255
176
     1
290
     0
176
     1
 90
       50
176
     1
 90
       50
176
     1
 90
       50
176
     1
290
     0
176
     1
 90
       50
176
     1
 62
   256
176
     0
 40
1.0
176
     0
 90
        2
176
     1
  1
strokes_ogs.tif
176
     1
290
     0
176
     1
 40
1.0
176
     1
 40
1.0
176
     1
  0
VISUALSTYLE
  5
833C
102
{ACAD_REACTORS
330
832C
102
}
330
832C
100
AcDbVisualStyle
  2
ColorChange
 70
    16
177
     3
291
     1
 70
    58
 90
        2
176
     1
 90
        2
176
     1
 90
        3
176
     1
 90
        0
176
     1
 40
0.6
176
     1
 40
30.0
176
     1
 62
     8
420
  8421504
176
     1
 90
        1
176
     1
 90
        4
176
     1
 62
     7
176
     1
 62
   257
176
     1
 90
        1
176
     1
 90
        1
176
     1
 40
1.0
176
     1
 90
        8
176
     1
 62
     8
420
  8421504
176
     1
 40
1.0
176
     1
 90
        1
176
     1
 90
        6
176
     1
 90
        2
176
     1
 62
     7
176
     1
 90
        5
176
     1
 90
        0
176
     1
 90
        0
176
     1
290
     0
176
     1
 90
        1
176
     1
 40
0.0
176
     1
 90
        0
176
     1
290
     0
176
     1
290
     1
176
     1
290
     1
176
     1
290
     0
176
     1
290
     0
176
     1
290
     0
176
     1
290
     0
176
     1
290
     0
176
     1
290
     0
176
     1
 90
       50
176
     1
 40
0.0
176
     1
 40
1.0
176
     1
 90
        0
176
     1
 62
    18
420
        0
176
     1
 90
       50
176
     1
 90
        3
176
     1
 62
     5
420
      255
176
     1
290
     0
176
     1
 90
       50
176
     1
 90
       50
176
     1
 90
       50
176
     1
290
     0
176
     1
 90
       50
176
     1
 62
   256
176
     0
 40
1.0
176
     0
 90
        2
176
     1
  1
strokes_ogs.tif
176
     1
290
     0
176
     1
 40
1.0
176
     1
 40
1.0
176
     1
  0
VISUALSTYLE
  5
8335
102
{ACAD_REACTORS
330
832C
102
}
330
832C
100
AcDbVisualStyle
  2
Conceptual
 70
     9
177
     3
291
     0
 70
    58
 90
        3
176
     1
 90
        2
176
     1
 90
        0
176
     1
 90
        0
176
     1
 40
0.6
176
     1
 40
30.0
176
     1
 62
     7
420
 16777215
176
     1
 90
        2
176
     1
 90
        2
176
     1
 62
     7
176
     1
 62
   257
176
     1
 90
        1
176
     1
 90
        1
176
     1
 40
179.0
176
     1
 90
        8
176
     1
 62
     7
176
     1
 40
1.0
176
     1
 90
        1
176
     1
 90
        6
176
     1
 90
        2
176
     1
 62
     7
176
     1
 90
        3
176
     1
 90
        0
176
     1
 90
        0
176
     1
290
     0
176
     1
 90
        1
176
     1
 40
0.0
176
     1
 90
        0
176
     1
290
     0
176
     1
290
     1
176
     1
290
     1
176
     1
290
     0
176
     1
290
     0
176
     1
290
     0
176
     1
290
     0
176
     1
290
     0
176
     1
290
     0
176
     1
 90
       50
176
     1
 40
0.0
176
     1
 40
1.0
176
     1
 90
        0
176
     1
 62
    18
420
        0
176
     1
 90
       50
176
     1
 90
        3
176
     1
 62
     5
420
      255
176
     1
290
     0
176
     1
 90
       50
176
     1
 90
       50
176
     1
 90
       50
176
     1
290
     0
176
     1
 90
       50
176
     1
 62
   256
176
     0
 40
1.0
176
     0
 90
        2
176
     1
  1
strokes_ogs.tif
176
     1
290
     0
176
     1
 40
1.0
176
     1
 40
1.0
176
     1
  0
VISUALSTYLE
  5
8337
102
{ACAD_REACTORS
330
832C
102
}
330
832C
100
AcDbVisualStyle
  2
Dim
 70
    11
177
     3
291
     1
 70
    58
 90
        2
176
     1
 90
        2
176
     1
 90
        0
176
     1
 90
        0
176
     1
 40
0.6
176
     1
 40
30.0
176
     1
 62
     7
420
 16777215
176
     1
 90
        1
176
     1
 90
        4
176
     1
 62
     7
176
     1
 62
   257
176
     1
 90
        1
176
     1
 90
        1
176
     1
 40
1.0
176
     1
 90
        8
176
     1
 62
     7
176
     1
 40
1.0
176
     1
 90
        1
176
     1
 90
        6
176
     1
 90
        2
176
     1
 62
     7
176
     1
 90
        5
176
     1
 90
        0
176
     1
 90
        0
176
     1
290
     0
176
     1
 90
        1
176
     1
 40
-50.0
176
     1
 90
        0
176
     1
290
     0
176
     1
290
     1
176
     1
290
     1
176
     1
290
     0
176
     1
290
     0
176
     1
290
     0
176
     1
290
     0
176
     1
290
     0
176
     1
290
     0
176
     1
 90
       50
176
     1
 40
0.0
176
     1
 40
1.0
176
     1
 90
        0
176
     1
 62
    18
420
        0
176
     1
 90
       50
176
     1
 90
        3
176
     1
 62
     5
420
      255
176
     1
290
     0
176
     1
 90
       50
176
     1
 90
       50
176
     1
 90
       50
176
     1
290
     0
176
     1
 90
       50
176
     1
 62
   256
176
     0
 40
1.0
176
     0
 90
        2
176
     1
  1
strokes_ogs.tif
176
     1
290
     0
176
     1
 40
1.0
176
     1
 40
1.0
176
     1
  0
VISUALSTYLE
  5
8344
102
{ACAD_REACTORS
330
832C
102
}
330
832C
100
AcDbVisualStyle
  2
EdgeColorOff
 70
    22
177
     3
291
     1
 70
    58
 90
        2
176
     0
 90
        2
176
     0
 90
        0
176
     0
 90
        0
176
     0
 40
0.6
176
     0
 40
30.0
176
     0
 62
     7
420
 16777215
176
     0
 90
        1
176
     0
 90
        4
176
     0
 62
     7
176
     0
 62
   257
176
     0
 90
        1
176
     0
 90
        1
176
     0
 40
1.0
176
     0
 90
        8
176
     2
 62
     7
176
     0
 40
1.0
176
     0
 90
        1
176
     0
 90
        6
176
     0
 90
        2
176
     0
 62
     7
176
     0
 90
        5
176
     0
 90
        0
176
     0
 90
        0
176
     0
290
     0
176
     0
 90
        1
176
     0
 40
0.0
176
     0
 90
        0
176
     0
290
     0
176
     0
290
     1
176
     0
290
     1
176
     0
290
     0
176
     0
290
     0
176
     0
290
     0
176
     0
290
     0
176
     0
290
     0
176
     0
290
     0
176
     0
 90
       50
176
     0
 40
0.0
176
     0
 40
1.0
176
     0
 90
        0
176
     0
 62
    18
420
        0
176
     0
 90
       50
176
     0
 90
        3
176
     0
 62
     5
420
      255
176
     0
290
     0
176
     0
 90
       50
176
     0
 90
       50
176
     0
 90
       50
176
     0
290
     0
176
     0
 90
       50
176
     0
 62
   256
176
     0
 40
1.0
176
     0
 90
        2
176
     0
  1
strokes_ogs.tif
176
     0
290
     0
176
     0
 40
1.0
176
     0
 40
1.0
176
     0
  0
VISUALSTYLE
  5
833B
102
{ACAD_REACTORS
330
832C
102
}
330
832C
100
AcDbVisualStyle
  2
Facepattern
 70
    15
177
     3
291
     1
 70
    58
 90
        2
176
     1
 90
        2
176
     1
 90
        0
176
     1
 90
        0
176
     1
 40
0.6
176
     1
 40
30.0
176
     1
 62
     7
420
 16777215
176
     1
 90
        1
176
     1
 90
        4
176
     1
 62
     7
176
     1
 62
   257
176
     1
 90
        1
176
     1
 90
        1
176
     1
 40
1.0
176
     1
 90
        8
176
     1
 62
     7
176
     1
 40
1.0
176
     1
 90
        1
176
     1
 90
        6
176
     1
 90
        2
176
     1
 62
     7
176
     1
 90
        5
176
     1
 90
        0
176
     1
 90
        0
176
     1
290
     0
176
     1
 90
        1
176
     1
 40
0.0
176
     1
 90
        0
176
     1
290
     0
176
     1
290
     1
176
     1
290
     1
176
     1
290
     0
176
     1
290
     0
176
     1
290
     0
176
     1
290
     0
176
     1
290
     0
176
     1
290
     0
176
     1
 90
       50
176
     1
 40
0.0
176
     1
 40
1.0
176
     1
 90
        0
176
     1
 62
    18
420
        0
176
     1
 90
       50
176
     1
 90
        3
176
     1
 62
     5
420
      255
176
     1
290
     0
176
     1
 90
       50
176
     1
 90
       50
176
     1
 90
       50
176
     1
290
     0
176
     1
 90
       50
176
     1
 62
   256
176
     0
 40
1.0
176
     0
 90
        2
176
     1
  1
strokes_ogs.tif
176
     1
290
     0
176
     1
 40
1.0
176
     1
 40
1.0
176
     1
  0
VISUALSTYLE
  5
832D
102
{ACAD_REACTORS
330
832C
102
}
330
832C
100
AcDbVisualStyle
  2
Flat
 70
     0
177
     3
291
     1
 70
    58
 90
        2
176
     1
 90
        1
176
     1
 90
        1
176
     1
 90
        2
176
     1
 40
0.6
176
     1
 40
30.0
176
     1
 62
     7
420
 16777215
176
     1
 90
        0
176
     1
 90
        0
176
     1
 62
     7
176
     1
 62
   257
176
     1
 90
        1
176
     1
 90
        1
176
     1
 40
1.0
176
     1
 90
        8
176
     1
 62
     7
176
     1
 40
1.0
176
     1
 90
        1
176
     1
 90
        6
176
     1
 90
        2
176
     1
 62
     7
176
     1
 90
        5
176
     1
 90
        0
176
     1
 90
        0
176
     1
290
     0
176
     1
 90
       13
176
     1
 40
0.0
176
     1
 90
        0
176
     1
290
     0
176
     1
290
     1
176
     1
290
     1
176
     1
290
     0
176
     1
290
     0
176
     1
290
     0
176
     1
290
     0
176
     1
290
     0
176
     1
290
     0
176
     1
 90
       50
176
     1
 40
0.0
176
     1
 40
1.0
176
     1
 90
        0
176
     1
 62
    18
420
        0
176
     1
 90
       50
176
     1
 90
        3
176
     1
 62
     5
420
      255
176
     1
290
     0
176
     1
 90
       50
176
     1
 90
       50
176
     1
 90
       50
176
     1
290
     0
176
     1
 90
       50
176
     1
 62
   256
176
     0
 40
1.0
176
     0
 90
        2
176
     1
  1
strokes_ogs.tif
176
     1
290
     0
176
     1
 40
1.0
176
     1
 40
1.0
176
     1
  0
VISUALSTYLE
  5
832E
102
{ACAD_REACTORS
330
832C
102
}
330
832C
100
AcDbVisualStyle
  2
FlatWithEdges
 70
     1
177
     3
291
     1
 70
    58
 90
        2
176
     1
 90
        1
176
     1
 90
        1
176
     1
 90
        2
176
     1
 40
0.6
176
     1
 40
30.0
176
     1
 62
     7
420
 16777215
176
     1
 90
        1
176
     1
 90
        0
176
     1
 62
     7
176
     1
 62
   257
176
     1
 90
        1
176
     1
 90
        1
176
     1
 40
1.0
176
     1
 90
        0
176
     1
 62
   257
176
     1
 40
1.0
176
     1
 90
        1
176
     1
 90
        6
176
     1
 90
        2
176
     1
 62
     7
176
     1
 90
        5
176
     1
 90
        0
176
     1
 90
        0
176
     1
290
     0
176
     1
 90
       13
176
     1
 40
0.0
176
     1
 90
        0
176
     1
290
     0
176
     1
290
     1
176
     1
290
     1
176
     1
290
     0
176
     1
290
     0
176
     1
290
     0
176
     1
290
     0
176
     1
290
     0
176
     1
290
     0
176
     1
 90
       50
176
     1
 40
0.0
176
     1
 40
1.0
176
     1
 90
        0
176
     1
 62
    18
420
        0
176
     1
 90
       50
176
     1
 90
        3
176
     1
 62
     5
420
      255
176
     1
290
     0
176
     1
 90
       50
176
     1
 90
       50
176
     1
 90
       50
176
     1
290
     0
176
     1
 90
       50
176
     1
 62
   256
176
     0
 40
1.0
176
     0
 90
        2
176
     1
  1
strokes_ogs.tif
176
     1
290
     0
176
     1
 40
1.0
176
     1
 40
1.0
176
     1
  0
VISUALSTYLE
  5
832F
102
{ACAD_REACTORS
330
832C
102
}
330
832C
100
AcDbVisualStyle
  2
Gouraud
 70
     2
177
     3
291
     1
 70
    58
 90
        2
176
     1
 90
        2
176
     1
 90
        1
176
     1
 90
        2
176
     1
 40
0.6
176
     1
 40
30.0
176
     1
 62
     7
420
 16777215
176
     1
 90
        0
176
     1
 90
        0
176
     1
 62
     7
176
     1
 62
   257
176
     1
 90
        1
176
     1
 90
        1
176
     1
 40
1.0
176
     1
 90
        0
176
     1
 62
     7
176
     1
 40
1.0
176
     1
 90
        1
176
     1
 90
        6
176
     1
 90
        2
176
     1
 62
     7
176
     1
 90
        5
176
     1
 90
        0
176
     1
 90
        0
176
     1
290
     0
176
     1
 90
       13
176
     1
 40
0.0
176
     1
 90
        0
176
     1
290
     0
176
     1
290
     1
176
     1
290
     1
176
     1
290
     0
176
     1
290
     0
176
     1
290
     0
176
     1
290
     0
176
     1
290
     0
176
     1
290
     0
176
     1
 90
       50
176
     1
 40
0.0
176
     1
 40
1.0
176
     1
 90
        0
176
     1
 62
    18
420
        0
176
     1
 90
       50
176
     1
 90
        3
176
     1
 62
     5
420
      255
176
     1
290
     0
176
     1
 90
       50
176
     1
 90
       50
176
     1
 90
       50
176
     1
290
     0
176
     1
 90
       50
176
     1
 62
   256
176
     0
 40
1.0
176
     0
 90
        2
176
     1
  1
strokes_ogs.tif
176
     1
290
     0
176
     1
 40
1.0
176
     1
 40
1.0
176
     1
  0
VISUALSTYLE
  5
8330
102
{ACAD_REACTORS
330
832C
102
}
330
832C
100
AcDbVisualStyle
  2
GouraudWithEdges
 70
     3
177
     3
291
     1
 70
    58
 90
        2
176
     1
 90
        2
176
     1
 90
        1
176
     1
 90
        2
176
     1
 40
0.6
176
     1
 40
30.0
176
     1
 62
     7
420
 16777215
176
     1
 90
        1
176
     1
 90
        0
176
     1
 62
     7
176
     1
 62
   257
176
     1
 90
        1
176
     1
 90
        1
176
     1
 40
1.0
176
     1
 90
        0
176
     1
 62
   257
176
     1
 40
1.0
176
     1
 90
        1
176
     1
 90
        6
176
     1
 90
        2
176
     1
 62
     7
176
     1
 90
        5
176
     1
 90
        0
176
     1
 90
        0
176
     1
290
     0
176
     1
 90
       13
176
     1
 40
0.0
176
     1
 90
        0
176
     1
290
     0
176
     1
290
     1
176
     1
290
     1
176
     1
290
     0
176
     1
290
     0
176
     1
290
     0
176
     1
290
     0
176
     1
290
     0
176
     1
290
     0
176
     1
 90
       50
176
     1
 40
0.0
176
     1
 40
1.0
176
     1
 90
        0
176
     1
 62
    18
420
        0
176
     1
 90
       50
176
     1
 90
        3
176
     1
 62
     5
420
      255
176
     1
290
     0
176
     1
 90
       50
176
     1
 90
       50
176
     1
 90
       50
176
     1
290
     0
176
     1
 90
       50
176
     1
 62
   256
176
     0
 40
1.0
176
     0
 90
        2
176
     1
  1
strokes_ogs.tif
176
     1
290
     0
176
     1
 40
1.0
176
     1
 40
1.0
176
     1
  0
VISUALSTYLE
  5
8334
102
{ACAD_REACTORS
330
832C
102
}
330
832C
100
AcDbVisualStyle
  2
Hidden
 70
     6
177
     3
291
     0
 70
    58
 90
        1
176
     1
 90
        2
176
     1
 90
        2
176
     1
 90
        0
176
     1
 40
0.6
176
     1
 40
30.0
176
     1
 62
     7
420
 16777215
176
     1
 90
        2
176
     1
 90
        2
176
     1
 62
     7
176
     1
 62
   257
176
     1
 90
        2
176
     1
 90
        1
176
     1
 40
40.0
176
     1
 90
        0
176
     1
 62
   257
176
     1
 40
1.0
176
     1
 90
        1
176
     1
 90
        6
176
     1
 90
        2
176
     1
 62
     7
176
     1
 90
        3
176
     1
 90
        0
176
     1
 90
        0
176
     1
290
     0
176
     1
 90
        1
176
     1
 40
0.0
176
     1
 90
        0
176
     1
290
     0
176
     1
290
     1
176
     1
290
     1
176
     1
290
     0
176
     1
290
     0
176
     1
290
     0
176
     1
290
     0
176
     1
290
     0
176
     1
290
     0
176
     1
 90
       50
176
     1
 40
0.0
176
     1
 40
1.0
176
     1
 90
        0
176
     1
 62
    18
420
        0
176
     1
 90
       50
176
     1
 90
        3
176
     1
 62
     5
420
      255
176
     1
290
     0
176
     1
 90
       50
176
     1
 90
       50
176
     1
 90
       50
176
     1
290
     0
176
     1
 90
       50
176
     1
 62
   256
176
     0
 40
1.0
176
     0
 90
        2
176
     1
  1
strokes_ogs.tif
176
     1
290
     0
176
     1
 40
1.0
176
     1
 40
1.0
176
     1
  0
VISUALSTYLE
  5
8342
102
{ACAD_REACTORS
330
832C
102
}
330
832C
100
AcDbVisualStyle
  2
JitterOff
 70
    20
177
     3
291
     1
 70
    58
 90
        2
176
     0
 90
        2
176
     0
 90
        0
176
     0
 90
        0
176
     0
 40
0.6
176
     0
 40
30.0
176
     0
 62
     7
420
 16777215
176
     0
 90
        1
176
     0
 90
        4
176
     0
 62
     7
176
     0
 62
   257
176
     0
 90
        1
176
     0
 90
        1
176
     0
 40
1.0
176
     0
 90
       10
176
     2
 62
     7
176
     0
 40
1.0
176
     0
 90
        1
176
     0
 90
        6
176
     0
 90
        2
176
     0
 62
     7
176
     0
 90
        5
176
     0
 90
        0
176
     0
 90
        0
176
     0
290
     0
176
     0
 90
        1
176
     0
 40
0.0
176
     0
 90
        0
176
     0
290
     0
176
     0
290
     1
176
     0
290
     1
176
     0
290
     0
176
     0
290
     0
176
     0
290
     0
176
     0
290
     0
176
     0
290
     0
176
     0
290
     0
176
     0
 90
       50
176
     0
 40
0.0
176
     0
 40
1.0
176
     0
 90
        0
176
     0
 62
    18
420
        0
176
     0
 90
       50
176
     0
 90
        3
176
     0
 62
     5
420
      255
176
     0
290
     0
176
     0
 90
       50
176
     0
 90
       50
176
     0
 90
       50
176
     0
290
     0
176
     0
 90
       50
176
     0
 62
   256
176
     0
 40
1.0
176
     0
 90
        2
176
     0
  1
strokes_ogs.tif
176
     0
290
     0
176
     0
 40
1.0
176
     0
 40
1.0
176
     0
  0
VISUALSTYLE
  5
833A
102
{ACAD_REACTORS
330
832C
102
}
330
832C
100
AcDbVisualStyle
  2
Linepattern
 70
    14
177
     3
291
     1
 70
    58
 90
        2
176
     1
 90
        2
176
     1
 90
        0
176
     1
 90
        0
176
     1
 40
0.6
176
     1
 40
30.0
176
     1
 62
     7
420
 16777215
176
     1
 90
        1
176
     1
 90
        4
176
     1
 62
     7
176
     1
 62
   257
176
     1
 90
        7
176
     1
 90
        7
176
     1
 40
1.0
176
     1
 90
        8
176
     1
 62
     7
176
     1
 40
1.0
176
     1
 90
        1
176
     1
 90
        6
176
     1
 90
        2
176
     1
 62
     7
176
     1
 90
        5
176
     1
 90
        0
176
     1
 90
        0
176
     1
290
     0
176
     1
 90
        1
176
     1
 40
0.0
176
     1
 90
        0
176
     1
290
     0
176
     1
290
     1
176
     1
290
     1
176
     1
290
     0
176
     1
290
     0
176
     1
290
     0
176
     1
290
     0
176
     1
290
     0
176
     1
290
     0
176
     1
 90
       50
176
     1
 40
0.0
176
     1
 40
1.0
176
     1
 90
        0
176
     1
 62
    18
420
        0
176
     1
 90
       50
176
     1
 90
        3
176
     1
 62
     5
420
      255
176
     1
290
     0
176
     1
 90
       50
176
     1
 90
       50
176
     1
 90
       50
176
     1
290
     0
176
     1
 90
       50
176
     1
 62
   256
176
     0
 40
1.0
176
     0
 90
        2
176
     1
  1
strokes_ogs.tif
176
     1
290
     0
176
     1
 40
1.0
176
     1
 40
1.0
176
     1
  0
VISUALSTYLE
  5
8343
102
{ACAD_REACTORS
330
832C
102
}
330
832C
100
AcDbVisualStyle
  2
OverhangOff
 70
    21
177
     3
291
     1
 70
    58
 90
        2
176
     0
 90
        2
176
     0
 90
        0
176
     0
 90
        0
176
     0
 40
0.6
176
     0
 40
30.0
176
     0
 62
     7
420
 16777215
176
     0
 90
        1
176
     0
 90
        4
176
     0
 62
     7
176
     0
 62
   257
176
     0
 90
        1
176
     0
 90
        1
176
     0
 40
1.0
176
     0
 90
        9
176
     2
 62
     7
176
     0
 40
1.0
176
     0
 90
        1
176
     0
 90
        6
176
     0
 90
        2
176
     0
 62
     7
176
     0
 90
        5
176
     0
 90
        0
176
     0
 90
        0
176
     0
290
     0
176
     0
 90
        1
176
     0
 40
0.0
176
     0
 90
        0
176
     0
290
     0
176
     0
290
     1
176
     0
290
     1
176
     0
290
     0
176
     0
290
     0
176
     0
290
     0
176
     0
290
     0
176
     0
290
     0
176
     0
290
     0
176
     0
 90
       50
176
     0
 40
0.0
176
     0
 40
1.0
176
     0
 90
        0
176
     0
 62
    18
420
        0
176
     0
 90
       50
176
     0
 90
        3
176
     0
 62
     5
420
      255
176
     0
290
     0
176
     0
 90
       50
176
     0
 90
       50
176
     0
 90
       50
176
     0
290
     0
176
     0
 90
       50
176
     0
 62
   256
176
     0
 40
1.0
176
     0
 90
        2
176
     0
  1
strokes_ogs.tif
176
     0
290
     0
176
     0
 40
1.0
176
     0
 40
1.0
176
     0
  0
VISUALSTYLE
  5
8336
102
{ACAD_REACTORS
330
832C
102
}
330
832C
100
AcDbVisualStyle
  2
Realistic
 70
     8
177
     3
291
     0
 70
    58
 90
        2
176
     1
 90
        3
176
     1
 90
        0
176
     1
 90
        2
176
     1
 40
0.6
176
     1
 40
30.0
176
     1
 62
     7
420
 16777215
176
     1
 90
        0
176
     1
 90
        0
176
     1
 62
     7
176
     1
 62
   257
176
     1
 90
        1
176
     1
 90
        1
176
     1
 40
1.0
176
     1
 90
        8
176
     1
 62
   257
176
     1
 40
1.0
176
     1
 90
        1
176
     1
 90
        6
176
     1
 90
        2
176
     1
 62
     7
176
     1
 90
        3
176
     1
 90
        0
176
     1
 90
        0
176
     1
290
     0
176
     1
 90
       13
176
     1
 40
0.0
176
     1
 90
        0
176
     1
290
     0
176
     1
290
     1
176
     1
290
     1
176
     1
290
     0
176
     1
290
     0
176
     1
290
     0
176
     1
290
     0
176
     1
290
     0
176
     1
290
     0
176
     1
 90
       50
176
     1
 40
0.0
176
     1
 40
1.0
176
     1
 90
        0
176
     1
 62
    18
420
        0
176
     1
 90
       50
176
     1
 90
        3
176
     1
 62
     5
420
      255
176
     1
290
     0
176
     1
 90
       50
176
     1
 90
       50
176
     1
 90
       50
176
     1
290
     0
176
     1
 90
       50
176
     1
 62
   256
176
     0
 40
1.0
176
     0
 90
        2
176
     1
  1
strokes_ogs.tif
176
     1
290
     0
176
     1
 40
1.0
176
     1
 40
1.0
176
     1
  0
VISUALSTYLE
  5
8341
102
{ACAD_REACTORS
330
832C
102
}
330
832C
100
AcDbVisualStyle
  2
Shaded
 70
    27
177
     3
291
     0
 70
    58
 90
        2
176
     1
 90
        2
176
     1
 90
        1
176
     1
 90
        2
176
     1
 40
0.6
176
     1
 40
30.0
176
     1
 62
     7
420
 16777215
176
     1
 90
        0
176
     1
 90
        4
176
     1
 62
     7
176
     1
 62
   257
176
     1
 90
        1
176
     1
 90
        1
176
     1
 40
1.0
176
     1
 90
        8
176
     1
 62
   257
176
     1
 40
1.0
176
     1
 90
        1
176
     1
 90
        6
176
     1
 90
        2
176
     1
 62
     8
420
  7895160
176
     1
 90
        3
176
     1
 90
        0
176
     1
 90
        0
176
     1
290
     0
176
     1
 90
        5
176
     1
 40
0.0
176
     1
 90
        0
176
     1
290
     0
176
     1
290
     1
176
     1
290
     1
176
     1
290
     0
176
     1
290
     0
176
     1
290
     0
176
     1
290
     0
176
     1
290
     0
176
     1
290
     0
176
     1
 90
       50
176
     1
 40
0.0
176
     1
 40
1.0
176
     1
 90
        0
176
     1
 62
    18
420
        0
176
     1
 90
       50
176
     1
 90
        3
176
     1
 62
     5
420
      255
176
     1
290
     0
176
     1
 90
       50
176
     1
 90
       50
176
     1
 90
       50
176
     1
290
     0
176
     1
 90
       50
176
     1
 62
   256
176
     0
 40
1.0
176
     0
 90
        2
176
     1
  1
strokes_ogs.tif
176
     1
290
     0
176
     1
 40
1.0
176
     1
 40
1.0
176
     1
  0
VISUALSTYLE
  5
8340
102
{ACAD_REACTORS
330
832C
102
}
330
832C
100
AcDbVisualStyle
  2
Shaded with edges
 70
    26
177
     3
291
     0
 70
    58
 90
        2
176
     1
 90
        2
176
     1
 90
        1
176
     1
 90
        2
176
     1
 40
0.6
176
     1
 40
30.0
176
     1
 62
     7
420
 16777215
176
     1
 90
        1
176
     1
 90
       10
176
     1
 62
     7
176
     1
 62
   257
176
     1
 90
        2
176
     1
 90
        1
176
     1
 40
1.0
176
     1
 90
        8
176
     1
 62
   257
176
     1
 40
1.0
176
     1
 90
        1
176
     1
 90
        6
176
     1
 90
        2
176
     1
 62
     7
176
     1
 90
        3
176
     1
 90
        0
176
     1
 90
        0
176
     1
290
     0
176
     1
 90
        5
176
     1
 40
0.0
176
     1
 90
        0
176
     1
290
     0
176
     1
290
     1
176
     1
290
     1
176
     1
290
     0
176
     1
290
     0
176
     1
290
     0
176
     1
290
     0
176
     1
290
     0
176
     1
290
     0
176
     1
 90
       50
176
     1
 40
0.0
176
     1
 40
1.0
176
     1
 90
        0
176
     1
 62
    18
420
        0
176
     1
 90
       50
176
     1
 90
        3
176
     1
 62
     5
420
      255
176
     1
290
     0
176
     1
 90
       50
176
     1
 90
       50
176
     1
 90
       50
176
     1
290
     0
176
     1
 90
       50
176
     1
 62
   256
176
     0
 40
1.0
176
     0
 90
        2
176
     1
  1
strokes_ogs.tif
176
     1
290
     0
176
     1
 40
1.0
176
     1
 40
1.0
176
     1
  0
VISUALSTYLE
  5
833D
102
{ACAD_REACTORS
330
832C
102
}
330
832C
100
AcDbVisualStyle
  2
Shades of Gray
 70
    23
177
     3
291
     0
 70
    58
 90
        2
176
     1
 90
        2
176
     1
 90
        3
176
     1
 90
        0
176
     1
 40
0.6
176
     1
 40
30.0
176
     1
 62
     7
420
 16777215
176
     1
 90
        2
176
     1
 90
        2
176
     1
 62
     7
176
     1
 62
     7
176
     1
 90
        1
176
     1
 90
        1
176
     1
 40
40.0
176
     1
 90
        8
176
     1
 62
     7
176
     1
 40
1.0
176
     1
 90
        1
176
     1
 90
        6
176
     1
 90
        2
176
     1
 62
     7
176
     1
 90
        3
176
     1
 90
        0
176
     1
 90
        0
176
     1
290
     0
176
     1
 90
        1
176
     1
 40
0.0
176
     1
 90
        0
176
     1
290
     0
176
     1
290
     1
176
     1
290
     1
176
     1
290
     0
176
     1
290
     0
176
     1
290
     0
176
     1
290
     0
176
     1
290
     0
176
     1
290
     0
176
     1
 90
       50
176
     1
 40
0.0
176
     1
 40
1.0
176
     1
 90
        0
176
     1
 62
    18
420
        0
176
     1
 90
       50
176
     1
 90
        3
176
     1
 62
     5
420
      255
176
     1
290
     0
176
     1
 90
       50
176
     1
 90
       50
176
     1
 90
       50
176
     1
290
     0
176
     1
 90
       50
176
     1
 62
   256
176
     0
 40
1.0
176
     0
 90
        2
176
     1
  1
strokes_ogs.tif
176
     1
290
     0
176
     1
 40
1.0
176
     1
 40
1.0
176
     1
  0
VISUALSTYLE
  5
833E
102
{ACAD_REACTORS
330
832C
102
}
330
832C
100
AcDbVisualStyle
  2
Sketchy
 70
    24
177
     3
291
     0
 70
    58
 90
        1
176
     1
 90
        2
176
     1
 90
        2
176
     1
 90
        0
176
     1
 40
0.6
176
     1
 40
30.0
176
     1
 62
     7
420
 16777215
176
     1
 90
        2
176
     1
 90
        2
176
     1
 62
     7
176
     1
 62
     7
176
     1
 90
        1
176
     1
 90
        1
176
     1
 40
40.0
176
     1
 90
       11
176
     1
 62
     7
176
     1
 40
1.0
176
     1
 90
        1
176
     1
 90
        6
176
     1
 90
        2
176
     1
 62
     7
176
     1
 90
        6
176
     1
 90
        0
176
     1
 90
        0
176
     1
290
     0
176
     1
 90
        1
176
     1
 40
0.0
176
     1
 90
        0
176
     1
290
     0
176
     1
290
     1
176
     1
290
     1
176
     1
290
     0
176
     1
290
     0
176
     1
290
     0
176
     1
290
     0
176
     1
290
     0
176
     1
290
     0
176
     1
 90
       50
176
     1
 40
0.0
176
     1
 40
1.0
176
     1
 90
        0
176
     1
 62
    18
420
        0
176
     1
 90
       50
176
     1
 90
        3
176
     1
 62
     5
420
      255
176
     1
290
     0
176
     1
 90
       50
176
     1
 90
       50
176
     1
 90
       50
176
     1
290
     0
176
     1
 90
       50
176
     1
 62
   256
176
     0
 40
1.0
176
     0
 90
        2
176
     1
  1
strokes_ogs.tif
176
     1
290
     0
176
     1
 40
1.0
176
     1
 40
1.0
176
     1
  0
VISUALSTYLE
  5
8339
102
{ACAD_REACTORS
330
832C
102
}
330
832C
100
AcDbVisualStyle
  2
Thicken
 70
    13
177
     3
291
     1
 70
    58
 90
        2
176
     1
 90
        2
176
     1
 90
        0
176
     1
 90
        0
176
     1
 40
0.6
176
     1
 40
30.0
176
     1
 62
     7
420
 16777215
176
     1
 90
        1
176
     1
 90
        4
176
     1
 62
     7
176
     1
 62
   257
176
     1
 90
        1
176
     1
 90
        1
176
     1
 40
1.0
176
     1
 90
       12
176
     1
 62
     7
176
     1
 40
1.0
176
     1
 90
        1
176
     1
 90
        6
176
     1
 90
        2
176
     1
 62
     7
176
     1
 90
        5
176
     1
 90
        0
176
     1
 90
        0
176
     1
290
     0
176
     1
 90
        1
176
     1
 40
0.0
176
     1
 90
        0
176
     1
290
     0
176
     1
290
     1
176
     1
290
     1
176
     1
290
     0
176
     1
290
     0
176
     1
290
     0
176
     1
290
     0
176
     1
290
     0
176
     1
290
     0
176
     1
 90
       50
176
     1
 40
0.0
176
     1
 40
1.0
176
     1
 90
        0
176
     1
 62
    18
420
        0
176
     1
 90
       50
176
     1
 90
        3
176
     1
 62
     5
420
      255
176
     1
290
     0
176
     1
 90
       50
176
     1
 90
       50
176
     1
 90
       50
176
     1
290
     0
176
     1
 90
       50
176
     1
 62
   256
176
     0
 40
1.0
176
     0
 90
        2
176
     1
  1
strokes_ogs.tif
176
     1
290
     0
176
     1
 40
1.0
176
     1
 40
1.0
176
     1
  0
VISUALSTYLE
  5
8333
102
{ACAD_REACTORS
330
832C
102
}
330
832C
100
AcDbVisualStyle
  2
Wireframe
 70
     5
177
     3
291
     0
 70
    58
 90
        0
176
     1
 90
        2
176
     1
 90
        0
176
     1
 90
        0
176
     1
 40
0.6
176
     1
 40
30.0
176
     1
 62
     7
420
 16777215
176
     1
 90
        1
176
     1
 90
        4
176
     1
 62
     7
176
     1
 62
   257
176
     1
 90
        1
176
     1
 90
        1
176
     1
 40
1.0
176
     1
 90
        0
176
     1
 62
   257
176
     1
 40
1.0
176
     1
 90
        1
176
     1
 90
        6
176
     1
 90
        2
176
     1
 62
     7
176
     1
 90
        3
176
     1
 90
        0
176
     1
 90
        0
176
     1
290
     0
176
     1
 90
        1
176
     1
 40
0.0
176
     1
 90
        0
176
     1
290
     0
176
     1
290
     1
176
     1
290
     1
176
     1
290
     0
176
     1
290
     0
176
     1
290
     0
176
     1
290
     0
176
     1
290
     0
176
     1
290
     0
176
     1
 90
       50
176
     1
 40
0.0
176
     1
 40
1.0
176
     1
 90
        0
176
     1
 62
    18
420
        0
176
     1
 90
       50
176
     1
 90
        3
176
     1
 62
     5
420
      255
176
     1
290
     0
176
     1
 90
       50
176
     1
 90
       50
176
     1
 90
       50
176
     1
290
     0
176
     1
 90
       50
176
     1
 62
   256
176
     0
 40
1.0
176
     0
 90
        2
176
     1
  1
strokes_ogs.tif
176
     1
290
     0
176
     1
 40
1.0
176
     1
 40
1.0
176
     1
  0
VISUALSTYLE
  5
833F
102
{ACAD_REACTORS
330
832C
102
}
330
832C
100
AcDbVisualStyle
  2
X-Ray
 70
    25
177
     3
291
     0
 70
    58
 90
        2
176
     1
 90
        2
176
     1
 90
        1
176
     1
 90
        1
176
     1
 40
0.5
176
     1
 40
30.0
176
     1
 62
     7
420
 16777215
176
     1
 90
        1
176
     1
 90
        0
176
     1
 62
     7
176
     1
 62
   257
176
     1
 90
        1
176
     1
 90
        1
176
     1
 40
1.0
176
     1
 90
        8
176
     1
 62
     7
176
     1
 40
1.0
176
     1
 90
        1
176
     1
 90
        6
176
     1
 90
        2
176
     1
 62
     7
176
     1
 90
        3
176
     1
 90
        0
176
     1
 90
        0
176
     1
290
     0
176
     1
 90
       13
176
     1
 40
0.0
176
     1
 90
        0
176
     1
290
     0
176
     1
290
     1
176
     1
290
     1
176
     1
290
     0
176
     1
290
     0
176
     1
290
     0
176
     1
290
     0
176
     1
290
     0
176
     1
290
     0
176
     1
 90
       50
176
     1
 40
0.0
176
     1
 40
1.0
176
     1
 90
        0
176
     1
 62
    18
420
        0
176
     1
 90
       50
176
     1
 90
        3
176
     1
 62
     5
420
      255
176
     1
290
     0
176
     1
 90
       50
176
     1
 90
       50
176
     1
 90
       50
176
     1
290
     0
176
     1
 90
       50
176
     1
 62
   256
176
     0
 40
1.0
176
     0
 90
        2
176
     1
  1
strokes_ogs.tif
176
     1
290
     0
176
     1
 40
1.0
176
     1
 40
1.0
176
     1
  0
DICTIONARYVAR
  5
83EB
102
{ACAD_REACTORS
330
83E5
102
}
330
83E5
100
DictionaryVariables
280
     0
  1
1:1
  0
DICTIONARYVAR
  5
83E7
102
{ACAD_REACTORS
330
83E5
102
}
330
83E5
100
DictionaryVariables
280
     0
  1
STANDARD
  0
DICTIONARYVAR
  5
83E6
102
{ACAD_REACTORS
330
83E5
102
}
330
83E5
100
DictionaryVariables
280
     0
  1
STANDARD
  0
DICTIONARYVAR
  5
83E8
102
{ACAD_REACTORS
330
83E5
102
}
330
83E5
100
DictionaryVariables
280
     0
  1
Metric50
  0
DICTIONARYVAR
  5
83E9
102
{ACAD_REACTORS
330
83E5
102
}
330
83E5
100
DictionaryVariables
280
     0
  1
Metric50
  0
DICTIONARYVAR
  5
83ED
102
{ACAD_REACTORS
330
83E5
102
}
330
83E5
100
DictionaryVariables
280
     0
  1
1
  0
DICTIONARYVAR
  5
83EE
102
{ACAD_REACTORS
330
83E5
102
}
330
83E5
100
DictionaryVariables
280
     0
  1
15
  0
DICTIONARYVAR
  5
83EC
102
{ACAD_REACTORS
330
83E5
102
}
330
83E5
100
DictionaryVariables
280
     0
  1
0
  0
DICTIONARYVAR
  5
83EA
102
{ACAD_REACTORS
330
83E5
102
}
330
83E5
100
DictionaryVariables
280
     0
  1
0
  0
DICTIONARY
  5
83E2
330
835F
100
AcDbDictionary
280
     1
281
     1
  3
ACAD_XREC_ROUNDTRIP
360
843A
  0
DICTIONARY
  5
831D
330
831C
100
AcDbDictionary
280
     1
281
     1
  3
BUMPTILE
360
831F
  3
DIFFUSETILE
360
831E
  3
OPACITYTILE
360
8322
  3
REFLECTIONTILE
360
8321
  3
REFRACTIONTILE
360
8323
  3
SPECULARTILE
360
8320
  0
DICTIONARY
  5
8315
330
8314
100
AcDbDictionary
280
     1
281
     1
  3
BUMPTILE
360
8317
  3
DIFFUSETILE
360
8316
  3
OPACITYTILE
360
831A
  3
REFLECTIONTILE
360
8319
  3
REFRACTIONTILE
360
831B
  3
SPECULARTILE
360
8318
  0
DICTIONARY
  5
8325
330
8324
100
AcDbDictionary
280
     1
281
     1
  3
BUMPTILE
360
8327
  3
DIFFUSETILE
360
8326
  3
OPACITYTILE
360
832A
  3
REFLECTIONTILE
360
8329
  3
REFRACTIONTILE
360
832B
  3
SPECULARTILE
360
8328
  0
DICTIONARY
  5
83E0
330
835D
100
AcDbDictionary
280
     1
281
     1
  3
ACAD_XREC_ROUNDTRIP
360
8439
  0
DICTIONARY
  5
8437
330
8347
100
AcDbDictionary
280
     1
281
     1
  3
ACAD_ROUNDTRIP_2008_TABLESTYLE_CELLSTYLEMAP
360
8438
  0
XRECORD
  5
843A
102
{ACAD_REACTORS
330
83E2
102
}
330
83E2
100
AcDbXrecord
280
     1
102
DISPLAYNAME
  1
Metric50
102
FLAGS
 90
        0
  0
XRECORD
  5
831F
102
{ACAD_REACTORS
330
831D
102
}
330
831D
100
AcDbXrecord
280
     1
270
     1
271
     1
  0
XRECORD
  5
831E
102
{ACAD_REACTORS
330
831D
102
}
330
831D
100
AcDbXrecord
280
     1
270
     1
271
     1
  0
XRECORD
  5
8322
102
{ACAD_REACTORS
330
831D
102
}
330
831D
100
AcDbXrecord
280
     1
270
     1
271
     1
  0
XRECORD
  5
8321
102
{ACAD_REACTORS
330
831D
102
}
330
831D
100
AcDbXrecord
280
     1
270
     1
271
     1
  0
XRECORD
  5
8323
102
{ACAD_REACTORS
330
831D
102
}
330
831D
100
AcDbXrecord
280
     1
270
     1
271
     1
  0
XRECORD
  5
8320
102
{ACAD_REACTORS
330
831D
102
}
330
831D
100
AcDbXrecord
280
     1
270
     1
271
     1
  0
XRECORD
  5
8317
102
{ACAD_REACTORS
330
8315
102
}
330
8315
100
AcDbXrecord
280
     1
270
     1
271
     1
  0
XRECORD
  5
8316
102
{ACAD_REACTORS
330
8315
102
}
330
8315
100
AcDbXrecord
280
     1
270
     1
271
     1
  0
XRECORD
  5
831A
102
{ACAD_REACTORS
330
8315
102
}
330
8315
100
AcDbXrecord
280
     1
270
     1
271
     1
  0
XRECORD
  5
8319
102
{ACAD_REACTORS
330
8315
102
}
330
8315
100
AcDbXrecord
280
     1
270
     1
271
     1
  0
XRECORD
  5
831B
102
{ACAD_REACTORS
330
8315
102
}
330
8315
100
AcDbXrecord
280
     1
270
     1
271
     1
  0
XRECORD
  5
8318
102
{ACAD_REACTORS
330
8315
102
}
330
8315
100
AcDbXrecord
280
     1
270
     1
271
     1
  0
XRECORD
  5
8327
102
{ACAD_REACTORS
330
8325
102
}
330
8325
100
AcDbXrecord
280
     1
270
     1
271
     1
  0
XRECORD
  5
8326
102
{ACAD_REACTORS
330
8325
102
}
330
8325
100
AcDbXrecord
280
     1
270
     1
271
     1
  0
XRECORD
  5
832A
102
{ACAD_REACTORS
330
8325
102
}
330
8325
100
AcDbXrecord
280
     1
270
     1
271
     1
  0
XRECORD
  5
8329
102
{ACAD_REACTORS
330
8325
102
}
330
8325
100
AcDbXrecord
280
     1
270
     1
271
     1
  0
XRECORD
  5
832B
102
{ACAD_REACTORS
330
8325
102
}
330
8325
100
AcDbXrecord
280
     1
270
     1
271
     1
  0
XRECORD
  5
8328
102
{ACAD_REACTORS
330
8325
102
}
330
8325
100
AcDbXrecord
280
     1
270
     1
271
     1
  0
XRECORD
  5
8439
102
{ACAD_REACTORS
330
83E0
102
}
330
83E0
100
AcDbXrecord
280
     1
102
DISPLAYNAME
  1
Metric50
102
FLAGS
 90
        0
  0
CELLSTYLEMAP
  5
8438
102
{ACAD_REACTORS
330
8437
102
}
330
8437
100
AcDbCellStyleMap
 90
        3
300
CELLSTYLE
  1
TABLEFORMAT_BEGIN
 90
        5
170
     1
 91
        0
 92
    32768
 62
   257
 93
        1
300
CONTENTFORMAT
  1
CONTENTFORMAT_BEGIN
 90
        0
 91
        0
 92
      512
 93
        0
300

 40
0.0
140
1.0
 94
        5
 62
     0
340
10
144
6.0
309
CONTENTFORMAT_END
171
     1
301
MARGIN
  1
CELLMARGIN_BEGIN
 40
1.5
 40
1.5
 40
1.5
 40
1.5
 40
4.5
 40
4.5
309
CELLMARGIN_END
 94
        6
 95
        1
302
GRIDFORMAT
  1
GRIDFORMAT_BEGIN
 90
        0
 91
        1
 62
     0
 92
       -2
340
0
 93
        0
 40
1.125
309
GRIDFORMAT_END
 95
        2
302
GRIDFORMAT
  1
GRIDFORMAT_BEGIN
 90
        0
 91
        1
 62
     0
 92
       -2
340
0
 93
        0
 40
1.125
309
GRIDFORMAT_END
 95
        4
302
GRIDFORMAT
  1
GRIDFORMAT_BEGIN
 90
        0
 91
        1
 62
     0
 92
       -2
340
0
 93
        0
 40
1.125
309
GRIDFORMAT_END
 95
        8
302
GRIDFORMAT
  1
GRIDFORMAT_BEGIN
 90
        0
 91
        1
 62
     0
 92
       -2
340
0
 93
        0
 40
1.125
309
GRIDFORMAT_END
 95
       16
302
GRIDFORMAT
  1
GRIDFORMAT_BEGIN
 90
        0
 91
        1
 62
     0
 92
       -2
340
0
 93
        0
 40
1.125
309
GRIDFORMAT_END
 95
       32
302
GRIDFORMAT
  1
GRIDFORMAT_BEGIN
 90
        0
 91
        1
 62
     0
 92
       -2
340
0
 93
        0
 40
1.125
309
GRIDFORMAT_END
309
TABLEFORMAT_END
  1
CELLSTYLE_BEGIN
 90
        1
 91
        1
300
_TITLE
309
CELLSTYLE_END
300
CELLSTYLE
  1
TABLEFORMAT_BEGIN
 90
        5
170
     1
 91
        0
 92
        0
 62
   257
 93
        1
300
CONTENTFORMAT
  1
CONTENTFORMAT_BEGIN
 90
        0
 91
        0
 92
      512
 93
        0
300

 40
0.0
140
1.0
 94
        5
 62
     0
340
10
144
4.5
309
CONTENTFORMAT_END
171
     1
301
MARGIN
  1
CELLMARGIN_BEGIN
 40
1.5
 40
1.5
 40
1.5
 40
1.5
 40
4.5
 40
4.5
309
CELLMARGIN_END
 94
        6
 95
        1
302
GRIDFORMAT
  1
GRIDFORMAT_BEGIN
 90
        0
 91
        1
 62
     0
 92
       -2
340
0
 93
        0
 40
1.125
309
GRIDFORMAT_END
 95
        2
302
GRIDFORMAT
  1
GRIDFORMAT_BEGIN
 90
        0
 91
        1
 62
     0
 92
       -2
340
0
 93
        0
 40
1.125
309
GRIDFORMAT_END
 95
        4
302
GRIDFORMAT
  1
GRIDFORMAT_BEGIN
 90
        0
 91
        1
 62
     0
 92
       -2
340
0
 93
        0
 40
1.125
309
GRIDFORMAT_END
 95
        8
302
GRIDFORMAT
  1
GRIDFORMAT_BEGIN
 90
        0
 91
        1
 62
     0
 92
       -2
340
0
 93
        0
 40
1.125
309
GRIDFORMAT_END
 95
       16
302
GRIDFORMAT
  1
GRIDFORMAT_BEGIN
 90
        0
 91
        1
 62
     0
 92
       -2
340
0
 93
        0
 40
1.125
309
GRIDFORMAT_END
 95
       32
302
GRIDFORMAT
  1
GRIDFORMAT_BEGIN
 90
        0
 91
        1
 62
     0
 92
       -2
340
0
 93
        0
 40
1.125
309
GRIDFORMAT_END
309
TABLEFORMAT_END
  1
CELLSTYLE_BEGIN
 90
        2
 91
        1
300
_HEADER
309
CELLSTYLE_END
300
CELLSTYLE
  1
TABLEFORMAT_BEGIN
 90
        5
170
     1
 91
        0
 92
        0
 62
   257
 93
        1
300
CONTENTFORMAT
  1
CONTENTFORMAT_BEGIN
 90
        0
 91
        0
 92
      512
 93
        0
300

 40
0.0
140
1.0
 94
        2
 62
     0
340
10
144
4.5
309
CONTENTFORMAT_END
171
     1
301
MARGIN
  1
CELLMARGIN_BEGIN
 40
1.5
 40
1.5
 40
1.5
 40
1.5
 40
4.5
 40
4.5
309
CELLMARGIN_END
 94
        6
 95
        1
302
GRIDFORMAT
  1
GRIDFORMAT_BEGIN
 90
        0
 91
        1
 62
     0
 92
       -2
340
0
 93
        0
 40
1.125
309
GRIDFORMAT_END
 95
        2
302
GRIDFORMAT
  1
GRIDFORMAT_BEGIN
 90
        0
 91
        1
 62
     0
 92
       -2
340
0
 93
        0
 40
1.125
309
GRIDFORMAT_END
 95
        4
302
GRIDFORMAT
  1
GRIDFORMAT_BEGIN
 90
        0
 91
        1
 62
     0
 92
       -2
340
0
 93
        0
 40
1.125
309
GRIDFORMAT_END
 95
        8
302
GRIDFORMAT
  1
GRIDFORMAT_BEGIN
 90
        0
 91
        1
 62
     0
 92
       -2
340
0
 93
        0
 40
1.125
309
GRIDFORMAT_END
 95
       16
302
GRIDFORMAT
  1
GRIDFORMAT_BEGIN
 90
        0
 91
        1
 62
     0
 92
       -2
340
0
 93
        0
 40
1.125
309
GRIDFORMAT_END
 95
       32
302
GRIDFORMAT
  1
GRIDFORMAT_BEGIN
 90
        0
 91
        1
 62
     0
 92
       -2
340
0
 93
        0
 40
1.125
309
GRIDFORMAT_END
309
TABLEFORMAT_END
  1
CELLSTYLE_BEGIN
 90
        3
 91
        2
300
_DATA
309
CELLSTYLE_END
  0
ENDSEC
  0
SECTION
  2
ACDSDATA
 70
     2
 71
     8
  0
ACDSSCHEMA
 90
        0
  1
AcDb_Thumbnail_Schema
  2
AcDbDs::ID
280
    10
 91
        8
  2
Thumbnail_Data
280
    15
 91
        0
101
ACDSRECORD
 95
        0
 90
        1
  2
AcDbDs::TreatedAsObjectData
280
     1
291
     1
101
ACDSRECORD
 95
        0
 90
        2
  2
AcDbDs::Legacy
280
     1
291
     1
101
ACDSRECORD
  1
AcDbDs::ID
 90
        3
  2
AcDs:Indexable
280
     1
291
     1
101
ACDSRECORD
  1
AcDbDs::ID
 90
        4
  2
AcDbDs::HandleAttribute
280
     7
282
     1
  0
ACDSSCHEMA
 90
        1
  1
AcDbDs::TreatedAsObjectDataSchema
  2
AcDbDs::TreatedAsObjectData
280
     1
 91
        0
  0
ACDSSCHEMA
 90
        2
  1
AcDbDs::LegacySchema
  2
AcDbDs::Legacy
280
     1
 91
        0
  0
ACDSSCHEMA
 90
        3
  1
AcDbDs::IndexedPropertySchema
  2
AcDs:Indexable
280
     1
 91
        0
  0
ACDSSCHEMA
 90
        4
  1
AcDbDs::HandleAttributeSchema
  2
AcDbDs::HandleAttribute
280
     7
 91
        1
284
     1
  0
ACDSRECORD
 90
        0
  2
AcDbDs::ID
280
    10
320
8307
  2
Thumbnail_Data
280
    15
 94
     1667
310
89504E470D0A1A0A0000000D49484452000001000000007C0803000000B13B9E5A00000300504C5445000000000000C8C8C80000000000000000000000000000000000000000000000000000330000660000990000CC0000FF0033000033330033660033990033CC0033FF0066000066330066660066990066CC0066FF0099
310
000099330099660099990099CC0099FF00CC0000CC3300CC6600CC9900CCCC00CCFF00FF0000FF3300FF6600FF9900FFCC00FFFF3300003300333300663300993300CC3300FF3333003333333333663333993333CC3333FF3366003366333366663366993366CC3366FF3399003399333399663399993399CC3399FF33CC00
310
33CC3333CC6633CC9933CCCC33CCFF33FF0033FF3333FF6633FF9933FFCC33FFFF6600006600336600666600996600CC6600FF6633006633336633666633996633CC6633FF6666006666336666666666996666CC6666FF6699006699336699666699996699CC6699FF66CC0066CC3366CC6666CC9966CCCC66CCFF66FF0066
310
FF3366FF6666FF9966FFCC66FFFF9900009900339900669900999900CC9900FF9933009933339933669933999933CC9933FF9966009966339966669966999966CC9966FF9999009999339999669999999999CC9999FF99CC0099CC3399CC6699CC9999CCCC99CCFF99FF0099FF3399FF6699FF9999FFCC99FFFFCC0000CC00
310
33CC0066CC0099CC00CCCC00FFCC3300CC3333CC3366CC3399CC33CCCC33FFCC6600CC6633CC6666CC6699CC66CCCC66FFCC9900CC9933CC9966CC9999CC99CCCC99FFCCCC00CCCC33CCCC66CCCC99CCCCCCCCCCFFCCFF00CCFF33CCFF66CCFF99CCFFCCCCFFFFFF0000FF0033FF0066FF0099FF00CCFF00FFFF3300FF3333
310
FF3366FF3399FF33CCFF33FFFF6600FF6633FF6666FF6699FF66CCFF66FFFF9900FF9933FF9966FF9999FF99CCFF99FFFFCC00FFCC33FFCC66FFCC99FFCCCCFFCCFFFFFF00FFFF33FFFF66FFFF99FFFFCCFFFFFF0000000D0D0D1A1A1A2828283535354343435050505D5D5D6B6B6B787878868686939393A1A1A1AEAEAEBB
310
BBBBC9C9C9D6D6D6E4E4E4F1F1F1FFFFFF00000000000000000000000000000000000000000000000000000000000008F1915C000002F64944415478DAED9D5D72EB200C85B51C5ED8FF66D806EF37367F02E4C49D9BB49174E8D44E639B893E0E4208D721FA40C91F2AA4A56455D502000000000000C0F77CD227839F1700
310
CBE5D9A502DC03C89E012CBD403780B7CE005402F8B2CA00E00F00541D8F5DFD2541E85930D202002AD67693A983E8D69F48489AF2DB50C0AC83490CB90BC23280DC83BC4CB308FAA097E1044D02F01E07BCB5069D008406DDDA37B353CB50589DA20700650C64F3C0F1632421B20158697000C3FC6C45016FBC1E39410000
310
000000000000000000000000000000005D00623C77C131005EBC2BC02180106318050A700FA09574148F4E9079434F008A0E22E7F178E90500CD00CEDE000000407E9C2000000000C0097A8F03C448D01100721D0A2751008E2643B299E97FAB5508606A734F00E4E20980D4031C01F8EA6A01000000000000E0973EE9ADC1
310
3F5DC54806E28039104C9790EAA10597FD4830CD00922100D598D9A474839349055C03D82F32E503F8F635005B0AE03B3F00F61E3DA7019F03D86FA7D1A780D406B2635373E1F70194D43953814E00CDB29115ED09C21D006FF2D8174F3403E8DD3E96C4F0B1B95600D77CB4A280D49B766B780F00A87BBF186208C76618B9
310
020873D6FCBCA3CC0800D6FE471768AB229202D8B28972058CE0B77B80B26B965E00E82F4D00481380502D7CBC0E248C0212003204E0D1C9DB6858BAF7EA038E37EB3DA50615705A545AB852B8A700B591600540CD09D62EC02C350EA005426D18AC6300F3F63B00E19E521B7301F94ED917C3A005006C1AB89420FEE7C472
310
CEAB59B60A00939BFF59351600D09502A21B05A4EADD842615004C7FA807909EF8803B0A48EA15403D115AA3822D4D22A584C6B2C0B278A211C058E299D67B96F4B008605F183000E0D53D42CF4FD2D9053E53AD1E00040000000000C00F797FA2E48565E511ABE2514700E486B7068084AF4D2A4F52A4EC4D013E7D80AC00
310
628F173D8F48661BF601993F739DBC0010DE640A21F800D74F9646280C0000000000000000000000000000A01280A2AFDEFE0737BE9F83FDB25A200000000049454E44AE426082AE4260827CC67E7E2CBF2D80F13F5AA093B8D70C400D407504E0F1FA980B00000000000000000000000000005A01DE5A1EFFBA5FFCA400E0
310
0276F4650000000049454E44AE426082
  0
ENDSEC
  0
EOF
