  0
SECTION
  2
HEADER
  9
$ACADVER
  1
AC1027
  9
$ACADMAINTVER
 70
    81
  9
$DWGCODEPAGE
  3
ANSI_932
  9
$LASTSAVEDBY
  1
reiko.miyawaki
  9
$REQUIREDVERSIONS
160
                 0
  9
$INSBASE
 10
0.0
 20
0.0
 30
0.0
  9
$EXTMIN
 10
0.0
 20
0.0
 30
0.0
  9
$EXTMAX
 10
2520.0
 20
3540.0
 30
0.0
  9
$LIMMIN
 10
0.0
 20
0.0
  9
$LIMMAX
 10
297.0
 20
210.0
  9
$ORTHOMODE
 70
     0
  9
$REGENMODE
 70
     1
  9
$FILLMODE
 70
     0
  9
$QTEXTMODE
 70
     0
  9
$MIRRTEXT
 70
     1
  9
$LTSCALE
 40
100.0
  9
$ATTMODE
 70
     1
  9
$TEXTSIZE
 40
180.0
  9
$TRACEWID
 40
0.05
  9
$TEXTSTYLE
  7
STANDARD
  9
$CLAYER
  8
3
  9
$CELTYPE
  6
BYLAYER
  9
$CECOLOR
 62
   256
  9
$CELTSCALE
 40
1.0
  9
$DISPSILH
 70
     0
  9
$DIMSCALE
 40
12.0
  9
$DIMASZ
 40
2.0
  9
$DIMEXO
 40
0.5
  9
$DIMDLI
 40
10.0
  9
$DIMRND
 40
0.0
  9
$DIMDLE
 40
0.0
  9
$DIMEXE
 40
1.0
  9
$DIMTP
 40
1.0
  9
$DIMTM
 40
1.0
  9
$DIMTXT
 40
3.0
  9
$DIMCEN
 40
0.0
  9
$DIMTSZ
 40
0.0
  9
$DIMTOL
 70
     0
  9
$DIMLIM
 70
     0
  9
$DIMTIH
 70
     0
  9
$DIMTOH
 70
     0
  9
$DIMSE1
 70
     0
  9
$DIMSE2
 70
     0
  9
$DIMTAD
 70
     1
  9
$DIMZIN
 70
     8
  9
$DIMBLK
  1

  9
$DIMASO
 70
     1
  9
$DIMSHO
 70
     1
  9
$DIMPOST
  1
(<>)
  9
$DIMAPOST
  1

  9
$DIMALT
 70
     0
  9
$DIMALTD
 70
     2
  9
$DIMALTF
 40
0.039
  9
$DIMLFAC
 40
1.0
  9
$DIMTOFL
 70
     1
  9
$DIMTVP
 40
0.0
  9
$DIMTIX
 70
     0
  9
$DIMSOXD
 70
     0
  9
$DIMSAH
 70
     1
  9
$DIMBLK1
  1
OPEN
  9
$DIMBLK2
  1
OPEN
  9
$DIMSTYLE
  2
IGA
  9
$DIMCLRD
 70
     0
  9
$DIMCLRE
 70
     0
  9
$DIMCLRT
 70
     0
  9
$DIMTFAC
 40
10.0
  9
$DIMGAP
 40
1.0
  9
$DIMJUST
 70
     0
  9
$DIMSD1
 70
     0
  9
$DIMSD2
 70
     0
  9
$DIMTOLJ
 70
     1
  9
$DIMTZIN
 70
     8
  9
$DIMALTZ
 70
     0
  9
$DIMALTTZ
 70
     0
  9
$DIMUPT
 70
     0
  9
$DIMDEC
 70
     0
  9
$DIMTDEC
 70
     0
  9
$DIMALTU
 70
     2
  9
$DIMALTTD
 70
     2
  9
$DIMTXSTY
  7
STANDARD
  9
$DIMAUNIT
 70
     0
  9
$DIMADEC
 70
     0
  9
$DIMALTRND
 40
0.0
  9
$DIMAZIN
 70
     0
  9
$DIMDSEP
 70
    46
  9
$DIMATFIT
 70
     3
  9
$DIMFRAC
 70
     0
  9
$DIMLDRBLK
  1
OPEN
  9
$DIMLUNIT
 70
     2
  9
$DIMLWD
 70
    -2
  9
$DIMLWE
 70
    -2
  9
$DIMTMOVE
 70
     2
  9
$DIMFXL
 40
1.0
  9
$DIMFXLON
 70
     0
  9
$DIMJOGANG
 40
0.7853981633974483
  9
$DIMTFILL
 70
     0
  9
$DIMTFILLCLR
 70
     0
  9
$DIMARCSYM
 70
     0
  9
$DIMLTYPE
  6

  9
$DIMLTEX1
  6

  9
$DIMLTEX2
  6

  9
$DIMTXTDIRECTION
 70
     0
  9
$LUNITS
 70
     2
  9
$LUPREC
 70
     3
  9
$SKETCHINC
 40
0.1
  9
$FILLETRAD
 40
50.0
  9
$AUNITS
 70
     0
  9
$AUPREC
 70
     0
  9
$MENU
  1
acad
  9
$ELEVATION
 40
0.0
  9
$PELEVATION
 40
0.0
  9
$THICKNESS
 40
0.0
  9
$LIMCHECK
 70
     0
  9
$CHAMFERA
 40
0.5
  9
$CHAMFERB
 40
0.5
  9
$CHAMFERC
 40
20.0
  9
$CHAMFERD
 40
0.0
  9
$SKPOLY
 70
     0
  9
$TDCREATE
 40
2451936.426317708
  9
$TDUCREATE
 40
2451936.051317708
  9
$TDUPDATE
 40
2459024.488924352
  9
$TDUUPDATE
 40
2459024.113924352
  9
$TDINDWG
 40
0.1376673380
  9
$TDUSRTIMER
 40
0.1376673380
  9
$USRTIMER
 70
     1
  9
$ANGBASE
 50
0.0
  9
$ANGDIR
 70
     0
  9
$PDMODE
 70
     0
  9
$PDSIZE
 40
0.0
  9
$PLINEWID
 40
0.0
  9
$SPLFRAME
 70
     0
  9
$SPLINETYPE
 70
     6
  9
$SPLINESEGS
 70
     8
  9
$HANDSEED
  5
840A
  9
$SURFTAB1
 70
     6
  9
$SURFTAB2
 70
     6
  9
$SURFTYPE
 70
     6
  9
$SURFU
 70
     6
  9
$SURFV
 70
     6
  9
$UCSBASE
  2

  9
$UCSNAME
  2

  9
$UCSORG
 10
0.0
 20
0.0
 30
0.0
  9
$UCSXDIR
 10
1.0
 20
0.0
 30
0.0
  9
$UCSYDIR
 10
0.0
 20
1.0
 30
0.0
  9
$UCSORTHOREF
  2

  9
$UCSORTHOVIEW
 70
     0
  9
$UCSORGTOP
 10
0.0
 20
0.0
 30
0.0
  9
$UCSORGBOTTOM
 10
0.0
 20
0.0
 30
0.0
  9
$UCSORGLEFT
 10
0.0
 20
0.0
 30
0.0
  9
$UCSORGRIGHT
 10
0.0
 20
0.0
 30
0.0
  9
$UCSORGFRONT
 10
0.0
 20
0.0
 30
0.0
  9
$UCSORGBACK
 10
0.0
 20
0.0
 30
0.0
  9
$PUCSBASE
  2

  9
$PUCSNAME
  2

  9
$PUCSORG
 10
0.0
 20
0.0
 30
0.0
  9
$PUCSXDIR
 10
1.0
 20
0.0
 30
0.0
  9
$PUCSYDIR
 10
0.0
 20
1.0
 30
0.0
  9
$PUCSORTHOREF
  2

  9
$PUCSORTHOVIEW
 70
     0
  9
$PUCSORGTOP
 10
0.0
 20
0.0
 30
0.0
  9
$PUCSORGBOTTOM
 10
0.0
 20
0.0
 30
0.0
  9
$PUCSORGLEFT
 10
0.0
 20
0.0
 30
0.0
  9
$PUCSORGRIGHT
 10
0.0
 20
0.0
 30
0.0
  9
$PUCSORGFRONT
 10
0.0
 20
0.0
 30
0.0
  9
$PUCSORGBACK
 10
0.0
 20
0.0
 30
0.0
  9
$USERI1
 70
     0
  9
$USERI2
 70
     0
  9
$USERI3
 70
     0
  9
$USERI4
 70
     0
  9
$USERI5
 70
     0
  9
$USERR1
 40
0.0
  9
$USERR2
 40
0.0
  9
$USERR3
 40
0.0
  9
$USERR4
 40
0.0
  9
$USERR5
 40
0.0
  9
$WORLDVIEW
 70
     1
  9
$SHADEDGE
 70
     3
  9
$SHADEDIF
 70
    70
  9
$TILEMODE
 70
     1
  9
$MAXACTVP
 70
    16
  9
$PINSBASE
 10
0.0
 20
0.0
 30
0.0
  9
$PLIMCHECK
 70
     0
  9
$PEXTMIN
 10
1.000000000000000E+20
 20
1.000000000000000E+20
 30
1.000000000000000E+20
  9
$PEXTMAX
 10
-1.000000000000000E+20
 20
-1.000000000000000E+20
 30
-1.000000000000000E+20
  9
$PLIMMIN
 10
0.0
 20
0.0
  9
$PLIMMAX
 10
12.0
 20
9.0
  9
$UNITMODE
 70
     0
  9
$VISRETAIN
 70
     0
  9
$PLINEGEN
 70
     0
  9
$PSLTSCALE
 70
     1
  9
$TREEDEPTH
 70
  3020
  9
$CMLSTYLE
  2
STANDARD
  9
$CMLJUST
 70
     0
  9
$CMLSCALE
 40
20.0
  9
$PROXYGRAPHICS
 70
     1
  9
$MEASUREMENT
 70
     1
  9
$CELWEIGHT
370
    -1
  9
$ENDCAPS
280
     0
  9
$JOINSTYLE
280
     0
  9
$LWDISPLAY
290
     0
  9
$INSUNITS
 70
     0
  9
$HYPERLINKBASE
  1

  9
$STYLESHEET
  1

  9
$XEDIT
290
     1
  9
$CEPSNTYPE
380
     0
  9
$PSTYLEMODE
290
     1
  9
$FINGERPRINTGUID
  2
{2DBCDE81-CE27-42E0-AC8C-642B482C8B92}
  9
$VERSIONGUID
  2
{8E2E9663-8BE3-4ED3-BEE2-7332644ACC16}
  9
$EXTNAMES
290
     1
  9
$PSVPSCALE
 40
0.0
  9
$OLESTARTUP
290
     0
  9
$SORTENTS
280
   127
  9
$INDEXCTL
280
     0
  9
$HIDETEXT
280
     0
  9
$XCLIPFRAME
280
     2
  9
$HALOGAP
280
     0
  9
$OBSCOLOR
 70
   257
  9
$OBSLTYPE
280
     0
  9
$INTERSECTIONDISPLAY
280
     0
  9
$INTERSECTIONCOLOR
 70
   257
  9
$DIMASSOC
280
     1
  9
$PROJECTNAME
  1

  9
$CAMERADISPLAY
290
     0
  9
$LENSLENGTH
 40
50.0
  9
$CAMERAHEIGHT
 40
0.0
  9
$STEPSPERSEC
 40
2.0
  9
$STEPSIZE
 40
6.0
  9
$3DDWFPREC
 40
2.0
  9
$PSOLWIDTH
 40
0.25
  9
$PSOLHEIGHT
 40
4.0
  9
$LOFTANG1
 40
1.570796326794896
  9
$LOFTANG2
 40
1.570796326794896
  9
$LOFTMAG1
 40
0.0
  9
$LOFTMAG2
 40
0.0
  9
$LOFTPARAM
 70
     7
  9
$LOFTNORMALS
280
     1
  9
$LATITUDE
 40
37.795
  9
$LONGITUDE
 40
-122.394
  9
$NORTHDIRECTION
 40
0.0
  9
$TIMEZONE
 70
 -8000
  9
$LIGHTGLYPHDISPLAY
280
     1
  9
$TILEMODELIGHTSYNCH
280
     1
  9
$CMATERIAL
347
8309
  9
$SOLIDHIST
280
     0
  9
$SHOWHIST
280
     1
  9
$DWFFRAME
280
     2
  9
$DGNFRAME
280
     0
  9
$REALWORLDSCALE
290
     1
  9
$INTERFERECOLOR
 62
     1
  9
$INTERFEREOBJVS
345
832B
  9
$INTERFEREVPVS
346
8328
  9
$CSHADOW
280
     0
  9
$SHADOWPLANELOCATION
 40
0.0
  0
ENDSEC
  0
SECTION
  2
CLASSES
  0
CLASS
  1
ACDBDICTIONARYWDFLT
  2
AcDbDictionaryWithDefault
  3
ObjectDBX Classes
 90
        0
 91
        1
280
     0
281
     0
  0
CLASS
  1
MATERIAL
  2
AcDbMaterial
  3
ObjectDBX Classes
 90
     1153
 91
        3
280
     0
281
     0
  0
CLASS
  1
VISUALSTYLE
  2
AcDbVisualStyle
  3
ObjectDBX Classes
 90
     4095
 91
       24
280
     0
281
     0
  0
CLASS
  1
TABLESTYLE
  2
AcDbTableStyle
  3
ObjectDBX Classes
 90
     4095
 91
        1
280
     0
281
     0
  0
CLASS
  1
SCALE
  2
AcDbScale
  3
ObjectDBX Classes
 90
     1153
 91
       17
280
     0
281
     0
  0
CLASS
  1
MLEADERSTYLE
  2
AcDbMLeaderStyle
  3
ACDB_MLEADERSTYLE_CLASS
 90
     4095
 91
        1
280
     0
281
     0
  0
CLASS
  1
ACDBSECTIONVIEWSTYLE
  2
AcDbSectionViewStyle
  3
ObjectDBX Classes
 90
     1025
 91
        1
280
     0
281
     0
  0
CLASS
  1
ACDBDETAILVIEWSTYLE
  2
AcDbDetailViewStyle
  3
ObjectDBX Classes
 90
     1025
 91
        1
280
     0
281
     0
  0
CLASS
  1
SORTENTSTABLE
  2
AcDbSortentsTable
  3
ObjectDBX Classes
 90
        0
 91
        1
280
     0
281
     0
  0
CLASS
  1
DICTIONARYVAR
  2
AcDbDictionaryVar
  3
ObjectDBX Classes
 90
        0
 91
        9
280
     0
281
     0
  0
CLASS
  1
CELLSTYLEMAP
  2
AcDbCellStyleMap
  3
ObjectDBX Classes
 90
     1152
 91
        1
280
     0
281
     0
  0
ENDSEC
  0
SECTION
  2
TABLES
  0
TABLE
  2
VPORT
  5
8
330
0
100
AcDbSymbolTable
 70
     1
  0
VPORT
  5
8306
330
8
100
AcDbSymbolTableRecord
100
AcDbViewportTableRecord
  2
*Active
 70
     0
 10
0.0
 20
0.0
 11
1.0
 21
1.0
 12
1260.000017603069
 22
1854.883172791182
 13
0.0
 23
0.0
 14
10.0
 24
10.0
 15
10.0
 25
10.0
 16
0.0
 26
0.0
 36
1.0
 17
0.0
 27
0.0
 37
0.0
 40
3738.29623929958
 41
1.957107843137254
 42
50.0
 43
0.0
 44
0.0
 50
0.0
 51
0.0
 71
     0
 72
   100
 73
     1
 74
     0
 75
     0
 76
     0
 77
     0
 78
     0
281
     0
 65
     1
110
0.0
120
0.0
130
0.0
111
1.0
121
0.0
131
0.0
112
0.0
122
1.0
132
0.0
 79
     0
146
0.0
348
8327
 60
     3
 61
     5
292
     1
282
     1
141
0.0
142
0.0
 63
   250
421
  3355443
1001
ACAD_NAV_VCDISPLAY
1070
     3
  0
ENDTAB
  0
TABLE
  2
LTYPE
  5
5
330
0
100
AcDbSymbolTable
 70
     2
  0
LTYPE
  5
13
330
5
100
AcDbSymbolTableRecord
100
AcDbLinetypeTableRecord
  2
BYBLOCK
 70
     0
  3

 72
    65
 73
     0
 40
0.0
  0
LTYPE
  5
14
330
5
100
AcDbSymbolTableRecord
100
AcDbLinetypeTableRecord
  2
BYLAYER
 70
     0
  3

 72
    65
 73
     0
 40
0.0
  0
LTYPE
  5
15
330
5
100
AcDbSymbolTableRecord
100
AcDbLinetypeTableRecord
  2
CONTINUOUS
 70
     0
  3
Solid line
 72
    65
 73
     0
 40
0.0
  0
LTYPE
  5
1F
330
5
100
AcDbSymbolTableRecord
100
AcDbLinetypeTableRecord
  2
CENTER
 70
     0
  3
____ _ ____ _ ____ _ ____ _ ____ _ ____ _ ____ 
 72
    65
 73
     4
 40
2.0
 49
1.25
 74
     0
 49
-0.25
 74
     0
 49
0.25
 74
     0
 49
-0.25
 74
     0
  0
ENDTAB
  0
TABLE
  2
LAYER
  5
2
102
{ACAD_XDICTIONARY
360
83B8
102
}
330
0
100
AcDbSymbolTable
 70
     6
  0
LAYER
  5
F
102
{ACAD_XDICTIONARY
360
83AB
102
}
330
2
100
AcDbSymbolTableRecord
100
AcDbLayerTableRecord
  2
0
 70
     0
 62
     7
  6
CONTINUOUS
370
    -3
390
82F9
347
8319
348
0
  0
LAYER
  5
31
102
{ACAD_XDICTIONARY
360
83AD
102
}
330
2
100
AcDbSymbolTableRecord
100
AcDbLayerTableRecord
  2
3
 70
     0
 62
     2
  6
CONTINUOUS
370
    -3
390
82F9
347
8319
348
0
  0
LAYER
  5
76D0
102
{ACAD_XDICTIONARY
360
83AF
102
}
330
2
100
AcDbSymbolTableRecord
100
AcDbLayerTableRecord
  2
2
 70
     0
 62
     3
  6
CENTER
370
    -3
390
82F9
347
8319
348
0
  0
LAYER
  5
76D1
102
{ACAD_XDICTIONARY
360
83B1
102
}
330
2
100
AcDbSymbolTableRecord
100
AcDbLayerTableRecord
  2
1
 70
     0
 62
     4
  6
CONTINUOUS
370
    -3
390
82F9
347
8319
348
0
  0
LAYER
  5
76D2
102
{ACAD_XDICTIONARY
360
83B3
102
}
330
2
100
AcDbSymbolTableRecord
100
AcDbLayerTableRecord
  2
4
 70
     0
 62
     7
  6
CONTINUOUS
370
    -3
390
82F9
347
8319
348
0
  0
LAYER
  5
7B0A
330
2
100
AcDbSymbolTableRecord
100
AcDbLayerTableRecord
  2
DEFPOINTS
 70
     0
 62
     7
  6
CONTINUOUS
290
     0
370
    -3
390
82F9
347
8319
348
0
  0
ENDTAB
  0
TABLE
  2
STYLE
  5
3
330
0
100
AcDbSymbolTable
 70
     1
  0
STYLE
  5
10
330
3
100
AcDbSymbolTableRecord
100
AcDbTextStyleTableRecord
  2
STANDARD
 70
     0
 40
0.0
 41
1.0
 50
0.0
 71
     0
 42
180.0
  3
simplex.shx
  4
extfont.shx
  0
ENDTAB
  0
TABLE
  2
VIEW
  5
6
330
0
100
AcDbSymbolTable
 70
     0
  0
ENDTAB
  0
TABLE
  2
UCS
  5
7
330
0
100
AcDbSymbolTable
 70
     0
  0
ENDTAB
  0
TABLE
  2
APPID
  5
9
330
0
100
AcDbSymbolTable
 70
     4
  0
APPID
  5
11
330
9
100
AcDbSymbolTableRecord
100
AcDbRegAppTableRecord
  2
ACAD
 70
     0
  0
APPID
  5
83BE
330
9
100
AcDbSymbolTableRecord
100
AcDbRegAppTableRecord
  2
ACAD_NAV_VCDISPLAY
 70
     0
  0
APPID
  5
83D5
330
9
100
AcDbSymbolTableRecord
100
AcDbRegAppTableRecord
  2
AcadAnnoMonitorAlertIconDisabled
 70
     0
  0
APPID
  5
83D6
330
9
100
AcDbSymbolTableRecord
100
AcDbRegAppTableRecord
  2
ACAD_EXEMPT_FROM_CAD_STANDARDS
 70
     0
  0
ENDTAB
  0
TABLE
  2
DIMSTYLE
  5
A
330
0
100
AcDbSymbolTable
 70
     1
100
AcDbDimStyleTable
 71
     0
  0
DIMSTYLE
105
1D
102
{ACAD_REACTORS
330
7CAC
330
7CAD
330
7CB0
330
7CDB
330
7CDC
330
7CDD
330
7CDE
330
7CDF
330
7CE0
330
7CE1
330
7CE2
330
7CE6
330
826B
330
8278
330
8285
330
8294
330
82BD
330
82E8
330
82F5
102
}
330
A
100
AcDbSymbolTableRecord
100
AcDbDimStyleTableRecord
  2
IGA
 70
     0
 40
2.0
 41
2.0
 42
0.5
 43
10.0
 44
1.0
 47
1.0
 48
1.0
 73
     0
 74
     0
 77
     1
 78
     8
140
3.0
141
0.0
143
0.03937
146
10.0
147
1.0
173
     1
271
     1
272
     0
279
     2
284
     8
340
10
341
79FC
343
79FC
344
79FC
  0
ENDTAB
  0
TABLE
  2
BLOCK_RECORD
  5
1
330
0
100
AcDbSymbolTable
 70
    21
  0
BLOCK_RECORD
  5
19
102
{ACAD_XDICTIONARY
360
8359
102
}
330
1
100
AcDbSymbolTableRecord
100
AcDbBlockTableRecord
  2
*MODEL_SPACE
340
82FC
 70
     0
280
     1
281
     0
  0
BLOCK_RECORD
  5
16
330
1
100
AcDbSymbolTableRecord
100
AcDbBlockTableRecord
  2
*PAPER_SPACE
340
82FD
 70
     0
280
     1
281
     0
  0
BLOCK_RECORD
  5
79FC
330
1
100
AcDbSymbolTableRecord
100
AcDbBlockTableRecord
  2
_OPEN
340
0
102
{BLKREFS
331
7F8C
331
7F8D
331
7FF6
331
7FF7
331
800C
331
800D
331
805B
331
805C
331
8067
331
8068
331
8071
331
8072
331
8107
331
8108
331
8112
331
8113
331
816A
331
816B
331
8218
331
8219
331
8232
331
8233
331
835E
331
835F
331
8367
331
8368
331
8370
331
8371
331
837B
331
837C
331
8387
331
839A
331
839B
331
83A7
331
83E4
331
83E5
102
}
 70
     0
280
     1
281
     0
  0
BLOCK_RECORD
  5
7A02
330
1
100
AcDbSymbolTableRecord
100
AcDbBlockTableRecord
  2
_DOT
340
0
102
{BLKREFS
331
8386
331
83A6
102
}
 70
     0
280
     1
281
     0
  0
BLOCK_RECORD
  5
7D7F
330
1
100
AcDbSymbolTableRecord
100
AcDbBlockTableRecord
  2
*D2
340
0
 70
     0
280
     1
281
     0
  0
BLOCK_RECORD
  5
7D8B
330
1
100
AcDbSymbolTableRecord
100
AcDbBlockTableRecord
  2
*D3
340
0
 70
     0
280
     1
281
     0
  0
BLOCK_RECORD
  5
7D97
330
1
100
AcDbSymbolTableRecord
100
AcDbBlockTableRecord
  2
*D4
340
0
 70
     0
280
     1
281
     0
  0
BLOCK_RECORD
  5
7DBD
330
1
100
AcDbSymbolTableRecord
100
AcDbBlockTableRecord
  2
*D5
340
0
 70
     0
280
     1
281
     0
  0
BLOCK_RECORD
  5
7DC9
330
1
100
AcDbSymbolTableRecord
100
AcDbBlockTableRecord
  2
*D6
340
0
 70
     0
280
     1
281
     0
  0
BLOCK_RECORD
  5
7DD4
330
1
100
AcDbSymbolTableRecord
100
AcDbBlockTableRecord
  2
*D7
340
0
 70
     0
280
     1
281
     0
  0
BLOCK_RECORD
  5
7DE0
330
1
100
AcDbSymbolTableRecord
100
AcDbBlockTableRecord
  2
*D8
340
0
 70
     0
280
     1
281
     0
  0
BLOCK_RECORD
  5
7DEC
330
1
100
AcDbSymbolTableRecord
100
AcDbBlockTableRecord
  2
*D9
340
0
 70
     0
280
     1
281
     0
  0
BLOCK_RECORD
  5
7DF8
330
1
100
AcDbSymbolTableRecord
100
AcDbBlockTableRecord
  2
*D10
340
0
 70
     0
280
     1
281
     0
  0
BLOCK_RECORD
  5
7E04
330
1
100
AcDbSymbolTableRecord
100
AcDbBlockTableRecord
  2
*D11
340
0
 70
     0
280
     1
281
     0
  0
BLOCK_RECORD
  5
7E10
330
1
100
AcDbSymbolTableRecord
100
AcDbBlockTableRecord
  2
*D12
340
0
 70
     0
280
     1
281
     0
  0
BLOCK_RECORD
  5
7E3E
330
1
100
AcDbSymbolTableRecord
100
AcDbBlockTableRecord
  2
*D13
340
0
 70
     0
280
     1
281
     0
  0
BLOCK_RECORD
  5
825F
330
1
100
AcDbSymbolTableRecord
100
AcDbBlockTableRecord
  2
*D14
340
0
 70
     0
280
     1
281
     0
  0
BLOCK_RECORD
  5
826C
330
1
100
AcDbSymbolTableRecord
100
AcDbBlockTableRecord
  2
*D15
340
0
 70
     0
280
     1
281
     0
  0
BLOCK_RECORD
  5
8279
330
1
100
AcDbSymbolTableRecord
100
AcDbBlockTableRecord
  2
*D16
340
0
 70
     0
280
     1
281
     0
  0
BLOCK_RECORD
  5
8286
330
1
100
AcDbSymbolTableRecord
100
AcDbBlockTableRecord
  2
*D17
340
0
 70
     0
280
     1
281
     0
  0
BLOCK_RECORD
  5
82AF
330
1
100
AcDbSymbolTableRecord
100
AcDbBlockTableRecord
  2
*D18
340
0
 70
     0
280
     1
281
     0
  0
BLOCK_RECORD
  5
82DC
330
1
100
AcDbSymbolTableRecord
100
AcDbBlockTableRecord
  2
*D19
340
0
 70
     0
280
     1
281
     0
  0
BLOCK_RECORD
  5
82E9
330
1
100
AcDbSymbolTableRecord
100
AcDbBlockTableRecord
  2
*D20
340
0
 70
     0
280
     1
281
     0
  0
ENDTAB
  0
ENDSEC
  0
SECTION
  2
BLOCKS
  0
BLOCK
  5
1A
330
19
100
AcDbEntity
  8
0
100
AcDbBlockBegin
  2
*MODEL_SPACE
 70
     0
 10
0.0
 20
0.0
 30
0.0
  3
*MODEL_SPACE
  1

  0
ENDBLK
  5
1B
330
19
100
AcDbEntity
  8
0
100
AcDbBlockEnd
  0
BLOCK
  5
17
330
16
100
AcDbEntity
 67
     1
  8
0
100
AcDbBlockBegin
  2
*PAPER_SPACE
 70
     0
 10
0.0
 20
0.0
 30
0.0
  3
*PAPER_SPACE
  1

  0
ENDBLK
  5
18
330
16
100
AcDbEntity
 67
     1
  8
0
100
AcDbBlockEnd
  0
BLOCK
  5
7A00
330
79FC
100
AcDbEntity
  8
0
100
AcDbBlockBegin
  2
_OPEN
 70
     0
 10
0.0
 20
0.0
 30
0.0
  3
_OPEN
  1

  0
LINE
  5
79FD
330
79FC
100
AcDbEntity
  8
0
  6
ByBlock
 62
     0
100
AcDbLine
 10
-1.0
 20
0.1666666666666666
 30
0.0
 11
0.0
 21
0.0
 31
0.0
  0
LINE
  5
79FE
330
79FC
100
AcDbEntity
  8
0
  6
ByBlock
 62
     0
100
AcDbLine
 10
0.0
 20
0.0
 30
0.0
 11
-1.0
 21
-0.1666666666666666
 31
0.0
  0
LINE
  5
79FF
330
79FC
100
AcDbEntity
  8
0
  6
ByBlock
 62
     0
100
AcDbLine
 10
0.0
 20
0.0
 30
0.0
 11
-1.0
 21
0.0
 31
0.0
  0
ENDBLK
  5
7A01
330
79FC
100
AcDbEntity
  8
0
100
AcDbBlockEnd
  0
BLOCK
  5
7A08
330
7A02
100
AcDbEntity
  8
0
100
AcDbBlockBegin
  2
_DOT
 70
     0
 10
0.0
 20
0.0
 30
0.0
  3
_DOT
  1

  0
LINE
  5
8175
330
7A02
100
AcDbEntity
  8
0
  6
ByBlock
 62
     0
100
AcDbLine
 10
0.0
 20
0.0
 30
0.0
 11
-1.0
 21
-0.0000000000000284
 31
0.0
  0
LWPOLYLINE
  5
8176
330
7A02
100
AcDbEntity
  8
0
  6
ByBlock
 62
     0
100
AcDbPolyline
 90
        2
 70
     1
 43
0.1666666666666666
 10
-0.0833333333333286
 20
-0.0000000000000284
 42
1.0
 10
0.0833333333333286
 20
-0.0000000000000284
 42
1.0
  0
ENDBLK
  5
7A09
330
7A02
100
AcDbEntity
  8
0
100
AcDbBlockEnd
  0
BLOCK
  5
8008
330
7D7F
100
AcDbEntity
  8
0
100
AcDbBlockBegin
  2
*D2
 70
     1
 10
0.0
 20
0.0
 30
0.0
  3
*D2
  1

  0
LINE
  5
8009
330
7D7F
100
AcDbEntity
  8
0
  6
ByBlock
 62
     0
440
 16777216
100
AcDbLine
 10
970.4429731572727
 20
1409.296748891718
 30
0.0
 11
970.4429731572727
 21
1461.754978781107
 31
0.0
  0
LINE
  5
800A
330
7D7F
100
AcDbEntity
  8
0
  6
ByBlock
 62
     0
440
 16777216
100
AcDbLine
 10
770.4429731572727
 20
1409.296748891718
 30
0.0
 11
770.4429731572727
 21
1461.754978781107
 31
0.0
  0
LINE
  5
800B
330
7D7F
100
AcDbEntity
  8
0
  6
ByBlock
 62
     0
440
 16777216
100
AcDbLine
 10
946.4429731572726
 20
1449.754978781107
 30
0.0
 11
794.4429731572727
 21
1449.754978781107
 31
0.0
  0
INSERT
  5
800C
330
7D7F
100
AcDbEntity
  8
0
  6
ByBlock
 62
     0
440
 16777216
100
AcDbBlockReference
  2
_OPEN
 10
970.4429731572727
 20
1449.754978781107
 30
0.0
 41
24.0
 42
24.0
 43
24.0
  0
INSERT
  5
800D
330
7D7F
100
AcDbEntity
  8
0
  6
ByBlock
 62
     0
440
 16777216
100
AcDbBlockReference
  2
_OPEN
 10
770.4429731572727
 20
1449.754978781107
 30
0.0
 41
24.0
 42
24.0
 43
24.0
 50
180.0
  0
MTEXT
  5
800E
330
7D7F
100
AcDbEntity
  8
0
  6
ByBlock
 62
     0
440
 16777216
100
AcDbMText
 10
870.4429731572727
 20
1479.754978781107
 30
0.0
 40
36.0
 41
0.0
 46
0.0
 71
     5
 72
     5
  1
\A1;200
 73
     1
 44
1.0
  0
POINT
  5
800F
330
7D7F
100
AcDbEntity
  8
DEFPOINTS
  6
ByBlock
 62
     0
440
 16777216
100
AcDbPoint
 10
970.4429731572727
 20
1403.296748891718
 30
0.0
  0
POINT
  5
8010
330
7D7F
100
AcDbEntity
  8
DEFPOINTS
  6
ByBlock
 62
     0
440
 16777216
100
AcDbPoint
 10
770.4429731572727
 20
1403.296748891718
 30
0.0
  0
POINT
  5
8011
330
7D7F
100
AcDbEntity
  8
DEFPOINTS
  6
ByBlock
 62
     0
440
 16777216
100
AcDbPoint
 10
770.4429731572727
 20
1449.754978781107
 30
0.0
  0
ENDBLK
  5
8012
330
7D7F
100
AcDbEntity
  8
0
100
AcDbBlockEnd
  0
BLOCK
  5
806D
330
7D8B
100
AcDbEntity
  8
0
100
AcDbBlockBegin
  2
*D3
 70
     1
 10
0.0
 20
0.0
 30
0.0
  3
*D3
  1

  0
LINE
  5
806E
330
7D8B
100
AcDbEntity
  8
0
  6
ByBlock
 62
     0
440
 16777216
100
AcDbLine
 10
969.4429731572729
 20
1409.661151015888
 30
0.0
 11
969.4429731572729
 21
1524.081801962957
 31
0.0
  0
LINE
  5
806F
330
7D8B
100
AcDbEntity
  8
0
  6
ByBlock
 62
     0
440
 16777216
100
AcDbLine
 10
770.4429731572727
 20
1409.296748891718
 30
0.0
 11
770.4429731572727
 21
1524.081801962957
 31
0.0
  0
LINE
  5
8070
330
7D8B
100
AcDbEntity
  8
0
  6
ByBlock
 62
     0
440
 16777216
100
AcDbLine
 10
945.4429731572728
 20
1512.081801962957
 30
0.0
 11
794.4429731572727
 21
1512.081801962957
 31
0.0
  0
INSERT
  5
8071
330
7D8B
100
AcDbEntity
  8
0
  6
ByBlock
 62
     0
440
 16777216
100
AcDbBlockReference
  2
_OPEN
 10
969.4429731572729
 20
1512.081801962957
 30
0.0
 41
24.0
 42
24.0
 43
24.0
  0
INSERT
  5
8072
330
7D8B
100
AcDbEntity
  8
0
  6
ByBlock
 62
     0
440
 16777216
100
AcDbBlockReference
  2
_OPEN
 10
770.4429731572727
 20
1512.081801962957
 30
0.0
 41
24.0
 42
24.0
 43
24.0
 50
180.0
  0
MTEXT
  5
8073
330
7D8B
100
AcDbEntity
  8
0
  6
ByBlock
 62
     0
440
 16777216
100
AcDbMText
 10
869.9429731572728
 20
1542.081801962957
 30
0.0
 40
36.0
 41
0.0
 46
0.0
 71
     5
 72
     5
  1
\A1;199
 73
     1
 44
1.0
  0
POINT
  5
8074
330
7D8B
100
AcDbEntity
  8
DEFPOINTS
  6
ByBlock
 62
     0
440
 16777216
100
AcDbPoint
 10
969.4429731572729
 20
1403.661151015888
 30
0.0
  0
POINT
  5
8075
330
7D8B
100
AcDbEntity
  8
DEFPOINTS
  6
ByBlock
 62
     0
440
 16777216
100
AcDbPoint
 10
770.4429731572727
 20
1403.296748891718
 30
0.0
  0
POINT
  5
8076
330
7D8B
100
AcDbEntity
  8
DEFPOINTS
  6
ByBlock
 62
     0
440
 16777216
100
AcDbPoint
 10
770.4429731572727
 20
1512.081801962957
 30
0.0
  0
ENDBLK
  5
8077
330
7D8B
100
AcDbEntity
  8
0
100
AcDbBlockEnd
  0
BLOCK
  5
7FF2
330
7D97
100
AcDbEntity
  8
0
100
AcDbBlockBegin
  2
*D4
 70
     1
 10
0.0
 20
0.0
 30
0.0
  3
*D4
  1

  0
LINE
  5
7FF3
330
7D97
100
AcDbEntity
  8
0
  6
ByBlock
 62
     0
440
 16777216
100
AcDbLine
 10
1160.807375281443
 20
1218.296748891718
 30
0.0
 11
1261.636335040401
 21
1218.296748891718
 31
0.0
  0
LINE
  5
7FF4
330
7D97
100
AcDbEntity
  8
0
  6
ByBlock
 62
     0
440
 16777216
100
AcDbLine
 10
1150.442973157272
 20
958.2967488917178
 30
0.0
 11
1261.636335040401
 21
958.2967488917178
 31
0.0
  0
LINE
  5
7FF5
330
7D97
100
AcDbEntity
  8
0
  6
ByBlock
 62
     0
440
 16777216
100
AcDbLine
 10
1249.636335040401
 20
1194.296748891717
 30
0.0
 11
1249.636335040401
 21
982.2967488917178
 31
0.0
  0
INSERT
  5
7FF6
330
7D97
100
AcDbEntity
  8
0
  6
ByBlock
 62
     0
440
 16777216
100
AcDbBlockReference
  2
_OPEN
 10
1249.636335040401
 20
1218.296748891718
 30
0.0
 41
24.0
 42
24.0
 43
24.0
 50
90.0
  0
INSERT
  5
7FF7
330
7D97
100
AcDbEntity
  8
0
  6
ByBlock
 62
     0
440
 16777216
100
AcDbBlockReference
  2
_OPEN
 10
1249.636335040401
 20
958.2967488917178
 30
0.0
 41
24.0
 42
24.0
 43
24.0
 50
270.0
  0
MTEXT
  5
7FF8
330
7D97
100
AcDbEntity
  8
0
  6
ByBlock
 62
     0
440
 16777216
100
AcDbMText
 10
1219.636335040401
 20
1088.296748891718
 30
0.0
 40
36.0
 41
0.0
 46
0.0
 71
     5
 72
     5
  1
\A1;260
 11
0.0
 21
1.0
 31
0.0
 73
     1
 44
1.0
  0
POINT
  5
7FF9
330
7D97
100
AcDbEntity
  8
DEFPOINTS
  6
ByBlock
 62
     0
440
 16777216
100
AcDbPoint
 10
1154.807375281443
 20
1218.296748891718
 30
0.0
  0
POINT
  5
7FFA
330
7D97
100
AcDbEntity
  8
DEFPOINTS
  6
ByBlock
 62
     0
440
 16777216
100
AcDbPoint
 10
1144.442973157272
 20
958.2967488917178
 30
0.0
  0
POINT
  5
7FFB
330
7D97
100
AcDbEntity
  8
DEFPOINTS
  6
ByBlock
 62
     0
440
 16777216
100
AcDbPoint
 10
1249.636335040401
 20
958.2967488917178
 30
0.0
  0
ENDBLK
  5
7FFC
330
7D97
100
AcDbEntity
  8
0
100
AcDbBlockEnd
  0
BLOCK
  5
8102
330
7DBD
100
AcDbEntity
  8
0
100
AcDbBlockBegin
  2
*D5
 70
     1
 10
0.0
 20
0.0
 30
0.0
  3
*D5
  1

  0
LINE
  5
8103
330
7DBD
100
AcDbEntity
  8
0
  6
ByBlock
 62
     0
440
 16777216
100
AcDbLine
 10
2161.167799229644
 20
1389.296748891718
 30
0.0
 11
2161.167799229644
 21
1538.745310019385
 31
0.0
  0
LINE
  5
8104
330
7DBD
100
AcDbEntity
  8
0
  6
ByBlock
 62
     0
440
 16777216
100
AcDbLine
 10
2084.167799229645
 20
1497.485931497975
 30
0.0
 11
2084.167799229645
 21
1538.745310019385
 31
0.0
  0
LINE
  5
8105
330
7DBD
100
AcDbEntity
  8
0
  6
ByBlock
 62
     0
440
 16777216
100
AcDbLine
 10
2137.167799229644
 20
1526.745310019385
 30
0.0
 11
2108.167799229645
 21
1526.745310019385
 31
0.0
  0
MTEXT
  5
8106
330
7DBD
100
AcDbEntity
  8
0
  6
ByBlock
 62
     0
440
 16777216
100
AcDbMText
 10
2122.31414194454
 20
1551.376525439496
 30
0.0
 40
36.0
 41
0.0
 46
0.0
 71
     5
 72
     5
  1
\A1;79
 73
     1
 44
1.0
  0
INSERT
  5
8107
330
7DBD
100
AcDbEntity
  8
0
  6
ByBlock
 62
     0
440
 16777216
100
AcDbBlockReference
  2
_OPEN
 10
2161.167799229644
 20
1526.745310019385
 30
0.0
 41
24.0
 42
24.0
 43
24.0
  0
INSERT
  5
8108
330
7DBD
100
AcDbEntity
  8
0
  6
ByBlock
 62
     0
440
 16777216
100
AcDbBlockReference
  2
_OPEN
 10
2084.167799229645
 20
1526.745310019385
 30
0.0
 41
24.0
 42
24.0
 43
24.0
 50
180.0
  0
POINT
  5
8109
330
7DBD
100
AcDbEntity
  8
DEFPOINTS
  6
ByBlock
 62
     0
440
 16777216
100
AcDbPoint
 10
2161.167799229644
 20
1383.296748891718
 30
0.0
  0
POINT
  5
810A
330
7DBD
100
AcDbEntity
  8
DEFPOINTS
  6
ByBlock
 62
     0
440
 16777216
100
AcDbPoint
 10
2084.167799229645
 20
1491.485931497975
 30
0.0
  0
POINT
  5
810B
330
7DBD
100
AcDbEntity
  8
DEFPOINTS
  6
ByBlock
 62
     0
440
 16777216
100
AcDbPoint
 10
2084.167799229645
 20
1526.745310019385
 30
0.0
  0
ENDBLK
  5
810C
330
7DBD
100
AcDbEntity
  8
0
100
AcDbBlockEnd
  0
BLOCK
  5
815B
330
7DC9
100
AcDbEntity
  8
0
100
AcDbBlockBegin
  2
*D6
 70
     1
 10
0.0
 20
0.0
 30
0.0
  3
*D6
  1

  0
LINE
  5
83E1
330
7DC9
100
AcDbEntity
  8
3
 62
     0
440
 16777216
370
    -2
100
AcDbLine
 10
2084.167799229645
 20
1497.485931497975
 30
0.0
 11
2084.167799229645
 21
1538.745310019385
 31
0.0
  0
LINE
  5
83E2
330
7DC9
100
AcDbEntity
  8
3
 62
     0
440
 16777216
370
    -2
100
AcDbLine
 10
1651.167799229644
 20
1304.388807865095
 30
0.0
 11
1651.167799229644
 21
1538.745310019385
 31
0.0
  0
LINE
  5
83E3
330
7DC9
100
AcDbEntity
  8
3
 62
     0
440
 16777216
370
    -2
100
AcDbLine
 10
2060.167799229644
 20
1526.745310019385
 30
0.0
 11
1675.167799229643
 21
1526.745310019385
 31
0.0
  0
INSERT
  5
83E4
330
7DC9
100
AcDbEntity
  8
3
 62
     0
440
 16777216
370
    -2
100
AcDbBlockReference
  2
_OPEN
 10
2084.167799229645
 20
1526.745310019385
 30
0.0
 41
24.0
 42
24.0
 43
24.0
  0
INSERT
  5
83E5
330
7DC9
100
AcDbEntity
  8
3
 62
     0
440
 16777216
370
    -2
100
AcDbBlockReference
  2
_OPEN
 10
1651.167799229644
 20
1526.745310019385
 30
0.0
 41
24.0
 42
24.0
 43
24.0
 50
180.0
  0
MTEXT
  5
83E6
330
7DC9
100
AcDbEntity
  8
3
 62
     0
440
 16777216
100
AcDbMText
 10
1867.667799229644
 20
1596.173881447956
 30
0.0
 40
36.0
 41
0.0
 46
0.0
 71
     5
 72
     1
  1
\A1;\P(520)
 73
     1
 44
1.0
  0
POINT
  5
83E7
330
7DC9
100
AcDbEntity
  8
DEFPOINTS
 62
     0
440
 16777216
100
AcDbPoint
 10
2084.167799229645
 20
1491.485931497975
 30
0.0
  0
POINT
  5
83E8
330
7DC9
100
AcDbEntity
  8
DEFPOINTS
 62
     0
440
 16777216
100
AcDbPoint
 10
1651.167799229644
 20
1298.388807865095
 30
0.0
  0
POINT
  5
83E9
330
7DC9
100
AcDbEntity
  8
DEFPOINTS
 62
     0
440
 16777216
100
AcDbPoint
 10
1651.167799229644
 20
1526.745310019385
 30
0.0
  0
ENDBLK
  5
8165
330
7DC9
100
AcDbEntity
  8
0
100
AcDbBlockEnd
  0
BLOCK
  5
810D
330
7DD4
100
AcDbEntity
  8
0
100
AcDbBlockBegin
  2
*D7
 70
     1
 10
0.0
 20
0.0
 30
0.0
  3
*D7
  1

  0
LINE
  5
810E
330
7DD4
100
AcDbEntity
  8
0
  6
ByBlock
 62
     0
440
 16777216
100
AcDbLine
 10
2009.167799229643
 20
1389.296748891718
 30
0.0
 11
2009.167799229643
 21
1459.775222770075
 31
0.0
  0
LINE
  5
810F
330
7DD4
100
AcDbEntity
  8
0
  6
ByBlock
 62
     0
440
 16777216
100
AcDbLine
 10
2159.167799229643
 20
1389.296748891718
 30
0.0
 11
2159.167799229643
 21
1459.775222770075
 31
0.0
  0
LINE
  5
8110
330
7DD4
100
AcDbEntity
  8
0
  6
ByBlock
 62
     0
440
 16777216
100
AcDbLine
 10
2033.167799229644
 20
1447.775222770075
 30
0.0
 11
2135.167799229643
 21
1447.775222770075
 31
0.0
  0
MTEXT
  5
8111
330
7DD4
100
AcDbEntity
  8
0
  6
ByBlock
 62
     0
440
 16777216
100
AcDbMText
 10
2084.167799229644
 20
1476.434907881891
 30
0.0
 40
36.0
 41
0.0
 46
0.0
 71
     5
 72
     5
  1
\A1;150
 73
     1
 44
1.0
  0
INSERT
  5
8112
330
7DD4
100
AcDbEntity
  8
0
  6
ByBlock
 62
     0
440
 16777216
100
AcDbBlockReference
  2
_OPEN
 10
2009.167799229643
 20
1447.775222770075
 30
0.0
 41
24.0
 42
24.0
 43
24.0
 50
180.0
  0
INSERT
  5
8113
330
7DD4
100
AcDbEntity
  8
0
  6
ByBlock
 62
     0
440
 16777216
100
AcDbBlockReference
  2
_OPEN
 10
2159.167799229643
 20
1447.775222770075
 30
0.0
 41
24.0
 42
24.0
 43
24.0
  0
POINT
  5
8114
330
7DD4
100
AcDbEntity
  8
DEFPOINTS
  6
ByBlock
 62
     0
440
 16777216
100
AcDbPoint
 10
2009.167799229643
 20
1383.296748891718
 30
0.0
  0
POINT
  5
8115
330
7DD4
100
AcDbEntity
  8
DEFPOINTS
  6
ByBlock
 62
     0
440
 16777216
100
AcDbPoint
 10
2159.167799229643
 20
1383.296748891718
 30
0.0
  0
POINT
  5
8116
330
7DD4
100
AcDbEntity
  8
DEFPOINTS
  6
ByBlock
 62
     0
440
 16777216
100
AcDbPoint
 10
2159.167799229643
 20
1447.775222770075
 30
0.0
  0
ENDBLK
  5
8117
330
7DD4
100
AcDbEntity
  8
0
100
AcDbBlockEnd
  0
BLOCK
  5
8166
330
7DE0
100
AcDbEntity
  8
0
100
AcDbBlockBegin
  2
*D8
 70
     1
 10
0.0
 20
0.0
 30
0.0
  3
*D8
  1

  0
LINE
  5
8167
330
7DE0
100
AcDbEntity
  8
0
  6
ByBlock
 62
     0
440
 16777216
100
AcDbLine
 10
2188.167799229644
 20
1328.382842778977
 30
0.0
 11
2275.184839093483
 21
1328.382842778977
 31
0.0
  0
LINE
  5
8168
330
7DE0
100
AcDbEntity
  8
0
  6
ByBlock
 62
     0
440
 16777216
100
AcDbLine
 10
2188.167799229644
 20
1108.382842778977
 30
0.0
 11
2275.184839093483
 21
1108.382842778977
 31
0.0
  0
LINE
  5
8169
330
7DE0
100
AcDbEntity
  8
0
  6
ByBlock
 62
     0
440
 16777216
100
AcDbLine
 10
2263.184839093483
 20
1304.382842778976
 30
0.0
 11
2263.184839093483
 21
1132.382842778977
 31
0.0
  0
INSERT
  5
816A
330
7DE0
100
AcDbEntity
  8
0
  6
ByBlock
 62
     0
440
 16777216
100
AcDbBlockReference
  2
_OPEN
 10
2263.184839093483
 20
1328.382842778977
 30
0.0
 41
24.0
 42
24.0
 43
24.0
 50
90.0
  0
INSERT
  5
816B
330
7DE0
100
AcDbEntity
  8
0
  6
ByBlock
 62
     0
440
 16777216
100
AcDbBlockReference
  2
_OPEN
 10
2263.184839093483
 20
1108.382842778977
 30
0.0
 41
24.0
 42
24.0
 43
24.0
 50
270.0
  0
MTEXT
  5
816C
330
7DE0
100
AcDbEntity
  8
0
  6
ByBlock
 62
     0
440
 16777216
100
AcDbMText
 10
2233.184839093483
 20
1218.382842778977
 30
0.0
 40
36.0
 41
0.0
 46
0.0
 71
     5
 72
     5
  1
\A1;φ220
 11
0.0
 21
1.0
 31
0.0
 73
     1
 44
1.0
  0
POINT
  5
816D
330
7DE0
100
AcDbEntity
  8
DEFPOINTS
  6
ByBlock
 62
     0
440
 16777216
100
AcDbPoint
 10
2182.167799229643
 20
1328.382842778977
 30
0.0
  0
POINT
  5
816E
330
7DE0
100
AcDbEntity
  8
DEFPOINTS
  6
ByBlock
 62
     0
440
 16777216
100
AcDbPoint
 10
2182.167799229643
 20
1108.382842778977
 30
0.0
  0
POINT
  5
816F
330
7DE0
100
AcDbEntity
  8
DEFPOINTS
  6
ByBlock
 62
     0
440
 16777216
100
AcDbPoint
 10
2263.184839093483
 20
1108.382842778977
 30
0.0
  0
ENDBLK
  5
8170
330
7DE0
100
AcDbEntity
  8
0
100
AcDbBlockEnd
  0
BLOCK
  5
8214
330
7DEC
100
AcDbEntity
  8
0
100
AcDbBlockBegin
  2
*D9
 70
     1
 10
0.0
 20
0.0
 30
0.0
  3
*D9
  1

  0
LINE
  5
8215
330
7DEC
100
AcDbEntity
  8
0
  6
ByBlock
 62
     0
440
 16777216
100
AcDbLine
 10
1150.442973157272
 20
2390.512590881431
 30
0.0
 11
1267.553559229093
 21
2390.512590881431
 31
0.0
  0
LINE
  5
8216
330
7DEC
100
AcDbEntity
  8
0
  6
ByBlock
 62
     0
440
 16777216
100
AcDbLine
 10
1150.442973157272
 20
2010.512590881432
 30
0.0
 11
1267.553559229093
 21
2010.512590881432
 31
0.0
  0
LINE
  5
8217
330
7DEC
100
AcDbEntity
  8
0
  6
ByBlock
 62
     0
440
 16777216
100
AcDbLine
 10
1255.553559229093
 20
2366.512590881432
 30
0.0
 11
1255.553559229093
 21
2034.512590881432
 31
0.0
  0
INSERT
  5
8218
330
7DEC
100
AcDbEntity
  8
0
  6
ByBlock
 62
     0
440
 16777216
100
AcDbBlockReference
  2
_OPEN
 10
1255.553559229093
 20
2390.512590881431
 30
0.0
 41
24.0
 42
24.0
 43
24.0
 50
90.0
  0
INSERT
  5
8219
330
7DEC
100
AcDbEntity
  8
0
  6
ByBlock
 62
     0
440
 16777216
100
AcDbBlockReference
  2
_OPEN
 10
1255.553559229093
 20
2010.512590881432
 30
0.0
 41
24.0
 42
24.0
 43
24.0
 50
270.0
  0
MTEXT
  5
821A
330
7DEC
100
AcDbEntity
  8
0
  6
ByBlock
 62
     0
440
 16777216
100
AcDbMText
 10
1225.553559229093
 20
2200.512590881432
 30
0.0
 40
36.0
 41
0.0
 46
0.0
 71
     5
 72
     5
  1
\A1;380
 11
0.0
 21
1.0
 31
0.0
 73
     1
 44
1.0
  0
POINT
  5
821B
330
7DEC
100
AcDbEntity
  8
DEFPOINTS
  6
ByBlock
 62
     0
440
 16777216
100
AcDbPoint
 10
1144.442973157272
 20
2390.512590881431
 30
0.0
  0
POINT
  5
821C
330
7DEC
100
AcDbEntity
  8
DEFPOINTS
  6
ByBlock
 62
     0
440
 16777216
100
AcDbPoint
 10
1144.442973157272
 20
2010.512590881432
 30
0.0
  0
POINT
  5
821D
330
7DEC
100
AcDbEntity
  8
DEFPOINTS
  6
ByBlock
 62
     0
440
 16777216
100
AcDbPoint
 10
1255.553559229093
 20
2010.512590881432
 30
0.0
  0
ENDBLK
  5
821E
330
7DEC
100
AcDbEntity
  8
0
100
AcDbBlockEnd
  0
BLOCK
  5
822E
330
7DF8
100
AcDbEntity
  8
0
100
AcDbBlockBegin
  2
*D10
 70
     1
 10
0.0
 20
0.0
 30
0.0
  3
*D10
  1

  0
LINE
  5
822F
330
7DF8
100
AcDbEntity
  8
0
  6
ByBlock
 62
     0
440
 16777216
100
AcDbLine
 10
524.4429731572731
 20
2396.512590881432
 30
0.0
 11
524.4429731572731
 21
2598.811142971089
 31
0.0
  0
LINE
  5
8230
330
7DF8
100
AcDbEntity
  8
0
  6
ByBlock
 62
     0
440
 16777216
100
AcDbLine
 10
1144.442973157272
 20
2396.512590881432
 30
0.0
 11
1144.442973157272
 21
2598.811142971089
 31
0.0
  0
LINE
  5
8231
330
7DF8
100
AcDbEntity
  8
0
  6
ByBlock
 62
     0
440
 16777216
100
AcDbLine
 10
548.4429731572731
 20
2586.811142971089
 30
0.0
 11
1120.442973157272
 21
2586.811142971089
 31
0.0
  0
INSERT
  5
8232
330
7DF8
100
AcDbEntity
  8
0
  6
ByBlock
 62
     0
440
 16777216
100
AcDbBlockReference
  2
_OPEN
 10
524.4429731572731
 20
2586.811142971089
 30
0.0
 41
24.0
 42
24.0
 43
24.0
 50
180.0
  0
INSERT
  5
8233
330
7DF8
100
AcDbEntity
  8
0
  6
ByBlock
 62
     0
440
 16777216
100
AcDbBlockReference
  2
_OPEN
 10
1144.442973157272
 20
2586.811142971089
 30
0.0
 41
24.0
 42
24.0
 43
24.0
  0
MTEXT
  5
8234
330
7DF8
100
AcDbEntity
  8
0
  6
ByBlock
 62
     0
440
 16777216
100
AcDbMText
 10
834.4429731572729
 20
2616.811142971089
 30
0.0
 40
36.0
 41
0.0
 46
0.0
 71
     5
 72
     5
  1
\A1;620
 73
     1
 44
1.0
  0
POINT
  5
8235
330
7DF8
100
AcDbEntity
  8
DEFPOINTS
  6
ByBlock
 62
     0
440
 16777216
100
AcDbPoint
 10
524.4429731572731
 20
2390.512590881431
 30
0.0
  0
POINT
  5
8236
330
7DF8
100
AcDbEntity
  8
DEFPOINTS
  6
ByBlock
 62
     0
440
 16777216
100
AcDbPoint
 10
1144.442973157272
 20
2390.512590881431
 30
0.0
  0
POINT
  5
8237
330
7DF8
100
AcDbEntity
  8
DEFPOINTS
  6
ByBlock
 62
     0
440
 16777216
100
AcDbPoint
 10
1144.442973157272
 20
2586.811142971089
 30
0.0
  0
ENDBLK
  5
8238
330
7DF8
100
AcDbEntity
  8
0
100
AcDbBlockEnd
  0
BLOCK
  5
7F88
330
7E04
100
AcDbEntity
  8
0
100
AcDbBlockBegin
  2
*D11
 70
     1
 10
0.0
 20
0.0
 30
0.0
  3
*D11
  1

  0
LINE
  5
7F89
330
7E04
100
AcDbEntity
  8
0
  6
ByBlock
 62
     0
440
 16777216
100
AcDbLine
 10
998.4429731572728
 20
1403.296748891718
 30
0.0
 11
1260.724702494094
 21
1403.296748891718
 31
0.0
  0
LINE
  5
7F8A
330
7E04
100
AcDbEntity
  8
0
  6
ByBlock
 62
     0
440
 16777216
100
AcDbLine
 10
1160.807375281443
 20
1218.296748891718
 30
0.0
 11
1260.724702494094
 21
1218.296748891718
 31
0.0
  0
LINE
  5
7F8B
330
7E04
100
AcDbEntity
  8
0
  6
ByBlock
 62
     0
440
 16777216
100
AcDbLine
 10
1248.724702494094
 20
1379.296748891718
 30
0.0
 11
1248.724702494094
 21
1242.296748891718
 31
0.0
  0
INSERT
  5
7F8C
330
7E04
100
AcDbEntity
  8
0
  6
ByBlock
 62
     0
440
 16777216
100
AcDbBlockReference
  2
_OPEN
 10
1248.724702494094
 20
1403.296748891718
 30
0.0
 41
24.0
 42
24.0
 43
24.0
 50
90.0
  0
INSERT
  5
7F8D
330
7E04
100
AcDbEntity
  8
0
  6
ByBlock
 62
     0
440
 16777216
100
AcDbBlockReference
  2
_OPEN
 10
1248.724702494094
 20
1218.296748891718
 30
0.0
 41
24.0
 42
24.0
 43
24.0
 50
270.0
  0
MTEXT
  5
7F8E
330
7E04
100
AcDbEntity
  8
0
  6
ByBlock
 62
     0
440
 16777216
100
AcDbMText
 10
1218.724702494094
 20
1310.796748891718
 30
0.0
 40
36.0
 41
0.0
 46
0.0
 71
     5
 72
     5
  1
\A1;185
 11
0.0
 21
1.0
 31
0.0
 73
     1
 44
1.0
  0
POINT
  5
7F8F
330
7E04
100
AcDbEntity
  8
DEFPOINTS
  6
ByBlock
 62
     0
440
 16777216
100
AcDbPoint
 10
992.4429731572727
 20
1403.296748891718
 30
0.0
  0
POINT
  5
7F90
330
7E04
100
AcDbEntity
  8
DEFPOINTS
  6
ByBlock
 62
     0
440
 16777216
100
AcDbPoint
 10
1154.807375281443
 20
1218.296748891718
 30
0.0
  0
POINT
  5
7F91
330
7E04
100
AcDbEntity
  8
DEFPOINTS
  6
ByBlock
 62
     0
440
 16777216
100
AcDbPoint
 10
1248.724702494094
 20
1218.296748891718
 30
0.0
  0
ENDBLK
  5
7F92
330
7E04
100
AcDbEntity
  8
0
100
AcDbBlockEnd
  0
BLOCK
  5
8062
330
7E10
100
AcDbEntity
  8
0
100
AcDbBlockBegin
  2
*D12
 70
     1
 10
0.0
 20
0.0
 30
0.0
  3
*D12
  1

  0
LINE
  5
8063
330
7E10
100
AcDbEntity
  8
0
  6
ByBlock
 62
     0
440
 16777216
100
AcDbLine
 10
969.4429731572729
 20
1409.661151015888
 30
0.0
 11
969.4429731572729
 21
1524.081801962957
 31
0.0
  0
LINE
  5
8064
330
7E10
100
AcDbEntity
  8
0
  6
ByBlock
 62
     0
440
 16777216
100
AcDbLine
 10
1117.442973157273
 20
1215.296748891718
 30
0.0
 11
1117.442973157273
 21
1524.081801962957
 31
0.0
  0
LINE
  5
8065
330
7E10
100
AcDbEntity
  8
0
  6
ByBlock
 62
     0
440
 16777216
100
AcDbLine
 10
993.4429731572729
 20
1512.081801962957
 30
0.0
 11
1093.442973157273
 21
1512.081801962957
 31
0.0
  0
MTEXT
  5
8066
330
7E10
100
AcDbEntity
  8
0
  6
ByBlock
 62
     0
440
 16777216
100
AcDbMText
 10
1043.442973157272
 20
1535.893158945421
 30
0.0
 40
36.0
 41
0.0
 46
0.0
 71
     5
 72
     5
  1
\A1;148
 73
     1
 44
1.0
  0
INSERT
  5
8067
330
7E10
100
AcDbEntity
  8
0
  6
ByBlock
 62
     0
440
 16777216
100
AcDbBlockReference
  2
_OPEN
 10
969.4429731572729
 20
1512.081801962957
 30
0.0
 41
24.0
 42
24.0
 43
24.0
 50
180.0
  0
INSERT
  5
8068
330
7E10
100
AcDbEntity
  8
0
  6
ByBlock
 62
     0
440
 16777216
100
AcDbBlockReference
  2
_OPEN
 10
1117.442973157273
 20
1512.081801962957
 30
0.0
 41
24.0
 42
24.0
 43
24.0
  0
POINT
  5
8069
330
7E10
100
AcDbEntity
  8
DEFPOINTS
  6
ByBlock
 62
     0
440
 16777216
100
AcDbPoint
 10
969.4429731572729
 20
1403.661151015888
 30
0.0
  0
POINT
  5
806A
330
7E10
100
AcDbEntity
  8
DEFPOINTS
  6
ByBlock
 62
     0
440
 16777216
100
AcDbPoint
 10
1117.442973157273
 20
1209.296748891718
 30
0.0
  0
POINT
  5
806B
330
7E10
100
AcDbEntity
  8
DEFPOINTS
  6
ByBlock
 62
     0
440
 16777216
100
AcDbPoint
 10
1117.442973157273
 20
1512.081801962957
 30
0.0
  0
ENDBLK
  5
806C
330
7E10
100
AcDbEntity
  8
0
100
AcDbBlockEnd
  0
BLOCK
  5
8057
330
7E3E
100
AcDbEntity
  8
0
100
AcDbBlockBegin
  2
*D13
 70
     1
 10
0.0
 20
0.0
 30
0.0
  3
*D13
  1

  0
LINE
  5
8058
330
7E3E
100
AcDbEntity
  8
0
  6
ByBlock
 62
     0
440
 16777216
100
AcDbLine
 10
1117.442973157273
 20
1215.296748891718
 30
0.0
 11
1117.442973157273
 21
1589.656209720986
 31
0.0
  0
LINE
  5
8059
330
7E3E
100
AcDbEntity
  8
0
  6
ByBlock
 62
     0
440
 16777216
100
AcDbLine
 10
524.4429731572729
 20
1004.296748891718
 30
0.0
 11
524.4429731572729
 21
1589.656209720986
 31
0.0
  0
LINE
  5
805A
330
7E3E
100
AcDbEntity
  8
0
  6
ByBlock
 62
     0
440
 16777216
100
AcDbLine
 10
1093.442973157273
 20
1577.656209720986
 30
0.0
 11
548.4429731572729
 21
1577.656209720986
 31
0.0
  0
INSERT
  5
805B
330
7E3E
100
AcDbEntity
  8
0
  6
ByBlock
 62
     0
440
 16777216
100
AcDbBlockReference
  2
_OPEN
 10
1117.442973157273
 20
1577.656209720986
 30
0.0
 41
24.0
 42
24.0
 43
24.0
  0
INSERT
  5
805C
330
7E3E
100
AcDbEntity
  8
0
  6
ByBlock
 62
     0
440
 16777216
100
AcDbBlockReference
  2
_OPEN
 10
524.4429731572729
 20
1577.656209720986
 30
0.0
 41
24.0
 42
24.0
 43
24.0
 50
180.0
  0
MTEXT
  5
805D
330
7E3E
100
AcDbEntity
  8
0
  6
ByBlock
 62
     0
440
 16777216
100
AcDbMText
 10
820.9429731572727
 20
1607.656209720986
 30
0.0
 40
36.0
 41
0.0
 46
0.0
 71
     5
 72
     5
  1
\A1;593
 73
     1
 44
1.0
  0
POINT
  5
805E
330
7E3E
100
AcDbEntity
  8
DEFPOINTS
  6
ByBlock
 62
     0
440
 16777216
100
AcDbPoint
 10
1117.442973157273
 20
1209.296748891718
 30
0.0
  0
POINT
  5
805F
330
7E3E
100
AcDbEntity
  8
DEFPOINTS
  6
ByBlock
 62
     0
440
 16777216
100
AcDbPoint
 10
524.4429731572729
 20
998.2967488917179
 30
0.0
  0
POINT
  5
8060
330
7E3E
100
AcDbEntity
  8
DEFPOINTS
  6
ByBlock
 62
     0
440
 16777216
100
AcDbPoint
 10
524.4429731572729
 20
1577.656209720986
 30
0.0
  0
ENDBLK
  5
8061
330
7E3E
100
AcDbEntity
  8
0
100
AcDbBlockEnd
  0
BLOCK
  5
8260
330
825F
100
AcDbEntity
  8
0
100
AcDbBlockBegin
  2
*D14
 70
     1
 10
0.0
 20
0.0
 30
0.0
  3
*D14
  1

  0
LINE
  5
835B
330
825F
100
AcDbEntity
  8
3
 62
     0
440
 16777216
370
    -2
100
AcDbLine
 10
524.4429731572725
 20
842.2967488917178
 30
0.0
 11
524.4429731572725
 21
744.1285417005465
 31
0.0
  0
LINE
  5
835C
330
825F
100
AcDbEntity
  8
3
 62
     0
440
 16777216
370
    -2
100
AcDbLine
 10
969.4429731572723
 20
842.2967488917182
 30
0.0
 11
969.4429731572723
 21
744.1285417005465
 31
0.0
  0
LINE
  5
835D
330
825F
100
AcDbEntity
  8
3
 62
     0
440
 16777216
370
    -2
100
AcDbLine
 10
548.4429731572724
 20
756.1285417005465
 30
0.0
 11
945.4429731572723
 21
756.1285417005465
 31
0.0
  0
INSERT
  5
835E
330
825F
100
AcDbEntity
  8
3
 62
     0
440
 16777216
370
    -2
100
AcDbBlockReference
  2
_OPEN
 10
524.4429731572725
 20
756.1285417005465
 30
0.0
 41
24.0
 42
24.0
 43
24.0
 50
180.0
  0
INSERT
  5
835F
330
825F
100
AcDbEntity
  8
3
 62
     0
440
 16777216
370
    -2
100
AcDbBlockReference
  2
_OPEN
 10
969.4429731572723
 20
756.1285417005465
 30
0.0
 41
24.0
 42
24.0
 43
24.0
  0
MTEXT
  5
8360
330
825F
100
AcDbEntity
  8
3
 62
     0
440
 16777216
100
AcDbMText
 10
746.9429731572724
 20
786.1285417005465
 30
0.0
 40
36.0
 41
0.0
 46
0.0
 71
     5
 72
     1
  1
\A1;445
 73
     1
 44
1.0
  0
POINT
  5
8361
330
825F
100
AcDbEntity
  8
DEFPOINTS
 62
     0
440
 16777216
100
AcDbPoint
 10
524.4429731572725
 20
848.2967488917179
 30
0.0
  0
POINT
  5
8362
330
825F
100
AcDbEntity
  8
DEFPOINTS
 62
     0
440
 16777216
100
AcDbPoint
 10
969.4429731572723
 20
848.296748891718
 30
0.0
  0
POINT
  5
8363
330
825F
100
AcDbEntity
  8
DEFPOINTS
 62
     0
440
 16777216
100
AcDbPoint
 10
969.4429731572723
 20
756.1285417005465
 30
0.0
  0
ENDBLK
  5
826A
330
825F
100
AcDbEntity
  8
0
100
AcDbBlockEnd
  0
BLOCK
  5
826D
330
826C
100
AcDbEntity
  8
0
100
AcDbBlockBegin
  2
*D15
 70
     1
 10
0.0
 20
0.0
 30
0.0
  3
*D15
  1

  0
LINE
  5
8364
330
826C
100
AcDbEntity
  8
3
 62
     0
440
 16777216
370
    -2
100
AcDbLine
 10
969.4429731572723
 20
842.2967488917182
 30
0.0
 11
969.4429731572723
 21
744.1285417005465
 31
0.0
  0
LINE
  5
8365
330
826C
100
AcDbEntity
  8
3
 62
     0
440
 16777216
370
    -2
100
AcDbLine
 10
1144.442973157272
 20
842.2967488917178
 30
0.0
 11
1144.442973157272
 21
744.1285417005465
 31
0.0
  0
LINE
  5
8366
330
826C
100
AcDbEntity
  8
3
 62
     0
440
 16777216
370
    -2
100
AcDbLine
 10
993.4429731572723
 20
756.1285417005465
 30
0.0
 11
1120.442973157272
 21
756.1285417005465
 31
0.0
  0
INSERT
  5
8367
330
826C
100
AcDbEntity
  8
3
 62
     0
440
 16777216
370
    -2
100
AcDbBlockReference
  2
_OPEN
 10
969.4429731572723
 20
756.1285417005465
 30
0.0
 41
24.0
 42
24.0
 43
24.0
 50
180.0
  0
INSERT
  5
8368
330
826C
100
AcDbEntity
  8
3
 62
     0
440
 16777216
370
    -2
100
AcDbBlockReference
  2
_OPEN
 10
1144.442973157272
 20
756.1285417005465
 30
0.0
 41
24.0
 42
24.0
 43
24.0
  0
MTEXT
  5
8369
330
826C
100
AcDbEntity
  8
3
 62
     0
440
 16777216
100
AcDbMText
 10
1056.942973157272
 20
786.1285417005465
 30
0.0
 40
36.0
 41
0.0
 46
0.0
 71
     5
 72
     1
  1
\A1;175
 73
     1
 44
1.0
  0
POINT
  5
836A
330
826C
100
AcDbEntity
  8
DEFPOINTS
 62
     0
440
 16777216
100
AcDbPoint
 10
969.4429731572723
 20
848.296748891718
 30
0.0
  0
POINT
  5
836B
330
826C
100
AcDbEntity
  8
DEFPOINTS
 62
     0
440
 16777216
100
AcDbPoint
 10
1144.442973157272
 20
848.2967488917179
 30
0.0
  0
POINT
  5
836C
330
826C
100
AcDbEntity
  8
DEFPOINTS
 62
     0
440
 16777216
100
AcDbPoint
 10
1144.442973157272
 20
756.1285417005465
 30
0.0
  0
ENDBLK
  5
8277
330
826C
100
AcDbEntity
  8
0
100
AcDbBlockEnd
  0
BLOCK
  5
827A
330
8279
100
AcDbEntity
  8
0
100
AcDbBlockBegin
  2
*D16
 70
     1
 10
0.0
 20
0.0
 30
0.0
  3
*D16
  1

  0
LINE
  5
836D
330
8279
100
AcDbEntity
  8
3
 62
     0
440
 16777216
370
    -2
100
AcDbLine
 10
1664.167799229644
 20
842.382842778977
 30
0.0
 11
1664.167799229644
 21
744.1285417005465
 31
0.0
  0
LINE
  5
836E
330
8279
100
AcDbEntity
  8
3
 62
     0
440
 16777216
370
    -2
100
AcDbLine
 10
2044.167799229644
 20
842.3828427789771
 30
0.0
 11
2044.167799229644
 21
744.1285417005465
 31
0.0
  0
LINE
  5
836F
330
8279
100
AcDbEntity
  8
3
 62
     0
440
 16777216
370
    -2
100
AcDbLine
 10
1688.167799229644
 20
756.1285417005465
 30
0.0
 11
2020.167799229644
 21
756.1285417005465
 31
0.0
  0
INSERT
  5
8370
330
8279
100
AcDbEntity
  8
3
 62
     0
440
 16777216
370
    -2
100
AcDbBlockReference
  2
_OPEN
 10
1664.167799229644
 20
756.1285417005465
 30
0.0
 41
24.0
 42
24.0
 43
24.0
 50
180.0
  0
INSERT
  5
8371
330
8279
100
AcDbEntity
  8
3
 62
     0
440
 16777216
370
    -2
100
AcDbBlockReference
  2
_OPEN
 10
2044.167799229644
 20
756.1285417005465
 30
0.0
 41
24.0
 42
24.0
 43
24.0
  0
MTEXT
  5
8372
330
8279
100
AcDbEntity
  8
3
 62
     0
440
 16777216
100
AcDbMText
 10
1854.167799229644
 20
786.1285417005465
 30
0.0
 40
36.0
 41
0.0
 46
0.0
 71
     5
 72
     1
  1
\A1;380
 73
     1
 44
1.0
  0
POINT
  5
8373
330
8279
100
AcDbEntity
  8
DEFPOINTS
 62
     0
440
 16777216
100
AcDbPoint
 10
1664.167799229644
 20
848.382842778977
 30
0.0
  0
POINT
  5
8374
330
8279
100
AcDbEntity
  8
DEFPOINTS
 62
     0
440
 16777216
100
AcDbPoint
 10
2044.167799229644
 20
848.3828427789772
 30
0.0
  0
POINT
  5
8375
330
8279
100
AcDbEntity
  8
DEFPOINTS
 62
     0
440
 16777216
100
AcDbPoint
 10
2044.167799229644
 20
756.1285417005465
 30
0.0
  0
ENDBLK
  5
8284
330
8279
100
AcDbEntity
  8
0
100
AcDbBlockEnd
  0
BLOCK
  5
8287
330
8286
100
AcDbEntity
  8
0
100
AcDbBlockBegin
  2
*D17
 70
     1
 10
0.0
 20
0.0
 30
0.0
  3
*D17
  1

  0
LINE
  5
8376
330
8286
100
AcDbEntity
  8
3
 62
     0
440
 16777216
370
    -2
100
AcDbLine
 10
2044.167799229644
 20
842.3828427789771
 30
0.0
 11
2044.167799229644
 21
744.1285417005465
 31
0.0
  0
LINE
  5
8377
330
8286
100
AcDbEntity
  8
3
 62
     0
440
 16777216
370
    -2
100
AcDbLine
 10
2084.167799229644
 20
842.382842778977
 30
0.0
 11
2084.167799229644
 21
744.1285417005465
 31
0.0
  0
LINE
  5
8378
330
8286
100
AcDbEntity
  8
3
 62
     0
440
 16777216
370
    -2
100
AcDbLine
 10
2020.167799229644
 20
756.1285417005465
 30
0.0
 11
1996.167799229644
 21
756.1285417005465
 31
0.0
  0
LINE
  5
8379
330
8286
100
AcDbEntity
  8
3
 62
     0
440
 16777216
370
    -2
100
AcDbLine
 10
2108.167799229644
 20
756.1285417005465
 30
0.0
 11
2214.453513515358
 21
756.1285417005465
 31
0.0
  0
LINE
  5
837A
330
8286
100
AcDbEntity
  8
3
 62
     0
440
 16777216
370
    -2
100
AcDbLine
 10
2044.167799229644
 20
756.1285417005465
 30
0.0
 11
2084.167799229644
 21
756.1285417005465
 31
0.0
  0
INSERT
  5
837B
330
8286
100
AcDbEntity
  8
3
 62
     0
440
 16777216
370
    -2
100
AcDbBlockReference
  2
_OPEN
 10
2044.167799229644
 20
756.1285417005465
 30
0.0
 41
24.0
 42
24.0
 43
24.0
  0
INSERT
  5
837C
330
8286
100
AcDbEntity
  8
3
 62
     0
440
 16777216
370
    -2
100
AcDbBlockReference
  2
_OPEN
 10
2084.167799229644
 20
756.1285417005465
 30
0.0
 41
24.0
 42
24.0
 43
24.0
 50
180.0
  0
MTEXT
  5
837D
330
8286
100
AcDbEntity
  8
3
 62
     0
440
 16777216
100
AcDbMText
 10
2173.310656372501
 20
786.1285417005465
 30
0.0
 40
36.0
 41
0.0
 46
0.0
 71
     5
 72
     1
  1
\A1;40
 73
     1
 44
1.0
  0
POINT
  5
837E
330
8286
100
AcDbEntity
  8
DEFPOINTS
 62
     0
440
 16777216
100
AcDbPoint
 10
2044.167799229644
 20
848.3828427789772
 30
0.0
  0
POINT
  5
837F
330
8286
100
AcDbEntity
  8
DEFPOINTS
 62
     0
440
 16777216
100
AcDbPoint
 10
2084.167799229644
 20
848.382842778977
 30
0.0
  0
POINT
  5
8380
330
8286
100
AcDbEntity
  8
DEFPOINTS
 62
     0
440
 16777216
100
AcDbPoint
 10
2084.167799229644
 20
756.1285417005465
 30
0.0
  0
ENDBLK
  5
8293
330
8286
100
AcDbEntity
  8
0
100
AcDbBlockEnd
  0
BLOCK
  5
82B0
330
82AF
100
AcDbEntity
  8
0
100
AcDbBlockBegin
  2
*D18
 70
     1
 10
0.0
 20
0.0
 30
0.0
  3
*D18
  1

  0
LINE
  5
8381
330
82AF
100
AcDbEntity
  8
3
 62
     0
440
 16777216
370
    -2
100
AcDbLine
 10
1150.442973157272
 20
888.2967488917174
 30
0.0
 11
1261.235868788122
 21
888.2967488917174
 31
0.0
  0
LINE
  5
8382
330
82AF
100
AcDbEntity
  8
3
 62
     0
440
 16777216
370
    -2
100
AcDbLine
 10
1150.442973157272
 20
848.2967488917179
 30
0.0
 11
1261.235868788122
 21
848.2967488917179
 31
0.0
  0
LINE
  5
8383
330
82AF
100
AcDbEntity
  8
3
 62
     0
440
 16777216
370
    -2
100
AcDbLine
 10
1249.235868788122
 20
912.2967488917174
 30
0.0
 11
1249.235868788122
 21
936.2967488917174
 31
0.0
  0
LINE
  5
8384
330
82AF
100
AcDbEntity
  8
3
 62
     0
440
 16777216
370
    -2
100
AcDbLine
 10
1249.235868788122
 20
824.2967488917178
 30
0.0
 11
1249.235868788122
 21
718.0110346060037
 31
0.0
  0
LINE
  5
8385
330
82AF
100
AcDbEntity
  8
3
 62
     0
440
 16777216
370
    -2
100
AcDbLine
 10
1249.235868788122
 20
888.2967488917174
 30
0.0
 11
1249.235868788122
 21
848.2967488917179
 31
0.0
  0
INSERT
  5
8386
330
82AF
100
AcDbEntity
  8
3
 62
     0
440
 16777216
370
    -2
100
AcDbBlockReference
  2
_DOT
 10
1249.235868788122
 20
888.2967488917174
 30
0.0
 41
24.0
 42
24.0
 43
24.0
 50
270.0
  0
INSERT
  5
8387
330
82AF
100
AcDbEntity
  8
3
 62
     0
440
 16777216
370
    -2
100
AcDbBlockReference
  2
_OPEN
 10
1249.235868788122
 20
848.2967488917179
 30
0.0
 41
24.0
 42
24.0
 43
24.0
 50
90.0
  0
MTEXT
  5
8388
330
82AF
100
AcDbEntity
  8
3
 62
     0
440
 16777216
100
AcDbMText
 10
1219.235868788121
 20
759.1538917488609
 30
0.0
 40
36.0
 41
0.0
 46
0.0
 71
     5
 72
     1
  1
\A1;40
 11
0.0000000000000001
 21
1.0
 31
0.0
 73
     1
 44
1.0
  0
POINT
  5
8389
330
82AF
100
AcDbEntity
  8
DEFPOINTS
 62
     0
440
 16777216
100
AcDbPoint
 10
1144.442973157272
 20
888.2967488917174
 30
0.0
  0
POINT
  5
838A
330
82AF
100
AcDbEntity
  8
DEFPOINTS
 62
     0
440
 16777216
100
AcDbPoint
 10
1144.442973157272
 20
848.2967488917179
 30
0.0
  0
POINT
  5
838B
330
82AF
100
AcDbEntity
  8
DEFPOINTS
 62
     0
440
 16777216
100
AcDbPoint
 10
1249.235868788122
 20
848.2967488917179
 30
0.0
  0
ENDBLK
  5
82BC
330
82AF
100
AcDbEntity
  8
0
100
AcDbBlockEnd
  0
BLOCK
  5
82DD
330
82DC
100
AcDbEntity
  8
0
100
AcDbBlockBegin
  2
*D19
 70
     1
 10
0.0
 20
0.0
 30
0.0
  3
*D19
  1

  0
LINE
  5
83A0
330
82DC
100
AcDbEntity
  8
3
 62
     0
440
 16777216
370
    -2
100
AcDbLine
 10
1150.442973157272
 20
888.2967488917174
 30
0.0
 11
1262.377997578892
 21
888.2967488917174
 31
0.0
  0
LINE
  5
83A1
330
82DC
100
AcDbEntity
  8
3
 62
     0
440
 16777216
370
    -2
100
AcDbLine
 10
1150.442973157272
 20
958.2967488917175
 30
0.0
 11
1262.377997578892
 21
958.2967488917175
 31
0.0
  0
LINE
  5
83A2
330
82DC
100
AcDbEntity
  8
3
 62
     0
440
 16777216
370
    -2
100
AcDbLine
 10
1250.377997578892
 20
864.2967488917175
 30
0.0
 11
1250.377997578892
 21
840.2967488917175
 31
0.0
  0
LINE
  5
83A3
330
82DC
100
AcDbEntity
  8
3
 62
     0
440
 16777216
370
    -2
100
AcDbLine
 10
1250.377997578892
 20
982.2967488917175
 30
0.0
 11
1250.377997578892
 21
1006.296748891717
 31
0.0
  0
MTEXT
  5
83A4
330
82DC
100
AcDbEntity
  8
3
 62
     0
440
 16777216
100
AcDbMText
 10
1294.746039877063
 20
925.0941613432214
 30
0.0
 40
36.0
 41
0.0
 46
0.0
 71
     5
 72
     1
  1
\A1;(70)
 11
0.0000000000000001
 21
1.0
 31
0.0
 73
     1
 44
1.0
  0
LINE
  5
83A5
330
82DC
100
AcDbEntity
  8
3
 62
     0
440
 16777216
370
    -2
100
AcDbLine
 10
1250.377997578892
 20
888.2967488917174
 30
0.0
 11
1250.377997578892
 21
958.2967488917175
 31
0.0
  0
INSERT
  5
83A6
330
82DC
100
AcDbEntity
  8
3
 62
     0
440
 16777216
370
    -2
100
AcDbBlockReference
  2
_DOT
 10
1250.377997578892
 20
888.2967488917174
 30
0.0
 41
24.0
 42
24.0
 43
24.0
 50
90.0
  0
INSERT
  5
83A7
330
82DC
100
AcDbEntity
  8
3
 62
     0
440
 16777216
370
    -2
100
AcDbBlockReference
  2
_OPEN
 10
1250.377997578892
 20
958.2967488917175
 30
0.0
 41
24.0
 42
24.0
 43
24.0
 50
270.0
  0
POINT
  5
83A8
330
82DC
100
AcDbEntity
  8
DEFPOINTS
 62
     0
440
 16777216
100
AcDbPoint
 10
1144.442973157272
 20
888.2967488917174
 30
0.0
  0
POINT
  5
83A9
330
82DC
100
AcDbEntity
  8
DEFPOINTS
 62
     0
440
 16777216
100
AcDbPoint
 10
1144.442973157272
 20
958.2967488917175
 30
0.0
  0
POINT
  5
83AA
330
82DC
100
AcDbEntity
  8
DEFPOINTS
 62
     0
440
 16777216
100
AcDbPoint
 10
1250.377997578892
 20
958.2967488917175
 30
0.0
  0
ENDBLK
  5
82E7
330
82DC
100
AcDbEntity
  8
0
100
AcDbBlockEnd
  0
BLOCK
  5
82EA
330
82E9
100
AcDbEntity
  8
0
100
AcDbBlockBegin
  2
*D20
 70
     1
 10
0.0
 20
0.0
 30
0.0
  3
*D20
  1

  0
LINE
  5
8397
330
82E9
100
AcDbEntity
  8
3
 62
     0
440
 16777216
370
    -2
100
AcDbLine
 10
998.4429731572728
 20
1403.296748891718
 30
0.0
 11
1363.387975059233
 21
1403.296748891718
 31
0.0
  0
LINE
  5
8398
330
82E9
100
AcDbEntity
  8
3
 62
     0
440
 16777216
370
    -2
100
AcDbLine
 10
1150.442973157272
 20
848.2967488917179
 30
0.0
 11
1363.387975059233
 21
848.2967488917179
 31
0.0
  0
LINE
  5
8399
330
82E9
100
AcDbEntity
  8
3
 62
     0
440
 16777216
370
    -2
100
AcDbLine
 10
1351.387975059233
 20
1379.296748891718
 30
0.0
 11
1351.387975059233
 21
872.2967488917177
 31
0.0
  0
INSERT
  5
839A
330
82E9
100
AcDbEntity
  8
3
 62
     0
440
 16777216
370
    -2
100
AcDbBlockReference
  2
_OPEN
 10
1351.387975059233
 20
1403.296748891718
 30
0.0
 41
24.0
 42
24.0
 43
24.0
 50
90.0
  0
INSERT
  5
839B
330
82E9
100
AcDbEntity
  8
3
 62
     0
440
 16777216
370
    -2
100
AcDbBlockReference
  2
_OPEN
 10
1351.387975059233
 20
848.2967488917179
 30
0.0
 41
24.0
 42
24.0
 43
24.0
 50
270.0
  0
MTEXT
  5
839C
330
82E9
100
AcDbEntity
  8
3
 62
     0
440
 16777216
100
AcDbMText
 10
1311.959403630661
 20
1125.796748891718
 30
0.0
 40
36.0
 41
0.0
 46
0.0
 71
     5
 72
     1
  1
\A1;(555)
 11
0.0000000000000001
 21
1.0
 31
0.0
 73
     1
 44
1.0
  0
POINT
  5
839D
330
82E9
100
AcDbEntity
  8
DEFPOINTS
 62
     0
440
 16777216
100
AcDbPoint
 10
992.4429731572727
 20
1403.296748891718
 30
0.0
  0
POINT
  5
839E
330
82E9
100
AcDbEntity
  8
DEFPOINTS
 62
     0
440
 16777216
100
AcDbPoint
 10
1144.442973157272
 20
848.2967488917179
 30
0.0
  0
POINT
  5
839F
330
82E9
100
AcDbEntity
  8
DEFPOINTS
 62
     0
440
 16777216
100
AcDbPoint
 10
1351.387975059233
 20
848.2967488917179
 30
0.0
  0
ENDBLK
  5
82F4
330
82E9
100
AcDbEntity
  8
0
100
AcDbBlockEnd
  0
ENDSEC
  0
SECTION
  2
ENTITIES
  0
LINE
  5
7C30
330
19
100
AcDbEntity
  8
2
100
AcDbLine
 10
969.4429731572729
 20
1456.487423230244
 30
0.0
 11
969.442973157272
 21
848.2967488917179
 31
0.0
  0
LINE
  5
7C32
330
19
100
AcDbEntity
  8
1
100
AcDbLine
 10
524.4429731572729
 20
998.2967488917179
 30
0.0
 11
1144.442973157272
 21
998.2967488917175
 31
0.0
  0
LINE
  5
7C34
330
19
100
AcDbEntity
  8
1
100
AcDbLine
 10
524.4429731572729
 20
998.2967488917179
 30
0.0
 11
524.4429731572729
 21
958.2967488917178
 31
0.0
  0
LINE
  5
7C35
330
19
100
AcDbEntity
  8
2
100
AcDbLine
 10
1154.807375281443
 20
1218.296748891718
 30
0.0
 11
786.591197080239
 21
1218.296748891718
 31
0.0
  0
LINE
  5
7C37
330
19
100
AcDbEntity
  8
1
100
AcDbLine
 10
1144.442973157272
 20
998.2967488917175
 30
0.0
 11
1144.442973157272
 21
958.2967488917175
 31
0.0
  0
LINE
  5
7C38
330
19
100
AcDbEntity
  8
2
100
AcDbLine
 10
2084.167799229645
 20
1451.845405692324
 30
0.0
 11
2084.167799229644
 21
848.382842778977
 31
0.0
  0
LINE
  5
7C39
330
19
100
AcDbEntity
  8
2
100
AcDbLine
 10
1628.375574128181
 20
1218.382842778977
 30
0.0
 11
2191.635504822224
 21
1218.382842778977
 31
0.0
  0
LINE
  5
7C3A
330
19
100
AcDbEntity
  8
1
100
AcDbLine
 10
564.4429731572731
 20
2390.512590881431
 30
0.0
 11
564.4429731572731
 21
2312.71259088143
 31
0.0
  0
LINE
  5
7C3B
330
19
100
AcDbEntity
  8
1
100
AcDbLine
 10
524.4429731572731
 20
2390.512590881431
 30
0.0
 11
524.4429731572731
 21
2010.512590881432
 31
0.0
  0
LINE
  5
7C3E
330
19
100
AcDbEntity
  8
1
100
AcDbLine
 10
1144.442973157272
 20
2010.512590881432
 30
0.0
 11
524.4429731572733
 21
2010.512590881435
 31
0.0
  0
LINE
  5
7C3F
330
19
100
AcDbEntity
  8
2
100
AcDbLine
 10
639.4429731572727
 20
2328.127516353186
 30
0.0
 11
639.4429731572727
 21
1982.967400147835
 31
0.0
  0
LINE
  5
7C40
330
19
100
AcDbEntity
  8
1
100
AcDbLine
 10
1144.442973157272
 20
2390.512590881431
 30
0.0
 11
1117.442973157273
 21
2390.512590881431
 31
0.0
  0
LINE
  5
7C4B
330
19
100
AcDbEntity
  8
1
100
AcDbLine
 10
1104.442973157272
 20
2010.512590881432
 30
0.0
 11
1144.442973157272
 21
2010.512590881432
 31
0.0
  0
CIRCLE
  5
7C51
330
19
100
AcDbEntity
  8
1
100
AcDbCircle
 10
969.4429731572727
 20
1088.296748891718
 30
0.0
 40
60.0
  0
LINE
  5
7C52
330
19
100
AcDbEntity
  8
1
100
AcDbLine
 10
1651.167799229644
 20
1298.388807865095
 30
0.0
 11
1651.167799229644
 21
998.382842778977
 31
0.0
  0
LINE
  5
7C53
330
19
100
AcDbEntity
  8
1
100
AcDbLine
 10
1726.167799229644
 20
1298.388807865095
 30
0.0
 11
1726.167799229644
 21
1273.527621291137
 31
0.0
  0
LINE
  5
7C54
330
19
100
AcDbEntity
  8
1
100
AcDbLine
 10
1019.591306623202
 20
1298.252719275979
 30
0.0
 11
1019.591306623202
 21
998.2967488917175
 31
0.0
  0
LINE
  5
7C55
330
19
100
AcDbEntity
  8
1
100
AcDbLine
 10
539.5913066232024
 20
1298.252719275979
 30
0.0
 11
539.5913066232024
 21
998.2967488917179
 31
0.0
  0
ARC
  5
7C56
330
19
100
AcDbEntity
  8
1
100
AcDbCircle
 10
958.4429731572727
 20
1207.296748891718
 30
0.0
 40
159.0
100
AcDbArc
 50
273.9670277620442
 51
314.2758217115302
  0
LINE
  5
7C57
330
19
100
AcDbEntity
  8
1
100
AcDbLine
 10
1069.442973157272
 20
1178.596748891718
 30
0.0
 11
1069.442973157272
 21
998.296748891718
 31
0.0
  0
LINE
  5
7C58
330
19
100
AcDbEntity
  8
1
100
AcDbLine
 10
869.4429731572727
 20
1178.596748891718
 30
0.0
 11
869.4429731572727
 21
998.296748891718
 31
0.0
  0
ARC
  5
7C59
330
19
100
AcDbEntity
  8
1
100
AcDbCircle
 10
955.4429731572726
 20
1232.296748891718
 30
0.0
 40
184.0
100
AcDbArc
 50
180.3340116471661
 51
274.3636787978955
  0
LINE
  5
7C5A
330
19
100
AcDbEntity
  8
1
100
AcDbLine
 10
1981.867799229644
 20
1284.382842778977
 30
0.0
 11
1981.867799229644
 21
1034.382842778977
 31
0.0
  0
LINE
  5
7C5C
330
19
100
AcDbEntity
  8
1
100
AcDbLine
 10
2009.167799229643
 20
1218.382842778977
 30
0.0
 11
2009.167799229643
 21
1034.382842778977
 31
0.0
  0
LINE
  5
7C5D
330
19
100
AcDbEntity
  8
1
100
AcDbLine
 10
2159.167799229644
 20
1195.382842778976
 30
0.0
 11
2159.167799229644
 21
1070.296748891718
 31
0.0
  0
LINE
  5
7C5F
330
19
100
AcDbEntity
  8
1
100
AcDbLine
 10
1730.867799229644
 20
998.3828427789767
 30
0.0
 11
1730.867799229644
 21
1181.882842778977
 31
0.0
  0
LINE
  5
7C60
330
19
100
AcDbEntity
  8
1
100
AcDbLine
 10
1664.167799229644
 20
998.382842778977
 30
0.0
 11
2044.167799229644
 21
998.3828427789772
 31
0.0
  0
LINE
  5
7C61
330
19
100
AcDbEntity
  8
1
100
AcDbLine
 10
1664.167799229644
 20
958.382842778977
 30
0.0
 11
2044.167799229644
 21
958.3828427789772
 31
0.0
  0
LINE
  5
7C62
330
19
100
AcDbEntity
  8
1
100
AcDbLine
 10
2001.867799229644
 20
1034.382842778977
 30
0.0
 11
2001.867799229644
 21
998.3828427789772
 31
0.0
  0
LINE
  5
7C63
330
19
100
AcDbEntity
  8
1
100
AcDbLine
 10
2009.167799229643
 20
1034.382842778977
 30
0.0
 11
1981.867799229644
 21
1034.382842778977
 31
0.0
  0
LINE
  5
7C64
330
19
100
AcDbEntity
  8
1
100
AcDbLine
 10
771.4460997013447
 20
1231.224108018346
 30
0.0
 11
770.4429731572727
 21
1403.296748891718
 31
0.0
  0
ARC
  5
7C65
330
19
100
AcDbEntity
  8
1
100
AcDbCircle
 10
978.4429731572727
 20
1209.296748891718
 30
0.0
 40
139.0
100
AcDbArc
 50
359.6016449156427
 51
90.63595989801937
  0
LINE
  5
7C66
330
19
100
AcDbEntity
  8
1
100
AcDbLine
 10
539.5913066232024
 20
1298.252719275979
 30
0.0
 11
1019.591306623202
 21
1298.252719275978
 31
0.0
  0
LINE
  5
7C69
330
19
100
AcDbEntity
  8
1
100
AcDbLine
 10
1044.442973157273
 20
1181.796748891718
 30
0.0
 11
1044.442973157273
 21
1184.996748891718
 31
0.0
  0
LINE
  5
7C6A
330
19
100
AcDbEntity
  8
1
100
AcDbLine
 10
894.4429731572727
 20
1184.996748891718
 30
0.0
 11
894.4429731572727
 21
1181.796748891718
 31
0.0
  0
LINE
  5
7C6B
330
19
100
AcDbEntity
  8
1
100
AcDbLine
 10
1061.942973157273
 20
1284.296748891718
 30
0.0
 11
1061.942973157273
 21
1181.796748891718
 31
0.0
  0
LINE
  5
7C6C
330
19
100
AcDbEntity
  8
1
100
AcDbLine
 10
1067.942973157272
 20
1284.296748891718
 30
0.0
 11
1067.942973157272
 21
1181.796748891718
 31
0.0
  0
LINE
  5
7C6D
330
19
100
AcDbEntity
  8
1
100
AcDbLine
 10
876.9429731572726
 20
1284.296748891718
 30
0.0
 11
876.9429731572726
 21
1181.796748891718
 31
0.0
  0
LINE
  5
7C6E
330
19
100
AcDbEntity
  8
1
100
AcDbLine
 10
870.9429731572727
 20
1284.296748891718
 30
0.0
 11
870.9429731572727
 21
1181.796748891718
 31
0.0
  0
ARC
  5
7C6F
330
19
100
AcDbEntity
  8
1
100
AcDbCircle
 10
958.4429731572727
 20
1207.296748891718
 30
0.0
 40
159.0
100
AcDbArc
 50
314.2758217115302
 51
0.3724595314050472
  0
LINE
  5
7C70
330
19
100
AcDbEntity
  8
1
100
AcDbLine
 10
864.4429731572726
 20
1181.796748891718
 30
0.0
 11
1074.442973157273
 21
1181.796748891718
 31
0.0
  0
LINE
  5
7C71
330
19
100
AcDbEntity
  8
1
100
AcDbLine
 10
864.4429731572726
 20
1178.596748891718
 30
0.0
 11
1074.442973157273
 21
1178.596748891718
 31
0.0
  0
LINE
  5
7C72
330
19
100
AcDbEntity
  8
1
100
AcDbLine
 10
864.4429731572726
 20
1181.796748891718
 30
0.0
 11
864.4429731572726
 21
1178.596748891718
 31
0.0
  0
LINE
  5
7C73
330
19
100
AcDbEntity
  8
1
100
AcDbLine
 10
1074.442973157273
 20
1181.796748891718
 30
0.0
 11
1074.442973157273
 21
1178.596748891718
 31
0.0
  0
LINE
  5
7C74
330
19
100
AcDbEntity
  8
1
100
AcDbLine
 10
1044.442973157273
 20
1184.996748891718
 30
0.0
 11
894.4429731572727
 21
1184.996748891718
 31
0.0
  0
LINE
  5
7C75
330
19
100
AcDbEntity
  8
1
100
AcDbLine
 10
870.9429731572727
 20
1284.296748891718
 30
0.0
 11
876.9429731572726
 21
1284.296748891718
 31
0.0
  0
LINE
  5
7C76
330
19
100
AcDbEntity
  8
1
100
AcDbLine
 10
1061.942973157273
 20
1284.296748891718
 30
0.0
 11
1067.942973157272
 21
1284.296748891718
 31
0.0
  0
LINE
  5
7C77
330
19
100
AcDbEntity
  8
1
100
AcDbLine
 10
748.4430071414472
 20
1383.296748891719
 30
0.0
 11
992.4429731572729
 21
1383.296748891718
 31
0.0
  0
LINE
  5
7C78
330
19
100
AcDbEntity
  8
1
100
AcDbLine
 10
748.4430071414474
 20
1403.296748891719
 30
0.0
 11
980.4429731572726
 21
1403.296748891718
 31
0.0
  0
LINE
  5
7C79
330
19
100
AcDbEntity
  8
1
100
AcDbLine
 10
970.4429731572727
 20
1348.195901431193
 30
0.0
 11
970.4429731572727
 21
1403.296748891718
 31
0.0
  0
ARC
  5
7C7A
330
19
100
AcDbEntity
  8
1
100
AcDbCircle
 10
975.4429731572727
 20
1224.296748891718
 30
0.0
 40
124.0
100
AcDbArc
 50
89.32667218061098
 51
92.31094020910239
  0
LINE
  5
7C7B
330
19
100
AcDbEntity
  8
1
100
AcDbLine
 10
972.4429731572726
 20
1383.296748891718
 30
0.0
 11
973.4429731572728
 21
1383.296748891718
 31
0.0
  0
LINE
  5
7C7C
330
19
100
AcDbEntity
  8
1
100
AcDbLine
 10
992.4429731572727
 20
1403.296748891718
 30
0.0
 11
972.4429731572726
 21
1403.296748891718
 31
0.0
  0
LINE
  5
7C7D
330
19
100
AcDbEntity
  8
1
100
AcDbLine
 10
992.4429731572727
 20
1383.296748891718
 30
0.0
 11
992.4429731572727
 21
1403.296748891718
 31
0.0
  0
LINE
  5
7C7E
330
19
100
AcDbEntity
  8
1
100
AcDbLine
 10
2159.167799229643
 20
1383.296748891718
 30
0.0
 11
2159.167799229644
 21
1217.382842778977
 31
0.0
  0
LINE
  5
7C7F
330
19
100
AcDbEntity
  8
1
100
AcDbLine
 10
2009.167799229644
 20
1383.296748891718
 30
0.0
 11
2009.167799229643
 21
1217.382842778977
 31
0.0
  0
LINE
  5
7C80
330
19
100
AcDbEntity
  8
1
100
AcDbLine
 10
2182.167799229643
 20
1328.382842778977
 30
0.0
 11
2182.167799229643
 21
1108.382842778977
 31
0.0
  0
LINE
  5
7C83
330
19
100
AcDbEntity
  8
1
100
AcDbLine
 10
1726.167799229644
 20
1181.882842778977
 30
0.0
 11
1981.867799229644
 21
1181.882842778977
 31
0.0
  0
LINE
  5
7C85
330
19
100
AcDbEntity
  8
1
100
AcDbLine
 10
1712.367799229644
 20
1268.382842778977
 30
0.0
 11
1712.367799229644
 21
1173.932842778977
 31
0.0
  0
LINE
  5
7C86
330
19
100
AcDbEntity
  8
1
100
AcDbLine
 10
1674.367799229645
 20
1268.382842778977
 30
0.0
 11
1674.367799229643
 21
1173.932842778977
 31
0.0
  0
LINE
  5
7C89
330
19
100
AcDbEntity
  8
1
100
AcDbLine
 10
1674.367799229643
 20
1173.932842778977
 30
0.0
 11
1674.367799229642
 21
1058.382842778977
 31
0.0
  0
LINE
  5
7C8A
330
19
100
AcDbEntity
  8
1
100
AcDbLine
 10
1712.367799229644
 20
1173.932842778977
 30
0.0
 11
1712.367799229644
 21
1058.382842778977
 31
0.0
  0
LINE
  5
7C8E
330
19
100
AcDbEntity
  8
1
100
AcDbLine
 10
1651.167799229644
 20
1298.388807865095
 30
0.0
 11
1726.167799229644
 21
1298.388807865095
 31
0.0
  0
LINE
  5
7C8F
330
19
100
AcDbEntity
  8
1
100
AcDbLine
 10
1712.367799229644
 20
1208.882842778976
 30
0.0
 11
1722.367799229644
 21
1208.882842778976
 31
0.0
  0
LINE
  5
7C90
330
19
100
AcDbEntity
  8
1
100
AcDbLine
 10
1722.367799229644
 20
1208.382842778977
 30
0.0
 11
1749.067799229644
 21
1208.382842778977
 31
0.0
  0
LINE
  5
7C91
330
19
100
AcDbEntity
  8
1
100
AcDbLine
 10
1981.867799229644
 20
1208.382842778977
 30
0.0
 11
1722.367799229644
 21
1208.382842778977
 31
0.0
  0
LINE
  5
7C92
330
19
100
AcDbEntity
  8
1
100
AcDbLine
 10
1712.367799229644
 20
1227.882842778976
 30
0.0
 11
1722.367799229644
 21
1227.882842778976
 31
0.0
  0
LINE
  5
7C94
330
19
100
AcDbEntity
  8
1
100
AcDbLine
 10
2162.167799229644
 20
1108.382842778977
 30
0.0
 11
2182.167799229643
 21
1108.382842778977
 31
0.0
  0
LINE
  5
7C95
330
19
100
AcDbEntity
  8
1
100
AcDbLine
 10
2182.167799229643
 20
1108.382842778977
 30
0.0
 11
2182.167799229643
 21
1107.382842778976
 31
0.0
  0
ARC
  5
7C96
330
19
100
AcDbEntity
  8
1
100
AcDbCircle
 10
2180.167799229644
 20
1107.382842778976
 30
0.0
 40
2.0
100
AcDbArc
 50
270.0
 51
0.0
  0
LINE
  5
7C97
330
19
100
AcDbEntity
  8
1
100
AcDbLine
 10
2180.167799229644
 20
1105.382842778976
 30
0.0
 11
2169.167799229644
 21
1105.382842778976
 31
0.0
  0
ARC
  5
7C98
330
19
100
AcDbEntity
  8
1
100
AcDbCircle
 10
2169.167799229644
 20
1101.382842778977
 30
0.0
 40
4.0
100
AcDbArc
 50
90.0
 51
180.0
  0
LINE
  5
7C99
330
19
100
AcDbEntity
  8
1
100
AcDbLine
 10
2165.167799229644
 20
1101.382842778977
 30
0.0
 11
2165.167799229644
 21
1090.382842778977
 31
0.0
  0
ARC
  5
7C9A
330
19
100
AcDbEntity
  8
1
100
AcDbCircle
 10
2163.167799229643
 20
1090.382842778977
 30
0.0
 40
2.0
100
AcDbArc
 50
270.0
 51
0.0
  0
LINE
  5
7C9B
330
19
100
AcDbEntity
  8
1
100
AcDbLine
 10
2163.167799229643
 20
1088.382842778977
 30
0.0
 11
2162.167799229644
 21
1088.382842778977
 31
0.0
  0
LINE
  5
7C9C
330
19
100
AcDbEntity
  8
1
100
AcDbLine
 10
2162.167799229644
 20
1088.382842778977
 30
0.0
 11
2162.167799229644
 21
1108.382842778977
 31
0.0
  0
LINE
  5
7C9D
330
19
100
AcDbEntity
  8
1
100
AcDbLine
 10
2159.167799229644
 20
1088.382842778977
 30
0.0
 11
2162.167799229644
 21
1088.382842778977
 31
0.0
  0
LINE
  5
7CA0
330
19
100
AcDbEntity
  8
1
100
AcDbLine
 10
1981.867799229644
 20
1284.382842778977
 30
0.0
 11
2006.867799229643
 21
1284.382842778977
 31
0.0
  0
LINE
  5
7CA1
330
19
100
AcDbEntity
  8
1
100
AcDbLine
 10
2159.167799229638
 20
1218.382842778977
 30
0.0
 11
2159.167799229644
 21
1195.382842778976
 31
0.0
  0
LINE
  5
7CA2
330
19
100
AcDbEntity
  8
1
100
AcDbLine
 10
2161.167799229644
 20
1217.382842778977
 30
0.0
 11
2161.167799229644
 21
1218.382842778977
 31
0.0
  0
LINE
  5
7CA5
330
19
100
AcDbEntity
  8
1
100
AcDbLine
 10
2180.167799229644
 20
1331.382842778977
 30
0.0
 11
2179.167799229643
 21
1331.382842778977
 31
0.0
  0
ARC
  5
7CA6
330
19
100
AcDbEntity
  8
1
100
AcDbCircle
 10
2180.167799229644
 20
1329.382842778977
 30
0.0
 40
2.0
100
AcDbArc
 50
0.0
 51
90.0
  0
LINE
  5
7CA7
330
19
100
AcDbEntity
  8
1
100
AcDbLine
 10
2182.167799229643
 20
1328.382842778977
 30
0.0
 11
2182.167799229643
 21
1329.382842778977
 31
0.0
  0
LINE
  5
7CA8
330
19
100
AcDbEntity
  8
1
100
AcDbLine
 10
2179.167799229644
 20
1328.382842778977
 30
0.0
 11
2182.167799229643
 21
1328.382842778977
 31
0.0
  0
LINE
  5
7CAA
330
19
100
AcDbEntity
  8
1
100
AcDbLine
 10
1144.442973157272
 20
958.2967488917178
 30
0.0
 11
524.4429731572729
 21
958.2967488917178
 31
0.0
  0
LINE
  5
7CAB
330
19
100
AcDbEntity
  8
1
100
AcDbLine
 10
748.4430071414472
 20
1403.296748891719
 30
0.0
 11
748.4430071414469
 21
1383.296748891719
 31
0.0
  0
DIMENSION
  5
7CAC
330
19
100
AcDbEntity
  8
3
100
AcDbDimension
280
     0
  2
*D2
 10
770.4429731572727
 20
1449.754978781107
 30
0.0
 11
870.4429731572727
 21
1479.754978781107
 31
0.0
 70
    32
 71
     5
 42
-1.0
 73
     0
 74
     0
 75
     0
  3
IGA
100
AcDbAlignedDimension
 13
970.4429731572727
 23
1403.296748891718
 33
0.0
 14
770.4429731572727
 24
1403.296748891718
 34
0.0
100
AcDbRotatedDimension
1001
ACAD
1000
DSTYLE
1002
{
1070
    40
1040
12.0
1070
   143
1040
0.039
1070
   172
1070
     1
1070
   271
1070
     0
1070
   279
1070
     0
1070
   288
1070
     1
1002
}
  0
DIMENSION
  5
7CAD
330
19
100
AcDbEntity
  8
3
100
AcDbDimension
280
     0
  2
*D3
 10
770.4429731572727
 20
1512.081801962957
 30
0.0
 11
869.9429731572728
 21
1542.081801962957
 31
0.0
 70
    32
 71
     5
 42
-1.0
 73
     0
 74
     0
 75
     0
  3
IGA
100
AcDbAlignedDimension
 13
969.4429731572729
 23
1403.661151015888
 33
0.0
 14
770.4429731572727
 24
1403.296748891718
 34
0.0
100
AcDbRotatedDimension
1001
ACAD
1000
DSTYLE
1002
{
1070
    40
1040
12.0
1070
   143
1040
0.039
1070
   172
1070
     1
1070
   271
1070
     0
1070
   279
1070
     0
1070
   288
1070
     1
1002
}
  0
DIMENSION
  5
7CB0
330
19
100
AcDbEntity
  8
3
100
AcDbDimension
280
     0
  2
*D4
 10
1249.636335040401
 20
958.2967488917178
 30
0.0
 11
1219.636335040401
 21
1088.296748891718
 31
0.0
 70
    32
 71
     5
 42
-1.0
 73
     0
 74
     0
 75
     0
  3
IGA
100
AcDbAlignedDimension
 13
1154.807375281443
 23
1218.296748891718
 33
0.0
 14
1144.442973157272
 24
958.2967488917178
 34
0.0
 50
90.0
100
AcDbRotatedDimension
1001
ACAD
1000
DSTYLE
1002
{
1070
    40
1040
12.0
1070
   143
1040
0.039
1070
   172
1070
     1
1070
   271
1070
     0
1070
   279
1070
     0
1070
   288
1070
     1
1002
}
  0
LINE
  5
7CB3
330
19
100
AcDbEntity
  8
1
100
AcDbLine
 10
2044.167799229644
 20
958.3828427789772
 30
0.0
 11
2044.167799229645
 21
998.3828427789772
 31
0.0
  0
LINE
  5
7CB4
330
19
100
AcDbEntity
  8
1
100
AcDbLine
 10
1664.167799229644
 20
958.382842778977
 30
0.0
 11
1664.167799229644
 21
998.3828427789768
 31
0.0
  0
LINE
  5
7CB5
330
19
100
AcDbEntity
  8
1
100
AcDbLine
 10
2009.167799229643
 20
1070.296748891718
 30
0.0
 11
2159.167799229644
 21
1070.296748891718
 31
0.0
  0
LINE
  5
7CB6
330
19
100
AcDbEntity
  8
1
100
AcDbLine
 10
1981.867799229644
 20
1228.382842778976
 30
0.0
 11
1722.367799229644
 21
1228.382842778977
 31
0.0
  0
LINE
  5
7CB7
330
19
100
AcDbEntity
  8
1
100
AcDbLine
 10
1722.367799229644
 20
1228.382842778977
 30
0.0
 11
1722.367799229644
 21
1227.882842778976
 31
0.0
  0
LINE
  5
7CB8
330
19
100
AcDbEntity
  8
1
100
AcDbLine
 10
1722.367799229644
 20
1208.882842778976
 30
0.0
 11
1722.367799229644
 21
1208.382842778977
 31
0.0
  0
LINE
  5
7CB9
330
19
100
AcDbEntity
  8
1
100
AcDbLine
 10
1726.167799229644
 20
998.382842778977
 30
0.0
 11
1651.167799229644
 21
998.382842778977
 31
0.0
  0
LINE
  5
7CBA
330
19
100
AcDbEntity
  8
1
100
AcDbLine
 10
1989.167799229644
 20
1403.296748891718
 30
0.0
 11
1989.167799229643
 21
1383.296748891718
 31
0.0
  0
LINE
  5
7CBB
330
19
100
AcDbEntity
  8
1
100
AcDbLine
 10
2179.167799229644
 20
1403.296748891718
 30
0.0
 11
2179.167799229644
 21
1383.296748891718
 31
0.0
  0
LINE
  5
7CBD
330
19
100
AcDbEntity
  8
2
100
AcDbLine
 10
1639.425535685684
 20
1108.382842778977
 30
0.0
 11
1745.887893462744
 21
1108.382842778977
 31
0.0
  0
LINE
  5
7CBE
330
19
100
AcDbEntity
  8
2
100
AcDbLine
 10
1133.582712381971
 20
2430.512590881432
 30
0.0
 11
735.8853111652988
 21
2430.512590881432
 31
0.0
  0
LINE
  5
7CBF
330
19
100
AcDbEntity
  8
1
100
AcDbLine
 10
1117.442973157273
 20
2505.512590881431
 30
0.0
 11
990.4429731572728
 21
2505.512590881432
 31
0.0
  0
LINE
  5
7CC0
330
19
100
AcDbEntity
  8
1
100
AcDbLine
 10
1117.442973157273
 20
2355.512590881431
 30
0.0
 11
990.4429731572728
 21
2355.512590881431
 31
0.0
  0
LINE
  5
7CC1
330
19
100
AcDbEntity
  8
1
100
AcDbLine
 10
1144.442973157272
 20
2390.512590881431
 30
0.0
 11
1144.442973157272
 21
2010.512590881432
 31
0.0
  0
LINE
  5
7CC2
330
19
100
AcDbEntity
  8
1
100
AcDbLine
 10
1104.442973157273
 20
2355.512590881431
 30
0.0
 11
1104.442973157272
 21
2010.512590881432
 31
0.0
  0
LINE
  5
7CC3
330
19
100
AcDbEntity
  8
2
100
AcDbLine
 10
969.4429731572727
 20
1984.417653813633
 30
0.0
 11
969.4429731572727
 21
2537.980296474011
 31
0.0
  0
LINE
  5
7CC4
330
19
100
AcDbEntity
  8
1
100
AcDbLine
 10
1049.448938243391
 20
1997.51259088143
 30
0.0
 11
1049.448938243391
 21
2072.512590881431
 31
0.0
  0
LINE
  5
7CC5
330
19
100
AcDbEntity
  8
1
100
AcDbLine
 10
1049.448938243391
 20
1997.51259088143
 30
0.0
 11
539.5913066232024
 21
1997.51259088143
 31
0.0
  0
LINE
  5
7CC6
330
19
100
AcDbEntity
  8
1
100
AcDbLine
 10
924.9929731572729
 20
2020.71259088143
 30
0.0
 11
589.4429731572727
 21
2020.712590881428
 31
0.0
  0
LINE
  5
7CC7
330
19
100
AcDbEntity
  8
1
100
AcDbLine
 10
924.9929731572729
 20
2058.712590881432
 30
0.0
 11
589.4429731572727
 21
2058.712590881432
 31
0.0
  0
LINE
  5
7CC8
330
19
100
AcDbEntity
  8
1
100
AcDbLine
 10
1049.448938243391
 20
2072.512590881431
 30
0.0
 11
539.5913066232024
 21
2072.512590881431
 31
0.0
  0
LINE
  5
7CCA
330
19
100
AcDbEntity
  8
1
100
AcDbLine
 10
959.4429731572731
 20
2335.512590881431
 30
0.0
 11
959.4429731572727
 21
2068.712590881432
 31
0.0
  0
LINE
  5
7CCB
330
19
100
AcDbEntity
  8
1
100
AcDbLine
 10
979.4429731572726
 20
2335.512590881431
 30
0.0
 11
979.4429731572726
 21
2068.712590881432
 31
0.0
  0
LINE
  5
7CCC
330
19
100
AcDbEntity
  8
1
100
AcDbLine
 10
1019.442973157272
 20
2020.712590881431
 30
0.0
 11
924.9929731572729
 21
2020.71259088143
 31
0.0
  0
LINE
  5
7CCD
330
19
100
AcDbEntity
  8
1
100
AcDbLine
 10
1019.442973157272
 20
2058.712590881431
 30
0.0
 11
924.9929731572729
 21
2058.712590881432
 31
0.0
  0
LINE
  5
7CCE
330
19
100
AcDbEntity
  8
1
100
AcDbLine
 10
932.9429731572727
 20
2072.512590881432
 30
0.0
 11
1025.942973157272
 21
2072.512590881432
 31
0.0
  0
LINE
  5
7CD0
330
19
100
AcDbEntity
  8
1
100
AcDbLine
 10
978.9429731572727
 20
2058.712590881432
 30
0.0
 11
978.9429731572727
 21
2068.712590881432
 31
0.0
  0
LINE
  5
7CD1
330
19
100
AcDbEntity
  8
1
100
AcDbLine
 10
959.9429731572726
 20
2058.712590881432
 30
0.0
 11
959.9429731572726
 21
2068.712590881432
 31
0.0
  0
LINE
  5
7CD3
330
19
100
AcDbEntity
  8
1
100
AcDbLine
 10
539.5913066232024
 20
2072.512590881431
 30
0.0
 11
539.5913066232024
 21
1997.51259088143
 31
0.0
  0
LINE
  5
7CD5
330
19
100
AcDbEntity
  8
1
100
AcDbLine
 10
564.4429731572731
 20
2094.71259088143
 30
0.0
 11
564.4429731572731
 21
2010.512590881432
 31
0.0
  0
LINE
  5
7CD6
330
19
100
AcDbEntity
  8
1
100
AcDbLine
 10
1069.442973157272
 20
2077.590194969069
 30
0.0
 11
1069.442973157272
 21
2355.512590881431
 31
0.0
  0
LINE
  5
7CD7
330
19
100
AcDbEntity
  8
1
100
AcDbLine
 10
869.4429731572727
 20
2077.590194969069
 30
0.0
 11
869.4429731572727
 21
2335.512590881432
 31
0.0
  0
LINE
  5
7CD8
330
19
100
AcDbEntity
  8
1
100
AcDbLine
 10
1069.442973157272
 20
2077.590194969069
 30
0.0
 11
979.4429731572726
 21
2077.590194969069
 31
0.0
  0
LINE
  5
7CDA
330
19
100
AcDbEntity
  8
1
100
AcDbLine
 10
959.4429731572736
 20
2077.590194969069
 30
0.0
 11
869.4429731572727
 21
2077.590194969069
 31
0.0
  0
DIMENSION
  5
7CDB
330
19
100
AcDbEntity
  8
3
100
AcDbDimension
280
     0
  2
*D5
 10
2084.167799229645
 20
1526.745310019385
 30
0.0
 11
2122.31414194454
 21
1551.376525439496
 31
0.0
 70
   160
  1
79
 71
     5
 42
-1.0
 73
     0
 74
     0
 75
     0
  3
IGA
100
AcDbAlignedDimension
 13
2161.167799229644
 23
1383.296748891718
 33
0.0
 14
2084.167799229645
 24
1491.485931497975
 34
0.0
100
AcDbRotatedDimension
1001
ACAD
1000
DSTYLE
1002
{
1070
   288
1070
     1
1070
   172
1070
     1
1070
    40
1040
12.0
1070
   271
1070
     0
1070
   143
1040
0.039
1002
}
  0
DIMENSION
  5
7CDC
330
19
100
AcDbEntity
  8
3
100
AcDbDimension
280
     0
  2
*D6
 10
1651.167799229644
 20
1526.745310019385
 30
0.0
 11
1867.667799229644
 21
1596.173881447956
 31
0.0
 70
    32
  1
\P(520)
 71
     5
 42
433.0000000000008
 73
     0
 74
     0
 75
     0
  3
IGA
100
AcDbAlignedDimension
 13
2084.167799229645
 23
1491.485931497975
 33
0.0
 14
1651.167799229644
 24
1298.388807865095
 34
0.0
100
AcDbRotatedDimension
1001
ACAD
1000
DSTYLE
1002
{
1070
    40
1040
12.0
1070
   143
1040
0.039
1070
   172
1070
     1
1070
   271
1070
     0
1070
   279
1070
     0
1070
   288
1070
     1
1002
}
  0
DIMENSION
  5
7CDD
330
19
100
AcDbEntity
  8
3
100
AcDbDimension
280
     0
  2
*D7
 10
2159.167799229643
 20
1447.775222770075
 30
0.0
 11
2084.167799229644
 21
1476.434907881891
 31
0.0
 70
   160
 71
     5
 42
-1.0
 73
     0
 74
     0
 75
     0
  3
IGA
100
AcDbAlignedDimension
 13
2009.167799229643
 23
1383.296748891718
 33
0.0
 14
2159.167799229643
 24
1383.296748891718
 34
0.0
100
AcDbRotatedDimension
1001
ACAD
1000
DSTYLE
1002
{
1070
   288
1070
     1
1070
   172
1070
     1
1070
    40
1040
12.0
1070
   271
1070
     0
1070
   143
1040
0.039
1002
}
  0
DIMENSION
  5
7CDE
330
19
100
AcDbEntity
  8
3
100
AcDbDimension
280
     0
  2
*D8
 10
2263.184839093483
 20
1108.382842778977
 30
0.0
 11
2233.184839093483
 21
1218.382842778977
 31
0.0
 70
    32
 71
     5
 42
-1.0
 73
     0
 74
     0
 75
     0
  3
IGA
100
AcDbAlignedDimension
 13
2182.167799229643
 23
1328.382842778977
 33
0.0
 14
2182.167799229643
 24
1108.382842778977
 34
0.0
 50
90.0
100
AcDbRotatedDimension
1001
ACAD
1000
DSTYLE
1002
{
1070
     3
1000
φ<>
1070
    40
1040
12.0
1070
   143
1040
0.039
1070
   172
1070
     1
1070
   271
1070
     0
1070
   279
1070
     0
1070
   288
1070
     1
1002
}
  0
DIMENSION
  5
7CDF
330
19
100
AcDbEntity
  8
3
100
AcDbDimension
280
     0
  2
*D9
 10
1255.553559229093
 20
2010.512590881432
 30
0.0
 11
1225.553559229093
 21
2200.512590881432
 31
0.0
 70
    32
 71
     5
 42
-1.0
 73
     0
 74
     0
 75
     0
  3
IGA
100
AcDbAlignedDimension
 13
1144.442973157272
 23
2390.512590881431
 33
0.0
 14
1144.442973157272
 24
2010.512590881432
 34
0.0
 50
90.0
100
AcDbRotatedDimension
1001
ACAD
1000
DSTYLE
1002
{
1070
    40
1040
12.0
1070
   143
1040
0.039
1070
   172
1070
     1
1070
   271
1070
     0
1070
   279
1070
     0
1070
   288
1070
     1
1002
}
  0
DIMENSION
  5
7CE0
330
19
100
AcDbEntity
  8
3
100
AcDbDimension
280
     0
  2
*D10
 10
1144.442973157272
 20
2586.811142971089
 30
0.0
 11
834.4429731572729
 21
2586.811142971089
 31
0.0
 70
   160
 71
     5
 42
-1.0
 73
     0
 74
     0
 75
     0
  3
IGA
100
AcDbAlignedDimension
 13
524.4429731572731
 23
2390.512590881431
 33
0.0
 14
1144.442973157272
 24
2390.512590881431
 34
0.0
100
AcDbRotatedDimension
1001
ACAD
1000
DSTYLE
1002
{
1070
    40
1040
12.0
1070
   143
1040
0.039
1070
   172
1070
     1
1070
   271
1070
     0
1070
   279
1070
     0
1070
   288
1070
     1
1002
}
  0
DIMENSION
  5
7CE1
330
19
100
AcDbEntity
  8
3
100
AcDbDimension
280
     0
  2
*D11
 10
1248.724702494094
 20
1218.296748891718
 30
0.0
 11
1218.724702494094
 21
1310.796748891718
 31
0.0
 70
    32
 71
     5
 42
-1.0
 73
     0
 74
     0
 75
     0
  3
IGA
100
AcDbAlignedDimension
 13
992.4429731572727
 23
1403.296748891718
 33
0.0
 14
1154.807375281443
 24
1218.296748891718
 34
0.0
 50
90.0
100
AcDbRotatedDimension
1001
ACAD
1000
DSTYLE
1002
{
1070
    40
1040
12.0
1070
   143
1040
0.039
1070
   172
1070
     1
1070
   271
1070
     0
1070
   279
1070
     0
1070
   288
1070
     1
1002
}
  0
DIMENSION
  5
7CE2
330
19
100
AcDbEntity
  8
3
100
AcDbDimension
280
     0
  2
*D12
 10
1117.442973157273
 20
1512.081801962957
 30
0.0
 11
1043.442973157272
 21
1535.893158945421
 31
0.0
 70
   160
 71
     5
 42
-1.0
 73
     0
 74
     0
 75
     0
  3
IGA
100
AcDbAlignedDimension
 13
969.4429731572729
 23
1403.661151015888
 33
0.0
 14
1117.442973157273
 24
1209.296748891718
 34
0.0
100
AcDbRotatedDimension
1001
ACAD
1000
DSTYLE
1002
{
1070
   288
1070
     1
1070
   172
1070
     1
1070
    40
1040
12.0
1070
   271
1070
     0
1070
   143
1040
0.039
1002
}
  0
DIMENSION
  5
7CE6
330
19
100
AcDbEntity
  8
3
100
AcDbDimension
280
     0
  2
*D13
 10
524.4429731572729
 20
1577.656209720986
 30
0.0
 11
820.9429731572727
 21
1607.656209720986
 31
0.0
 70
    32
 71
     5
 42
-1.0
 73
     0
 74
     0
 75
     0
  3
IGA
100
AcDbAlignedDimension
 13
1117.442973157273
 23
1209.296748891718
 33
0.0
 14
524.4429731572729
 24
998.2967488917179
 34
0.0
100
AcDbRotatedDimension
1001
ACAD
1000
DSTYLE
1002
{
1070
    40
1040
12.0
1070
   143
1040
0.039
1070
   172
1070
     1
1070
   271
1070
     0
1070
   279
1070
     0
1070
   288
1070
     1
1002
}
  0
LINE
  5
7CE7
330
19
100
AcDbEntity
  8
1
100
AcDbLine
 10
1989.167799229644
 20
1403.296748891718
 30
0.0
 11
2179.167799229644
 21
1403.296748891718
 31
0.0
  0
LINE
  5
7CE8
330
19
100
AcDbEntity
  8
1
100
AcDbLine
 10
1989.167799229643
 20
1383.296748891718
 30
0.0
 11
2179.167799229644
 21
1383.296748891718
 31
0.0
  0
LINE
  5
7CE9
330
19
100
AcDbEntity
  8
1
100
AcDbLine
 10
2162.167799229644
 20
1348.382842778977
 30
0.0
 11
2162.167799229644
 21
1108.382842778977
 31
0.0
  0
LINE
  5
7CEA
330
19
100
AcDbEntity
  8
1
100
AcDbLine
 10
2165.167799229644
 20
1335.382842778977
 30
0.0
 11
2165.167799229644
 21
1346.382842778977
 31
0.0
  0
LINE
  5
7CEB
330
19
100
AcDbEntity
  8
1
100
AcDbLine
 10
2159.167799229643
 20
1348.382842778977
 30
0.0
 11
2162.167799229644
 21
1348.382842778977
 31
0.0
  0
LINE
  5
7CEC
330
19
100
AcDbEntity
  8
1
100
AcDbLine
 10
2163.167799229643
 20
1348.382842778977
 30
0.0
 11
2162.167799229644
 21
1348.382842778977
 31
0.0
  0
ARC
  5
7CED
330
19
100
AcDbEntity
  8
1
100
AcDbCircle
 10
2163.167799229643
 20
1346.382842778977
 30
0.0
 40
2.0
100
AcDbArc
 50
0.0
 51
90.0
  0
LINE
  5
7CEE
330
19
100
AcDbEntity
  8
1
100
AcDbLine
 10
2180.167799229644
 20
1331.382842778977
 30
0.0
 11
2169.167799229644
 21
1331.382842778977
 31
0.0
  0
LINE
  5
7CEF
330
19
100
AcDbEntity
  8
1
100
AcDbLine
 10
2162.167799229644
 20
1328.382842778977
 30
0.0
 11
2182.167799229643
 21
1328.382842778977
 31
0.0
  0
ARC
  5
7CF0
330
19
100
AcDbEntity
  8
1
100
AcDbCircle
 10
2169.167799229644
 20
1335.382842778977
 30
0.0
 40
4.0
100
AcDbArc
 50
180.0
 51
270.0
  0
ARC
  5
7CF1
330
19
100
AcDbEntity
  8
1
100
AcDbCircle
 10
2180.167799229644
 20
1329.382842778977
 30
0.0
 40
2.0
100
AcDbArc
 50
0.0
 51
90.0
  0
LINE
  5
7CF2
330
19
100
AcDbEntity
  8
1
100
AcDbLine
 10
2182.167799229643
 20
1328.382842778977
 30
0.0
 11
2182.167799229643
 21
1329.382842778977
 31
0.0
  0
LINE
  5
7CF3
330
19
100
AcDbEntity
  8
1
100
AcDbLine
 10
1117.442973157273
 20
2355.512590881431
 30
0.0
 11
1117.442973157273
 21
2505.512590881431
 31
0.0
  0
LINE
  5
7CF4
330
19
100
AcDbEntity
  8
1
100
AcDbLine
 10
770.4429731572727
 20
2355.512590881432
 30
0.0
 11
770.4429731572727
 21
2505.512590881432
 31
0.0
  0
LINE
  5
7CF5
330
19
100
AcDbEntity
  8
1
100
AcDbLine
 10
990.4429731572728
 20
2525.512590881432
 30
0.0
 11
750.4429731572732
 21
2525.512590881431
 31
0.0
  0
LINE
  5
7CF6
330
19
100
AcDbEntity
  8
1
100
AcDbLine
 10
990.4429731572728
 20
2335.512590881432
 30
0.0
 11
750.4429731572732
 21
2335.512590881432
 31
0.0
  0
LINE
  5
7CF7
330
19
100
AcDbEntity
  8
1
100
AcDbLine
 10
970.4429731572727
 20
2355.512590881432
 30
0.0
 11
970.4429731572727
 21
2505.512590881432
 31
0.0
  0
LINE
  5
7CF8
330
19
100
AcDbEntity
  8
1
100
AcDbLine
 10
750.4429731572732
 20
2335.512590881432
 30
0.0
 11
750.4429731572732
 21
2525.512590881432
 31
0.0
  0
LINE
  5
7CF9
330
19
100
AcDbEntity
  8
1
100
AcDbLine
 10
990.4429731572728
 20
2335.512590881431
 30
0.0
 11
990.4429731572728
 21
2525.512590881431
 31
0.0
  0
LINE
  5
7CFA
330
19
100
AcDbEntity
  8
1
100
AcDbLine
 10
970.4429731572727
 20
2505.512590881431
 30
0.0
 11
770.4429731572727
 21
2505.512590881432
 31
0.0
  0
LINE
  5
7CFB
330
19
100
AcDbEntity
  8
1
100
AcDbLine
 10
970.4429731572727
 20
2355.512590881431
 30
0.0
 11
770.4429731572727
 21
2355.512590881431
 31
0.0
  0
LINE
  5
7CFC
330
19
100
AcDbEntity
  8
1
100
AcDbLine
 10
969.4429731572727
 20
2505.512590881431
 30
0.0
 11
770.4429731572727
 21
2355.512590881431
 31
0.0
  0
LINE
  5
7CFD
330
19
100
AcDbEntity
  8
1
100
AcDbLine
 10
770.4429731572727
 20
2505.512590881432
 30
0.0
 11
969.4429731572727
 21
2355.512590881431
 31
0.0
  0
LINE
  5
7D29
330
19
100
AcDbEntity
  8
1
100
AcDbLine
 10
561.9429731572727
 20
1028.296748891718
 30
0.0
 11
596.9429731572727
 21
1028.296748891718
 31
0.0
  0
LINE
  5
7D2A
330
19
100
AcDbEntity
  8
1
100
AcDbLine
 10
557.6683755915087
 20
1028.296748891718
 30
0.0
 11
577.1198051572728
 21
1050.478244891718
 31
0.0
  0
LINE
  5
7D2B
330
19
100
AcDbEntity
  8
2
100
AcDbLine
 10
552.6522321572729
 20
1108.296748891718
 30
0.0
 11
732.9988501572724
 21
1108.296748891718
 31
0.0
  0
LINE
  5
7D2C
330
19
100
AcDbEntity
  8
1
100
AcDbLine
 10
536.9429731572722
 20
1028.296748891718
 30
0.0
 11
741.9429731572722
 21
1028.296748891718
 31
0.0
  0
LINE
  5
7D2D
330
19
100
AcDbEntity
  8
1
100
AcDbLine
 10
531.9429731572727
 20
998.2967488917177
 30
0.0
 11
746.9429731572727
 21
998.2967488917179
 31
0.0
  0
ARC
  5
7D2E
330
19
100
AcDbEntity
  8
1
100
AcDbCircle
 10
639.4429731572727
 20
1108.296748891718
 30
0.0
 40
85.0
100
AcDbArc
 50
0.0
 51
244.1244660000001
  0
ARC
  5
7D2F
330
19
100
AcDbEntity
  8
1
100
AcDbCircle
 10
639.4429731572727
 20
1108.296748891718
 30
0.0
 40
85.0
100
AcDbArc
 50
0.0
 51
244.1244660000001
  0
LINE
  5
7D30
330
19
100
AcDbEntity
  8
1
100
AcDbLine
 10
536.9429731572727
 20
1028.296748891718
 30
0.0
 11
531.9429731572727
 21
998.2967488917177
 31
0.0
  0
LINE
  5
7D31
330
19
100
AcDbEntity
  8
1
100
AcDbLine
 10
721.2174818318667
 20
1028.296748891718
 30
0.0
 11
701.7642811572727
 21
1050.480386891718
 31
0.0
  0
ARC
  5
7D32
330
19
100
AcDbEntity
  8
1
100
AcDbCircle
 10
639.4429731572727
 20
1108.296748891718
 30
0.0
 40
85.000008
100
AcDbArc
 50
295.917726
 51
0.0
  0
LINE
  5
7D33
330
19
100
AcDbEntity
  8
2
100
AcDbLine
 10
639.4429731572727
 20
1204.58440043005
 30
0.0
 11
639.4429731572727
 21
953.3578168278594
 31
0.0
  0
LINE
  5
7D34
330
19
100
AcDbEntity
  8
1
100
AcDbLine
 10
716.9429731572726
 20
1028.296748891718
 30
0.0
 11
681.9429731572727
 21
1028.296748891718
 31
0.0
  0
LINE
  5
7D35
330
19
100
AcDbEntity
  8
1
100
AcDbLine
 10
602.3474741572726
 20
1031.845820891718
 30
0.0
 11
676.5947821572726
 21
1031.845820891718
 31
0.0
  0
LINE
  5
7D36
330
19
100
AcDbEntity
  8
1
100
AcDbLine
 10
741.9429731572722
 20
1028.296748891718
 30
0.0
 11
746.9429731572723
 21
998.2967488917179
 31
0.0
  0
LINE
  5
7D37
330
19
100
AcDbEntity
  8
1
100
AcDbLine
 10
629.9429731572727
 20
2058.712590881432
 30
0.0
 11
629.9429731572727
 21
2079.71259088143
 31
0.0
  0
LINE
  5
7D38
330
19
100
AcDbEntity
  8
1
100
AcDbLine
 10
648.9429731572727
 20
2079.71259088143
 30
0.0
 11
648.9429731572727
 21
2058.712590881432
 31
0.0
  0
LINE
  5
7D3A
330
19
100
AcDbEntity
  8
1
100
AcDbLine
 10
561.4429731572727
 20
2094.71259088143
 30
0.0
 11
561.4429731572727
 21
2312.71259088143
 31
0.0
  0
LINE
  5
7D3B
330
19
100
AcDbEntity
  8
1
100
AcDbLine
 10
714.2429611572729
 20
2312.71259088143
 30
0.0
 11
714.2429611572724
 21
2094.71259088143
 31
0.0
  0
LINE
  5
7D3C
330
19
100
AcDbEntity
  8
1
100
AcDbLine
 10
714.2429611572729
 20
2312.71259088143
 30
0.0
 11
561.4429731572727
 21
2312.71259088143
 31
0.0
  0
LINE
  5
7D3D
330
19
100
AcDbEntity
  8
1
100
AcDbLine
 10
561.4429731572727
 20
2094.71259088143
 30
0.0
 11
714.2429611572724
 21
2094.71259088143
 31
0.0
  0
LINE
  5
7D3E
330
19
100
AcDbEntity
  8
1
100
AcDbLine
 10
605.9429731572727
 20
2084.71259088143
 30
0.0
 11
672.9429731572727
 21
2084.71259088143
 31
0.0
  0
LINE
  5
7D3F
330
19
100
AcDbEntity
  8
1
100
AcDbLine
 10
600.758769157273
 20
2094.71259088143
 30
0.0
 11
609.758769157273
 21
2094.71259088143
 31
0.0
  0
LINE
  5
7D40
330
19
100
AcDbEntity
  8
1
100
AcDbLine
 10
611.6930341572729
 20
2094.71259088143
 30
0.0
 11
599.4291001572728
 21
2094.71259088143
 31
0.0
  0
LINE
  5
7D41
330
19
100
AcDbEntity
  8
1
100
AcDbLine
 10
609.5079761572728
 20
2094.71259088143
 30
0.0
 11
600.8779711572729
 21
2094.71259088143
 31
0.0
  0
LINE
  5
7D42
330
19
100
AcDbEntity
  8
1
100
AcDbLine
 10
605.9429731572727
 20
2094.71259088143
 30
0.0
 11
605.9429731572727
 21
2084.71259088143
 31
0.0
  0
LINE
  5
7D43
330
19
100
AcDbEntity
  8
1
100
AcDbLine
 10
628.9429731572727
 20
2079.71259088143
 30
0.0
 11
649.9429731572726
 21
2079.71259088143
 31
0.0
  0
LINE
  5
7D44
330
19
100
AcDbEntity
  8
1
100
AcDbLine
 10
628.9429731572727
 20
2079.71259088143
 30
0.0
 11
628.9429731572727
 21
2084.71259088143
 31
0.0
  0
LINE
  5
7D45
330
19
100
AcDbEntity
  8
1
100
AcDbLine
 10
649.9429731572726
 20
2079.71259088143
 30
0.0
 11
649.9429731572726
 21
2084.71259088143
 31
0.0
  0
LINE
  5
7D46
330
19
100
AcDbEntity
  8
1
100
AcDbLine
 10
703.508769157273
 20
2094.71259088143
 30
0.0
 11
712.508769157273
 21
2094.71259088143
 31
0.0
  0
LINE
  5
7D47
330
19
100
AcDbEntity
  8
1
100
AcDbLine
 10
712.2579761572729
 20
2094.71259088143
 30
0.0
 11
703.6279711572729
 21
2094.71259088143
 31
0.0
  0
LINE
  5
7D48
330
19
100
AcDbEntity
  8
1
100
AcDbLine
 10
672.9429731572727
 20
2084.71259088143
 30
0.0
 11
672.9429731572727
 21
2094.71259088143
 31
0.0
  0
ARC
  5
7D49
330
19
100
AcDbEntity
  8
1
100
AcDbCircle
 10
708.017268157273
 20
2093.71259088143
 30
0.0
 40
2.0
100
AcDbArc
 50
11.13904000000003
 51
30.0
  0
LINE
  5
7D4B
330
19
100
AcDbEntity
  8
1
100
AcDbLine
 10
1966.367799229643
 20
1183.182830778977
 30
0.0
 11
1748.367799229643
 21
1183.182830778976
 31
0.0
  0
LINE
  5
7D4C
330
19
100
AcDbEntity
  8
1
100
AcDbLine
 10
1712.367799229644
 20
1098.882842778977
 30
0.0
 11
1730.867799229644
 21
1098.882842778977
 31
0.0
  0
LINE
  5
7D4D
330
19
100
AcDbEntity
  8
1
100
AcDbLine
 10
1730.867799229644
 20
1117.882842778977
 30
0.0
 11
1712.367799229644
 21
1117.882842778977
 31
0.0
  0
LINE
  5
7D4E
330
19
100
AcDbEntity
  8
1
100
AcDbLine
 10
1748.367799229643
 20
1181.882842778977
 30
0.0
 11
1748.367799229643
 21
1183.182830778976
 31
0.0
  0
LINE
  5
7D4F
330
19
100
AcDbEntity
  8
1
100
AcDbLine
 10
1966.367799229643
 20
1183.182830778977
 30
0.0
 11
1966.367799229643
 21
1181.882842778977
 31
0.0
  0
LINE
  5
7F2F
330
19
100
AcDbEntity
  8
4
100
AcDbLine
 10
2220.0
 20
600.0
 30
0.0
 11
2220.0
 21
360.0
 31
0.0
  0
LINE
  5
7F30
330
19
100
AcDbEntity
  8
4
100
AcDbLine
 10
1380.0
 20
600.0
 30
0.0
 11
1380.0
 21
360.0
 31
0.0
  0
LINE
  5
7F31
330
19
100
AcDbEntity
  8
4
100
AcDbLine
 10
780.0
 20
600.0
 30
0.0
 11
780.0
 21
360.0
 31
0.0
  0
LINE
  5
7F34
330
19
100
AcDbEntity
  8
4
100
AcDbLine
 10
780.0
 20
360.0
 30
0.0
 11
2220.0
 21
360.0
 31
0.0
  0
LINE
  5
7F35
330
19
100
AcDbEntity
  8
4
100
AcDbLine
 10
780.0
 20
480.0
 30
0.0
 11
2220.0
 21
480.0
 31
0.0
  0
TEXT
  5
7F36
330
19
100
AcDbEntity
  8
4
100
AcDbText
 10
826.2024970162819
 20
517.8516310399354
 30
0.0
 40
60.0
  1
機器名称
100
AcDbText
  0
TEXT
  5
7F37
330
19
100
AcDbEntity
  8
4
100
AcDbText
 10
823.509727229757
 20
385.9741880784131
 30
0.0
 40
60.0
  1
機器型番
100
AcDbText
  0
TEXT
  5
7F38
330
19
100
AcDbEntity
  8
4
100
AcDbText
 10
1413.214494585198
 20
507.0861227490822
 30
0.0
 40
60.0
  1
ミツヤ多翼送風機
100
AcDbText
  0
TEXT
  5
7F39
330
19
100
AcDbEntity
  8
4
100
AcDbText
 10
1423.985394702577
 20
380.5915011359321
 30
0.0
 40
60.0
  1
MF#1 1/4-1
100
AcDbText
  0
TEXT
  5
7F3B
330
19
100
AcDbEntity
  8
4
100
AcDbText
 10
882.8998046267043
 20
2860.114609599019
 30
0.0
 40
64.8
  1
床置防振ベット
100
AcDbText
  0
TEXT
  5
7F3C
330
19
100
AcDbEntity
  8
4
100
AcDbText
 10
379.4011119953357
 20
3040.657171439157
 30
0.0
 40
86.4
  1
遠心式片吸込片持多翼ファン
100
AcDbText
  0
LINE
  5
7F3D
330
19
100
AcDbEntity
  8
4
100
AcDbLine
 10
300.0
 20
2963.290505117766
 30
0.0
 11
2220.0
 21
2963.290505117766
 31
0.0
  0
LINE
  5
7F3E
330
19
100
AcDbEntity
  8
4
100
AcDbLine
 10
300.0
 20
3203.290505117766
 30
0.0
 11
2220.0
 21
3203.290505117766
 31
0.0
  0
LINE
  5
7F3F
330
19
100
AcDbEntity
  8
4
100
AcDbLine
 10
780.0
 20
600.0
 30
0.0
 11
2220.0
 21
600.0
 31
0.0
  0
LINE
  5
7F40
330
19
100
AcDbEntity
  8
4
100
AcDbLine
 10
300.0
 20
3203.290505117766
 30
0.0
 11
300.0
 21
2963.290505117766
 31
0.0
  0
TEXT
  5
7F41
330
19
100
AcDbEntity
  8
4
100
AcDbText
 10
359.8692059354617
 20
2858.783373055612
 30
0.0
 40
64.8
  1
右回転上向
100
AcDbText
  0
TEXT
  5
7F42
330
19
100
AcDbEntity
  8
4
100
AcDbText
 10
1762.763471099148
 20
3247.273297794371
 30
0.0
 40
67.2
  1
No.
100
AcDbText
  0
TEXT
  5
7F43
330
19
100
AcDbEntity
  8
4
100
AcDbText
 10
1573.555275120016
 20
2860.114609599019
 30
0.0
 40
64.8
  1
縮尺：1/12
100
AcDbText
  0
LINE
  5
7F44
330
19
100
AcDbEntity
  8
4
100
AcDbLine
 10
2220.0
 20
3203.290505117766
 30
0.0
 11
2220.0
 21
2963.290505117766
 31
0.0
  0
LINE
  5
7F45
330
19
100
AcDbEntity
  8
4
100
AcDbLine
 10
2520.0
 20
3540.0
 30
0.0
 11
2520.0
 21
3540.0
 31
0.0
  0
LINE
  5
7F46
330
19
100
AcDbEntity
  8
4
100
AcDbLine
 10
1728.740906831837
 20
3217.516299750482
 30
0.0
 11
1728.740906831837
 21
3343.982713859703
 31
0.0
  0
LINE
  5
7F47
330
19
100
AcDbEntity
  8
4
100
AcDbLine
 10
1728.740906831837
 20
3343.982713859703
 30
0.0
 11
2220.0
 21
3343.982713859703
 31
0.0
  0
LINE
  5
7F48
330
19
100
AcDbEntity
  8
4
100
AcDbLine
 10
2220.0
 20
3343.982713859703
 30
0.0
 11
2220.0
 21
3217.516299750482
 31
0.0
  0
LINE
  5
7F49
330
19
100
AcDbEntity
  8
4
100
AcDbLine
 10
2220.0
 20
3217.516299750482
 30
0.0
 11
1728.740906831837
 21
3217.516299750482
 31
0.0
  0
LINE
  5
7F4A
330
19
100
AcDbEntity
  8
4
100
AcDbLine
 10
0.0
 20
0.0
 30
0.0
 11
0.0
 21
3540.0
 31
0.0
  0
LINE
  5
7F4B
330
19
100
AcDbEntity
  8
4
100
AcDbLine
 10
0.0
 20
3540.0
 30
0.0
 11
2520.0
 21
3540.0
 31
0.0
  0
LINE
  5
7F4C
330
19
100
AcDbEntity
  8
4
100
AcDbLine
 10
2520.0
 20
3540.0
 30
0.0
 11
2520.0
 21
0.0
 31
0.0
  0
LINE
  5
7F4D
330
19
100
AcDbEntity
  8
4
100
AcDbLine
 10
2520.0
 20
0.0
 30
0.0
 11
0.0
 21
0.0
 31
0.0
  0
CIRCLE
  5
817A
330
19
100
AcDbEntity
  8
1
100
AcDbCircle
 10
969.4429731572729
 20
1218.296748891718
 30
0.0
 40
50.0
  0
CIRCLE
  5
817B
330
19
100
AcDbEntity
  8
1
100
AcDbCircle
 10
639.4429731572727
 20
1108.296748891718
 30
0.0
 40
50.0
  0
LINE
  5
817C
330
19
100
AcDbEntity
  8
1
100
AcDbLine
 10
953.631584856431
 20
1265.730913794243
 30
0.0
 11
623.6315848564307
 21
1155.730913794243
 31
0.0
  0
LINE
  5
817D
330
19
100
AcDbEntity
  8
1
100
AcDbLine
 10
985.2543614581149
 20
1170.862583989192
 30
0.0
 11
655.2543614581146
 21
1060.862583989192
 31
0.0
  0
LINE
  5
8183
330
19
100
AcDbEntity
  8
1
100
AcDbLine
 10
1674.367799229643
 20
1168.382842778977
 30
0.0
 11
1712.367799229644
 21
1168.382842778977
 31
0.0
  0
LINE
  5
8184
330
19
100
AcDbEntity
  8
1
100
AcDbLine
 10
1674.367799229643
 20
1158.382842778977
 30
0.0
 11
1712.367799229644
 21
1158.382842778977
 31
0.0
  0
LINE
  5
8185
330
19
100
AcDbEntity
  8
1
100
AcDbLine
 10
1674.367799229642
 20
1058.382842778976
 30
0.0
 11
1712.367799229644
 21
1058.382842778977
 31
0.0
  0
LINE
  5
8186
330
19
100
AcDbEntity
  8
1
100
AcDbLine
 10
1674.367799229645
 20
1268.382842778977
 30
0.0
 11
1712.367799229644
 21
1268.382842778976
 31
0.0
  0
LINE
  5
8187
330
19
100
AcDbEntity
  8
1
100
AcDbLine
 10
689.4429731572727
 20
2058.712590881432
 30
0.0
 11
689.4429731572727
 21
2020.712590881429
 31
0.0
  0
LINE
  5
8188
330
19
100
AcDbEntity
  8
1
100
AcDbLine
 10
589.4429731572727
 20
2058.712590881432
 30
0.0
 11
589.4429731572727
 21
2020.712590881428
 31
0.0
  0
LINE
  5
8189
330
19
100
AcDbEntity
  8
1
100
AcDbLine
 10
1019.442973157273
 20
2020.712590881431
 30
0.0
 11
1019.442973157273
 21
2058.712590881431
 31
0.0
  0
LINE
  5
818A
330
19
100
AcDbEntity
  8
1
100
AcDbLine
 10
919.4429731572727
 20
2020.712590881431
 30
0.0
 11
919.4429731572729
 21
2058.712590881432
 31
0.0
  0
LINE
  5
818F
330
19
100
AcDbEntity
  8
1
100
AcDbLine
 10
1726.167799229644
 20
1027.536363593487
 30
0.0
 11
1726.167799229644
 21
998.382842778977
 31
0.0
  0
LINE
  5
821F
330
19
100
AcDbEntity
  8
1
100
AcDbLine
 10
750.442973157273
 20
2350.512590881432
 30
0.0
 11
564.4429731572731
 21
2350.512590881431
 31
0.0
  0
LINE
  5
8222
330
19
100
AcDbEntity
  8
1
100
AcDbLine
 10
750.442973157273
 20
2390.512590881431
 30
0.0
 11
524.4429731572731
 21
2390.512590881431
 31
0.0
  0
DIMENSION
  5
826B
330
19
100
AcDbEntity
  8
3
100
AcDbDimension
280
     0
  2
*D14
 10
969.4429731572723
 20
756.1285417005465
 30
0.0
 11
746.9429731572724
 21
786.1285417005465
 31
0.0
 70
    32
 71
     5
 42
444.9999999999999
 73
     0
 74
     0
 75
     0
  3
IGA
100
AcDbAlignedDimension
 13
524.4429731572725
 23
848.2967488917179
 33
0.0
 14
969.4429731572723
 24
848.296748891718
 34
0.0
100
AcDbRotatedDimension
1001
ACAD
1000
DSTYLE
1002
{
1070
    40
1040
12.0
1070
   143
1040
0.039
1070
   172
1070
     1
1070
   271
1070
     0
1070
   279
1070
     0
1002
}
  0
DIMENSION
  5
8278
330
19
100
AcDbEntity
  8
3
100
AcDbDimension
280
     0
  2
*D15
 10
1144.442973157272
 20
756.1285417005465
 30
0.0
 11
1056.942973157272
 21
786.1285417005465
 31
0.0
 70
    32
 71
     5
 42
174.9999999999999
 73
     0
 74
     0
 75
     0
  3
IGA
100
AcDbAlignedDimension
 13
969.4429731572723
 23
848.296748891718
 33
0.0
 14
1144.442973157272
 24
848.2967488917179
 34
0.0
100
AcDbRotatedDimension
1001
ACAD
1000
DSTYLE
1002
{
1070
    40
1040
12.0
1070
   143
1040
0.039
1070
   172
1070
     1
1070
   271
1070
     0
1070
   279
1070
     0
1002
}
  0
DIMENSION
  5
8285
330
19
100
AcDbEntity
  8
3
100
AcDbDimension
280
     0
  2
*D16
 10
2044.167799229644
 20
756.1285417005465
 30
0.0
 11
1854.167799229644
 21
786.1285417005465
 31
0.0
 70
    32
 71
     5
 42
380.0
 73
     0
 74
     0
 75
     0
  3
IGA
100
AcDbAlignedDimension
 13
1664.167799229644
 23
848.382842778977
 33
0.0
 14
2044.167799229644
 24
848.3828427789772
 34
0.0
100
AcDbRotatedDimension
1001
ACAD
1000
DSTYLE
1002
{
1070
    40
1040
12.0
1070
   143
1040
0.039
1070
   172
1070
     1
1070
   271
1070
     0
1070
   279
1070
     0
1002
}
  0
DIMENSION
  5
8294
330
19
100
AcDbEntity
  8
3
100
AcDbDimension
280
     0
  2
*D17
 10
2084.167799229644
 20
756.1285417005465
 30
0.0
 11
2173.310656372501
 21
786.1285417005465
 31
0.0
 70
    32
 71
     5
 42
40.0
 73
     0
 74
     0
 75
     0
  3
IGA
100
AcDbAlignedDimension
 13
2044.167799229644
 23
848.3828427789772
 33
0.0
 14
2084.167799229644
 24
848.382842778977
 34
0.0
100
AcDbRotatedDimension
1001
ACAD
1000
DSTYLE
1002
{
1070
    40
1040
12.0
1070
   143
1040
0.039
1070
   172
1070
     1
1070
   271
1070
     0
1070
   279
1070
     0
1002
}
  0
LINE
  5
82A6
330
19
100
AcDbEntity
  8
1
100
AcDbLine
 10
1664.167799229644
 20
848.382842778977
 30
0.0
 11
2044.167799229644
 21
848.3828427789772
 31
0.0
  0
LINE
  5
82A7
330
19
100
AcDbEntity
  8
1
100
AcDbLine
 10
1664.167799229644
 20
888.3828427789769
 30
0.0
 11
2044.167799229644
 21
888.3828427789772
 31
0.0
  0
LINE
  5
82A8
330
19
100
AcDbEntity
  8
1
100
AcDbLine
 10
2044.167799229644
 20
848.3828427789772
 30
0.0
 11
2044.167799229644
 21
888.3828427789772
 31
0.0
  0
LINE
  5
82A9
330
19
100
AcDbEntity
  8
1
100
AcDbLine
 10
1664.167799229644
 20
848.382842778977
 30
0.0
 11
1664.167799229644
 21
888.3828427789769
 31
0.0
  0
LINE
  5
82AA
330
19
100
AcDbEntity
  8
1
100
AcDbLine
 10
524.4429731572725
 20
888.2967488917179
 30
0.0
 11
1144.442973157272
 21
888.2967488917174
 31
0.0
  0
LINE
  5
82AB
330
19
100
AcDbEntity
  8
1
100
AcDbLine
 10
1144.442973157272
 20
888.2967488917174
 30
0.0
 11
1144.442973157272
 21
848.2967488917175
 31
0.0
  0
LINE
  5
82AC
330
19
100
AcDbEntity
  8
1
100
AcDbLine
 10
1144.442973157272
 20
848.2967488917179
 30
0.0
 11
524.4429731572725
 21
848.2967488917179
 31
0.0
  0
LINE
  5
82AD
330
19
100
AcDbEntity
  8
1
100
AcDbLine
 10
524.4429731572725
 20
888.2967488917179
 30
0.0
 11
524.4429731572725
 21
848.2967488917179
 31
0.0
  0
DIMENSION
  5
82BD
330
19
100
AcDbEntity
  8
3
100
AcDbDimension
280
     0
  2
*D18
 10
1249.235868788122
 20
848.2967488917179
 30
0.0
 11
1219.235868788121
 21
759.1538917488609
 31
0.0
 70
    32
 71
     5
 42
39.99999999999955
 73
     0
 74
     0
 75
     0
  3
IGA
100
AcDbAlignedDimension
 13
1144.442973157272
 23
888.2967488917174
 33
0.0
 14
1144.442973157272
 24
848.2967488917179
 34
0.0
 50
90.0
100
AcDbRotatedDimension
1001
ACAD
1000
DSTYLE
1002
{
1070
    40
1040
12.0
1070
   143
1040
0.039
1070
   172
1070
     1
1070
   271
1070
     0
1070
   279
1070
     0
1070
   343
1005
7A02
1002
}
  0
DIMENSION
  5
82E8
330
19
100
AcDbEntity
  8
3
100
AcDbDimension
280
     0
  2
*D19
 10
1250.377997578892
 20
958.2967488917175
 30
0.0
 11
1294.746039877063
 21
925.0941613432214
 31
0.0
 70
   160
 71
     5
 42
70.0
 73
     0
 74
     0
 75
     0
  3
IGA
100
AcDbAlignedDimension
 13
1144.442973157272
 23
888.2967488917174
 33
0.0
 14
1144.442973157272
 24
958.2967488917175
 34
0.0
 50
90.0
100
AcDbRotatedDimension
1001
ACAD
1000
DSTYLE
1002
{
1070
     3
1000
(<>)
1070
    40
1040
12.0
1070
   143
1040
0.039
1070
   172
1070
     1
1070
   271
1070
     0
1070
   343
1005
7A02
1002
}
  0
DIMENSION
  5
82F5
330
19
100
AcDbEntity
  8
3
100
AcDbDimension
280
     0
  2
*D20
 10
1351.387975059233
 20
848.2967488917179
 30
0.0
 11
1311.959403630661
 21
1125.796748891718
 31
0.0
 70
    32
 71
     5
 42
555.0000000000004
 73
     0
 74
     0
 75
     0
  3
IGA
100
AcDbAlignedDimension
 13
992.4429731572727
 23
1403.296748891718
 33
0.0
 14
1144.442973157272
 24
848.2967488917179
 34
0.0
 50
90.0
100
AcDbRotatedDimension
1001
ACAD
1000
DSTYLE
1002
{
1070
   172
1070
     1
1070
    40
1040
12.0
1070
     3
1000
(<>)
1070
   271
1070
     0
1070
   143
1040
0.039
1002
}
  0
ENDSEC
  0
SECTION
  2
OBJECTS
  0
DICTIONARY
  5
C
330
0
100
AcDbDictionary
281
     1
  3
ACAD_CIP_PREVIOUS_PRODUCT_INFO
350
8357
  3
ACAD_COLOR
350
833A
  3
ACAD_DETAILVIEWSTYLE
350
8353
  3
ACAD_GROUP
350
D
  3
ACAD_LAYOUT
350
82FA
  3
ACAD_MATERIAL
350
8308
  3
ACAD_MLEADERSTYLE
350
834F
  3
ACAD_MLINESTYLE
350
E
  3
ACAD_PLOTSETTINGS
350
82FB
  3
ACAD_PLOTSTYLENAME
350
82F8
  3
ACAD_SCALELIST
350
833D
  3
ACAD_SECTIONVIEWSTYLE
350
8351
  3
ACAD_TABLESTYLE
350
833B
  3
ACAD_VISUALSTYLE
350
8321
  3
ACDB_RECOMPOSE_DATA
350
8409
  3
AcDbVariableDictionary
350
83C4
  0
DICTIONARY
  5
83B8
330
2
100
AcDbDictionary
280
     1
281
     1
  3
ACAD_LAYERSTATES
360
83B9
  0
DICTIONARY
  5
83AB
330
F
100
AcDbDictionary
280
     1
281
     1
  3
ADSK_XREC_LAYER_RECONCILED
360
83AC
  0
DICTIONARY
  5
83AD
330
31
100
AcDbDictionary
280
     1
281
     1
  3
ADSK_XREC_LAYER_RECONCILED
360
83AE
  0
DICTIONARY
  5
83AF
330
76D0
100
AcDbDictionary
280
     1
281
     1
  3
ADSK_XREC_LAYER_RECONCILED
360
83B0
  0
DICTIONARY
  5
83B1
330
76D1
100
AcDbDictionary
280
     1
281
     1
  3
ADSK_XREC_LAYER_RECONCILED
360
83B2
  0
DICTIONARY
  5
83B3
330
76D2
100
AcDbDictionary
280
     1
281
     1
  3
ADSK_XREC_LAYER_RECONCILED
360
83B4
  0
DICTIONARY
  5
8359
330
19
100
AcDbDictionary
280
     1
281
     1
  3
ACAD_SORTENTS
360
835A
  0
XRECORD
  5
8357
102
{ACAD_REACTORS
330
C
102
}
330
C
100
AcDbXrecord
280
     1
300
ACDLT
300
2015
300
INVLTS_F_S
  0
DICTIONARY
  5
833A
102
{ACAD_REACTORS
330
C
102
}
330
C
100
AcDbDictionary
281
     1
  0
DICTIONARY
  5
8353
102
{ACAD_REACTORS
330
C
102
}
330
C
100
AcDbDictionary
281
     1
  3
Metric50
350
8354
  0
DICTIONARY
  5
D
102
{ACAD_REACTORS
330
C
102
}
330
C
100
AcDbDictionary
281
     1
  0
DICTIONARY
  5
82FA
102
{ACAD_REACTORS
330
C
102
}
330
C
100
AcDbDictionary
281
     1
  3
Model
350
82FC
  3
ﾚｲｱｳﾄ1
350
82FD
  0
DICTIONARY
  5
8308
102
{ACAD_REACTORS
330
C
102
}
330
C
100
AcDbDictionary
281
     1
  3
ByBlock
350
8311
  3
ByLayer
350
8309
  3
Global
350
8319
  0
DICTIONARY
  5
834F
102
{ACAD_REACTORS
330
C
102
}
330
C
100
AcDbDictionary
281
     1
  3
Standard
350
8350
  0
DICTIONARY
  5
E
102
{ACAD_REACTORS
330
C
102
}
330
C
100
AcDbDictionary
281
     1
  3
STANDARD
350
1C
  0
DICTIONARY
  5
82FB
102
{ACAD_REACTORS
330
C
102
}
330
C
100
AcDbDictionary
281
     1
  0
ACDBDICTIONARYWDFLT
  5
82F8
102
{ACAD_REACTORS
330
C
102
}
330
C
100
AcDbDictionary
281
     1
  3
Normal
350
82F9
100
AcDbDictionaryWithDefault
340
82F9
  0
DICTIONARY
  5
833D
102
{ACAD_REACTORS
330
C
102
}
330
C
100
AcDbDictionary
281
     1
  3
A0
350
833E
  3
A1
350
833F
  3
A2
350
8340
  3
A3
350
8341
  3
A4
350
8342
  3
A5
350
8343
  3
A6
350
8344
  3
A7
350
8345
  3
A8
350
8346
  3
A9
350
8347
  3
B0
350
8348
  3
B1
350
8349
  3
B2
350
834A
  3
B3
350
834B
  3
B4
350
834C
  3
B5
350
834D
  3
B6
350
834E
  0
DICTIONARY
  5
8351
102
{ACAD_REACTORS
330
C
102
}
330
C
100
AcDbDictionary
281
     1
  3
Metric50
350
8352
  0
DICTIONARY
  5
833B
102
{ACAD_REACTORS
330
C
102
}
330
C
100
AcDbDictionary
281
     1
  3
Standard
350
833C
  0
DICTIONARY
  5
8321
102
{ACAD_REACTORS
330
C
102
}
330
C
100
AcDbDictionary
281
     1
  3
2dWireframe
350
8327
  3
Basic
350
8326
  3
Brighten
350
832D
  3
ColorChange
350
8331
  3
Conceptual
350
832A
  3
Dim
350
832C
  3
EdgeColorOff
350
8339
  3
Facepattern
350
8330
  3
Flat
350
8322
  3
FlatWithEdges
350
8323
  3
Gouraud
350
8324
  3
GouraudWithEdges
350
8325
  3
Hidden
350
8329
  3
JitterOff
350
8337
  3
Linepattern
350
832F
  3
OverhangOff
350
8338
  3
Realistic
350
832B
  3
Shaded
350
8336
  3
Shaded with edges
350
8335
  3
Shades of Gray
350
8332
  3
Sketchy
350
8333
  3
Thicken
350
832E
  3
Wireframe
350
8328
  3
X-Ray
350
8334
  0
XRECORD
  5
8409
102
{ACAD_REACTORS
330
C
102
}
330
C
100
AcDbXrecord
280
     1
 90
        1
330
833C
330
8352
330
8354
  0
DICTIONARY
  5
83C4
102
{ACAD_REACTORS
330
C
102
}
330
C
100
AcDbDictionary
281
     1
  3
CANNOSCALE
350
83CA
  3
CMLEADERSTYLE
350
83C6
  3
CTABLESTYLE
350
83C5
  3
CVIEWDETAILSTYLE
350
83C7
  3
CVIEWSECTIONSTYLE
350
83C8
  3
LAYEREVAL
350
83CC
  3
LAYERNOTIFY
350
83CD
  3
LIGHTINGUNITS
350
83CB
  3
MSLTSCALE
350
83C9
  0
DICTIONARY
  5
83B9
102
{ACAD_REACTORS
330
83B8
102
}
330
83B8
100
AcDbDictionary
281
     1
  0
XRECORD
  5
83AC
102
{ACAD_REACTORS
330
83AB
102
}
330
83AB
100
AcDbXrecord
280
     1
290
     1
  0
XRECORD
  5
83AE
102
{ACAD_REACTORS
330
83AD
102
}
330
83AD
100
AcDbXrecord
280
     1
290
     1
  0
XRECORD
  5
83B0
102
{ACAD_REACTORS
330
83AF
102
}
330
83AF
100
AcDbXrecord
280
     1
290
     1
  0
XRECORD
  5
83B2
102
{ACAD_REACTORS
330
83B1
102
}
330
83B1
100
AcDbXrecord
280
     1
290
     1
  0
XRECORD
  5
83B4
102
{ACAD_REACTORS
330
83B3
102
}
330
83B3
100
AcDbXrecord
280
     1
290
     1
  0
SORTENTSTABLE
  5
835A
102
{ACAD_REACTORS
330
8359
102
}
330
8359
100
AcDbSortentsTable
330
19
331
7D36
  5
7D37
331
7C94
  5
7C95
331
7D32
  5
7D33
331
7D2E
  5
7D2F
331
7C90
  5
7C91
331
7D2A
  5
7D2B
331
7CCB
  5
7CCC
331
7C55
  5
7C55
331
7C51
  5
7C51
331
7CC7
  5
7CC8
331
826B
  5
8278
331
7CFA
  5
7CFB
331
7CC3
  5
7CC4
331
7CF6
  5
7CF7
331
7CBF
  5
7CC0
331
7C80
  5
7C83
331
7F4B
  5
7F4C
331
7CF2
  5
7CF3
331
7CBB
  5
7CBD
331
7C7C
  5
7C7D
331
7C78
  5
7C79
331
82AA
  5
82AB
331
7F47
  5
7F48
331
82A6
  5
82A7
331
8188
  5
8189
331
7F43
  5
7F44
331
7CB7
  5
7CB8
331
7CEE
  5
7CEF
331
7F3F
  5
7F40
331
7CEA
  5
7CEB
331
7C74
  5
7C75
331
7CB3
  5
7CB4
331
8184
  5
8185
331
7D4D
  5
7D4E
331
7CE6
  5
7CE7
331
7C70
  5
7C71
331
7F3B
  5
7F3C
331
7CE2
  5
7CE6
331
7CAB
  5
7CAC
331
7C6C
  5
7C6D
331
7D49
  5
7D4B
331
7C39
  5
7C39
331
7C35
  5
7C35
331
82F5
  5
8358
331
817C
  5
817D
331
7F37
  5
7F38
331
7D45
  5
7D46
331
7CA7
  5
7CA8
331
7CDE
  5
7CDF
331
7F2F
  5
7F30
331
7D41
  5
7D42
331
7C64
  5
7C65
331
7CDA
  5
7CDB
331
7D3D
  5
7D3E
331
7C60
  5
7C60
331
7CD6
  5
7CD7
331
7C9B
  5
7C9C
331
7C5C
  5
7C5C
331
7C58
  5
7C58
331
7C97
  5
7C98
331
7D35
  5
7D36
331
7D31
  5
7D32
331
7D2D
  5
7D2E
331
7CCE
  5
7CD0
331
7C8F
  5
7C90
331
7CCA
  5
7CCB
331
7D29
  5
7D2A
331
7C54
  5
7C54
331
82BD
  5
82E8
331
821F
  5
8222
331
7CC6
  5
7CC7
331
7CFD
  5
7D29
331
7CF9
  5
7CFA
331
7C83
  5
7C85
331
7CC2
  5
7CC3
331
7CF5
  5
7CF6
331
7CBE
  5
7CBF
331
7C7F
  5
7C80
331
7F4A
  5
7F4B
331
7CF1
  5
7CF2
331
7CBA
  5
7CBB
331
7C7B
  5
7C7C
331
7C40
  5
7C40
331
82AD
  5
82BD
331
818F
  5
821F
331
82A9
  5
82AA
331
7F46
  5
7F47
331
8187
  5
8188
331
7F42
  5
7F43
331
7CB6
  5
7CB7
331
7C77
  5
7C78
331
7CED
  5
7CEE
331
7F3E
  5
7F3F
331
7C73
  5
7C74
331
7CE9
  5
7CEA
331
8183
  5
8184
331
7D4C
  5
7D4D
331
7C6F
  5
7C70
331
7CE1
  5
7CE2
331
7CAA
  5
7CAB
331
7C6B
  5
7C6C
331
7D48
  5
7D49
331
7C38
  5
7C38
331
7C34
  5
7C34
331
7C30
  5
7C30
331
817B
  5
817C
331
7F36
  5
7F37
331
8285
  5
8294
331
7D44
  5
7D45
331
7CA6
  5
7CA7
331
7CDD
  5
7CDE
331
7D40
  5
7D41
331
7C63
  5
7C64
331
7CA2
  5
7CA5
331
82E8
  5
82F5
331
7D3C
  5
7D3D
331
7CD5
  5
7CD6
331
7C5F
  5
7C5F
331
7CD1
  5
7CD3
331
7C9A
  5
7C9B
331
7D38
  5
7D3A
331
7C96
  5
7C97
331
7D34
  5
7D35
331
7D30
  5
7D31
331
7C92
  5
7C94
331
8222
  5
826B
331
7D2C
  5
7D2D
331
7CCD
  5
7CCE
331
7C8E
  5
7C8F
331
7C8A
  5
7C8E
331
7C57
  5
7C57
331
7C53
  5
7C53
331
7CFC
  5
7CFD
331
7C86
  5
7C89
331
7CC5
  5
7CC6
331
7CF8
  5
7CF9
331
7CC1
  5
7CC2
331
7F4D
  5
817A
331
7CF4
  5
7CF5
331
7CBD
  5
7CBE
331
7C7E
  5
7C7F
331
7F49
  5
7F4A
331
7C4B
  5
7C4B
331
7CB9
  5
7CBA
331
7C7A
  5
7C7B
331
7CF0
  5
7CF1
331
82AC
  5
82AD
331
82A8
  5
82A9
331
818A
  5
818F
331
7F45
  5
7F46
331
8186
  5
8187
331
7F41
  5
7F42
331
7CB5
  5
7CB6
331
7C76
  5
7C77
331
7CEC
  5
7CED
331
7D4F
  5
7F2F
331
7C72
  5
7C73
331
7CE8
  5
7CE9
331
7F3D
  5
7F3E
331
7C3F
  5
7C3F
331
7F39
  5
7F3B
331
7CAD
  5
7CB0
331
7C6E
  5
7C6F
331
7D4B
  5
7D4C
331
7C3B
  5
7C3B
331
7CE0
  5
7CE1
331
7C6A
  5
7C6B
331
7C37
  5
7C37
331
8294
  5
82A6
331
817A
  5
817B
331
7F35
  5
7F36
331
7D47
  5
7D48
331
7F31
  5
7F34
331
7D43
  5
7D44
331
7CA5
  5
7CA6
331
7C66
  5
7C69
331
7CDC
  5
7CDD
331
7D3F
  5
7D40
331
7CD8
  5
7CDA
331
7C62
  5
7C63
331
7CA1
  5
7CA2
331
7D3B
  5
7D3C
331
7C9D
  5
7CA0
331
7CD0
  5
7CD1
331
7C99
  5
7C9A
331
7C5A
  5
7C5A
331
7D37
  5
7D38
331
7C95
  5
7C96
331
7D33
  5
7D34
331
8278
  5
8285
331
7D2F
  5
7D30
331
7C91
  5
7C92
331
7D2B
  5
7D2C
331
7CCC
  5
7CCD
331
7CC8
  5
7CCA
331
7C89
  5
7C8A
331
7C56
  5
7C56
331
7C52
  5
7C52
331
7CFB
  5
7CFC
331
7C85
  5
7C86
331
7CC4
  5
7CC5
331
7CF7
  5
7CF8
331
7CC0
  5
7CC1
331
7F4C
  5
7F4D
331
7CF3
  5
7CF4
331
7C7D
  5
7C7E
331
7F48
  5
7F49
331
7CB8
  5
7CB9
331
7C79
  5
7C7A
331
82AB
  5
82AC
331
82A7
  5
82A8
331
8189
  5
818A
331
7F44
  5
7F45
331
7CEF
  5
7CF0
331
7F40
  5
7F41
331
7CEB
  5
7CEC
331
7C75
  5
7C76
331
7CB4
  5
7CB5
331
8185
  5
8186
331
7D4E
  5
7D4F
331
7CE7
  5
7CE8
331
7C71
  5
7C72
331
7CB0
  5
7CB3
331
7F3C
  5
7F3D
331
7C3E
  5
7C3E
331
7CAC
  5
7CAD
331
7C6D
  5
7C6E
331
7F38
  5
7F39
331
7C3A
  5
7C3A
331
7CA8
  5
7CAA
331
7C69
  5
7C6A
331
7C32
  5
7C32
331
817D
  5
8183
331
7F34
  5
7F35
331
7D46
  5
7D47
331
7CDF
  5
7CE0
331
7F30
  5
7F31
331
7D42
  5
7D43
331
7C65
  5
7C66
331
7CDB
  5
7CDC
331
7D3E
  5
7D3F
331
7CD7
  5
7CD8
331
7C61
  5
7C61
331
7CA0
  5
7CA1
331
7CD3
  5
7CD5
331
7C9C
  5
7C9D
331
7C5D
  5
7C5D
331
7D3A
  5
7D3B
331
7C98
  5
7C99
331
7C59
  5
7C59
  0
ACDBDETAILVIEWSTYLE
  5
8354
102
{ACAD_XDICTIONARY
360
83C1
102
}
102
{ACAD_REACTORS
330
8353
102
}
330
8353
100
AcDbModelDocViewStyle
 70
     0
  3
Metric50
290
     0
100
AcDbDetailViewStyle
 70
     0
 71
     0
 90
        3
 71
     1
340
10
 62
   256
 40
5.0
340
0
 62
   256
 40
5.0
300

 40
0.0
280
     1
 71
     2
340
15
 90
       25
 62
   256
 71
     3
340
10
 62
   256
 40
5.0
 90
        0
 40
15.0
 90
        1
300
%<\AcVar ViewDetailId>% (%<\AcVar ViewScale \f "%sn">%)
 71
     4
340
15
 90
       25
 62
   256
340
15
 90
       25
 62
   256
280
     0
  0
LAYOUT
  5
82FC
102
{ACAD_REACTORS
330
82FA
102
}
330
82FA
100
AcDbPlotSettings
  1

  2
EPSON LP-9300
  4

  6

 40
0.0
 41
0.0
 42
0.0
 43
0.0
 44
0.0
 45
0.0
 46
0.0
 47
0.0
 48
0.0
 49
0.0
140
0.0
141
0.0
142
1.0
143
1.0
 70
  1712
 72
     0
 73
     0
 74
     0
  7

 75
     0
147
1.0
 76
     0
 77
     2
 78
   300
148
0.0
149
0.0
100
AcDbLayout
  1
Model
 70
     1
 71
     0
 10
0.0
 20
0.0
 11
12.0
 21
9.0
 12
0.0
 22
0.0
 32
0.0
 14
0.0
 24
0.0
 34
0.0
 15
0.0
 25
0.0
 35
0.0
146
0.0
 13
0.0
 23
0.0
 33
0.0
 16
1.0
 26
0.0
 36
0.0
 17
0.0
 27
1.0
 37
0.0
 76
     0
330
19
331
8306
  0
LAYOUT
  5
82FD
102
{ACAD_REACTORS
330
82FA
102
}
330
82FA
100
AcDbPlotSettings
  1

  2
EPSON LP-9300
  4

  6

 40
0.0
 41
0.0
 42
0.0
 43
0.0
 44
0.0
 45
0.0
 46
0.0
 47
0.0
 48
0.0
 49
0.0
140
0.0
141
0.0
142
1.0
143
1.0
 70
   688
 72
     0
 73
     0
 74
     5
  7

 75
    16
147
1.0
 76
     0
 77
     2
 78
   300
148
0.0
149
0.0
100
AcDbLayout
  1
ﾚｲｱｳﾄ1
 70
     1
 71
     1
 10
0.0
 20
0.0
 11
12.0
 21
9.0
 12
0.0
 22
0.0
 32
0.0
 14
1.000000000000000E+20
 24
1.000000000000000E+20
 34
1.000000000000000E+20
 15
-1.000000000000000E+20
 25
-1.000000000000000E+20
 35
-1.000000000000000E+20
146
0.0
 13
0.0
 23
0.0
 33
0.0
 16
1.0
 26
0.0
 36
0.0
 17
0.0
 27
1.0
 37
0.0
 76
     0
330
16
  0
MATERIAL
  5
8311
102
{ACAD_XDICTIONARY
360
8312
102
}
102
{ACAD_REACTORS
330
8308
102
}
330
8308
100
AcDbMaterial
  1
ByBlock
 72
     0
 43
0.0208333333333333
 43
0.0
 43
0.0
 43
0.0
 43
0.0
 43
0.0208333333333333
 43
0.0
 43
0.0
 43
0.0
 43
0.0
 43
1.0
 43
0.0
 43
0.0
 43
0.0
 43
0.0
 43
1.0
 77
     0
 47
0.0208333333333333
 47
0.0
 47
0.0
 47
0.0
 47
0.0
 47
0.0208333333333333
 47
0.0
 47
0.0
 47
0.0
 47
0.0
 47
1.0
 47
0.0
 47
0.0
 47
0.0
 47
0.0
 47
1.0
171
     0
 49
0.0208333333333333
 49
0.0
 49
0.0
 49
0.0
 49
0.0
 49
0.0208333333333333
 49
0.0
 49
0.0
 49
0.0
 49
0.0
 49
1.0
 49
0.0
 49
0.0
 49
0.0
 49
0.0
 49
1.0
175
     0
142
0.0208333333333333
142
0.0
142
0.0
142
0.0
142
0.0
142
0.0208333333333333
142
0.0
142
0.0
142
0.0
142
0.0
142
1.0
142
0.0
142
0.0
142
0.0
142
0.0
142
1.0
179
     0
144
0.0208333333333333
144
0.0
144
0.0
144
0.0
144
0.0
144
0.0208333333333333
144
0.0
144
0.0
144
0.0
144
0.0
144
1.0
144
0.0
144
0.0
144
0.0
144
0.0
144
1.0
147
0.0208333333333333
147
0.0
147
0.0
147
0.0
147
0.0
147
0.0208333333333333
147
0.0
147
0.0
147
0.0
147
0.0
147
1.0
147
0.0
147
0.0
147
0.0
147
0.0
147
1.0
  0
MATERIAL
  5
8309
102
{ACAD_XDICTIONARY
360
830A
102
}
102
{ACAD_REACTORS
330
8308
102
}
330
8308
100
AcDbMaterial
  1
ByLayer
 72
     0
 43
0.0208333333333333
 43
0.0
 43
0.0
 43
0.0
 43
0.0
 43
0.0208333333333333
 43
0.0
 43
0.0
 43
0.0
 43
0.0
 43
1.0
 43
0.0
 43
0.0
 43
0.0
 43
0.0
 43
1.0
 77
     0
 47
0.0208333333333333
 47
0.0
 47
0.0
 47
0.0
 47
0.0
 47
0.0208333333333333
 47
0.0
 47
0.0
 47
0.0
 47
0.0
 47
1.0
 47
0.0
 47
0.0
 47
0.0
 47
0.0
 47
1.0
171
     0
 49
0.0208333333333333
 49
0.0
 49
0.0
 49
0.0
 49
0.0
 49
0.0208333333333333
 49
0.0
 49
0.0
 49
0.0
 49
0.0
 49
1.0
 49
0.0
 49
0.0
 49
0.0
 49
0.0
 49
1.0
175
     0
142
0.0208333333333333
142
0.0
142
0.0
142
0.0
142
0.0
142
0.0208333333333333
142
0.0
142
0.0
142
0.0
142
0.0
142
1.0
142
0.0
142
0.0
142
0.0
142
0.0
142
1.0
179
     0
144
0.0208333333333333
144
0.0
144
0.0
144
0.0
144
0.0
144
0.0208333333333333
144
0.0
144
0.0
144
0.0
144
0.0
144
1.0
144
0.0
144
0.0
144
0.0
144
0.0
144
1.0
147
0.0208333333333333
147
0.0
147
0.0
147
0.0
147
0.0
147
0.0208333333333333
147
0.0
147
0.0
147
0.0
147
0.0
147
1.0
147
0.0
147
0.0
147
0.0
147
0.0
147
1.0
  0
MATERIAL
  5
8319
102
{ACAD_XDICTIONARY
360
831A
102
}
102
{ACAD_REACTORS
330
8308
102
}
330
8308
100
AcDbMaterial
  1
Global
 72
     0
 43
0.0208333333333333
 43
0.0
 43
0.0
 43
0.0
 43
0.0
 43
0.0208333333333333
 43
0.0
 43
0.0
 43
0.0
 43
0.0
 43
1.0
 43
0.0
 43
0.0
 43
0.0
 43
0.0
 43
1.0
 77
     0
 47
0.0208333333333333
 47
0.0
 47
0.0
 47
0.0
 47
0.0
 47
0.0208333333333333
 47
0.0
 47
0.0
 47
0.0
 47
0.0
 47
1.0
 47
0.0
 47
0.0
 47
0.0
 47
0.0
 47
1.0
171
     0
 49
0.0208333333333333
 49
0.0
 49
0.0
 49
0.0
 49
0.0
 49
0.0208333333333333
 49
0.0
 49
0.0
 49
0.0
 49
0.0
 49
1.0
 49
0.0
 49
0.0
 49
0.0
 49
0.0
 49
1.0
175
     0
142
0.0208333333333333
142
0.0
142
0.0
142
0.0
142
0.0
142
0.0208333333333333
142
0.0
142
0.0
142
0.0
142
0.0
142
1.0
142
0.0
142
0.0
142
0.0
142
0.0
142
1.0
179
     0
144
0.0208333333333333
144
0.0
144
0.0
144
0.0
144
0.0
144
0.0208333333333333
144
0.0
144
0.0
144
0.0
144
0.0
144
1.0
144
0.0
144
0.0
144
0.0
144
0.0
144
1.0
147
0.0208333333333333
147
0.0
147
0.0
147
0.0
147
0.0
147
0.0208333333333333
147
0.0
147
0.0
147
0.0
147
0.0
147
1.0
147
0.0
147
0.0
147
0.0
147
0.0
147
1.0
  0
MLEADERSTYLE
  5
8350
102
{ACAD_REACTORS
330
834F
102
}
330
834F
100
AcDbMLeaderStyle
179
     2
170
     2
171
     1
172
     0
 90
        2
 40
0.0
 41
0.0
173
     1
 91
-1056964608
340
13
 92
       -2
290
     1
 42
2.0
291
     1
 43
0.36
  3
Standard
 44
4.0
300

342
10
174
     1
178
     6
175
     1
176
     0
 93
-1056964608
 45
4.0
292
     0
297
     0
 46
4.0
 94
-1056964608
 47
1.0
 49
1.0
140
1.0
293
     1
141
0.0
294
     1
177
     0
142
1.0
295
     1
296
     0
143
0.125
271
     0
272
     9
273
     9
298
     1
  0
MLINESTYLE
  5
1C
102
{ACAD_REACTORS
330
E
102
}
330
E
100
AcDbMlineStyle
  2
STANDARD
 70
     0
  3

 62
     0
 51
90.0
 52
90.0
 71
     2
 49
0.5
 62
   256
  6
BYLAYER
 49
-0.5
 62
   256
  6
BYLAYER
  0
ACDBPLACEHOLDER
  5
82F9
102
{ACAD_REACTORS
330
82F8
102
}
330
82F8
  0
SCALE
  5
833E
102
{ACAD_REACTORS
330
833D
102
}
330
833D
100
AcDbScale
 70
     0
300
1:1
140
1.0
141
1.0
290
     1
  0
SCALE
  5
833F
102
{ACAD_REACTORS
330
833D
102
}
330
833D
100
AcDbScale
 70
     0
300
1:2
140
1.0
141
2.0
290
     0
  0
SCALE
  5
8340
102
{ACAD_REACTORS
330
833D
102
}
330
833D
100
AcDbScale
 70
     0
300
1:4
140
1.0
141
4.0
290
     0
  0
SCALE
  5
8341
102
{ACAD_REACTORS
330
833D
102
}
330
833D
100
AcDbScale
 70
     0
300
1:5
140
1.0
141
5.0
290
     0
  0
SCALE
  5
8342
102
{ACAD_REACTORS
330
833D
102
}
330
833D
100
AcDbScale
 70
     0
300
1:8
140
1.0
141
8.0
290
     0
  0
SCALE
  5
8343
102
{ACAD_REACTORS
330
833D
102
}
330
833D
100
AcDbScale
 70
     0
300
1:10
140
1.0
141
10.0
290
     0
  0
SCALE
  5
8344
102
{ACAD_REACTORS
330
833D
102
}
330
833D
100
AcDbScale
 70
     0
300
1:16
140
1.0
141
16.0
290
     0
  0
SCALE
  5
8345
102
{ACAD_REACTORS
330
833D
102
}
330
833D
100
AcDbScale
 70
     0
300
1:20
140
1.0
141
20.0
290
     0
  0
SCALE
  5
8346
102
{ACAD_REACTORS
330
833D
102
}
330
833D
100
AcDbScale
 70
     0
300
1:30
140
1.0
141
30.0
290
     0
  0
SCALE
  5
8347
102
{ACAD_REACTORS
330
833D
102
}
330
833D
100
AcDbScale
 70
     0
300
1:40
140
1.0
141
40.0
290
     0
  0
SCALE
  5
8348
102
{ACAD_REACTORS
330
833D
102
}
330
833D
100
AcDbScale
 70
     0
300
1:50
140
1.0
141
50.0
290
     0
  0
SCALE
  5
8349
102
{ACAD_REACTORS
330
833D
102
}
330
833D
100
AcDbScale
 70
     0
300
1:100
140
1.0
141
100.0
290
     0
  0
SCALE
  5
834A
102
{ACAD_REACTORS
330
833D
102
}
330
833D
100
AcDbScale
 70
     0
300
2:1
140
2.0
141
1.0
290
     0
  0
SCALE
  5
834B
102
{ACAD_REACTORS
330
833D
102
}
330
833D
100
AcDbScale
 70
     0
300
4:1
140
4.0
141
1.0
290
     0
  0
SCALE
  5
834C
102
{ACAD_REACTORS
330
833D
102
}
330
833D
100
AcDbScale
 70
     0
300
8:1
140
8.0
141
1.0
290
     0
  0
SCALE
  5
834D
102
{ACAD_REACTORS
330
833D
102
}
330
833D
100
AcDbScale
 70
     0
300
10:1
140
10.0
141
1.0
290
     0
  0
SCALE
  5
834E
102
{ACAD_REACTORS
330
833D
102
}
330
833D
100
AcDbScale
 70
     0
300
100:1
140
100.0
141
1.0
290
     0
  0
ACDBSECTIONVIEWSTYLE
  5
8352
102
{ACAD_XDICTIONARY
360
83BF
102
}
102
{ACAD_REACTORS
330
8351
102
}
330
8351
100
AcDbModelDocViewStyle
 70
     0
  3
Metric50
290
     0
100
AcDbSectionViewStyle
 70
     0
 71
     0
 90
      102
 71
     1
340
10
 62
   256
 40
5.0
340
0
340
0
 62
   256
 40
5.0
300
I, O, Q, S, X, Z
 40
10.0
 90
        0
 40
2.5
 90
        0
 71
     2
340
15
 90
       25
 62
   256
340
15
 90
       50
 62
   256
 40
5.0
 40
2.5
 40
5.0
 71
     3
340
10
 62
   256
 40
5.0
 90
        0
 40
15.0
 90
        1
300
%<\AcVar ViewSectionStartId>%-%<\AcVar ViewSectionEndId>% (%<\AcVar ViewScale \f "%sn">%)
 71
     4
 62
   256
 62
   257
300
ANSI31
 40
1.0
 90
        0
290
     0
290
     0
 90
        6
 40
0.0
 40
1.570796326794896
 40
0.2617993877991494
 40
1.308996938995747
 40
-0.2617993877991494
 40
1.832595714594046
  0
TABLESTYLE
  5
833C
102
{ACAD_XDICTIONARY
360
8405
102
}
102
{ACAD_REACTORS
330
833B
102
}
330
833B
100
AcDbTableStyle
280
     0
  3
Standard
 70
     0
 71
     0
 40
1.5
 41
1.5
280
     0
281
     0
  7
STANDARD
140
4.5
170
     2
 62
     0
 63
     7
283
     0
 90
      512
 91
        0
  1

274
    -2
284
     1
 64
     0
275
    -2
285
     1
 65
     0
276
    -2
286
     1
 66
     0
277
    -2
287
     1
 67
     0
278
    -2
288
     1
 68
     0
279
    -2
289
     1
 69
     0
  7
STANDARD
140
6.0
170
     5
 62
     0
 63
     7
283
     0
 90
      512
 91
        0
  1

274
    -2
284
     1
 64
     0
275
    -2
285
     1
 65
     0
276
    -2
286
     1
 66
     0
277
    -2
287
     1
 67
     0
278
    -2
288
     1
 68
     0
279
    -2
289
     1
 69
     0
  7
STANDARD
140
4.5
170
     5
 62
     0
 63
     7
283
     0
 90
      512
 91
        0
  1

274
    -2
284
     1
 64
     0
275
    -2
285
     1
 65
     0
276
    -2
286
     1
 66
     0
277
    -2
287
     1
 67
     0
278
    -2
288
     1
 68
     0
279
    -2
289
     1
 69
     0
  0
VISUALSTYLE
  5
8327
102
{ACAD_REACTORS
330
8321
102
}
330
8321
100
AcDbVisualStyle
  2
2dWireframe
 70
     4
177
     3
291
     0
 70
    58
 90
        0
176
     1
 90
        2
176
     1
 90
        0
176
     1
 90
        0
176
     1
 40
0.6
176
     1
 40
30.0
176
     1
 62
     7
420
 16777215
176
     1
 90
        1
176
     1
 90
        4
176
     1
 62
     7
176
     1
 62
   257
176
     1
 90
        1
176
     1
 90
        1
176
     1
 40
1.0
176
     1
 90
        0
176
     1
 62
   257
176
     1
 40
1.0
176
     1
 90
        1
176
     1
 90
        6
176
     1
 90
        2
176
     1
 62
     7
176
     1
 90
        5
176
     1
 90
        0
176
     1
 90
        0
176
     1
290
     0
176
     1
 90
        1
176
     1
 40
0.0
176
     1
 90
        0
176
     1
290
     1
176
     1
290
     1
176
     1
290
     0
176
     1
290
     0
176
     1
290
     0
176
     1
290
     0
176
     1
290
     0
176
     1
290
     0
176
     1
290
     0
176
     1
 90
       50
176
     1
 40
0.0
176
     1
 40
1.0
176
     1
 90
        0
176
     1
 62
    18
420
        0
176
     1
 90
       50
176
     1
 90
        3
176
     1
 62
     5
420
      255
176
     1
290
     0
176
     1
 90
       50
176
     1
 90
       50
176
     1
 90
       50
176
     1
290
     0
176
     1
 90
       50
176
     1
 62
   256
176
     0
 40
1.0
176
     0
 90
        2
176
     1
  1
strokes_ogs.tif
176
     1
290
     0
176
     1
 40
1.0
176
     1
 40
1.0
176
     1
  0
VISUALSTYLE
  5
8326
102
{ACAD_REACTORS
330
8321
102
}
330
8321
100
AcDbVisualStyle
  2
Basic
 70
     7
177
     3
291
     1
 70
    58
 90
        1
176
     1
 90
        0
176
     1
 90
        1
176
     1
 90
        0
176
     1
 40
0.6
176
     1
 40
30.0
176
     1
 62
     7
420
 16777215
176
     1
 90
        0
176
     1
 90
        4
176
     1
 62
     7
176
     1
 62
   257
176
     1
 90
        1
176
     1
 90
        1
176
     1
 40
1.0
176
     1
 90
        8
176
     1
 62
     7
176
     1
 40
1.0
176
     1
 90
        1
176
     1
 90
        6
176
     1
 90
        2
176
     1
 62
     7
176
     1
 90
        5
176
     1
 90
        0
176
     1
 90
        0
176
     1
290
     0
176
     1
 90
        1
176
     1
 40
0.0
176
     1
 90
        0
176
     1
290
     0
176
     1
290
     1
176
     1
290
     1
176
     1
290
     0
176
     1
290
     0
176
     1
290
     0
176
     1
290
     0
176
     1
290
     0
176
     1
290
     0
176
     1
 90
       50
176
     1
 40
0.0
176
     1
 40
1.0
176
     1
 90
        0
176
     1
 62
    18
420
        0
176
     1
 90
       50
176
     1
 90
        3
176
     1
 62
     5
420
      255
176
     1
290
     0
176
     1
 90
       50
176
     1
 90
       50
176
     1
 90
       50
176
     1
290
     0
176
     1
 90
       50
176
     1
 62
   256
176
     0
 40
1.0
176
     0
 90
        2
176
     1
  1
strokes_ogs.tif
176
     1
290
     0
176
     1
 40
1.0
176
     1
 40
1.0
176
     1
  0
VISUALSTYLE
  5
832D
102
{ACAD_REACTORS
330
8321
102
}
330
8321
100
AcDbVisualStyle
  2
Brighten
 70
    12
177
     3
291
     1
 70
    58
 90
        2
176
     1
 90
        2
176
     1
 90
        0
176
     1
 90
        0
176
     1
 40
0.6
176
     1
 40
30.0
176
     1
 62
     7
420
 16777215
176
     1
 90
        1
176
     1
 90
        4
176
     1
 62
     7
176
     1
 62
   257
176
     1
 90
        1
176
     1
 90
        1
176
     1
 40
1.0
176
     1
 90
        8
176
     1
 62
     7
176
     1
 40
1.0
176
     1
 90
        1
176
     1
 90
        6
176
     1
 90
        2
176
     1
 62
     7
176
     1
 90
        5
176
     1
 90
        0
176
     1
 90
        0
176
     1
290
     0
176
     1
 90
        1
176
     1
 40
50.0
176
     1
 90
        0
176
     1
290
     0
176
     1
290
     1
176
     1
290
     1
176
     1
290
     0
176
     1
290
     0
176
     1
290
     0
176
     1
290
     0
176
     1
290
     0
176
     1
290
     0
176
     1
 90
       50
176
     1
 40
0.0
176
     1
 40
1.0
176
     1
 90
        0
176
     1
 62
    18
420
        0
176
     1
 90
       50
176
     1
 90
        3
176
     1
 62
     5
420
      255
176
     1
290
     0
176
     1
 90
       50
176
     1
 90
       50
176
     1
 90
       50
176
     1
290
     0
176
     1
 90
       50
176
     1
 62
   256
176
     0
 40
1.0
176
     0
 90
        2
176
     1
  1
strokes_ogs.tif
176
     1
290
     0
176
     1
 40
1.0
176
     1
 40
1.0
176
     1
  0
VISUALSTYLE
  5
8331
102
{ACAD_REACTORS
330
8321
102
}
330
8321
100
AcDbVisualStyle
  2
ColorChange
 70
    16
177
     3
291
     1
 70
    58
 90
        2
176
     1
 90
        2
176
     1
 90
        3
176
     1
 90
        0
176
     1
 40
0.6
176
     1
 40
30.0
176
     1
 62
     8
420
  8421504
176
     1
 90
        1
176
     1
 90
        4
176
     1
 62
     7
176
     1
 62
   257
176
     1
 90
        1
176
     1
 90
        1
176
     1
 40
1.0
176
     1
 90
        8
176
     1
 62
     8
420
  8421504
176
     1
 40
1.0
176
     1
 90
        1
176
     1
 90
        6
176
     1
 90
        2
176
     1
 62
     7
176
     1
 90
        5
176
     1
 90
        0
176
     1
 90
        0
176
     1
290
     0
176
     1
 90
        1
176
     1
 40
0.0
176
     1
 90
        0
176
     1
290
     0
176
     1
290
     1
176
     1
290
     1
176
     1
290
     0
176
     1
290
     0
176
     1
290
     0
176
     1
290
     0
176
     1
290
     0
176
     1
290
     0
176
     1
 90
       50
176
     1
 40
0.0
176
     1
 40
1.0
176
     1
 90
        0
176
     1
 62
    18
420
        0
176
     1
 90
       50
176
     1
 90
        3
176
     1
 62
     5
420
      255
176
     1
290
     0
176
     1
 90
       50
176
     1
 90
       50
176
     1
 90
       50
176
     1
290
     0
176
     1
 90
       50
176
     1
 62
   256
176
     0
 40
1.0
176
     0
 90
        2
176
     1
  1
strokes_ogs.tif
176
     1
290
     0
176
     1
 40
1.0
176
     1
 40
1.0
176
     1
  0
VISUALSTYLE
  5
832A
102
{ACAD_REACTORS
330
8321
102
}
330
8321
100
AcDbVisualStyle
  2
Conceptual
 70
     9
177
     3
291
     0
 70
    58
 90
        3
176
     1
 90
        2
176
     1
 90
        0
176
     1
 90
        0
176
     1
 40
0.6
176
     1
 40
30.0
176
     1
 62
     7
420
 16777215
176
     1
 90
        2
176
     1
 90
        2
176
     1
 62
     7
176
     1
 62
   257
176
     1
 90
        1
176
     1
 90
        1
176
     1
 40
179.0
176
     1
 90
        8
176
     1
 62
     7
176
     1
 40
1.0
176
     1
 90
        1
176
     1
 90
        6
176
     1
 90
        2
176
     1
 62
     7
176
     1
 90
        3
176
     1
 90
        0
176
     1
 90
        0
176
     1
290
     0
176
     1
 90
        1
176
     1
 40
0.0
176
     1
 90
        0
176
     1
290
     0
176
     1
290
     1
176
     1
290
     1
176
     1
290
     0
176
     1
290
     0
176
     1
290
     0
176
     1
290
     0
176
     1
290
     0
176
     1
290
     0
176
     1
 90
       50
176
     1
 40
0.0
176
     1
 40
1.0
176
     1
 90
        0
176
     1
 62
    18
420
        0
176
     1
 90
       50
176
     1
 90
        3
176
     1
 62
     5
420
      255
176
     1
290
     0
176
     1
 90
       50
176
     1
 90
       50
176
     1
 90
       50
176
     1
290
     0
176
     1
 90
       50
176
     1
 62
   256
176
     0
 40
1.0
176
     0
 90
        2
176
     1
  1
strokes_ogs.tif
176
     1
290
     0
176
     1
 40
1.0
176
     1
 40
1.0
176
     1
  0
VISUALSTYLE
  5
832C
102
{ACAD_REACTORS
330
8321
102
}
330
8321
100
AcDbVisualStyle
  2
Dim
 70
    11
177
     3
291
     1
 70
    58
 90
        2
176
     1
 90
        2
176
     1
 90
        0
176
     1
 90
        0
176
     1
 40
0.6
176
     1
 40
30.0
176
     1
 62
     7
420
 16777215
176
     1
 90
        1
176
     1
 90
        4
176
     1
 62
     7
176
     1
 62
   257
176
     1
 90
        1
176
     1
 90
        1
176
     1
 40
1.0
176
     1
 90
        8
176
     1
 62
     7
176
     1
 40
1.0
176
     1
 90
        1
176
     1
 90
        6
176
     1
 90
        2
176
     1
 62
     7
176
     1
 90
        5
176
     1
 90
        0
176
     1
 90
        0
176
     1
290
     0
176
     1
 90
        1
176
     1
 40
-50.0
176
     1
 90
        0
176
     1
290
     0
176
     1
290
     1
176
     1
290
     1
176
     1
290
     0
176
     1
290
     0
176
     1
290
     0
176
     1
290
     0
176
     1
290
     0
176
     1
290
     0
176
     1
 90
       50
176
     1
 40
0.0
176
     1
 40
1.0
176
     1
 90
        0
176
     1
 62
    18
420
        0
176
     1
 90
       50
176
     1
 90
        3
176
     1
 62
     5
420
      255
176
     1
290
     0
176
     1
 90
       50
176
     1
 90
       50
176
     1
 90
       50
176
     1
290
     0
176
     1
 90
       50
176
     1
 62
   256
176
     0
 40
1.0
176
     0
 90
        2
176
     1
  1
strokes_ogs.tif
176
     1
290
     0
176
     1
 40
1.0
176
     1
 40
1.0
176
     1
  0
VISUALSTYLE
  5
8339
102
{ACAD_REACTORS
330
8321
102
}
330
8321
100
AcDbVisualStyle
  2
EdgeColorOff
 70
    22
177
     3
291
     1
 70
    58
 90
        2
176
     0
 90
        2
176
     0
 90
        0
176
     0
 90
        0
176
     0
 40
0.6
176
     0
 40
30.0
176
     0
 62
     7
420
 16777215
176
     0
 90
        1
176
     0
 90
        4
176
     0
 62
     7
176
     0
 62
   257
176
     0
 90
        1
176
     0
 90
        1
176
     0
 40
1.0
176
     0
 90
        8
176
     2
 62
     7
176
     0
 40
1.0
176
     0
 90
        1
176
     0
 90
        6
176
     0
 90
        2
176
     0
 62
     7
176
     0
 90
        5
176
     0
 90
        0
176
     0
 90
        0
176
     0
290
     0
176
     0
 90
        1
176
     0
 40
0.0
176
     0
 90
        0
176
     0
290
     0
176
     0
290
     1
176
     0
290
     1
176
     0
290
     0
176
     0
290
     0
176
     0
290
     0
176
     0
290
     0
176
     0
290
     0
176
     0
290
     0
176
     0
 90
       50
176
     0
 40
0.0
176
     0
 40
1.0
176
     0
 90
        0
176
     0
 62
    18
420
        0
176
     0
 90
       50
176
     0
 90
        3
176
     0
 62
     5
420
      255
176
     0
290
     0
176
     0
 90
       50
176
     0
 90
       50
176
     0
 90
       50
176
     0
290
     0
176
     0
 90
       50
176
     0
 62
   256
176
     0
 40
1.0
176
     0
 90
        2
176
     0
  1
strokes_ogs.tif
176
     0
290
     0
176
     0
 40
1.0
176
     0
 40
1.0
176
     0
  0
VISUALSTYLE
  5
8330
102
{ACAD_REACTORS
330
8321
102
}
330
8321
100
AcDbVisualStyle
  2
Facepattern
 70
    15
177
     3
291
     1
 70
    58
 90
        2
176
     1
 90
        2
176
     1
 90
        0
176
     1
 90
        0
176
     1
 40
0.6
176
     1
 40
30.0
176
     1
 62
     7
420
 16777215
176
     1
 90
        1
176
     1
 90
        4
176
     1
 62
     7
176
     1
 62
   257
176
     1
 90
        1
176
     1
 90
        1
176
     1
 40
1.0
176
     1
 90
        8
176
     1
 62
     7
176
     1
 40
1.0
176
     1
 90
        1
176
     1
 90
        6
176
     1
 90
        2
176
     1
 62
     7
176
     1
 90
        5
176
     1
 90
        0
176
     1
 90
        0
176
     1
290
     0
176
     1
 90
        1
176
     1
 40
0.0
176
     1
 90
        0
176
     1
290
     0
176
     1
290
     1
176
     1
290
     1
176
     1
290
     0
176
     1
290
     0
176
     1
290
     0
176
     1
290
     0
176
     1
290
     0
176
     1
290
     0
176
     1
 90
       50
176
     1
 40
0.0
176
     1
 40
1.0
176
     1
 90
        0
176
     1
 62
    18
420
        0
176
     1
 90
       50
176
     1
 90
        3
176
     1
 62
     5
420
      255
176
     1
290
     0
176
     1
 90
       50
176
     1
 90
       50
176
     1
 90
       50
176
     1
290
     0
176
     1
 90
       50
176
     1
 62
   256
176
     0
 40
1.0
176
     0
 90
        2
176
     1
  1
strokes_ogs.tif
176
     1
290
     0
176
     1
 40
1.0
176
     1
 40
1.0
176
     1
  0
VISUALSTYLE
  5
8322
102
{ACAD_REACTORS
330
8321
102
}
330
8321
100
AcDbVisualStyle
  2
Flat
 70
     0
177
     3
291
     1
 70
    58
 90
        2
176
     1
 90
        1
176
     1
 90
        1
176
     1
 90
        2
176
     1
 40
0.6
176
     1
 40
30.0
176
     1
 62
     7
420
 16777215
176
     1
 90
        0
176
     1
 90
        0
176
     1
 62
     7
176
     1
 62
   257
176
     1
 90
        1
176
     1
 90
        1
176
     1
 40
1.0
176
     1
 90
        8
176
     1
 62
     7
176
     1
 40
1.0
176
     1
 90
        1
176
     1
 90
        6
176
     1
 90
        2
176
     1
 62
     7
176
     1
 90
        5
176
     1
 90
        0
176
     1
 90
        0
176
     1
290
     0
176
     1
 90
       13
176
     1
 40
0.0
176
     1
 90
        0
176
     1
290
     0
176
     1
290
     1
176
     1
290
     1
176
     1
290
     0
176
     1
290
     0
176
     1
290
     0
176
     1
290
     0
176
     1
290
     0
176
     1
290
     0
176
     1
 90
       50
176
     1
 40
0.0
176
     1
 40
1.0
176
     1
 90
        0
176
     1
 62
    18
420
        0
176
     1
 90
       50
176
     1
 90
        3
176
     1
 62
     5
420
      255
176
     1
290
     0
176
     1
 90
       50
176
     1
 90
       50
176
     1
 90
       50
176
     1
290
     0
176
     1
 90
       50
176
     1
 62
   256
176
     0
 40
1.0
176
     0
 90
        2
176
     1
  1
strokes_ogs.tif
176
     1
290
     0
176
     1
 40
1.0
176
     1
 40
1.0
176
     1
  0
VISUALSTYLE
  5
8323
102
{ACAD_REACTORS
330
8321
102
}
330
8321
100
AcDbVisualStyle
  2
FlatWithEdges
 70
     1
177
     3
291
     1
 70
    58
 90
        2
176
     1
 90
        1
176
     1
 90
        1
176
     1
 90
        2
176
     1
 40
0.6
176
     1
 40
30.0
176
     1
 62
     7
420
 16777215
176
     1
 90
        1
176
     1
 90
        0
176
     1
 62
     7
176
     1
 62
   257
176
     1
 90
        1
176
     1
 90
        1
176
     1
 40
1.0
176
     1
 90
        0
176
     1
 62
   257
176
     1
 40
1.0
176
     1
 90
        1
176
     1
 90
        6
176
     1
 90
        2
176
     1
 62
     7
176
     1
 90
        5
176
     1
 90
        0
176
     1
 90
        0
176
     1
290
     0
176
     1
 90
       13
176
     1
 40
0.0
176
     1
 90
        0
176
     1
290
     0
176
     1
290
     1
176
     1
290
     1
176
     1
290
     0
176
     1
290
     0
176
     1
290
     0
176
     1
290
     0
176
     1
290
     0
176
     1
290
     0
176
     1
 90
       50
176
     1
 40
0.0
176
     1
 40
1.0
176
     1
 90
        0
176
     1
 62
    18
420
        0
176
     1
 90
       50
176
     1
 90
        3
176
     1
 62
     5
420
      255
176
     1
290
     0
176
     1
 90
       50
176
     1
 90
       50
176
     1
 90
       50
176
     1
290
     0
176
     1
 90
       50
176
     1
 62
   256
176
     0
 40
1.0
176
     0
 90
        2
176
     1
  1
strokes_ogs.tif
176
     1
290
     0
176
     1
 40
1.0
176
     1
 40
1.0
176
     1
  0
VISUALSTYLE
  5
8324
102
{ACAD_REACTORS
330
8321
102
}
330
8321
100
AcDbVisualStyle
  2
Gouraud
 70
     2
177
     3
291
     1
 70
    58
 90
        2
176
     1
 90
        2
176
     1
 90
        1
176
     1
 90
        2
176
     1
 40
0.6
176
     1
 40
30.0
176
     1
 62
     7
420
 16777215
176
     1
 90
        0
176
     1
 90
        0
176
     1
 62
     7
176
     1
 62
   257
176
     1
 90
        1
176
     1
 90
        1
176
     1
 40
1.0
176
     1
 90
        0
176
     1
 62
     7
176
     1
 40
1.0
176
     1
 90
        1
176
     1
 90
        6
176
     1
 90
        2
176
     1
 62
     7
176
     1
 90
        5
176
     1
 90
        0
176
     1
 90
        0
176
     1
290
     0
176
     1
 90
       13
176
     1
 40
0.0
176
     1
 90
        0
176
     1
290
     0
176
     1
290
     1
176
     1
290
     1
176
     1
290
     0
176
     1
290
     0
176
     1
290
     0
176
     1
290
     0
176
     1
290
     0
176
     1
290
     0
176
     1
 90
       50
176
     1
 40
0.0
176
     1
 40
1.0
176
     1
 90
        0
176
     1
 62
    18
420
        0
176
     1
 90
       50
176
     1
 90
        3
176
     1
 62
     5
420
      255
176
     1
290
     0
176
     1
 90
       50
176
     1
 90
       50
176
     1
 90
       50
176
     1
290
     0
176
     1
 90
       50
176
     1
 62
   256
176
     0
 40
1.0
176
     0
 90
        2
176
     1
  1
strokes_ogs.tif
176
     1
290
     0
176
     1
 40
1.0
176
     1
 40
1.0
176
     1
  0
VISUALSTYLE
  5
8325
102
{ACAD_REACTORS
330
8321
102
}
330
8321
100
AcDbVisualStyle
  2
GouraudWithEdges
 70
     3
177
     3
291
     1
 70
    58
 90
        2
176
     1
 90
        2
176
     1
 90
        1
176
     1
 90
        2
176
     1
 40
0.6
176
     1
 40
30.0
176
     1
 62
     7
420
 16777215
176
     1
 90
        1
176
     1
 90
        0
176
     1
 62
     7
176
     1
 62
   257
176
     1
 90
        1
176
     1
 90
        1
176
     1
 40
1.0
176
     1
 90
        0
176
     1
 62
   257
176
     1
 40
1.0
176
     1
 90
        1
176
     1
 90
        6
176
     1
 90
        2
176
     1
 62
     7
176
     1
 90
        5
176
     1
 90
        0
176
     1
 90
        0
176
     1
290
     0
176
     1
 90
       13
176
     1
 40
0.0
176
     1
 90
        0
176
     1
290
     0
176
     1
290
     1
176
     1
290
     1
176
     1
290
     0
176
     1
290
     0
176
     1
290
     0
176
     1
290
     0
176
     1
290
     0
176
     1
290
     0
176
     1
 90
       50
176
     1
 40
0.0
176
     1
 40
1.0
176
     1
 90
        0
176
     1
 62
    18
420
        0
176
     1
 90
       50
176
     1
 90
        3
176
     1
 62
     5
420
      255
176
     1
290
     0
176
     1
 90
       50
176
     1
 90
       50
176
     1
 90
       50
176
     1
290
     0
176
     1
 90
       50
176
     1
 62
   256
176
     0
 40
1.0
176
     0
 90
        2
176
     1
  1
strokes_ogs.tif
176
     1
290
     0
176
     1
 40
1.0
176
     1
 40
1.0
176
     1
  0
VISUALSTYLE
  5
8329
102
{ACAD_REACTORS
330
8321
102
}
330
8321
100
AcDbVisualStyle
  2
Hidden
 70
     6
177
     3
291
     0
 70
    58
 90
        1
176
     1
 90
        2
176
     1
 90
        2
176
     1
 90
        0
176
     1
 40
0.6
176
     1
 40
30.0
176
     1
 62
     7
420
 16777215
176
     1
 90
        2
176
     1
 90
        2
176
     1
 62
     7
176
     1
 62
   257
176
     1
 90
        2
176
     1
 90
        1
176
     1
 40
40.0
176
     1
 90
        0
176
     1
 62
   257
176
     1
 40
1.0
176
     1
 90
        1
176
     1
 90
        6
176
     1
 90
        2
176
     1
 62
     7
176
     1
 90
        3
176
     1
 90
        0
176
     1
 90
        0
176
     1
290
     0
176
     1
 90
        1
176
     1
 40
0.0
176
     1
 90
        0
176
     1
290
     0
176
     1
290
     1
176
     1
290
     1
176
     1
290
     0
176
     1
290
     0
176
     1
290
     0
176
     1
290
     0
176
     1
290
     0
176
     1
290
     0
176
     1
 90
       50
176
     1
 40
0.0
176
     1
 40
1.0
176
     1
 90
        0
176
     1
 62
    18
420
        0
176
     1
 90
       50
176
     1
 90
        3
176
     1
 62
     5
420
      255
176
     1
290
     0
176
     1
 90
       50
176
     1
 90
       50
176
     1
 90
       50
176
     1
290
     0
176
     1
 90
       50
176
     1
 62
   256
176
     0
 40
1.0
176
     0
 90
        2
176
     1
  1
strokes_ogs.tif
176
     1
290
     0
176
     1
 40
1.0
176
     1
 40
1.0
176
     1
  0
VISUALSTYLE
  5
8337
102
{ACAD_REACTORS
330
8321
102
}
330
8321
100
AcDbVisualStyle
  2
JitterOff
 70
    20
177
     3
291
     1
 70
    58
 90
        2
176
     0
 90
        2
176
     0
 90
        0
176
     0
 90
        0
176
     0
 40
0.6
176
     0
 40
30.0
176
     0
 62
     7
420
 16777215
176
     0
 90
        1
176
     0
 90
        4
176
     0
 62
     7
176
     0
 62
   257
176
     0
 90
        1
176
     0
 90
        1
176
     0
 40
1.0
176
     0
 90
       10
176
     2
 62
     7
176
     0
 40
1.0
176
     0
 90
        1
176
     0
 90
        6
176
     0
 90
        2
176
     0
 62
     7
176
     0
 90
        5
176
     0
 90
        0
176
     0
 90
        0
176
     0
290
     0
176
     0
 90
        1
176
     0
 40
0.0
176
     0
 90
        0
176
     0
290
     0
176
     0
290
     1
176
     0
290
     1
176
     0
290
     0
176
     0
290
     0
176
     0
290
     0
176
     0
290
     0
176
     0
290
     0
176
     0
290
     0
176
     0
 90
       50
176
     0
 40
0.0
176
     0
 40
1.0
176
     0
 90
        0
176
     0
 62
    18
420
        0
176
     0
 90
       50
176
     0
 90
        3
176
     0
 62
     5
420
      255
176
     0
290
     0
176
     0
 90
       50
176
     0
 90
       50
176
     0
 90
       50
176
     0
290
     0
176
     0
 90
       50
176
     0
 62
   256
176
     0
 40
1.0
176
     0
 90
        2
176
     0
  1
strokes_ogs.tif
176
     0
290
     0
176
     0
 40
1.0
176
     0
 40
1.0
176
     0
  0
VISUALSTYLE
  5
832F
102
{ACAD_REACTORS
330
8321
102
}
330
8321
100
AcDbVisualStyle
  2
Linepattern
 70
    14
177
     3
291
     1
 70
    58
 90
        2
176
     1
 90
        2
176
     1
 90
        0
176
     1
 90
        0
176
     1
 40
0.6
176
     1
 40
30.0
176
     1
 62
     7
420
 16777215
176
     1
 90
        1
176
     1
 90
        4
176
     1
 62
     7
176
     1
 62
   257
176
     1
 90
        7
176
     1
 90
        7
176
     1
 40
1.0
176
     1
 90
        8
176
     1
 62
     7
176
     1
 40
1.0
176
     1
 90
        1
176
     1
 90
        6
176
     1
 90
        2
176
     1
 62
     7
176
     1
 90
        5
176
     1
 90
        0
176
     1
 90
        0
176
     1
290
     0
176
     1
 90
        1
176
     1
 40
0.0
176
     1
 90
        0
176
     1
290
     0
176
     1
290
     1
176
     1
290
     1
176
     1
290
     0
176
     1
290
     0
176
     1
290
     0
176
     1
290
     0
176
     1
290
     0
176
     1
290
     0
176
     1
 90
       50
176
     1
 40
0.0
176
     1
 40
1.0
176
     1
 90
        0
176
     1
 62
    18
420
        0
176
     1
 90
       50
176
     1
 90
        3
176
     1
 62
     5
420
      255
176
     1
290
     0
176
     1
 90
       50
176
     1
 90
       50
176
     1
 90
       50
176
     1
290
     0
176
     1
 90
       50
176
     1
 62
   256
176
     0
 40
1.0
176
     0
 90
        2
176
     1
  1
strokes_ogs.tif
176
     1
290
     0
176
     1
 40
1.0
176
     1
 40
1.0
176
     1
  0
VISUALSTYLE
  5
8338
102
{ACAD_REACTORS
330
8321
102
}
330
8321
100
AcDbVisualStyle
  2
OverhangOff
 70
    21
177
     3
291
     1
 70
    58
 90
        2
176
     0
 90
        2
176
     0
 90
        0
176
     0
 90
        0
176
     0
 40
0.6
176
     0
 40
30.0
176
     0
 62
     7
420
 16777215
176
     0
 90
        1
176
     0
 90
        4
176
     0
 62
     7
176
     0
 62
   257
176
     0
 90
        1
176
     0
 90
        1
176
     0
 40
1.0
176
     0
 90
        9
176
     2
 62
     7
176
     0
 40
1.0
176
     0
 90
        1
176
     0
 90
        6
176
     0
 90
        2
176
     0
 62
     7
176
     0
 90
        5
176
     0
 90
        0
176
     0
 90
        0
176
     0
290
     0
176
     0
 90
        1
176
     0
 40
0.0
176
     0
 90
        0
176
     0
290
     0
176
     0
290
     1
176
     0
290
     1
176
     0
290
     0
176
     0
290
     0
176
     0
290
     0
176
     0
290
     0
176
     0
290
     0
176
     0
290
     0
176
     0
 90
       50
176
     0
 40
0.0
176
     0
 40
1.0
176
     0
 90
        0
176
     0
 62
    18
420
        0
176
     0
 90
       50
176
     0
 90
        3
176
     0
 62
     5
420
      255
176
     0
290
     0
176
     0
 90
       50
176
     0
 90
       50
176
     0
 90
       50
176
     0
290
     0
176
     0
 90
       50
176
     0
 62
   256
176
     0
 40
1.0
176
     0
 90
        2
176
     0
  1
strokes_ogs.tif
176
     0
290
     0
176
     0
 40
1.0
176
     0
 40
1.0
176
     0
  0
VISUALSTYLE
  5
832B
102
{ACAD_REACTORS
330
8321
102
}
330
8321
100
AcDbVisualStyle
  2
Realistic
 70
     8
177
     3
291
     0
 70
    58
 90
        2
176
     1
 90
        3
176
     1
 90
        0
176
     1
 90
        2
176
     1
 40
0.6
176
     1
 40
30.0
176
     1
 62
     7
420
 16777215
176
     1
 90
        0
176
     1
 90
        0
176
     1
 62
     7
176
     1
 62
   257
176
     1
 90
        1
176
     1
 90
        1
176
     1
 40
1.0
176
     1
 90
        8
176
     1
 62
   257
176
     1
 40
1.0
176
     1
 90
        1
176
     1
 90
        6
176
     1
 90
        2
176
     1
 62
     7
176
     1
 90
        3
176
     1
 90
        0
176
     1
 90
        0
176
     1
290
     0
176
     1
 90
       13
176
     1
 40
0.0
176
     1
 90
        0
176
     1
290
     0
176
     1
290
     1
176
     1
290
     1
176
     1
290
     0
176
     1
290
     0
176
     1
290
     0
176
     1
290
     0
176
     1
290
     0
176
     1
290
     0
176
     1
 90
       50
176
     1
 40
0.0
176
     1
 40
1.0
176
     1
 90
        0
176
     1
 62
    18
420
        0
176
     1
 90
       50
176
     1
 90
        3
176
     1
 62
     5
420
      255
176
     1
290
     0
176
     1
 90
       50
176
     1
 90
       50
176
     1
 90
       50
176
     1
290
     0
176
     1
 90
       50
176
     1
 62
   256
176
     0
 40
1.0
176
     0
 90
        2
176
     1
  1
strokes_ogs.tif
176
     1
290
     0
176
     1
 40
1.0
176
     1
 40
1.0
176
     1
  0
VISUALSTYLE
  5
8336
102
{ACAD_REACTORS
330
8321
102
}
330
8321
100
AcDbVisualStyle
  2
Shaded
 70
    27
177
     3
291
     0
 70
    58
 90
        2
176
     1
 90
        2
176
     1
 90
        1
176
     1
 90
        2
176
     1
 40
0.6
176
     1
 40
30.0
176
     1
 62
     7
420
 16777215
176
     1
 90
        0
176
     1
 90
        4
176
     1
 62
     7
176
     1
 62
   257
176
     1
 90
        1
176
     1
 90
        1
176
     1
 40
1.0
176
     1
 90
        8
176
     1
 62
   257
176
     1
 40
1.0
176
     1
 90
        1
176
     1
 90
        6
176
     1
 90
        2
176
     1
 62
     8
420
  7895160
176
     1
 90
        3
176
     1
 90
        0
176
     1
 90
        0
176
     1
290
     0
176
     1
 90
        5
176
     1
 40
0.0
176
     1
 90
        0
176
     1
290
     0
176
     1
290
     1
176
     1
290
     1
176
     1
290
     0
176
     1
290
     0
176
     1
290
     0
176
     1
290
     0
176
     1
290
     0
176
     1
290
     0
176
     1
 90
       50
176
     1
 40
0.0
176
     1
 40
1.0
176
     1
 90
        0
176
     1
 62
    18
420
        0
176
     1
 90
       50
176
     1
 90
        3
176
     1
 62
     5
420
      255
176
     1
290
     0
176
     1
 90
       50
176
     1
 90
       50
176
     1
 90
       50
176
     1
290
     0
176
     1
 90
       50
176
     1
 62
   256
176
     0
 40
1.0
176
     0
 90
        2
176
     1
  1
strokes_ogs.tif
176
     1
290
     0
176
     1
 40
1.0
176
     1
 40
1.0
176
     1
  0
VISUALSTYLE
  5
8335
102
{ACAD_REACTORS
330
8321
102
}
330
8321
100
AcDbVisualStyle
  2
Shaded with edges
 70
    26
177
     3
291
     0
 70
    58
 90
        2
176
     1
 90
        2
176
     1
 90
        1
176
     1
 90
        2
176
     1
 40
0.6
176
     1
 40
30.0
176
     1
 62
     7
420
 16777215
176
     1
 90
        1
176
     1
 90
       10
176
     1
 62
     7
176
     1
 62
   257
176
     1
 90
        2
176
     1
 90
        1
176
     1
 40
1.0
176
     1
 90
        8
176
     1
 62
   257
176
     1
 40
1.0
176
     1
 90
        1
176
     1
 90
        6
176
     1
 90
        2
176
     1
 62
     7
176
     1
 90
        3
176
     1
 90
        0
176
     1
 90
        0
176
     1
290
     0
176
     1
 90
        5
176
     1
 40
0.0
176
     1
 90
        0
176
     1
290
     0
176
     1
290
     1
176
     1
290
     1
176
     1
290
     0
176
     1
290
     0
176
     1
290
     0
176
     1
290
     0
176
     1
290
     0
176
     1
290
     0
176
     1
 90
       50
176
     1
 40
0.0
176
     1
 40
1.0
176
     1
 90
        0
176
     1
 62
    18
420
        0
176
     1
 90
       50
176
     1
 90
        3
176
     1
 62
     5
420
      255
176
     1
290
     0
176
     1
 90
       50
176
     1
 90
       50
176
     1
 90
       50
176
     1
290
     0
176
     1
 90
       50
176
     1
 62
   256
176
     0
 40
1.0
176
     0
 90
        2
176
     1
  1
strokes_ogs.tif
176
     1
290
     0
176
     1
 40
1.0
176
     1
 40
1.0
176
     1
  0
VISUALSTYLE
  5
8332
102
{ACAD_REACTORS
330
8321
102
}
330
8321
100
AcDbVisualStyle
  2
Shades of Gray
 70
    23
177
     3
291
     0
 70
    58
 90
        2
176
     1
 90
        2
176
     1
 90
        3
176
     1
 90
        0
176
     1
 40
0.6
176
     1
 40
30.0
176
     1
 62
     7
420
 16777215
176
     1
 90
        2
176
     1
 90
        2
176
     1
 62
     7
176
     1
 62
     7
176
     1
 90
        1
176
     1
 90
        1
176
     1
 40
40.0
176
     1
 90
        8
176
     1
 62
     7
176
     1
 40
1.0
176
     1
 90
        1
176
     1
 90
        6
176
     1
 90
        2
176
     1
 62
     7
176
     1
 90
        3
176
     1
 90
        0
176
     1
 90
        0
176
     1
290
     0
176
     1
 90
        1
176
     1
 40
0.0
176
     1
 90
        0
176
     1
290
     0
176
     1
290
     1
176
     1
290
     1
176
     1
290
     0
176
     1
290
     0
176
     1
290
     0
176
     1
290
     0
176
     1
290
     0
176
     1
290
     0
176
     1
 90
       50
176
     1
 40
0.0
176
     1
 40
1.0
176
     1
 90
        0
176
     1
 62
    18
420
        0
176
     1
 90
       50
176
     1
 90
        3
176
     1
 62
     5
420
      255
176
     1
290
     0
176
     1
 90
       50
176
     1
 90
       50
176
     1
 90
       50
176
     1
290
     0
176
     1
 90
       50
176
     1
 62
   256
176
     0
 40
1.0
176
     0
 90
        2
176
     1
  1
strokes_ogs.tif
176
     1
290
     0
176
     1
 40
1.0
176
     1
 40
1.0
176
     1
  0
VISUALSTYLE
  5
8333
102
{ACAD_REACTORS
330
8321
102
}
330
8321
100
AcDbVisualStyle
  2
Sketchy
 70
    24
177
     3
291
     0
 70
    58
 90
        1
176
     1
 90
        2
176
     1
 90
        2
176
     1
 90
        0
176
     1
 40
0.6
176
     1
 40
30.0
176
     1
 62
     7
420
 16777215
176
     1
 90
        2
176
     1
 90
        2
176
     1
 62
     7
176
     1
 62
     7
176
     1
 90
        1
176
     1
 90
        1
176
     1
 40
40.0
176
     1
 90
       11
176
     1
 62
     7
176
     1
 40
1.0
176
     1
 90
        1
176
     1
 90
        6
176
     1
 90
        2
176
     1
 62
     7
176
     1
 90
        6
176
     1
 90
        0
176
     1
 90
        0
176
     1
290
     0
176
     1
 90
        1
176
     1
 40
0.0
176
     1
 90
        0
176
     1
290
     0
176
     1
290
     1
176
     1
290
     1
176
     1
290
     0
176
     1
290
     0
176
     1
290
     0
176
     1
290
     0
176
     1
290
     0
176
     1
290
     0
176
     1
 90
       50
176
     1
 40
0.0
176
     1
 40
1.0
176
     1
 90
        0
176
     1
 62
    18
420
        0
176
     1
 90
       50
176
     1
 90
        3
176
     1
 62
     5
420
      255
176
     1
290
     0
176
     1
 90
       50
176
     1
 90
       50
176
     1
 90
       50
176
     1
290
     0
176
     1
 90
       50
176
     1
 62
   256
176
     0
 40
1.0
176
     0
 90
        2
176
     1
  1
strokes_ogs.tif
176
     1
290
     0
176
     1
 40
1.0
176
     1
 40
1.0
176
     1
  0
VISUALSTYLE
  5
832E
102
{ACAD_REACTORS
330
8321
102
}
330
8321
100
AcDbVisualStyle
  2
Thicken
 70
    13
177
     3
291
     1
 70
    58
 90
        2
176
     1
 90
        2
176
     1
 90
        0
176
     1
 90
        0
176
     1
 40
0.6
176
     1
 40
30.0
176
     1
 62
     7
420
 16777215
176
     1
 90
        1
176
     1
 90
        4
176
     1
 62
     7
176
     1
 62
   257
176
     1
 90
        1
176
     1
 90
        1
176
     1
 40
1.0
176
     1
 90
       12
176
     1
 62
     7
176
     1
 40
1.0
176
     1
 90
        1
176
     1
 90
        6
176
     1
 90
        2
176
     1
 62
     7
176
     1
 90
        5
176
     1
 90
        0
176
     1
 90
        0
176
     1
290
     0
176
     1
 90
        1
176
     1
 40
0.0
176
     1
 90
        0
176
     1
290
     0
176
     1
290
     1
176
     1
290
     1
176
     1
290
     0
176
     1
290
     0
176
     1
290
     0
176
     1
290
     0
176
     1
290
     0
176
     1
290
     0
176
     1
 90
       50
176
     1
 40
0.0
176
     1
 40
1.0
176
     1
 90
        0
176
     1
 62
    18
420
        0
176
     1
 90
       50
176
     1
 90
        3
176
     1
 62
     5
420
      255
176
     1
290
     0
176
     1
 90
       50
176
     1
 90
       50
176
     1
 90
       50
176
     1
290
     0
176
     1
 90
       50
176
     1
 62
   256
176
     0
 40
1.0
176
     0
 90
        2
176
     1
  1
strokes_ogs.tif
176
     1
290
     0
176
     1
 40
1.0
176
     1
 40
1.0
176
     1
  0
VISUALSTYLE
  5
8328
102
{ACAD_REACTORS
330
8321
102
}
330
8321
100
AcDbVisualStyle
  2
Wireframe
 70
     5
177
     3
291
     0
 70
    58
 90
        0
176
     1
 90
        2
176
     1
 90
        0
176
     1
 90
        0
176
     1
 40
0.6
176
     1
 40
30.0
176
     1
 62
     7
420
 16777215
176
     1
 90
        1
176
     1
 90
        4
176
     1
 62
     7
176
     1
 62
   257
176
     1
 90
        1
176
     1
 90
        1
176
     1
 40
1.0
176
     1
 90
        0
176
     1
 62
   257
176
     1
 40
1.0
176
     1
 90
        1
176
     1
 90
        6
176
     1
 90
        2
176
     1
 62
     7
176
     1
 90
        3
176
     1
 90
        0
176
     1
 90
        0
176
     1
290
     0
176
     1
 90
        1
176
     1
 40
0.0
176
     1
 90
        0
176
     1
290
     0
176
     1
290
     1
176
     1
290
     1
176
     1
290
     0
176
     1
290
     0
176
     1
290
     0
176
     1
290
     0
176
     1
290
     0
176
     1
290
     0
176
     1
 90
       50
176
     1
 40
0.0
176
     1
 40
1.0
176
     1
 90
        0
176
     1
 62
    18
420
        0
176
     1
 90
       50
176
     1
 90
        3
176
     1
 62
     5
420
      255
176
     1
290
     0
176
     1
 90
       50
176
     1
 90
       50
176
     1
 90
       50
176
     1
290
     0
176
     1
 90
       50
176
     1
 62
   256
176
     0
 40
1.0
176
     0
 90
        2
176
     1
  1
strokes_ogs.tif
176
     1
290
     0
176
     1
 40
1.0
176
     1
 40
1.0
176
     1
  0
VISUALSTYLE
  5
8334
102
{ACAD_REACTORS
330
8321
102
}
330
8321
100
AcDbVisualStyle
  2
X-Ray
 70
    25
177
     3
291
     0
 70
    58
 90
        2
176
     1
 90
        2
176
     1
 90
        1
176
     1
 90
        1
176
     1
 40
0.5
176
     1
 40
30.0
176
     1
 62
     7
420
 16777215
176
     1
 90
        1
176
     1
 90
        0
176
     1
 62
     7
176
     1
 62
   257
176
     1
 90
        1
176
     1
 90
        1
176
     1
 40
1.0
176
     1
 90
        8
176
     1
 62
     7
176
     1
 40
1.0
176
     1
 90
        1
176
     1
 90
        6
176
     1
 90
        2
176
     1
 62
     7
176
     1
 90
        3
176
     1
 90
        0
176
     1
 90
        0
176
     1
290
     0
176
     1
 90
       13
176
     1
 40
0.0
176
     1
 90
        0
176
     1
290
     0
176
     1
290
     1
176
     1
290
     1
176
     1
290
     0
176
     1
290
     0
176
     1
290
     0
176
     1
290
     0
176
     1
290
     0
176
     1
290
     0
176
     1
 90
       50
176
     1
 40
0.0
176
     1
 40
1.0
176
     1
 90
        0
176
     1
 62
    18
420
        0
176
     1
 90
       50
176
     1
 90
        3
176
     1
 62
     5
420
      255
176
     1
290
     0
176
     1
 90
       50
176
     1
 90
       50
176
     1
 90
       50
176
     1
290
     0
176
     1
 90
       50
176
     1
 62
   256
176
     0
 40
1.0
176
     0
 90
        2
176
     1
  1
strokes_ogs.tif
176
     1
290
     0
176
     1
 40
1.0
176
     1
 40
1.0
176
     1
  0
DICTIONARYVAR
  5
83CA
102
{ACAD_REACTORS
330
83C4
102
}
330
83C4
100
DictionaryVariables
280
     0
  1
1:1
  0
DICTIONARYVAR
  5
83C6
102
{ACAD_REACTORS
330
83C4
102
}
330
83C4
100
DictionaryVariables
280
     0
  1
STANDARD
  0
DICTIONARYVAR
  5
83C5
102
{ACAD_REACTORS
330
83C4
102
}
330
83C4
100
DictionaryVariables
280
     0
  1
STANDARD
  0
DICTIONARYVAR
  5
83C7
102
{ACAD_REACTORS
330
83C4
102
}
330
83C4
100
DictionaryVariables
280
     0
  1
Metric50
  0
DICTIONARYVAR
  5
83C8
102
{ACAD_REACTORS
330
83C4
102
}
330
83C4
100
DictionaryVariables
280
     0
  1
Metric50
  0
DICTIONARYVAR
  5
83CC
102
{ACAD_REACTORS
330
83C4
102
}
330
83C4
100
DictionaryVariables
280
     0
  1
1
  0
DICTIONARYVAR
  5
83CD
102
{ACAD_REACTORS
330
83C4
102
}
330
83C4
100
DictionaryVariables
280
     0
  1
15
  0
DICTIONARYVAR
  5
83CB
102
{ACAD_REACTORS
330
83C4
102
}
330
83C4
100
DictionaryVariables
280
     0
  1
0
  0
DICTIONARYVAR
  5
83C9
102
{ACAD_REACTORS
330
83C4
102
}
330
83C4
100
DictionaryVariables
280
     0
  1
0
  0
DICTIONARY
  5
83C1
330
8354
100
AcDbDictionary
280
     1
281
     1
  3
ACAD_XREC_ROUNDTRIP
360
8408
  0
DICTIONARY
  5
8312
330
8311
100
AcDbDictionary
280
     1
281
     1
  3
BUMPTILE
360
8314
  3
DIFFUSETILE
360
8313
  3
OPACITYTILE
360
8317
  3
REFLECTIONTILE
360
8316
  3
REFRACTIONTILE
360
8318
  3
SPECULARTILE
360
8315
  0
DICTIONARY
  5
830A
330
8309
100
AcDbDictionary
280
     1
281
     1
  3
BUMPTILE
360
830C
  3
DIFFUSETILE
360
830B
  3
OPACITYTILE
360
830F
  3
REFLECTIONTILE
360
830E
  3
REFRACTIONTILE
360
8310
  3
SPECULARTILE
360
830D
  0
DICTIONARY
  5
831A
330
8319
100
AcDbDictionary
280
     1
281
     1
  3
BUMPTILE
360
831C
  3
DIFFUSETILE
360
831B
  3
OPACITYTILE
360
831F
  3
REFLECTIONTILE
360
831E
  3
REFRACTIONTILE
360
8320
  3
SPECULARTILE
360
831D
  0
DICTIONARY
  5
83BF
330
8352
100
AcDbDictionary
280
     1
281
     1
  3
ACAD_XREC_ROUNDTRIP
360
8407
  0
DICTIONARY
  5
8405
330
833C
100
AcDbDictionary
280
     1
281
     1
  3
ACAD_ROUNDTRIP_2008_TABLESTYLE_CELLSTYLEMAP
360
8406
  0
XRECORD
  5
8408
102
{ACAD_REACTORS
330
83C1
102
}
330
83C1
100
AcDbXrecord
280
     1
102
DISPLAYNAME
  1
Metric50
102
FLAGS
 90
        0
  0
XRECORD
  5
8314
102
{ACAD_REACTORS
330
8312
102
}
330
8312
100
AcDbXrecord
280
     1
270
     1
271
     1
  0
XRECORD
  5
8313
102
{ACAD_REACTORS
330
8312
102
}
330
8312
100
AcDbXrecord
280
     1
270
     1
271
     1
  0
XRECORD
  5
8317
102
{ACAD_REACTORS
330
8312
102
}
330
8312
100
AcDbXrecord
280
     1
270
     1
271
     1
  0
XRECORD
  5
8316
102
{ACAD_REACTORS
330
8312
102
}
330
8312
100
AcDbXrecord
280
     1
270
     1
271
     1
  0
XRECORD
  5
8318
102
{ACAD_REACTORS
330
8312
102
}
330
8312
100
AcDbXrecord
280
     1
270
     1
271
     1
  0
XRECORD
  5
8315
102
{ACAD_REACTORS
330
8312
102
}
330
8312
100
AcDbXrecord
280
     1
270
     1
271
     1
  0
XRECORD
  5
830C
102
{ACAD_REACTORS
330
830A
102
}
330
830A
100
AcDbXrecord
280
     1
270
     1
271
     1
  0
XRECORD
  5
830B
102
{ACAD_REACTORS
330
830A
102
}
330
830A
100
AcDbXrecord
280
     1
270
     1
271
     1
  0
XRECORD
  5
830F
102
{ACAD_REACTORS
330
830A
102
}
330
830A
100
AcDbXrecord
280
     1
270
     1
271
     1
  0
XRECORD
  5
830E
102
{ACAD_REACTORS
330
830A
102
}
330
830A
100
AcDbXrecord
280
     1
270
     1
271
     1
  0
XRECORD
  5
8310
102
{ACAD_REACTORS
330
830A
102
}
330
830A
100
AcDbXrecord
280
     1
270
     1
271
     1
  0
XRECORD
  5
830D
102
{ACAD_REACTORS
330
830A
102
}
330
830A
100
AcDbXrecord
280
     1
270
     1
271
     1
  0
XRECORD
  5
831C
102
{ACAD_REACTORS
330
831A
102
}
330
831A
100
AcDbXrecord
280
     1
270
     1
271
     1
  0
XRECORD
  5
831B
102
{ACAD_REACTORS
330
831A
102
}
330
831A
100
AcDbXrecord
280
     1
270
     1
271
     1
  0
XRECORD
  5
831F
102
{ACAD_REACTORS
330
831A
102
}
330
831A
100
AcDbXrecord
280
     1
270
     1
271
     1
  0
XRECORD
  5
831E
102
{ACAD_REACTORS
330
831A
102
}
330
831A
100
AcDbXrecord
280
     1
270
     1
271
     1
  0
XRECORD
  5
8320
102
{ACAD_REACTORS
330
831A
102
}
330
831A
100
AcDbXrecord
280
     1
270
     1
271
     1
  0
XRECORD
  5
831D
102
{ACAD_REACTORS
330
831A
102
}
330
831A
100
AcDbXrecord
280
     1
270
     1
271
     1
  0
XRECORD
  5
8407
102
{ACAD_REACTORS
330
83BF
102
}
330
83BF
100
AcDbXrecord
280
     1
102
DISPLAYNAME
  1
Metric50
102
FLAGS
 90
        0
  0
CELLSTYLEMAP
  5
8406
102
{ACAD_REACTORS
330
8405
102
}
330
8405
100
AcDbCellStyleMap
 90
        3
300
CELLSTYLE
  1
TABLEFORMAT_BEGIN
 90
        5
170
     1
 91
        0
 92
    32768
 62
   257
 93
        1
300
CONTENTFORMAT
  1
CONTENTFORMAT_BEGIN
 90
        0
 91
        0
 92
      512
 93
        0
300

 40
0.0
140
1.0
 94
        5
 62
     0
340
10
144
6.0
309
CONTENTFORMAT_END
171
     1
301
MARGIN
  1
CELLMARGIN_BEGIN
 40
1.5
 40
1.5
 40
1.5
 40
1.5
 40
4.5
 40
4.5
309
CELLMARGIN_END
 94
        6
 95
        1
302
GRIDFORMAT
  1
GRIDFORMAT_BEGIN
 90
        0
 91
        1
 62
     0
 92
       -2
340
0
 93
        0
 40
1.125
309
GRIDFORMAT_END
 95
        2
302
GRIDFORMAT
  1
GRIDFORMAT_BEGIN
 90
        0
 91
        1
 62
     0
 92
       -2
340
0
 93
        0
 40
1.125
309
GRIDFORMAT_END
 95
        4
302
GRIDFORMAT
  1
GRIDFORMAT_BEGIN
 90
        0
 91
        1
 62
     0
 92
       -2
340
0
 93
        0
 40
1.125
309
GRIDFORMAT_END
 95
        8
302
GRIDFORMAT
  1
GRIDFORMAT_BEGIN
 90
        0
 91
        1
 62
     0
 92
       -2
340
0
 93
        0
 40
1.125
309
GRIDFORMAT_END
 95
       16
302
GRIDFORMAT
  1
GRIDFORMAT_BEGIN
 90
        0
 91
        1
 62
     0
 92
       -2
340
0
 93
        0
 40
1.125
309
GRIDFORMAT_END
 95
       32
302
GRIDFORMAT
  1
GRIDFORMAT_BEGIN
 90
        0
 91
        1
 62
     0
 92
       -2
340
0
 93
        0
 40
1.125
309
GRIDFORMAT_END
309
TABLEFORMAT_END
  1
CELLSTYLE_BEGIN
 90
        1
 91
        1
300
_TITLE
309
CELLSTYLE_END
300
CELLSTYLE
  1
TABLEFORMAT_BEGIN
 90
        5
170
     1
 91
        0
 92
        0
 62
   257
 93
        1
300
CONTENTFORMAT
  1
CONTENTFORMAT_BEGIN
 90
        0
 91
        0
 92
      512
 93
        0
300

 40
0.0
140
1.0
 94
        5
 62
     0
340
10
144
4.5
309
CONTENTFORMAT_END
171
     1
301
MARGIN
  1
CELLMARGIN_BEGIN
 40
1.5
 40
1.5
 40
1.5
 40
1.5
 40
4.5
 40
4.5
309
CELLMARGIN_END
 94
        6
 95
        1
302
GRIDFORMAT
  1
GRIDFORMAT_BEGIN
 90
        0
 91
        1
 62
     0
 92
       -2
340
0
 93
        0
 40
1.125
309
GRIDFORMAT_END
 95
        2
302
GRIDFORMAT
  1
GRIDFORMAT_BEGIN
 90
        0
 91
        1
 62
     0
 92
       -2
340
0
 93
        0
 40
1.125
309
GRIDFORMAT_END
 95
        4
302
GRIDFORMAT
  1
GRIDFORMAT_BEGIN
 90
        0
 91
        1
 62
     0
 92
       -2
340
0
 93
        0
 40
1.125
309
GRIDFORMAT_END
 95
        8
302
GRIDFORMAT
  1
GRIDFORMAT_BEGIN
 90
        0
 91
        1
 62
     0
 92
       -2
340
0
 93
        0
 40
1.125
309
GRIDFORMAT_END
 95
       16
302
GRIDFORMAT
  1
GRIDFORMAT_BEGIN
 90
        0
 91
        1
 62
     0
 92
       -2
340
0
 93
        0
 40
1.125
309
GRIDFORMAT_END
 95
       32
302
GRIDFORMAT
  1
GRIDFORMAT_BEGIN
 90
        0
 91
        1
 62
     0
 92
       -2
340
0
 93
        0
 40
1.125
309
GRIDFORMAT_END
309
TABLEFORMAT_END
  1
CELLSTYLE_BEGIN
 90
        2
 91
        1
300
_HEADER
309
CELLSTYLE_END
300
CELLSTYLE
  1
TABLEFORMAT_BEGIN
 90
        5
170
     1
 91
        0
 92
        0
 62
   257
 93
        1
300
CONTENTFORMAT
  1
CONTENTFORMAT_BEGIN
 90
        0
 91
        0
 92
      512
 93
        0
300

 40
0.0
140
1.0
 94
        2
 62
     0
340
10
144
4.5
309
CONTENTFORMAT_END
171
     1
301
MARGIN
  1
CELLMARGIN_BEGIN
 40
1.5
 40
1.5
 40
1.5
 40
1.5
 40
4.5
 40
4.5
309
CELLMARGIN_END
 94
        6
 95
        1
302
GRIDFORMAT
  1
GRIDFORMAT_BEGIN
 90
        0
 91
        1
 62
     0
 92
       -2
340
0
 93
        0
 40
1.125
309
GRIDFORMAT_END
 95
        2
302
GRIDFORMAT
  1
GRIDFORMAT_BEGIN
 90
        0
 91
        1
 62
     0
 92
       -2
340
0
 93
        0
 40
1.125
309
GRIDFORMAT_END
 95
        4
302
GRIDFORMAT
  1
GRIDFORMAT_BEGIN
 90
        0
 91
        1
 62
     0
 92
       -2
340
0
 93
        0
 40
1.125
309
GRIDFORMAT_END
 95
        8
302
GRIDFORMAT
  1
GRIDFORMAT_BEGIN
 90
        0
 91
        1
 62
     0
 92
       -2
340
0
 93
        0
 40
1.125
309
GRIDFORMAT_END
 95
       16
302
GRIDFORMAT
  1
GRIDFORMAT_BEGIN
 90
        0
 91
        1
 62
     0
 92
       -2
340
0
 93
        0
 40
1.125
309
GRIDFORMAT_END
 95
       32
302
GRIDFORMAT
  1
GRIDFORMAT_BEGIN
 90
        0
 91
        1
 62
     0
 92
       -2
340
0
 93
        0
 40
1.125
309
GRIDFORMAT_END
309
TABLEFORMAT_END
  1
CELLSTYLE_BEGIN
 90
        3
 91
        2
300
_DATA
309
CELLSTYLE_END
  0
ENDSEC
  0
SECTION
  2
ACDSDATA
 70
     2
 71
     8
  0
ACDSSCHEMA
 90
        0
  1
AcDb_Thumbnail_Schema
  2
AcDbDs::ID
280
    10
 91
        8
  2
Thumbnail_Data
280
    15
 91
        0
101
ACDSRECORD
 95
        0
 90
        1
  2
AcDbDs::TreatedAsObjectData
280
     1
291
     1
101
ACDSRECORD
 95
        0
 90
        2
  2
AcDbDs::Legacy
280
     1
291
     1
101
ACDSRECORD
  1
AcDbDs::ID
 90
        3
  2
AcDs:Indexable
280
     1
291
     1
101
ACDSRECORD
  1
AcDbDs::ID
 90
        4
  2
AcDbDs::HandleAttribute
280
     7
282
     1
  0
ACDSSCHEMA
 90
        1
  1
AcDbDs::TreatedAsObjectDataSchema
  2
AcDbDs::TreatedAsObjectData
280
     1
 91
        0
  0
ACDSSCHEMA
 90
        2
  1
AcDbDs::LegacySchema
  2
AcDbDs::Legacy
280
     1
 91
        0
  0
ACDSSCHEMA
 90
        3
  1
AcDbDs::IndexedPropertySchema
  2
AcDs:Indexable
280
     1
 91
        0
  0
ACDSSCHEMA
 90
        4
  1
AcDbDs::HandleAttributeSchema
  2
AcDbDs::HandleAttribute
280
     7
 91
        1
284
     1
  0
ACDSRECORD
 90
        0
  2
AcDbDs::ID
280
    10
320
82FC
  2
Thumbnail_Data
280
    15
 94
     1664
310
89504E470D0A1A0A0000000D49484452000001000000007C0803000000B13B9E5A00000300504C5445000000000000C8C8C80000000000000000000000000000000000000000000000000000330000660000990000CC0000FF0033000033330033660033990033CC0033FF0066000066330066660066990066CC0066FF0099
310
000099330099660099990099CC0099FF00CC0000CC3300CC6600CC9900CCCC00CCFF00FF0000FF3300FF6600FF9900FFCC00FFFF3300003300333300663300993300CC3300FF3333003333333333663333993333CC3333FF3366003366333366663366993366CC3366FF3399003399333399663399993399CC3399FF33CC00
310
33CC3333CC6633CC9933CCCC33CCFF33FF0033FF3333FF6633FF9933FFCC33FFFF6600006600336600666600996600CC6600FF6633006633336633666633996633CC6633FF6666006666336666666666996666CC6666FF6699006699336699666699996699CC6699FF66CC0066CC3366CC6666CC9966CCCC66CCFF66FF0066
310
FF3366FF6666FF9966FFCC66FFFF9900009900339900669900999900CC9900FF9933009933339933669933999933CC9933FF9966009966339966669966999966CC9966FF9999009999339999669999999999CC9999FF99CC0099CC3399CC6699CC9999CCCC99CCFF99FF0099FF3399FF6699FF9999FFCC99FFFFCC0000CC00
310
33CC0066CC0099CC00CCCC00FFCC3300CC3333CC3366CC3399CC33CCCC33FFCC6600CC6633CC6666CC6699CC66CCCC66FFCC9900CC9933CC9966CC9999CC99CCCC99FFCCCC00CCCC33CCCC66CCCC99CCCCCCCCCCFFCCFF00CCFF33CCFF66CCFF99CCFFCCCCFFFFFF0000FF0033FF0066FF0099FF00CCFF00FFFF3300FF3333
310
FF3366FF3399FF33CCFF33FFFF6600FF6633FF6666FF6699FF66CCFF66FFFF9900FF9933FF9966FF9999FF99CCFF99FFFFCC00FFCC33FFCC66FFCC99FFCCCCFFCCFFFFFF00FFFF33FFFF66FFFF99FFFFCCFFFFFF0000000D0D0D1A1A1A2828283535354343435050505D5D5D6B6B6B787878868686939393A1A1A1AEAEAEBB
310
BBBBC9C9C9D6D6D6E4E4E4F1F1F1FFFFFF00000000000000000000000000000000000000000000000000000000000008F1915C000002DA4944415478DAED9D5B72C3200C45B51CFFB0FFCDB00DFE6B83CD53384DC76DC3D525E34C6C63263AD183878688FC4209BF54649512966A96000880000880003EE79BDE043F2B00BA
310
C783490D300F205806D059C1DA001E1D012C09E0C31A23807F00104EAB4EEA5C8ECE3EA622220038E5CF124B90DECC3312500D18440ECD85247D0C01A01A907EE58643B18DC8273E046902C69DA0F57EC0A32DAC09A0F57AA35A54F57384B83E8201082A80D3FF9771607EC102E8846F0054E2A30078F079CE091200011000
310
0110C0E200FC5E2C02F06AB10440D5068300DC55CC03C814EC014814E289450087F8E930096073DBE6CE637F3704A031FC6C026FC6421000AD13F4663460D7FF360C5A0350E25E7684F634800006009E00088000E8041906D913340940A801DEF660E88966D701F0C9CD120001100001100001100001100001FCC537B59A21
310
F216003F19265B4991A9EEB5553052649270F1DDEBD50A800E120280171A70AF255000449D12F7230E50008AB8C3154F008800EAE9D0D1CE6B71C7B943C83CC136E61B0050843B2E9EDE50370177E49438810410B365BE07C01513591A80B630A400A854DE6101A834C0C9148053018099C021E4B152EE1427D82909188033
310
4D6E73315F747F0D61706B01C46C52180087E487E2F7A1B0E907006BC0E9F80A8073757C0400EA04A342BBCBFF451FE072CF38578B555A001E0640B2F0941AB35D0932AF3500A62354E5085DE6F00A409F4680902021553F20CF795500AA9F3C69800001D8664952B328E0D00128D35EB000AE11D0F0519F1C1D9F40002096
310
01DCA4C9D930819F01F03800BC76EA6737B279C00128F3C1FE5A2152EA9585A1B602E0DAE0B03A74BB82B83600E55403D0C1400D8353E7F054B3EB00100220005B00CCEF2839912C6F383CDE3501208CBBEEC20210E56F93F2C6BAC634C0A60F5035206F3D9EB797D6C486F601658BED20560028172B0D11FA00D33B4BB32B
310
4C0004400004400004400004400004B0248085FE7AFB0B317D82AAD1B1C7750000000049454E44AE4260824F6FFF008F1A81838E47EF440000000049454E44AE42608240EA82E41EFB755B7E5F00E43F5AA01BDD5B06401D806905607B7DF405000000000000000000000000000000AC02F8687AFBE5FE015FC7ECB8602C78
310
BA0000000049454E44AE426082
  0
ENDSEC
  0
EOF
