  0
SECTION
  2
HEADER
  9
$ACADVER
  1
AC1027
  9
$ACADMAINTVER
 70
    81
  9
$DWGCODEPAGE
  3
ANSI_932
  9
$LASTSAVEDBY
  1
reiko.miyawaki
  9
$REQUIREDVERSIONS
160
                 0
  9
$INSBASE
 10
0.0
 20
0.0
 30
0.0
  9
$EXTMIN
 10
0.0
 20
0.0
 30
0.0
  9
$EXTMAX
 10
2520.0
 20
3540.0
 30
0.0
  9
$LIMMIN
 10
0.0
 20
0.0
  9
$LIMMAX
 10
297.0
 20
210.0
  9
$ORTHOMODE
 70
     1
  9
$REGENMODE
 70
     1
  9
$FILLMODE
 70
     0
  9
$QTEXTMODE
 70
     0
  9
$MIRRTEXT
 70
     1
  9
$LTSCALE
 40
100.0
  9
$ATTMODE
 70
     1
  9
$TEXTSIZE
 40
180.0
  9
$TRACEWID
 40
0.05
  9
$TEXTSTYLE
  7
STANDARD
  9
$CLAYER
  8
3
  9
$CELTYPE
  6
BYLAYER
  9
$CECOLOR
 62
   256
  9
$CELTSCALE
 40
1.0
  9
$DISPSILH
 70
     0
  9
$DIMSCALE
 40
12.0
  9
$DIMASZ
 40
2.0
  9
$DIMEXO
 40
0.5
  9
$DIMDLI
 40
10.0
  9
$DIMRND
 40
0.0
  9
$DIMDLE
 40
0.0
  9
$DIMEXE
 40
1.0
  9
$DIMTP
 40
1.0
  9
$DIMTM
 40
1.0
  9
$DIMTXT
 40
3.0
  9
$DIMCEN
 40
0.0
  9
$DIMTSZ
 40
0.0
  9
$DIMTOL
 70
     0
  9
$DIMLIM
 70
     0
  9
$DIMTIH
 70
     0
  9
$DIMTOH
 70
     0
  9
$DIMSE1
 70
     0
  9
$DIMSE2
 70
     0
  9
$DIMTAD
 70
     1
  9
$DIMZIN
 70
     8
  9
$DIMBLK
  1

  9
$DIMASO
 70
     1
  9
$DIMSHO
 70
     1
  9
$DIMPOST
  1

  9
$DIMAPOST
  1

  9
$DIMALT
 70
     0
  9
$DIMALTD
 70
     2
  9
$DIMALTF
 40
0.039
  9
$DIMLFAC
 40
1.0
  9
$DIMTOFL
 70
     1
  9
$DIMTVP
 40
0.0
  9
$DIMTIX
 70
     0
  9
$DIMSOXD
 70
     0
  9
$DIMSAH
 70
     1
  9
$DIMBLK1
  1
OPEN
  9
$DIMBLK2
  1
OPEN
  9
$DIMSTYLE
  2
IGA
  9
$DIMCLRD
 70
     0
  9
$DIMCLRE
 70
     0
  9
$DIMCLRT
 70
     0
  9
$DIMTFAC
 40
10.0
  9
$DIMGAP
 40
1.0
  9
$DIMJUST
 70
     0
  9
$DIMSD1
 70
     0
  9
$DIMSD2
 70
     0
  9
$DIMTOLJ
 70
     1
  9
$DIMTZIN
 70
     8
  9
$DIMALTZ
 70
     0
  9
$DIMALTTZ
 70
     0
  9
$DIMUPT
 70
     0
  9
$DIMDEC
 70
     0
  9
$DIMTDEC
 70
     0
  9
$DIMALTU
 70
     2
  9
$DIMALTTD
 70
     2
  9
$DIMTXSTY
  7
STANDARD
  9
$DIMAUNIT
 70
     0
  9
$DIMADEC
 70
     0
  9
$DIMALTRND
 40
0.0
  9
$DIMAZIN
 70
     0
  9
$DIMDSEP
 70
    46
  9
$DIMATFIT
 70
     3
  9
$DIMFRAC
 70
     0
  9
$DIMLDRBLK
  1
OPEN
  9
$DIMLUNIT
 70
     2
  9
$DIMLWD
 70
    -2
  9
$DIMLWE
 70
    -2
  9
$DIMTMOVE
 70
     0
  9
$DIMFXL
 40
1.0
  9
$DIMFXLON
 70
     0
  9
$DIMJOGANG
 40
0.7853981633974483
  9
$DIMTFILL
 70
     0
  9
$DIMTFILLCLR
 70
     0
  9
$DIMARCSYM
 70
     0
  9
$DIMLTYPE
  6

  9
$DIMLTEX1
  6

  9
$DIMLTEX2
  6

  9
$DIMTXTDIRECTION
 70
     0
  9
$LUNITS
 70
     2
  9
$LUPREC
 70
     3
  9
$SKETCHINC
 40
0.1
  9
$FILLETRAD
 40
50.0
  9
$AUNITS
 70
     0
  9
$AUPREC
 70
     0
  9
$MENU
  1
acad
  9
$ELEVATION
 40
0.0
  9
$PELEVATION
 40
0.0
  9
$THICKNESS
 40
0.0
  9
$LIMCHECK
 70
     0
  9
$CHAMFERA
 40
0.5
  9
$CHAMFERB
 40
0.5
  9
$CHAMFERC
 40
20.0
  9
$CHAMFERD
 40
0.0
  9
$SKPOLY
 70
     0
  9
$TDCREATE
 40
2451935.658972338
  9
$TDUCREATE
 40
2451935.283972338
  9
$TDUPDATE
 40
2459024.488409560
  9
$TDUUPDATE
 40
2459024.113409560
  9
$TDINDWG
 40
0.1786720486
  9
$TDUSRTIMER
 40
0.1786720486
  9
$USRTIMER
 70
     1
  9
$ANGBASE
 50
0.0
  9
$ANGDIR
 70
     0
  9
$PDMODE
 70
     0
  9
$PDSIZE
 40
0.0
  9
$PLINEWID
 40
0.0
  9
$SPLFRAME
 70
     0
  9
$SPLINETYPE
 70
     6
  9
$SPLINESEGS
 70
     8
  9
$HANDSEED
  5
9687
  9
$SURFTAB1
 70
     6
  9
$SURFTAB2
 70
     6
  9
$SURFTYPE
 70
     6
  9
$SURFU
 70
     6
  9
$SURFV
 70
     6
  9
$UCSBASE
  2

  9
$UCSNAME
  2

  9
$UCSORG
 10
0.0
 20
0.0
 30
0.0
  9
$UCSXDIR
 10
1.0
 20
0.0
 30
0.0
  9
$UCSYDIR
 10
0.0
 20
1.0
 30
0.0
  9
$UCSORTHOREF
  2

  9
$UCSORTHOVIEW
 70
     0
  9
$UCSORGTOP
 10
0.0
 20
0.0
 30
0.0
  9
$UCSORGBOTTOM
 10
0.0
 20
0.0
 30
0.0
  9
$UCSORGLEFT
 10
0.0
 20
0.0
 30
0.0
  9
$UCSORGRIGHT
 10
0.0
 20
0.0
 30
0.0
  9
$UCSORGFRONT
 10
0.0
 20
0.0
 30
0.0
  9
$UCSORGBACK
 10
0.0
 20
0.0
 30
0.0
  9
$PUCSBASE
  2

  9
$PUCSNAME
  2

  9
$PUCSORG
 10
0.0
 20
0.0
 30
0.0
  9
$PUCSXDIR
 10
1.0
 20
0.0
 30
0.0
  9
$PUCSYDIR
 10
0.0
 20
1.0
 30
0.0
  9
$PUCSORTHOREF
  2

  9
$PUCSORTHOVIEW
 70
     0
  9
$PUCSORGTOP
 10
0.0
 20
0.0
 30
0.0
  9
$PUCSORGBOTTOM
 10
0.0
 20
0.0
 30
0.0
  9
$PUCSORGLEFT
 10
0.0
 20
0.0
 30
0.0
  9
$PUCSORGRIGHT
 10
0.0
 20
0.0
 30
0.0
  9
$PUCSORGFRONT
 10
0.0
 20
0.0
 30
0.0
  9
$PUCSORGBACK
 10
0.0
 20
0.0
 30
0.0
  9
$USERI1
 70
     0
  9
$USERI2
 70
     0
  9
$USERI3
 70
     0
  9
$USERI4
 70
     0
  9
$USERI5
 70
     0
  9
$USERR1
 40
0.0
  9
$USERR2
 40
0.0
  9
$USERR3
 40
0.0
  9
$USERR4
 40
0.0
  9
$USERR5
 40
0.0
  9
$WORLDVIEW
 70
     1
  9
$SHADEDGE
 70
     3
  9
$SHADEDIF
 70
    70
  9
$TILEMODE
 70
     1
  9
$MAXACTVP
 70
    16
  9
$PINSBASE
 10
0.0
 20
0.0
 30
0.0
  9
$PLIMCHECK
 70
     0
  9
$PEXTMIN
 10
1.000000000000000E+20
 20
1.000000000000000E+20
 30
1.000000000000000E+20
  9
$PEXTMAX
 10
-1.000000000000000E+20
 20
-1.000000000000000E+20
 30
-1.000000000000000E+20
  9
$PLIMMIN
 10
0.0
 20
0.0
  9
$PLIMMAX
 10
12.0
 20
9.0
  9
$UNITMODE
 70
     0
  9
$VISRETAIN
 70
     0
  9
$PLINEGEN
 70
     0
  9
$PSLTSCALE
 70
     1
  9
$TREEDEPTH
 70
  3020
  9
$CMLSTYLE
  2
STANDARD
  9
$CMLJUST
 70
     0
  9
$CMLSCALE
 40
20.0
  9
$PROXYGRAPHICS
 70
     1
  9
$MEASUREMENT
 70
     1
  9
$CELWEIGHT
370
    -1
  9
$ENDCAPS
280
     0
  9
$JOINSTYLE
280
     0
  9
$LWDISPLAY
290
     0
  9
$INSUNITS
 70
     0
  9
$HYPERLINKBASE
  1

  9
$STYLESHEET
  1

  9
$XEDIT
290
     1
  9
$CEPSNTYPE
380
     0
  9
$PSTYLEMODE
290
     1
  9
$FINGERPRINTGUID
  2
{55F5CEC9-F736-4638-8915-C7295B021DA3}
  9
$VERSIONGUID
  2
{E9C6448F-40F1-4992-B085-09E2379B760A}
  9
$EXTNAMES
290
     1
  9
$PSVPSCALE
 40
0.0
  9
$OLESTARTUP
290
     0
  9
$SORTENTS
280
   127
  9
$INDEXCTL
280
     0
  9
$HIDETEXT
280
     0
  9
$XCLIPFRAME
280
     2
  9
$HALOGAP
280
     0
  9
$OBSCOLOR
 70
   257
  9
$OBSLTYPE
280
     0
  9
$INTERSECTIONDISPLAY
280
     0
  9
$INTERSECTIONCOLOR
 70
   257
  9
$DIMASSOC
280
     1
  9
$PROJECTNAME
  1

  9
$CAMERADISPLAY
290
     0
  9
$LENSLENGTH
 40
50.0
  9
$CAMERAHEIGHT
 40
0.0
  9
$STEPSPERSEC
 40
2.0
  9
$STEPSIZE
 40
6.0
  9
$3DDWFPREC
 40
2.0
  9
$PSOLWIDTH
 40
0.25
  9
$PSOLHEIGHT
 40
4.0
  9
$LOFTANG1
 40
1.570796326794896
  9
$LOFTANG2
 40
1.570796326794896
  9
$LOFTMAG1
 40
0.0
  9
$LOFTMAG2
 40
0.0
  9
$LOFTPARAM
 70
     7
  9
$LOFTNORMALS
280
     1
  9
$LATITUDE
 40
37.795
  9
$LONGITUDE
 40
-122.394
  9
$NORTHDIRECTION
 40
0.0
  9
$TIMEZONE
 70
 -8000
  9
$LIGHTGLYPHDISPLAY
280
     1
  9
$TILEMODELIGHTSYNCH
280
     1
  9
$CMATERIAL
347
863A
  9
$SOLIDHIST
280
     0
  9
$SHOWHIST
280
     1
  9
$DWFFRAME
280
     2
  9
$DGNFRAME
280
     0
  9
$REALWORLDSCALE
290
     1
  9
$INTERFERECOLOR
 62
     1
  9
$INTERFEREOBJVS
345
865C
  9
$INTERFEREVPVS
346
8659
  9
$CSHADOW
280
     0
  9
$SHADOWPLANELOCATION
 40
0.0
  0
ENDSEC
  0
SECTION
  2
CLASSES
  0
CLASS
  1
ACDBDICTIONARYWDFLT
  2
AcDbDictionaryWithDefault
  3
ObjectDBX Classes
 90
        0
 91
        1
280
     0
281
     0
  0
CLASS
  1
MATERIAL
  2
AcDbMaterial
  3
ObjectDBX Classes
 90
     1153
 91
        3
280
     0
281
     0
  0
CLASS
  1
VISUALSTYLE
  2
AcDbVisualStyle
  3
ObjectDBX Classes
 90
     4095
 91
       24
280
     0
281
     0
  0
CLASS
  1
TABLESTYLE
  2
AcDbTableStyle
  3
ObjectDBX Classes
 90
     4095
 91
        1
280
     0
281
     0
  0
CLASS
  1
SCALE
  2
AcDbScale
  3
ObjectDBX Classes
 90
     1153
 91
       17
280
     0
281
     0
  0
CLASS
  1
MLEADERSTYLE
  2
AcDbMLeaderStyle
  3
ACDB_MLEADERSTYLE_CLASS
 90
     4095
 91
        1
280
     0
281
     0
  0
CLASS
  1
ACDBSECTIONVIEWSTYLE
  2
AcDbSectionViewStyle
  3
ObjectDBX Classes
 90
     1025
 91
        1
280
     0
281
     0
  0
CLASS
  1
ACDBDETAILVIEWSTYLE
  2
AcDbDetailViewStyle
  3
ObjectDBX Classes
 90
     1025
 91
        1
280
     0
281
     0
  0
CLASS
  1
SORTENTSTABLE
  2
AcDbSortentsTable
  3
ObjectDBX Classes
 90
        0
 91
        0
280
     0
281
     0
  0
CLASS
  1
DICTIONARYVAR
  2
AcDbDictionaryVar
  3
ObjectDBX Classes
 90
        0
 91
        9
280
     0
281
     0
  0
CLASS
  1
CELLSTYLEMAP
  2
AcDbCellStyleMap
  3
ObjectDBX Classes
 90
     1152
 91
        1
280
     0
281
     0
  0
ENDSEC
  0
SECTION
  2
TABLES
  0
TABLE
  2
VPORT
  5
8
330
0
100
AcDbSymbolTable
 70
     1
  0
VPORT
  5
8637
330
8
100
AcDbSymbolTableRecord
100
AcDbViewportTableRecord
  2
*Active
 70
     0
 10
0.0
 20
0.0
 11
1.0
 21
1.0
 12
1617.489071689062
 22
1770.000008242204
 13
0.0
 23
0.0
 14
10.0
 24
10.0
 15
10.0
 25
10.0
 16
0.0
 26
0.0
 36
1.0
 17
0.0
 27
0.0
 37
0.0
 40
3440.954288498973
 41
1.957107843137254
 42
50.0
 43
0.0
 44
0.0
 50
0.0
 51
0.0
 71
     0
 72
   100
 73
     1
 74
     0
 75
     0
 76
     0
 77
     0
 78
     0
281
     0
 65
     1
110
0.0
120
0.0
130
0.0
111
1.0
121
0.0
131
0.0
112
0.0
122
1.0
132
0.0
 79
     0
146
0.0
348
8658
 60
     3
 61
     5
292
     1
282
     1
141
0.0
142
0.0
 63
   250
421
  3355443
1001
ACAD_NAV_VCDISPLAY
1070
     3
  0
ENDTAB
  0
TABLE
  2
LTYPE
  5
5
330
0
100
AcDbSymbolTable
 70
     2
  0
LTYPE
  5
13
330
5
100
AcDbSymbolTableRecord
100
AcDbLinetypeTableRecord
  2
BYBLOCK
 70
     0
  3

 72
    65
 73
     0
 40
0.0
  0
LTYPE
  5
14
330
5
100
AcDbSymbolTableRecord
100
AcDbLinetypeTableRecord
  2
BYLAYER
 70
     0
  3

 72
    65
 73
     0
 40
0.0
  0
LTYPE
  5
15
330
5
100
AcDbSymbolTableRecord
100
AcDbLinetypeTableRecord
  2
CONTINUOUS
 70
     0
  3
Solid line
 72
    65
 73
     0
 40
0.0
  0
LTYPE
  5
1F
330
5
100
AcDbSymbolTableRecord
100
AcDbLinetypeTableRecord
  2
CENTER
 70
     0
  3
____ _ ____ _ ____ _ ____ _ ____ _ ____ _ ____ 
 72
    65
 73
     4
 40
2.0
 49
1.25
 74
     0
 49
-0.25
 74
     0
 49
0.25
 74
     0
 49
-0.25
 74
     0
  0
ENDTAB
  0
TABLE
  2
LAYER
  5
2
102
{ACAD_XDICTIONARY
360
8C3F
102
}
330
0
100
AcDbSymbolTable
 70
     6
  0
LAYER
  5
F
102
{ACAD_XDICTIONARY
360
95F6
102
}
330
2
100
AcDbSymbolTableRecord
100
AcDbLayerTableRecord
  2
0
 70
     0
 62
     7
  6
CONTINUOUS
370
    -3
390
8625
347
864A
348
0
  0
LAYER
  5
31
102
{ACAD_XDICTIONARY
360
95F8
102
}
330
2
100
AcDbSymbolTableRecord
100
AcDbLayerTableRecord
  2
3
 70
     0
 62
     2
  6
CONTINUOUS
370
    -3
390
8625
347
864A
348
0
  0
LAYER
  5
76D0
102
{ACAD_XDICTIONARY
360
95FA
102
}
330
2
100
AcDbSymbolTableRecord
100
AcDbLayerTableRecord
  2
2
 70
     0
 62
     3
  6
CENTER
370
    -3
390
8625
347
864A
348
0
  0
LAYER
  5
76D1
102
{ACAD_XDICTIONARY
360
95FC
102
}
330
2
100
AcDbSymbolTableRecord
100
AcDbLayerTableRecord
  2
1
 70
     0
 62
     4
  6
CONTINUOUS
370
    -3
390
8625
347
864A
348
0
  0
LAYER
  5
76D2
102
{ACAD_XDICTIONARY
360
95FE
102
}
330
2
100
AcDbSymbolTableRecord
100
AcDbLayerTableRecord
  2
4
 70
     0
 62
     7
  6
CONTINUOUS
370
    -3
390
8625
347
864A
348
0
  0
LAYER
  5
7B0C
330
2
100
AcDbSymbolTableRecord
100
AcDbLayerTableRecord
  2
DEFPOINTS
 70
     0
 62
     7
  6
CONTINUOUS
290
     0
370
    -3
390
8625
347
864A
348
0
  0
ENDTAB
  0
TABLE
  2
STYLE
  5
3
330
0
100
AcDbSymbolTable
 70
     1
  0
STYLE
  5
10
330
3
100
AcDbSymbolTableRecord
100
AcDbTextStyleTableRecord
  2
STANDARD
 70
     0
 40
0.0
 41
1.0
 50
0.0
 71
     0
 42
180.0
  3
simplex.shx
  4
extfont.shx
  0
ENDTAB
  0
TABLE
  2
VIEW
  5
6
330
0
100
AcDbSymbolTable
 70
     0
  0
ENDTAB
  0
TABLE
  2
UCS
  5
7
330
0
100
AcDbSymbolTable
 70
     0
  0
ENDTAB
  0
TABLE
  2
APPID
  5
9
330
0
100
AcDbSymbolTable
 70
     4
  0
APPID
  5
11
330
9
100
AcDbSymbolTableRecord
100
AcDbRegAppTableRecord
  2
ACAD
 70
     0
  0
APPID
  5
8C3E
330
9
100
AcDbSymbolTableRecord
100
AcDbRegAppTableRecord
  2
ACAD_NAV_VCDISPLAY
 70
     0
  0
APPID
  5
9627
330
9
100
AcDbSymbolTableRecord
100
AcDbRegAppTableRecord
  2
AcadAnnoMonitorAlertIconDisabled
 70
     0
  0
APPID
  5
9628
330
9
100
AcDbSymbolTableRecord
100
AcDbRegAppTableRecord
  2
ACAD_EXEMPT_FROM_CAD_STANDARDS
 70
     0
  0
ENDTAB
  0
TABLE
  2
DIMSTYLE
  5
A
330
0
100
AcDbSymbolTable
 70
     1
100
AcDbDimStyleTable
 71
     1
340
1D
  0
DIMSTYLE
105
1D
102
{ACAD_REACTORS
330
8E11
330
8E12
330
8E14
330
8E15
330
8E16
330
8E17
330
8E20
330
8E21
330
8D88
330
8D89
330
8D8A
330
8D8B
330
8D9A
330
8D9C
330
8DB9
330
8DBA
330
8DBB
330
8DBC
330
961A
102
}
330
A
100
AcDbSymbolTableRecord
100
AcDbDimStyleTableRecord
  2
IGA
 70
     0
 40
2.0
 41
2.0
 42
0.5
 43
10.0
 44
1.0
 47
1.0
 48
1.0
 73
     0
 74
     0
 77
     1
 78
     8
140
3.0
141
0.0
143
0.03937
146
10.0
147
1.0
173
     1
271
     1
272
     0
279
     2
284
     8
340
10
341
79FC
343
79FC
344
79FC
  0
ENDTAB
  0
TABLE
  2
BLOCK_RECORD
  5
1
330
0
100
AcDbSymbolTable
 70
    22
  0
BLOCK_RECORD
  5
19
330
1
100
AcDbSymbolTableRecord
100
AcDbBlockTableRecord
  2
*MODEL_SPACE
340
8628
 70
     0
280
     1
281
     0
  0
BLOCK_RECORD
  5
16
330
1
100
AcDbSymbolTableRecord
100
AcDbBlockTableRecord
  2
*PAPER_SPACE
340
8629
 70
     0
280
     1
281
     0
  0
BLOCK_RECORD
  5
79FC
330
1
100
AcDbSymbolTableRecord
100
AcDbBlockTableRecord
  2
_OPEN
340
0
102
{BLKREFS
331
9648
331
9649
331
966E
331
966F
331
9546
331
9547
331
954F
331
9550
331
9558
331
9559
331
9561
331
9562
331
956A
331
956B
331
9573
331
9574
331
957D
331
957E
331
9591
331
9592
331
9599
331
959A
331
95A2
331
95A3
331
95AB
331
95AC
331
95B4
331
95B5
331
95BD
331
95BE
331
95C6
331
95C7
331
95D1
331
95D2
331
95DD
331
95E9
102
}
 70
     0
280
     1
281
     0
  0
BLOCK_RECORD
  5
7A02
330
1
100
AcDbSymbolTableRecord
100
AcDbBlockTableRecord
  2
_DOT
340
0
102
{BLKREFS
331
95DC
331
95E8
102
}
 70
     0
280
     1
281
     0
  0
BLOCK_RECORD
  5
8E23
330
1
100
AcDbSymbolTableRecord
100
AcDbBlockTableRecord
  2
*D2
340
0
 70
     0
280
     1
281
     0
  0
BLOCK_RECORD
  5
8E2F
330
1
100
AcDbSymbolTableRecord
100
AcDbBlockTableRecord
  2
*D3
340
0
 70
     0
280
     1
281
     0
  0
BLOCK_RECORD
  5
8E3B
330
1
100
AcDbSymbolTableRecord
100
AcDbBlockTableRecord
  2
*D4
340
0
 70
     0
280
     1
281
     0
  0
BLOCK_RECORD
  5
8E47
330
1
100
AcDbSymbolTableRecord
100
AcDbBlockTableRecord
  2
*D5
340
0
 70
     0
280
     1
281
     0
  0
BLOCK_RECORD
  5
8E53
330
1
100
AcDbSymbolTableRecord
100
AcDbBlockTableRecord
  2
*D6
340
0
 70
     0
280
     1
281
     0
  0
BLOCK_RECORD
  5
8E5F
330
1
100
AcDbSymbolTableRecord
100
AcDbBlockTableRecord
  2
*D7
340
0
 70
     0
280
     1
281
     0
  0
BLOCK_RECORD
  5
8E6D
330
1
100
AcDbSymbolTableRecord
100
AcDbBlockTableRecord
  2
*D8
340
0
 70
     0
280
     1
281
     0
  0
BLOCK_RECORD
  5
8E7B
330
1
100
AcDbSymbolTableRecord
100
AcDbBlockTableRecord
  2
*D9
340
0
 70
     0
280
     1
281
     0
  0
BLOCK_RECORD
  5
8E95
330
1
100
AcDbSymbolTableRecord
100
AcDbBlockTableRecord
  2
*D11
340
0
 70
     0
280
     1
281
     0
  0
BLOCK_RECORD
  5
8EA1
330
1
100
AcDbSymbolTableRecord
100
AcDbBlockTableRecord
  2
*D12
340
0
 70
     0
280
     1
281
     0
  0
BLOCK_RECORD
  5
8EAD
330
1
100
AcDbSymbolTableRecord
100
AcDbBlockTableRecord
  2
*D13
340
0
 70
     0
280
     1
281
     0
  0
BLOCK_RECORD
  5
8EB9
330
1
100
AcDbSymbolTableRecord
100
AcDbBlockTableRecord
  2
*D14
340
0
 70
     0
280
     1
281
     0
  0
BLOCK_RECORD
  5
8EC5
330
1
100
AcDbSymbolTableRecord
100
AcDbBlockTableRecord
  2
*D15
340
0
 70
     0
280
     1
281
     0
  0
BLOCK_RECORD
  5
8ED1
330
1
100
AcDbSymbolTableRecord
100
AcDbBlockTableRecord
  2
*D16
340
0
 70
     0
280
     1
281
     0
  0
BLOCK_RECORD
  5
8EDD
330
1
100
AcDbSymbolTableRecord
100
AcDbBlockTableRecord
  2
*D17
340
0
 70
     0
280
     1
281
     0
  0
BLOCK_RECORD
  5
8EE9
330
1
100
AcDbSymbolTableRecord
100
AcDbBlockTableRecord
  2
*D18
340
0
 70
     0
280
     1
281
     0
  0
BLOCK_RECORD
  5
8EF5
330
1
100
AcDbSymbolTableRecord
100
AcDbBlockTableRecord
  2
*D19
340
0
 70
     0
280
     1
281
     0
  0
BLOCK_RECORD
  5
8F03
330
1
100
AcDbSymbolTableRecord
100
AcDbBlockTableRecord
  2
*D20
340
0
 70
     0
280
     1
281
     0
  0
BLOCK_RECORD
  5
961B
330
1
100
AcDbSymbolTableRecord
100
AcDbBlockTableRecord
  2
*D21
340
0
 70
     0
280
     1
281
     0
  0
ENDTAB
  0
ENDSEC
  0
SECTION
  2
BLOCKS
  0
BLOCK
  5
1A
330
19
100
AcDbEntity
  8
0
100
AcDbBlockBegin
  2
*MODEL_SPACE
 70
     0
 10
0.0
 20
0.0
 30
0.0
  3
*MODEL_SPACE
  1

  0
ENDBLK
  5
1B
330
19
100
AcDbEntity
  8
0
100
AcDbBlockEnd
  0
BLOCK
  5
17
330
16
100
AcDbEntity
 67
     1
  8
0
100
AcDbBlockBegin
  2
*PAPER_SPACE
 70
     0
 10
0.0
 20
0.0
 30
0.0
  3
*PAPER_SPACE
  1

  0
ENDBLK
  5
18
330
16
100
AcDbEntity
 67
     1
  8
0
100
AcDbBlockEnd
  0
BLOCK
  5
7A00
330
79FC
100
AcDbEntity
  8
0
100
AcDbBlockBegin
  2
_OPEN
 70
     0
 10
0.0
 20
0.0
 30
0.0
  3
_OPEN
  1

  0
LINE
  5
79FD
330
79FC
100
AcDbEntity
  8
0
  6
ByBlock
 62
     0
100
AcDbLine
 10
-1.0
 20
0.1666666666666666
 30
0.0
 11
0.0
 21
0.0
 31
0.0
  0
LINE
  5
79FE
330
79FC
100
AcDbEntity
  8
0
  6
ByBlock
 62
     0
100
AcDbLine
 10
0.0
 20
0.0
 30
0.0
 11
-1.0
 21
-0.1666666666666666
 31
0.0
  0
LINE
  5
79FF
330
79FC
100
AcDbEntity
  8
0
  6
ByBlock
 62
     0
100
AcDbLine
 10
0.0
 20
0.0
 30
0.0
 11
-1.0
 21
0.0
 31
0.0
  0
ENDBLK
  5
7A01
330
79FC
100
AcDbEntity
  8
0
100
AcDbBlockEnd
  0
BLOCK
  5
7A08
330
7A02
100
AcDbEntity
  8
0
100
AcDbBlockBegin
  2
_DOT
 70
     0
 10
0.0
 20
0.0
 30
0.0
  3
_DOT
  1

  0
LINE
  5
8221
330
7A02
100
AcDbEntity
  8
0
  6
ByBlock
 62
     0
100
AcDbLine
 10
0.0
 20
0.0
 30
0.0
 11
-1.0
 21
-0.0000000000000284
 31
0.0
  0
LWPOLYLINE
  5
8222
330
7A02
100
AcDbEntity
  8
0
  6
ByBlock
 62
     0
100
AcDbPolyline
 90
        2
 70
     1
 43
0.1666666666666666
 10
-0.0833333333333286
 20
-0.0000000000000284
 42
1.0
 10
0.0833333333333286
 20
-0.0000000000000284
 42
1.0
  0
ENDBLK
  5
7A09
330
7A02
100
AcDbEntity
  8
0
100
AcDbBlockEnd
  0
BLOCK
  5
8E24
330
8E23
100
AcDbEntity
  8
0
100
AcDbBlockBegin
  2
*D2
 70
     1
 10
0.0
 20
0.0
 30
0.0
  3
*D2
  1

  0
LINE
  5
959F
330
8E23
100
AcDbEntity
  8
3
 62
     0
440
 16777216
370
    -2
100
AcDbLine
 10
469.4348173531402
 20
2383.523719253987
 30
0.0
 11
387.7502928215385
 21
2383.523719253987
 31
0.0
  0
LINE
  5
95A0
330
8E23
100
AcDbEntity
  8
3
 62
     0
440
 16777216
370
    -2
100
AcDbLine
 10
469.4348173531402
 20
2003.52371925399
 30
0.0
 11
387.7502928215384
 21
2003.52371925399
 31
0.0
  0
LINE
  5
95A1
330
8E23
100
AcDbEntity
  8
3
 62
     0
440
 16777216
370
    -2
100
AcDbLine
 10
399.7502928215385
 20
2359.523719253987
 30
0.0
 11
399.7502928215384
 21
2027.523719253991
 31
0.0
  0
INSERT
  5
95A2
330
8E23
100
AcDbEntity
  8
3
 62
     0
440
 16777216
370
    -2
100
AcDbBlockReference
  2
_OPEN
 10
399.7502928215385
 20
2383.523719253987
 30
0.0
 41
24.0
 42
24.0
 43
24.0
 50
90.0
  0
INSERT
  5
95A3
330
8E23
100
AcDbEntity
  8
3
 62
     0
440
 16777216
370
    -2
100
AcDbBlockReference
  2
_OPEN
 10
399.7502928215384
 20
2003.52371925399
 30
0.0
 41
24.0
 42
24.0
 43
24.0
 50
270.0
  0
MTEXT
  5
95A4
330
8E23
100
AcDbEntity
  8
3
 62
     0
440
 16777216
100
AcDbMText
 10
369.7502928215381
 20
2187.908923321319
 30
0.0
 40
36.0
 41
0.0
 46
0.0
 71
     5
 72
     1
  1
\A1;380
 11
0.0000000000000001
 21
1.0
 31
0.0
 73
     1
 44
1.0
  0
POINT
  5
95A5
330
8E23
100
AcDbEntity
  8
DEFPOINTS
 62
     0
440
 16777216
100
AcDbPoint
 10
475.4348173531402
 20
2383.523719253987
 30
0.0
  0
POINT
  5
95A6
330
8E23
100
AcDbEntity
  8
DEFPOINTS
 62
     0
440
 16777216
100
AcDbPoint
 10
475.4348173531402
 20
2003.52371925399
 30
0.0
  0
POINT
  5
95A7
330
8E23
100
AcDbEntity
  8
DEFPOINTS
 62
     0
440
 16777216
100
AcDbPoint
 10
399.7502928215384
 20
2003.52371925399
 30
0.0
  0
ENDBLK
  5
8E25
330
8E23
100
AcDbEntity
  8
0
100
AcDbBlockEnd
  0
BLOCK
  5
8E30
330
8E2F
100
AcDbEntity
  8
0
100
AcDbBlockBegin
  2
*D3
 70
     1
 10
0.0
 20
0.0
 30
0.0
  3
*D3
  1

  0
LINE
  5
95A8
330
8E2F
100
AcDbEntity
  8
3
 62
     0
440
 16777216
370
    -2
100
AcDbLine
 10
475.4348173531402
 20
1997.52371925399
 30
0.0
 11
475.4348173531402
 21
1881.525202040117
 31
0.0
  0
LINE
  5
95A9
330
8E2F
100
AcDbEntity
  8
3
 62
     0
440
 16777216
370
    -2
100
AcDbLine
 10
1095.43481735314
 20
1997.523719253987
 30
0.0
 11
1095.43481735314
 21
1881.525202040117
 31
0.0
  0
LINE
  5
95AA
330
8E2F
100
AcDbEntity
  8
3
 62
     0
440
 16777216
370
    -2
100
AcDbLine
 10
499.4348173531403
 20
1893.525202040117
 30
0.0
 11
1071.43481735314
 21
1893.525202040117
 31
0.0
  0
INSERT
  5
95AB
330
8E2F
100
AcDbEntity
  8
3
 62
     0
440
 16777216
370
    -2
100
AcDbBlockReference
  2
_OPEN
 10
475.4348173531402
 20
1893.525202040117
 30
0.0
 41
24.0
 42
24.0
 43
24.0
 50
180.0
  0
INSERT
  5
95AC
330
8E2F
100
AcDbEntity
  8
3
 62
     0
440
 16777216
370
    -2
100
AcDbBlockReference
  2
_OPEN
 10
1095.43481735314
 20
1893.525202040117
 30
0.0
 41
24.0
 42
24.0
 43
24.0
  0
MTEXT
  5
95AD
330
8E2F
100
AcDbEntity
  8
3
 62
     0
440
 16777216
100
AcDbMText
 10
774.9391739283638
 20
1923.525202040117
 30
0.0
 40
36.0
 41
0.0
 46
0.0
 71
     5
 72
     1
  1
\A1;620
 73
     1
 44
1.0
  0
POINT
  5
95AE
330
8E2F
100
AcDbEntity
  8
DEFPOINTS
 62
     0
440
 16777216
100
AcDbPoint
 10
475.4348173531402
 20
2003.52371925399
 30
0.0
  0
POINT
  5
95AF
330
8E2F
100
AcDbEntity
  8
DEFPOINTS
 62
     0
440
 16777216
100
AcDbPoint
 10
1095.43481735314
 20
2003.523719253987
 30
0.0
  0
POINT
  5
95B0
330
8E2F
100
AcDbEntity
  8
DEFPOINTS
 62
     0
440
 16777216
100
AcDbPoint
 10
1095.43481735314
 20
1893.525202040117
 30
0.0
  0
ENDBLK
  5
8E31
330
8E2F
100
AcDbEntity
  8
0
100
AcDbBlockEnd
  0
BLOCK
  5
8E3C
330
8E3B
100
AcDbEntity
  8
0
100
AcDbBlockBegin
  2
*D4
 70
     1
 10
0.0
 20
0.0
 30
0.0
  3
*D4
  1

  0
LINE
  5
95B1
330
8E3B
100
AcDbEntity
  8
3
 62
     0
440
 16777216
370
    -2
100
AcDbLine
 10
475.4348173531398
 20
800.3635604584747
 30
0.0
 11
475.4348173531398
 21
702.1953532673032
 31
0.0
  0
LINE
  5
95B2
330
8E3B
100
AcDbEntity
  8
3
 62
     0
440
 16777216
370
    -2
100
AcDbLine
 10
920.4348173531398
 20
800.3635604584749
 30
0.0
 11
920.4348173531398
 21
702.1953532673032
 31
0.0
  0
LINE
  5
95B3
330
8E3B
100
AcDbEntity
  8
3
 62
     0
440
 16777216
370
    -2
100
AcDbLine
 10
499.4348173531398
 20
714.1953532673032
 30
0.0
 11
896.4348173531398
 21
714.1953532673032
 31
0.0
  0
INSERT
  5
95B4
330
8E3B
100
AcDbEntity
  8
3
 62
     0
440
 16777216
370
    -2
100
AcDbBlockReference
  2
_OPEN
 10
475.4348173531398
 20
714.1953532673032
 30
0.0
 41
24.0
 42
24.0
 43
24.0
 50
180.0
  0
INSERT
  5
95B5
330
8E3B
100
AcDbEntity
  8
3
 62
     0
440
 16777216
370
    -2
100
AcDbBlockReference
  2
_OPEN
 10
920.4348173531398
 20
714.1953532673032
 30
0.0
 41
24.0
 42
24.0
 43
24.0
  0
MTEXT
  5
95B6
330
8E3B
100
AcDbEntity
  8
3
 62
     0
440
 16777216
100
AcDbMText
 10
697.9348173531398
 20
744.1953532673032
 30
0.0
 40
36.0
 41
0.0
 46
0.0
 71
     5
 72
     1
  1
\A1;445
 73
     1
 44
1.0
  0
POINT
  5
95B7
330
8E3B
100
AcDbEntity
  8
DEFPOINTS
 62
     0
440
 16777216
100
AcDbPoint
 10
475.4348173531398
 20
806.3635604584746
 30
0.0
  0
POINT
  5
95B8
330
8E3B
100
AcDbEntity
  8
DEFPOINTS
 62
     0
440
 16777216
100
AcDbPoint
 10
920.4348173531398
 20
806.3635604584749
 30
0.0
  0
POINT
  5
95B9
330
8E3B
100
AcDbEntity
  8
DEFPOINTS
 62
     0
440
 16777216
100
AcDbPoint
 10
920.4348173531398
 20
714.1953532673032
 30
0.0
  0
ENDBLK
  5
8E3D
330
8E3B
100
AcDbEntity
  8
0
100
AcDbBlockEnd
  0
BLOCK
  5
8E48
330
8E47
100
AcDbEntity
  8
0
100
AcDbBlockBegin
  2
*D5
 70
     1
 10
0.0
 20
0.0
 30
0.0
  3
*D5
  1

  0
LINE
  5
95BA
330
8E47
100
AcDbEntity
  8
3
 62
     0
440
 16777216
370
    -2
100
AcDbLine
 10
920.4348173531398
 20
800.3635604584749
 30
0.0
 11
920.4348173531398
 21
702.1953532673032
 31
0.0
  0
LINE
  5
95BB
330
8E47
100
AcDbEntity
  8
3
 62
     0
440
 16777216
370
    -2
100
AcDbLine
 10
1095.43481735314
 20
800.3635604584747
 30
0.0
 11
1095.43481735314
 21
702.1953532673032
 31
0.0
  0
LINE
  5
95BC
330
8E47
100
AcDbEntity
  8
3
 62
     0
440
 16777216
370
    -2
100
AcDbLine
 10
944.4348173531398
 20
714.1953532673032
 30
0.0
 11
1071.43481735314
 21
714.1953532673032
 31
0.0
  0
INSERT
  5
95BD
330
8E47
100
AcDbEntity
  8
3
 62
     0
440
 16777216
370
    -2
100
AcDbBlockReference
  2
_OPEN
 10
920.4348173531398
 20
714.1953532673032
 30
0.0
 41
24.0
 42
24.0
 43
24.0
 50
180.0
  0
INSERT
  5
95BE
330
8E47
100
AcDbEntity
  8
3
 62
     0
440
 16777216
370
    -2
100
AcDbBlockReference
  2
_OPEN
 10
1095.43481735314
 20
714.1953532673032
 30
0.0
 41
24.0
 42
24.0
 43
24.0
  0
MTEXT
  5
95BF
330
8E47
100
AcDbEntity
  8
3
 62
     0
440
 16777216
100
AcDbMText
 10
1007.93481735314
 20
744.1953532673032
 30
0.0
 40
36.0
 41
0.0
 46
0.0
 71
     5
 72
     1
  1
\A1;175
 73
     1
 44
1.0
  0
POINT
  5
95C0
330
8E47
100
AcDbEntity
  8
DEFPOINTS
 62
     0
440
 16777216
100
AcDbPoint
 10
920.4348173531398
 20
806.3635604584749
 30
0.0
  0
POINT
  5
95C1
330
8E47
100
AcDbEntity
  8
DEFPOINTS
 62
     0
440
 16777216
100
AcDbPoint
 10
1095.43481735314
 20
806.3635604584746
 30
0.0
  0
POINT
  5
95C2
330
8E47
100
AcDbEntity
  8
DEFPOINTS
 62
     0
440
 16777216
100
AcDbPoint
 10
1095.43481735314
 20
714.1953532673032
 30
0.0
  0
ENDBLK
  5
8E49
330
8E47
100
AcDbEntity
  8
0
100
AcDbBlockEnd
  0
BLOCK
  5
8E54
330
8E53
100
AcDbEntity
  8
0
100
AcDbBlockBegin
  2
*D6
 70
     1
 10
0.0
 20
0.0
 30
0.0
  3
*D6
  1

  0
LINE
  5
95C3
330
8E53
100
AcDbEntity
  8
3
 62
     0
440
 16777216
370
    -2
100
AcDbLine
 10
1566.24354074723
 20
800.4496543457335
 30
0.0
 11
1566.24354074723
 21
702.195353267303
 31
0.0
  0
LINE
  5
95C4
330
8E53
100
AcDbEntity
  8
3
 62
     0
440
 16777216
370
    -2
100
AcDbLine
 10
1946.24354074723
 20
800.4496543457337
 30
0.0
 11
1946.24354074723
 21
702.195353267303
 31
0.0
  0
LINE
  5
95C5
330
8E53
100
AcDbEntity
  8
3
 62
     0
440
 16777216
370
    -2
100
AcDbLine
 10
1590.24354074723
 20
714.1953532673031
 30
0.0
 11
1922.24354074723
 21
714.1953532673031
 31
0.0
  0
INSERT
  5
95C6
330
8E53
100
AcDbEntity
  8
3
 62
     0
440
 16777216
370
    -2
100
AcDbBlockReference
  2
_OPEN
 10
1566.24354074723
 20
714.1953532673031
 30
0.0
 41
24.0
 42
24.0
 43
24.0
 50
180.0
  0
INSERT
  5
95C7
330
8E53
100
AcDbEntity
  8
3
 62
     0
440
 16777216
370
    -2
100
AcDbBlockReference
  2
_OPEN
 10
1946.24354074723
 20
714.1953532673031
 30
0.0
 41
24.0
 42
24.0
 43
24.0
  0
MTEXT
  5
95C8
330
8E53
100
AcDbEntity
  8
3
 62
     0
440
 16777216
100
AcDbMText
 10
1756.24354074723
 20
744.195353267303
 30
0.0
 40
36.0
 41
0.0
 46
0.0
 71
     5
 72
     1
  1
\A1;380
 73
     1
 44
1.0
  0
POINT
  5
95C9
330
8E53
100
AcDbEntity
  8
DEFPOINTS
 62
     0
440
 16777216
100
AcDbPoint
 10
1566.24354074723
 20
806.4496543457334
 30
0.0
  0
POINT
  5
95CA
330
8E53
100
AcDbEntity
  8
DEFPOINTS
 62
     0
440
 16777216
100
AcDbPoint
 10
1946.24354074723
 20
806.4496543457337
 30
0.0
  0
POINT
  5
95CB
330
8E53
100
AcDbEntity
  8
DEFPOINTS
 62
     0
440
 16777216
100
AcDbPoint
 10
1946.24354074723
 20
714.1953532673031
 30
0.0
  0
ENDBLK
  5
8E55
330
8E53
100
AcDbEntity
  8
0
100
AcDbBlockEnd
  0
BLOCK
  5
8E60
330
8E5F
100
AcDbEntity
  8
0
100
AcDbBlockBegin
  2
*D7
 70
     1
 10
0.0
 20
0.0
 30
0.0
  3
*D7
  1

  0
LINE
  5
95CC
330
8E5F
100
AcDbEntity
  8
3
 62
     0
440
 16777216
370
    -2
100
AcDbLine
 10
1946.24354074723
 20
800.4496543457337
 30
0.0
 11
1946.24354074723
 21
702.195353267303
 31
0.0
  0
LINE
  5
95CD
330
8E5F
100
AcDbEntity
  8
3
 62
     0
440
 16777216
370
    -2
100
AcDbLine
 10
1986.24354074723
 20
800.4496543457337
 30
0.0
 11
1986.24354074723
 21
702.195353267303
 31
0.0
  0
LINE
  5
95CE
330
8E5F
100
AcDbEntity
  8
3
 62
     0
440
 16777216
370
    -2
100
AcDbLine
 10
1922.24354074723
 20
714.1953532673031
 30
0.0
 11
1898.24354074723
 21
714.1953532673031
 31
0.0
  0
LINE
  5
95CF
330
8E5F
100
AcDbEntity
  8
3
 62
     0
440
 16777216
370
    -2
100
AcDbLine
 10
2010.24354074723
 20
714.1953532673031
 30
0.0
 11
2116.529255032945
 21
714.1953532673031
 31
0.0
  0
LINE
  5
95D0
330
8E5F
100
AcDbEntity
  8
3
 62
     0
440
 16777216
370
    -2
100
AcDbLine
 10
1946.24354074723
 20
714.1953532673031
 30
0.0
 11
1986.24354074723
 21
714.1953532673031
 31
0.0
  0
INSERT
  5
95D1
330
8E5F
100
AcDbEntity
  8
3
 62
     0
440
 16777216
370
    -2
100
AcDbBlockReference
  2
_OPEN
 10
1946.24354074723
 20
714.1953532673031
 30
0.0
 41
24.0
 42
24.0
 43
24.0
  0
INSERT
  5
95D2
330
8E5F
100
AcDbEntity
  8
3
 62
     0
440
 16777216
370
    -2
100
AcDbBlockReference
  2
_OPEN
 10
1986.24354074723
 20
714.1953532673031
 30
0.0
 41
24.0
 42
24.0
 43
24.0
 50
180.0
  0
MTEXT
  5
95D3
330
8E5F
100
AcDbEntity
  8
3
 62
     0
440
 16777216
100
AcDbMText
 10
2075.386397890088
 20
744.195353267303
 30
0.0
 40
36.0
 41
0.0
 46
0.0
 71
     5
 72
     1
  1
\A1;40
 73
     1
 44
1.0
  0
POINT
  5
95D4
330
8E5F
100
AcDbEntity
  8
DEFPOINTS
 62
     0
440
 16777216
100
AcDbPoint
 10
1946.24354074723
 20
806.4496543457337
 30
0.0
  0
POINT
  5
95D5
330
8E5F
100
AcDbEntity
  8
DEFPOINTS
 62
     0
440
 16777216
100
AcDbPoint
 10
1986.24354074723
 20
806.4496543457337
 30
0.0
  0
POINT
  5
95D6
330
8E5F
100
AcDbEntity
  8
DEFPOINTS
 62
     0
440
 16777216
100
AcDbPoint
 10
1986.24354074723
 20
714.1953532673031
 30
0.0
  0
ENDBLK
  5
8E61
330
8E5F
100
AcDbEntity
  8
0
100
AcDbBlockEnd
  0
BLOCK
  5
8E6E
330
8E6D
100
AcDbEntity
  8
0
100
AcDbBlockBegin
  2
*D8
 70
     1
 10
0.0
 20
0.0
 30
0.0
  3
*D8
  1

  0
LINE
  5
95D7
330
8E6D
100
AcDbEntity
  8
3
 62
     0
440
 16777216
370
    -2
100
AcDbLine
 10
1101.43481735314
 20
846.3635604584743
 30
0.0
 11
1269.435448099399
 21
846.3635604584743
 31
0.0
  0
LINE
  5
95D8
330
8E6D
100
AcDbEntity
  8
3
 62
     0
440
 16777216
370
    -2
100
AcDbLine
 10
1101.43481735314
 20
806.3635604584746
 30
0.0
 11
1269.435448099399
 21
806.3635604584746
 31
0.0
  0
LINE
  5
95D9
330
8E6D
100
AcDbEntity
  8
3
 62
     0
440
 16777216
370
    -2
100
AcDbLine
 10
1257.435448099399
 20
870.3635604584743
 30
0.0
 11
1257.435448099399
 21
894.3635604584741
 31
0.0
  0
LINE
  5
95DA
330
8E6D
100
AcDbEntity
  8
3
 62
     0
440
 16777216
370
    -2
100
AcDbLine
 10
1257.435448099399
 20
782.3635604584747
 30
0.0
 11
1257.435448099399
 21
676.0778461727604
 31
0.0
  0
LINE
  5
95DB
330
8E6D
100
AcDbEntity
  8
3
 62
     0
440
 16777216
370
    -2
100
AcDbLine
 10
1257.435448099399
 20
846.3635604584743
 30
0.0
 11
1257.435448099399
 21
806.3635604584746
 31
0.0
  0
INSERT
  5
95DC
330
8E6D
100
AcDbEntity
  8
3
 62
     0
440
 16777216
370
    -2
100
AcDbBlockReference
  2
_DOT
 10
1257.435448099399
 20
846.3635604584743
 30
0.0
 41
24.0
 42
24.0
 43
24.0
 50
270.0
  0
INSERT
  5
95DD
330
8E6D
100
AcDbEntity
  8
3
 62
     0
440
 16777216
370
    -2
100
AcDbBlockReference
  2
_OPEN
 10
1257.435448099399
 20
806.3635604584746
 30
0.0
 41
24.0
 42
24.0
 43
24.0
 50
90.0
  0
MTEXT
  5
95DE
330
8E6D
100
AcDbEntity
  8
3
 62
     0
440
 16777216
100
AcDbMText
 10
1227.435448099398
 20
717.2207033156176
 30
0.0
 40
36.0
 41
0.0
 46
0.0
 71
     5
 72
     1
  1
\A1;40
 11
0.0000000000000001
 21
1.0
 31
0.0
 73
     1
 44
1.0
  0
POINT
  5
95DF
330
8E6D
100
AcDbEntity
  8
DEFPOINTS
 62
     0
440
 16777216
100
AcDbPoint
 10
1095.43481735314
 20
846.3635604584743
 30
0.0
  0
POINT
  5
95E0
330
8E6D
100
AcDbEntity
  8
DEFPOINTS
 62
     0
440
 16777216
100
AcDbPoint
 10
1095.43481735314
 20
806.3635604584746
 30
0.0
  0
POINT
  5
95E1
330
8E6D
100
AcDbEntity
  8
DEFPOINTS
 62
     0
440
 16777216
100
AcDbPoint
 10
1257.435448099399
 20
806.3635604584746
 30
0.0
  0
ENDBLK
  5
8E6F
330
8E6D
100
AcDbEntity
  8
0
100
AcDbBlockEnd
  0
BLOCK
  5
8E7C
330
8E7B
100
AcDbEntity
  8
0
100
AcDbBlockBegin
  2
*D9
 70
     1
 10
0.0
 20
0.0
 30
0.0
  3
*D9
  1

  0
LINE
  5
95E2
330
8E7B
100
AcDbEntity
  8
3
 62
     0
440
 16777216
370
    -2
100
AcDbLine
 10
1101.43481735314
 20
846.3635604584743
 30
0.0
 11
1269.435448099399
 21
846.3635604584743
 31
0.0
  0
LINE
  5
95E3
330
8E7B
100
AcDbEntity
  8
3
 62
     0
440
 16777216
370
    -2
100
AcDbLine
 10
1101.43481735314
 20
916.3635604584742
 30
0.0
 11
1269.435448099399
 21
916.3635604584742
 31
0.0
  0
LINE
  5
95E4
330
8E7B
100
AcDbEntity
  8
3
 62
     0
440
 16777216
370
    -2
100
AcDbLine
 10
1257.435448099399
 20
822.3635604584742
 30
0.0
 11
1257.435448099399
 21
798.3635604584742
 31
0.0
  0
LINE
  5
95E5
330
8E7B
100
AcDbEntity
  8
3
 62
     0
440
 16777216
370
    -2
100
AcDbLine
 10
1257.435448099399
 20
940.3635604584742
 30
0.0
 11
1257.435448099399
 21
964.3635604584742
 31
0.0
  0
MTEXT
  5
95E6
330
8E7B
100
AcDbEntity
  8
3
 62
     0
440
 16777216
100
AcDbMText
 10
1299.642281231139
 20
879.5171042663678
 30
0.0
 40
36.0
 41
0.0
 46
0.0
 71
     5
 72
     1
  1
\A1;(70)
 11
0.0000000000000001
 21
1.0
 31
0.0
 73
     1
 44
1.0
  0
LINE
  5
95E7
330
8E7B
100
AcDbEntity
  8
3
 62
     0
440
 16777216
370
    -2
100
AcDbLine
 10
1257.435448099399
 20
846.3635604584743
 30
0.0
 11
1257.435448099399
 21
916.3635604584742
 31
0.0
  0
INSERT
  5
95E8
330
8E7B
100
AcDbEntity
  8
3
 62
     0
440
 16777216
370
    -2
100
AcDbBlockReference
  2
_DOT
 10
1257.435448099399
 20
846.3635604584743
 30
0.0
 41
24.0
 42
24.0
 43
24.0
 50
90.0
  0
INSERT
  5
95E9
330
8E7B
100
AcDbEntity
  8
3
 62
     0
440
 16777216
370
    -2
100
AcDbBlockReference
  2
_OPEN
 10
1257.435448099399
 20
916.3635604584742
 30
0.0
 41
24.0
 42
24.0
 43
24.0
 50
270.0
  0
POINT
  5
95EA
330
8E7B
100
AcDbEntity
  8
DEFPOINTS
 62
     0
440
 16777216
100
AcDbPoint
 10
1095.43481735314
 20
846.3635604584743
 30
0.0
  0
POINT
  5
95EB
330
8E7B
100
AcDbEntity
  8
DEFPOINTS
 62
     0
440
 16777216
100
AcDbPoint
 10
1095.43481735314
 20
916.3635604584742
 30
0.0
  0
POINT
  5
95EC
330
8E7B
100
AcDbEntity
  8
DEFPOINTS
 62
     0
440
 16777216
100
AcDbPoint
 10
1257.435448099399
 20
916.3635604584742
 30
0.0
  0
ENDBLK
  5
8E7D
330
8E7B
100
AcDbEntity
  8
0
100
AcDbBlockEnd
  0
BLOCK
  5
8E96
330
8E95
100
AcDbEntity
  8
0
100
AcDbBlockBegin
  2
*D11
 70
     1
 10
0.0
 20
0.0
 30
0.0
  3
*D11
  1

  0
LINE
  5
9543
330
8E95
100
AcDbEntity
  8
3
 62
     0
440
 16777216
370
    -2
100
AcDbLine
 10
1111.43481735314
 20
1175.363560458475
 30
0.0
 11
1179.551925903866
 21
1175.363560458475
 31
0.0
  0
LINE
  5
9544
330
8E95
100
AcDbEntity
  8
3
 62
     0
440
 16777216
370
    -2
100
AcDbLine
 10
1111.43481735314
 20
1375.363560458475
 30
0.0
 11
1179.551925903866
 21
1375.363560458475
 31
0.0
  0
LINE
  5
9545
330
8E95
100
AcDbEntity
  8
3
 62
     0
440
 16777216
370
    -2
100
AcDbLine
 10
1167.551925903866
 20
1199.363560458475
 30
0.0
 11
1167.551925903866
 21
1351.363560458475
 31
0.0
  0
INSERT
  5
9546
330
8E95
100
AcDbEntity
  8
3
 62
     0
440
 16777216
370
    -2
100
AcDbBlockReference
  2
_OPEN
 10
1167.551925903866
 20
1175.363560458475
 30
0.0
 41
24.0
 42
24.0
 43
24.0
 50
270.0
  0
INSERT
  5
9547
330
8E95
100
AcDbEntity
  8
3
 62
     0
440
 16777216
370
    -2
100
AcDbBlockReference
  2
_OPEN
 10
1167.551925903866
 20
1375.363560458475
 30
0.0
 41
24.0
 42
24.0
 43
24.0
 50
90.0
  0
MTEXT
  5
9548
330
8E95
100
AcDbEntity
  8
3
 62
     0
440
 16777216
100
AcDbMText
 10
1137.551925903866
 20
1275.363560458475
 30
0.0
 40
36.0
 41
0.0
 46
0.0
 71
     5
 72
     1
  1
\A1;200
 11
0.0000000000000001
 21
1.0
 31
0.0
 73
     1
 44
1.0
  0
POINT
  5
9549
330
8E95
100
AcDbEntity
  8
DEFPOINTS
 62
     0
440
 16777216
100
AcDbPoint
 10
1105.43481735314
 20
1175.363560458475
 30
0.0
  0
POINT
  5
954A
330
8E95
100
AcDbEntity
  8
DEFPOINTS
 62
     0
440
 16777216
100
AcDbPoint
 10
1105.43481735314
 20
1375.363560458475
 30
0.0
  0
POINT
  5
954B
330
8E95
100
AcDbEntity
  8
DEFPOINTS
 62
     0
440
 16777216
100
AcDbPoint
 10
1167.551925903866
 20
1375.363560458475
 30
0.0
  0
ENDBLK
  5
8E97
330
8E95
100
AcDbEntity
  8
0
100
AcDbBlockEnd
  0
BLOCK
  5
8EA2
330
8EA1
100
AcDbEntity
  8
0
100
AcDbBlockBegin
  2
*D12
 70
     1
 10
0.0
 20
0.0
 30
0.0
  3
*D12
  1

  0
LINE
  5
954C
330
8EA1
100
AcDbEntity
  8
3
 62
     0
440
 16777216
370
    -2
100
AcDbLine
 10
1111.79921947731
 20
1176.363560458474
 30
0.0
 11
1269.435448099399
 21
1176.363560458474
 31
0.0
  0
LINE
  5
954D
330
8EA1
100
AcDbEntity
  8
3
 62
     0
440
 16777216
370
    -2
100
AcDbLine
 10
1111.43481735314
 20
1375.363560458475
 30
0.0
 11
1269.435448099399
 21
1375.363560458475
 31
0.0
  0
LINE
  5
954E
330
8EA1
100
AcDbEntity
  8
3
 62
     0
440
 16777216
370
    -2
100
AcDbLine
 10
1257.435448099399
 20
1200.363560458474
 30
0.0
 11
1257.435448099399
 21
1351.363560458475
 31
0.0
  0
INSERT
  5
954F
330
8EA1
100
AcDbEntity
  8
3
 62
     0
440
 16777216
370
    -2
100
AcDbBlockReference
  2
_OPEN
 10
1257.435448099399
 20
1176.363560458474
 30
0.0
 41
24.0
 42
24.0
 43
24.0
 50
270.0
  0
INSERT
  5
9550
330
8EA1
100
AcDbEntity
  8
3
 62
     0
440
 16777216
370
    -2
100
AcDbBlockReference
  2
_OPEN
 10
1257.435448099399
 20
1375.363560458475
 30
0.0
 41
24.0
 42
24.0
 43
24.0
 50
90.0
  0
MTEXT
  5
9551
330
8EA1
100
AcDbEntity
  8
3
 62
     0
440
 16777216
100
AcDbMText
 10
1227.435448099398
 20
1275.863560458474
 30
0.0
 40
36.0
 41
0.0
 46
0.0
 71
     5
 72
     1
  1
\A1;199
 11
0.0000000000000001
 21
1.0
 31
0.0
 73
     1
 44
1.0
  0
POINT
  5
9552
330
8EA1
100
AcDbEntity
  8
DEFPOINTS
 62
     0
440
 16777216
100
AcDbPoint
 10
1105.79921947731
 20
1176.363560458474
 30
0.0
  0
POINT
  5
9553
330
8EA1
100
AcDbEntity
  8
DEFPOINTS
 62
     0
440
 16777216
100
AcDbPoint
 10
1105.43481735314
 20
1375.363560458475
 30
0.0
  0
POINT
  5
9554
330
8EA1
100
AcDbEntity
  8
DEFPOINTS
 62
     0
440
 16777216
100
AcDbPoint
 10
1257.435448099399
 20
1375.363560458475
 30
0.0
  0
ENDBLK
  5
8EA3
330
8EA1
100
AcDbEntity
  8
0
100
AcDbBlockEnd
  0
BLOCK
  5
8EAE
330
8EAD
100
AcDbEntity
  8
0
100
AcDbBlockBegin
  2
*D13
 70
     1
 10
0.0
 20
0.0
 30
0.0
  3
*D13
  1

  0
LINE
  5
9555
330
8EAD
100
AcDbEntity
  8
3
 62
     0
440
 16777216
370
    -2
100
AcDbLine
 10
1111.79921947731
 20
1176.363560458474
 30
0.0
 11
1269.435448099399
 21
1176.363560458474
 31
0.0
  0
LINE
  5
9556
330
8EAD
100
AcDbEntity
  8
3
 62
     0
440
 16777216
370
    -2
100
AcDbLine
 10
1101.43481735314
 20
916.3635604584747
 30
0.0
 11
1269.435448099399
 21
916.3635604584747
 31
0.0
  0
LINE
  5
9557
330
8EAD
100
AcDbEntity
  8
3
 62
     0
440
 16777216
370
    -2
100
AcDbLine
 10
1257.435448099399
 20
1152.363560458474
 30
0.0
 11
1257.435448099399
 21
940.3635604584748
 31
0.0
  0
INSERT
  5
9558
330
8EAD
100
AcDbEntity
  8
3
 62
     0
440
 16777216
370
    -2
100
AcDbBlockReference
  2
_OPEN
 10
1257.435448099399
 20
1176.363560458474
 30
0.0
 41
24.0
 42
24.0
 43
24.0
 50
90.0
  0
INSERT
  5
9559
330
8EAD
100
AcDbEntity
  8
3
 62
     0
440
 16777216
370
    -2
100
AcDbBlockReference
  2
_OPEN
 10
1257.435448099399
 20
916.3635604584747
 30
0.0
 41
24.0
 42
24.0
 43
24.0
 50
270.0
  0
MTEXT
  5
955A
330
8EAD
100
AcDbEntity
  8
3
 62
     0
440
 16777216
100
AcDbMText
 10
1227.435448099398
 20
1046.363560458474
 30
0.0
 40
36.0
 41
0.0
 46
0.0
 71
     5
 72
     1
  1
\A1;260
 11
0.0000000000000001
 21
1.0
 31
0.0
 73
     1
 44
1.0
  0
POINT
  5
955B
330
8EAD
100
AcDbEntity
  8
DEFPOINTS
 62
     0
440
 16777216
100
AcDbPoint
 10
1105.79921947731
 20
1176.363560458474
 30
0.0
  0
POINT
  5
955C
330
8EAD
100
AcDbEntity
  8
DEFPOINTS
 62
     0
440
 16777216
100
AcDbPoint
 10
1095.43481735314
 20
916.3635604584747
 30
0.0
  0
POINT
  5
955D
330
8EAD
100
AcDbEntity
  8
DEFPOINTS
 62
     0
440
 16777216
100
AcDbPoint
 10
1257.435448099399
 20
916.3635604584747
 30
0.0
  0
ENDBLK
  5
8EAF
330
8EAD
100
AcDbEntity
  8
0
100
AcDbBlockEnd
  0
BLOCK
  5
8EBA
330
8EB9
100
AcDbEntity
  8
0
100
AcDbBlockBegin
  2
*D14
 70
     1
 10
0.0
 20
0.0
 30
0.0
  3
*D14
  1

  0
LINE
  5
955E
330
8EB9
100
AcDbEntity
  8
3
 62
     0
440
 16777216
370
    -2
100
AcDbLine
 10
1105.43481735314
 20
1403.3635264743
 30
0.0
 11
1105.43481735314
 21
1473.605496850615
 31
0.0
  0
LINE
  5
955F
330
8EB9
100
AcDbEntity
  8
3
 62
     0
440
 16777216
370
    -2
100
AcDbLine
 10
920.4348173531398
 20
1420.554234797001
 30
0.0
 11
920.4348173531398
 21
1473.605496850615
 31
0.0
  0
LINE
  5
9560
330
8EB9
100
AcDbEntity
  8
3
 62
     0
440
 16777216
370
    -2
100
AcDbLine
 10
1081.43481735314
 20
1461.605496850615
 30
0.0
 11
944.4348173531398
 21
1461.605496850615
 31
0.0
  0
INSERT
  5
9561
330
8EB9
100
AcDbEntity
  8
3
 62
     0
440
 16777216
370
    -2
100
AcDbBlockReference
  2
_OPEN
 10
1105.43481735314
 20
1461.605496850615
 30
0.0
 41
24.0
 42
24.0
 43
24.0
  0
INSERT
  5
9562
330
8EB9
100
AcDbEntity
  8
3
 62
     0
440
 16777216
370
    -2
100
AcDbBlockReference
  2
_OPEN
 10
920.4348173531398
 20
1461.605496850615
 30
0.0
 41
24.0
 42
24.0
 43
24.0
 50
180.0
  0
MTEXT
  5
9563
330
8EB9
100
AcDbEntity
  8
3
 62
     0
440
 16777216
100
AcDbMText
 10
1012.93481735314
 20
1491.605496850615
 30
0.0
 40
36.0
 41
0.0
 46
0.0
 71
     5
 72
     1
  1
\A1;185
 73
     1
 44
1.0
  0
POINT
  5
9564
330
8EB9
100
AcDbEntity
  8
DEFPOINTS
 62
     0
440
 16777216
100
AcDbPoint
 10
1105.43481735314
 20
1397.3635264743
 30
0.0
  0
POINT
  5
9565
330
8EB9
100
AcDbEntity
  8
DEFPOINTS
 62
     0
440
 16777216
100
AcDbPoint
 10
920.4348173531398
 20
1414.554234797001
 30
0.0
  0
POINT
  5
9566
330
8EB9
100
AcDbEntity
  8
DEFPOINTS
 62
     0
440
 16777216
100
AcDbPoint
 10
920.4348173531398
 20
1461.605496850615
 30
0.0
  0
ENDBLK
  5
8EBB
330
8EB9
100
AcDbEntity
  8
0
100
AcDbBlockEnd
  0
BLOCK
  5
8EC6
330
8EC5
100
AcDbEntity
  8
0
100
AcDbBlockBegin
  2
*D15
 70
     1
 10
0.0
 20
0.0
 30
0.0
  3
*D15
  1

  0
LINE
  5
9567
330
8EC5
100
AcDbEntity
  8
3
 62
     0
440
 16777216
370
    -2
100
AcDbLine
 10
1105.43481735314
 20
1408.3635264743
 30
0.0
 11
1105.43481735314
 21
1551.944588401188
 31
0.0
  0
LINE
  5
9568
330
8EC5
100
AcDbEntity
  8
3
 62
     0
440
 16777216
370
    -2
100
AcDbLine
 10
475.4348173531398
 20
962.3635604584746
 30
0.0
 11
475.4348173531398
 21
1551.944588401188
 31
0.0
  0
LINE
  5
9569
330
8EC5
100
AcDbEntity
  8
3
 62
     0
440
 16777216
370
    -2
100
AcDbLine
 10
1081.43481735314
 20
1539.944588401188
 30
0.0
 11
499.4348173531398
 21
1539.944588401188
 31
0.0
  0
INSERT
  5
956A
330
8EC5
100
AcDbEntity
  8
3
 62
     0
440
 16777216
370
    -2
100
AcDbBlockReference
  2
_OPEN
 10
1105.43481735314
 20
1539.944588401188
 30
0.0
 41
24.0
 42
24.0
 43
24.0
  0
INSERT
  5
956B
330
8EC5
100
AcDbEntity
  8
3
 62
     0
440
 16777216
370
    -2
100
AcDbBlockReference
  2
_OPEN
 10
475.4348173531398
 20
1539.944588401188
 30
0.0
 41
24.0
 42
24.0
 43
24.0
 50
180.0
  0
MTEXT
  5
956C
330
8EC5
100
AcDbEntity
  8
3
 62
     0
440
 16777216
100
AcDbMText
 10
790.4348173531403
 20
1569.944588401188
 30
0.0
 40
36.0
 41
0.0
 46
0.0
 71
     5
 72
     1
  1
\A1;630
 73
     1
 44
1.0
  0
POINT
  5
956D
330
8EC5
100
AcDbEntity
  8
DEFPOINTS
 62
     0
440
 16777216
100
AcDbPoint
 10
1105.43481735314
 20
1402.3635264743
 30
0.0
  0
POINT
  5
956E
330
8EC5
100
AcDbEntity
  8
DEFPOINTS
 62
     0
440
 16777216
100
AcDbPoint
 10
475.4348173531398
 20
956.3635604584746
 30
0.0
  0
POINT
  5
956F
330
8EC5
100
AcDbEntity
  8
DEFPOINTS
 62
     0
440
 16777216
100
AcDbPoint
 10
475.4348173531398
 20
1539.944588401188
 30
0.0
  0
ENDBLK
  5
8EC7
330
8EC5
100
AcDbEntity
  8
0
100
AcDbBlockEnd
  0
BLOCK
  5
8ED2
330
8ED1
100
AcDbEntity
  8
0
100
AcDbBlockBegin
  2
*D16
 70
     1
 10
0.0
 20
0.0
 30
0.0
  3
*D16
  1

  0
LINE
  5
9570
330
8ED1
100
AcDbEntity
  8
3
 62
     0
440
 16777216
370
    -2
100
AcDbLine
 10
920.4348173531398
 20
1420.554234797001
 30
0.0
 11
920.4348173531398
 21
1473.605496850615
 31
0.0
  0
LINE
  5
9571
330
8ED1
100
AcDbEntity
  8
3
 62
     0
440
 16777216
370
    -2
100
AcDbLine
 10
750.4348173531402
 20
1196.363560458475
 30
0.0
 11
750.4348173531402
 21
1473.605496850615
 31
0.0
  0
LINE
  5
9572
330
8ED1
100
AcDbEntity
  8
3
 62
     0
440
 16777216
370
    -2
100
AcDbLine
 10
896.4348173531398
 20
1461.605496850615
 30
0.0
 11
774.4348173531403
 21
1461.605496850615
 31
0.0
  0
INSERT
  5
9573
330
8ED1
100
AcDbEntity
  8
3
 62
     0
440
 16777216
370
    -2
100
AcDbBlockReference
  2
_OPEN
 10
920.4348173531398
 20
1461.605496850615
 30
0.0
 41
24.0
 42
24.0
 43
24.0
  0
INSERT
  5
9574
330
8ED1
100
AcDbEntity
  8
3
 62
     0
440
 16777216
370
    -2
100
AcDbBlockReference
  2
_OPEN
 10
750.4348173531402
 20
1461.605496850615
 30
0.0
 41
24.0
 42
24.0
 43
24.0
 50
180.0
  0
MTEXT
  5
9575
330
8ED1
100
AcDbEntity
  8
3
 62
     0
440
 16777216
100
AcDbMText
 10
835.43481735314
 20
1491.605496850615
 30
0.0
 40
36.0
 41
0.0
 46
0.0
 71
     5
 72
     1
  1
\A1;170
 73
     1
 44
1.0
  0
POINT
  5
9576
330
8ED1
100
AcDbEntity
  8
DEFPOINTS
 62
     0
440
 16777216
100
AcDbPoint
 10
920.4348173531398
 20
1414.554234797001
 30
0.0
  0
POINT
  5
9577
330
8ED1
100
AcDbEntity
  8
DEFPOINTS
 62
     0
440
 16777216
100
AcDbPoint
 10
750.4348173531402
 20
1190.363560458475
 30
0.0
  0
POINT
  5
9578
330
8ED1
100
AcDbEntity
  8
DEFPOINTS
 62
     0
440
 16777216
100
AcDbPoint
 10
750.4348173531402
 20
1461.605496850615
 30
0.0
  0
ENDBLK
  5
8ED3
330
8ED1
100
AcDbEntity
  8
0
100
AcDbBlockEnd
  0
BLOCK
  5
8EDE
330
8EDD
100
AcDbEntity
  8
0
100
AcDbBlockBegin
  2
*D17
 70
     1
 10
0.0
 20
0.0
 30
0.0
  3
*D17
  1

  0
LINE
  5
9579
330
8EDD
100
AcDbEntity
  8
3
 62
     0
440
 16777216
370
    -2
100
AcDbLine
 10
2064.243540747229
 20
1072.449654345733
 30
0.0
 11
2064.243540747229
 21
1530.450616792897
 31
0.0
  0
LINE
  5
957A
330
8EDD
100
AcDbEntity
  8
3
 62
     0
440
 16777216
370
    -2
100
AcDbLine
 10
1986.243540747229
 20
1483.055263359539
 30
0.0
 11
1986.243540747229
 21
1530.450616792897
 31
0.0
  0
LINE
  5
957B
330
8EDD
100
AcDbEntity
  8
3
 62
     0
440
 16777216
370
    -2
100
AcDbLine
 10
2040.243540747229
 20
1518.450616792897
 30
0.0
 11
2010.24354074723
 21
1518.450616792897
 31
0.0
  0
MTEXT
  5
957C
330
8EDD
100
AcDbEntity
  8
3
 62
     0
440
 16777216
100
AcDbMText
 10
2025.243540747229
 20
1551.401913525908
 30
0.0
 40
36.0
 41
0.0
 46
0.0
 71
     5
 72
     1
  1
\A1;79
 73
     1
 44
1.0
  0
INSERT
  5
957D
330
8EDD
100
AcDbEntity
  8
3
 62
     0
440
 16777216
370
    -2
100
AcDbBlockReference
  2
_OPEN
 10
2064.243540747229
 20
1518.450616792897
 30
0.0
 41
24.0
 42
24.0
 43
24.0
  0
INSERT
  5
957E
330
8EDD
100
AcDbEntity
  8
3
 62
     0
440
 16777216
370
    -2
100
AcDbBlockReference
  2
_OPEN
 10
1986.243540747229
 20
1518.450616792897
 30
0.0
 41
24.0
 42
24.0
 43
24.0
 50
180.0
  0
POINT
  5
957F
330
8EDD
100
AcDbEntity
  8
DEFPOINTS
 62
     0
440
 16777216
100
AcDbPoint
 10
2064.243540747229
 20
1066.449654345733
 30
0.0
  0
POINT
  5
9580
330
8EDD
100
AcDbEntity
  8
DEFPOINTS
 62
     0
440
 16777216
100
AcDbPoint
 10
1986.243540747229
 20
1477.055263359539
 30
0.0
  0
POINT
  5
9581
330
8EDD
100
AcDbEntity
  8
DEFPOINTS
 62
     0
440
 16777216
100
AcDbPoint
 10
1986.243540747229
 20
1518.450616792897
 30
0.0
  0
ENDBLK
  5
8EDF
330
8EDD
100
AcDbEntity
  8
0
100
AcDbBlockEnd
  0
BLOCK
  5
8EEA
330
8EE9
100
AcDbEntity
  8
0
100
AcDbBlockBegin
  2
*D18
 70
     1
 10
0.0
 20
0.0
 30
0.0
  3
*D18
  1

  0
LINE
  5
966B
330
8EE9
100
AcDbEntity
  8
3
 62
     0
440
 16777216
370
    -2
100
AcDbLine
 10
1986.243540747229
 20
1483.055263359539
 30
0.0
 11
1986.243540747229
 21
1530.450616792897
 31
0.0
  0
LINE
  5
966C
330
8EE9
100
AcDbEntity
  8
3
 62
     0
440
 16777216
370
    -2
100
AcDbLine
 10
1553.243540747228
 20
1262.455619431852
 30
0.0
 11
1553.243540747228
 21
1530.450616792897
 31
0.0
  0
LINE
  5
966D
330
8EE9
100
AcDbEntity
  8
3
 62
     0
440
 16777216
370
    -2
100
AcDbLine
 10
1962.243540747229
 20
1518.450616792897
 30
0.0
 11
1577.243540747228
 21
1518.450616792897
 31
0.0
  0
INSERT
  5
966E
330
8EE9
100
AcDbEntity
  8
3
 62
     0
440
 16777216
370
    -2
100
AcDbBlockReference
  2
_OPEN
 10
1986.243540747229
 20
1518.450616792897
 30
0.0
 41
24.0
 42
24.0
 43
24.0
  0
INSERT
  5
966F
330
8EE9
100
AcDbEntity
  8
3
 62
     0
440
 16777216
370
    -2
100
AcDbBlockReference
  2
_OPEN
 10
1553.243540747228
 20
1518.450616792897
 30
0.0
 41
24.0
 42
24.0
 43
24.0
 50
180.0
  0
MTEXT
  5
9670
330
8EE9
100
AcDbEntity
  8
3
 62
     0
440
 16777216
100
AcDbMText
 10
1769.743540747229
 20
1587.879188221468
 30
0.0
 40
36.0
 41
0.0
 46
0.0
 71
     5
 72
     1
  1
\A1;\P(520)
 73
     1
 44
1.0
  0
POINT
  5
9671
330
8EE9
100
AcDbEntity
  8
DEFPOINTS
 62
     0
440
 16777216
100
AcDbPoint
 10
1986.243540747229
 20
1477.055263359539
 30
0.0
  0
POINT
  5
9672
330
8EE9
100
AcDbEntity
  8
DEFPOINTS
 62
     0
440
 16777216
100
AcDbPoint
 10
1553.243540747228
 20
1256.455619431852
 30
0.0
  0
POINT
  5
9673
330
8EE9
100
AcDbEntity
  8
DEFPOINTS
 62
     0
440
 16777216
100
AcDbPoint
 10
1553.243540747228
 20
1518.450616792897
 30
0.0
  0
ENDBLK
  5
8EEB
330
8EE9
100
AcDbEntity
  8
0
100
AcDbBlockEnd
  0
BLOCK
  5
8EF6
330
8EF5
100
AcDbEntity
  8
0
100
AcDbBlockBegin
  2
*D19
 70
     1
 10
0.0
 20
0.0
 30
0.0
  3
*D19
  1

  0
LINE
  5
958B
330
8EF5
100
AcDbEntity
  8
3
 62
     0
440
 16777216
370
    -2
100
AcDbLine
 10
1911.243540747229
 20
1381.449654345733
 30
0.0
 11
1911.243540747229
 21
1445.344554631639
 31
0.0
  0
LINE
  5
958C
330
8EF5
100
AcDbEntity
  8
3
 62
     0
440
 16777216
370
    -2
100
AcDbLine
 10
2061.243540747229
 20
1381.449654345733
 30
0.0
 11
2061.243540747229
 21
1445.344554631639
 31
0.0
  0
LINE
  5
958D
330
8EF5
100
AcDbEntity
  8
3
 62
     0
440
 16777216
370
    -2
100
AcDbLine
 10
1887.243540747228
 20
1433.344554631639
 30
0.0
 11
1863.243540747228
 21
1433.344554631639
 31
0.0
  0
LINE
  5
958E
330
8EF5
100
AcDbEntity
  8
3
 62
     0
440
 16777216
370
    -2
100
AcDbLine
 10
2085.243540747228
 20
1433.344554631639
 30
0.0
 11
2109.243540747229
 21
1433.344554631639
 31
0.0
  0
MTEXT
  5
958F
330
8EF5
100
AcDbEntity
  8
3
 62
     0
440
 16777216
100
AcDbMText
 10
1986.243540747229
 20
1462.574493836214
 30
0.0
 40
36.0
 41
0.0
 46
0.0
 71
     5
 72
     1
  1
\A1;150
 73
     1
 44
1.0
  0
LINE
  5
9590
330
8EF5
100
AcDbEntity
  8
3
 62
     0
440
 16777216
370
    -2
100
AcDbLine
 10
1911.243540747229
 20
1433.344554631639
 30
0.0
 11
2061.243540747229
 21
1433.344554631639
 31
0.0
  0
INSERT
  5
9591
330
8EF5
100
AcDbEntity
  8
3
 62
     0
440
 16777216
370
    -2
100
AcDbBlockReference
  2
_OPEN
 10
1911.243540747229
 20
1433.344554631639
 30
0.0
 41
24.0
 42
24.0
 43
24.0
  0
INSERT
  5
9592
330
8EF5
100
AcDbEntity
  8
3
 62
     0
440
 16777216
370
    -2
100
AcDbBlockReference
  2
_OPEN
 10
2061.243540747229
 20
1433.344554631639
 30
0.0
 41
24.0
 42
24.0
 43
24.0
 50
180.0
  0
POINT
  5
9593
330
8EF5
100
AcDbEntity
  8
DEFPOINTS
 62
     0
440
 16777216
100
AcDbPoint
 10
1911.243540747229
 20
1375.449654345733
 30
0.0
  0
POINT
  5
9594
330
8EF5
100
AcDbEntity
  8
DEFPOINTS
 62
     0
440
 16777216
100
AcDbPoint
 10
2061.243540747229
 20
1375.449654345733
 30
0.0
  0
POINT
  5
9595
330
8EF5
100
AcDbEntity
  8
DEFPOINTS
 62
     0
440
 16777216
100
AcDbPoint
 10
2061.243540747229
 20
1433.344554631639
 30
0.0
  0
ENDBLK
  5
8EF7
330
8EF5
100
AcDbEntity
  8
0
100
AcDbBlockEnd
  0
BLOCK
  5
8F04
330
8F03
100
AcDbEntity
  8
0
100
AcDbBlockBegin
  2
*D20
 70
     1
 10
0.0
 20
0.0
 30
0.0
  3
*D20
  1

  0
LINE
  5
9596
330
8F03
100
AcDbEntity
  8
3
 62
     0
440
 16777216
370
    -2
100
AcDbLine
 10
2090.243540747229
 20
1286.449654345733
 30
0.0
 11
2177.260580611068
 21
1286.449654345733
 31
0.0
  0
LINE
  5
9597
330
8F03
100
AcDbEntity
  8
3
 62
     0
440
 16777216
370
    -2
100
AcDbLine
 10
2090.243540747229
 20
1066.449654345733
 30
0.0
 11
2177.260580611068
 21
1066.449654345733
 31
0.0
  0
LINE
  5
9598
330
8F03
100
AcDbEntity
  8
3
 62
     0
440
 16777216
370
    -2
100
AcDbLine
 10
2165.260580611068
 20
1262.449654345733
 30
0.0
 11
2165.260580611068
 21
1090.449654345733
 31
0.0
  0
INSERT
  5
9599
330
8F03
100
AcDbEntity
  8
3
 62
     0
440
 16777216
370
    -2
100
AcDbBlockReference
  2
_OPEN
 10
2165.260580611068
 20
1286.449654345733
 30
0.0
 41
24.0
 42
24.0
 43
24.0
 50
90.0
  0
INSERT
  5
959A
330
8F03
100
AcDbEntity
  8
3
 62
     0
440
 16777216
370
    -2
100
AcDbBlockReference
  2
_OPEN
 10
2165.260580611068
 20
1066.449654345733
 30
0.0
 41
24.0
 42
24.0
 43
24.0
 50
270.0
  0
MTEXT
  5
959B
330
8F03
100
AcDbEntity
  8
3
 62
     0
440
 16777216
100
AcDbMText
 10
2135.260580611067
 20
1176.449654345733
 30
0.0
 40
36.0
 41
0.0
 46
0.0
 71
     5
 72
     1
  1
\A1;φ220
 11
0.0000000000000001
 21
1.0
 31
0.0
 73
     1
 44
1.0
  0
POINT
  5
959C
330
8F03
100
AcDbEntity
  8
DEFPOINTS
 62
     0
440
 16777216
100
AcDbPoint
 10
2084.243540747229
 20
1286.449654345733
 30
0.0
  0
POINT
  5
959D
330
8F03
100
AcDbEntity
  8
DEFPOINTS
 62
     0
440
 16777216
100
AcDbPoint
 10
2084.243540747229
 20
1066.449654345733
 30
0.0
  0
POINT
  5
959E
330
8F03
100
AcDbEntity
  8
DEFPOINTS
 62
     0
440
 16777216
100
AcDbPoint
 10
2165.260580611068
 20
1066.449654345733
 30
0.0
  0
ENDBLK
  5
8F05
330
8F03
100
AcDbEntity
  8
0
100
AcDbBlockEnd
  0
BLOCK
  5
961C
330
961B
100
AcDbEntity
  8
0
100
AcDbBlockBegin
  2
*D21
 70
     1
 10
0.0
 20
0.0
 30
0.0
  3
*D21
  1

  0
LINE
  5
9645
330
961B
100
AcDbEntity
  8
3
 62
     0
440
 16777216
370
    -2
100
AcDbLine
 10
1101.43481735314
 20
806.3635604584742
 30
0.0
 11
1373.706110792565
 21
806.3635604584741
 31
0.0
  0
LINE
  5
9646
330
961B
100
AcDbEntity
  8
3
 62
     0
440
 16777216
370
    -2
100
AcDbLine
 10
1111.43481735314
 20
1397.3635264743
 30
0.0
 11
1373.706110792565
 21
1397.3635264743
 31
0.0
  0
LINE
  5
9647
330
961B
100
AcDbEntity
  8
3
 62
     0
440
 16777216
370
    -2
100
AcDbLine
 10
1361.706110792565
 20
830.3635604584741
 30
0.0
 11
1361.706110792565
 21
1373.3635264743
 31
0.0
  0
INSERT
  5
9648
330
961B
100
AcDbEntity
  8
3
 62
     0
440
 16777216
370
    -2
100
AcDbBlockReference
  2
_OPEN
 10
1361.706110792565
 20
806.3635604584741
 30
0.0
 41
24.0
 42
24.0
 43
24.0
 50
270.0
  0
INSERT
  5
9649
330
961B
100
AcDbEntity
  8
3
 62
     0
440
 16777216
370
    -2
100
AcDbBlockReference
  2
_OPEN
 10
1361.706110792565
 20
1397.3635264743
 30
0.0
 41
24.0
 42
24.0
 43
24.0
 50
90.0
  0
MTEXT
  5
964A
330
961B
100
AcDbEntity
  8
3
 62
     0
440
 16777216
100
AcDbMText
 10
1322.277539363994
 20
1101.863543466387
 30
0.0
 40
36.0
 41
0.0
 46
0.0
 71
     5
 72
     1
  1
\A1;(591)
 11
0.0000000000000001
 21
1.0
 31
0.0
 73
     1
 44
1.0
  0
POINT
  5
964B
330
961B
100
AcDbEntity
  8
DEFPOINTS
 62
     0
440
 16777216
100
AcDbPoint
 10
1095.43481735314
 20
806.3635604584742
 30
0.0
  0
POINT
  5
964C
330
961B
100
AcDbEntity
  8
DEFPOINTS
 62
     0
440
 16777216
100
AcDbPoint
 10
1105.43481735314
 20
1397.3635264743
 30
0.0
  0
POINT
  5
964D
330
961B
100
AcDbEntity
  8
DEFPOINTS
 62
     0
440
 16777216
100
AcDbPoint
 10
1361.706110792565
 20
1397.3635264743
 30
0.0
  0
ENDBLK
  5
961D
330
961B
100
AcDbEntity
  8
0
100
AcDbBlockEnd
  0
ENDSEC
  0
SECTION
  2
ENTITIES
  0
LINE
  5
8D34
330
19
100
AcDbEntity
  8
2
100
AcDbLine
 10
920.4348173531398
 20
1414.554234797001
 30
0.0
 11
920.4348173531389
 21
916.3635604584747
 31
0.0
  0
LINE
  5
8D35
330
19
100
AcDbEntity
  8
1
100
AcDbLine
 10
475.4348173531398
 20
956.3635604584746
 30
0.0
 11
1095.43481735314
 21
956.3635604584742
 31
0.0
  0
LINE
  5
8D36
330
19
100
AcDbEntity
  8
1
100
AcDbLine
 10
475.4348173531398
 20
956.3635604584746
 30
0.0
 11
475.4348173531398
 21
916.3635604584747
 31
0.0
  0
LINE
  5
8D37
330
19
100
AcDbEntity
  8
2
100
AcDbLine
 10
1105.79921947731
 20
1176.363560458475
 30
0.0
 11
737.5830412761061
 21
1176.363560458475
 31
0.0
  0
LINE
  5
8D38
330
19
100
AcDbEntity
  8
1
100
AcDbLine
 10
1095.43481735314
 20
956.3635604584742
 30
0.0
 11
1095.43481735314
 21
916.3635604584742
 31
0.0
  0
LINE
  5
8D39
330
19
100
AcDbEntity
  8
2
100
AcDbLine
 10
1986.243540747229
 20
1437.414737553888
 30
0.0
 11
1986.243540747229
 21
808.4260633804433
 31
0.0
  0
LINE
  5
8D3A
330
19
100
AcDbEntity
  8
2
100
AcDbLine
 10
1522.856657069362
 20
1176.449654345733
 30
0.0
 11
2093.711246339809
 21
1176.449654345733
 31
0.0
  0
LINE
  5
8D3B
330
19
100
AcDbEntity
  8
1
100
AcDbLine
 10
515.4348173531402
 20
2383.523719253987
 30
0.0
 11
515.4348173531407
 21
2305.723719253986
 31
0.0
  0
LINE
  5
8D3C
330
19
100
AcDbEntity
  8
1
100
AcDbLine
 10
475.4348173531402
 20
2383.523719253987
 30
0.0
 11
475.4348173531402
 21
2003.523719253987
 31
0.0
  0
LINE
  5
8D3D
330
19
100
AcDbEntity
  8
1
100
AcDbLine
 10
1095.43481735314
 20
2003.523719253987
 30
0.0
 11
475.4348173531402
 21
2003.52371925399
 31
0.0
  0
LINE
  5
8D3E
330
19
100
AcDbEntity
  8
1
100
AcDbLine
 10
750.4348173531398
 20
2383.523719253987
 30
0.0
 11
475.4348173531402
 21
2383.523719253987
 31
0.0
  0
LINE
  5
8D3F
330
19
100
AcDbEntity
  8
1
100
AcDbLine
 10
1055.434817353139
 20
2003.523719253987
 30
0.0
 11
1095.43481735314
 21
2003.523719253987
 31
0.0
  0
CIRCLE
  5
8D40
330
19
100
AcDbEntity
  8
1
100
AcDbCircle
 10
920.4348173531398
 20
1046.363560458475
 30
0.0
 40
60.0
  0
LINE
  5
8D41
330
19
100
AcDbEntity
  8
1
100
AcDbLine
 10
1553.243540747228
 20
1256.455619431852
 30
0.0
 11
1553.243540747228
 21
956.4496543457336
 31
0.0
  0
LINE
  5
8D42
330
19
100
AcDbEntity
  8
1
100
AcDbLine
 10
1628.243540747228
 20
1256.455619431852
 30
0.0
 11
1628.243540747228
 21
1224.319572549998
 31
0.0
  0
LINE
  5
8D43
330
19
100
AcDbEntity
  8
1
100
AcDbLine
 10
970.5831508190694
 20
1256.319530842735
 30
0.0
 11
970.5831508190694
 21
956.3635604584742
 31
0.0
  0
LINE
  5
8D44
330
19
100
AcDbEntity
  8
1
100
AcDbLine
 10
490.5831508190694
 20
1256.319530842735
 30
0.0
 11
490.5831508190694
 21
956.3635604584746
 31
0.0
  0
ARC
  5
8D45
330
19
100
AcDbEntity
  8
1
100
AcDbCircle
 10
909.4348173531399
 20
1187.363560458474
 30
0.0
 40
159.0
100
AcDbArc
 50
183.9670277620438
 51
224.275821711518
  0
LINE
  5
8D46
330
19
100
AcDbEntity
  8
1
100
AcDbLine
 10
1020.43481735314
 20
1136.663560458475
 30
0.0
 11
1020.43481735314
 21
956.3635604584751
 31
0.0
  0
LINE
  5
8D47
330
19
100
AcDbEntity
  8
1
100
AcDbLine
 10
820.4348173531398
 20
1136.663560458475
 30
0.0
 11
820.4348173531398
 21
956.3635604584751
 31
0.0
  0
ARC
  5
8D48
330
19
100
AcDbEntity
  8
1
100
AcDbCircle
 10
934.4348173531399
 20
1190.363560458475
 30
0.0
 40
184.0
100
AcDbArc
 50
90.33401164717501
 51
184.3636787978967
  0
LINE
  5
8D49
330
19
100
AcDbEntity
  8
1
100
AcDbLine
 10
1883.943540747229
 20
1242.449654345733
 30
0.0
 11
1883.943540747229
 21
992.4496543457339
 31
0.0
  0
LINE
  5
8D4A
330
19
100
AcDbEntity
  8
1
100
AcDbLine
 10
1911.243540747229
 20
1155.449654345733
 30
0.0
 11
1911.243540747229
 21
992.4496543457339
 31
0.0
  0
LINE
  5
8D4B
330
19
100
AcDbEntity
  8
1
100
AcDbLine
 10
2061.243540747229
 20
1153.449654345733
 30
0.0
 11
2061.243540747229
 21
1028.363560458474
 31
0.0
  0
LINE
  5
8D4C
330
19
100
AcDbEntity
  8
1
100
AcDbLine
 10
1632.943540747229
 20
956.4496543457336
 30
0.0
 11
1632.943540747229
 21
1139.949654345733
 31
0.0
  0
LINE
  5
8D4D
330
19
100
AcDbEntity
  8
1
100
AcDbLine
 10
1566.243540747229
 20
956.4496543457336
 30
0.0
 11
1946.243540747229
 21
956.4496543457339
 31
0.0
  0
LINE
  5
8D4E
330
19
100
AcDbEntity
  8
1
100
AcDbLine
 10
1566.243540747229
 20
916.4496543457335
 30
0.0
 11
1946.243540747229
 21
916.4496543457339
 31
0.0
  0
LINE
  5
8D4F
330
19
100
AcDbEntity
  8
1
100
AcDbLine
 10
1903.943540747229
 20
992.4496543457339
 30
0.0
 11
1903.943540747229
 21
956.4496543457339
 31
0.0
  0
LINE
  5
8D50
330
19
100
AcDbEntity
  8
1
100
AcDbLine
 10
1911.243540747229
 20
992.4496543457339
 30
0.0
 11
1883.943540747229
 21
992.4496543457339
 31
0.0
  0
LINE
  5
8D51
330
19
100
AcDbEntity
  8
1
100
AcDbLine
 10
933.3621764797682
 20
1374.360433914402
 30
0.0
 11
1105.43481735314
 21
1375.363560458475
 31
0.0
  0
ARC
  5
8D52
330
19
100
AcDbEntity
  8
1
100
AcDbCircle
 10
911.4348173531398
 20
1167.363560458475
 30
0.0
 40
139.0
100
AcDbArc
 50
269.6016449156545
 51
0.6359598980189495
  0
LINE
  5
8D53
330
19
100
AcDbEntity
  8
1
100
AcDbLine
 10
490.5831508190694
 20
1256.319530842735
 30
0.0
 11
970.5831508190694
 21
1256.319530842735
 31
0.0
  0
LINE
  5
8D54
330
19
100
AcDbEntity
  8
1
100
AcDbLine
 10
995.4348173531398
 20
1139.863560458475
 30
0.0
 11
995.4348173531398
 21
1143.063560458474
 31
0.0
  0
LINE
  5
8D55
330
19
100
AcDbEntity
  8
1
100
AcDbLine
 10
845.4348173531398
 20
1143.063560458474
 30
0.0
 11
845.4348173531398
 21
1139.863560458475
 31
0.0
  0
LINE
  5
8D56
330
19
100
AcDbEntity
  8
1
100
AcDbLine
 10
1012.93481735314
 20
1242.363560458475
 30
0.0
 11
1012.93481735314
 21
1139.863560458475
 31
0.0
  0
LINE
  5
8D57
330
19
100
AcDbEntity
  8
1
100
AcDbLine
 10
1018.93481735314
 20
1242.363560458475
 30
0.0
 11
1018.93481735314
 21
1139.863560458475
 31
0.0
  0
LINE
  5
8D58
330
19
100
AcDbEntity
  8
1
100
AcDbLine
 10
827.9348173531397
 20
1242.363560458475
 30
0.0
 11
827.9348173531397
 21
1139.863560458475
 31
0.0
  0
LINE
  5
8D59
330
19
100
AcDbEntity
  8
1
100
AcDbLine
 10
821.9348173531397
 20
1242.363560458475
 30
0.0
 11
821.9348173531397
 21
1139.863560458475
 31
0.0
  0
ARC
  5
8D5A
330
19
100
AcDbEntity
  8
1
100
AcDbCircle
 10
909.4348173531399
 20
1187.363560458474
 30
0.0
 40
159.0
100
AcDbArc
 50
224.275821711518
 51
270.3724595314142
  0
LINE
  5
8D5B
330
19
100
AcDbEntity
  8
1
100
AcDbLine
 10
815.4348173531397
 20
1139.863560458475
 30
0.0
 11
1025.43481735314
 21
1139.863560458475
 31
0.0
  0
LINE
  5
8D5C
330
19
100
AcDbEntity
  8
1
100
AcDbLine
 10
815.4348173531397
 20
1136.663560458475
 30
0.0
 11
1025.43481735314
 21
1136.663560458475
 31
0.0
  0
LINE
  5
8D5D
330
19
100
AcDbEntity
  8
1
100
AcDbLine
 10
815.4348173531397
 20
1139.863560458475
 30
0.0
 11
815.4348173531397
 21
1136.663560458475
 31
0.0
  0
LINE
  5
8D5E
330
19
100
AcDbEntity
  8
1
100
AcDbLine
 10
1025.43481735314
 20
1139.863560458475
 30
0.0
 11
1025.43481735314
 21
1136.663560458475
 31
0.0
  0
LINE
  5
8D5F
330
19
100
AcDbEntity
  8
1
100
AcDbLine
 10
995.4348173531398
 20
1143.063560458474
 30
0.0
 11
845.4348173531398
 21
1143.063560458474
 31
0.0
  0
LINE
  5
8D60
330
19
100
AcDbEntity
  8
1
100
AcDbLine
 10
821.9348173531397
 20
1242.363560458475
 30
0.0
 11
827.9348173531397
 21
1242.363560458475
 31
0.0
  0
LINE
  5
8D61
330
19
100
AcDbEntity
  8
1
100
AcDbLine
 10
1012.93481735314
 20
1242.363560458475
 30
0.0
 11
1018.93481735314
 21
1242.363560458475
 31
0.0
  0
LINE
  5
8D62
330
19
100
AcDbEntity
  8
1
100
AcDbLine
 10
1085.43481735314
 20
1397.3635264743
 30
0.0
 11
1085.43481735314
 21
1153.363560458474
 31
0.0
  0
LINE
  5
8D63
330
19
100
AcDbEntity
  8
1
100
AcDbLine
 10
1105.43481735314
 20
1397.3635264743
 30
0.0
 11
1105.43481735314
 21
1165.363560458475
 31
0.0
  0
LINE
  5
8D64
330
19
100
AcDbEntity
  8
1
100
AcDbLine
 10
1050.333969892615
 20
1175.363560458475
 30
0.0
 11
1105.43481735314
 21
1175.363560458475
 31
0.0
  0
ARC
  5
8D65
330
19
100
AcDbEntity
  8
1
100
AcDbCircle
 10
926.4348173531399
 20
1170.363560458475
 30
0.0
 40
124.0
100
AcDbArc
 50
359.32667218061
 51
2.310940209102113
  0
LINE
  5
8D66
330
19
100
AcDbEntity
  8
1
100
AcDbLine
 10
1085.43481735314
 20
1173.363560458474
 30
0.0
 11
1085.43481735314
 21
1172.363560458475
 31
0.0
  0
LINE
  5
8D67
330
19
100
AcDbEntity
  8
1
100
AcDbLine
 10
1105.43481735314
 20
1153.363560458474
 30
0.0
 11
1105.43481735314
 21
1173.363560458474
 31
0.0
  0
LINE
  5
8D68
330
19
100
AcDbEntity
  8
1
100
AcDbLine
 10
1085.43481735314
 20
1153.363560458474
 30
0.0
 11
1105.43481735314
 21
1153.363560458474
 31
0.0
  0
LINE
  5
8D69
330
19
100
AcDbEntity
  8
1
100
AcDbLine
 10
2061.243540747229
 20
1375.449654345733
 30
0.0
 11
2061.243540747229
 21
1175.449654345733
 31
0.0
  0
LINE
  5
8D6A
330
19
100
AcDbEntity
  8
1
100
AcDbLine
 10
1911.243540747229
 20
1375.449654345733
 30
0.0
 11
1911.243540747229
 21
1175.449654345733
 31
0.0
  0
LINE
  5
8D6B
330
19
100
AcDbEntity
  8
1
100
AcDbLine
 10
2084.243540747229
 20
1286.449654345733
 30
0.0
 11
2084.243540747229
 21
1066.449654345733
 31
0.0
  0
LINE
  5
8D6C
330
19
100
AcDbEntity
  8
1
100
AcDbLine
 10
1628.243540747228
 20
1139.949654345733
 30
0.0
 11
1883.943540747229
 21
1139.949654345733
 31
0.0
  0
LINE
  5
8D6D
330
19
100
AcDbEntity
  8
1
100
AcDbLine
 10
1614.443540747229
 20
1226.449654345733
 30
0.0
 11
1614.443540747229
 21
1131.999654345734
 31
0.0
  0
LINE
  5
8D6E
330
19
100
AcDbEntity
  8
1
100
AcDbLine
 10
1576.44354074723
 20
1226.449654345733
 30
0.0
 11
1576.443540747228
 21
1131.999654345734
 31
0.0
  0
LINE
  5
8D6F
330
19
100
AcDbEntity
  8
1
100
AcDbLine
 10
1576.443540747228
 20
1131.999654345734
 30
0.0
 11
1576.443540747227
 21
1016.363560458475
 31
0.0
  0
LINE
  5
8D70
330
19
100
AcDbEntity
  8
1
100
AcDbLine
 10
1614.443540747229
 20
1131.999654345734
 30
0.0
 11
1614.443540747229
 21
1016.363560458475
 31
0.0
  0
LINE
  5
8D71
330
19
100
AcDbEntity
  8
1
100
AcDbLine
 10
1553.243540747228
 20
1256.455619431852
 30
0.0
 11
1628.243540747228
 21
1256.455619431852
 31
0.0
  0
LINE
  5
8D72
330
19
100
AcDbEntity
  8
1
100
AcDbLine
 10
1614.443540747229
 20
1166.949654345733
 30
0.0
 11
1624.443540747229
 21
1166.949654345733
 31
0.0
  0
LINE
  5
8D73
330
19
100
AcDbEntity
  8
1
100
AcDbLine
 10
1624.443540747229
 20
1166.449654345733
 30
0.0
 11
1651.143540747229
 21
1166.449654345733
 31
0.0
  0
LINE
  5
8D74
330
19
100
AcDbEntity
  8
1
100
AcDbLine
 10
1883.943540747229
 20
1166.449654345733
 30
0.0
 11
1624.443540747229
 21
1166.449654345733
 31
0.0
  0
LINE
  5
8D75
330
19
100
AcDbEntity
  8
1
100
AcDbLine
 10
1614.443540747229
 20
1185.949654345733
 30
0.0
 11
1624.443540747229
 21
1185.949654345733
 31
0.0
  0
LINE
  5
8D76
330
19
100
AcDbEntity
  8
1
100
AcDbLine
 10
2064.243540747229
 20
1066.449654345733
 30
0.0
 11
2084.243540747229
 21
1066.449654345733
 31
0.0
  0
LINE
  5
8D77
330
19
100
AcDbEntity
  8
1
100
AcDbLine
 10
2084.243540747229
 20
1066.449654345733
 30
0.0
 11
2084.243540747229
 21
1065.449654345733
 31
0.0
  0
ARC
  5
8D78
330
19
100
AcDbEntity
  8
1
100
AcDbCircle
 10
2082.243540747228
 20
1065.449654345733
 30
0.0
 40
2.0
100
AcDbArc
 50
270.0
 51
0.0
  0
LINE
  5
8D79
330
19
100
AcDbEntity
  8
1
100
AcDbLine
 10
2082.243540747228
 20
1063.449654345733
 30
0.0
 11
2071.243540747229
 21
1063.449654345733
 31
0.0
  0
ARC
  5
8D7A
330
19
100
AcDbEntity
  8
1
100
AcDbCircle
 10
2071.243540747229
 20
1059.449654345733
 30
0.0
 40
4.0
100
AcDbArc
 50
90.0
 51
180.0
  0
LINE
  5
8D7B
330
19
100
AcDbEntity
  8
1
100
AcDbLine
 10
2067.243540747229
 20
1059.449654345733
 30
0.0
 11
2067.243540747229
 21
1048.449654345733
 31
0.0
  0
ARC
  5
8D7C
330
19
100
AcDbEntity
  8
1
100
AcDbCircle
 10
2065.243540747228
 20
1048.449654345733
 30
0.0
 40
2.0
100
AcDbArc
 50
270.0
 51
0.0
  0
LINE
  5
8D7D
330
19
100
AcDbEntity
  8
1
100
AcDbLine
 10
2065.243540747228
 20
1046.449654345733
 30
0.0
 11
2064.243540747229
 21
1046.449654345733
 31
0.0
  0
LINE
  5
8D7E
330
19
100
AcDbEntity
  8
1
100
AcDbLine
 10
2064.243540747229
 20
1046.449654345733
 30
0.0
 11
2064.243540747229
 21
1066.449654345733
 31
0.0
  0
LINE
  5
8D7F
330
19
100
AcDbEntity
  8
1
100
AcDbLine
 10
2061.243540747229
 20
1046.449654345733
 30
0.0
 11
2064.243540747229
 21
1046.449654345733
 31
0.0
  0
LINE
  5
8D80
330
19
100
AcDbEntity
  8
1
100
AcDbLine
 10
1883.943540747229
 20
1242.449654345733
 30
0.0
 11
1891.243540747227
 21
1242.449654345733
 31
0.0
  0
LINE
  5
8D81
330
19
100
AcDbEntity
  8
1
100
AcDbLine
 10
2061.243540747228
 20
1155.449654345733
 30
0.0
 11
2061.243540747229
 21
1153.449654345733
 31
0.0
  0
LINE
  5
8D82
330
19
100
AcDbEntity
  8
1
100
AcDbLine
 10
2082.243540747228
 20
1289.449654345733
 30
0.0
 11
2081.243540747228
 21
1289.449654345733
 31
0.0
  0
ARC
  5
8D83
330
19
100
AcDbEntity
  8
1
100
AcDbCircle
 10
2082.243540747228
 20
1287.449654345733
 30
0.0
 40
2.0
100
AcDbArc
 50
0.0
 51
90.0
  0
LINE
  5
8D84
330
19
100
AcDbEntity
  8
1
100
AcDbLine
 10
2084.243540747229
 20
1286.449654345733
 30
0.0
 11
2084.243540747229
 21
1287.449654345733
 31
0.0
  0
LINE
  5
8D85
330
19
100
AcDbEntity
  8
1
100
AcDbLine
 10
2081.243540747229
 20
1286.449654345733
 30
0.0
 11
2084.243540747229
 21
1286.449654345733
 31
0.0
  0
LINE
  5
8D86
330
19
100
AcDbEntity
  8
1
100
AcDbLine
 10
1095.43481735314
 20
916.3635604584747
 30
0.0
 11
475.4348173531398
 21
916.3635604584747
 31
0.0
  0
LINE
  5
8D87
330
19
100
AcDbEntity
  8
1
100
AcDbLine
 10
1105.43481735314
 20
1397.3635264743
 30
0.0
 11
1085.43481735314
 21
1397.3635264743
 31
0.0
  0
DIMENSION
  5
8D88
330
19
100
AcDbEntity
  8
3
100
AcDbDimension
280
     0
  2
*D11
 10
1167.551925903866
 20
1375.363560458475
 30
0.0
 11
1137.551925903866
 21
1275.363560458475
 31
0.0
 70
    32
 71
     5
 42
200.0
 73
     0
 74
     0
 75
     0
  3
IGA
100
AcDbAlignedDimension
 13
1105.43481735314
 23
1175.363560458475
 33
0.0
 14
1105.43481735314
 24
1375.363560458475
 34
0.0
 50
270.0
100
AcDbRotatedDimension
1001
ACAD
1000
DSTYLE
1002
{
1070
    40
1040
12.0
1070
   143
1040
0.039
1070
   172
1070
     1
1070
   271
1070
     0
1070
   279
1070
     0
1070
   288
1070
     1
1002
}
  0
DIMENSION
  5
8D89
330
19
100
AcDbEntity
  8
3
100
AcDbDimension
280
     0
  2
*D12
 10
1257.435448099399
 20
1375.363560458475
 30
0.0
 11
1227.435448099398
 21
1275.863560458474
 31
0.0
 70
    32
 71
     5
 42
199.0000000000002
 73
     0
 74
     0
 75
     0
  3
IGA
100
AcDbAlignedDimension
 13
1105.79921947731
 23
1176.363560458474
 33
0.0
 14
1105.43481735314
 24
1375.363560458475
 34
0.0
 50
270.0
100
AcDbRotatedDimension
1001
ACAD
1000
DSTYLE
1002
{
1070
    40
1040
12.0
1070
   143
1040
0.039
1070
   172
1070
     1
1070
   271
1070
     0
1070
   279
1070
     0
1070
   288
1070
     1
1002
}
  0
DIMENSION
  5
8D8A
330
19
100
AcDbEntity
  8
3
100
AcDbDimension
280
     0
  2
*D13
 10
1257.435448099399
 20
916.3635604584747
 30
0.0
 11
1227.435448099398
 21
1046.363560458474
 31
0.0
 70
    32
 71
     5
 42
259.9999999999998
 73
     0
 74
     0
 75
     0
  3
IGA
100
AcDbAlignedDimension
 13
1105.79921947731
 23
1176.363560458474
 33
0.0
 14
1095.43481735314
 24
916.3635604584747
 34
0.0
 50
90.0
100
AcDbRotatedDimension
1001
ACAD
1000
DSTYLE
1002
{
1070
    40
1040
12.0
1070
   143
1040
0.039
1070
   172
1070
     1
1070
   271
1070
     0
1070
   279
1070
     0
1070
   288
1070
     1
1002
}
  0
DIMENSION
  5
8D8B
330
19
100
AcDbEntity
  8
3
100
AcDbDimension
280
     0
  2
*D14
 10
920.4348173531398
 20
1461.605496850615
 30
0.0
 11
1012.93481735314
 21
1491.605496850615
 31
0.0
 70
    32
 71
     5
 42
185.0000000000009
 73
     0
 74
     0
 75
     0
  3
IGA
100
AcDbAlignedDimension
 13
1105.43481735314
 23
1397.3635264743
 33
0.0
 14
920.4348173531398
 24
1414.554234797001
 34
0.0
100
AcDbRotatedDimension
1001
ACAD
1000
DSTYLE
1002
{
1070
    40
1040
12.0
1070
   143
1040
0.039
1070
   172
1070
     1
1070
   271
1070
     0
1070
   279
1070
     0
1070
   288
1070
     1
1002
}
  0
LINE
  5
8D8C
330
19
100
AcDbEntity
  8
1
100
AcDbLine
 10
1946.243540747229
 20
916.4496543457339
 30
0.0
 11
1946.243540747229
 21
956.4496543457339
 31
0.0
  0
LINE
  5
8D8D
330
19
100
AcDbEntity
  8
1
100
AcDbLine
 10
1566.24354074723
 20
916.4496543457335
 30
0.0
 11
1566.243540747229
 21
956.4496543457336
 31
0.0
  0
LINE
  5
8D8E
330
19
100
AcDbEntity
  8
1
100
AcDbLine
 10
1911.243540747229
 20
1375.449654345733
 30
0.0
 11
2061.243540747229
 21
1375.449654345733
 31
0.0
  0
LINE
  5
8D8F
330
19
100
AcDbEntity
  8
1
100
AcDbLine
 10
1911.243540747229
 20
1175.449654345733
 30
0.0
 11
2061.243540747229
 21
1175.449654345733
 31
0.0
  0
LINE
  5
8D90
330
19
100
AcDbEntity
  8
1
100
AcDbLine
 10
1911.243540747229
 20
1028.363560458474
 30
0.0
 11
2061.243540747229
 21
1028.363560458474
 31
0.0
  0
LINE
  5
8D91
330
19
100
AcDbEntity
  8
1
100
AcDbLine
 10
1883.943540747229
 20
1186.449654345733
 30
0.0
 11
1624.443540747229
 21
1186.449654345733
 31
0.0
  0
LINE
  5
8D92
330
19
100
AcDbEntity
  8
1
100
AcDbLine
 10
1624.443540747229
 20
1186.449654345733
 30
0.0
 11
1624.443540747229
 21
1185.949654345733
 31
0.0
  0
LINE
  5
8D93
330
19
100
AcDbEntity
  8
1
100
AcDbLine
 10
1624.443540747229
 20
1166.949654345733
 30
0.0
 11
1624.443540747229
 21
1166.449654345733
 31
0.0
  0
LINE
  5
8D94
330
19
100
AcDbEntity
  8
1
100
AcDbLine
 10
1628.243540747228
 20
956.4496543457336
 30
0.0
 11
1553.243540747228
 21
956.4496543457336
 31
0.0
  0
LINE
  5
8D95
330
19
100
AcDbEntity
  8
1
100
AcDbLine
 10
1891.243540747228
 20
1395.449654345733
 30
0.0
 11
2081.243540747229
 21
1395.449654345733
 31
0.0
  0
LINE
  5
8D96
330
19
100
AcDbEntity
  8
1
100
AcDbLine
 10
1891.243540747228
 20
1395.449654345733
 30
0.0
 11
1891.243540747228
 21
1155.449654345733
 31
0.0
  0
LINE
  5
8D97
330
19
100
AcDbEntity
  8
1
100
AcDbLine
 10
2081.243540747229
 20
1395.449654345733
 30
0.0
 11
2081.243540747229
 21
1155.449654345733
 31
0.0
  0
LINE
  5
8D98
330
19
100
AcDbEntity
  8
1
100
AcDbLine
 10
1891.243540747228
 20
1155.449654345733
 30
0.0
 11
2081.243540747229
 21
1155.449654345733
 31
0.0
  0
LINE
  5
8D99
330
19
100
AcDbEntity
  8
2
100
AcDbLine
 10
1522.856657069362
 20
1066.363560458475
 30
0.0
 11
1657.875597485854
 21
1066.363560458475
 31
0.0
  0
DIMENSION
  5
8D9A
330
19
100
AcDbEntity
  8
3
100
AcDbDimension
280
     0
  2
*D15
 10
475.4348173531398
 20
1539.944588401188
 30
0.0
 11
790.4348173531403
 21
1569.944588401188
 31
0.0
 70
    32
 71
     5
 42
630.0000000000009
 73
     0
 74
     0
 75
     0
  3
IGA
100
AcDbAlignedDimension
 13
1105.43481735314
 23
1402.3635264743
 33
0.0
 14
475.4348173531398
 24
956.3635604584746
 34
0.0
100
AcDbRotatedDimension
1001
ACAD
1000
DSTYLE
1002
{
1070
    40
1040
12.0
1070
   143
1040
0.039
1070
   172
1070
     1
1070
   271
1070
     0
1070
   279
1070
     0
1070
   288
1070
     1
1002
}
  0
LINE
  5
8D9B
330
19
100
AcDbEntity
  8
1
100
AcDbLine
 10
1105.43481735314
 20
2518.523719253987
 30
0.0
 11
1105.43481735314
 21
2328.523719253987
 31
0.0
  0
DIMENSION
  5
8D9C
330
19
100
AcDbEntity
  8
3
100
AcDbDimension
280
     0
  2
*D16
 10
750.4348173531402
 20
1461.605496850615
 30
0.0
 11
835.43481735314
 21
1491.605496850615
 31
0.0
 70
    32
 71
     5
 42
169.9999999999995
 73
     0
 74
     0
 75
     0
  3
IGA
100
AcDbAlignedDimension
 13
920.4348173531398
 23
1414.554234797001
 33
0.0
 14
750.4348173531402
 24
1190.363560458475
 34
0.0
100
AcDbRotatedDimension
1001
ACAD
1000
DSTYLE
1002
{
1070
    40
1040
12.0
1070
   143
1040
0.039
1070
   172
1070
     1
1070
   271
1070
     0
1070
   279
1070
     0
1070
   288
1070
     1
1002
}
  0
LINE
  5
8D9D
330
19
100
AcDbEntity
  8
1
100
AcDbLine
 10
750.4348173531402
 20
2498.523719253987
 30
0.0
 11
750.4348173531398
 21
2348.523719253987
 31
0.0
  0
LINE
  5
8D9E
330
19
100
AcDbEntity
  8
2
100
AcDbLine
 10
1128.998702187905
 20
2423.523719253987
 30
0.0
 11
673.0146951365286
 21
2423.523719253987
 31
0.0
  0
LINE
  5
8D9F
330
19
100
AcDbEntity
  8
1
100
AcDbLine
 10
1085.43481735314
 20
2498.523719253987
 30
0.0
 11
750.4348173531398
 21
2498.523719253987
 31
0.0
  0
LINE
  5
8DA0
330
19
100
AcDbEntity
  8
1
100
AcDbLine
 10
1085.43481735314
 20
2348.523719253987
 30
0.0
 11
750.4348173531398
 21
2348.523719253987
 31
0.0
  0
LINE
  5
8DA1
330
19
100
AcDbEntity
  8
1
100
AcDbLine
 10
1105.43481735314
 20
2518.523719253987
 30
0.0
 11
1085.43481735314
 21
2518.523719253987
 31
0.0
  0
LINE
  5
8DA2
330
19
100
AcDbEntity
  8
1
100
AcDbLine
 10
1105.43481735314
 20
2328.523719253987
 30
0.0
 11
1085.43481735314
 21
2328.523719253987
 31
0.0
  0
LINE
  5
8DA3
330
19
100
AcDbEntity
  8
1
100
AcDbLine
 10
1085.43481735314
 20
2518.523719253987
 30
0.0
 11
1085.43481735314
 21
2328.523719253987
 31
0.0
  0
LINE
  5
8DA4
330
19
100
AcDbEntity
  8
1
100
AcDbLine
 10
1095.43481735314
 20
2328.523719253987
 30
0.0
 11
1095.43481735314
 21
2003.523719253987
 31
0.0
  0
LINE
  5
8DA5
330
19
100
AcDbEntity
  8
1
100
AcDbLine
 10
1055.43481735314
 20
2348.523719253987
 30
0.0
 11
1055.43481735314
 21
2003.523719253987
 31
0.0
  0
LINE
  5
8DA6
330
19
100
AcDbEntity
  8
2
100
AcDbLine
 10
920.4348173531398
 20
1977.729123982349
 30
0.0
 11
920.4348173531398
 21
2530.991424846567
 31
0.0
  0
LINE
  5
8DA7
330
19
100
AcDbEntity
  8
1
100
AcDbLine
 10
1000.440782439258
 20
1990.523719253986
 30
0.0
 11
1000.440782439258
 21
2065.523719253986
 31
0.0
  0
LINE
  5
8DA8
330
19
100
AcDbEntity
  8
1
100
AcDbLine
 10
1000.440782439258
 20
1990.523719253986
 30
0.0
 11
490.5831508190694
 21
1990.523719253986
 31
0.0
  0
LINE
  5
8DA9
330
19
100
AcDbEntity
  8
1
100
AcDbLine
 10
875.98481735314
 20
2013.723719253986
 30
0.0
 11
540.4348173531397
 21
2013.723719253984
 31
0.0
  0
LINE
  5
8DAA
330
19
100
AcDbEntity
  8
1
100
AcDbLine
 10
875.98481735314
 20
2051.723719253987
 30
0.0
 11
540.4348173531397
 21
2051.723719253987
 31
0.0
  0
LINE
  5
8DAB
330
19
100
AcDbEntity
  8
1
100
AcDbLine
 10
1000.440782439258
 20
2065.523719253986
 30
0.0
 11
490.5831508190694
 21
2065.523719253986
 31
0.0
  0
LINE
  5
8DAC
330
19
100
AcDbEntity
  8
1
100
AcDbLine
 10
910.4348173531398
 20
2348.523719253987
 30
0.0
 11
910.4348173531398
 21
2061.723719253987
 31
0.0
  0
LINE
  5
8DAD
330
19
100
AcDbEntity
  8
1
100
AcDbLine
 10
930.4348173531398
 20
2348.523719253987
 30
0.0
 11
930.4348173531398
 21
2061.723719253987
 31
0.0
  0
LINE
  5
8DAE
330
19
100
AcDbEntity
  8
1
100
AcDbLine
 10
970.4348173531398
 20
2013.723719253987
 30
0.0
 11
875.98481735314
 21
2013.723719253986
 31
0.0
  0
LINE
  5
8DAF
330
19
100
AcDbEntity
  8
1
100
AcDbLine
 10
970.4348173531398
 20
2051.723719253987
 30
0.0
 11
875.98481735314
 21
2051.723719253987
 31
0.0
  0
LINE
  5
8DB0
330
19
100
AcDbEntity
  8
1
100
AcDbLine
 10
883.9348173531398
 20
2065.523719253987
 30
0.0
 11
976.9348173531398
 21
2065.523719253987
 31
0.0
  0
LINE
  5
8DB1
330
19
100
AcDbEntity
  8
1
100
AcDbLine
 10
929.9348173531397
 20
2051.723719253987
 30
0.0
 11
929.9348173531397
 21
2061.723719253987
 31
0.0
  0
LINE
  5
8DB2
330
19
100
AcDbEntity
  8
1
100
AcDbLine
 10
910.9348173531397
 20
2051.723719253987
 30
0.0
 11
910.9348173531397
 21
2061.723719253987
 31
0.0
  0
LINE
  5
8DB3
330
19
100
AcDbEntity
  8
1
100
AcDbLine
 10
490.5831508190694
 20
2065.523719253986
 30
0.0
 11
490.5831508190694
 21
1990.523719253986
 31
0.0
  0
LINE
  5
8DB4
330
19
100
AcDbEntity
  8
1
100
AcDbLine
 10
515.4348173531402
 20
2087.723719253986
 30
0.0
 11
515.4348173531402
 21
2003.523719253987
 31
0.0
  0
LINE
  5
8DB5
330
19
100
AcDbEntity
  8
1
100
AcDbLine
 10
1020.43481735314
 20
2070.601323341624
 30
0.0
 11
1020.43481735314
 21
2348.523719253987
 31
0.0
  0
LINE
  5
8DB6
330
19
100
AcDbEntity
  8
1
100
AcDbLine
 10
820.4348173531398
 20
2070.601323341624
 30
0.0
 11
820.4348173531398
 21
2348.523719253987
 31
0.0
  0
LINE
  5
8DB7
330
19
100
AcDbEntity
  8
1
100
AcDbLine
 10
1020.43481735314
 20
2070.601323341624
 30
0.0
 11
930.4348173531398
 21
2070.601323341624
 31
0.0
  0
LINE
  5
8DB8
330
19
100
AcDbEntity
  8
1
100
AcDbLine
 10
910.4348173531407
 20
2070.601323341624
 30
0.0
 11
820.4348173531398
 21
2070.601323341624
 31
0.0
  0
DIMENSION
  5
8DB9
330
19
100
AcDbEntity
  8
3
100
AcDbDimension
280
     0
  2
*D17
 10
1986.243540747229
 20
1518.450616792897
 30
0.0
 11
2025.243540747229
 21
1551.401913525908
 31
0.0
 70
   160
  1
79
 71
     5
 42
77.99999999999909
 73
     0
 74
     0
 75
     0
  3
IGA
100
AcDbAlignedDimension
 13
2064.243540747229
 23
1066.449654345733
 33
0.0
 14
1986.243540747229
 24
1477.055263359539
 34
0.0
100
AcDbRotatedDimension
1001
ACAD
1000
DSTYLE
1002
{
1070
   288
1070
     1
1070
   172
1070
     1
1070
    40
1040
12.0
1070
   271
1070
     0
1070
   143
1040
0.039
1002
}
  0
DIMENSION
  5
8DBA
330
19
100
AcDbEntity
  8
3
100
AcDbDimension
280
     0
  2
*D18
 10
1553.243540747228
 20
1518.450616792897
 30
0.0
 11
1769.743540747229
 21
1587.879188221468
 31
0.0
 70
    32
  1
\P(520)
 71
     5
 42
433.0000000000008
 73
     0
 74
     0
 75
     0
  3
IGA
100
AcDbAlignedDimension
 13
1986.243540747229
 23
1477.055263359539
 33
0.0
 14
1553.243540747228
 24
1256.455619431852
 34
0.0
100
AcDbRotatedDimension
1001
ACAD
1000
DSTYLE
1002
{
1070
    40
1040
12.0
1070
   143
1040
0.039
1070
   172
1070
     1
1070
   271
1070
     0
1070
   279
1070
     0
1070
   288
1070
     1
1002
}
  0
DIMENSION
  5
8DBB
330
19
100
AcDbEntity
  8
3
100
AcDbDimension
280
     0
  2
*D19
 10
2061.243540747229
 20
1433.344554631639
 30
0.0
 11
1986.243540747229
 21
1462.574493836214
 31
0.0
 70
   160
 71
     5
 42
150.0
 73
     0
 74
     0
 75
     0
  3
IGA
100
AcDbAlignedDimension
 13
1911.243540747229
 23
1375.449654345733
 33
0.0
 14
2061.243540747229
 24
1375.449654345733
 34
0.0
100
AcDbRotatedDimension
1001
ACAD
1000
DSTYLE
1002
{
1070
   288
1070
     1
1070
   172
1070
     1
1070
    40
1040
12.0
1070
   271
1070
     0
1070
   143
1040
0.039
1002
}
  0
DIMENSION
  5
8DBC
330
19
100
AcDbEntity
  8
3
100
AcDbDimension
280
     0
  2
*D20
 10
2165.260580611068
 20
1066.449654345733
 30
0.0
 11
2135.260580611067
 21
1176.449654345733
 31
0.0
 70
    32
 71
     5
 42
220.0
 73
     0
 74
     0
 75
     0
  3
IGA
100
AcDbAlignedDimension
 13
2084.243540747229
 23
1286.449654345733
 33
0.0
 14
2084.243540747229
 24
1066.449654345733
 34
0.0
 50
90.0
100
AcDbRotatedDimension
1001
ACAD
1000
DSTYLE
1002
{
1070
     3
1000
φ<>
1070
    40
1040
12.0
1070
   143
1040
0.039
1070
   172
1070
     1
1070
   271
1070
     0
1070
   279
1070
     0
1070
   288
1070
     1
1002
}
  0
LINE
  5
8DBD
330
19
100
AcDbEntity
  8
1
100
AcDbLine
 10
1911.243540747229
 20
1375.449654345733
 30
0.0
 11
2061.243540747229
 21
1175.449654345733
 31
0.0
  0
LINE
  5
8DBE
330
19
100
AcDbEntity
  8
1
100
AcDbLine
 10
1911.243540747229
 20
1175.449654345733
 30
0.0
 11
2061.243540747229
 21
1375.449654345733
 31
0.0
  0
ARC
  5
8DBF
330
19
100
AcDbEntity
  8
1
100
AcDbCircle
 10
590.4348173531397
 20
1066.363560458475
 30
0.0
 40
85.0
100
AcDbArc
 50
0.0
 51
244.1244660000032
  0
LINE
  5
8DC0
330
19
100
AcDbEntity
  8
2
100
AcDbLine
 10
590.4348173531397
 20
1179.00843556412
 30
0.0
 11
590.4348173531397
 21
911.4246283946163
 31
0.0
  0
ARC
  5
8DC1
330
19
100
AcDbEntity
  8
1
100
AcDbCircle
 10
590.4348173531397
 20
1066.363560458475
 30
0.0
 40
85.0
100
AcDbArc
 50
0.0
 51
244.1244660000032
  0
LINE
  5
8DC2
330
19
100
AcDbEntity
  8
1
100
AcDbLine
 10
482.9348173531398
 20
956.3635604584742
 30
0.0
 11
697.9348173531398
 21
956.3635604584746
 31
0.0
  0
LINE
  5
8DC3
330
19
100
AcDbEntity
  8
1
100
AcDbLine
 10
487.9348173531393
 20
986.3635604584747
 30
0.0
 11
692.9348173531393
 21
986.3635604584747
 31
0.0
  0
LINE
  5
8DC4
330
19
100
AcDbEntity
  8
2
100
AcDbLine
 10
472.5524545224925
 20
1066.363560458475
 30
0.0
 11
699.6698458641803
 21
1066.363560458475
 31
0.0
  0
LINE
  5
8DC5
330
19
100
AcDbEntity
  8
1
100
AcDbLine
 10
508.6602197873758
 20
986.3635604584747
 30
0.0
 11
528.1116493531398
 21
1008.545056458474
 31
0.0
  0
LINE
  5
8DC6
330
19
100
AcDbEntity
  8
1
100
AcDbLine
 10
487.9348173531398
 20
986.3635604584747
 30
0.0
 11
482.9348173531398
 21
956.3635604584742
 31
0.0
  0
LINE
  5
8DC7
330
19
100
AcDbEntity
  8
1
100
AcDbLine
 10
512.9348173531398
 20
986.3635604584747
 30
0.0
 11
547.9348173531398
 21
986.3635604584747
 31
0.0
  0
ARC
  5
8DC8
330
19
100
AcDbEntity
  8
1
100
AcDbCircle
 10
590.4348173531397
 20
1066.363560458475
 30
0.0
 40
85.000008
100
AcDbArc
 50
295.9177260000004
 51
0.0
  0
LINE
  5
8DC9
330
19
100
AcDbEntity
  8
1
100
AcDbLine
 10
672.2093260277338
 20
986.3635604584747
 30
0.0
 11
652.7561253531398
 21
1008.547198458474
 31
0.0
  0
LINE
  5
8DCA
330
19
100
AcDbEntity
  8
1
100
AcDbLine
 10
553.3393183531398
 20
989.9126324584749
 30
0.0
 11
627.5866263531398
 21
989.9126324584749
 31
0.0
  0
LINE
  5
8DCB
330
19
100
AcDbEntity
  8
1
100
AcDbLine
 10
667.9348173531398
 20
986.3635604584747
 30
0.0
 11
632.9348173531398
 21
986.3635604584747
 31
0.0
  0
LINE
  5
8DCC
330
19
100
AcDbEntity
  8
1
100
AcDbLine
 10
692.9348173531393
 20
986.3635604584747
 30
0.0
 11
697.9348173531393
 21
956.3635604584746
 31
0.0
  0
LINE
  5
8DCD
330
19
100
AcDbEntity
  8
1
100
AcDbLine
 10
665.2348053531396
 20
2305.723719253986
 30
0.0
 11
665.2348053531396
 21
2087.723719253986
 31
0.0
  0
LINE
  5
8DCE
330
19
100
AcDbEntity
  8
1
100
AcDbLine
 10
512.4348173531398
 20
2087.723719253985
 30
0.0
 11
512.4348173531398
 21
2305.723719253986
 31
0.0
  0
LINE
  5
8DCF
330
19
100
AcDbEntity
  8
2
100
AcDbLine
 10
590.4348173531397
 20
2311.397364253986
 30
0.0
 11
590.4348173531397
 21
1978.976589919976
 31
0.0
  0
LINE
  5
8DD0
330
19
100
AcDbEntity
  8
1
100
AcDbLine
 10
665.2348053531396
 20
2305.723719253986
 30
0.0
 11
512.4348173531398
 21
2305.723719253986
 31
0.0
  0
LINE
  5
8DD1
330
19
100
AcDbEntity
  8
1
100
AcDbLine
 10
556.9348173531397
 20
2077.723719253986
 30
0.0
 11
623.9348173531397
 21
2077.723719253986
 31
0.0
  0
LINE
  5
8DD2
330
19
100
AcDbEntity
  8
1
100
AcDbLine
 10
512.4348173531398
 20
2087.723719253986
 30
0.0
 11
665.2348053531396
 21
2087.723719253986
 31
0.0
  0
LINE
  5
8DD3
330
19
100
AcDbEntity
  8
1
100
AcDbLine
 10
600.9348173531398
 20
2072.723719253986
 30
0.0
 11
600.9348173531398
 21
2077.723719253986
 31
0.0
  0
LINE
  5
8DD4
330
19
100
AcDbEntity
  8
1
100
AcDbLine
 10
579.9348173531398
 20
2072.723719253986
 30
0.0
 11
579.9348173531398
 21
2077.723719253986
 31
0.0
  0
LINE
  5
8DD5
330
19
100
AcDbEntity
  8
1
100
AcDbLine
 10
556.9348173531397
 20
2087.723719253986
 30
0.0
 11
556.9348173531397
 21
2077.723719253986
 31
0.0
  0
LINE
  5
8DD6
330
19
100
AcDbEntity
  8
1
100
AcDbLine
 10
560.4998203531395
 20
2087.723719253986
 30
0.0
 11
551.8698153531395
 21
2087.723719253986
 31
0.0
  0
LINE
  5
8DD7
330
19
100
AcDbEntity
  8
1
100
AcDbLine
 10
562.6848783531395
 20
2087.723719253986
 30
0.0
 11
550.4209443531399
 21
2087.723719253986
 31
0.0
  0
LINE
  5
8DD8
330
19
100
AcDbEntity
  8
1
100
AcDbLine
 10
551.7506133531396
 20
2087.723719253986
 30
0.0
 11
560.7506133531396
 21
2087.723719253986
 31
0.0
  0
LINE
  5
8DD9
330
19
100
AcDbEntity
  8
1
100
AcDbLine
 10
599.9348173531398
 20
2072.723719253986
 30
0.0
 11
599.9348173531398
 21
2065.523719253986
 31
0.0
  0
LINE
  5
8DDA
330
19
100
AcDbEntity
  8
1
100
AcDbLine
 10
580.9348173531398
 20
2065.523719253986
 30
0.0
 11
580.9348173531398
 21
2072.723719253986
 31
0.0
  0
LINE
  5
8DDB
330
19
100
AcDbEntity
  8
1
100
AcDbLine
 10
579.9348173531398
 20
2072.723719253986
 30
0.0
 11
600.9348173531398
 21
2072.723719253986
 31
0.0
  0
LINE
  5
8DDC
330
19
100
AcDbEntity
  8
1
100
AcDbLine
 10
623.9348173531397
 20
2077.723719253986
 30
0.0
 11
623.9348173531397
 21
2087.723719253986
 31
0.0
  0
LINE
  5
8DDD
330
19
100
AcDbEntity
  8
1
100
AcDbLine
 10
663.2498203531395
 20
2087.723719253986
 30
0.0
 11
654.6198153531395
 21
2087.723719253986
 31
0.0
  0
LINE
  5
8DDE
330
19
100
AcDbEntity
  8
1
100
AcDbLine
 10
654.5006133531396
 20
2087.723719253986
 30
0.0
 11
663.5006133531397
 21
2087.723719253986
 31
0.0
  0
ARC
  5
8DDF
330
19
100
AcDbEntity
  8
1
100
AcDbCircle
 10
659.0091123531401
 20
2086.723719253986
 30
0.0
 40
2.0
100
AcDbArc
 50
11.13904000000021
 51
29.99999999999588
  0
LINE
  5
8DE0
330
19
100
AcDbEntity
  8
1
100
AcDbLine
 10
1868.443540747228
 20
1141.163548458475
 30
0.0
 11
1650.443540747228
 21
1141.163548458474
 31
0.0
  0
LINE
  5
8DE1
330
19
100
AcDbEntity
  8
1
100
AcDbLine
 10
1868.443540747228
 20
1141.163548458475
 30
0.0
 11
1868.443540747228
 21
1139.949654345733
 31
0.0
  0
LINE
  5
8DE2
330
19
100
AcDbEntity
  8
1
100
AcDbLine
 10
1632.94354074723
 20
1075.863560458474
 30
0.0
 11
1614.443540747228
 21
1075.863560458474
 31
0.0
  0
LINE
  5
8DE3
330
19
100
AcDbEntity
  8
1
100
AcDbLine
 10
1614.443540747228
 20
1056.863560458475
 30
0.0
 11
1632.94354074723
 21
1056.863560458475
 31
0.0
  0
LINE
  5
8DE4
330
19
100
AcDbEntity
  8
1
100
AcDbLine
 10
1650.443540747228
 20
1141.163548458474
 30
0.0
 11
1650.443540747228
 21
1139.949654345733
 31
0.0
  0
LINE
  5
8DE5
330
19
100
AcDbEntity
  8
4
100
AcDbLine
 10
2220.0
 20
600.0
 30
0.0
 11
2220.0
 21
360.0
 31
0.0
  0
LINE
  5
8DE6
330
19
100
AcDbEntity
  8
4
100
AcDbLine
 10
1380.0
 20
600.0
 30
0.0
 11
1380.0
 21
360.0
 31
0.0
  0
LINE
  5
8DE7
330
19
100
AcDbEntity
  8
4
100
AcDbLine
 10
780.0
 20
600.0
 30
0.0
 11
780.0
 21
360.0
 31
0.0
  0
LINE
  5
8DE8
330
19
100
AcDbEntity
  8
4
100
AcDbLine
 10
780.0
 20
360.0
 30
0.0
 11
2220.0
 21
360.0
 31
0.0
  0
LINE
  5
8DE9
330
19
100
AcDbEntity
  8
4
100
AcDbLine
 10
780.0
 20
480.0
 30
0.0
 11
2220.0
 21
480.0
 31
0.0
  0
TEXT
  5
8DEA
330
19
100
AcDbEntity
  8
4
100
AcDbText
 10
826.2024970162819
 20
517.8516310399354
 30
0.0
 40
60.0
  1
機器名称
100
AcDbText
  0
TEXT
  5
8DEB
330
19
100
AcDbEntity
  8
4
100
AcDbText
 10
823.509727229757
 20
385.9741880784131
 30
0.0
 40
60.0
  1
機器型番
100
AcDbText
  0
TEXT
  5
8DEC
330
19
100
AcDbEntity
  8
4
100
AcDbText
 10
1413.214494585198
 20
507.0861227490822
 30
0.0
 40
60.0
  1
ミツヤ多翼送風機
100
AcDbText
  0
TEXT
  5
8DED
330
19
100
AcDbEntity
  8
4
100
AcDbText
 10
1423.985394702577
 20
380.5915011359321
 30
0.0
 40
60.0
  1
MF#1 1/4-1
100
AcDbText
  0
TEXT
  5
8DEE
330
19
100
AcDbEntity
  8
4
100
AcDbText
 10
889.8944015943744
 20
2860.114609599019
 30
0.0
 40
64.8
  1
床置防振ベット
100
AcDbText
  0
TEXT
  5
8DEF
330
19
100
AcDbEntity
  8
4
100
AcDbText
 10
379.4011119953357
 20
3040.657171439157
 30
0.0
 40
86.4
  1
遠心式片吸込片持多翼ファン
100
AcDbText
  0
LINE
  5
8DF0
330
19
100
AcDbEntity
  8
4
100
AcDbLine
 10
300.0
 20
2963.290505117766
 30
0.0
 11
2220.0
 21
2963.290505117766
 31
0.0
  0
LINE
  5
8DF1
330
19
100
AcDbEntity
  8
4
100
AcDbLine
 10
300.0
 20
3203.290505117766
 30
0.0
 11
2220.0
 21
3203.290505117766
 31
0.0
  0
LINE
  5
8DF2
330
19
100
AcDbEntity
  8
4
100
AcDbLine
 10
780.0
 20
600.0
 30
0.0
 11
2220.0
 21
600.0
 31
0.0
  0
LINE
  5
8DF3
330
19
100
AcDbEntity
  8
4
100
AcDbLine
 10
300.0
 20
3203.290505117766
 30
0.0
 11
300.0
 21
2963.290505117766
 31
0.0
  0
TEXT
  5
8DF4
330
19
100
AcDbEntity
  8
4
100
AcDbText
 10
366.8638029031317
 20
2858.783373055612
 30
0.0
 40
64.8
  1
右回転右横向
100
AcDbText
  0
TEXT
  5
8DF5
330
19
100
AcDbEntity
  8
4
100
AcDbText
 10
1762.763471099148
 20
3247.273297794371
 30
0.0
 40
67.2
  1
No.
100
AcDbText
  0
TEXT
  5
8DF6
330
19
100
AcDbEntity
  8
4
100
AcDbText
 10
1573.555275120016
 20
2860.114609599019
 30
0.0
 40
64.8
  1
縮尺：1/12
100
AcDbText
  0
LINE
  5
8DF7
330
19
100
AcDbEntity
  8
4
100
AcDbLine
 10
2220.0
 20
3203.290505117766
 30
0.0
 11
2220.0
 21
2963.290505117766
 31
0.0
  0
LINE
  5
8DF8
330
19
100
AcDbEntity
  8
4
100
AcDbLine
 10
2520.0
 20
3540.0
 30
0.0
 11
2520.0
 21
3540.0
 31
0.0
  0
LINE
  5
8DF9
330
19
100
AcDbEntity
  8
4
100
AcDbLine
 10
1728.740906831837
 20
3217.516299750482
 30
0.0
 11
1728.740906831837
 21
3343.982713859703
 31
0.0
  0
LINE
  5
8DFA
330
19
100
AcDbEntity
  8
4
100
AcDbLine
 10
1728.740906831837
 20
3343.982713859703
 30
0.0
 11
2220.0
 21
3343.982713859703
 31
0.0
  0
LINE
  5
8DFB
330
19
100
AcDbEntity
  8
4
100
AcDbLine
 10
2220.0
 20
3343.982713859703
 30
0.0
 11
2220.0
 21
3217.516299750482
 31
0.0
  0
LINE
  5
8DFC
330
19
100
AcDbEntity
  8
4
100
AcDbLine
 10
2220.0
 20
3217.516299750482
 30
0.0
 11
1728.740906831837
 21
3217.516299750482
 31
0.0
  0
LINE
  5
8DFD
330
19
100
AcDbEntity
  8
4
100
AcDbLine
 10
0.0
 20
0.0
 30
0.0
 11
0.0
 21
3540.0
 31
0.0
  0
LINE
  5
8DFE
330
19
100
AcDbEntity
  8
4
100
AcDbLine
 10
0.0
 20
3540.0
 30
0.0
 11
2520.0
 21
3540.0
 31
0.0
  0
LINE
  5
8DFF
330
19
100
AcDbEntity
  8
4
100
AcDbLine
 10
2520.0
 20
3540.0
 30
0.0
 11
2520.0
 21
0.0
 31
0.0
  0
LINE
  5
8E00
330
19
100
AcDbEntity
  8
4
100
AcDbLine
 10
2520.0
 20
0.0
 30
0.0
 11
0.0
 21
0.0
 31
0.0
  0
CIRCLE
  5
8E01
330
19
100
AcDbEntity
  8
1
100
AcDbCircle
 10
920.4348173531398
 20
1176.363560458475
 30
0.0
 40
50.0
  0
CIRCLE
  5
8E02
330
19
100
AcDbEntity
  8
1
100
AcDbCircle
 10
590.4348173531397
 20
1066.363560458475
 30
0.0
 40
50.0
  0
LINE
  5
8E03
330
19
100
AcDbEntity
  8
1
100
AcDbLine
 10
904.623429052298
 20
1223.797725361
 30
0.0
 11
574.623429052298
 21
1113.797725361
 31
0.0
  0
LINE
  5
8E04
330
19
100
AcDbEntity
  8
1
100
AcDbLine
 10
936.2462056539817
 20
1128.929395555949
 30
0.0
 11
606.2462056539816
 21
1018.929395555949
 31
0.0
  0
LINE
  5
8E05
330
19
100
AcDbEntity
  8
1
100
AcDbLine
 10
1576.44354074723
 20
1226.449654345733
 30
0.0
 11
1614.443540747229
 21
1226.449654345733
 31
0.0
  0
LINE
  5
8E06
330
19
100
AcDbEntity
  8
1
100
AcDbLine
 10
1576.443540747228
 20
1126.449654345733
 30
0.0
 11
1614.443540747229
 21
1126.449654345733
 31
0.0
  0
LINE
  5
8E07
330
19
100
AcDbEntity
  8
1
100
AcDbLine
 10
1576.443540747228
 20
1116.363560458474
 30
0.0
 11
1614.443540747229
 21
1116.363560458474
 31
0.0
  0
LINE
  5
8E08
330
19
100
AcDbEntity
  8
1
100
AcDbLine
 10
1576.443540747227
 20
1016.363560458475
 30
0.0
 11
1614.443540747229
 21
1016.363560458475
 31
0.0
  0
LINE
  5
8E09
330
19
100
AcDbEntity
  8
1
100
AcDbLine
 10
970.4348173531398
 20
2013.723719253986
 30
0.0
 11
970.4348173531398
 21
2051.723719253988
 31
0.0
  0
LINE
  5
8E0A
330
19
100
AcDbEntity
  8
1
100
AcDbLine
 10
870.4348173531398
 20
2013.723719253986
 30
0.0
 11
870.4348173531398
 21
2051.723719253987
 31
0.0
  0
LINE
  5
8E0B
330
19
100
AcDbEntity
  8
1
100
AcDbLine
 10
540.4348173531397
 20
2051.723719253987
 30
0.0
 11
540.4348173531397
 21
2013.723719253984
 31
0.0
  0
LINE
  5
8E0C
330
19
100
AcDbEntity
  8
1
100
AcDbLine
 10
640.4348173531397
 20
2051.723719253987
 30
0.0
 11
640.4348173531397
 21
2013.723719253984
 31
0.0
  0
LINE
  5
8E0D
330
19
100
AcDbEntity
  8
1
100
AcDbLine
 10
1628.243540747228
 20
978.2186047108053
 30
0.0
 11
1628.243540747228
 21
956.4496543457336
 31
0.0
  0
LINE
  5
8E0E
330
19
100
AcDbEntity
  8
1
100
AcDbLine
 10
1055.43481735314
 20
2043.523719253987
 30
0.0
 11
515.4348173531402
 21
2043.523719253991
 31
0.0
  0
LINE
  5
8E0F
330
19
100
AcDbEntity
  8
1
100
AcDbLine
 10
1055.43481735314
 20
2343.523719253987
 30
0.0
 11
1020.43481735314
 21
2343.523719253987
 31
0.0
  0
LINE
  5
8E10
330
19
100
AcDbEntity
  8
1
100
AcDbLine
 10
820.4348173531398
 20
2343.523719253987
 30
0.0
 11
515.4348173531407
 21
2343.523719253987
 31
0.0
  0
DIMENSION
  5
8E11
330
19
100
AcDbEntity
  8
3
100
AcDbDimension
280
     0
  2
*D2
 10
399.7502928215384
 20
2003.52371925399
 30
0.0
 11
399.7502928215381
 21
2187.908923321319
 31
0.0
 70
   160
 71
     5
 42
379.9999999999964
 73
     0
 74
     0
 75
     0
  3
IGA
100
AcDbAlignedDimension
 13
475.4348173531402
 23
2383.523719253987
 33
0.0
 14
475.4348173531402
 24
2003.52371925399
 34
0.0
 50
90.0
100
AcDbRotatedDimension
1001
ACAD
1000
DSTYLE
1002
{
1070
    40
1040
12.0
1070
   143
1040
0.039
1070
   172
1070
     1
1070
   271
1070
     0
1070
   279
1070
     0
1070
   288
1070
     1
1002
}
  0
DIMENSION
  5
8E12
330
19
100
AcDbEntity
  8
3
100
AcDbDimension
280
     0
  2
*D3
 10
1095.43481735314
 20
1893.525202040117
 30
0.0
 11
774.9391739283638
 21
1893.525202040117
 31
0.0
 70
   160
 71
     5
 42
619.9999999999995
 73
     0
 74
     0
 75
     0
  3
IGA
100
AcDbAlignedDimension
 13
475.4348173531402
 23
2003.52371925399
 33
0.0
 14
1095.43481735314
 24
2003.523719253987
 34
0.0
100
AcDbRotatedDimension
1001
ACAD
1000
DSTYLE
1002
{
1070
    40
1040
12.0
1070
   143
1040
0.039
1070
   172
1070
     1
1070
   271
1070
     0
1070
   279
1070
     0
1070
   288
1070
     1
1002
}
  0
LINE
  5
8E13
330
19
100
AcDbEntity
  8
2
100
AcDbLine
 10
920.4348173531398
 20
1414.554234797001
 30
0.0
 11
920.4348173531389
 21
806.3635604584746
 31
0.0
  0
DIMENSION
  5
8E14
330
19
100
AcDbEntity
  8
3
100
AcDbDimension
280
     0
  2
*D4
 10
920.4348173531398
 20
714.1953532673032
 30
0.0
 11
697.9348173531398
 21
744.1953532673032
 31
0.0
 70
    32
 71
     5
 42
445.0
 73
     0
 74
     0
 75
     0
  3
IGA
100
AcDbAlignedDimension
 13
475.4348173531398
 23
806.3635604584746
 33
0.0
 14
920.4348173531398
 24
806.3635604584749
 34
0.0
100
AcDbRotatedDimension
1001
ACAD
1000
DSTYLE
1002
{
1070
    40
1040
12.0
1070
   143
1040
0.039
1070
   172
1070
     1
1070
   271
1070
     0
1070
   279
1070
     0
1002
}
  0
DIMENSION
  5
8E15
330
19
100
AcDbEntity
  8
3
100
AcDbDimension
280
     0
  2
*D5
 10
1095.43481735314
 20
714.1953532673032
 30
0.0
 11
1007.93481735314
 21
744.1953532673032
 31
0.0
 70
    32
 71
     5
 42
175.0
 73
     0
 74
     0
 75
     0
  3
IGA
100
AcDbAlignedDimension
 13
920.4348173531398
 23
806.3635604584749
 33
0.0
 14
1095.43481735314
 24
806.3635604584746
 34
0.0
100
AcDbRotatedDimension
1001
ACAD
1000
DSTYLE
1002
{
1070
    40
1040
12.0
1070
   143
1040
0.039
1070
   172
1070
     1
1070
   271
1070
     0
1070
   279
1070
     0
1002
}
  0
DIMENSION
  5
8E16
330
19
100
AcDbEntity
  8
3
100
AcDbDimension
280
     0
  2
*D6
 10
1946.24354074723
 20
714.1953532673031
 30
0.0
 11
1756.24354074723
 21
744.195353267303
 31
0.0
 70
    32
 71
     5
 42
380.0
 73
     0
 74
     0
 75
     0
  3
IGA
100
AcDbAlignedDimension
 13
1566.24354074723
 23
806.4496543457334
 33
0.0
 14
1946.24354074723
 24
806.4496543457337
 34
0.0
100
AcDbRotatedDimension
1001
ACAD
1000
DSTYLE
1002
{
1070
    40
1040
12.0
1070
   143
1040
0.039
1070
   172
1070
     1
1070
   271
1070
     0
1070
   279
1070
     0
1002
}
  0
DIMENSION
  5
8E17
330
19
100
AcDbEntity
  8
3
100
AcDbDimension
280
     0
  2
*D7
 10
1986.24354074723
 20
714.1953532673031
 30
0.0
 11
2075.386397890088
 21
744.195353267303
 31
0.0
 70
    32
 71
     5
 42
40.0
 73
     0
 74
     0
 75
     0
  3
IGA
100
AcDbAlignedDimension
 13
1946.24354074723
 23
806.4496543457337
 33
0.0
 14
1986.24354074723
 24
806.4496543457337
 34
0.0
100
AcDbRotatedDimension
1001
ACAD
1000
DSTYLE
1002
{
1070
    40
1040
12.0
1070
   143
1040
0.039
1070
   172
1070
     1
1070
   271
1070
     0
1070
   279
1070
     0
1002
}
  0
LINE
  5
8E18
330
19
100
AcDbEntity
  8
1
100
AcDbLine
 10
1566.24354074723
 20
806.4496543457334
 30
0.0
 11
1946.24354074723
 21
806.4496543457337
 31
0.0
  0
LINE
  5
8E19
330
19
100
AcDbEntity
  8
1
100
AcDbLine
 10
1566.24354074723
 20
846.4496543457334
 30
0.0
 11
1946.24354074723
 21
846.4496543457338
 31
0.0
  0
LINE
  5
8E1A
330
19
100
AcDbEntity
  8
1
100
AcDbLine
 10
1946.24354074723
 20
806.4496543457337
 30
0.0
 11
1946.24354074723
 21
846.4496543457338
 31
0.0
  0
LINE
  5
8E1B
330
19
100
AcDbEntity
  8
1
100
AcDbLine
 10
1566.24354074723
 20
806.4496543457334
 30
0.0
 11
1566.24354074723
 21
846.4496543457332
 31
0.0
  0
LINE
  5
8E1C
330
19
100
AcDbEntity
  8
1
100
AcDbLine
 10
475.4348173531398
 20
846.3635604584746
 30
0.0
 11
1095.43481735314
 21
846.3635604584743
 31
0.0
  0
LINE
  5
8E1D
330
19
100
AcDbEntity
  8
1
100
AcDbLine
 10
1095.43481735314
 20
846.3635604584743
 30
0.0
 11
1095.43481735314
 21
806.3635604584742
 31
0.0
  0
LINE
  5
8E1E
330
19
100
AcDbEntity
  8
1
100
AcDbLine
 10
1095.43481735314
 20
806.3635604584746
 30
0.0
 11
475.4348173531398
 21
806.3635604584746
 31
0.0
  0
LINE
  5
8E1F
330
19
100
AcDbEntity
  8
1
100
AcDbLine
 10
475.4348173531398
 20
846.3635604584746
 30
0.0
 11
475.4348173531398
 21
806.3635604584746
 31
0.0
  0
DIMENSION
  5
8E20
330
19
100
AcDbEntity
  8
3
100
AcDbDimension
280
     0
  2
*D8
 10
1257.435448099399
 20
806.3635604584746
 30
0.0
 11
1227.435448099398
 21
717.2207033156176
 31
0.0
 70
    32
 71
     5
 42
39.99999999999955
 73
     0
 74
     0
 75
     0
  3
IGA
100
AcDbAlignedDimension
 13
1095.43481735314
 23
846.3635604584743
 33
0.0
 14
1095.43481735314
 24
806.3635604584746
 34
0.0
 50
90.0
100
AcDbRotatedDimension
1001
ACAD
1000
DSTYLE
1002
{
1070
    40
1040
12.0
1070
   143
1040
0.039
1070
   172
1070
     1
1070
   271
1070
     0
1070
   279
1070
     0
1070
   343
1005
7A02
1002
}
  0
DIMENSION
  5
8E21
330
19
100
AcDbEntity
  8
3
100
AcDbDimension
280
     0
  2
*D9
 10
1257.435448099399
 20
916.3635604584742
 30
0.0
 11
1299.642281231139
 21
879.5171042663678
 31
0.0
 70
   160
 71
     5
 42
70.0
 73
     0
 74
     0
 75
     0
  3
IGA
100
AcDbAlignedDimension
 13
1095.43481735314
 23
846.3635604584743
 33
0.0
 14
1095.43481735314
 24
916.3635604584742
 34
0.0
 50
90.0
100
AcDbRotatedDimension
1001
ACAD
1000
DSTYLE
1002
{
1070
     3
1000
(<>)
1070
    40
1040
12.0
1070
   143
1040
0.039
1070
   172
1070
     1
1070
   271
1070
     0
1070
   343
1005
7A02
1002
}
  0
DIMENSION
  5
961A
330
19
100
AcDbEntity
  8
3
100
AcDbDimension
280
     0
  2
*D21
 10
1361.706110792565
 20
1397.3635264743
 30
0.0
 11
1322.277539363994
 21
1101.863543466387
 31
0.0
 70
    32
  1
(<>)
 71
     5
 42
590.9999660158257
 73
     0
 74
     0
 75
     0
  3
IGA
100
AcDbAlignedDimension
 13
1095.43481735314
 23
806.3635604584742
 33
0.0
 14
1105.43481735314
 24
1397.3635264743
 34
0.0
 50
90.0
100
AcDbRotatedDimension
1001
ACAD
1000
DSTYLE
1002
{
1070
    40
1040
12.0
1070
   143
1040
0.039
1070
   172
1070
     1
1070
   271
1070
     0
1070
   279
1070
     0
1002
}
  0
ENDSEC
  0
SECTION
  2
OBJECTS
  0
DICTIONARY
  5
C
330
0
100
AcDbDictionary
281
     1
  3
ACAD_CIP_PREVIOUS_PRODUCT_INFO
350
8688
  3
ACAD_COLOR
350
866B
  3
ACAD_DETAILVIEWSTYLE
350
8684
  3
ACAD_GROUP
350
D
  3
ACAD_LAYOUT
350
8626
  3
ACAD_MATERIAL
350
8639
  3
ACAD_MLEADERSTYLE
350
8680
  3
ACAD_MLINESTYLE
350
E
  3
ACAD_PLOTSETTINGS
350
8627
  3
ACAD_PLOTSTYLENAME
350
8624
  3
ACAD_SCALELIST
350
866E
  3
ACAD_SECTIONVIEWSTYLE
350
8682
  3
ACAD_TABLESTYLE
350
866C
  3
ACAD_VISUALSTYLE
350
8652
  3
ACDB_RECOMPOSE_DATA
350
9686
  3
AcDbVariableDictionary
350
960C
  0
DICTIONARY
  5
8C3F
330
2
100
AcDbDictionary
280
     1
281
     1
  3
ACAD_LAYERSTATES
360
8C40
  0
DICTIONARY
  5
95F6
330
F
100
AcDbDictionary
280
     1
281
     1
  3
ADSK_XREC_LAYER_RECONCILED
360
95F7
  0
DICTIONARY
  5
95F8
330
31
100
AcDbDictionary
280
     1
281
     1
  3
ADSK_XREC_LAYER_RECONCILED
360
95F9
  0
DICTIONARY
  5
95FA
330
76D0
100
AcDbDictionary
280
     1
281
     1
  3
ADSK_XREC_LAYER_RECONCILED
360
95FB
  0
DICTIONARY
  5
95FC
330
76D1
100
AcDbDictionary
280
     1
281
     1
  3
ADSK_XREC_LAYER_RECONCILED
360
95FD
  0
DICTIONARY
  5
95FE
330
76D2
100
AcDbDictionary
280
     1
281
     1
  3
ADSK_XREC_LAYER_RECONCILED
360
95FF
  0
XRECORD
  5
8688
102
{ACAD_REACTORS
330
C
102
}
330
C
100
AcDbXrecord
280
     1
300
ACDLT
300
2015
300
INVLTS_F_S
  0
DICTIONARY
  5
866B
102
{ACAD_REACTORS
330
C
102
}
330
C
100
AcDbDictionary
281
     1
  0
DICTIONARY
  5
8684
102
{ACAD_REACTORS
330
C
102
}
330
C
100
AcDbDictionary
281
     1
  3
Metric50
350
8685
  0
DICTIONARY
  5
D
102
{ACAD_REACTORS
330
C
102
}
330
C
100
AcDbDictionary
281
     1
  0
DICTIONARY
  5
8626
102
{ACAD_REACTORS
330
C
102
}
330
C
100
AcDbDictionary
281
     1
  3
Model
350
8628
  3
ﾚｲｱｳﾄ1
350
8629
  0
DICTIONARY
  5
8639
102
{ACAD_REACTORS
330
C
102
}
330
C
100
AcDbDictionary
281
     1
  3
ByBlock
350
8642
  3
ByLayer
350
863A
  3
Global
350
864A
  0
DICTIONARY
  5
8680
102
{ACAD_REACTORS
330
C
102
}
330
C
100
AcDbDictionary
281
     1
  3
Standard
350
8681
  0
DICTIONARY
  5
E
102
{ACAD_REACTORS
330
C
102
}
330
C
100
AcDbDictionary
281
     1
  3
STANDARD
350
1C
  0
DICTIONARY
  5
8627
102
{ACAD_REACTORS
330
C
102
}
330
C
100
AcDbDictionary
281
     1
  0
ACDBDICTIONARYWDFLT
  5
8624
102
{ACAD_REACTORS
330
C
102
}
330
C
100
AcDbDictionary
281
     1
  3
Normal
350
8625
100
AcDbDictionaryWithDefault
340
8625
  0
DICTIONARY
  5
866E
102
{ACAD_REACTORS
330
C
102
}
330
C
100
AcDbDictionary
281
     1
  3
A0
350
866F
  3
A1
350
8670
  3
A2
350
8671
  3
A3
350
8672
  3
A4
350
8673
  3
A5
350
8674
  3
A6
350
8675
  3
A7
350
8676
  3
A8
350
8677
  3
A9
350
8678
  3
B0
350
8679
  3
B1
350
867A
  3
B2
350
867B
  3
B3
350
867C
  3
B4
350
867D
  3
B5
350
867E
  3
B6
350
867F
  0
DICTIONARY
  5
8682
102
{ACAD_REACTORS
330
C
102
}
330
C
100
AcDbDictionary
281
     1
  3
Metric50
350
8683
  0
DICTIONARY
  5
866C
102
{ACAD_REACTORS
330
C
102
}
330
C
100
AcDbDictionary
281
     1
  3
Standard
350
866D
  0
DICTIONARY
  5
8652
102
{ACAD_REACTORS
330
C
102
}
330
C
100
AcDbDictionary
281
     1
  3
2dWireframe
350
8658
  3
Basic
350
8657
  3
Brighten
350
865E
  3
ColorChange
350
8662
  3
Conceptual
350
865B
  3
Dim
350
865D
  3
EdgeColorOff
350
866A
  3
Facepattern
350
8661
  3
Flat
350
8653
  3
FlatWithEdges
350
8654
  3
Gouraud
350
8655
  3
GouraudWithEdges
350
8656
  3
Hidden
350
865A
  3
JitterOff
350
8668
  3
Linepattern
350
8660
  3
OverhangOff
350
8669
  3
Realistic
350
865C
  3
Shaded
350
8667
  3
Shaded with edges
350
8666
  3
Shades of Gray
350
8663
  3
Sketchy
350
8664
  3
Thicken
350
865F
  3
Wireframe
350
8659
  3
X-Ray
350
8665
  0
XRECORD
  5
9686
102
{ACAD_REACTORS
330
C
102
}
330
C
100
AcDbXrecord
280
     1
 90
        1
330
866D
330
8683
330
8685
  0
DICTIONARY
  5
960C
102
{ACAD_REACTORS
330
C
102
}
330
C
100
AcDbDictionary
281
     1
  3
CANNOSCALE
350
9612
  3
CMLEADERSTYLE
350
960E
  3
CTABLESTYLE
350
960D
  3
CVIEWDETAILSTYLE
350
960F
  3
CVIEWSECTIONSTYLE
350
9610
  3
LAYEREVAL
350
9614
  3
LAYERNOTIFY
350
9615
  3
LIGHTINGUNITS
350
9613
  3
MSLTSCALE
350
9611
  0
DICTIONARY
  5
8C40
102
{ACAD_REACTORS
330
8C3F
102
}
330
8C3F
100
AcDbDictionary
281
     1
  0
XRECORD
  5
95F7
102
{ACAD_REACTORS
330
95F6
102
}
330
95F6
100
AcDbXrecord
280
     1
290
     1
  0
XRECORD
  5
95F9
102
{ACAD_REACTORS
330
95F8
102
}
330
95F8
100
AcDbXrecord
280
     1
290
     1
  0
XRECORD
  5
95FB
102
{ACAD_REACTORS
330
95FA
102
}
330
95FA
100
AcDbXrecord
280
     1
290
     1
  0
XRECORD
  5
95FD
102
{ACAD_REACTORS
330
95FC
102
}
330
95FC
100
AcDbXrecord
280
     1
290
     1
  0
XRECORD
  5
95FF
102
{ACAD_REACTORS
330
95FE
102
}
330
95FE
100
AcDbXrecord
280
     1
290
     1
  0
ACDBDETAILVIEWSTYLE
  5
8685
102
{ACAD_XDICTIONARY
360
9609
102
}
102
{ACAD_REACTORS
330
8684
102
}
330
8684
100
AcDbModelDocViewStyle
 70
     0
  3
Metric50
290
     0
100
AcDbDetailViewStyle
 70
     0
 71
     0
 90
        3
 71
     1
340
10
 62
   256
 40
5.0
340
0
 62
   256
 40
5.0
300

 40
0.0
280
     1
 71
     2
340
15
 90
       25
 62
   256
 71
     3
340
10
 62
   256
 40
5.0
 90
        0
 40
15.0
 90
        1
300
%<\AcVar ViewDetailId>% (%<\AcVar ViewScale \f "%sn">%)
 71
     4
340
15
 90
       25
 62
   256
340
15
 90
       25
 62
   256
280
     0
  0
LAYOUT
  5
8628
102
{ACAD_REACTORS
330
8626
102
}
330
8626
100
AcDbPlotSettings
  1

  2
EPSON LP-9300
  4

  6

 40
0.0
 41
0.0
 42
0.0
 43
0.0
 44
0.0
 45
0.0
 46
0.0
 47
0.0
 48
0.0
 49
0.0
140
0.0
141
0.0
142
1.0
143
1.0
 70
  1712
 72
     0
 73
     0
 74
     0
  7

 75
     0
147
1.0
 76
     0
 77
     2
 78
   300
148
0.0
149
0.0
100
AcDbLayout
  1
Model
 70
     1
 71
     0
 10
0.0
 20
0.0
 11
12.0
 21
9.0
 12
0.0
 22
0.0
 32
0.0
 14
0.0
 24
0.0
 34
0.0
 15
0.0
 25
0.0
 35
0.0
146
0.0
 13
0.0
 23
0.0
 33
0.0
 16
1.0
 26
0.0
 36
0.0
 17
0.0
 27
1.0
 37
0.0
 76
     0
330
19
331
8637
  0
LAYOUT
  5
8629
102
{ACAD_REACTORS
330
8626
102
}
330
8626
100
AcDbPlotSettings
  1

  2
EPSON LP-9300
  4

  6

 40
0.0
 41
0.0
 42
0.0
 43
0.0
 44
0.0
 45
0.0
 46
0.0
 47
0.0
 48
0.0
 49
0.0
140
0.0
141
0.0
142
1.0
143
1.0
 70
   688
 72
     0
 73
     0
 74
     5
  7

 75
    16
147
1.0
 76
     0
 77
     2
 78
   300
148
0.0
149
0.0
100
AcDbLayout
  1
ﾚｲｱｳﾄ1
 70
     1
 71
     1
 10
0.0
 20
0.0
 11
12.0
 21
9.0
 12
0.0
 22
0.0
 32
0.0
 14
1.000000000000000E+20
 24
1.000000000000000E+20
 34
1.000000000000000E+20
 15
-1.000000000000000E+20
 25
-1.000000000000000E+20
 35
-1.000000000000000E+20
146
0.0
 13
0.0
 23
0.0
 33
0.0
 16
1.0
 26
0.0
 36
0.0
 17
0.0
 27
1.0
 37
0.0
 76
     0
330
16
  0
MATERIAL
  5
8642
102
{ACAD_XDICTIONARY
360
8643
102
}
102
{ACAD_REACTORS
330
8639
102
}
330
8639
100
AcDbMaterial
  1
ByBlock
 72
     0
 43
0.0208333333333333
 43
0.0
 43
0.0
 43
0.0
 43
0.0
 43
0.0208333333333333
 43
0.0
 43
0.0
 43
0.0
 43
0.0
 43
1.0
 43
0.0
 43
0.0
 43
0.0
 43
0.0
 43
1.0
 77
     0
 47
0.0208333333333333
 47
0.0
 47
0.0
 47
0.0
 47
0.0
 47
0.0208333333333333
 47
0.0
 47
0.0
 47
0.0
 47
0.0
 47
1.0
 47
0.0
 47
0.0
 47
0.0
 47
0.0
 47
1.0
171
     0
 49
0.0208333333333333
 49
0.0
 49
0.0
 49
0.0
 49
0.0
 49
0.0208333333333333
 49
0.0
 49
0.0
 49
0.0
 49
0.0
 49
1.0
 49
0.0
 49
0.0
 49
0.0
 49
0.0
 49
1.0
175
     0
142
0.0208333333333333
142
0.0
142
0.0
142
0.0
142
0.0
142
0.0208333333333333
142
0.0
142
0.0
142
0.0
142
0.0
142
1.0
142
0.0
142
0.0
142
0.0
142
0.0
142
1.0
179
     0
144
0.0208333333333333
144
0.0
144
0.0
144
0.0
144
0.0
144
0.0208333333333333
144
0.0
144
0.0
144
0.0
144
0.0
144
1.0
144
0.0
144
0.0
144
0.0
144
0.0
144
1.0
147
0.0208333333333333
147
0.0
147
0.0
147
0.0
147
0.0
147
0.0208333333333333
147
0.0
147
0.0
147
0.0
147
0.0
147
1.0
147
0.0
147
0.0
147
0.0
147
0.0
147
1.0
  0
MATERIAL
  5
863A
102
{ACAD_XDICTIONARY
360
863B
102
}
102
{ACAD_REACTORS
330
8639
102
}
330
8639
100
AcDbMaterial
  1
ByLayer
 72
     0
 43
0.0208333333333333
 43
0.0
 43
0.0
 43
0.0
 43
0.0
 43
0.0208333333333333
 43
0.0
 43
0.0
 43
0.0
 43
0.0
 43
1.0
 43
0.0
 43
0.0
 43
0.0
 43
0.0
 43
1.0
 77
     0
 47
0.0208333333333333
 47
0.0
 47
0.0
 47
0.0
 47
0.0
 47
0.0208333333333333
 47
0.0
 47
0.0
 47
0.0
 47
0.0
 47
1.0
 47
0.0
 47
0.0
 47
0.0
 47
0.0
 47
1.0
171
     0
 49
0.0208333333333333
 49
0.0
 49
0.0
 49
0.0
 49
0.0
 49
0.0208333333333333
 49
0.0
 49
0.0
 49
0.0
 49
0.0
 49
1.0
 49
0.0
 49
0.0
 49
0.0
 49
0.0
 49
1.0
175
     0
142
0.0208333333333333
142
0.0
142
0.0
142
0.0
142
0.0
142
0.0208333333333333
142
0.0
142
0.0
142
0.0
142
0.0
142
1.0
142
0.0
142
0.0
142
0.0
142
0.0
142
1.0
179
     0
144
0.0208333333333333
144
0.0
144
0.0
144
0.0
144
0.0
144
0.0208333333333333
144
0.0
144
0.0
144
0.0
144
0.0
144
1.0
144
0.0
144
0.0
144
0.0
144
0.0
144
1.0
147
0.0208333333333333
147
0.0
147
0.0
147
0.0
147
0.0
147
0.0208333333333333
147
0.0
147
0.0
147
0.0
147
0.0
147
1.0
147
0.0
147
0.0
147
0.0
147
0.0
147
1.0
  0
MATERIAL
  5
864A
102
{ACAD_XDICTIONARY
360
864B
102
}
102
{ACAD_REACTORS
330
8639
102
}
330
8639
100
AcDbMaterial
  1
Global
 72
     0
 43
0.0208333333333333
 43
0.0
 43
0.0
 43
0.0
 43
0.0
 43
0.0208333333333333
 43
0.0
 43
0.0
 43
0.0
 43
0.0
 43
1.0
 43
0.0
 43
0.0
 43
0.0
 43
0.0
 43
1.0
 77
     0
 47
0.0208333333333333
 47
0.0
 47
0.0
 47
0.0
 47
0.0
 47
0.0208333333333333
 47
0.0
 47
0.0
 47
0.0
 47
0.0
 47
1.0
 47
0.0
 47
0.0
 47
0.0
 47
0.0
 47
1.0
171
     0
 49
0.0208333333333333
 49
0.0
 49
0.0
 49
0.0
 49
0.0
 49
0.0208333333333333
 49
0.0
 49
0.0
 49
0.0
 49
0.0
 49
1.0
 49
0.0
 49
0.0
 49
0.0
 49
0.0
 49
1.0
175
     0
142
0.0208333333333333
142
0.0
142
0.0
142
0.0
142
0.0
142
0.0208333333333333
142
0.0
142
0.0
142
0.0
142
0.0
142
1.0
142
0.0
142
0.0
142
0.0
142
0.0
142
1.0
179
     0
144
0.0208333333333333
144
0.0
144
0.0
144
0.0
144
0.0
144
0.0208333333333333
144
0.0
144
0.0
144
0.0
144
0.0
144
1.0
144
0.0
144
0.0
144
0.0
144
0.0
144
1.0
147
0.0208333333333333
147
0.0
147
0.0
147
0.0
147
0.0
147
0.0208333333333333
147
0.0
147
0.0
147
0.0
147
0.0
147
1.0
147
0.0
147
0.0
147
0.0
147
0.0
147
1.0
  0
MLEADERSTYLE
  5
8681
102
{ACAD_REACTORS
330
8680
102
}
330
8680
100
AcDbMLeaderStyle
179
     2
170
     2
171
     1
172
     0
 90
        2
 40
0.0
 41
0.0
173
     1
 91
-1056964608
340
13
 92
       -2
290
     1
 42
2.0
291
     1
 43
0.36
  3
Standard
 44
4.0
300

342
10
174
     1
178
     6
175
     1
176
     0
 93
-1056964608
 45
4.0
292
     0
297
     0
 46
4.0
 94
-1056964608
 47
1.0
 49
1.0
140
1.0
293
     1
141
0.0
294
     1
177
     0
142
1.0
295
     1
296
     0
143
0.125
271
     0
272
     9
273
     9
298
     1
  0
MLINESTYLE
  5
1C
102
{ACAD_REACTORS
330
E
102
}
330
E
100
AcDbMlineStyle
  2
STANDARD
 70
     0
  3

 62
     0
 51
90.0
 52
90.0
 71
     2
 49
0.5
 62
   256
  6
BYLAYER
 49
-0.5
 62
   256
  6
BYLAYER
  0
ACDBPLACEHOLDER
  5
8625
102
{ACAD_REACTORS
330
8624
102
}
330
8624
  0
SCALE
  5
866F
102
{ACAD_REACTORS
330
866E
102
}
330
866E
100
AcDbScale
 70
     0
300
1:1
140
1.0
141
1.0
290
     1
  0
SCALE
  5
8670
102
{ACAD_REACTORS
330
866E
102
}
330
866E
100
AcDbScale
 70
     0
300
1:2
140
1.0
141
2.0
290
     0
  0
SCALE
  5
8671
102
{ACAD_REACTORS
330
866E
102
}
330
866E
100
AcDbScale
 70
     0
300
1:4
140
1.0
141
4.0
290
     0
  0
SCALE
  5
8672
102
{ACAD_REACTORS
330
866E
102
}
330
866E
100
AcDbScale
 70
     0
300
1:5
140
1.0
141
5.0
290
     0
  0
SCALE
  5
8673
102
{ACAD_REACTORS
330
866E
102
}
330
866E
100
AcDbScale
 70
     0
300
1:8
140
1.0
141
8.0
290
     0
  0
SCALE
  5
8674
102
{ACAD_REACTORS
330
866E
102
}
330
866E
100
AcDbScale
 70
     0
300
1:10
140
1.0
141
10.0
290
     0
  0
SCALE
  5
8675
102
{ACAD_REACTORS
330
866E
102
}
330
866E
100
AcDbScale
 70
     0
300
1:16
140
1.0
141
16.0
290
     0
  0
SCALE
  5
8676
102
{ACAD_REACTORS
330
866E
102
}
330
866E
100
AcDbScale
 70
     0
300
1:20
140
1.0
141
20.0
290
     0
  0
SCALE
  5
8677
102
{ACAD_REACTORS
330
866E
102
}
330
866E
100
AcDbScale
 70
     0
300
1:30
140
1.0
141
30.0
290
     0
  0
SCALE
  5
8678
102
{ACAD_REACTORS
330
866E
102
}
330
866E
100
AcDbScale
 70
     0
300
1:40
140
1.0
141
40.0
290
     0
  0
SCALE
  5
8679
102
{ACAD_REACTORS
330
866E
102
}
330
866E
100
AcDbScale
 70
     0
300
1:50
140
1.0
141
50.0
290
     0
  0
SCALE
  5
867A
102
{ACAD_REACTORS
330
866E
102
}
330
866E
100
AcDbScale
 70
     0
300
1:100
140
1.0
141
100.0
290
     0
  0
SCALE
  5
867B
102
{ACAD_REACTORS
330
866E
102
}
330
866E
100
AcDbScale
 70
     0
300
2:1
140
2.0
141
1.0
290
     0
  0
SCALE
  5
867C
102
{ACAD_REACTORS
330
866E
102
}
330
866E
100
AcDbScale
 70
     0
300
4:1
140
4.0
141
1.0
290
     0
  0
SCALE
  5
867D
102
{ACAD_REACTORS
330
866E
102
}
330
866E
100
AcDbScale
 70
     0
300
8:1
140
8.0
141
1.0
290
     0
  0
SCALE
  5
867E
102
{ACAD_REACTORS
330
866E
102
}
330
866E
100
AcDbScale
 70
     0
300
10:1
140
10.0
141
1.0
290
     0
  0
SCALE
  5
867F
102
{ACAD_REACTORS
330
866E
102
}
330
866E
100
AcDbScale
 70
     0
300
100:1
140
100.0
141
1.0
290
     0
  0
ACDBSECTIONVIEWSTYLE
  5
8683
102
{ACAD_XDICTIONARY
360
9607
102
}
102
{ACAD_REACTORS
330
8682
102
}
330
8682
100
AcDbModelDocViewStyle
 70
     0
  3
Metric50
290
     0
100
AcDbSectionViewStyle
 70
     0
 71
     0
 90
      102
 71
     1
340
10
 62
   256
 40
5.0
340
0
340
0
 62
   256
 40
5.0
300
I, O, Q, S, X, Z
 40
10.0
 90
        0
 40
2.5
 90
        0
 71
     2
340
15
 90
       25
 62
   256
340
15
 90
       50
 62
   256
 40
5.0
 40
2.5
 40
5.0
 71
     3
340
10
 62
   256
 40
5.0
 90
        0
 40
15.0
 90
        1
300
%<\AcVar ViewSectionStartId>%-%<\AcVar ViewSectionEndId>% (%<\AcVar ViewScale \f "%sn">%)
 71
     4
 62
   256
 62
   257
300
ANSI31
 40
1.0
 90
        0
290
     0
290
     0
 90
        6
 40
0.0
 40
1.570796326794896
 40
0.2617993877991494
 40
1.308996938995747
 40
-0.2617993877991494
 40
1.832595714594046
  0
TABLESTYLE
  5
866D
102
{ACAD_XDICTIONARY
360
9682
102
}
102
{ACAD_REACTORS
330
866C
102
}
330
866C
100
AcDbTableStyle
280
     0
  3
Standard
 70
     0
 71
     0
 40
1.5
 41
1.5
280
     0
281
     0
  7
STANDARD
140
4.5
170
     2
 62
     0
 63
     7
283
     0
 90
      512
 91
        0
  1

274
    -2
284
     1
 64
     0
275
    -2
285
     1
 65
     0
276
    -2
286
     1
 66
     0
277
    -2
287
     1
 67
     0
278
    -2
288
     1
 68
     0
279
    -2
289
     1
 69
     0
  7
STANDARD
140
6.0
170
     5
 62
     0
 63
     7
283
     0
 90
      512
 91
        0
  1

274
    -2
284
     1
 64
     0
275
    -2
285
     1
 65
     0
276
    -2
286
     1
 66
     0
277
    -2
287
     1
 67
     0
278
    -2
288
     1
 68
     0
279
    -2
289
     1
 69
     0
  7
STANDARD
140
4.5
170
     5
 62
     0
 63
     7
283
     0
 90
      512
 91
        0
  1

274
    -2
284
     1
 64
     0
275
    -2
285
     1
 65
     0
276
    -2
286
     1
 66
     0
277
    -2
287
     1
 67
     0
278
    -2
288
     1
 68
     0
279
    -2
289
     1
 69
     0
  0
VISUALSTYLE
  5
8658
102
{ACAD_REACTORS
330
8652
102
}
330
8652
100
AcDbVisualStyle
  2
2dWireframe
 70
     4
177
     3
291
     0
 70
    58
 90
        0
176
     1
 90
        2
176
     1
 90
        0
176
     1
 90
        0
176
     1
 40
0.6
176
     1
 40
30.0
176
     1
 62
     7
420
 16777215
176
     1
 90
        1
176
     1
 90
        4
176
     1
 62
     7
176
     1
 62
   257
176
     1
 90
        1
176
     1
 90
        1
176
     1
 40
1.0
176
     1
 90
        0
176
     1
 62
   257
176
     1
 40
1.0
176
     1
 90
        1
176
     1
 90
        6
176
     1
 90
        2
176
     1
 62
     7
176
     1
 90
        5
176
     1
 90
        0
176
     1
 90
        0
176
     1
290
     0
176
     1
 90
        1
176
     1
 40
0.0
176
     1
 90
        0
176
     1
290
     1
176
     1
290
     1
176
     1
290
     0
176
     1
290
     0
176
     1
290
     0
176
     1
290
     0
176
     1
290
     0
176
     1
290
     0
176
     1
290
     0
176
     1
 90
       50
176
     1
 40
0.0
176
     1
 40
1.0
176
     1
 90
        0
176
     1
 62
    18
420
        0
176
     1
 90
       50
176
     1
 90
        3
176
     1
 62
     5
420
      255
176
     1
290
     0
176
     1
 90
       50
176
     1
 90
       50
176
     1
 90
       50
176
     1
290
     0
176
     1
 90
       50
176
     1
 62
   256
176
     0
 40
1.0
176
     0
 90
        2
176
     1
  1
strokes_ogs.tif
176
     1
290
     0
176
     1
 40
1.0
176
     1
 40
1.0
176
     1
  0
VISUALSTYLE
  5
8657
102
{ACAD_REACTORS
330
8652
102
}
330
8652
100
AcDbVisualStyle
  2
Basic
 70
     7
177
     3
291
     1
 70
    58
 90
        1
176
     1
 90
        0
176
     1
 90
        1
176
     1
 90
        0
176
     1
 40
0.6
176
     1
 40
30.0
176
     1
 62
     7
420
 16777215
176
     1
 90
        0
176
     1
 90
        4
176
     1
 62
     7
176
     1
 62
   257
176
     1
 90
        1
176
     1
 90
        1
176
     1
 40
1.0
176
     1
 90
        8
176
     1
 62
     7
176
     1
 40
1.0
176
     1
 90
        1
176
     1
 90
        6
176
     1
 90
        2
176
     1
 62
     7
176
     1
 90
        5
176
     1
 90
        0
176
     1
 90
        0
176
     1
290
     0
176
     1
 90
        1
176
     1
 40
0.0
176
     1
 90
        0
176
     1
290
     0
176
     1
290
     1
176
     1
290
     1
176
     1
290
     0
176
     1
290
     0
176
     1
290
     0
176
     1
290
     0
176
     1
290
     0
176
     1
290
     0
176
     1
 90
       50
176
     1
 40
0.0
176
     1
 40
1.0
176
     1
 90
        0
176
     1
 62
    18
420
        0
176
     1
 90
       50
176
     1
 90
        3
176
     1
 62
     5
420
      255
176
     1
290
     0
176
     1
 90
       50
176
     1
 90
       50
176
     1
 90
       50
176
     1
290
     0
176
     1
 90
       50
176
     1
 62
   256
176
     0
 40
1.0
176
     0
 90
        2
176
     1
  1
strokes_ogs.tif
176
     1
290
     0
176
     1
 40
1.0
176
     1
 40
1.0
176
     1
  0
VISUALSTYLE
  5
865E
102
{ACAD_REACTORS
330
8652
102
}
330
8652
100
AcDbVisualStyle
  2
Brighten
 70
    12
177
     3
291
     1
 70
    58
 90
        2
176
     1
 90
        2
176
     1
 90
        0
176
     1
 90
        0
176
     1
 40
0.6
176
     1
 40
30.0
176
     1
 62
     7
420
 16777215
176
     1
 90
        1
176
     1
 90
        4
176
     1
 62
     7
176
     1
 62
   257
176
     1
 90
        1
176
     1
 90
        1
176
     1
 40
1.0
176
     1
 90
        8
176
     1
 62
     7
176
     1
 40
1.0
176
     1
 90
        1
176
     1
 90
        6
176
     1
 90
        2
176
     1
 62
     7
176
     1
 90
        5
176
     1
 90
        0
176
     1
 90
        0
176
     1
290
     0
176
     1
 90
        1
176
     1
 40
50.0
176
     1
 90
        0
176
     1
290
     0
176
     1
290
     1
176
     1
290
     1
176
     1
290
     0
176
     1
290
     0
176
     1
290
     0
176
     1
290
     0
176
     1
290
     0
176
     1
290
     0
176
     1
 90
       50
176
     1
 40
0.0
176
     1
 40
1.0
176
     1
 90
        0
176
     1
 62
    18
420
        0
176
     1
 90
       50
176
     1
 90
        3
176
     1
 62
     5
420
      255
176
     1
290
     0
176
     1
 90
       50
176
     1
 90
       50
176
     1
 90
       50
176
     1
290
     0
176
     1
 90
       50
176
     1
 62
   256
176
     0
 40
1.0
176
     0
 90
        2
176
     1
  1
strokes_ogs.tif
176
     1
290
     0
176
     1
 40
1.0
176
     1
 40
1.0
176
     1
  0
VISUALSTYLE
  5
8662
102
{ACAD_REACTORS
330
8652
102
}
330
8652
100
AcDbVisualStyle
  2
ColorChange
 70
    16
177
     3
291
     1
 70
    58
 90
        2
176
     1
 90
        2
176
     1
 90
        3
176
     1
 90
        0
176
     1
 40
0.6
176
     1
 40
30.0
176
     1
 62
     8
420
  8421504
176
     1
 90
        1
176
     1
 90
        4
176
     1
 62
     7
176
     1
 62
   257
176
     1
 90
        1
176
     1
 90
        1
176
     1
 40
1.0
176
     1
 90
        8
176
     1
 62
     8
420
  8421504
176
     1
 40
1.0
176
     1
 90
        1
176
     1
 90
        6
176
     1
 90
        2
176
     1
 62
     7
176
     1
 90
        5
176
     1
 90
        0
176
     1
 90
        0
176
     1
290
     0
176
     1
 90
        1
176
     1
 40
0.0
176
     1
 90
        0
176
     1
290
     0
176
     1
290
     1
176
     1
290
     1
176
     1
290
     0
176
     1
290
     0
176
     1
290
     0
176
     1
290
     0
176
     1
290
     0
176
     1
290
     0
176
     1
 90
       50
176
     1
 40
0.0
176
     1
 40
1.0
176
     1
 90
        0
176
     1
 62
    18
420
        0
176
     1
 90
       50
176
     1
 90
        3
176
     1
 62
     5
420
      255
176
     1
290
     0
176
     1
 90
       50
176
     1
 90
       50
176
     1
 90
       50
176
     1
290
     0
176
     1
 90
       50
176
     1
 62
   256
176
     0
 40
1.0
176
     0
 90
        2
176
     1
  1
strokes_ogs.tif
176
     1
290
     0
176
     1
 40
1.0
176
     1
 40
1.0
176
     1
  0
VISUALSTYLE
  5
865B
102
{ACAD_REACTORS
330
8652
102
}
330
8652
100
AcDbVisualStyle
  2
Conceptual
 70
     9
177
     3
291
     0
 70
    58
 90
        3
176
     1
 90
        2
176
     1
 90
        0
176
     1
 90
        0
176
     1
 40
0.6
176
     1
 40
30.0
176
     1
 62
     7
420
 16777215
176
     1
 90
        2
176
     1
 90
        2
176
     1
 62
     7
176
     1
 62
   257
176
     1
 90
        1
176
     1
 90
        1
176
     1
 40
179.0
176
     1
 90
        8
176
     1
 62
     7
176
     1
 40
1.0
176
     1
 90
        1
176
     1
 90
        6
176
     1
 90
        2
176
     1
 62
     7
176
     1
 90
        3
176
     1
 90
        0
176
     1
 90
        0
176
     1
290
     0
176
     1
 90
        1
176
     1
 40
0.0
176
     1
 90
        0
176
     1
290
     0
176
     1
290
     1
176
     1
290
     1
176
     1
290
     0
176
     1
290
     0
176
     1
290
     0
176
     1
290
     0
176
     1
290
     0
176
     1
290
     0
176
     1
 90
       50
176
     1
 40
0.0
176
     1
 40
1.0
176
     1
 90
        0
176
     1
 62
    18
420
        0
176
     1
 90
       50
176
     1
 90
        3
176
     1
 62
     5
420
      255
176
     1
290
     0
176
     1
 90
       50
176
     1
 90
       50
176
     1
 90
       50
176
     1
290
     0
176
     1
 90
       50
176
     1
 62
   256
176
     0
 40
1.0
176
     0
 90
        2
176
     1
  1
strokes_ogs.tif
176
     1
290
     0
176
     1
 40
1.0
176
     1
 40
1.0
176
     1
  0
VISUALSTYLE
  5
865D
102
{ACAD_REACTORS
330
8652
102
}
330
8652
100
AcDbVisualStyle
  2
Dim
 70
    11
177
     3
291
     1
 70
    58
 90
        2
176
     1
 90
        2
176
     1
 90
        0
176
     1
 90
        0
176
     1
 40
0.6
176
     1
 40
30.0
176
     1
 62
     7
420
 16777215
176
     1
 90
        1
176
     1
 90
        4
176
     1
 62
     7
176
     1
 62
   257
176
     1
 90
        1
176
     1
 90
        1
176
     1
 40
1.0
176
     1
 90
        8
176
     1
 62
     7
176
     1
 40
1.0
176
     1
 90
        1
176
     1
 90
        6
176
     1
 90
        2
176
     1
 62
     7
176
     1
 90
        5
176
     1
 90
        0
176
     1
 90
        0
176
     1
290
     0
176
     1
 90
        1
176
     1
 40
-50.0
176
     1
 90
        0
176
     1
290
     0
176
     1
290
     1
176
     1
290
     1
176
     1
290
     0
176
     1
290
     0
176
     1
290
     0
176
     1
290
     0
176
     1
290
     0
176
     1
290
     0
176
     1
 90
       50
176
     1
 40
0.0
176
     1
 40
1.0
176
     1
 90
        0
176
     1
 62
    18
420
        0
176
     1
 90
       50
176
     1
 90
        3
176
     1
 62
     5
420
      255
176
     1
290
     0
176
     1
 90
       50
176
     1
 90
       50
176
     1
 90
       50
176
     1
290
     0
176
     1
 90
       50
176
     1
 62
   256
176
     0
 40
1.0
176
     0
 90
        2
176
     1
  1
strokes_ogs.tif
176
     1
290
     0
176
     1
 40
1.0
176
     1
 40
1.0
176
     1
  0
VISUALSTYLE
  5
866A
102
{ACAD_REACTORS
330
8652
102
}
330
8652
100
AcDbVisualStyle
  2
EdgeColorOff
 70
    22
177
     3
291
     1
 70
    58
 90
        2
176
     0
 90
        2
176
     0
 90
        0
176
     0
 90
        0
176
     0
 40
0.6
176
     0
 40
30.0
176
     0
 62
     7
420
 16777215
176
     0
 90
        1
176
     0
 90
        4
176
     0
 62
     7
176
     0
 62
   257
176
     0
 90
        1
176
     0
 90
        1
176
     0
 40
1.0
176
     0
 90
        8
176
     2
 62
     7
176
     0
 40
1.0
176
     0
 90
        1
176
     0
 90
        6
176
     0
 90
        2
176
     0
 62
     7
176
     0
 90
        5
176
     0
 90
        0
176
     0
 90
        0
176
     0
290
     0
176
     0
 90
        1
176
     0
 40
0.0
176
     0
 90
        0
176
     0
290
     0
176
     0
290
     1
176
     0
290
     1
176
     0
290
     0
176
     0
290
     0
176
     0
290
     0
176
     0
290
     0
176
     0
290
     0
176
     0
290
     0
176
     0
 90
       50
176
     0
 40
0.0
176
     0
 40
1.0
176
     0
 90
        0
176
     0
 62
    18
420
        0
176
     0
 90
       50
176
     0
 90
        3
176
     0
 62
     5
420
      255
176
     0
290
     0
176
     0
 90
       50
176
     0
 90
       50
176
     0
 90
       50
176
     0
290
     0
176
     0
 90
       50
176
     0
 62
   256
176
     0
 40
1.0
176
     0
 90
        2
176
     0
  1
strokes_ogs.tif
176
     0
290
     0
176
     0
 40
1.0
176
     0
 40
1.0
176
     0
  0
VISUALSTYLE
  5
8661
102
{ACAD_REACTORS
330
8652
102
}
330
8652
100
AcDbVisualStyle
  2
Facepattern
 70
    15
177
     3
291
     1
 70
    58
 90
        2
176
     1
 90
        2
176
     1
 90
        0
176
     1
 90
        0
176
     1
 40
0.6
176
     1
 40
30.0
176
     1
 62
     7
420
 16777215
176
     1
 90
        1
176
     1
 90
        4
176
     1
 62
     7
176
     1
 62
   257
176
     1
 90
        1
176
     1
 90
        1
176
     1
 40
1.0
176
     1
 90
        8
176
     1
 62
     7
176
     1
 40
1.0
176
     1
 90
        1
176
     1
 90
        6
176
     1
 90
        2
176
     1
 62
     7
176
     1
 90
        5
176
     1
 90
        0
176
     1
 90
        0
176
     1
290
     0
176
     1
 90
        1
176
     1
 40
0.0
176
     1
 90
        0
176
     1
290
     0
176
     1
290
     1
176
     1
290
     1
176
     1
290
     0
176
     1
290
     0
176
     1
290
     0
176
     1
290
     0
176
     1
290
     0
176
     1
290
     0
176
     1
 90
       50
176
     1
 40
0.0
176
     1
 40
1.0
176
     1
 90
        0
176
     1
 62
    18
420
        0
176
     1
 90
       50
176
     1
 90
        3
176
     1
 62
     5
420
      255
176
     1
290
     0
176
     1
 90
       50
176
     1
 90
       50
176
     1
 90
       50
176
     1
290
     0
176
     1
 90
       50
176
     1
 62
   256
176
     0
 40
1.0
176
     0
 90
        2
176
     1
  1
strokes_ogs.tif
176
     1
290
     0
176
     1
 40
1.0
176
     1
 40
1.0
176
     1
  0
VISUALSTYLE
  5
8653
102
{ACAD_REACTORS
330
8652
102
}
330
8652
100
AcDbVisualStyle
  2
Flat
 70
     0
177
     3
291
     1
 70
    58
 90
        2
176
     1
 90
        1
176
     1
 90
        1
176
     1
 90
        2
176
     1
 40
0.6
176
     1
 40
30.0
176
     1
 62
     7
420
 16777215
176
     1
 90
        0
176
     1
 90
        0
176
     1
 62
     7
176
     1
 62
   257
176
     1
 90
        1
176
     1
 90
        1
176
     1
 40
1.0
176
     1
 90
        8
176
     1
 62
     7
176
     1
 40
1.0
176
     1
 90
        1
176
     1
 90
        6
176
     1
 90
        2
176
     1
 62
     7
176
     1
 90
        5
176
     1
 90
        0
176
     1
 90
        0
176
     1
290
     0
176
     1
 90
       13
176
     1
 40
0.0
176
     1
 90
        0
176
     1
290
     0
176
     1
290
     1
176
     1
290
     1
176
     1
290
     0
176
     1
290
     0
176
     1
290
     0
176
     1
290
     0
176
     1
290
     0
176
     1
290
     0
176
     1
 90
       50
176
     1
 40
0.0
176
     1
 40
1.0
176
     1
 90
        0
176
     1
 62
    18
420
        0
176
     1
 90
       50
176
     1
 90
        3
176
     1
 62
     5
420
      255
176
     1
290
     0
176
     1
 90
       50
176
     1
 90
       50
176
     1
 90
       50
176
     1
290
     0
176
     1
 90
       50
176
     1
 62
   256
176
     0
 40
1.0
176
     0
 90
        2
176
     1
  1
strokes_ogs.tif
176
     1
290
     0
176
     1
 40
1.0
176
     1
 40
1.0
176
     1
  0
VISUALSTYLE
  5
8654
102
{ACAD_REACTORS
330
8652
102
}
330
8652
100
AcDbVisualStyle
  2
FlatWithEdges
 70
     1
177
     3
291
     1
 70
    58
 90
        2
176
     1
 90
        1
176
     1
 90
        1
176
     1
 90
        2
176
     1
 40
0.6
176
     1
 40
30.0
176
     1
 62
     7
420
 16777215
176
     1
 90
        1
176
     1
 90
        0
176
     1
 62
     7
176
     1
 62
   257
176
     1
 90
        1
176
     1
 90
        1
176
     1
 40
1.0
176
     1
 90
        0
176
     1
 62
   257
176
     1
 40
1.0
176
     1
 90
        1
176
     1
 90
        6
176
     1
 90
        2
176
     1
 62
     7
176
     1
 90
        5
176
     1
 90
        0
176
     1
 90
        0
176
     1
290
     0
176
     1
 90
       13
176
     1
 40
0.0
176
     1
 90
        0
176
     1
290
     0
176
     1
290
     1
176
     1
290
     1
176
     1
290
     0
176
     1
290
     0
176
     1
290
     0
176
     1
290
     0
176
     1
290
     0
176
     1
290
     0
176
     1
 90
       50
176
     1
 40
0.0
176
     1
 40
1.0
176
     1
 90
        0
176
     1
 62
    18
420
        0
176
     1
 90
       50
176
     1
 90
        3
176
     1
 62
     5
420
      255
176
     1
290
     0
176
     1
 90
       50
176
     1
 90
       50
176
     1
 90
       50
176
     1
290
     0
176
     1
 90
       50
176
     1
 62
   256
176
     0
 40
1.0
176
     0
 90
        2
176
     1
  1
strokes_ogs.tif
176
     1
290
     0
176
     1
 40
1.0
176
     1
 40
1.0
176
     1
  0
VISUALSTYLE
  5
8655
102
{ACAD_REACTORS
330
8652
102
}
330
8652
100
AcDbVisualStyle
  2
Gouraud
 70
     2
177
     3
291
     1
 70
    58
 90
        2
176
     1
 90
        2
176
     1
 90
        1
176
     1
 90
        2
176
     1
 40
0.6
176
     1
 40
30.0
176
     1
 62
     7
420
 16777215
176
     1
 90
        0
176
     1
 90
        0
176
     1
 62
     7
176
     1
 62
   257
176
     1
 90
        1
176
     1
 90
        1
176
     1
 40
1.0
176
     1
 90
        0
176
     1
 62
     7
176
     1
 40
1.0
176
     1
 90
        1
176
     1
 90
        6
176
     1
 90
        2
176
     1
 62
     7
176
     1
 90
        5
176
     1
 90
        0
176
     1
 90
        0
176
     1
290
     0
176
     1
 90
       13
176
     1
 40
0.0
176
     1
 90
        0
176
     1
290
     0
176
     1
290
     1
176
     1
290
     1
176
     1
290
     0
176
     1
290
     0
176
     1
290
     0
176
     1
290
     0
176
     1
290
     0
176
     1
290
     0
176
     1
 90
       50
176
     1
 40
0.0
176
     1
 40
1.0
176
     1
 90
        0
176
     1
 62
    18
420
        0
176
     1
 90
       50
176
     1
 90
        3
176
     1
 62
     5
420
      255
176
     1
290
     0
176
     1
 90
       50
176
     1
 90
       50
176
     1
 90
       50
176
     1
290
     0
176
     1
 90
       50
176
     1
 62
   256
176
     0
 40
1.0
176
     0
 90
        2
176
     1
  1
strokes_ogs.tif
176
     1
290
     0
176
     1
 40
1.0
176
     1
 40
1.0
176
     1
  0
VISUALSTYLE
  5
8656
102
{ACAD_REACTORS
330
8652
102
}
330
8652
100
AcDbVisualStyle
  2
GouraudWithEdges
 70
     3
177
     3
291
     1
 70
    58
 90
        2
176
     1
 90
        2
176
     1
 90
        1
176
     1
 90
        2
176
     1
 40
0.6
176
     1
 40
30.0
176
     1
 62
     7
420
 16777215
176
     1
 90
        1
176
     1
 90
        0
176
     1
 62
     7
176
     1
 62
   257
176
     1
 90
        1
176
     1
 90
        1
176
     1
 40
1.0
176
     1
 90
        0
176
     1
 62
   257
176
     1
 40
1.0
176
     1
 90
        1
176
     1
 90
        6
176
     1
 90
        2
176
     1
 62
     7
176
     1
 90
        5
176
     1
 90
        0
176
     1
 90
        0
176
     1
290
     0
176
     1
 90
       13
176
     1
 40
0.0
176
     1
 90
        0
176
     1
290
     0
176
     1
290
     1
176
     1
290
     1
176
     1
290
     0
176
     1
290
     0
176
     1
290
     0
176
     1
290
     0
176
     1
290
     0
176
     1
290
     0
176
     1
 90
       50
176
     1
 40
0.0
176
     1
 40
1.0
176
     1
 90
        0
176
     1
 62
    18
420
        0
176
     1
 90
       50
176
     1
 90
        3
176
     1
 62
     5
420
      255
176
     1
290
     0
176
     1
 90
       50
176
     1
 90
       50
176
     1
 90
       50
176
     1
290
     0
176
     1
 90
       50
176
     1
 62
   256
176
     0
 40
1.0
176
     0
 90
        2
176
     1
  1
strokes_ogs.tif
176
     1
290
     0
176
     1
 40
1.0
176
     1
 40
1.0
176
     1
  0
VISUALSTYLE
  5
865A
102
{ACAD_REACTORS
330
8652
102
}
330
8652
100
AcDbVisualStyle
  2
Hidden
 70
     6
177
     3
291
     0
 70
    58
 90
        1
176
     1
 90
        2
176
     1
 90
        2
176
     1
 90
        0
176
     1
 40
0.6
176
     1
 40
30.0
176
     1
 62
     7
420
 16777215
176
     1
 90
        2
176
     1
 90
        2
176
     1
 62
     7
176
     1
 62
   257
176
     1
 90
        2
176
     1
 90
        1
176
     1
 40
40.0
176
     1
 90
        0
176
     1
 62
   257
176
     1
 40
1.0
176
     1
 90
        1
176
     1
 90
        6
176
     1
 90
        2
176
     1
 62
     7
176
     1
 90
        3
176
     1
 90
        0
176
     1
 90
        0
176
     1
290
     0
176
     1
 90
        1
176
     1
 40
0.0
176
     1
 90
        0
176
     1
290
     0
176
     1
290
     1
176
     1
290
     1
176
     1
290
     0
176
     1
290
     0
176
     1
290
     0
176
     1
290
     0
176
     1
290
     0
176
     1
290
     0
176
     1
 90
       50
176
     1
 40
0.0
176
     1
 40
1.0
176
     1
 90
        0
176
     1
 62
    18
420
        0
176
     1
 90
       50
176
     1
 90
        3
176
     1
 62
     5
420
      255
176
     1
290
     0
176
     1
 90
       50
176
     1
 90
       50
176
     1
 90
       50
176
     1
290
     0
176
     1
 90
       50
176
     1
 62
   256
176
     0
 40
1.0
176
     0
 90
        2
176
     1
  1
strokes_ogs.tif
176
     1
290
     0
176
     1
 40
1.0
176
     1
 40
1.0
176
     1
  0
VISUALSTYLE
  5
8668
102
{ACAD_REACTORS
330
8652
102
}
330
8652
100
AcDbVisualStyle
  2
JitterOff
 70
    20
177
     3
291
     1
 70
    58
 90
        2
176
     0
 90
        2
176
     0
 90
        0
176
     0
 90
        0
176
     0
 40
0.6
176
     0
 40
30.0
176
     0
 62
     7
420
 16777215
176
     0
 90
        1
176
     0
 90
        4
176
     0
 62
     7
176
     0
 62
   257
176
     0
 90
        1
176
     0
 90
        1
176
     0
 40
1.0
176
     0
 90
       10
176
     2
 62
     7
176
     0
 40
1.0
176
     0
 90
        1
176
     0
 90
        6
176
     0
 90
        2
176
     0
 62
     7
176
     0
 90
        5
176
     0
 90
        0
176
     0
 90
        0
176
     0
290
     0
176
     0
 90
        1
176
     0
 40
0.0
176
     0
 90
        0
176
     0
290
     0
176
     0
290
     1
176
     0
290
     1
176
     0
290
     0
176
     0
290
     0
176
     0
290
     0
176
     0
290
     0
176
     0
290
     0
176
     0
290
     0
176
     0
 90
       50
176
     0
 40
0.0
176
     0
 40
1.0
176
     0
 90
        0
176
     0
 62
    18
420
        0
176
     0
 90
       50
176
     0
 90
        3
176
     0
 62
     5
420
      255
176
     0
290
     0
176
     0
 90
       50
176
     0
 90
       50
176
     0
 90
       50
176
     0
290
     0
176
     0
 90
       50
176
     0
 62
   256
176
     0
 40
1.0
176
     0
 90
        2
176
     0
  1
strokes_ogs.tif
176
     0
290
     0
176
     0
 40
1.0
176
     0
 40
1.0
176
     0
  0
VISUALSTYLE
  5
8660
102
{ACAD_REACTORS
330
8652
102
}
330
8652
100
AcDbVisualStyle
  2
Linepattern
 70
    14
177
     3
291
     1
 70
    58
 90
        2
176
     1
 90
        2
176
     1
 90
        0
176
     1
 90
        0
176
     1
 40
0.6
176
     1
 40
30.0
176
     1
 62
     7
420
 16777215
176
     1
 90
        1
176
     1
 90
        4
176
     1
 62
     7
176
     1
 62
   257
176
     1
 90
        7
176
     1
 90
        7
176
     1
 40
1.0
176
     1
 90
        8
176
     1
 62
     7
176
     1
 40
1.0
176
     1
 90
        1
176
     1
 90
        6
176
     1
 90
        2
176
     1
 62
     7
176
     1
 90
        5
176
     1
 90
        0
176
     1
 90
        0
176
     1
290
     0
176
     1
 90
        1
176
     1
 40
0.0
176
     1
 90
        0
176
     1
290
     0
176
     1
290
     1
176
     1
290
     1
176
     1
290
     0
176
     1
290
     0
176
     1
290
     0
176
     1
290
     0
176
     1
290
     0
176
     1
290
     0
176
     1
 90
       50
176
     1
 40
0.0
176
     1
 40
1.0
176
     1
 90
        0
176
     1
 62
    18
420
        0
176
     1
 90
       50
176
     1
 90
        3
176
     1
 62
     5
420
      255
176
     1
290
     0
176
     1
 90
       50
176
     1
 90
       50
176
     1
 90
       50
176
     1
290
     0
176
     1
 90
       50
176
     1
 62
   256
176
     0
 40
1.0
176
     0
 90
        2
176
     1
  1
strokes_ogs.tif
176
     1
290
     0
176
     1
 40
1.0
176
     1
 40
1.0
176
     1
  0
VISUALSTYLE
  5
8669
102
{ACAD_REACTORS
330
8652
102
}
330
8652
100
AcDbVisualStyle
  2
OverhangOff
 70
    21
177
     3
291
     1
 70
    58
 90
        2
176
     0
 90
        2
176
     0
 90
        0
176
     0
 90
        0
176
     0
 40
0.6
176
     0
 40
30.0
176
     0
 62
     7
420
 16777215
176
     0
 90
        1
176
     0
 90
        4
176
     0
 62
     7
176
     0
 62
   257
176
     0
 90
        1
176
     0
 90
        1
176
     0
 40
1.0
176
     0
 90
        9
176
     2
 62
     7
176
     0
 40
1.0
176
     0
 90
        1
176
     0
 90
        6
176
     0
 90
        2
176
     0
 62
     7
176
     0
 90
        5
176
     0
 90
        0
176
     0
 90
        0
176
     0
290
     0
176
     0
 90
        1
176
     0
 40
0.0
176
     0
 90
        0
176
     0
290
     0
176
     0
290
     1
176
     0
290
     1
176
     0
290
     0
176
     0
290
     0
176
     0
290
     0
176
     0
290
     0
176
     0
290
     0
176
     0
290
     0
176
     0
 90
       50
176
     0
 40
0.0
176
     0
 40
1.0
176
     0
 90
        0
176
     0
 62
    18
420
        0
176
     0
 90
       50
176
     0
 90
        3
176
     0
 62
     5
420
      255
176
     0
290
     0
176
     0
 90
       50
176
     0
 90
       50
176
     0
 90
       50
176
     0
290
     0
176
     0
 90
       50
176
     0
 62
   256
176
     0
 40
1.0
176
     0
 90
        2
176
     0
  1
strokes_ogs.tif
176
     0
290
     0
176
     0
 40
1.0
176
     0
 40
1.0
176
     0
  0
VISUALSTYLE
  5
865C
102
{ACAD_REACTORS
330
8652
102
}
330
8652
100
AcDbVisualStyle
  2
Realistic
 70
     8
177
     3
291
     0
 70
    58
 90
        2
176
     1
 90
        3
176
     1
 90
        0
176
     1
 90
        2
176
     1
 40
0.6
176
     1
 40
30.0
176
     1
 62
     7
420
 16777215
176
     1
 90
        0
176
     1
 90
        0
176
     1
 62
     7
176
     1
 62
   257
176
     1
 90
        1
176
     1
 90
        1
176
     1
 40
1.0
176
     1
 90
        8
176
     1
 62
   257
176
     1
 40
1.0
176
     1
 90
        1
176
     1
 90
        6
176
     1
 90
        2
176
     1
 62
     7
176
     1
 90
        3
176
     1
 90
        0
176
     1
 90
        0
176
     1
290
     0
176
     1
 90
       13
176
     1
 40
0.0
176
     1
 90
        0
176
     1
290
     0
176
     1
290
     1
176
     1
290
     1
176
     1
290
     0
176
     1
290
     0
176
     1
290
     0
176
     1
290
     0
176
     1
290
     0
176
     1
290
     0
176
     1
 90
       50
176
     1
 40
0.0
176
     1
 40
1.0
176
     1
 90
        0
176
     1
 62
    18
420
        0
176
     1
 90
       50
176
     1
 90
        3
176
     1
 62
     5
420
      255
176
     1
290
     0
176
     1
 90
       50
176
     1
 90
       50
176
     1
 90
       50
176
     1
290
     0
176
     1
 90
       50
176
     1
 62
   256
176
     0
 40
1.0
176
     0
 90
        2
176
     1
  1
strokes_ogs.tif
176
     1
290
     0
176
     1
 40
1.0
176
     1
 40
1.0
176
     1
  0
VISUALSTYLE
  5
8667
102
{ACAD_REACTORS
330
8652
102
}
330
8652
100
AcDbVisualStyle
  2
Shaded
 70
    27
177
     3
291
     0
 70
    58
 90
        2
176
     1
 90
        2
176
     1
 90
        1
176
     1
 90
        2
176
     1
 40
0.6
176
     1
 40
30.0
176
     1
 62
     7
420
 16777215
176
     1
 90
        0
176
     1
 90
        4
176
     1
 62
     7
176
     1
 62
   257
176
     1
 90
        1
176
     1
 90
        1
176
     1
 40
1.0
176
     1
 90
        8
176
     1
 62
   257
176
     1
 40
1.0
176
     1
 90
        1
176
     1
 90
        6
176
     1
 90
        2
176
     1
 62
     8
420
  7895160
176
     1
 90
        3
176
     1
 90
        0
176
     1
 90
        0
176
     1
290
     0
176
     1
 90
        5
176
     1
 40
0.0
176
     1
 90
        0
176
     1
290
     0
176
     1
290
     1
176
     1
290
     1
176
     1
290
     0
176
     1
290
     0
176
     1
290
     0
176
     1
290
     0
176
     1
290
     0
176
     1
290
     0
176
     1
 90
       50
176
     1
 40
0.0
176
     1
 40
1.0
176
     1
 90
        0
176
     1
 62
    18
420
        0
176
     1
 90
       50
176
     1
 90
        3
176
     1
 62
     5
420
      255
176
     1
290
     0
176
     1
 90
       50
176
     1
 90
       50
176
     1
 90
       50
176
     1
290
     0
176
     1
 90
       50
176
     1
 62
   256
176
     0
 40
1.0
176
     0
 90
        2
176
     1
  1
strokes_ogs.tif
176
     1
290
     0
176
     1
 40
1.0
176
     1
 40
1.0
176
     1
  0
VISUALSTYLE
  5
8666
102
{ACAD_REACTORS
330
8652
102
}
330
8652
100
AcDbVisualStyle
  2
Shaded with edges
 70
    26
177
     3
291
     0
 70
    58
 90
        2
176
     1
 90
        2
176
     1
 90
        1
176
     1
 90
        2
176
     1
 40
0.6
176
     1
 40
30.0
176
     1
 62
     7
420
 16777215
176
     1
 90
        1
176
     1
 90
       10
176
     1
 62
     7
176
     1
 62
   257
176
     1
 90
        2
176
     1
 90
        1
176
     1
 40
1.0
176
     1
 90
        8
176
     1
 62
   257
176
     1
 40
1.0
176
     1
 90
        1
176
     1
 90
        6
176
     1
 90
        2
176
     1
 62
     7
176
     1
 90
        3
176
     1
 90
        0
176
     1
 90
        0
176
     1
290
     0
176
     1
 90
        5
176
     1
 40
0.0
176
     1
 90
        0
176
     1
290
     0
176
     1
290
     1
176
     1
290
     1
176
     1
290
     0
176
     1
290
     0
176
     1
290
     0
176
     1
290
     0
176
     1
290
     0
176
     1
290
     0
176
     1
 90
       50
176
     1
 40
0.0
176
     1
 40
1.0
176
     1
 90
        0
176
     1
 62
    18
420
        0
176
     1
 90
       50
176
     1
 90
        3
176
     1
 62
     5
420
      255
176
     1
290
     0
176
     1
 90
       50
176
     1
 90
       50
176
     1
 90
       50
176
     1
290
     0
176
     1
 90
       50
176
     1
 62
   256
176
     0
 40
1.0
176
     0
 90
        2
176
     1
  1
strokes_ogs.tif
176
     1
290
     0
176
     1
 40
1.0
176
     1
 40
1.0
176
     1
  0
VISUALSTYLE
  5
8663
102
{ACAD_REACTORS
330
8652
102
}
330
8652
100
AcDbVisualStyle
  2
Shades of Gray
 70
    23
177
     3
291
     0
 70
    58
 90
        2
176
     1
 90
        2
176
     1
 90
        3
176
     1
 90
        0
176
     1
 40
0.6
176
     1
 40
30.0
176
     1
 62
     7
420
 16777215
176
     1
 90
        2
176
     1
 90
        2
176
     1
 62
     7
176
     1
 62
     7
176
     1
 90
        1
176
     1
 90
        1
176
     1
 40
40.0
176
     1
 90
        8
176
     1
 62
     7
176
     1
 40
1.0
176
     1
 90
        1
176
     1
 90
        6
176
     1
 90
        2
176
     1
 62
     7
176
     1
 90
        3
176
     1
 90
        0
176
     1
 90
        0
176
     1
290
     0
176
     1
 90
        1
176
     1
 40
0.0
176
     1
 90
        0
176
     1
290
     0
176
     1
290
     1
176
     1
290
     1
176
     1
290
     0
176
     1
290
     0
176
     1
290
     0
176
     1
290
     0
176
     1
290
     0
176
     1
290
     0
176
     1
 90
       50
176
     1
 40
0.0
176
     1
 40
1.0
176
     1
 90
        0
176
     1
 62
    18
420
        0
176
     1
 90
       50
176
     1
 90
        3
176
     1
 62
     5
420
      255
176
     1
290
     0
176
     1
 90
       50
176
     1
 90
       50
176
     1
 90
       50
176
     1
290
     0
176
     1
 90
       50
176
     1
 62
   256
176
     0
 40
1.0
176
     0
 90
        2
176
     1
  1
strokes_ogs.tif
176
     1
290
     0
176
     1
 40
1.0
176
     1
 40
1.0
176
     1
  0
VISUALSTYLE
  5
8664
102
{ACAD_REACTORS
330
8652
102
}
330
8652
100
AcDbVisualStyle
  2
Sketchy
 70
    24
177
     3
291
     0
 70
    58
 90
        1
176
     1
 90
        2
176
     1
 90
        2
176
     1
 90
        0
176
     1
 40
0.6
176
     1
 40
30.0
176
     1
 62
     7
420
 16777215
176
     1
 90
        2
176
     1
 90
        2
176
     1
 62
     7
176
     1
 62
     7
176
     1
 90
        1
176
     1
 90
        1
176
     1
 40
40.0
176
     1
 90
       11
176
     1
 62
     7
176
     1
 40
1.0
176
     1
 90
        1
176
     1
 90
        6
176
     1
 90
        2
176
     1
 62
     7
176
     1
 90
        6
176
     1
 90
        0
176
     1
 90
        0
176
     1
290
     0
176
     1
 90
        1
176
     1
 40
0.0
176
     1
 90
        0
176
     1
290
     0
176
     1
290
     1
176
     1
290
     1
176
     1
290
     0
176
     1
290
     0
176
     1
290
     0
176
     1
290
     0
176
     1
290
     0
176
     1
290
     0
176
     1
 90
       50
176
     1
 40
0.0
176
     1
 40
1.0
176
     1
 90
        0
176
     1
 62
    18
420
        0
176
     1
 90
       50
176
     1
 90
        3
176
     1
 62
     5
420
      255
176
     1
290
     0
176
     1
 90
       50
176
     1
 90
       50
176
     1
 90
       50
176
     1
290
     0
176
     1
 90
       50
176
     1
 62
   256
176
     0
 40
1.0
176
     0
 90
        2
176
     1
  1
strokes_ogs.tif
176
     1
290
     0
176
     1
 40
1.0
176
     1
 40
1.0
176
     1
  0
VISUALSTYLE
  5
865F
102
{ACAD_REACTORS
330
8652
102
}
330
8652
100
AcDbVisualStyle
  2
Thicken
 70
    13
177
     3
291
     1
 70
    58
 90
        2
176
     1
 90
        2
176
     1
 90
        0
176
     1
 90
        0
176
     1
 40
0.6
176
     1
 40
30.0
176
     1
 62
     7
420
 16777215
176
     1
 90
        1
176
     1
 90
        4
176
     1
 62
     7
176
     1
 62
   257
176
     1
 90
        1
176
     1
 90
        1
176
     1
 40
1.0
176
     1
 90
       12
176
     1
 62
     7
176
     1
 40
1.0
176
     1
 90
        1
176
     1
 90
        6
176
     1
 90
        2
176
     1
 62
     7
176
     1
 90
        5
176
     1
 90
        0
176
     1
 90
        0
176
     1
290
     0
176
     1
 90
        1
176
     1
 40
0.0
176
     1
 90
        0
176
     1
290
     0
176
     1
290
     1
176
     1
290
     1
176
     1
290
     0
176
     1
290
     0
176
     1
290
     0
176
     1
290
     0
176
     1
290
     0
176
     1
290
     0
176
     1
 90
       50
176
     1
 40
0.0
176
     1
 40
1.0
176
     1
 90
        0
176
     1
 62
    18
420
        0
176
     1
 90
       50
176
     1
 90
        3
176
     1
 62
     5
420
      255
176
     1
290
     0
176
     1
 90
       50
176
     1
 90
       50
176
     1
 90
       50
176
     1
290
     0
176
     1
 90
       50
176
     1
 62
   256
176
     0
 40
1.0
176
     0
 90
        2
176
     1
  1
strokes_ogs.tif
176
     1
290
     0
176
     1
 40
1.0
176
     1
 40
1.0
176
     1
  0
VISUALSTYLE
  5
8659
102
{ACAD_REACTORS
330
8652
102
}
330
8652
100
AcDbVisualStyle
  2
Wireframe
 70
     5
177
     3
291
     0
 70
    58
 90
        0
176
     1
 90
        2
176
     1
 90
        0
176
     1
 90
        0
176
     1
 40
0.6
176
     1
 40
30.0
176
     1
 62
     7
420
 16777215
176
     1
 90
        1
176
     1
 90
        4
176
     1
 62
     7
176
     1
 62
   257
176
     1
 90
        1
176
     1
 90
        1
176
     1
 40
1.0
176
     1
 90
        0
176
     1
 62
   257
176
     1
 40
1.0
176
     1
 90
        1
176
     1
 90
        6
176
     1
 90
        2
176
     1
 62
     7
176
     1
 90
        3
176
     1
 90
        0
176
     1
 90
        0
176
     1
290
     0
176
     1
 90
        1
176
     1
 40
0.0
176
     1
 90
        0
176
     1
290
     0
176
     1
290
     1
176
     1
290
     1
176
     1
290
     0
176
     1
290
     0
176
     1
290
     0
176
     1
290
     0
176
     1
290
     0
176
     1
290
     0
176
     1
 90
       50
176
     1
 40
0.0
176
     1
 40
1.0
176
     1
 90
        0
176
     1
 62
    18
420
        0
176
     1
 90
       50
176
     1
 90
        3
176
     1
 62
     5
420
      255
176
     1
290
     0
176
     1
 90
       50
176
     1
 90
       50
176
     1
 90
       50
176
     1
290
     0
176
     1
 90
       50
176
     1
 62
   256
176
     0
 40
1.0
176
     0
 90
        2
176
     1
  1
strokes_ogs.tif
176
     1
290
     0
176
     1
 40
1.0
176
     1
 40
1.0
176
     1
  0
VISUALSTYLE
  5
8665
102
{ACAD_REACTORS
330
8652
102
}
330
8652
100
AcDbVisualStyle
  2
X-Ray
 70
    25
177
     3
291
     0
 70
    58
 90
        2
176
     1
 90
        2
176
     1
 90
        1
176
     1
 90
        1
176
     1
 40
0.5
176
     1
 40
30.0
176
     1
 62
     7
420
 16777215
176
     1
 90
        1
176
     1
 90
        0
176
     1
 62
     7
176
     1
 62
   257
176
     1
 90
        1
176
     1
 90
        1
176
     1
 40
1.0
176
     1
 90
        8
176
     1
 62
     7
176
     1
 40
1.0
176
     1
 90
        1
176
     1
 90
        6
176
     1
 90
        2
176
     1
 62
     7
176
     1
 90
        3
176
     1
 90
        0
176
     1
 90
        0
176
     1
290
     0
176
     1
 90
       13
176
     1
 40
0.0
176
     1
 90
        0
176
     1
290
     0
176
     1
290
     1
176
     1
290
     1
176
     1
290
     0
176
     1
290
     0
176
     1
290
     0
176
     1
290
     0
176
     1
290
     0
176
     1
290
     0
176
     1
 90
       50
176
     1
 40
0.0
176
     1
 40
1.0
176
     1
 90
        0
176
     1
 62
    18
420
        0
176
     1
 90
       50
176
     1
 90
        3
176
     1
 62
     5
420
      255
176
     1
290
     0
176
     1
 90
       50
176
     1
 90
       50
176
     1
 90
       50
176
     1
290
     0
176
     1
 90
       50
176
     1
 62
   256
176
     0
 40
1.0
176
     0
 90
        2
176
     1
  1
strokes_ogs.tif
176
     1
290
     0
176
     1
 40
1.0
176
     1
 40
1.0
176
     1
  0
DICTIONARYVAR
  5
9612
102
{ACAD_REACTORS
330
960C
102
}
330
960C
100
DictionaryVariables
280
     0
  1
1:1
  0
DICTIONARYVAR
  5
960E
102
{ACAD_REACTORS
330
960C
102
}
330
960C
100
DictionaryVariables
280
     0
  1
STANDARD
  0
DICTIONARYVAR
  5
960D
102
{ACAD_REACTORS
330
960C
102
}
330
960C
100
DictionaryVariables
280
     0
  1
STANDARD
  0
DICTIONARYVAR
  5
960F
102
{ACAD_REACTORS
330
960C
102
}
330
960C
100
DictionaryVariables
280
     0
  1
Metric50
  0
DICTIONARYVAR
  5
9610
102
{ACAD_REACTORS
330
960C
102
}
330
960C
100
DictionaryVariables
280
     0
  1
Metric50
  0
DICTIONARYVAR
  5
9614
102
{ACAD_REACTORS
330
960C
102
}
330
960C
100
DictionaryVariables
280
     0
  1
1
  0
DICTIONARYVAR
  5
9615
102
{ACAD_REACTORS
330
960C
102
}
330
960C
100
DictionaryVariables
280
     0
  1
15
  0
DICTIONARYVAR
  5
9613
102
{ACAD_REACTORS
330
960C
102
}
330
960C
100
DictionaryVariables
280
     0
  1
0
  0
DICTIONARYVAR
  5
9611
102
{ACAD_REACTORS
330
960C
102
}
330
960C
100
DictionaryVariables
280
     0
  1
0
  0
DICTIONARY
  5
9609
330
8685
100
AcDbDictionary
280
     1
281
     1
  3
ACAD_XREC_ROUNDTRIP
360
9685
  0
DICTIONARY
  5
8643
330
8642
100
AcDbDictionary
280
     1
281
     1
  3
BUMPTILE
360
8645
  3
DIFFUSETILE
360
8644
  3
OPACITYTILE
360
8648
  3
REFLECTIONTILE
360
8647
  3
REFRACTIONTILE
360
8649
  3
SPECULARTILE
360
8646
  0
DICTIONARY
  5
863B
330
863A
100
AcDbDictionary
280
     1
281
     1
  3
BUMPTILE
360
863D
  3
DIFFUSETILE
360
863C
  3
OPACITYTILE
360
8640
  3
REFLECTIONTILE
360
863F
  3
REFRACTIONTILE
360
8641
  3
SPECULARTILE
360
863E
  0
DICTIONARY
  5
864B
330
864A
100
AcDbDictionary
280
     1
281
     1
  3
BUMPTILE
360
864D
  3
DIFFUSETILE
360
864C
  3
OPACITYTILE
360
8650
  3
REFLECTIONTILE
360
864F
  3
REFRACTIONTILE
360
8651
  3
SPECULARTILE
360
864E
  0
DICTIONARY
  5
9607
330
8683
100
AcDbDictionary
280
     1
281
     1
  3
ACAD_XREC_ROUNDTRIP
360
9684
  0
DICTIONARY
  5
9682
330
866D
100
AcDbDictionary
280
     1
281
     1
  3
ACAD_ROUNDTRIP_2008_TABLESTYLE_CELLSTYLEMAP
360
9683
  0
XRECORD
  5
9685
102
{ACAD_REACTORS
330
9609
102
}
330
9609
100
AcDbXrecord
280
     1
102
DISPLAYNAME
  1
Metric50
102
FLAGS
 90
        0
  0
XRECORD
  5
8645
102
{ACAD_REACTORS
330
8643
102
}
330
8643
100
AcDbXrecord
280
     1
270
     1
271
     1
  0
XRECORD
  5
8644
102
{ACAD_REACTORS
330
8643
102
}
330
8643
100
AcDbXrecord
280
     1
270
     1
271
     1
  0
XRECORD
  5
8648
102
{ACAD_REACTORS
330
8643
102
}
330
8643
100
AcDbXrecord
280
     1
270
     1
271
     1
  0
XRECORD
  5
8647
102
{ACAD_REACTORS
330
8643
102
}
330
8643
100
AcDbXrecord
280
     1
270
     1
271
     1
  0
XRECORD
  5
8649
102
{ACAD_REACTORS
330
8643
102
}
330
8643
100
AcDbXrecord
280
     1
270
     1
271
     1
  0
XRECORD
  5
8646
102
{ACAD_REACTORS
330
8643
102
}
330
8643
100
AcDbXrecord
280
     1
270
     1
271
     1
  0
XRECORD
  5
863D
102
{ACAD_REACTORS
330
863B
102
}
330
863B
100
AcDbXrecord
280
     1
270
     1
271
     1
  0
XRECORD
  5
863C
102
{ACAD_REACTORS
330
863B
102
}
330
863B
100
AcDbXrecord
280
     1
270
     1
271
     1
  0
XRECORD
  5
8640
102
{ACAD_REACTORS
330
863B
102
}
330
863B
100
AcDbXrecord
280
     1
270
     1
271
     1
  0
XRECORD
  5
863F
102
{ACAD_REACTORS
330
863B
102
}
330
863B
100
AcDbXrecord
280
     1
270
     1
271
     1
  0
XRECORD
  5
8641
102
{ACAD_REACTORS
330
863B
102
}
330
863B
100
AcDbXrecord
280
     1
270
     1
271
     1
  0
XRECORD
  5
863E
102
{ACAD_REACTORS
330
863B
102
}
330
863B
100
AcDbXrecord
280
     1
270
     1
271
     1
  0
XRECORD
  5
864D
102
{ACAD_REACTORS
330
864B
102
}
330
864B
100
AcDbXrecord
280
     1
270
     1
271
     1
  0
XRECORD
  5
864C
102
{ACAD_REACTORS
330
864B
102
}
330
864B
100
AcDbXrecord
280
     1
270
     1
271
     1
  0
XRECORD
  5
8650
102
{ACAD_REACTORS
330
864B
102
}
330
864B
100
AcDbXrecord
280
     1
270
     1
271
     1
  0
XRECORD
  5
864F
102
{ACAD_REACTORS
330
864B
102
}
330
864B
100
AcDbXrecord
280
     1
270
     1
271
     1
  0
XRECORD
  5
8651
102
{ACAD_REACTORS
330
864B
102
}
330
864B
100
AcDbXrecord
280
     1
270
     1
271
     1
  0
XRECORD
  5
864E
102
{ACAD_REACTORS
330
864B
102
}
330
864B
100
AcDbXrecord
280
     1
270
     1
271
     1
  0
XRECORD
  5
9684
102
{ACAD_REACTORS
330
9607
102
}
330
9607
100
AcDbXrecord
280
     1
102
DISPLAYNAME
  1
Metric50
102
FLAGS
 90
        0
  0
CELLSTYLEMAP
  5
9683
102
{ACAD_REACTORS
330
9682
102
}
330
9682
100
AcDbCellStyleMap
 90
        3
300
CELLSTYLE
  1
TABLEFORMAT_BEGIN
 90
        5
170
     1
 91
        0
 92
    32768
 62
   257
 93
        1
300
CONTENTFORMAT
  1
CONTENTFORMAT_BEGIN
 90
        0
 91
        0
 92
      512
 93
        0
300

 40
0.0
140
1.0
 94
        5
 62
     0
340
10
144
6.0
309
CONTENTFORMAT_END
171
     1
301
MARGIN
  1
CELLMARGIN_BEGIN
 40
1.5
 40
1.5
 40
1.5
 40
1.5
 40
4.5
 40
4.5
309
CELLMARGIN_END
 94
        6
 95
        1
302
GRIDFORMAT
  1
GRIDFORMAT_BEGIN
 90
        0
 91
        1
 62
     0
 92
       -2
340
0
 93
        0
 40
1.125
309
GRIDFORMAT_END
 95
        2
302
GRIDFORMAT
  1
GRIDFORMAT_BEGIN
 90
        0
 91
        1
 62
     0
 92
       -2
340
0
 93
        0
 40
1.125
309
GRIDFORMAT_END
 95
        4
302
GRIDFORMAT
  1
GRIDFORMAT_BEGIN
 90
        0
 91
        1
 62
     0
 92
       -2
340
0
 93
        0
 40
1.125
309
GRIDFORMAT_END
 95
        8
302
GRIDFORMAT
  1
GRIDFORMAT_BEGIN
 90
        0
 91
        1
 62
     0
 92
       -2
340
0
 93
        0
 40
1.125
309
GRIDFORMAT_END
 95
       16
302
GRIDFORMAT
  1
GRIDFORMAT_BEGIN
 90
        0
 91
        1
 62
     0
 92
       -2
340
0
 93
        0
 40
1.125
309
GRIDFORMAT_END
 95
       32
302
GRIDFORMAT
  1
GRIDFORMAT_BEGIN
 90
        0
 91
        1
 62
     0
 92
       -2
340
0
 93
        0
 40
1.125
309
GRIDFORMAT_END
309
TABLEFORMAT_END
  1
CELLSTYLE_BEGIN
 90
        1
 91
        1
300
_TITLE
309
CELLSTYLE_END
300
CELLSTYLE
  1
TABLEFORMAT_BEGIN
 90
        5
170
     1
 91
        0
 92
        0
 62
   257
 93
        1
300
CONTENTFORMAT
  1
CONTENTFORMAT_BEGIN
 90
        0
 91
        0
 92
      512
 93
        0
300

 40
0.0
140
1.0
 94
        5
 62
     0
340
10
144
4.5
309
CONTENTFORMAT_END
171
     1
301
MARGIN
  1
CELLMARGIN_BEGIN
 40
1.5
 40
1.5
 40
1.5
 40
1.5
 40
4.5
 40
4.5
309
CELLMARGIN_END
 94
        6
 95
        1
302
GRIDFORMAT
  1
GRIDFORMAT_BEGIN
 90
        0
 91
        1
 62
     0
 92
       -2
340
0
 93
        0
 40
1.125
309
GRIDFORMAT_END
 95
        2
302
GRIDFORMAT
  1
GRIDFORMAT_BEGIN
 90
        0
 91
        1
 62
     0
 92
       -2
340
0
 93
        0
 40
1.125
309
GRIDFORMAT_END
 95
        4
302
GRIDFORMAT
  1
GRIDFORMAT_BEGIN
 90
        0
 91
        1
 62
     0
 92
       -2
340
0
 93
        0
 40
1.125
309
GRIDFORMAT_END
 95
        8
302
GRIDFORMAT
  1
GRIDFORMAT_BEGIN
 90
        0
 91
        1
 62
     0
 92
       -2
340
0
 93
        0
 40
1.125
309
GRIDFORMAT_END
 95
       16
302
GRIDFORMAT
  1
GRIDFORMAT_BEGIN
 90
        0
 91
        1
 62
     0
 92
       -2
340
0
 93
        0
 40
1.125
309
GRIDFORMAT_END
 95
       32
302
GRIDFORMAT
  1
GRIDFORMAT_BEGIN
 90
        0
 91
        1
 62
     0
 92
       -2
340
0
 93
        0
 40
1.125
309
GRIDFORMAT_END
309
TABLEFORMAT_END
  1
CELLSTYLE_BEGIN
 90
        2
 91
        1
300
_HEADER
309
CELLSTYLE_END
300
CELLSTYLE
  1
TABLEFORMAT_BEGIN
 90
        5
170
     1
 91
        0
 92
        0
 62
   257
 93
        1
300
CONTENTFORMAT
  1
CONTENTFORMAT_BEGIN
 90
        0
 91
        0
 92
      512
 93
        0
300

 40
0.0
140
1.0
 94
        2
 62
     0
340
10
144
4.5
309
CONTENTFORMAT_END
171
     1
301
MARGIN
  1
CELLMARGIN_BEGIN
 40
1.5
 40
1.5
 40
1.5
 40
1.5
 40
4.5
 40
4.5
309
CELLMARGIN_END
 94
        6
 95
        1
302
GRIDFORMAT
  1
GRIDFORMAT_BEGIN
 90
        0
 91
        1
 62
     0
 92
       -2
340
0
 93
        0
 40
1.125
309
GRIDFORMAT_END
 95
        2
302
GRIDFORMAT
  1
GRIDFORMAT_BEGIN
 90
        0
 91
        1
 62
     0
 92
       -2
340
0
 93
        0
 40
1.125
309
GRIDFORMAT_END
 95
        4
302
GRIDFORMAT
  1
GRIDFORMAT_BEGIN
 90
        0
 91
        1
 62
     0
 92
       -2
340
0
 93
        0
 40
1.125
309
GRIDFORMAT_END
 95
        8
302
GRIDFORMAT
  1
GRIDFORMAT_BEGIN
 90
        0
 91
        1
 62
     0
 92
       -2
340
0
 93
        0
 40
1.125
309
GRIDFORMAT_END
 95
       16
302
GRIDFORMAT
  1
GRIDFORMAT_BEGIN
 90
        0
 91
        1
 62
     0
 92
       -2
340
0
 93
        0
 40
1.125
309
GRIDFORMAT_END
 95
       32
302
GRIDFORMAT
  1
GRIDFORMAT_BEGIN
 90
        0
 91
        1
 62
     0
 92
       -2
340
0
 93
        0
 40
1.125
309
GRIDFORMAT_END
309
TABLEFORMAT_END
  1
CELLSTYLE_BEGIN
 90
        3
 91
        2
300
_DATA
309
CELLSTYLE_END
  0
ENDSEC
  0
SECTION
  2
ACDSDATA
 70
     2
 71
     8
  0
ACDSSCHEMA
 90
        0
  1
AcDb_Thumbnail_Schema
  2
AcDbDs::ID
280
    10
 91
        8
  2
Thumbnail_Data
280
    15
 91
        0
101
ACDSRECORD
 95
        0
 90
        1
  2
AcDbDs::TreatedAsObjectData
280
     1
291
     1
101
ACDSRECORD
 95
        0
 90
        2
  2
AcDbDs::Legacy
280
     1
291
     1
101
ACDSRECORD
  1
AcDbDs::ID
 90
        3
  2
AcDs:Indexable
280
     1
291
     1
101
ACDSRECORD
  1
AcDbDs::ID
 90
        4
  2
AcDbDs::HandleAttribute
280
     7
282
     1
  0
ACDSSCHEMA
 90
        1
  1
AcDbDs::TreatedAsObjectDataSchema
  2
AcDbDs::TreatedAsObjectData
280
     1
 91
        0
  0
ACDSSCHEMA
 90
        2
  1
AcDbDs::LegacySchema
  2
AcDbDs::Legacy
280
     1
 91
        0
  0
ACDSSCHEMA
 90
        3
  1
AcDbDs::IndexedPropertySchema
  2
AcDs:Indexable
280
     1
 91
        0
  0
ACDSSCHEMA
 90
        4
  1
AcDbDs::HandleAttributeSchema
  2
AcDbDs::HandleAttribute
280
     7
 91
        1
284
     1
  0
ACDSRECORD
 90
        0
  2
AcDbDs::ID
280
    10
320
8628
  2
Thumbnail_Data
280
    15
 94
     1673
310
89504E470D0A1A0A0000000D49484452000001000000007C0803000000B13B9E5A00000300504C5445000000000000C8C8C80000000000000000000000000000000000000000000000000000330000660000990000CC0000FF0033000033330033660033990033CC0033FF0066000066330066660066990066CC0066FF0099
310
000099330099660099990099CC0099FF00CC0000CC3300CC6600CC9900CCCC00CCFF00FF0000FF3300FF6600FF9900FFCC00FFFF3300003300333300663300993300CC3300FF3333003333333333663333993333CC3333FF3366003366333366663366993366CC3366FF3399003399333399663399993399CC3399FF33CC00
310
33CC3333CC6633CC9933CCCC33CCFF33FF0033FF3333FF6633FF9933FFCC33FFFF6600006600336600666600996600CC6600FF6633006633336633666633996633CC6633FF6666006666336666666666996666CC6666FF6699006699336699666699996699CC6699FF66CC0066CC3366CC6666CC9966CCCC66CCFF66FF0066
310
FF3366FF6666FF9966FFCC66FFFF9900009900339900669900999900CC9900FF9933009933339933669933999933CC9933FF9966009966339966669966999966CC9966FF9999009999339999669999999999CC9999FF99CC0099CC3399CC6699CC9999CCCC99CCFF99FF0099FF3399FF6699FF9999FFCC99FFFFCC0000CC00
310
33CC0066CC0099CC00CCCC00FFCC3300CC3333CC3366CC3399CC33CCCC33FFCC6600CC6633CC6666CC6699CC66CCCC66FFCC9900CC9933CC9966CC9999CC99CCCC99FFCCCC00CCCC33CCCC66CCCC99CCCCCCCCCCFFCCFF00CCFF33CCFF66CCFF99CCFFCCCCFFFFFF0000FF0033FF0066FF0099FF00CCFF00FFFF3300FF3333
310
FF3366FF3399FF33CCFF33FFFF6600FF6633FF6666FF6699FF66CCFF66FFFF9900FF9933FF9966FF9999FF99CCFF99FFFFCC00FFCC33FFCC66FFCC99FFCCCCFFCCFFFFFF00FFFF33FFFF66FFFF99FFFFCCFFFFFF0000000D0D0D1A1A1A2828283535354343435050505D5D5D6B6B6B787878868686939393A1A1A1AEAEAEBB
310
BBBBC9C9C9D6D6D6E4E4E4F1F1F1FFFFFF00000000000000000000000000000000000000000000000000000000000008F1915C000003054944415478DAED9D4B722B310845598E26EC7F336C43F36723B5BE7467E2E45970E58A5D65ABBBCCD105F48B4CF40B25FF52A1534A3EEAB600000000000000F03DDFF421F94501B0
310
5C9E432A203C801C19C0E2056703F8E808E048005F763300F80F00AA8EFB4BFD2343E8D930D203002AD63693A98168D62B12B286FC3E1430EB6012436E82F00C20B74E5EA659042DE96504419700A2F7033E7A873301180DBAB56F1EAA96545883620400B9D9DA53647D389910598D9DDEA989A255ECE6672F0AF8E0F59813
310
040000000000000000000000381E408A0B80B5A4F2121240570000C40390A6C229C50020AFC2AD045480C84BF81CD805E46D365B251080C1622E6DCF5D152100A8EC630210000000000080C8000800E8A61B040061C6023A184A1B0189331C36001469840160D68A08E0ED0E2101D8052E1006C077DF160000000000000000
310
000000E02FBEE9CF3DE0DE49DE6B86180B0C9FB80240CB78D002F02322178321511A6A9C3C0E8E8C1A1E003CB980AC727009607BB6756232F203A06C9058A5305AAB7B4AC4A902AE09D266BD01C09C37F601A0AE12E9DA9094046102A0E413007717784BBCE44400D801E8E2E11207CF5E18A95E5DB7CA9A00866D5315C04C
310
E56400430CD020A82F0B8061DF1857179813A10B005C6C2B4D3C0741E700AADFA7F72369225CFA01FBEAA92B006D497CD92E3FC439D7002E83755780C600EE83A30140CF822FC9B0902305A462F39505B80D941F0138C902BA373E552728F16D07A03516007EFA01C4A9ED15663601CC0AB076537B8801D4FB017DAEE8CE05
310
C81B801A06893A001A010CFF42E00CC09ADEE63448661A7407206D00D60911C700D692A6C9AF9BAD229E5D802705447001B371B7AEF07C491C05DCC400F19406BBBF536F76691D81A1565B19BCC6CA8E0088014084EE01385A17B85D1C1579AEE5340DEEDEF1E9DB9E038000201880F0274ADE58568E58353F0D04C06E786F
310
00C8F8D9A4EBA0C5680A8819036C05503F629BAE833623C5803C9EB94E5100186F0E0A21C480D0274BA32B0C0000000000000000000000000000702480837E7AFB1F52E68B068F3927040000000049454E44AE4260824260823F5AA09BB8B70C400780E908C0EDF5712C00000000000000000000000000005805F8D1F6FACB
310
FD020819FF0A133255800000000049454E44AE426082
  0
ENDSEC
  0
EOF
