  0
SECTION
  2
HEADER
  9
$ACADVER
  1
AC1027
  9
$ACADMAINTVER
 70
    81
  9
$DWGCODEPAGE
  3
ANSI_932
  9
$LASTSAVEDBY
  1
reiko.miyawaki
  9
$REQUIREDVERSIONS
160
                 0
  9
$INSBASE
 10
0.0
 20
0.0
 30
0.0
  9
$EXTMIN
 10
0.0
 20
0.0
 30
0.0
  9
$EXTMAX
 10
2520.0
 20
3540.0
 30
0.0
  9
$LIMMIN
 10
0.0
 20
0.0
  9
$LIMMAX
 10
297.0
 20
210.0
  9
$ORTHOMODE
 70
     0
  9
$REGENMODE
 70
     1
  9
$FILLMODE
 70
     0
  9
$QTEXTMODE
 70
     0
  9
$MIRRTEXT
 70
     1
  9
$LTSCALE
 40
100.0
  9
$ATTMODE
 70
     1
  9
$TEXTSIZE
 40
180.0
  9
$TRACEWID
 40
0.05
  9
$TEXTSTYLE
  7
STANDARD
  9
$CLAYER
  8
3
  9
$CELTYPE
  6
BYLAYER
  9
$CECOLOR
 62
   256
  9
$CELTSCALE
 40
1.0
  9
$DISPSILH
 70
     0
  9
$DIMSCALE
 40
12.0
  9
$DIMASZ
 40
2.0
  9
$DIMEXO
 40
0.5
  9
$DIMDLI
 40
10.0
  9
$DIMRND
 40
0.0
  9
$DIMDLE
 40
0.0
  9
$DIMEXE
 40
1.0
  9
$DIMTP
 40
1.0
  9
$DIMTM
 40
1.0
  9
$DIMTXT
 40
3.0
  9
$DIMCEN
 40
0.0
  9
$DIMTSZ
 40
0.0
  9
$DIMTOL
 70
     0
  9
$DIMLIM
 70
     0
  9
$DIMTIH
 70
     0
  9
$DIMTOH
 70
     0
  9
$DIMSE1
 70
     0
  9
$DIMSE2
 70
     0
  9
$DIMTAD
 70
     1
  9
$DIMZIN
 70
     8
  9
$DIMBLK
  1

  9
$DIMASO
 70
     1
  9
$DIMSHO
 70
     1
  9
$DIMPOST
  1
(<>)
  9
$DIMAPOST
  1

  9
$DIMALT
 70
     0
  9
$DIMALTD
 70
     2
  9
$DIMALTF
 40
0.039
  9
$DIMLFAC
 40
1.0
  9
$DIMTOFL
 70
     1
  9
$DIMTVP
 40
0.0
  9
$DIMTIX
 70
     0
  9
$DIMSOXD
 70
     0
  9
$DIMSAH
 70
     1
  9
$DIMBLK1
  1
OPEN
  9
$DIMBLK2
  1
OPEN
  9
$DIMSTYLE
  2
IGA
  9
$DIMCLRD
 70
     0
  9
$DIMCLRE
 70
     0
  9
$DIMCLRT
 70
     0
  9
$DIMTFAC
 40
10.0
  9
$DIMGAP
 40
1.0
  9
$DIMJUST
 70
     0
  9
$DIMSD1
 70
     0
  9
$DIMSD2
 70
     0
  9
$DIMTOLJ
 70
     1
  9
$DIMTZIN
 70
     8
  9
$DIMALTZ
 70
     0
  9
$DIMALTTZ
 70
     0
  9
$DIMUPT
 70
     0
  9
$DIMDEC
 70
     0
  9
$DIMTDEC
 70
     0
  9
$DIMALTU
 70
     2
  9
$DIMALTTD
 70
     2
  9
$DIMTXSTY
  7
STANDARD
  9
$DIMAUNIT
 70
     0
  9
$DIMADEC
 70
     0
  9
$DIMALTRND
 40
0.0
  9
$DIMAZIN
 70
     0
  9
$DIMDSEP
 70
    46
  9
$DIMATFIT
 70
     3
  9
$DIMFRAC
 70
     0
  9
$DIMLDRBLK
  1
OPEN
  9
$DIMLUNIT
 70
     2
  9
$DIMLWD
 70
    -2
  9
$DIMLWE
 70
    -2
  9
$DIMTMOVE
 70
     2
  9
$DIMFXL
 40
1.0
  9
$DIMFXLON
 70
     0
  9
$DIMJOGANG
 40
0.7853981633974483
  9
$DIMTFILL
 70
     0
  9
$DIMTFILLCLR
 70
     0
  9
$DIMARCSYM
 70
     0
  9
$DIMLTYPE
  6

  9
$DIMLTEX1
  6

  9
$DIMLTEX2
  6

  9
$DIMTXTDIRECTION
 70
     0
  9
$LUNITS
 70
     2
  9
$LUPREC
 70
     3
  9
$SKETCHINC
 40
0.1
  9
$FILLETRAD
 40
50.0
  9
$AUNITS
 70
     0
  9
$AUPREC
 70
     0
  9
$MENU
  1
acad
  9
$ELEVATION
 40
0.0
  9
$PELEVATION
 40
0.0
  9
$THICKNESS
 40
0.0
  9
$LIMCHECK
 70
     0
  9
$CHAMFERA
 40
0.5
  9
$CHAMFERB
 40
0.5
  9
$CHAMFERC
 40
20.0
  9
$CHAMFERD
 40
0.0
  9
$SKPOLY
 70
     0
  9
$TDCREATE
 40
2451936.457337963
  9
$TDUCREATE
 40
2451936.082337963
  9
$TDUPDATE
 40
2459024.485705868
  9
$TDUUPDATE
 40
2459024.110705868
  9
$TDINDWG
 40
0.1793144792
  9
$TDUSRTIMER
 40
0.1793144792
  9
$USRTIMER
 70
     1
  9
$ANGBASE
 50
0.0
  9
$ANGDIR
 70
     0
  9
$PDMODE
 70
     0
  9
$PDSIZE
 40
0.0
  9
$PLINEWID
 40
0.0
  9
$SPLFRAME
 70
     0
  9
$SPLINETYPE
 70
     6
  9
$SPLINESEGS
 70
     8
  9
$HANDSEED
  5
84AD
  9
$SURFTAB1
 70
     6
  9
$SURFTAB2
 70
     6
  9
$SURFTYPE
 70
     6
  9
$SURFU
 70
     6
  9
$SURFV
 70
     6
  9
$UCSBASE
  2

  9
$UCSNAME
  2

  9
$UCSORG
 10
0.0
 20
0.0
 30
0.0
  9
$UCSXDIR
 10
1.0
 20
0.0
 30
0.0
  9
$UCSYDIR
 10
0.0
 20
1.0
 30
0.0
  9
$UCSORTHOREF
  2

  9
$UCSORTHOVIEW
 70
     0
  9
$UCSORGTOP
 10
0.0
 20
0.0
 30
0.0
  9
$UCSORGBOTTOM
 10
0.0
 20
0.0
 30
0.0
  9
$UCSORGLEFT
 10
0.0
 20
0.0
 30
0.0
  9
$UCSORGRIGHT
 10
0.0
 20
0.0
 30
0.0
  9
$UCSORGFRONT
 10
0.0
 20
0.0
 30
0.0
  9
$UCSORGBACK
 10
0.0
 20
0.0
 30
0.0
  9
$PUCSBASE
  2

  9
$PUCSNAME
  2

  9
$PUCSORG
 10
0.0
 20
0.0
 30
0.0
  9
$PUCSXDIR
 10
1.0
 20
0.0
 30
0.0
  9
$PUCSYDIR
 10
0.0
 20
1.0
 30
0.0
  9
$PUCSORTHOREF
  2

  9
$PUCSORTHOVIEW
 70
     0
  9
$PUCSORGTOP
 10
0.0
 20
0.0
 30
0.0
  9
$PUCSORGBOTTOM
 10
0.0
 20
0.0
 30
0.0
  9
$PUCSORGLEFT
 10
0.0
 20
0.0
 30
0.0
  9
$PUCSORGRIGHT
 10
0.0
 20
0.0
 30
0.0
  9
$PUCSORGFRONT
 10
0.0
 20
0.0
 30
0.0
  9
$PUCSORGBACK
 10
0.0
 20
0.0
 30
0.0
  9
$USERI1
 70
     0
  9
$USERI2
 70
     0
  9
$USERI3
 70
     0
  9
$USERI4
 70
     0
  9
$USERI5
 70
     0
  9
$USERR1
 40
0.0
  9
$USERR2
 40
0.0
  9
$USERR3
 40
0.0
  9
$USERR4
 40
0.0
  9
$USERR5
 40
0.0
  9
$WORLDVIEW
 70
     1
  9
$SHADEDGE
 70
     3
  9
$SHADEDIF
 70
    70
  9
$TILEMODE
 70
     1
  9
$MAXACTVP
 70
    16
  9
$PINSBASE
 10
0.0
 20
0.0
 30
0.0
  9
$PLIMCHECK
 70
     0
  9
$PEXTMIN
 10
1.000000000000000E+20
 20
1.000000000000000E+20
 30
1.000000000000000E+20
  9
$PEXTMAX
 10
-1.000000000000000E+20
 20
-1.000000000000000E+20
 30
-1.000000000000000E+20
  9
$PLIMMIN
 10
0.0
 20
0.0
  9
$PLIMMAX
 10
12.0
 20
9.0
  9
$UNITMODE
 70
     0
  9
$VISRETAIN
 70
     0
  9
$PLINEGEN
 70
     0
  9
$PSLTSCALE
 70
     1
  9
$TREEDEPTH
 70
  3020
  9
$CMLSTYLE
  2
STANDARD
  9
$CMLJUST
 70
     0
  9
$CMLSCALE
 40
20.0
  9
$PROXYGRAPHICS
 70
     1
  9
$MEASUREMENT
 70
     1
  9
$CELWEIGHT
370
    -1
  9
$ENDCAPS
280
     0
  9
$JOINSTYLE
280
     0
  9
$LWDISPLAY
290
     0
  9
$INSUNITS
 70
     0
  9
$HYPERLINKBASE
  1

  9
$STYLESHEET
  1

  9
$XEDIT
290
     1
  9
$CEPSNTYPE
380
     0
  9
$PSTYLEMODE
290
     1
  9
$FINGERPRINTGUID
  2
{85B16229-C75E-4985-BA87-A5D209E4761B}
  9
$VERSIONGUID
  2
{D0565054-E4FD-4308-9C4E-38E44878DB68}
  9
$EXTNAMES
290
     1
  9
$PSVPSCALE
 40
0.0
  9
$OLESTARTUP
290
     0
  9
$SORTENTS
280
   127
  9
$INDEXCTL
280
     0
  9
$HIDETEXT
280
     0
  9
$XCLIPFRAME
280
     2
  9
$HALOGAP
280
     0
  9
$OBSCOLOR
 70
   257
  9
$OBSLTYPE
280
     0
  9
$INTERSECTIONDISPLAY
280
     0
  9
$INTERSECTIONCOLOR
 70
   257
  9
$DIMASSOC
280
     1
  9
$PROJECTNAME
  1

  9
$CAMERADISPLAY
290
     0
  9
$LENSLENGTH
 40
50.0
  9
$CAMERAHEIGHT
 40
0.0
  9
$STEPSPERSEC
 40
2.0
  9
$STEPSIZE
 40
6.0
  9
$3DDWFPREC
 40
2.0
  9
$PSOLWIDTH
 40
0.25
  9
$PSOLHEIGHT
 40
4.0
  9
$LOFTANG1
 40
1.570796326794896
  9
$LOFTANG2
 40
1.570796326794896
  9
$LOFTMAG1
 40
0.0
  9
$LOFTMAG2
 40
0.0
  9
$LOFTPARAM
 70
     7
  9
$LOFTNORMALS
280
     1
  9
$LATITUDE
 40
37.795
  9
$LONGITUDE
 40
-122.394
  9
$NORTHDIRECTION
 40
0.0
  9
$TIMEZONE
 70
 -8000
  9
$LIGHTGLYPHDISPLAY
280
     1
  9
$TILEMODELIGHTSYNCH
280
     1
  9
$CMATERIAL
347
83B2
  9
$SOLIDHIST
280
     0
  9
$SHOWHIST
280
     1
  9
$DWFFRAME
280
     2
  9
$DGNFRAME
280
     0
  9
$REALWORLDSCALE
290
     1
  9
$INTERFERECOLOR
 62
     1
  9
$INTERFEREOBJVS
345
83D4
  9
$INTERFEREVPVS
346
83D1
  9
$CSHADOW
280
     0
  9
$SHADOWPLANELOCATION
 40
0.0
  0
ENDSEC
  0
SECTION
  2
CLASSES
  0
CLASS
  1
ACDBDICTIONARYWDFLT
  2
AcDbDictionaryWithDefault
  3
ObjectDBX Classes
 90
        0
 91
        1
280
     0
281
     0
  0
CLASS
  1
MATERIAL
  2
AcDbMaterial
  3
ObjectDBX Classes
 90
     1153
 91
        3
280
     0
281
     0
  0
CLASS
  1
VISUALSTYLE
  2
AcDbVisualStyle
  3
ObjectDBX Classes
 90
     4095
 91
       24
280
     0
281
     0
  0
CLASS
  1
TABLESTYLE
  2
AcDbTableStyle
  3
ObjectDBX Classes
 90
     4095
 91
        1
280
     0
281
     0
  0
CLASS
  1
SCALE
  2
AcDbScale
  3
ObjectDBX Classes
 90
     1153
 91
       17
280
     0
281
     0
  0
CLASS
  1
MLEADERSTYLE
  2
AcDbMLeaderStyle
  3
ACDB_MLEADERSTYLE_CLASS
 90
     4095
 91
        1
280
     0
281
     0
  0
CLASS
  1
ACDBSECTIONVIEWSTYLE
  2
AcDbSectionViewStyle
  3
ObjectDBX Classes
 90
     1025
 91
        1
280
     0
281
     0
  0
CLASS
  1
ACDBDETAILVIEWSTYLE
  2
AcDbDetailViewStyle
  3
ObjectDBX Classes
 90
     1025
 91
        1
280
     0
281
     0
  0
CLASS
  1
SORTENTSTABLE
  2
AcDbSortentsTable
  3
ObjectDBX Classes
 90
        0
 91
        1
280
     0
281
     0
  0
CLASS
  1
DICTIONARYVAR
  2
AcDbDictionaryVar
  3
ObjectDBX Classes
 90
        0
 91
        9
280
     0
281
     0
  0
CLASS
  1
CELLSTYLEMAP
  2
AcDbCellStyleMap
  3
ObjectDBX Classes
 90
     1152
 91
        1
280
     0
281
     0
  0
ENDSEC
  0
SECTION
  2
TABLES
  0
TABLE
  2
VPORT
  5
8
330
0
100
AcDbSymbolTable
 70
     1
  0
VPORT
  5
83AF
330
8
100
AcDbSymbolTableRecord
100
AcDbViewportTableRecord
  2
*Active
 70
     0
 10
0.0
 20
0.0
 11
1.0
 21
1.0
 12
1260.000017603069
 22
1854.74632484365
 13
0.0
 23
0.0
 14
10.0
 24
10.0
 15
10.0
 25
10.0
 16
0.0
 26
0.0
 36
1.0
 17
0.0
 27
0.0
 37
0.0
 40
3732.269387335591
 41
1.957107843137254
 42
50.0
 43
0.0
 44
0.0
 50
0.0
 51
0.0
 71
     0
 72
   100
 73
     1
 74
     0
 75
     0
 76
     0
 77
     0
 78
     0
281
     0
 65
     1
110
0.0
120
0.0
130
0.0
111
1.0
121
0.0
131
0.0
112
0.0
122
1.0
132
0.0
 79
     0
146
0.0
348
83D0
 60
     3
 61
     5
292
     1
282
     1
141
0.0
142
0.0
 63
   250
421
  3355443
1001
ACAD_NAV_VCDISPLAY
1070
     3
  0
ENDTAB
  0
TABLE
  2
LTYPE
  5
5
330
0
100
AcDbSymbolTable
 70
     2
  0
LTYPE
  5
13
330
5
100
AcDbSymbolTableRecord
100
AcDbLinetypeTableRecord
  2
BYBLOCK
 70
     0
  3

 72
    65
 73
     0
 40
0.0
  0
LTYPE
  5
14
330
5
100
AcDbSymbolTableRecord
100
AcDbLinetypeTableRecord
  2
BYLAYER
 70
     0
  3

 72
    65
 73
     0
 40
0.0
  0
LTYPE
  5
15
330
5
100
AcDbSymbolTableRecord
100
AcDbLinetypeTableRecord
  2
CONTINUOUS
 70
     0
  3
Solid line
 72
    65
 73
     0
 40
0.0
  0
LTYPE
  5
1F
330
5
100
AcDbSymbolTableRecord
100
AcDbLinetypeTableRecord
  2
CENTER
 70
     0
  3
____ _ ____ _ ____ _ ____ _ ____ _ ____ _ ____ 
 72
    65
 73
     4
 40
2.0
 49
1.25
 74
     0
 49
-0.25
 74
     0
 49
0.25
 74
     0
 49
-0.25
 74
     0
  0
ENDTAB
  0
TABLE
  2
LAYER
  5
2
102
{ACAD_XDICTIONARY
360
8461
102
}
330
0
100
AcDbSymbolTable
 70
     6
  0
LAYER
  5
F
102
{ACAD_XDICTIONARY
360
8454
102
}
330
2
100
AcDbSymbolTableRecord
100
AcDbLayerTableRecord
  2
0
 70
     0
 62
     7
  6
CONTINUOUS
370
    -3
390
83A2
347
83C2
348
0
  0
LAYER
  5
31
102
{ACAD_XDICTIONARY
360
8456
102
}
330
2
100
AcDbSymbolTableRecord
100
AcDbLayerTableRecord
  2
3
 70
     0
 62
     2
  6
CONTINUOUS
370
    -3
390
83A2
347
83C2
348
0
  0
LAYER
  5
76D0
102
{ACAD_XDICTIONARY
360
8458
102
}
330
2
100
AcDbSymbolTableRecord
100
AcDbLayerTableRecord
  2
2
 70
     0
 62
     3
  6
CENTER
370
    -3
390
83A2
347
83C2
348
0
  0
LAYER
  5
76D1
102
{ACAD_XDICTIONARY
360
845A
102
}
330
2
100
AcDbSymbolTableRecord
100
AcDbLayerTableRecord
  2
1
 70
     0
 62
     4
  6
CONTINUOUS
370
    -3
390
83A2
347
83C2
348
0
  0
LAYER
  5
76D2
102
{ACAD_XDICTIONARY
360
845C
102
}
330
2
100
AcDbSymbolTableRecord
100
AcDbLayerTableRecord
  2
4
 70
     0
 62
     7
  6
CONTINUOUS
370
    -3
390
83A2
347
83C2
348
0
  0
LAYER
  5
7B0E
330
2
100
AcDbSymbolTableRecord
100
AcDbLayerTableRecord
  2
DEFPOINTS
 70
     0
 62
     7
  6
CONTINUOUS
290
     0
370
    -3
390
83A2
347
83C2
348
0
  0
ENDTAB
  0
TABLE
  2
STYLE
  5
3
330
0
100
AcDbSymbolTable
 70
     1
  0
STYLE
  5
10
330
3
100
AcDbSymbolTableRecord
100
AcDbTextStyleTableRecord
  2
STANDARD
 70
     0
 40
0.0
 41
1.0
 50
0.0
 71
     0
 42
180.0
  3
simplex.shx
  4
extfont.shx
  0
ENDTAB
  0
TABLE
  2
VIEW
  5
6
330
0
100
AcDbSymbolTable
 70
     0
  0
ENDTAB
  0
TABLE
  2
UCS
  5
7
330
0
100
AcDbSymbolTable
 70
     0
  0
ENDTAB
  0
TABLE
  2
APPID
  5
9
330
0
100
AcDbSymbolTable
 70
     4
  0
APPID
  5
11
330
9
100
AcDbSymbolTableRecord
100
AcDbRegAppTableRecord
  2
ACAD
 70
     0
  0
APPID
  5
8467
330
9
100
AcDbSymbolTableRecord
100
AcDbRegAppTableRecord
  2
ACAD_NAV_VCDISPLAY
 70
     0
  0
APPID
  5
8485
330
9
100
AcDbSymbolTableRecord
100
AcDbRegAppTableRecord
  2
AcadAnnoMonitorAlertIconDisabled
 70
     0
  0
APPID
  5
8486
330
9
100
AcDbSymbolTableRecord
100
AcDbRegAppTableRecord
  2
ACAD_EXEMPT_FROM_CAD_STANDARDS
 70
     0
  0
ENDTAB
  0
TABLE
  2
DIMSTYLE
  5
A
330
0
100
AcDbSymbolTable
 70
     1
100
AcDbDimStyleTable
 71
     1
340
1D
  0
DIMSTYLE
105
1D
102
{ACAD_REACTORS
330
7C7A
330
7C7B
330
7CA2
330
7CA3
330
7CA4
330
7CA5
330
7CB6
330
7CB7
330
7CBA
330
7CBB
330
7CF9
330
82E0
330
82ED
330
831F
330
832C
330
8339
330
8348
330
8365
330
8391
330
839E
102
}
330
A
100
AcDbSymbolTableRecord
100
AcDbDimStyleTableRecord
  2
IGA
 70
     0
 40
2.0
 41
2.0
 42
0.5
 43
10.0
 44
1.0
 47
1.0
 48
1.0
 73
     0
 74
     0
 77
     1
 78
     8
140
3.0
141
0.0
143
0.03937
146
10.0
147
1.0
173
     1
271
     1
272
     0
279
     2
284
     8
340
10
341
79FC
343
79FC
344
79FC
  0
ENDTAB
  0
TABLE
  2
BLOCK_RECORD
  5
1
330
0
100
AcDbSymbolTable
 70
    22
  0
BLOCK_RECORD
  5
19
102
{ACAD_XDICTIONARY
360
8402
102
}
330
1
100
AcDbSymbolTableRecord
100
AcDbBlockTableRecord
  2
*MODEL_SPACE
340
83A5
 70
     0
280
     1
281
     0
  0
BLOCK_RECORD
  5
16
330
1
100
AcDbSymbolTableRecord
100
AcDbBlockTableRecord
  2
*PAPER_SPACE
340
83A6
 70
     0
280
     1
281
     0
  0
BLOCK_RECORD
  5
79FC
330
1
100
AcDbSymbolTableRecord
100
AcDbBlockTableRecord
  2
_OPEN
340
0
102
{BLKREFS
331
8064
331
8065
331
80C0
331
80C1
331
80E4
331
80E5
331
80FB
331
80FC
331
816A
331
816B
331
81FE
331
81FF
331
8212
331
8213
331
821D
331
821E
331
8228
331
8229
331
8241
331
8242
331
82D9
331
82DA
331
82E6
331
82E7
331
8407
331
8408
331
8410
331
8411
331
8419
331
841A
331
8424
331
8425
331
8430
331
8443
331
8444
331
8450
331
8494
331
8495
102
}
 70
     0
280
     1
281
     0
  0
BLOCK_RECORD
  5
7D29
330
1
100
AcDbSymbolTableRecord
100
AcDbBlockTableRecord
  2
*D1
340
0
 70
     0
280
     1
281
     0
  0
BLOCK_RECORD
  5
7D35
330
1
100
AcDbSymbolTableRecord
100
AcDbBlockTableRecord
  2
*D2
340
0
 70
     0
280
     1
281
     0
  0
BLOCK_RECORD
  5
7D41
330
1
100
AcDbSymbolTableRecord
100
AcDbBlockTableRecord
  2
*D3
340
0
 70
     0
280
     1
281
     0
  0
BLOCK_RECORD
  5
7D4D
330
1
100
AcDbSymbolTableRecord
100
AcDbBlockTableRecord
  2
*D4
340
0
 70
     0
280
     1
281
     0
  0
BLOCK_RECORD
  5
7D58
330
1
100
AcDbSymbolTableRecord
100
AcDbBlockTableRecord
  2
*D5
340
0
 70
     0
280
     1
281
     0
  0
BLOCK_RECORD
  5
7D64
330
1
100
AcDbSymbolTableRecord
100
AcDbBlockTableRecord
  2
*D6
340
0
 70
     0
280
     1
281
     0
  0
BLOCK_RECORD
  5
7D9F
330
1
100
AcDbSymbolTableRecord
100
AcDbBlockTableRecord
  2
*D7
340
0
 70
     0
280
     1
281
     0
  0
BLOCK_RECORD
  5
7DAB
330
1
100
AcDbSymbolTableRecord
100
AcDbBlockTableRecord
  2
*D8
340
0
 70
     0
280
     1
281
     0
  0
BLOCK_RECORD
  5
7DD1
330
1
100
AcDbSymbolTableRecord
100
AcDbBlockTableRecord
  2
*D9
340
0
 70
     0
280
     1
281
     0
  0
BLOCK_RECORD
  5
7DDD
330
1
100
AcDbSymbolTableRecord
100
AcDbBlockTableRecord
  2
*D10
340
0
 70
     0
280
     1
281
     0
  0
BLOCK_RECORD
  5
7DF4
330
1
100
AcDbSymbolTableRecord
100
AcDbBlockTableRecord
  2
*D11
340
0
 70
     0
280
     1
281
     0
  0
BLOCK_RECORD
  5
8170
330
1
100
AcDbSymbolTableRecord
100
AcDbBlockTableRecord
  2
_DOT
340
0
102
{BLKREFS
331
842F
331
844F
102
}
 70
     0
280
     1
281
     0
  0
BLOCK_RECORD
  5
82D4
330
1
100
AcDbSymbolTableRecord
100
AcDbBlockTableRecord
  2
*D13
340
0
 70
     0
280
     1
281
     0
  0
BLOCK_RECORD
  5
82E1
330
1
100
AcDbSymbolTableRecord
100
AcDbBlockTableRecord
  2
*D14
340
0
 70
     0
280
     1
281
     0
  0
BLOCK_RECORD
  5
8313
330
1
100
AcDbSymbolTableRecord
100
AcDbBlockTableRecord
  2
*D15
340
0
 70
     0
280
     1
281
     0
  0
BLOCK_RECORD
  5
8320
330
1
100
AcDbSymbolTableRecord
100
AcDbBlockTableRecord
  2
*D16
340
0
 70
     0
280
     1
281
     0
  0
BLOCK_RECORD
  5
832D
330
1
100
AcDbSymbolTableRecord
100
AcDbBlockTableRecord
  2
*D17
340
0
 70
     0
280
     1
281
     0
  0
BLOCK_RECORD
  5
833A
330
1
100
AcDbSymbolTableRecord
100
AcDbBlockTableRecord
  2
*D18
340
0
 70
     0
280
     1
281
     0
  0
BLOCK_RECORD
  5
8357
330
1
100
AcDbSymbolTableRecord
100
AcDbBlockTableRecord
  2
*D19
340
0
 70
     0
280
     1
281
     0
  0
BLOCK_RECORD
  5
8385
330
1
100
AcDbSymbolTableRecord
100
AcDbBlockTableRecord
  2
*D20
340
0
 70
     0
280
     1
281
     0
  0
BLOCK_RECORD
  5
8392
330
1
100
AcDbSymbolTableRecord
100
AcDbBlockTableRecord
  2
*D21
340
0
 70
     0
280
     1
281
     0
  0
ENDTAB
  0
ENDSEC
  0
SECTION
  2
BLOCKS
  0
BLOCK
  5
1A
330
19
100
AcDbEntity
  8
0
100
AcDbBlockBegin
  2
*MODEL_SPACE
 70
     0
 10
0.0
 20
0.0
 30
0.0
  3
*MODEL_SPACE
  1

  0
ENDBLK
  5
1B
330
19
100
AcDbEntity
  8
0
100
AcDbBlockEnd
  0
BLOCK
  5
17
330
16
100
AcDbEntity
 67
     1
  8
0
100
AcDbBlockBegin
  2
*PAPER_SPACE
 70
     0
 10
0.0
 20
0.0
 30
0.0
  3
*PAPER_SPACE
  1

  0
ENDBLK
  5
18
330
16
100
AcDbEntity
 67
     1
  8
0
100
AcDbBlockEnd
  0
BLOCK
  5
7A00
330
79FC
100
AcDbEntity
  8
0
100
AcDbBlockBegin
  2
_OPEN
 70
     0
 10
0.0
 20
0.0
 30
0.0
  3
_OPEN
  1

  0
LINE
  5
79FD
330
79FC
100
AcDbEntity
  8
0
  6
ByBlock
 62
     0
100
AcDbLine
 10
-1.0
 20
0.1666666666666666
 30
0.0
 11
0.0
 21
0.0
 31
0.0
  0
LINE
  5
79FE
330
79FC
100
AcDbEntity
  8
0
  6
ByBlock
 62
     0
100
AcDbLine
 10
0.0
 20
0.0
 30
0.0
 11
-1.0
 21
-0.1666666666666666
 31
0.0
  0
LINE
  5
79FF
330
79FC
100
AcDbEntity
  8
0
  6
ByBlock
 62
     0
100
AcDbLine
 10
0.0
 20
0.0
 30
0.0
 11
-1.0
 21
0.0
 31
0.0
  0
ENDBLK
  5
7A01
330
79FC
100
AcDbEntity
  8
0
100
AcDbBlockEnd
  0
BLOCK
  5
8060
330
7D29
100
AcDbEntity
  8
0
100
AcDbBlockBegin
  2
*D1
 70
     1
 10
0.0
 20
0.0
 30
0.0
  3
*D1
  1

  0
LINE
  5
8061
330
7D29
100
AcDbEntity
  8
0
  6
ByBlock
 62
     0
440
 16777216
100
AcDbLine
 10
942.3387417027557
 20
1205.319013903112
 30
0.0
 11
1011.085548901496
 21
1205.319013903112
 31
0.0
  0
LINE
  5
8062
330
7D29
100
AcDbEntity
  8
0
  6
ByBlock
 62
     0
440
 16777216
100
AcDbLine
 10
942.3387417027557
 20
1005.319013903112
 30
0.0
 11
1011.085548901496
 21
1005.319013903112
 31
0.0
  0
LINE
  5
8063
330
7D29
100
AcDbEntity
  8
0
  6
ByBlock
 62
     0
440
 16777216
100
AcDbLine
 10
999.0855489014961
 20
1181.319013903112
 30
0.0
 11
999.0855489014961
 21
1029.319013903112
 31
0.0
  0
INSERT
  5
8064
330
7D29
100
AcDbEntity
  8
0
  6
ByBlock
 62
     0
440
 16777216
100
AcDbBlockReference
  2
_OPEN
 10
999.0855489014961
 20
1205.319013903112
 30
0.0
 41
24.0
 42
24.0
 43
24.0
 50
90.0
  0
INSERT
  5
8065
330
7D29
100
AcDbEntity
  8
0
  6
ByBlock
 62
     0
440
 16777216
100
AcDbBlockReference
  2
_OPEN
 10
999.0855489014961
 20
1005.319013903112
 30
0.0
 41
24.0
 42
24.0
 43
24.0
 50
270.0
  0
MTEXT
  5
8066
330
7D29
100
AcDbEntity
  8
0
  6
ByBlock
 62
     0
440
 16777216
100
AcDbMText
 10
969.0855489014962
 20
1105.319013903113
 30
0.0
 40
36.0
 41
0.0
 46
0.0
 71
     5
 72
     5
  1
\A1;200
 11
0.0
 21
1.0
 31
0.0
 73
     1
 44
1.0
  0
POINT
  5
8067
330
7D29
100
AcDbEntity
  8
DEFPOINTS
  6
ByBlock
 62
     0
440
 16777216
100
AcDbPoint
 10
936.3387417027556
 20
1205.319013903112
 30
0.0
  0
POINT
  5
8068
330
7D29
100
AcDbEntity
  8
DEFPOINTS
  6
ByBlock
 62
     0
440
 16777216
100
AcDbPoint
 10
936.3387417027556
 20
1005.319013903112
 30
0.0
  0
POINT
  5
8069
330
7D29
100
AcDbEntity
  8
DEFPOINTS
  6
ByBlock
 62
     0
440
 16777216
100
AcDbPoint
 10
999.0855489014961
 20
1005.319013903112
 30
0.0
  0
ENDBLK
  5
806A
330
7D29
100
AcDbEntity
  8
0
100
AcDbBlockEnd
  0
BLOCK
  5
80BC
330
7D35
100
AcDbEntity
  8
0
100
AcDbBlockBegin
  2
*D2
 70
     1
 10
0.0
 20
0.0
 30
0.0
  3
*D2
  1

  0
LINE
  5
80BD
330
7D35
100
AcDbEntity
  8
0
  6
ByBlock
 62
     0
440
 16777216
100
AcDbLine
 10
942.703143826926
 20
1204.319013903112
 30
0.0
 11
1073.782320610699
 21
1204.319013903112
 31
0.0
  0
LINE
  5
80BE
330
7D35
100
AcDbEntity
  8
0
  6
ByBlock
 62
     0
440
 16777216
100
AcDbLine
 10
942.3387417027557
 20
1005.319013903112
 30
0.0
 11
1073.782320610699
 21
1005.319013903112
 31
0.0
  0
LINE
  5
80BF
330
7D35
100
AcDbEntity
  8
0
  6
ByBlock
 62
     0
440
 16777216
100
AcDbLine
 10
1061.782320610699
 20
1180.319013903113
 30
0.0
 11
1061.782320610699
 21
1029.319013903112
 31
0.0
  0
INSERT
  5
80C0
330
7D35
100
AcDbEntity
  8
0
  6
ByBlock
 62
     0
440
 16777216
100
AcDbBlockReference
  2
_OPEN
 10
1061.782320610699
 20
1204.319013903112
 30
0.0
 41
24.0
 42
24.0
 43
24.0
 50
90.0
  0
INSERT
  5
80C1
330
7D35
100
AcDbEntity
  8
0
  6
ByBlock
 62
     0
440
 16777216
100
AcDbBlockReference
  2
_OPEN
 10
1061.782320610699
 20
1005.319013903112
 30
0.0
 41
24.0
 42
24.0
 43
24.0
 50
270.0
  0
MTEXT
  5
80C2
330
7D35
100
AcDbEntity
  8
0
  6
ByBlock
 62
     0
440
 16777216
100
AcDbMText
 10
1031.782320610699
 20
1104.819013903112
 30
0.0
 40
36.0
 41
0.0
 46
0.0
 71
     5
 72
     5
  1
\A1;199
 11
0.0
 21
1.0
 31
0.0
 73
     1
 44
1.0
  0
POINT
  5
80C3
330
7D35
100
AcDbEntity
  8
DEFPOINTS
  6
ByBlock
 62
     0
440
 16777216
100
AcDbPoint
 10
936.7031438269259
 20
1204.319013903112
 30
0.0
  0
POINT
  5
80C4
330
7D35
100
AcDbEntity
  8
DEFPOINTS
  6
ByBlock
 62
     0
440
 16777216
100
AcDbPoint
 10
936.3387417027556
 20
1005.319013903112
 30
0.0
  0
POINT
  5
80C5
330
7D35
100
AcDbEntity
  8
DEFPOINTS
  6
ByBlock
 62
     0
440
 16777216
100
AcDbPoint
 10
1061.782320610699
 20
1005.319013903112
 30
0.0
  0
ENDBLK
  5
80C6
330
7D35
100
AcDbEntity
  8
0
100
AcDbBlockEnd
  0
BLOCK
  5
823C
330
7D41
100
AcDbEntity
  8
0
100
AcDbBlockBegin
  2
*D3
 70
     1
 10
0.0
 20
0.0
 30
0.0
  3
*D3
  1

  0
LINE
  5
823D
330
7D41
100
AcDbEntity
  8
0
  6
ByBlock
 62
     0
440
 16777216
100
AcDbLine
 10
2147.1786052943
 20
1340.781028517881
 30
0.0
 11
2147.1786052943
 21
1498.664722940763
 31
0.0
  0
LINE
  5
823E
330
7D41
100
AcDbEntity
  8
0
  6
ByBlock
 62
     0
440
 16777216
100
AcDbLine
 10
2070.178605294301
 20
1455.107821285677
 30
0.0
 11
2070.178605294301
 21
1498.664722940763
 31
0.0
  0
LINE
  5
823F
330
7D41
100
AcDbEntity
  8
0
  6
ByBlock
 62
     0
440
 16777216
100
AcDbLine
 10
2123.178605294301
 20
1486.664722940763
 30
0.0
 11
2094.178605294301
 21
1486.664722940763
 31
0.0
  0
MTEXT
  5
8240
330
7D41
100
AcDbEntity
  8
0
  6
ByBlock
 62
     0
440
 16777216
100
AcDbMText
 10
2105.942944431974
 20
1513.649229356842
 30
0.0
 40
36.0
 41
0.0
 46
0.0
 71
     5
 72
     5
  1
\A1;79
 73
     1
 44
1.0
  0
INSERT
  5
8241
330
7D41
100
AcDbEntity
  8
0
  6
ByBlock
 62
     0
440
 16777216
100
AcDbBlockReference
  2
_OPEN
 10
2147.1786052943
 20
1486.664722940763
 30
0.0
 41
24.0
 42
24.0
 43
24.0
  0
INSERT
  5
8242
330
7D41
100
AcDbEntity
  8
0
  6
ByBlock
 62
     0
440
 16777216
100
AcDbBlockReference
  2
_OPEN
 10
2070.178605294301
 20
1486.664722940763
 30
0.0
 41
24.0
 42
24.0
 43
24.0
 50
180.0
  0
POINT
  5
8243
330
7D41
100
AcDbEntity
  8
DEFPOINTS
  6
ByBlock
 62
     0
440
 16777216
100
AcDbPoint
 10
2147.1786052943
 20
1334.781028517881
 30
0.0
  0
POINT
  5
8244
330
7D41
100
AcDbEntity
  8
DEFPOINTS
  6
ByBlock
 62
     0
440
 16777216
100
AcDbPoint
 10
2070.178605294301
 20
1449.107821285677
 30
0.0
  0
POINT
  5
8245
330
7D41
100
AcDbEntity
  8
DEFPOINTS
  6
ByBlock
 62
     0
440
 16777216
100
AcDbPoint
 10
2070.178605294301
 20
1486.664722940763
 30
0.0
  0
ENDBLK
  5
8246
330
7D41
100
AcDbEntity
  8
0
100
AcDbBlockEnd
  0
BLOCK
  5
81EF
330
7D4D
100
AcDbEntity
  8
0
100
AcDbBlockBegin
  2
*D4
 70
     1
 10
0.0
 20
0.0
 30
0.0
  3
*D4
  1

  0
LINE
  5
8491
330
7D4D
100
AcDbEntity
  8
3
 62
     0
440
 16777216
370
    -2
100
AcDbLine
 10
2070.178605294301
 20
1455.107821285677
 30
0.0
 11
2070.178605294301
 21
1498.664722940763
 31
0.0
  0
LINE
  5
8492
330
7D4D
100
AcDbEntity
  8
3
 62
     0
440
 16777216
370
    -2
100
AcDbLine
 10
1637.1786052943
 20
1290.41107287649
 30
0.0
 11
1637.1786052943
 21
1498.664722940763
 31
0.0
  0
LINE
  5
8493
330
7D4D
100
AcDbEntity
  8
3
 62
     0
440
 16777216
370
    -2
100
AcDbLine
 10
2046.178605294301
 20
1486.664722940763
 30
0.0
 11
1661.1786052943
 21
1486.664722940763
 31
0.0
  0
INSERT
  5
8494
330
7D4D
100
AcDbEntity
  8
3
 62
     0
440
 16777216
370
    -2
100
AcDbBlockReference
  2
_OPEN
 10
2070.178605294301
 20
1486.664722940763
 30
0.0
 41
24.0
 42
24.0
 43
24.0
  0
INSERT
  5
8495
330
7D4D
100
AcDbEntity
  8
3
 62
     0
440
 16777216
370
    -2
100
AcDbBlockReference
  2
_OPEN
 10
1637.1786052943
 20
1486.664722940763
 30
0.0
 41
24.0
 42
24.0
 43
24.0
 50
180.0
  0
MTEXT
  5
8496
330
7D4D
100
AcDbEntity
  8
3
 62
     0
440
 16777216
100
AcDbMText
 10
1853.6786052943
 20
1556.093294369334
 30
0.0
 40
36.0
 41
0.0
 46
0.0
 71
     5
 72
     1
  1
\A1;\P(520)
 73
     1
 44
1.0
  0
POINT
  5
8497
330
7D4D
100
AcDbEntity
  8
DEFPOINTS
 62
     0
440
 16777216
100
AcDbPoint
 10
2070.178605294301
 20
1449.107821285677
 30
0.0
  0
POINT
  5
8498
330
7D4D
100
AcDbEntity
  8
DEFPOINTS
 62
     0
440
 16777216
100
AcDbPoint
 10
1637.1786052943
 20
1284.41107287649
 30
0.0
  0
POINT
  5
8499
330
7D4D
100
AcDbEntity
  8
DEFPOINTS
 62
     0
440
 16777216
100
AcDbPoint
 10
1637.1786052943
 20
1486.664722940763
 30
0.0
  0
ENDBLK
  5
81F9
330
7D4D
100
AcDbEntity
  8
0
100
AcDbBlockEnd
  0
BLOCK
  5
8165
330
7D58
100
AcDbEntity
  8
0
100
AcDbBlockBegin
  2
*D5
 70
     1
 10
0.0
 20
0.0
 30
0.0
  3
*D5
  1

  0
LINE
  5
8166
330
7D58
100
AcDbEntity
  8
0
  6
ByBlock
 62
     0
440
 16777216
100
AcDbLine
 10
1995.1786052943
 20
1355.2688249965
 30
0.0
 11
1995.1786052943
 21
1408.255427391128
 31
0.0
  0
LINE
  5
8167
330
7D58
100
AcDbEntity
  8
0
  6
ByBlock
 62
     0
440
 16777216
100
AcDbLine
 10
2145.178605294299
 20
1355.268830133644
 30
0.0
 11
2145.178605294299
 21
1408.255427391128
 31
0.0
  0
LINE
  5
8168
330
7D58
100
AcDbEntity
  8
0
  6
ByBlock
 62
     0
440
 16777216
100
AcDbLine
 10
2019.1786052943
 20
1396.255427391128
 30
0.0
 11
2121.1786052943
 21
1396.255427391128
 31
0.0
  0
MTEXT
  5
8169
330
7D58
100
AcDbEntity
  8
0
  6
ByBlock
 62
     0
440
 16777216
100
AcDbMText
 10
2070.1786052943
 20
1425.759014819349
 30
0.0
 40
36.0
 41
0.0
 46
0.0
 71
     5
 72
     5
  1
\A1;150
 73
     1
 44
1.0
  0
INSERT
  5
816A
330
7D58
100
AcDbEntity
  8
0
  6
ByBlock
 62
     0
440
 16777216
100
AcDbBlockReference
  2
_OPEN
 10
1995.1786052943
 20
1396.255427391128
 30
0.0
 41
24.0
 42
24.0
 43
24.0
 50
180.0
  0
INSERT
  5
816B
330
7D58
100
AcDbEntity
  8
0
  6
ByBlock
 62
     0
440
 16777216
100
AcDbBlockReference
  2
_OPEN
 10
2145.178605294299
 20
1396.255427391128
 30
0.0
 41
24.0
 42
24.0
 43
24.0
  0
POINT
  5
816C
330
7D58
100
AcDbEntity
  8
DEFPOINTS
  6
ByBlock
 62
     0
440
 16777216
100
AcDbPoint
 10
1995.1786052943
 20
1349.2688249965
 30
0.0
  0
POINT
  5
816D
330
7D58
100
AcDbEntity
  8
DEFPOINTS
  6
ByBlock
 62
     0
440
 16777216
100
AcDbPoint
 10
2145.178605294299
 20
1349.268830133644
 30
0.0
  0
POINT
  5
816E
330
7D58
100
AcDbEntity
  8
DEFPOINTS
  6
ByBlock
 62
     0
440
 16777216
100
AcDbPoint
 10
2145.178605294299
 20
1396.255427391128
 30
0.0
  0
ENDBLK
  5
816F
330
7D58
100
AcDbEntity
  8
0
100
AcDbBlockEnd
  0
BLOCK
  5
81FA
330
7D64
100
AcDbEntity
  8
0
100
AcDbBlockBegin
  2
*D6
 70
     1
 10
0.0
 20
0.0
 30
0.0
  3
*D6
  1

  0
LINE
  5
81FB
330
7D64
100
AcDbEntity
  8
0
  6
ByBlock
 62
     0
440
 16777216
100
AcDbLine
 10
2174.1786052943
 20
1314.405107790371
 30
0.0
 11
2261.195645158139
 21
1314.405107790371
 31
0.0
  0
LINE
  5
81FC
330
7D64
100
AcDbEntity
  8
0
  6
ByBlock
 62
     0
440
 16777216
100
AcDbLine
 10
2174.1786052943
 20
1094.405107790371
 30
0.0
 11
2261.195645158139
 21
1094.405107790371
 31
0.0
  0
LINE
  5
81FD
330
7D64
100
AcDbEntity
  8
0
  6
ByBlock
 62
     0
440
 16777216
100
AcDbLine
 10
2249.195645158139
 20
1290.405107790371
 30
0.0
 11
2249.195645158139
 21
1118.405107790371
 31
0.0
  0
INSERT
  5
81FE
330
7D64
100
AcDbEntity
  8
0
  6
ByBlock
 62
     0
440
 16777216
100
AcDbBlockReference
  2
_OPEN
 10
2249.195645158139
 20
1314.405107790371
 30
0.0
 41
24.0
 42
24.0
 43
24.0
 50
90.0
  0
INSERT
  5
81FF
330
7D64
100
AcDbEntity
  8
0
  6
ByBlock
 62
     0
440
 16777216
100
AcDbBlockReference
  2
_OPEN
 10
2249.195645158139
 20
1094.405107790371
 30
0.0
 41
24.0
 42
24.0
 43
24.0
 50
270.0
  0
MTEXT
  5
8200
330
7D64
100
AcDbEntity
  8
0
  6
ByBlock
 62
     0
440
 16777216
100
AcDbMText
 10
2219.195645158139
 20
1204.405107790371
 30
0.0
 40
36.0
 41
0.0
 46
0.0
 71
     5
 72
     5
  1
\A1;φ220
 11
0.0
 21
1.0
 31
0.0
 73
     1
 44
1.0
  0
POINT
  5
8201
330
7D64
100
AcDbEntity
  8
DEFPOINTS
  6
ByBlock
 62
     0
440
 16777216
100
AcDbPoint
 10
2168.1786052943
 20
1314.405107790371
 30
0.0
  0
POINT
  5
8202
330
7D64
100
AcDbEntity
  8
DEFPOINTS
  6
ByBlock
 62
     0
440
 16777216
100
AcDbPoint
 10
2168.1786052943
 20
1094.405107790371
 30
0.0
  0
POINT
  5
8203
330
7D64
100
AcDbEntity
  8
DEFPOINTS
  6
ByBlock
 62
     0
440
 16777216
100
AcDbPoint
 10
2249.195645158139
 20
1094.405107790371
 30
0.0
  0
ENDBLK
  5
8204
330
7D64
100
AcDbEntity
  8
0
100
AcDbBlockEnd
  0
BLOCK
  5
80DF
330
7D9F
100
AcDbEntity
  8
0
100
AcDbBlockBegin
  2
*D7
 70
     1
 10
0.0
 20
0.0
 30
0.0
  3
*D7
  1

  0
LINE
  5
80E0
330
7D9F
100
AcDbEntity
  8
0
  6
ByBlock
 62
     0
440
 16777216
100
AcDbLine
 10
746.3387417027556
 20
1352.319013903112
 30
0.0
 11
1146.708473297219
 21
1352.319013903112
 31
0.0
  0
LINE
  5
80E1
330
7D9F
100
AcDbEntity
  8
0
  6
ByBlock
 62
     0
440
 16777216
100
AcDbLine
 10
942.703143826926
 20
1204.319013903112
 30
0.0
 11
1146.708473297219
 21
1204.319013903112
 31
0.0
  0
LINE
  5
80E2
330
7D9F
100
AcDbEntity
  8
0
  6
ByBlock
 62
     0
440
 16777216
100
AcDbLine
 10
1134.708473297219
 20
1328.319013903112
 30
0.0
 11
1134.708473297219
 21
1228.319013903112
 31
0.0
  0
MTEXT
  5
80E3
330
7D9F
100
AcDbEntity
  8
0
  6
ByBlock
 62
     0
440
 16777216
100
AcDbMText
 10
1103.444739550685
 20
1278.319013903112
 30
0.0
 40
36.0
 41
0.0
 46
0.0
 71
     5
 72
     5
  1
\A1;148
 11
0.0
 21
1.0
 31
0.0
 73
     1
 44
1.0
  0
INSERT
  5
80E4
330
7D9F
100
AcDbEntity
  8
0
  6
ByBlock
 62
     0
440
 16777216
100
AcDbBlockReference
  2
_OPEN
 10
1134.708473297219
 20
1352.319013903112
 30
0.0
 41
24.0
 42
24.0
 43
24.0
 50
90.0
  0
INSERT
  5
80E5
330
7D9F
100
AcDbEntity
  8
0
  6
ByBlock
 62
     0
440
 16777216
100
AcDbBlockReference
  2
_OPEN
 10
1134.708473297219
 20
1204.319013903112
 30
0.0
 41
24.0
 42
24.0
 43
24.0
 50
270.0
  0
POINT
  5
80E6
330
7D9F
100
AcDbEntity
  8
DEFPOINTS
  6
ByBlock
 62
     0
440
 16777216
100
AcDbPoint
 10
740.3387417027556
 20
1352.319013903112
 30
0.0
  0
POINT
  5
80E7
330
7D9F
100
AcDbEntity
  8
DEFPOINTS
  6
ByBlock
 62
     0
440
 16777216
100
AcDbPoint
 10
936.7031438269259
 20
1204.319013903112
 30
0.0
  0
POINT
  5
80E8
330
7D9F
100
AcDbEntity
  8
DEFPOINTS
  6
ByBlock
 62
     0
440
 16777216
100
AcDbPoint
 10
1134.708473297219
 20
1204.319013903112
 30
0.0
  0
ENDBLK
  5
80E9
330
7D9F
100
AcDbEntity
  8
0
100
AcDbBlockEnd
  0
BLOCK
  5
80F7
330
7DAB
100
AcDbEntity
  8
0
100
AcDbBlockBegin
  2
*D8
 70
     1
 10
0.0
 20
0.0
 30
0.0
  3
*D8
  1

  0
LINE
  5
80F8
330
7DAB
100
AcDbEntity
  8
0
  6
ByBlock
 62
     0
440
 16777216
100
AcDbLine
 10
942.703143826926
 20
1204.319013903112
 30
0.0
 11
1146.708473297219
 21
1204.319013903112
 31
0.0
  0
LINE
  5
80F9
330
7DAB
100
AcDbEntity
  8
0
  6
ByBlock
 62
     0
440
 16777216
100
AcDbLine
 10
932.3387417027552
 20
944.3190139031125
 30
0.0
 11
1146.708473297219
 21
944.3190139031125
 31
0.0
  0
LINE
  5
80FA
330
7DAB
100
AcDbEntity
  8
0
  6
ByBlock
 62
     0
440
 16777216
100
AcDbLine
 10
1134.708473297219
 20
1180.319013903113
 30
0.0
 11
1134.708473297219
 21
968.3190139031125
 31
0.0
  0
INSERT
  5
80FB
330
7DAB
100
AcDbEntity
  8
0
  6
ByBlock
 62
     0
440
 16777216
100
AcDbBlockReference
  2
_OPEN
 10
1134.708473297219
 20
1204.319013903112
 30
0.0
 41
24.0
 42
24.0
 43
24.0
 50
90.0
  0
INSERT
  5
80FC
330
7DAB
100
AcDbEntity
  8
0
  6
ByBlock
 62
     0
440
 16777216
100
AcDbBlockReference
  2
_OPEN
 10
1134.708473297219
 20
944.3190139031125
 30
0.0
 41
24.0
 42
24.0
 43
24.0
 50
270.0
  0
MTEXT
  5
80FD
330
7DAB
100
AcDbEntity
  8
0
  6
ByBlock
 62
     0
440
 16777216
100
AcDbMText
 10
1104.708473297219
 20
1074.319013903112
 30
0.0
 40
36.0
 41
0.0
 46
0.0
 71
     5
 72
     5
  1
\A1;260
 11
0.0
 21
1.0
 31
0.0
 73
     1
 44
1.0
  0
POINT
  5
80FE
330
7DAB
100
AcDbEntity
  8
DEFPOINTS
  6
ByBlock
 62
     0
440
 16777216
100
AcDbPoint
 10
936.7031438269259
 20
1204.319013903112
 30
0.0
  0
POINT
  5
80FF
330
7DAB
100
AcDbEntity
  8
DEFPOINTS
  6
ByBlock
 62
     0
440
 16777216
100
AcDbPoint
 10
926.3387417027551
 20
944.3190139031125
 30
0.0
  0
POINT
  5
8100
330
7DAB
100
AcDbEntity
  8
DEFPOINTS
  6
ByBlock
 62
     0
440
 16777216
100
AcDbPoint
 10
1134.708473297219
 20
944.3190139031125
 30
0.0
  0
ENDBLK
  5
8101
330
7DAB
100
AcDbEntity
  8
0
100
AcDbBlockEnd
  0
BLOCK
  5
8219
330
7DD1
100
AcDbEntity
  8
0
100
AcDbBlockBegin
  2
*D9
 70
     1
 10
0.0
 20
0.0
 30
0.0
  3
*D9
  1

  0
LINE
  5
821A
330
7DD1
100
AcDbEntity
  8
0
  6
ByBlock
 62
     0
440
 16777216
100
AcDbLine
 10
936.3387417027556
 20
1233.319013903112
 30
0.0
 11
936.3387417027556
 21
1429.172414038592
 31
0.0
  0
LINE
  5
821B
330
7DD1
100
AcDbEntity
  8
0
  6
ByBlock
 62
     0
440
 16777216
100
AcDbLine
 10
751.3387417027551
 20
1385.144972564316
 30
0.0
 11
751.3387417027551
 21
1429.172414038592
 31
0.0
  0
LINE
  5
821C
330
7DD1
100
AcDbEntity
  8
0
  6
ByBlock
 62
     0
440
 16777216
100
AcDbLine
 10
912.3387417027556
 20
1417.172414038592
 30
0.0
 11
775.3387417027552
 21
1417.172414038592
 31
0.0
  0
INSERT
  5
821D
330
7DD1
100
AcDbEntity
  8
0
  6
ByBlock
 62
     0
440
 16777216
100
AcDbBlockReference
  2
_OPEN
 10
936.3387417027556
 20
1417.172414038592
 30
0.0
 41
24.0
 42
24.0
 43
24.0
  0
INSERT
  5
821E
330
7DD1
100
AcDbEntity
  8
0
  6
ByBlock
 62
     0
440
 16777216
100
AcDbBlockReference
  2
_OPEN
 10
751.3387417027551
 20
1417.172414038592
 30
0.0
 41
24.0
 42
24.0
 43
24.0
 50
180.0
  0
MTEXT
  5
821F
330
7DD1
100
AcDbEntity
  8
0
  6
ByBlock
 62
     0
440
 16777216
100
AcDbMText
 10
843.8387417027554
 20
1447.172414038592
 30
0.0
 40
36.0
 41
0.0
 46
0.0
 71
     5
 72
     5
  1
\A1;185
 73
     1
 44
1.0
  0
POINT
  5
8220
330
7DD1
100
AcDbEntity
  8
DEFPOINTS
  6
ByBlock
 62
     0
440
 16777216
100
AcDbPoint
 10
936.3387417027556
 20
1227.319013903112
 30
0.0
  0
POINT
  5
8221
330
7DD1
100
AcDbEntity
  8
DEFPOINTS
  6
ByBlock
 62
     0
440
 16777216
100
AcDbPoint
 10
751.3387417027551
 20
1379.144972564316
 30
0.0
  0
POINT
  5
8222
330
7DD1
100
AcDbEntity
  8
DEFPOINTS
  6
ByBlock
 62
     0
440
 16777216
100
AcDbPoint
 10
751.3387417027551
 20
1417.172414038592
 30
0.0
  0
ENDBLK
  5
8223
330
7DD1
100
AcDbEntity
  8
0
100
AcDbBlockEnd
  0
BLOCK
  5
8224
330
7DDD
100
AcDbEntity
  8
0
100
AcDbBlockBegin
  2
*D10
 70
     1
 10
0.0
 20
0.0
 30
0.0
  3
*D10
  1

  0
LINE
  5
8225
330
7DDD
100
AcDbEntity
  8
0
  6
ByBlock
 62
     0
440
 16777216
100
AcDbLine
 10
751.3387417027551
 20
1385.144972564316
 30
0.0
 11
751.3387417027551
 21
1429.172414038592
 31
0.0
  0
LINE
  5
8226
330
7DDD
100
AcDbEntity
  8
0
  6
ByBlock
 62
     0
440
 16777216
100
AcDbLine
 10
581.3387417027557
 20
1196.319013903113
 30
0.0
 11
581.3387417027557
 21
1429.172414038592
 31
0.0
  0
LINE
  5
8227
330
7DDD
100
AcDbEntity
  8
0
  6
ByBlock
 62
     0
440
 16777216
100
AcDbLine
 10
727.3387417027552
 20
1417.172414038592
 30
0.0
 11
605.3387417027557
 21
1417.172414038592
 31
0.0
  0
INSERT
  5
8228
330
7DDD
100
AcDbEntity
  8
0
  6
ByBlock
 62
     0
440
 16777216
100
AcDbBlockReference
  2
_OPEN
 10
751.3387417027551
 20
1417.172414038592
 30
0.0
 41
24.0
 42
24.0
 43
24.0
  0
INSERT
  5
8229
330
7DDD
100
AcDbEntity
  8
0
  6
ByBlock
 62
     0
440
 16777216
100
AcDbBlockReference
  2
_OPEN
 10
581.3387417027557
 20
1417.172414038592
 30
0.0
 41
24.0
 42
24.0
 43
24.0
 50
180.0
  0
MTEXT
  5
822A
330
7DDD
100
AcDbEntity
  8
0
  6
ByBlock
 62
     0
440
 16777216
100
AcDbMText
 10
666.3387417027554
 20
1447.172414038592
 30
0.0
 40
36.0
 41
0.0
 46
0.0
 71
     5
 72
     5
  1
\A1;170
 73
     1
 44
1.0
  0
POINT
  5
822B
330
7DDD
100
AcDbEntity
  8
DEFPOINTS
  6
ByBlock
 62
     0
440
 16777216
100
AcDbPoint
 10
751.3387417027551
 20
1379.144972564316
 30
0.0
  0
POINT
  5
822C
330
7DDD
100
AcDbEntity
  8
DEFPOINTS
  6
ByBlock
 62
     0
440
 16777216
100
AcDbPoint
 10
581.3387417027557
 20
1190.319013903113
 30
0.0
  0
POINT
  5
822D
330
7DDD
100
AcDbEntity
  8
DEFPOINTS
  6
ByBlock
 62
     0
440
 16777216
100
AcDbPoint
 10
581.3387417027557
 20
1417.172414038592
 30
0.0
  0
ENDBLK
  5
822E
330
7DDD
100
AcDbEntity
  8
0
100
AcDbBlockEnd
  0
BLOCK
  5
820E
330
7DF4
100
AcDbEntity
  8
0
100
AcDbBlockBegin
  2
*D11
 70
     1
 10
0.0
 20
0.0
 30
0.0
  3
*D11
  1

  0
LINE
  5
820F
330
7DF4
100
AcDbEntity
  8
0
  6
ByBlock
 62
     0
440
 16777216
100
AcDbLine
 10
936.3387417027556
 20
1233.319013903112
 30
0.0
 11
936.3387417027556
 21
1515.560534950096
 31
0.0
  0
LINE
  5
8210
330
7DF4
100
AcDbEntity
  8
0
  6
ByBlock
 62
     0
440
 16777216
100
AcDbLine
 10
306.3387417027552
 20
990.3190139031126
 30
0.0
 11
306.3387417027552
 21
1515.560534950096
 31
0.0
  0
LINE
  5
8211
330
7DF4
100
AcDbEntity
  8
0
  6
ByBlock
 62
     0
440
 16777216
100
AcDbLine
 10
912.3387417027556
 20
1503.560534950096
 30
0.0
 11
330.3387417027552
 21
1503.560534950096
 31
0.0
  0
INSERT
  5
8212
330
7DF4
100
AcDbEntity
  8
0
  6
ByBlock
 62
     0
440
 16777216
100
AcDbBlockReference
  2
_OPEN
 10
936.3387417027556
 20
1503.560534950096
 30
0.0
 41
24.0
 42
24.0
 43
24.0
  0
INSERT
  5
8213
330
7DF4
100
AcDbEntity
  8
0
  6
ByBlock
 62
     0
440
 16777216
100
AcDbBlockReference
  2
_OPEN
 10
306.3387417027552
 20
1503.560534950096
 30
0.0
 41
24.0
 42
24.0
 43
24.0
 50
180.0
  0
MTEXT
  5
8214
330
7DF4
100
AcDbEntity
  8
0
  6
ByBlock
 62
     0
440
 16777216
100
AcDbMText
 10
621.3387417027554
 20
1533.560534950096
 30
0.0
 40
36.0
 41
0.0
 46
0.0
 71
     5
 72
     5
  1
\A1;630
 73
     1
 44
1.0
  0
POINT
  5
8215
330
7DF4
100
AcDbEntity
  8
DEFPOINTS
  6
ByBlock
 62
     0
440
 16777216
100
AcDbPoint
 10
936.3387417027556
 20
1227.319013903112
 30
0.0
  0
POINT
  5
8216
330
7DF4
100
AcDbEntity
  8
DEFPOINTS
  6
ByBlock
 62
     0
440
 16777216
100
AcDbPoint
 10
306.3387417027552
 20
984.3190139031126
 30
0.0
  0
POINT
  5
8217
330
7DF4
100
AcDbEntity
  8
DEFPOINTS
  6
ByBlock
 62
     0
440
 16777216
100
AcDbPoint
 10
306.3387417027552
 20
1503.560534950096
 30
0.0
  0
ENDBLK
  5
8218
330
7DF4
100
AcDbEntity
  8
0
100
AcDbBlockEnd
  0
BLOCK
  5
8171
330
8170
100
AcDbEntity
  8
0
100
AcDbBlockBegin
  2
_DOT
 70
     0
 10
0.0
 20
0.0
 30
0.0
  3
_DOT
  1

  0
LINE
  5
8209
330
8170
100
AcDbEntity
  8
0
  6
ByBlock
 62
     0
100
AcDbLine
 10
0.0
 20
0.0
 30
0.0
 11
-1.0
 21
-0.0000000000000284
 31
0.0
  0
LWPOLYLINE
  5
820A
330
8170
100
AcDbEntity
  8
0
  6
ByBlock
 62
     0
100
AcDbPolyline
 90
        2
 70
     1
 43
0.1666666666666666
 10
-0.0833333333333286
 20
-0.0000000000000284
 42
1.0
 10
0.0833333333333286
 20
-0.0000000000000284
 42
1.0
  0
ENDBLK
  5
8177
330
8170
100
AcDbEntity
  8
0
100
AcDbBlockEnd
  0
BLOCK
  5
82D5
330
82D4
100
AcDbEntity
  8
0
100
AcDbBlockBegin
  2
*D13
 70
     1
 10
0.0
 20
0.0
 30
0.0
  3
*D13
  1

  0
LINE
  5
82D6
330
82D4
100
AcDbEntity
  8
0
  6
ByBlock
 62
     0
440
 16777216
100
AcDbLine
 10
306.3387417027557
 20
1983.545992531667
 30
0.0
 11
306.3387417027557
 21
1872.951043701173
 31
0.0
  0
LINE
  5
82D7
330
82D4
100
AcDbEntity
  8
0
  6
ByBlock
 62
     0
440
 16777216
100
AcDbLine
 10
926.3387417027551
 20
1983.545992531667
 30
0.0
 11
926.3387417027551
 21
1872.951043701173
 31
0.0
  0
LINE
  5
82D8
330
82D4
100
AcDbEntity
  8
0
  6
ByBlock
 62
     0
440
 16777216
100
AcDbLine
 10
330.3387417027557
 20
1884.951043701173
 30
0.0
 11
902.3387417027551
 21
1884.951043701173
 31
0.0
  0
INSERT
  5
82D9
330
82D4
100
AcDbEntity
  8
0
  6
ByBlock
 62
     0
440
 16777216
100
AcDbBlockReference
  2
_OPEN
 10
306.3387417027557
 20
1884.951043701173
 30
0.0
 41
24.0
 42
24.0
 43
24.0
 50
180.0
  0
INSERT
  5
82DA
330
82D4
100
AcDbEntity
  8
0
  6
ByBlock
 62
     0
440
 16777216
100
AcDbBlockReference
  2
_OPEN
 10
926.3387417027551
 20
1884.951043701173
 30
0.0
 41
24.0
 42
24.0
 43
24.0
  0
MTEXT
  5
82DB
330
82D4
100
AcDbEntity
  8
0
  6
ByBlock
 62
     0
440
 16777216
100
AcDbMText
 10
594.1201019252039
 20
1914.951043701173
 30
0.0
 40
36.0
 41
0.0
 46
0.0
 71
     5
 72
     5
  1
\A1;620
 73
     1
 44
1.0
  0
POINT
  5
82DC
330
82D4
100
AcDbEntity
  8
DEFPOINTS
  6
ByBlock
 62
     0
440
 16777216
100
AcDbPoint
 10
306.3387417027557
 20
1989.545992531667
 30
0.0
  0
POINT
  5
82DD
330
82D4
100
AcDbEntity
  8
DEFPOINTS
  6
ByBlock
 62
     0
440
 16777216
100
AcDbPoint
 10
926.3387417027551
 20
1989.545992531667
 30
0.0
  0
POINT
  5
82DE
330
82D4
100
AcDbEntity
  8
DEFPOINTS
  6
ByBlock
 62
     0
440
 16777216
100
AcDbPoint
 10
926.3387417027551
 20
1884.951043701173
 30
0.0
  0
ENDBLK
  5
82DF
330
82D4
100
AcDbEntity
  8
0
100
AcDbBlockEnd
  0
BLOCK
  5
82E2
330
82E1
100
AcDbEntity
  8
0
100
AcDbBlockBegin
  2
*D14
 70
     1
 10
0.0
 20
0.0
 30
0.0
  3
*D14
  1

  0
LINE
  5
82E3
330
82E1
100
AcDbEntity
  8
0
  6
ByBlock
 62
     0
440
 16777216
100
AcDbLine
 10
300.3387417027557
 20
2369.545992531667
 30
0.0
 11
228.2979610828534
 21
2369.545992531667
 31
0.0
  0
LINE
  5
82E4
330
82E1
100
AcDbEntity
  8
0
  6
ByBlock
 62
     0
440
 16777216
100
AcDbLine
 10
300.3387417027557
 20
1989.545992531667
 30
0.0
 11
228.2979610828534
 21
1989.545992531667
 31
0.0
  0
LINE
  5
82E5
330
82E1
100
AcDbEntity
  8
0
  6
ByBlock
 62
     0
440
 16777216
100
AcDbLine
 10
240.2979610828534
 20
2345.545992531667
 30
0.0
 11
240.2979610828534
 21
2013.545992531668
 31
0.0
  0
INSERT
  5
82E6
330
82E1
100
AcDbEntity
  8
0
  6
ByBlock
 62
     0
440
 16777216
100
AcDbBlockReference
  2
_OPEN
 10
240.2979610828534
 20
2369.545992531667
 30
0.0
 41
24.0
 42
24.0
 43
24.0
 50
90.0
  0
INSERT
  5
82E7
330
82E1
100
AcDbEntity
  8
0
  6
ByBlock
 62
     0
440
 16777216
100
AcDbBlockReference
  2
_OPEN
 10
240.2979610828534
 20
1989.545992531667
 30
0.0
 41
24.0
 42
24.0
 43
24.0
 50
270.0
  0
MTEXT
  5
82E8
330
82E1
100
AcDbEntity
  8
0
  6
ByBlock
 62
     0
440
 16777216
100
AcDbMText
 10
210.2979610828533
 20
2166.88015132865
 30
0.0
 40
36.0
 41
0.0
 46
0.0
 71
     5
 72
     5
  1
\A1;380
 11
0.0
 21
1.0
 31
0.0
 73
     1
 44
1.0
  0
POINT
  5
82E9
330
82E1
100
AcDbEntity
  8
DEFPOINTS
  6
ByBlock
 62
     0
440
 16777216
100
AcDbPoint
 10
306.3387417027557
 20
2369.545992531667
 30
0.0
  0
POINT
  5
82EA
330
82E1
100
AcDbEntity
  8
DEFPOINTS
  6
ByBlock
 62
     0
440
 16777216
100
AcDbPoint
 10
306.3387417027557
 20
1989.545992531667
 30
0.0
  0
POINT
  5
82EB
330
82E1
100
AcDbEntity
  8
DEFPOINTS
  6
ByBlock
 62
     0
440
 16777216
100
AcDbPoint
 10
240.2979610828534
 20
1989.545992531667
 30
0.0
  0
ENDBLK
  5
82EC
330
82E1
100
AcDbEntity
  8
0
100
AcDbBlockEnd
  0
BLOCK
  5
8314
330
8313
100
AcDbEntity
  8
0
100
AcDbBlockBegin
  2
*D15
 70
     1
 10
0.0
 20
0.0
 30
0.0
  3
*D15
  1

  0
LINE
  5
8404
330
8313
100
AcDbEntity
  8
3
 62
     0
440
 16777216
370
    -2
100
AcDbLine
 10
306.3387417027552
 20
828.3190139031129
 30
0.0
 11
306.3387417027552
 21
736.6858013998402
 31
0.0
  0
LINE
  5
8405
330
8313
100
AcDbEntity
  8
3
 62
     0
440
 16777216
370
    -2
100
AcDbLine
 10
751.3387417027549
 20
828.319013903113
 30
0.0
 11
751.3387417027549
 21
736.6858013998402
 31
0.0
  0
LINE
  5
8406
330
8313
100
AcDbEntity
  8
3
 62
     0
440
 16777216
370
    -2
100
AcDbLine
 10
330.3387417027552
 20
748.6858013998402
 30
0.0
 11
727.3387417027548
 21
748.6858013998402
 31
0.0
  0
INSERT
  5
8407
330
8313
100
AcDbEntity
  8
3
 62
     0
440
 16777216
370
    -2
100
AcDbBlockReference
  2
_OPEN
 10
306.3387417027552
 20
748.6858013998402
 30
0.0
 41
24.0
 42
24.0
 43
24.0
 50
180.0
  0
INSERT
  5
8408
330
8313
100
AcDbEntity
  8
3
 62
     0
440
 16777216
370
    -2
100
AcDbBlockReference
  2
_OPEN
 10
751.3387417027549
 20
748.6858013998402
 30
0.0
 41
24.0
 42
24.0
 43
24.0
  0
MTEXT
  5
8409
330
8313
100
AcDbEntity
  8
3
 62
     0
440
 16777216
100
AcDbMText
 10
528.8387417027549
 20
778.6858013998402
 30
0.0
 40
36.0
 41
0.0
 46
0.0
 71
     5
 72
     1
  1
\A1;445
 73
     1
 44
1.0
  0
POINT
  5
840A
330
8313
100
AcDbEntity
  8
DEFPOINTS
 62
     0
440
 16777216
100
AcDbPoint
 10
306.3387417027552
 20
834.3190139031129
 30
0.0
  0
POINT
  5
840B
330
8313
100
AcDbEntity
  8
DEFPOINTS
 62
     0
440
 16777216
100
AcDbPoint
 10
751.3387417027549
 20
834.3190139031131
 30
0.0
  0
POINT
  5
840C
330
8313
100
AcDbEntity
  8
DEFPOINTS
 62
     0
440
 16777216
100
AcDbPoint
 10
751.3387417027549
 20
748.6858013998402
 30
0.0
  0
ENDBLK
  5
831E
330
8313
100
AcDbEntity
  8
0
100
AcDbBlockEnd
  0
BLOCK
  5
8321
330
8320
100
AcDbEntity
  8
0
100
AcDbBlockBegin
  2
*D16
 70
     1
 10
0.0
 20
0.0
 30
0.0
  3
*D16
  1

  0
LINE
  5
840D
330
8320
100
AcDbEntity
  8
3
 62
     0
440
 16777216
370
    -2
100
AcDbLine
 10
751.3387417027549
 20
828.319013903113
 30
0.0
 11
751.3387417027549
 21
736.6858013998402
 31
0.0
  0
LINE
  5
840E
330
8320
100
AcDbEntity
  8
3
 62
     0
440
 16777216
370
    -2
100
AcDbLine
 10
926.3387417027551
 20
828.3190139031125
 30
0.0
 11
926.3387417027551
 21
736.6858013998402
 31
0.0
  0
LINE
  5
840F
330
8320
100
AcDbEntity
  8
3
 62
     0
440
 16777216
370
    -2
100
AcDbLine
 10
775.3387417027548
 20
748.6858013998402
 30
0.0
 11
902.3387417027551
 21
748.6858013998402
 31
0.0
  0
INSERT
  5
8410
330
8320
100
AcDbEntity
  8
3
 62
     0
440
 16777216
370
    -2
100
AcDbBlockReference
  2
_OPEN
 10
751.3387417027549
 20
748.6858013998402
 30
0.0
 41
24.0
 42
24.0
 43
24.0
 50
180.0
  0
INSERT
  5
8411
330
8320
100
AcDbEntity
  8
3
 62
     0
440
 16777216
370
    -2
100
AcDbBlockReference
  2
_OPEN
 10
926.3387417027551
 20
748.6858013998402
 30
0.0
 41
24.0
 42
24.0
 43
24.0
  0
MTEXT
  5
8412
330
8320
100
AcDbEntity
  8
3
 62
     0
440
 16777216
100
AcDbMText
 10
838.838741702755
 20
778.6858013998402
 30
0.0
 40
36.0
 41
0.0
 46
0.0
 71
     5
 72
     1
  1
\A1;175
 73
     1
 44
1.0
  0
POINT
  5
8413
330
8320
100
AcDbEntity
  8
DEFPOINTS
 62
     0
440
 16777216
100
AcDbPoint
 10
751.3387417027549
 20
834.3190139031131
 30
0.0
  0
POINT
  5
8414
330
8320
100
AcDbEntity
  8
DEFPOINTS
 62
     0
440
 16777216
100
AcDbPoint
 10
926.3387417027551
 20
834.3190139031124
 30
0.0
  0
POINT
  5
8415
330
8320
100
AcDbEntity
  8
DEFPOINTS
 62
     0
440
 16777216
100
AcDbPoint
 10
926.3387417027551
 20
748.6858013998402
 30
0.0
  0
ENDBLK
  5
832B
330
8320
100
AcDbEntity
  8
0
100
AcDbBlockEnd
  0
BLOCK
  5
832E
330
832D
100
AcDbEntity
  8
0
100
AcDbBlockBegin
  2
*D17
 70
     1
 10
0.0
 20
0.0
 30
0.0
  3
*D17
  1

  0
LINE
  5
8416
330
832D
100
AcDbEntity
  8
3
 62
     0
440
 16777216
370
    -2
100
AcDbLine
 10
1650.178605294301
 20
828.405107790372
 30
0.0
 11
1650.178605294301
 21
736.6858013998402
 31
0.0
  0
LINE
  5
8417
330
832D
100
AcDbEntity
  8
3
 62
     0
440
 16777216
370
    -2
100
AcDbLine
 10
2030.178605294301
 20
828.4051077903722
 30
0.0
 11
2030.178605294301
 21
736.6858013998402
 31
0.0
  0
LINE
  5
8418
330
832D
100
AcDbEntity
  8
3
 62
     0
440
 16777216
370
    -2
100
AcDbLine
 10
1674.1786052943
 20
748.6858013998402
 30
0.0
 11
2006.178605294301
 21
748.6858013998402
 31
0.0
  0
INSERT
  5
8419
330
832D
100
AcDbEntity
  8
3
 62
     0
440
 16777216
370
    -2
100
AcDbBlockReference
  2
_OPEN
 10
1650.178605294301
 20
748.6858013998402
 30
0.0
 41
24.0
 42
24.0
 43
24.0
 50
180.0
  0
INSERT
  5
841A
330
832D
100
AcDbEntity
  8
3
 62
     0
440
 16777216
370
    -2
100
AcDbBlockReference
  2
_OPEN
 10
2030.178605294301
 20
748.6858013998402
 30
0.0
 41
24.0
 42
24.0
 43
24.0
  0
MTEXT
  5
841B
330
832D
100
AcDbEntity
  8
3
 62
     0
440
 16777216
100
AcDbMText
 10
1840.1786052943
 20
778.6858013998402
 30
0.0
 40
36.0
 41
0.0
 46
0.0
 71
     5
 72
     1
  1
\A1;380
 73
     1
 44
1.0
  0
POINT
  5
841C
330
832D
100
AcDbEntity
  8
DEFPOINTS
 62
     0
440
 16777216
100
AcDbPoint
 10
1650.178605294301
 20
834.4051077903719
 30
0.0
  0
POINT
  5
841D
330
832D
100
AcDbEntity
  8
DEFPOINTS
 62
     0
440
 16777216
100
AcDbPoint
 10
2030.178605294301
 20
834.4051077903722
 30
0.0
  0
POINT
  5
841E
330
832D
100
AcDbEntity
  8
DEFPOINTS
 62
     0
440
 16777216
100
AcDbPoint
 10
2030.178605294301
 20
748.6858013998402
 30
0.0
  0
ENDBLK
  5
8338
330
832D
100
AcDbEntity
  8
0
100
AcDbBlockEnd
  0
BLOCK
  5
833B
330
833A
100
AcDbEntity
  8
0
100
AcDbBlockBegin
  2
*D18
 70
     1
 10
0.0
 20
0.0
 30
0.0
  3
*D18
  1

  0
LINE
  5
841F
330
833A
100
AcDbEntity
  8
3
 62
     0
440
 16777216
370
    -2
100
AcDbLine
 10
2030.178605294301
 20
828.4051077903722
 30
0.0
 11
2030.178605294301
 21
736.6858013998402
 31
0.0
  0
LINE
  5
8420
330
833A
100
AcDbEntity
  8
3
 62
     0
440
 16777216
370
    -2
100
AcDbLine
 10
2070.178605294302
 20
828.4051077903722
 30
0.0
 11
2070.178605294302
 21
736.6858013998402
 31
0.0
  0
LINE
  5
8421
330
833A
100
AcDbEntity
  8
3
 62
     0
440
 16777216
370
    -2
100
AcDbLine
 10
2006.178605294301
 20
748.6858013998402
 30
0.0
 11
1982.178605294301
 21
748.6858013998402
 31
0.0
  0
LINE
  5
8422
330
833A
100
AcDbEntity
  8
3
 62
     0
440
 16777216
370
    -2
100
AcDbLine
 10
2094.178605294301
 20
748.6858013998402
 30
0.0
 11
2200.464319580015
 21
748.6858013998402
 31
0.0
  0
LINE
  5
8423
330
833A
100
AcDbEntity
  8
3
 62
     0
440
 16777216
370
    -2
100
AcDbLine
 10
2030.178605294301
 20
748.6858013998402
 30
0.0
 11
2070.178605294302
 21
748.6858013998402
 31
0.0
  0
INSERT
  5
8424
330
833A
100
AcDbEntity
  8
3
 62
     0
440
 16777216
370
    -2
100
AcDbBlockReference
  2
_OPEN
 10
2030.178605294301
 20
748.6858013998402
 30
0.0
 41
24.0
 42
24.0
 43
24.0
  0
INSERT
  5
8425
330
833A
100
AcDbEntity
  8
3
 62
     0
440
 16777216
370
    -2
100
AcDbBlockReference
  2
_OPEN
 10
2070.178605294302
 20
748.6858013998402
 30
0.0
 41
24.0
 42
24.0
 43
24.0
 50
180.0
  0
MTEXT
  5
8426
330
833A
100
AcDbEntity
  8
3
 62
     0
440
 16777216
100
AcDbMText
 10
2159.321462437159
 20
778.6858013998402
 30
0.0
 40
36.0
 41
0.0
 46
0.0
 71
     5
 72
     1
  1
\A1;40
 73
     1
 44
1.0
  0
POINT
  5
8427
330
833A
100
AcDbEntity
  8
DEFPOINTS
 62
     0
440
 16777216
100
AcDbPoint
 10
2030.178605294301
 20
834.4051077903722
 30
0.0
  0
POINT
  5
8428
330
833A
100
AcDbEntity
  8
DEFPOINTS
 62
     0
440
 16777216
100
AcDbPoint
 10
2070.178605294302
 20
834.4051077903722
 30
0.0
  0
POINT
  5
8429
330
833A
100
AcDbEntity
  8
DEFPOINTS
 62
     0
440
 16777216
100
AcDbPoint
 10
2070.178605294302
 20
748.6858013998402
 30
0.0
  0
ENDBLK
  5
8347
330
833A
100
AcDbEntity
  8
0
100
AcDbBlockEnd
  0
BLOCK
  5
8358
330
8357
100
AcDbEntity
  8
0
100
AcDbBlockBegin
  2
*D19
 70
     1
 10
0.0
 20
0.0
 30
0.0
  3
*D19
  1

  0
LINE
  5
842A
330
8357
100
AcDbEntity
  8
3
 62
     0
440
 16777216
370
    -2
100
AcDbLine
 10
932.3387417027552
 20
874.3190139031124
 30
0.0
 11
1145.807201691114
 21
874.3190139031124
 31
0.0
  0
LINE
  5
842B
330
8357
100
AcDbEntity
  8
3
 62
     0
440
 16777216
370
    -2
100
AcDbLine
 10
932.3387417027552
 20
834.3190139031129
 30
0.0
 11
1145.807201691114
 21
834.3190139031129
 31
0.0
  0
LINE
  5
842C
330
8357
100
AcDbEntity
  8
3
 62
     0
440
 16777216
370
    -2
100
AcDbLine
 10
1133.807201691114
 20
898.3190139031124
 30
0.0
 11
1133.807201691114
 21
922.3190139031125
 31
0.0
  0
LINE
  5
842D
330
8357
100
AcDbEntity
  8
3
 62
     0
440
 16777216
370
    -2
100
AcDbLine
 10
1133.807201691114
 20
810.3190139031129
 30
0.0
 11
1133.807201691114
 21
704.0332996173986
 31
0.0
  0
LINE
  5
842E
330
8357
100
AcDbEntity
  8
3
 62
     0
440
 16777216
370
    -2
100
AcDbLine
 10
1133.807201691114
 20
874.3190139031124
 30
0.0
 11
1133.807201691114
 21
834.3190139031129
 31
0.0
  0
INSERT
  5
842F
330
8357
100
AcDbEntity
  8
3
 62
     0
440
 16777216
370
    -2
100
AcDbBlockReference
  2
_DOT
 10
1133.807201691114
 20
874.3190139031124
 30
0.0
 41
24.0
 42
24.0
 43
24.0
 50
270.0
  0
INSERT
  5
8430
330
8357
100
AcDbEntity
  8
3
 62
     0
440
 16777216
370
    -2
100
AcDbBlockReference
  2
_OPEN
 10
1133.807201691114
 20
834.3190139031129
 30
0.0
 41
24.0
 42
24.0
 43
24.0
 50
90.0
  0
MTEXT
  5
8431
330
8357
100
AcDbEntity
  8
3
 62
     0
440
 16777216
100
AcDbMText
 10
1103.807201691113
 20
745.1761567602559
 30
0.0
 40
36.0
 41
0.0
 46
0.0
 71
     5
 72
     1
  1
\A1;40
 11
0.0000000000000001
 21
1.0
 31
0.0
 73
     1
 44
1.0
  0
POINT
  5
8432
330
8357
100
AcDbEntity
  8
DEFPOINTS
 62
     0
440
 16777216
100
AcDbPoint
 10
926.3387417027551
 20
874.3190139031124
 30
0.0
  0
POINT
  5
8433
330
8357
100
AcDbEntity
  8
DEFPOINTS
 62
     0
440
 16777216
100
AcDbPoint
 10
926.3387417027551
 20
834.3190139031129
 30
0.0
  0
POINT
  5
8434
330
8357
100
AcDbEntity
  8
DEFPOINTS
 62
     0
440
 16777216
100
AcDbPoint
 10
1133.807201691114
 20
834.3190139031129
 30
0.0
  0
ENDBLK
  5
8364
330
8357
100
AcDbEntity
  8
0
100
AcDbBlockEnd
  0
BLOCK
  5
8386
330
8385
100
AcDbEntity
  8
0
100
AcDbBlockBegin
  2
*D20
 70
     1
 10
0.0
 20
0.0
 30
0.0
  3
*D20
  1

  0
LINE
  5
8449
330
8385
100
AcDbEntity
  8
3
 62
     0
440
 16777216
370
    -2
100
AcDbLine
 10
932.3387417027552
 20
874.3190139031124
 30
0.0
 11
1146.724879526195
 21
874.3190139031124
 31
0.0
  0
LINE
  5
844A
330
8385
100
AcDbEntity
  8
3
 62
     0
440
 16777216
370
    -2
100
AcDbLine
 10
932.3387417027552
 20
944.3190139031122
 30
0.0
 11
1146.724879526195
 21
944.3190139031122
 31
0.0
  0
LINE
  5
844B
330
8385
100
AcDbEntity
  8
3
 62
     0
440
 16777216
370
    -2
100
AcDbLine
 10
1134.724879526195
 20
850.3190139031124
 30
0.0
 11
1134.724879526195
 21
826.3190139031124
 31
0.0
  0
LINE
  5
844C
330
8385
100
AcDbEntity
  8
3
 62
     0
440
 16777216
370
    -2
100
AcDbLine
 10
1134.724879526195
 20
968.3190139031122
 30
0.0
 11
1134.724879526195
 21
992.319013903112
 31
0.0
  0
MTEXT
  5
844D
330
8385
100
AcDbEntity
  8
3
 62
     0
440
 16777216
100
AcDbMText
 10
1186.907299527415
 20
913.4393154613054
 30
0.0
 40
36.0
 41
0.0
 46
0.0
 71
     5
 72
     1
  1
\A1;(70)
 11
0.0000000000000001
 21
1.0
 31
0.0
 73
     1
 44
1.0
  0
LINE
  5
844E
330
8385
100
AcDbEntity
  8
3
 62
     0
440
 16777216
370
    -2
100
AcDbLine
 10
1134.724879526195
 20
874.3190139031124
 30
0.0
 11
1134.724879526195
 21
944.3190139031122
 31
0.0
  0
INSERT
  5
844F
330
8385
100
AcDbEntity
  8
3
 62
     0
440
 16777216
370
    -2
100
AcDbBlockReference
  2
_DOT
 10
1134.724879526195
 20
874.3190139031124
 30
0.0
 41
24.0
 42
24.0
 43
24.0
 50
90.0
  0
INSERT
  5
8450
330
8385
100
AcDbEntity
  8
3
 62
     0
440
 16777216
370
    -2
100
AcDbBlockReference
  2
_OPEN
 10
1134.724879526195
 20
944.3190139031122
 30
0.0
 41
24.0
 42
24.0
 43
24.0
 50
270.0
  0
POINT
  5
8451
330
8385
100
AcDbEntity
  8
DEFPOINTS
 62
     0
440
 16777216
100
AcDbPoint
 10
926.3387417027551
 20
874.3190139031124
 30
0.0
  0
POINT
  5
8452
330
8385
100
AcDbEntity
  8
DEFPOINTS
 62
     0
440
 16777216
100
AcDbPoint
 10
926.3387417027551
 20
944.3190139031122
 30
0.0
  0
POINT
  5
8453
330
8385
100
AcDbEntity
  8
DEFPOINTS
 62
     0
440
 16777216
100
AcDbPoint
 10
1134.724879526195
 20
944.3190139031122
 30
0.0
  0
ENDBLK
  5
8390
330
8385
100
AcDbEntity
  8
0
100
AcDbBlockEnd
  0
BLOCK
  5
8393
330
8392
100
AcDbEntity
  8
0
100
AcDbBlockBegin
  2
*D21
 70
     1
 10
0.0
 20
0.0
 30
0.0
  3
*D21
  1

  0
LINE
  5
8440
330
8392
100
AcDbEntity
  8
3
 62
     0
440
 16777216
370
    -2
100
AcDbLine
 10
747.3723370024404
 20
1352.315654373144
 30
0.0
 11
1266.36558339994
 21
1352.315654373144
 31
0.0
  0
LINE
  5
8441
330
8392
100
AcDbEntity
  8
3
 62
     0
440
 16777216
370
    -2
100
AcDbLine
 10
932.3387417027552
 20
834.3190139031129
 30
0.0
 11
1266.36558339994
 21
834.3190139031129
 31
0.0
  0
LINE
  5
8442
330
8392
100
AcDbEntity
  8
3
 62
     0
440
 16777216
370
    -2
100
AcDbLine
 10
1254.36558339994
 20
1328.315654373144
 30
0.0
 11
1254.36558339994
 21
858.3190139031129
 31
0.0
  0
INSERT
  5
8443
330
8392
100
AcDbEntity
  8
3
 62
     0
440
 16777216
370
    -2
100
AcDbBlockReference
  2
_OPEN
 10
1254.36558339994
 20
1352.315654373144
 30
0.0
 41
24.0
 42
24.0
 43
24.0
 50
90.0
  0
INSERT
  5
8444
330
8392
100
AcDbEntity
  8
3
 62
     0
440
 16777216
370
    -2
100
AcDbBlockReference
  2
_OPEN
 10
1254.36558339994
 20
834.3190139031129
 30
0.0
 41
24.0
 42
24.0
 43
24.0
 50
270.0
  0
MTEXT
  5
8445
330
8392
100
AcDbEntity
  8
3
 62
     0
440
 16777216
100
AcDbMText
 10
1214.937011971368
 20
1093.317334138129
 30
0.0
 40
36.0
 41
0.0
 46
0.0
 71
     5
 72
     1
  1
\A1;(518)
 11
0.0000000000000001
 21
1.0
 31
0.0
 73
     1
 44
1.0
  0
POINT
  5
8446
330
8392
100
AcDbEntity
  8
DEFPOINTS
 62
     0
440
 16777216
100
AcDbPoint
 10
741.3723370024404
 20
1352.315654373144
 30
0.0
  0
POINT
  5
8447
330
8392
100
AcDbEntity
  8
DEFPOINTS
 62
     0
440
 16777216
100
AcDbPoint
 10
926.3387417027551
 20
834.3190139031129
 30
0.0
  0
POINT
  5
8448
330
8392
100
AcDbEntity
  8
DEFPOINTS
 62
     0
440
 16777216
100
AcDbPoint
 10
1254.36558339994
 20
834.3190139031129
 30
0.0
  0
ENDBLK
  5
839D
330
8392
100
AcDbEntity
  8
0
100
AcDbBlockEnd
  0
ENDSEC
  0
SECTION
  2
ENTITIES
  0
LINE
  5
7C07
330
19
100
AcDbEntity
  8
2
100
AcDbLine
 10
751.3387417027551
 20
1379.144972564316
 30
0.0
 11
751.3387417027549
 21
834.3190139031129
 31
0.0
  0
LINE
  5
7C09
330
19
100
AcDbEntity
  8
1
100
AcDbLine
 10
306.3387417027552
 20
984.3190139031126
 30
0.0
 11
926.3387417027551
 21
984.319013903112
 31
0.0
  0
LINE
  5
7C0B
330
19
100
AcDbEntity
  8
1
100
AcDbLine
 10
306.3387417027552
 20
984.3190139031126
 30
0.0
 11
306.3387417027552
 21
944.3190139031125
 31
0.0
  0
LINE
  5
7C0C
330
19
100
AcDbEntity
  8
2
100
AcDbLine
 10
936.7031438269259
 20
1204.319013903112
 30
0.0
 11
568.4869656257214
 21
1204.319013903112
 31
0.0
  0
LINE
  5
7C0E
330
19
100
AcDbEntity
  8
1
100
AcDbLine
 10
926.3387417027551
 20
984.319013903112
 30
0.0
 11
926.3387417027551
 21
944.3190139031122
 31
0.0
  0
LINE
  5
7C0F
330
19
100
AcDbEntity
  8
2
100
AcDbLine
 10
2070.178605294301
 20
1400.325610313377
 30
0.0
 11
2070.178605294301
 21
834.4051077903722
 31
0.0
  0
LINE
  5
7C10
330
19
100
AcDbEntity
  8
2
100
AcDbLine
 10
1614.386380192837
 20
1204.405107790371
 30
0.0
 11
2177.64631088688
 21
1204.405107790371
 31
0.0
  0
LINE
  5
7C11
330
19
100
AcDbEntity
  8
1
100
AcDbLine
 10
346.3387417027557
 20
2369.545992531667
 30
0.0
 11
346.3387417027555
 21
2291.745992531666
 31
0.0
  0
LINE
  5
7C12
330
19
100
AcDbEntity
  8
1
100
AcDbLine
 10
306.3387417027557
 20
2369.545992531667
 30
0.0
 11
306.3387417027557
 21
1989.545992531667
 31
0.0
  0
LINE
  5
7C15
330
19
100
AcDbEntity
  8
1
100
AcDbLine
 10
926.3387417027551
 20
1989.545992531667
 30
0.0
 11
306.3387417027557
 21
1989.545992531667
 31
0.0
  0
LINE
  5
7C16
330
19
100
AcDbEntity
  8
2
100
AcDbLine
 10
421.3387417027552
 20
2322.236973088883
 30
0.0
 11
421.3387417027552
 21
1984.152546660071
 31
0.0
  0
LINE
  5
7C21
330
19
100
AcDbEntity
  8
1
100
AcDbLine
 10
581.3387417027553
 20
2369.545992531667
 30
0.0
 11
306.3387417027557
 21
2369.545992531667
 31
0.0
  0
LINE
  5
7C22
330
19
100
AcDbEntity
  8
1
100
AcDbLine
 10
886.3387417027542
 20
1989.545992531667
 30
0.0
 11
926.3387417027551
 21
1989.545992531667
 31
0.0
  0
CIRCLE
  5
7C28
330
19
100
AcDbEntity
  8
1
100
AcDbCircle
 10
751.3387417027551
 20
1074.319013903113
 30
0.0
 40
60.0
  0
LINE
  5
7C29
330
19
100
AcDbEntity
  8
1
100
AcDbLine
 10
1637.1786052943
 20
1284.41107287649
 30
0.0
 11
1637.1786052943
 21
984.4051077903715
 31
0.0
  0
LINE
  5
7C2A
330
19
100
AcDbEntity
  8
1
100
AcDbLine
 10
1712.178605294299
 20
1284.41107287649
 30
0.0
 11
1712.178605294299
 21
1243.27643849678
 31
0.0
  0
LINE
  5
7C2B
330
19
100
AcDbEntity
  8
1
100
AcDbLine
 10
801.4870751686849
 20
1284.274984287373
 30
0.0
 11
801.4870751686849
 21
984.319013903112
 31
0.0
  0
LINE
  5
7C2C
330
19
100
AcDbEntity
  8
1
100
AcDbLine
 10
321.4870751686849
 20
1284.274984287373
 30
0.0
 11
321.4870751686849
 21
984.3190139031126
 31
0.0
  0
ARC
  5
7C2D
330
19
100
AcDbEntity
  8
1
100
AcDbCircle
 10
740.3387417027556
 20
1193.319013903112
 30
0.0
 40
159.0
100
AcDbArc
 50
135.7241782884697
 51
176.0329722379559
  0
LINE
  5
7C2E
330
19
100
AcDbEntity
  8
1
100
AcDbLine
 10
851.3387417027551
 20
1164.619013903113
 30
0.0
 11
851.3387417027551
 21
984.3190139031131
 31
0.0
  0
LINE
  5
7C2F
330
19
100
AcDbEntity
  8
1
100
AcDbLine
 10
651.3387417027551
 20
1164.619013903113
 30
0.0
 11
651.3387417027551
 21
984.3190139031131
 31
0.0
  0
ARC
  5
7C30
330
19
100
AcDbEntity
  8
1
100
AcDbCircle
 10
765.3387417027556
 20
1190.319013903113
 30
0.0
 40
184.0
100
AcDbArc
 50
175.6363212021045
 51
269.6659883528339
  0
LINE
  5
7C31
330
19
100
AcDbEntity
  8
1
100
AcDbLine
 10
1967.8786052943
 20
1270.405107790371
 30
0.0
 11
1967.8786052943
 21
1020.405107790372
 31
0.0
  0
LINE
  5
7C33
330
19
100
AcDbEntity
  8
1
100
AcDbLine
 10
1995.178605294299
 20
1205.405107790371
 30
0.0
 11
1995.178605294299
 21
1005.405107790371
 31
0.0
  0
LINE
  5
7C34
330
19
100
AcDbEntity
  8
1
100
AcDbLine
 10
2145.1786052943
 20
1181.405107790371
 30
0.0
 11
2145.1786052943
 21
1005.405107790371
 31
0.0
  0
LINE
  5
7C36
330
19
100
AcDbEntity
  8
1
100
AcDbLine
 10
1716.8786052943
 20
984.4051077903714
 30
0.0
 11
1716.8786052943
 21
1094.405107790372
 31
0.0
  0
LINE
  5
7C37
330
19
100
AcDbEntity
  8
1
100
AcDbLine
 10
1650.178605294301
 20
984.4051077903715
 30
0.0
 11
2030.178605294301
 21
984.4051077903719
 31
0.0
  0
LINE
  5
7C38
330
19
100
AcDbEntity
  8
1
100
AcDbLine
 10
1650.178605294301
 20
944.4051077903717
 30
0.0
 11
2030.178605294301
 21
944.4051077903719
 31
0.0
  0
LINE
  5
7C39
330
19
100
AcDbEntity
  8
1
100
AcDbLine
 10
1987.8786052943
 20
985.4051077903713
 30
0.0
 11
1987.8786052943
 21
984.4051077903719
 31
0.0
  0
LINE
  5
7C3A
330
19
100
AcDbEntity
  8
1
100
AcDbLine
 10
1972.8786052943
 20
1020.405107790372
 30
0.0
 11
1967.8786052943
 21
1020.405107790372
 31
0.0
  0
LINE
  5
7C3B
330
19
100
AcDbEntity
  8
1
100
AcDbLine
 10
764.2661008293832
 20
1006.322140447184
 30
0.0
 11
936.3387417027556
 21
1005.319013903112
 31
0.0
  0
ARC
  5
7C3C
330
19
100
AcDbEntity
  8
1
100
AcDbCircle
 10
742.3387417027556
 20
1213.319013903112
 30
0.0
 40
139.0
100
AcDbArc
 50
359.3640401019806
 51
90.39835508435734
  0
LINE
  5
7C3D
330
19
100
AcDbEntity
  8
1
100
AcDbLine
 10
321.4870751686849
 20
1284.274984287373
 30
0.0
 11
801.4870751686849
 21
1284.274984287373
 31
0.0
  0
LINE
  5
7C3F
330
19
100
AcDbEntity
  8
2
100
AcDbLine
 10
316.8735417027551
 20
1094.319013903112
 30
0.0
 11
527.4415417027548
 21
1094.319013903112
 31
0.0
  0
LINE
  5
7C41
330
19
100
AcDbEntity
  8
1
100
AcDbLine
 10
826.3387417027551
 20
1167.819013903113
 30
0.0
 11
826.3387417027551
 21
1171.019013903112
 31
0.0
  0
LINE
  5
7C42
330
19
100
AcDbEntity
  8
1
100
AcDbLine
 10
676.3387417027551
 20
1171.019013903112
 30
0.0
 11
676.3387417027551
 21
1167.819013903113
 31
0.0
  0
LINE
  5
7C43
330
19
100
AcDbEntity
  8
1
100
AcDbLine
 10
843.8387417027552
 20
1270.319013903113
 30
0.0
 11
843.8387417027552
 21
1167.819013903113
 31
0.0
  0
LINE
  5
7C44
330
19
100
AcDbEntity
  8
1
100
AcDbLine
 10
849.8387417027553
 20
1270.319013903113
 30
0.0
 11
849.8387417027553
 21
1167.819013903113
 31
0.0
  0
LINE
  5
7C45
330
19
100
AcDbEntity
  8
1
100
AcDbLine
 10
658.8387417027552
 20
1270.319013903113
 30
0.0
 11
658.8387417027552
 21
1167.819013903113
 31
0.0
  0
LINE
  5
7C46
330
19
100
AcDbEntity
  8
1
100
AcDbLine
 10
652.8387417027552
 20
1270.319013903113
 30
0.0
 11
652.8387417027552
 21
1167.819013903113
 31
0.0
  0
ARC
  5
7C47
330
19
100
AcDbEntity
  8
1
100
AcDbCircle
 10
740.3387417027556
 20
1193.319013903112
 30
0.0
 40
159.0
100
AcDbArc
 50
89.62754046859496
 51
135.7241782884697
  0
LINE
  5
7C48
330
19
100
AcDbEntity
  8
1
100
AcDbLine
 10
646.3387417027552
 20
1167.819013903113
 30
0.0
 11
856.3387417027552
 21
1167.819013903113
 31
0.0
  0
LINE
  5
7C49
330
19
100
AcDbEntity
  8
1
100
AcDbLine
 10
646.3387417027552
 20
1164.619013903113
 30
0.0
 11
856.3387417027552
 21
1164.619013903113
 31
0.0
  0
LINE
  5
7C4A
330
19
100
AcDbEntity
  8
1
100
AcDbLine
 10
646.3387417027552
 20
1167.819013903113
 30
0.0
 11
646.3387417027552
 21
1164.619013903113
 31
0.0
  0
LINE
  5
7C4B
330
19
100
AcDbEntity
  8
1
100
AcDbLine
 10
856.3387417027552
 20
1167.819013903113
 30
0.0
 11
856.3387417027552
 21
1164.619013903113
 31
0.0
  0
LINE
  5
7C4C
330
19
100
AcDbEntity
  8
1
100
AcDbLine
 10
826.3387417027551
 20
1171.019013903112
 30
0.0
 11
676.3387417027551
 21
1171.019013903112
 31
0.0
  0
LINE
  5
7C4D
330
19
100
AcDbEntity
  8
1
100
AcDbLine
 10
652.8387417027552
 20
1270.319013903113
 30
0.0
 11
658.8387417027552
 21
1270.319013903113
 31
0.0
  0
LINE
  5
7C4E
330
19
100
AcDbEntity
  8
1
100
AcDbLine
 10
843.8387417027552
 20
1270.319013903112
 30
0.0
 11
849.8387417027553
 21
1270.319013903113
 31
0.0
  0
LINE
  5
7C4F
330
19
100
AcDbEntity
  8
1
100
AcDbLine
 10
916.3387417027561
 20
985.318674055591
 30
0.0
 11
916.3387417027557
 21
1227.319013903112
 31
0.0
  0
LINE
  5
7C50
330
19
100
AcDbEntity
  8
1
100
AcDbLine
 10
936.3387417027562
 20
985.318674055591
 30
0.0
 11
936.3387417027556
 21
1215.319013903112
 31
0.0
  0
LINE
  5
7C51
330
19
100
AcDbEntity
  8
1
100
AcDbLine
 10
881.23789424223
 20
1205.319013903112
 30
0.0
 11
936.3387417027556
 21
1205.319013903112
 31
0.0
  0
ARC
  5
7C52
330
19
100
AcDbEntity
  8
1
100
AcDbCircle
 10
757.3387417027556
 20
1210.319013903112
 30
0.0
 40
124.0
100
AcDbArc
 50
357.6890597908976
 51
0.6733278193890098
  0
LINE
  5
7C53
330
19
100
AcDbEntity
  8
1
100
AcDbLine
 10
916.3387417027557
 20
1207.319013903112
 30
0.0
 11
916.3387417027557
 21
1208.319013903113
 31
0.0
  0
LINE
  5
7C54
330
19
100
AcDbEntity
  8
1
100
AcDbLine
 10
936.3387417027556
 20
1227.319013903112
 30
0.0
 11
936.3387417027556
 21
1207.319013903112
 31
0.0
  0
LINE
  5
7C55
330
19
100
AcDbEntity
  8
1
100
AcDbLine
 10
916.3387417027557
 20
1227.319013903112
 30
0.0
 11
936.3387417027556
 21
1227.319013903112
 31
0.0
  0
LINE
  5
7C56
330
19
100
AcDbEntity
  8
1
100
AcDbLine
 10
2145.178605294299
 20
1352.405107790371
 30
0.0
 11
2145.1786052943
 21
1225.405107790371
 31
0.0
  0
LINE
  5
7C57
330
19
100
AcDbEntity
  8
1
100
AcDbLine
 10
1995.178605294301
 20
1352.405107790371
 30
0.0
 11
1995.1786052943
 21
1225.405107790371
 31
0.0
  0
LINE
  5
7C58
330
19
100
AcDbEntity
  8
1
100
AcDbLine
 10
2168.1786052943
 20
1314.405107790371
 30
0.0
 11
2168.1786052943
 21
1094.405107790371
 31
0.0
  0
LINE
  5
7C5B
330
19
100
AcDbEntity
  8
1
100
AcDbLine
 10
1712.178605294299
 20
1167.905107790371
 30
0.0
 11
1734.378605294299
 21
1167.905107790371
 31
0.0
  0
LINE
  5
7C5D
330
19
100
AcDbEntity
  8
1
100
AcDbLine
 10
1698.378605294301
 20
1254.405107790371
 30
0.0
 11
1698.378605294301
 21
1159.955107790371
 31
0.0
  0
LINE
  5
7C5E
330
19
100
AcDbEntity
  8
1
100
AcDbLine
 10
1660.378605294301
 20
1254.405107790371
 30
0.0
 11
1660.378605294299
 21
1159.955107790371
 31
0.0
  0
LINE
  5
7C61
330
19
100
AcDbEntity
  8
1
100
AcDbLine
 10
1660.378605294299
 20
1159.955107790371
 30
0.0
 11
1660.378605294299
 21
1044.405107790371
 31
0.0
  0
LINE
  5
7C62
330
19
100
AcDbEntity
  8
1
100
AcDbLine
 10
1698.378605294301
 20
1159.955107790371
 30
0.0
 11
1698.378605294301
 21
1044.405107790371
 31
0.0
  0
LINE
  5
7C66
330
19
100
AcDbEntity
  8
1
100
AcDbLine
 10
1637.1786052943
 20
1284.41107287649
 30
0.0
 11
1712.178605294299
 21
1284.41107287649
 31
0.0
  0
LINE
  5
7C67
330
19
100
AcDbEntity
  8
1
100
AcDbLine
 10
1698.378605294301
 20
1194.905107790371
 30
0.0
 11
1708.3786052943
 21
1194.905107790371
 31
0.0
  0
LINE
  5
7C68
330
19
100
AcDbEntity
  8
1
100
AcDbLine
 10
1708.3786052943
 20
1194.405107790371
 30
0.0
 11
1735.0786052943
 21
1194.405107790371
 31
0.0
  0
LINE
  5
7C69
330
19
100
AcDbEntity
  8
1
100
AcDbLine
 10
1967.8786052943
 20
1194.405107790371
 30
0.0
 11
1708.3786052943
 21
1194.405107790371
 31
0.0
  0
LINE
  5
7C6A
330
19
100
AcDbEntity
  8
1
100
AcDbLine
 10
1698.378605294301
 20
1213.905107790371
 30
0.0
 11
1708.3786052943
 21
1213.905107790371
 31
0.0
  0
LINE
  5
7C6C
330
19
100
AcDbEntity
  8
1
100
AcDbLine
 10
2167.178605294299
 20
1094.405107790371
 30
0.0
 11
2168.1786052943
 21
1094.405107790371
 31
0.0
  0
LINE
  5
7C6D
330
19
100
AcDbEntity
  8
1
100
AcDbLine
 10
2168.1786052943
 20
1094.405107790371
 30
0.0
 11
2168.1786052943
 21
1093.405107790371
 31
0.0
  0
ARC
  5
7C6E
330
19
100
AcDbEntity
  8
1
100
AcDbCircle
 10
2166.1786052943
 20
1093.405107790371
 30
0.0
 40
2.0
100
AcDbArc
 50
299.9999999999997
 51
0.0
  0
LINE
  5
7C71
330
19
100
AcDbEntity
  8
1
100
AcDbLine
 10
1967.8786052943
 20
1270.405107790371
 30
0.0
 11
1995.1786052943
 21
1270.405107790371
 31
0.0
  0
LINE
  5
7C72
330
19
100
AcDbEntity
  8
1
100
AcDbLine
 10
2145.178605294294
 20
1205.405107790371
 30
0.0
 11
2145.1786052943
 21
1181.405107790371
 31
0.0
  0
LINE
  5
7C74
330
19
100
AcDbEntity
  8
1
100
AcDbLine
 10
2166.1786052943
 20
1317.405107790371
 30
0.0
 11
2165.1786052943
 21
1317.405107790371
 31
0.0
  0
ARC
  5
7C75
330
19
100
AcDbEntity
  8
1
100
AcDbCircle
 10
2166.1786052943
 20
1315.405107790371
 30
0.0
 40
2.0
100
AcDbArc
 50
0.0
 51
90.0
  0
LINE
  5
7C76
330
19
100
AcDbEntity
  8
1
100
AcDbLine
 10
2168.1786052943
 20
1314.405107790371
 30
0.0
 11
2168.1786052943
 21
1315.405107790371
 31
0.0
  0
LINE
  5
7C77
330
19
100
AcDbEntity
  8
1
100
AcDbLine
 10
2165.1786052943
 20
1314.405107790371
 30
0.0
 11
2168.1786052943
 21
1314.405107790371
 31
0.0
  0
LINE
  5
7C79
330
19
100
AcDbEntity
  8
1
100
AcDbLine
 10
926.3387417027551
 20
944.3190139031125
 30
0.0
 11
306.3387417027552
 21
944.3190139031125
 31
0.0
  0
DIMENSION
  5
7C7A
330
19
100
AcDbEntity
  8
3
100
AcDbDimension
280
     0
  2
*D1
 10
999.0855489014961
 20
1005.319013903112
 30
0.0
 11
969.0855489014962
 21
1105.319013903113
 31
0.0
 70
    32
 71
     5
 42
-1.0
 73
     0
 74
     0
 75
     0
  3
IGA
100
AcDbAlignedDimension
 13
936.3387417027556
 23
1205.319013903112
 33
0.0
 14
936.3387417027556
 24
1005.319013903112
 34
0.0
 50
270.0
100
AcDbRotatedDimension
1001
ACAD
1000
DSTYLE
1002
{
1070
    40
1040
12.0
1070
   143
1040
0.039
1070
   172
1070
     1
1070
   271
1070
     0
1070
   279
1070
     0
1070
   288
1070
     1
1002
}
  0
DIMENSION
  5
7C7B
330
19
100
AcDbEntity
  8
3
100
AcDbDimension
280
     0
  2
*D2
 10
1061.782320610699
 20
1005.319013903112
 30
0.0
 11
1031.782320610699
 21
1104.819013903112
 31
0.0
 70
    32
 71
     5
 42
-1.0
 73
     0
 74
     0
 75
     0
  3
IGA
100
AcDbAlignedDimension
 13
936.7031438269259
 23
1204.319013903112
 33
0.0
 14
936.3387417027556
 24
1005.319013903112
 34
0.0
 50
270.0
100
AcDbRotatedDimension
1001
ACAD
1000
DSTYLE
1002
{
1070
    40
1040
12.0
1070
   143
1040
0.039
1070
   172
1070
     1
1070
   271
1070
     0
1070
   279
1070
     0
1070
   288
1070
     1
1002
}
  0
LINE
  5
7C7E
330
19
100
AcDbEntity
  8
1
100
AcDbLine
 10
2030.178605294301
 20
944.4051077903719
 30
0.0
 11
2030.178605294301
 21
984.4051077903719
 31
0.0
  0
LINE
  5
7C7F
330
19
100
AcDbEntity
  8
1
100
AcDbLine
 10
1650.178605294301
 20
944.4051077903717
 30
0.0
 11
1650.178605294301
 21
984.4051077903714
 31
0.0
  0
LINE
  5
7C80
330
19
100
AcDbEntity
  8
1
100
AcDbLine
 10
1967.8786052943
 20
1214.405107790371
 30
0.0
 11
1708.3786052943
 21
1214.405107790371
 31
0.0
  0
LINE
  5
7C81
330
19
100
AcDbEntity
  8
1
100
AcDbLine
 10
1708.3786052943
 20
1214.405107790371
 30
0.0
 11
1708.3786052943
 21
1213.905107790371
 31
0.0
  0
LINE
  5
7C82
330
19
100
AcDbEntity
  8
1
100
AcDbLine
 10
1708.3786052943
 20
1194.905107790371
 30
0.0
 11
1708.3786052943
 21
1194.405107790371
 31
0.0
  0
LINE
  5
7C83
330
19
100
AcDbEntity
  8
1
100
AcDbLine
 10
1712.178605294299
 20
984.4051077903715
 30
0.0
 11
1637.1786052943
 21
984.4051077903715
 31
0.0
  0
LINE
  5
7C85
330
19
100
AcDbEntity
  8
2
100
AcDbLine
 10
959.9026265375204
 20
2409.545992531668
 30
0.0
 11
561.4953147125231
 21
2409.545992531668
 31
0.0
  0
LINE
  5
7C86
330
19
100
AcDbEntity
  8
1
100
AcDbLine
 10
916.3387417027553
 20
2484.545992531667
 30
0.0
 11
751.3387417027551
 21
2484.545992531667
 31
0.0
  0
LINE
  5
7C87
330
19
100
AcDbEntity
  8
1
100
AcDbLine
 10
916.3387417027553
 20
2334.545992531667
 30
0.0
 11
751.3387417027551
 21
2334.545992531667
 31
0.0
  0
LINE
  5
7C88
330
19
100
AcDbEntity
  8
1
100
AcDbLine
 10
926.3387417027551
 20
2314.545992531667
 30
0.0
 11
926.3387417027551
 21
1989.545992531667
 31
0.0
  0
LINE
  5
7C89
330
19
100
AcDbEntity
  8
1
100
AcDbLine
 10
886.3387417027556
 20
2334.545992531667
 30
0.0
 11
886.3387417027551
 21
1989.545992531667
 31
0.0
  0
LINE
  5
7C8A
330
19
100
AcDbEntity
  8
2
100
AcDbLine
 10
751.3387417027551
 20
1987.241336965215
 30
0.0
 11
751.3387417027551
 21
2517.013698124247
 31
0.0
  0
LINE
  5
7C8B
330
19
100
AcDbEntity
  8
1
100
AcDbLine
 10
831.3447067888738
 20
1976.545992531666
 30
0.0
 11
831.3447067888738
 21
2051.545992531666
 31
0.0
  0
LINE
  5
7C8C
330
19
100
AcDbEntity
  8
1
100
AcDbLine
 10
831.3447067888738
 20
1976.545992531666
 30
0.0
 11
321.4870751686849
 21
1976.545992531666
 31
0.0
  0
LINE
  5
7C8D
330
19
100
AcDbEntity
  8
1
100
AcDbLine
 10
706.8887417027553
 20
1999.745992531666
 30
0.0
 11
371.3387417027552
 21
1999.745992531664
 31
0.0
  0
LINE
  5
7C8E
330
19
100
AcDbEntity
  8
1
100
AcDbLine
 10
706.8887417027553
 20
2037.745992531667
 30
0.0
 11
371.3387417027552
 21
2037.745992531668
 31
0.0
  0
LINE
  5
7C8F
330
19
100
AcDbEntity
  8
1
100
AcDbLine
 10
831.3447067888738
 20
2051.545992531666
 30
0.0
 11
321.4870751686849
 21
2051.545992531666
 31
0.0
  0
LINE
  5
7C91
330
19
100
AcDbEntity
  8
1
100
AcDbLine
 10
741.3387417027554
 20
2334.545992531667
 30
0.0
 11
741.3387417027552
 21
2047.745992531667
 31
0.0
  0
LINE
  5
7C92
330
19
100
AcDbEntity
  8
1
100
AcDbLine
 10
761.3387417027549
 20
2334.545992531667
 30
0.0
 11
761.3387417027552
 21
2047.745992531667
 31
0.0
  0
LINE
  5
7C93
330
19
100
AcDbEntity
  8
1
100
AcDbLine
 10
801.3387417027551
 20
1999.745992531667
 30
0.0
 11
706.8887417027553
 21
1999.745992531666
 31
0.0
  0
LINE
  5
7C94
330
19
100
AcDbEntity
  8
1
100
AcDbLine
 10
801.3387417027551
 20
2037.745992531667
 30
0.0
 11
706.8887417027553
 21
2037.745992531667
 31
0.0
  0
LINE
  5
7C95
330
19
100
AcDbEntity
  8
1
100
AcDbLine
 10
714.8387417027552
 20
2051.545992531667
 30
0.0
 11
807.8387417027553
 21
2051.545992531667
 31
0.0
  0
LINE
  5
7C97
330
19
100
AcDbEntity
  8
1
100
AcDbLine
 10
760.8387417027552
 20
2037.745992531667
 30
0.0
 11
760.8387417027552
 21
2047.745992531667
 31
0.0
  0
LINE
  5
7C98
330
19
100
AcDbEntity
  8
1
100
AcDbLine
 10
741.8387417027552
 20
2037.745992531667
 30
0.0
 11
741.8387417027552
 21
2047.745992531667
 31
0.0
  0
LINE
  5
7C9A
330
19
100
AcDbEntity
  8
1
100
AcDbLine
 10
321.4870751686849
 20
2051.545992531666
 30
0.0
 11
321.4870751686849
 21
1976.545992531666
 31
0.0
  0
LINE
  5
7C9C
330
19
100
AcDbEntity
  8
1
100
AcDbLine
 10
346.3387417027559
 20
2073.745992531666
 30
0.0
 11
346.3387417027557
 21
1989.545992531667
 31
0.0
  0
LINE
  5
7C9D
330
19
100
AcDbEntity
  8
1
100
AcDbLine
 10
851.3387417027551
 20
2056.623596619305
 30
0.0
 11
851.3387417027551
 21
2334.545992531667
 31
0.0
  0
LINE
  5
7C9E
330
19
100
AcDbEntity
  8
1
100
AcDbLine
 10
651.3387417027551
 20
2056.623596619305
 30
0.0
 11
651.3387417027554
 21
2334.545992531667
 31
0.0
  0
LINE
  5
7C9F
330
19
100
AcDbEntity
  8
1
100
AcDbLine
 10
851.3387417027551
 20
2056.623596619304
 30
0.0
 11
761.3387417027552
 21
2056.623596619305
 31
0.0
  0
LINE
  5
7CA1
330
19
100
AcDbEntity
  8
1
100
AcDbLine
 10
741.3387417027561
 20
2056.623596619305
 30
0.0
 11
651.3387417027551
 21
2056.623596619304
 31
0.0
  0
DIMENSION
  5
7CA2
330
19
100
AcDbEntity
  8
3
100
AcDbDimension
280
     0
  2
*D3
 10
2070.178605294301
 20
1486.664722940763
 30
0.0
 11
2105.942944431974
 21
1513.649229356842
 31
0.0
 70
   160
  1
79
 71
     5
 42
-1.0
 73
     0
 74
     0
 75
     0
  3
IGA
100
AcDbAlignedDimension
 13
2147.1786052943
 23
1334.781028517881
 33
0.0
 14
2070.178605294301
 24
1449.107821285677
 34
0.0
100
AcDbRotatedDimension
1001
ACAD
1000
DSTYLE
1002
{
1070
   288
1070
     1
1070
   172
1070
     1
1070
    40
1040
12.0
1070
   271
1070
     0
1070
   143
1040
0.039
1002
}
  0
DIMENSION
  5
7CA3
330
19
100
AcDbEntity
  8
3
100
AcDbDimension
280
     0
  2
*D4
 10
1637.1786052943
 20
1486.664722940763
 30
0.0
 11
1853.6786052943
 21
1556.093294369334
 31
0.0
 70
    32
  1
\P(520)
 71
     5
 42
433.0000000000008
 73
     0
 74
     0
 75
     0
  3
IGA
100
AcDbAlignedDimension
 13
2070.178605294301
 23
1449.107821285677
 33
0.0
 14
1637.1786052943
 24
1284.41107287649
 34
0.0
100
AcDbRotatedDimension
1001
ACAD
1000
DSTYLE
1002
{
1070
    40
1040
12.0
1070
   143
1040
0.039
1070
   172
1070
     1
1070
   271
1070
     0
1070
   279
1070
     0
1070
   288
1070
     1
1002
}
  0
DIMENSION
  5
7CA4
330
19
100
AcDbEntity
  8
3
100
AcDbDimension
280
     0
  2
*D5
 10
2145.178605294299
 20
1396.255427391128
 30
0.0
 11
2070.1786052943
 21
1425.759014819349
 31
0.0
 70
   160
 71
     5
 42
-1.0
 73
     0
 74
     0
 75
     0
  3
IGA
100
AcDbAlignedDimension
 13
1995.1786052943
 23
1349.2688249965
 33
0.0
 14
2145.178605294299
 24
1349.268830133644
 34
0.0
100
AcDbRotatedDimension
1001
ACAD
1000
DSTYLE
1002
{
1070
   288
1070
     1
1070
   172
1070
     1
1070
    40
1040
12.0
1070
   271
1070
     0
1070
   143
1040
0.039
1002
}
  0
DIMENSION
  5
7CA5
330
19
100
AcDbEntity
  8
3
100
AcDbDimension
280
     0
  2
*D6
 10
2249.195645158139
 20
1094.405107790371
 30
0.0
 11
2219.195645158139
 21
1204.405107790371
 31
0.0
 70
    32
 71
     5
 42
-1.0
 73
     0
 74
     0
 75
     0
  3
IGA
100
AcDbAlignedDimension
 13
2168.1786052943
 23
1314.405107790371
 33
0.0
 14
2168.1786052943
 24
1094.405107790371
 34
0.0
 50
90.0
100
AcDbRotatedDimension
1001
ACAD
1000
DSTYLE
1002
{
1070
     3
1000
φ<>
1070
    40
1040
12.0
1070
   143
1040
0.039
1070
   172
1070
     1
1070
   271
1070
     0
1070
   279
1070
     0
1070
   288
1070
     1
1002
}
  0
LINE
  5
7CAA
330
19
100
AcDbEntity
  8
1
100
AcDbLine
 10
2148.1786052943
 20
1334.405107790371
 30
0.0
 11
2148.178605294299
 21
1225.405107790371
 31
0.0
  0
LINE
  5
7CAB
330
19
100
AcDbEntity
  8
1
100
AcDbLine
 10
2151.1786052943
 20
1321.405107790371
 30
0.0
 11
2151.1786052943
 21
1332.405107790371
 31
0.0
  0
LINE
  5
7CAC
330
19
100
AcDbEntity
  8
1
100
AcDbLine
 10
2145.178605294299
 20
1334.405107790371
 30
0.0
 11
2148.178605294301
 21
1334.405107790371
 31
0.0
  0
LINE
  5
7CAD
330
19
100
AcDbEntity
  8
1
100
AcDbLine
 10
2149.1786052943
 20
1334.405107790371
 30
0.0
 11
2148.1786052943
 21
1334.405107790371
 31
0.0
  0
ARC
  5
7CAE
330
19
100
AcDbEntity
  8
1
100
AcDbCircle
 10
2149.1786052943
 20
1332.405107790371
 30
0.0
 40
2.0
100
AcDbArc
 50
0.0
 51
90.0
  0
LINE
  5
7CAF
330
19
100
AcDbEntity
  8
1
100
AcDbLine
 10
2166.1786052943
 20
1317.405107790371
 30
0.0
 11
2155.1786052943
 21
1317.405107790371
 31
0.0
  0
LINE
  5
7CB0
330
19
100
AcDbEntity
  8
1
100
AcDbLine
 10
2148.1786052943
 20
1314.405107790371
 30
0.0
 11
2168.1786052943
 21
1314.405107790371
 31
0.0
  0
ARC
  5
7CB1
330
19
100
AcDbEntity
  8
1
100
AcDbCircle
 10
2155.1786052943
 20
1321.405107790371
 30
0.0
 40
4.0
100
AcDbArc
 50
180.0
 51
270.0
  0
ARC
  5
7CB2
330
19
100
AcDbEntity
  8
1
100
AcDbCircle
 10
2166.1786052943
 20
1315.405107790371
 30
0.0
 40
2.0
100
AcDbArc
 50
0.0
 51
90.0
  0
LINE
  5
7CB3
330
19
100
AcDbEntity
  8
1
100
AcDbLine
 10
2168.1786052943
 20
1314.405107790371
 30
0.0
 11
2168.1786052943
 21
1315.405107790371
 31
0.0
  0
LINE
  5
7CB4
330
19
100
AcDbEntity
  8
1
100
AcDbLine
 10
752.3387417027552
 20
2484.545992531667
 30
0.0
 11
581.3387417027554
 21
2484.545992531668
 31
0.0
  0
LINE
  5
7CB5
330
19
100
AcDbEntity
  8
1
100
AcDbLine
 10
752.3387417027552
 20
2334.545992531667
 30
0.0
 11
581.3387417027554
 21
2334.545992531667
 31
0.0
  0
DIMENSION
  5
7CB6
330
19
100
AcDbEntity
  8
3
100
AcDbDimension
280
     0
  2
*D7
 10
1134.708473297219
 20
1204.319013903112
 30
0.0
 11
1103.444739550685
 21
1278.319013903112
 31
0.0
 70
   160
 71
     5
 42
-1.0
 73
     0
 74
     0
 75
     0
  3
IGA
100
AcDbAlignedDimension
 13
740.3387417027556
 23
1352.319013903112
 33
0.0
 14
936.7031438269259
 24
1204.319013903112
 34
0.0
 50
270.0
100
AcDbRotatedDimension
1001
ACAD
1000
DSTYLE
1002
{
1070
   288
1070
     1
1070
   172
1070
     1
1070
    40
1040
12.0
1070
   271
1070
     0
1070
   143
1040
0.039
1002
}
  0
DIMENSION
  5
7CB7
330
19
100
AcDbEntity
  8
3
100
AcDbDimension
280
     0
  2
*D8
 10
1134.708473297219
 20
944.3190139031125
 30
0.0
 11
1104.708473297219
 21
1074.319013903112
 31
0.0
 70
    32
 71
     5
 42
-1.0
 73
     0
 74
     0
 75
     0
  3
IGA
100
AcDbAlignedDimension
 13
936.7031438269259
 23
1204.319013903112
 33
0.0
 14
926.3387417027551
 24
944.3190139031125
 34
0.0
 50
270.0
100
AcDbRotatedDimension
1001
ACAD
1000
DSTYLE
1002
{
1070
    40
1040
12.0
1070
   143
1040
0.039
1070
   172
1070
     1
1070
   271
1070
     0
1070
   279
1070
     0
1070
   288
1070
     1
1002
}
  0
DIMENSION
  5
7CBA
330
19
100
AcDbEntity
  8
3
100
AcDbDimension
280
     0
  2
*D9
 10
751.3387417027551
 20
1417.172414038592
 30
0.0
 11
843.8387417027554
 21
1417.172414038592
 31
0.0
 70
   160
 71
     5
 42
-1.0
 73
     0
 74
     0
 75
     0
  3
IGA
100
AcDbAlignedDimension
 13
936.3387417027556
 23
1227.319013903112
 33
0.0
 14
751.3387417027551
 24
1379.144972564316
 34
0.0
100
AcDbRotatedDimension
1001
ACAD
1000
DSTYLE
1002
{
1070
    40
1040
12.0
1070
   143
1040
0.039
1070
   172
1070
     1
1070
   271
1070
     0
1070
   279
1070
     0
1070
   288
1070
     1
1002
}
  0
DIMENSION
  5
7CBB
330
19
100
AcDbEntity
  8
3
100
AcDbDimension
280
     0
  2
*D10
 10
581.3387417027557
 20
1417.172414038592
 30
0.0
 11
666.3387417027554
 21
1447.172414038592
 31
0.0
 70
    32
 71
     5
 42
-1.0
 73
     0
 74
     0
 75
     0
  3
IGA
100
AcDbAlignedDimension
 13
751.3387417027551
 23
1379.144972564316
 33
0.0
 14
581.3387417027557
 24
1190.319013903113
 34
0.0
100
AcDbRotatedDimension
1001
ACAD
1000
DSTYLE
1002
{
1070
    40
1040
12.0
1070
   143
1040
0.039
1070
   172
1070
     1
1070
   271
1070
     0
1070
   279
1070
     0
1070
   288
1070
     1
1002
}
  0
LINE
  5
7CBC
330
19
100
AcDbEntity
  8
1
100
AcDbLine
 10
936.3387417027562
 20
985.318674055591
 30
0.0
 11
916.3387417027561
 21
985.318674055591
 31
0.0
  0
LINE
  5
7CBD
330
19
100
AcDbEntity
  8
1
100
AcDbLine
 10
1995.178605294299
 20
1005.405107790371
 30
0.0
 11
2145.1786052943
 21
1005.405107790371
 31
0.0
  0
LINE
  5
7CBE
330
19
100
AcDbEntity
  8
1
100
AcDbLine
 10
1995.178605294301
 20
1352.405107790371
 30
0.0
 11
2145.178605294299
 21
1352.405107790372
 31
0.0
  0
LINE
  5
7CBF
330
19
100
AcDbEntity
  8
1
100
AcDbLine
 10
2167.1786052943
 20
1225.405107790371
 30
0.0
 11
2167.178605294299
 21
985.4051077903713
 31
0.0
  0
LINE
  5
7CC0
330
19
100
AcDbEntity
  8
1
100
AcDbLine
 10
1972.8786052943
 20
985.4051077903713
 30
0.0
 11
2167.178605294299
 21
985.4051077903713
 31
0.0
  0
LINE
  5
7CC1
330
19
100
AcDbEntity
  8
1
100
AcDbLine
 10
1995.178605294299
 20
1205.405107790371
 30
0.0
 11
2145.178605294294
 21
1205.405107790371
 31
0.0
  0
LINE
  5
7CC2
330
19
100
AcDbEntity
  8
1
100
AcDbLine
 10
2145.1786052943
 20
1205.405107790371
 30
0.0
 11
1995.178605294299
 21
1005.405107790371
 31
0.0
  0
LINE
  5
7CC3
330
19
100
AcDbEntity
  8
1
100
AcDbLine
 10
1995.1786052943
 20
1205.405107790371
 30
0.0
 11
2145.1786052943
 21
1005.405107790371
 31
0.0
  0
LINE
  5
7CC4
330
19
100
AcDbEntity
  8
1
100
AcDbLine
 10
936.3387417027562
 20
2314.545992531667
 30
0.0
 11
936.3387417027556
 21
2504.545992531666
 31
0.0
  0
LINE
  5
7CC5
330
19
100
AcDbEntity
  8
1
100
AcDbLine
 10
581.3387417027554
 20
2334.545992531667
 30
0.0
 11
581.3387417027552
 21
2484.545992531668
 31
0.0
  0
LINE
  5
7CC6
330
19
100
AcDbEntity
  8
1
100
AcDbLine
 10
916.3387417027553
 20
2314.545992531667
 30
0.0
 11
916.3387417027553
 21
2504.545992531666
 31
0.0
  0
LINE
  5
7CC7
330
19
100
AcDbEntity
  8
1
100
AcDbLine
 10
936.3387417027562
 20
2504.545992531666
 30
0.0
 11
916.3387417027553
 21
2504.545992531666
 31
0.0
  0
LINE
  5
7CC8
330
19
100
AcDbEntity
  8
1
100
AcDbLine
 10
936.3387417027562
 20
2314.545992531667
 30
0.0
 11
916.3387417027553
 21
2314.545992531667
 31
0.0
  0
LINE
  5
7CC9
330
19
100
AcDbEntity
  8
2
100
AcDbLine
 10
1806.094954817465
 20
1094.405107790372
 30
0.0
 11
1615.885828611159
 21
1094.405107790372
 31
0.0
  0
LINE
  5
7CCA
330
19
100
AcDbEntity
  8
1
100
AcDbLine
 10
1952.378605294299
 20
1169.205095790371
 30
0.0
 11
1734.378605294299
 21
1169.205095790371
 31
0.0
  0
ARC
  5
7CCB
330
19
100
AcDbEntity
  8
1
100
AcDbCircle
 10
421.3387417027552
 20
1094.319013903112
 30
0.0
 40
85.0
100
AcDbArc
 50
295.875534
 51
180.0
  0
LINE
  5
7CCC
330
19
100
AcDbEntity
  8
2
100
AcDbLine
 10
421.3387417027552
 20
1190.606665441445
 30
0.0
 11
421.3387417027552
 21
939.3800818392541
 31
0.0
  0
ARC
  5
7CCD
330
19
100
AcDbEntity
  8
1
100
AcDbCircle
 10
421.3387417027552
 20
1094.319013903112
 30
0.0
 40
85.0
100
AcDbArc
 50
295.875534
 51
180.0
  0
LINE
  5
7CCE
330
19
100
AcDbEntity
  8
1
100
AcDbLine
 10
1952.378605294299
 20
1169.205095790371
 30
0.0
 11
1952.378605294299
 21
1167.905107790371
 31
0.0
  0
LINE
  5
7CCF
330
19
100
AcDbEntity
  8
1
100
AcDbLine
 10
528.8387417027552
 20
984.319013903112
 30
0.0
 11
313.8387417027552
 21
984.3190139031126
 31
0.0
  0
LINE
  5
7CD0
330
19
100
AcDbEntity
  8
1
100
AcDbLine
 10
523.8387417027556
 20
1014.319013903112
 30
0.0
 11
318.8387417027557
 21
1014.319013903112
 31
0.0
  0
LINE
  5
7CD1
330
19
100
AcDbEntity
  8
1
100
AcDbLine
 10
503.1133392685192
 20
1014.319013903112
 30
0.0
 11
483.6619097027551
 21
1036.500509903112
 31
0.0
  0
LINE
  5
7CD2
330
19
100
AcDbEntity
  8
1
100
AcDbLine
 10
523.8387417027552
 20
1014.319013903112
 30
0.0
 11
528.8387417027552
 21
984.319013903112
 31
0.0
  0
LINE
  5
7CD3
330
19
100
AcDbEntity
  8
1
100
AcDbLine
 10
498.8387417027552
 20
1014.319013903112
 30
0.0
 11
463.8387417027551
 21
1014.319013903112
 31
0.0
  0
LINE
  5
7CD4
330
19
100
AcDbEntity
  8
1
100
AcDbLine
 10
332.8721587027553
 20
1094.722577903112
 30
0.0
 11
336.3684117027551
 21
1093.785890903112
 31
0.0
  0
ARC
  5
7CD5
330
19
100
AcDbEntity
  8
1
100
AcDbCircle
 10
421.3387417027552
 20
1094.319013903112
 30
0.0
 40
85.000008
100
AcDbArc
 50
180.0
 51
244.082274
  0
LINE
  5
7CD6
330
19
100
AcDbEntity
  8
1
100
AcDbLine
 10
339.5642330281612
 20
1014.319013903112
 30
0.0
 11
359.0174337027552
 21
1036.502651903112
 31
0.0
  0
LINE
  5
7CD7
330
19
100
AcDbEntity
  8
1
100
AcDbLine
 10
458.4342407027552
 20
1017.868085903113
 30
0.0
 11
384.1869327027552
 21
1017.868085903113
 31
0.0
  0
LINE
  5
7CD8
330
19
100
AcDbEntity
  8
1
100
AcDbLine
 10
343.8387417027552
 20
1014.319013903112
 30
0.0
 11
378.8387417027552
 21
1014.319013903112
 31
0.0
  0
LINE
  5
7CD9
330
19
100
AcDbEntity
  8
1
100
AcDbLine
 10
318.8387417027557
 20
1014.319013903112
 30
0.0
 11
313.8387417027557
 21
984.3190139031126
 31
0.0
  0
LINE
  5
7CDA
330
19
100
AcDbEntity
  8
1
100
AcDbLine
 10
1734.378605294299
 20
1167.90510779037
 30
0.0
 11
1734.378605294299
 21
1169.205095790371
 31
0.0
  0
LINE
  5
7CDB
330
19
100
AcDbEntity
  8
1
100
AcDbLine
 10
1716.878605294301
 20
1103.905107790371
 30
0.0
 11
1698.378605294301
 21
1103.905107790371
 31
0.0
  0
LINE
  5
7CDC
330
19
100
AcDbEntity
  8
1
100
AcDbLine
 10
1698.378605294301
 20
1084.905107790371
 30
0.0
 11
1716.8786052943
 21
1084.905107790371
 31
0.0
  0
LINE
  5
7CDD
330
19
100
AcDbEntity
  8
1
100
AcDbLine
 10
343.3387417027552
 20
2073.745992531666
 30
0.0
 11
496.1387297027549
 21
2073.745992531666
 31
0.0
  0
LINE
  5
7CDE
330
19
100
AcDbEntity
  8
1
100
AcDbLine
 10
496.1387297027549
 20
2291.745992531666
 30
0.0
 11
343.3387417027552
 21
2291.745992531666
 31
0.0
  0
LINE
  5
7CDF
330
19
100
AcDbEntity
  8
1
100
AcDbLine
 10
343.3387417027552
 20
2073.745992531665
 30
0.0
 11
343.3387417027552
 21
2291.745992531666
 31
0.0
  0
LINE
  5
7CE0
330
19
100
AcDbEntity
  8
1
100
AcDbLine
 10
454.8387417027552
 20
2063.745992531666
 30
0.0
 11
454.8387417027552
 21
2073.745992531666
 31
0.0
  0
LINE
  5
7CE1
330
19
100
AcDbEntity
  8
1
100
AcDbLine
 10
387.8387417027552
 20
2073.745992531666
 30
0.0
 11
387.8387417027552
 21
2063.745992531666
 31
0.0
  0
LINE
  5
7CE2
330
19
100
AcDbEntity
  8
1
100
AcDbLine
 10
410.8387417027552
 20
2058.745992531666
 30
0.0
 11
431.8387417027552
 21
2058.745992531666
 31
0.0
  0
LINE
  5
7CE3
330
19
100
AcDbEntity
  8
1
100
AcDbLine
 10
387.8387417027552
 20
2063.745992531666
 30
0.0
 11
454.8387417027552
 21
2063.745992531666
 31
0.0
  0
LINE
  5
7CE4
330
19
100
AcDbEntity
  8
1
100
AcDbLine
 10
411.8387417027552
 20
2037.745992531667
 30
0.0
 11
411.8387417027552
 21
2058.745992531666
 31
0.0
  0
LINE
  5
7CE5
330
19
100
AcDbEntity
  8
1
100
AcDbLine
 10
410.8387417027552
 20
2058.745992531666
 30
0.0
 11
410.8387417027552
 21
2063.745992531666
 31
0.0
  0
LINE
  5
7CE6
330
19
100
AcDbEntity
  8
1
100
AcDbLine
 10
430.8387417027552
 20
2058.745992531666
 30
0.0
 11
430.8387417027552
 21
2037.745992531667
 31
0.0
  0
LINE
  5
7CE7
330
19
100
AcDbEntity
  8
1
100
AcDbLine
 10
431.8387417027552
 20
2058.745992531666
 30
0.0
 11
431.8387417027552
 21
2063.745992531666
 31
0.0
  0
LINE
  5
7CE8
330
19
100
AcDbEntity
  8
1
100
AcDbLine
 10
382.6545377027551
 20
2073.745992531666
 30
0.0
 11
391.6545377027551
 21
2073.745992531666
 31
0.0
  0
LINE
  5
7CE9
330
19
100
AcDbEntity
  8
1
100
AcDbLine
 10
393.5888027027549
 20
2073.745992531666
 30
0.0
 11
381.3248687027553
 21
2073.745992531666
 31
0.0
  0
LINE
  5
7CEA
330
19
100
AcDbEntity
  8
1
100
AcDbLine
 10
391.4037447027549
 20
2073.745992531666
 30
0.0
 11
382.7737397027549
 21
2073.745992531666
 31
0.0
  0
LINE
  5
7CEB
330
19
100
AcDbEntity
  8
1
100
AcDbLine
 10
496.1387297027549
 20
2291.745992531666
 30
0.0
 11
496.1387297027549
 21
2073.745992531666
 31
0.0
  0
ARC
  5
7CEC
330
19
100
AcDbEntity
  8
1
100
AcDbCircle
 10
489.9130367027555
 20
2072.745992531666
 30
0.0
 40
2.0
100
AcDbArc
 50
11.13904000000004
 51
29.99999999999999
  0
LINE
  5
7CED
330
19
100
AcDbEntity
  8
1
100
AcDbLine
 10
485.404537702755
 20
2073.745992531666
 30
0.0
 11
494.404537702755
 21
2073.745992531666
 31
0.0
  0
LINE
  5
7CEE
330
19
100
AcDbEntity
  8
1
100
AcDbLine
 10
494.1537447027549
 20
2073.745992531666
 30
0.0
 11
485.5237397027549
 21
2073.745992531666
 31
0.0
  0
LINE
  5
7CEF
330
19
100
AcDbEntity
  8
1
100
AcDbLine
 10
1734.378605294299
 20
1167.90510779037
 30
0.0
 11
1967.8786052943
 21
1167.905107790371
 31
0.0
  0
LINE
  5
7CF0
330
19
100
AcDbEntity
  8
1
100
AcDbLine
 10
1716.878605294301
 20
1094.405107790372
 30
0.0
 11
1716.8786052943
 21
1167.905107790371
 31
0.0
  0
LINE
  5
7CF1
330
19
100
AcDbEntity
  8
1
100
AcDbLine
 10
1972.8786052943
 20
1225.405107790371
 30
0.0
 11
2167.1786052943
 21
1225.405107790371
 31
0.0
  0
LINE
  5
7CF2
330
19
100
AcDbEntity
  8
1
100
AcDbLine
 10
1972.8786052943
 20
1225.405107790371
 30
0.0
 11
1972.8786052943
 21
985.4051077903713
 31
0.0
  0
DIMENSION
  5
7CF9
330
19
100
AcDbEntity
  8
3
100
AcDbDimension
280
     0
  2
*D11
 10
306.3387417027552
 20
1503.560534950096
 30
0.0
 11
621.3387417027554
 21
1533.560534950096
 31
0.0
 70
    32
 71
     5
 42
-1.0
 73
     0
 74
     0
 75
     0
  3
IGA
100
AcDbAlignedDimension
 13
936.3387417027556
 23
1227.319013903112
 33
0.0
 14
306.3387417027552
 24
984.3190139031126
 34
0.0
100
AcDbRotatedDimension
1001
ACAD
1000
DSTYLE
1002
{
1070
    40
1040
12.0
1070
   143
1040
0.039
1070
   172
1070
     1
1070
   271
1070
     0
1070
   279
1070
     0
1070
   288
1070
     1
1002
}
  0
LINE
  5
7EF0
330
19
100
AcDbEntity
  8
4
100
AcDbLine
 10
2220.0
 20
600.0
 30
0.0
 11
2220.0
 21
360.0
 31
0.0
  0
LINE
  5
7EF1
330
19
100
AcDbEntity
  8
4
100
AcDbLine
 10
1380.0
 20
600.0
 30
0.0
 11
1380.0
 21
360.0
 31
0.0
  0
LINE
  5
7EF2
330
19
100
AcDbEntity
  8
4
100
AcDbLine
 10
780.0
 20
600.0
 30
0.0
 11
780.0
 21
360.0
 31
0.0
  0
LINE
  5
7EF5
330
19
100
AcDbEntity
  8
4
100
AcDbLine
 10
780.0
 20
360.0
 30
0.0
 11
2220.0
 21
360.0
 31
0.0
  0
LINE
  5
7EF6
330
19
100
AcDbEntity
  8
4
100
AcDbLine
 10
780.0
 20
480.0
 30
0.0
 11
2220.0
 21
480.0
 31
0.0
  0
TEXT
  5
7EF7
330
19
100
AcDbEntity
  8
4
100
AcDbText
 10
826.2024970162819
 20
517.8516310399354
 30
0.0
 40
60.0
  1
機器名称
100
AcDbText
  0
TEXT
  5
7EF8
330
19
100
AcDbEntity
  8
4
100
AcDbText
 10
823.509727229757
 20
385.9741880784131
 30
0.0
 40
60.0
  1
機器型番
100
AcDbText
  0
TEXT
  5
7EF9
330
19
100
AcDbEntity
  8
4
100
AcDbText
 10
1413.214494585198
 20
507.0861227490822
 30
0.0
 40
60.0
  1
ミツヤ多翼送風機
100
AcDbText
  0
TEXT
  5
7EFA
330
19
100
AcDbEntity
  8
4
100
AcDbText
 10
1423.985394702577
 20
380.5915011359321
 30
0.0
 40
60.0
  1
MF#1 1/4-1
100
AcDbText
  0
TEXT
  5
7EFC
330
19
100
AcDbEntity
  8
4
100
AcDbText
 10
903.8835813775767
 20
2860.114609599019
 30
0.0
 40
64.8
  1
床置防振ベット
100
AcDbText
  0
TEXT
  5
7EFD
330
19
100
AcDbEntity
  8
4
100
AcDbText
 10
379.4011119953357
 20
3040.657171439157
 30
0.0
 40
86.4
  1
遠心式片吸込片持多翼ファン
100
AcDbText
  0
LINE
  5
7EFE
330
19
100
AcDbEntity
  8
4
100
AcDbLine
 10
300.0
 20
2963.290505117766
 30
0.0
 11
2220.0
 21
2963.290505117766
 31
0.0
  0
LINE
  5
7EFF
330
19
100
AcDbEntity
  8
4
100
AcDbLine
 10
300.0
 20
3203.290505117766
 30
0.0
 11
2220.0
 21
3203.290505117766
 31
0.0
  0
LINE
  5
7F00
330
19
100
AcDbEntity
  8
4
100
AcDbLine
 10
780.0
 20
600.0
 30
0.0
 11
2220.0
 21
600.0
 31
0.0
  0
LINE
  5
7F01
330
19
100
AcDbEntity
  8
4
100
AcDbLine
 10
300.0
 20
3203.290505117766
 30
0.0
 11
300.0
 21
2963.290505117766
 31
0.0
  0
TEXT
  5
7F02
330
19
100
AcDbEntity
  8
4
100
AcDbText
 10
380.8529826863341
 20
2858.783373055612
 30
0.0
 40
64.8
  1
左回転右横向
100
AcDbText
  0
TEXT
  5
7F03
330
19
100
AcDbEntity
  8
4
100
AcDbText
 10
1762.763471099148
 20
3247.273297794371
 30
0.0
 40
67.2
  1
No.
100
AcDbText
  0
TEXT
  5
7F04
330
19
100
AcDbEntity
  8
4
100
AcDbText
 10
1573.555275120016
 20
2860.114609599019
 30
0.0
 40
64.8
  1
縮尺：1/12
100
AcDbText
  0
LINE
  5
7F05
330
19
100
AcDbEntity
  8
4
100
AcDbLine
 10
2220.0
 20
3203.290505117766
 30
0.0
 11
2220.0
 21
2963.290505117766
 31
0.0
  0
LINE
  5
7F06
330
19
100
AcDbEntity
  8
4
100
AcDbLine
 10
2520.0
 20
3540.0
 30
0.0
 11
2520.0
 21
3540.0
 31
0.0
  0
LINE
  5
7F07
330
19
100
AcDbEntity
  8
4
100
AcDbLine
 10
1728.740906831837
 20
3217.516299750482
 30
0.0
 11
1728.740906831837
 21
3343.982713859703
 31
0.0
  0
LINE
  5
7F08
330
19
100
AcDbEntity
  8
4
100
AcDbLine
 10
1728.740906831837
 20
3343.982713859703
 30
0.0
 11
2220.0
 21
3343.982713859703
 31
0.0
  0
LINE
  5
7F09
330
19
100
AcDbEntity
  8
4
100
AcDbLine
 10
2220.0
 20
3343.982713859703
 30
0.0
 11
2220.0
 21
3217.516299750482
 31
0.0
  0
LINE
  5
7F0A
330
19
100
AcDbEntity
  8
4
100
AcDbLine
 10
2220.0
 20
3217.516299750482
 30
0.0
 11
1728.740906831837
 21
3217.516299750482
 31
0.0
  0
LINE
  5
7F0B
330
19
100
AcDbEntity
  8
4
100
AcDbLine
 10
0.0
 20
0.0
 30
0.0
 11
0.0
 21
3540.0
 31
0.0
  0
LINE
  5
7F0C
330
19
100
AcDbEntity
  8
4
100
AcDbLine
 10
0.0
 20
3540.0
 30
0.0
 11
2520.0
 21
3540.0
 31
0.0
  0
LINE
  5
7F0D
330
19
100
AcDbEntity
  8
4
100
AcDbLine
 10
2520.0
 20
3540.0
 30
0.0
 11
2520.0
 21
0.0
 31
0.0
  0
LINE
  5
7F0E
330
19
100
AcDbEntity
  8
4
100
AcDbLine
 10
2520.0
 20
0.0
 30
0.0
 11
0.0
 21
0.0
 31
0.0
  0
CIRCLE
  5
822F
330
19
100
AcDbEntity
  8
1
100
AcDbCircle
 10
751.338741702755
 20
1204.319013903112
 30
0.0
 40
50.0
  0
CIRCLE
  5
8230
330
19
100
AcDbEntity
  8
1
100
AcDbCircle
 10
421.3387417027552
 20
1094.319013903112
 30
0.0
 40
50.0
  0
LINE
  5
8231
330
19
100
AcDbEntity
  8
1
100
AcDbLine
 10
735.5273534019131
 20
1251.753178805638
 30
0.0
 11
405.5273534019133
 21
1141.753178805638
 31
0.0
  0
LINE
  5
8232
330
19
100
AcDbEntity
  8
1
100
AcDbLine
 10
767.150130003597
 20
1156.884849000587
 30
0.0
 11
437.1501300035971
 21
1046.884849000587
 31
0.0
  0
LINE
  5
8233
330
19
100
AcDbEntity
  8
1
100
AcDbLine
 10
1660.378605294301
 20
1254.405107790371
 30
0.0
 11
1698.378605294301
 21
1254.405107790371
 31
0.0
  0
LINE
  5
8234
330
19
100
AcDbEntity
  8
1
100
AcDbLine
 10
1660.378605294299
 20
1154.405107790371
 30
0.0
 11
1698.378605294301
 21
1154.405107790371
 31
0.0
  0
LINE
  5
8235
330
19
100
AcDbEntity
  8
1
100
AcDbLine
 10
1698.3786052943
 20
1144.405107790371
 30
0.0
 11
1660.3786052943
 21
1144.405107790372
 31
0.0
  0
LINE
  5
8236
330
19
100
AcDbEntity
  8
1
100
AcDbLine
 10
1698.378605294301
 20
1044.405107790371
 30
0.0
 11
1660.378605294299
 21
1044.405107790371
 31
0.0
  0
LINE
  5
8237
330
19
100
AcDbEntity
  8
1
100
AcDbLine
 10
471.3387417027552
 20
2037.745992531667
 30
0.0
 11
471.3387417027552
 21
1999.745992531664
 31
0.0
  0
LINE
  5
8238
330
19
100
AcDbEntity
  8
1
100
AcDbLine
 10
371.3387417027552
 20
2037.745992531668
 30
0.0
 11
371.3387417027552
 21
1999.745992531664
 31
0.0
  0
LINE
  5
8239
330
19
100
AcDbEntity
  8
1
100
AcDbLine
 10
801.3387417027551
 20
1999.745992531667
 30
0.0
 11
801.338741702755
 21
2037.745992531667
 31
0.0
  0
LINE
  5
823A
330
19
100
AcDbEntity
  8
1
100
AcDbLine
 10
701.3387417027553
 20
1999.745992531666
 30
0.0
 11
701.3387417027551
 21
2037.745992531667
 31
0.0
  0
LINE
  5
824B
330
19
100
AcDbEntity
  8
1
100
AcDbLine
 10
1712.178605294299
 20
1023.390523814356
 30
0.0
 11
1712.178605294299
 21
984.4051077903715
 31
0.0
  0
LINE
  5
82CF
330
19
100
AcDbEntity
  8
1
100
AcDbLine
 10
886.3387417027551
 20
2029.545992531667
 30
0.0
 11
346.3387417027558
 21
2029.545992531668
 31
0.0
  0
LINE
  5
82D0
330
19
100
AcDbEntity
  8
1
100
AcDbLine
 10
886.3387417027555
 20
2329.545992531667
 30
0.0
 11
851.3387417027551
 21
2329.545992531667
 31
0.0
  0
LINE
  5
82D1
330
19
100
AcDbEntity
  8
1
100
AcDbLine
 10
651.3387417027554
 20
2329.545992531667
 30
0.0
 11
346.3387417027556
 21
2329.545992531667
 31
0.0
  0
DIMENSION
  5
82E0
330
19
100
AcDbEntity
  8
3
100
AcDbDimension
280
     0
  2
*D13
 10
926.3387417027551
 20
1884.951043701173
 30
0.0
 11
594.1201019252039
 21
1884.951043701173
 31
0.0
 70
   160
 71
     5
 42
-1.0
 73
     0
 74
     0
 75
     0
  3
IGA
100
AcDbAlignedDimension
 13
306.3387417027557
 23
1989.545992531667
 33
0.0
 14
926.3387417027551
 24
1989.545992531667
 34
0.0
100
AcDbRotatedDimension
1001
ACAD
1000
DSTYLE
1002
{
1070
    40
1040
12.0
1070
   143
1040
0.039
1070
   172
1070
     1
1070
   271
1070
     0
1070
   279
1070
     0
1070
   288
1070
     1
1002
}
  0
DIMENSION
  5
82ED
330
19
100
AcDbEntity
  8
3
100
AcDbDimension
280
     0
  2
*D14
 10
240.2979610828534
 20
1989.545992531667
 30
0.0
 11
240.2979610828534
 21
2166.88015132865
 31
0.0
 70
   160
 71
     5
 42
-1.0
 73
     0
 74
     0
 75
     0
  3
IGA
100
AcDbAlignedDimension
 13
306.3387417027557
 23
2369.545992531667
 33
0.0
 14
306.3387417027557
 24
1989.545992531667
 34
0.0
 50
90.0
100
AcDbRotatedDimension
1001
ACAD
1000
DSTYLE
1002
{
1070
    40
1040
12.0
1070
   143
1040
0.039
1070
   172
1070
     1
1070
   271
1070
     0
1070
   279
1070
     0
1070
   288
1070
     1
1002
}
  0
DIMENSION
  5
831F
330
19
100
AcDbEntity
  8
3
100
AcDbDimension
280
     0
  2
*D15
 10
751.3387417027549
 20
748.6858013998402
 30
0.0
 11
528.8387417027549
 21
778.6858013998402
 31
0.0
 70
    32
 71
     5
 42
444.9999999999996
 73
     0
 74
     0
 75
     0
  3
IGA
100
AcDbAlignedDimension
 13
306.3387417027552
 23
834.3190139031129
 33
0.0
 14
751.3387417027549
 24
834.3190139031131
 34
0.0
100
AcDbRotatedDimension
1001
ACAD
1000
DSTYLE
1002
{
1070
    40
1040
12.0
1070
   143
1040
0.039
1070
   172
1070
     1
1070
   271
1070
     0
1070
   279
1070
     0
1002
}
  0
DIMENSION
  5
832C
330
19
100
AcDbEntity
  8
3
100
AcDbDimension
280
     0
  2
*D16
 10
926.3387417027551
 20
748.6858013998402
 30
0.0
 11
838.838741702755
 21
778.6858013998402
 31
0.0
 70
    32
 71
     5
 42
175.0000000000003
 73
     0
 74
     0
 75
     0
  3
IGA
100
AcDbAlignedDimension
 13
751.3387417027549
 23
834.3190139031131
 33
0.0
 14
926.3387417027551
 24
834.3190139031124
 34
0.0
100
AcDbRotatedDimension
1001
ACAD
1000
DSTYLE
1002
{
1070
    40
1040
12.0
1070
   143
1040
0.039
1070
   172
1070
     1
1070
   271
1070
     0
1070
   279
1070
     0
1002
}
  0
DIMENSION
  5
8339
330
19
100
AcDbEntity
  8
3
100
AcDbDimension
280
     0
  2
*D17
 10
2030.178605294301
 20
748.6858013998402
 30
0.0
 11
1840.1786052943
 21
778.6858013998402
 31
0.0
 70
    32
 71
     5
 42
380.0
 73
     0
 74
     0
 75
     0
  3
IGA
100
AcDbAlignedDimension
 13
1650.178605294301
 23
834.4051077903719
 33
0.0
 14
2030.178605294301
 24
834.4051077903722
 34
0.0
100
AcDbRotatedDimension
1001
ACAD
1000
DSTYLE
1002
{
1070
    40
1040
12.0
1070
   143
1040
0.039
1070
   172
1070
     1
1070
   271
1070
     0
1070
   279
1070
     0
1002
}
  0
DIMENSION
  5
8348
330
19
100
AcDbEntity
  8
3
100
AcDbDimension
280
     0
  2
*D18
 10
2070.178605294302
 20
748.6858013998402
 30
0.0
 11
2159.321462437159
 21
778.6858013998402
 31
0.0
 70
    32
 71
     5
 42
40.00000000000045
 73
     0
 74
     0
 75
     0
  3
IGA
100
AcDbAlignedDimension
 13
2030.178605294301
 23
834.4051077903722
 33
0.0
 14
2070.178605294302
 24
834.4051077903722
 34
0.0
100
AcDbRotatedDimension
1001
ACAD
1000
DSTYLE
1002
{
1070
    40
1040
12.0
1070
   143
1040
0.039
1070
   172
1070
     1
1070
   271
1070
     0
1070
   279
1070
     0
1002
}
  0
LINE
  5
834E
330
19
100
AcDbEntity
  8
1
100
AcDbLine
 10
1650.178605294301
 20
834.4051077903719
 30
0.0
 11
2030.178605294301
 21
834.4051077903722
 31
0.0
  0
LINE
  5
834F
330
19
100
AcDbEntity
  8
1
100
AcDbLine
 10
2030.178605294301
 20
834.4051077903722
 30
0.0
 11
2030.178605294301
 21
874.4051077903721
 31
0.0
  0
LINE
  5
8350
330
19
100
AcDbEntity
  8
1
100
AcDbLine
 10
1650.178605294301
 20
874.4051077903719
 30
0.0
 11
2030.178605294301
 21
874.4051077903721
 31
0.0
  0
LINE
  5
8351
330
19
100
AcDbEntity
  8
1
100
AcDbLine
 10
1650.178605294301
 20
834.4051077903719
 30
0.0
 11
1650.178605294301
 21
874.4051077903717
 31
0.0
  0
LINE
  5
8352
330
19
100
AcDbEntity
  8
1
100
AcDbLine
 10
926.3387417027551
 20
874.3190139031124
 30
0.0
 11
926.3387417027551
 21
834.3190139031124
 31
0.0
  0
LINE
  5
8353
330
19
100
AcDbEntity
  8
1
100
AcDbLine
 10
926.3387417027551
 20
834.3190139031129
 30
0.0
 11
306.3387417027552
 21
834.3190139031129
 31
0.0
  0
LINE
  5
8354
330
19
100
AcDbEntity
  8
1
100
AcDbLine
 10
306.3387417027552
 20
874.3190139031129
 30
0.0
 11
926.3387417027551
 21
874.3190139031124
 31
0.0
  0
LINE
  5
8355
330
19
100
AcDbEntity
  8
1
100
AcDbLine
 10
306.3387417027552
 20
874.3190139031129
 30
0.0
 11
306.3387417027552
 21
834.3190139031129
 31
0.0
  0
DIMENSION
  5
8365
330
19
100
AcDbEntity
  8
3
100
AcDbDimension
280
     0
  2
*D19
 10
1133.807201691114
 20
834.3190139031129
 30
0.0
 11
1103.807201691113
 21
745.1761567602559
 31
0.0
 70
    32
 71
     5
 42
39.99999999999955
 73
     0
 74
     0
 75
     0
  3
IGA
100
AcDbAlignedDimension
 13
926.3387417027551
 23
874.3190139031124
 33
0.0
 14
926.3387417027551
 24
834.3190139031129
 34
0.0
 50
90.0
100
AcDbRotatedDimension
1001
ACAD
1000
DSTYLE
1002
{
1070
    40
1040
12.0
1070
   143
1040
0.039
1070
   172
1070
     1
1070
   271
1070
     0
1070
   279
1070
     0
1070
   343
1005
8170
1002
}
  0
DIMENSION
  5
8391
330
19
100
AcDbEntity
  8
3
100
AcDbDimension
280
     0
  2
*D20
 10
1134.724879526195
 20
944.3190139031122
 30
0.0
 11
1186.907299527415
 21
913.4393154613054
 31
0.0
 70
   160
 71
     5
 42
69.99999999999966
 73
     0
 74
     0
 75
     0
  3
IGA
100
AcDbAlignedDimension
 13
926.3387417027551
 23
874.3190139031124
 33
0.0
 14
926.3387417027551
 24
944.3190139031122
 34
0.0
 50
90.0
100
AcDbRotatedDimension
1001
ACAD
1000
DSTYLE
1002
{
1070
     3
1000
(<>)
1070
    40
1040
12.0
1070
   143
1040
0.039
1070
   172
1070
     1
1070
   271
1070
     0
1070
   343
1005
8170
1002
}
  0
DIMENSION
  5
839E
330
19
100
AcDbEntity
  8
3
100
AcDbDimension
280
     0
  2
*D21
 10
1254.36558339994
 20
834.3190139031129
 30
0.0
 11
1214.937011971368
 21
1093.317334138129
 31
0.0
 70
    32
 71
     5
 42
517.9966404700311
 73
     0
 74
     0
 75
     0
  3
IGA
100
AcDbAlignedDimension
 13
741.3723370024404
 23
1352.315654373144
 33
0.0
 14
926.3387417027551
 24
834.3190139031129
 34
0.0
 50
90.0
100
AcDbRotatedDimension
1001
ACAD
1000
DSTYLE
1002
{
1070
   172
1070
     1
1070
    40
1040
12.0
1070
     3
1000
(<>)
1070
   271
1070
     0
1070
   143
1040
0.039
1002
}
  0
ENDSEC
  0
SECTION
  2
OBJECTS
  0
DICTIONARY
  5
C
330
0
100
AcDbDictionary
281
     1
  3
ACAD_CIP_PREVIOUS_PRODUCT_INFO
350
8400
  3
ACAD_COLOR
350
83E3
  3
ACAD_DETAILVIEWSTYLE
350
83FC
  3
ACAD_GROUP
350
D
  3
ACAD_LAYOUT
350
83A3
  3
ACAD_MATERIAL
350
83B1
  3
ACAD_MLEADERSTYLE
350
83F8
  3
ACAD_MLINESTYLE
350
E
  3
ACAD_PLOTSETTINGS
350
83A4
  3
ACAD_PLOTSTYLENAME
350
83A1
  3
ACAD_SCALELIST
350
83E6
  3
ACAD_SECTIONVIEWSTYLE
350
83FA
  3
ACAD_TABLESTYLE
350
83E4
  3
ACAD_VISUALSTYLE
350
83CA
  3
ACDB_RECOMPOSE_DATA
350
84AC
  3
AcDbVariableDictionary
350
846D
  0
DICTIONARY
  5
8461
330
2
100
AcDbDictionary
280
     1
281
     1
  3
ACAD_LAYERSTATES
360
8462
  0
DICTIONARY
  5
8454
330
F
100
AcDbDictionary
280
     1
281
     1
  3
ADSK_XREC_LAYER_RECONCILED
360
8455
  0
DICTIONARY
  5
8456
330
31
100
AcDbDictionary
280
     1
281
     1
  3
ADSK_XREC_LAYER_RECONCILED
360
8457
  0
DICTIONARY
  5
8458
330
76D0
100
AcDbDictionary
280
     1
281
     1
  3
ADSK_XREC_LAYER_RECONCILED
360
8459
  0
DICTIONARY
  5
845A
330
76D1
100
AcDbDictionary
280
     1
281
     1
  3
ADSK_XREC_LAYER_RECONCILED
360
845B
  0
DICTIONARY
  5
845C
330
76D2
100
AcDbDictionary
280
     1
281
     1
  3
ADSK_XREC_LAYER_RECONCILED
360
845D
  0
DICTIONARY
  5
8402
330
19
100
AcDbDictionary
280
     1
281
     1
  3
ACAD_SORTENTS
360
8403
  0
XRECORD
  5
8400
102
{ACAD_REACTORS
330
C
102
}
330
C
100
AcDbXrecord
280
     1
300
ACDLT
300
2015
300
INVLTS_F_S
  0
DICTIONARY
  5
83E3
102
{ACAD_REACTORS
330
C
102
}
330
C
100
AcDbDictionary
281
     1
  0
DICTIONARY
  5
83FC
102
{ACAD_REACTORS
330
C
102
}
330
C
100
AcDbDictionary
281
     1
  3
Metric50
350
83FD
  0
DICTIONARY
  5
D
102
{ACAD_REACTORS
330
C
102
}
330
C
100
AcDbDictionary
281
     1
  0
DICTIONARY
  5
83A3
102
{ACAD_REACTORS
330
C
102
}
330
C
100
AcDbDictionary
281
     1
  3
Model
350
83A5
  3
ﾚｲｱｳﾄ1
350
83A6
  0
DICTIONARY
  5
83B1
102
{ACAD_REACTORS
330
C
102
}
330
C
100
AcDbDictionary
281
     1
  3
ByBlock
350
83BA
  3
ByLayer
350
83B2
  3
Global
350
83C2
  0
DICTIONARY
  5
83F8
102
{ACAD_REACTORS
330
C
102
}
330
C
100
AcDbDictionary
281
     1
  3
Standard
350
83F9
  0
DICTIONARY
  5
E
102
{ACAD_REACTORS
330
C
102
}
330
C
100
AcDbDictionary
281
     1
  3
STANDARD
350
1C
  0
DICTIONARY
  5
83A4
102
{ACAD_REACTORS
330
C
102
}
330
C
100
AcDbDictionary
281
     1
  0
ACDBDICTIONARYWDFLT
  5
83A1
102
{ACAD_REACTORS
330
C
102
}
330
C
100
AcDbDictionary
281
     1
  3
Normal
350
83A2
100
AcDbDictionaryWithDefault
340
83A2
  0
DICTIONARY
  5
83E6
102
{ACAD_REACTORS
330
C
102
}
330
C
100
AcDbDictionary
281
     1
  3
A0
350
83E7
  3
A1
350
83E8
  3
A2
350
83E9
  3
A3
350
83EA
  3
A4
350
83EB
  3
A5
350
83EC
  3
A6
350
83ED
  3
A7
350
83EE
  3
A8
350
83EF
  3
A9
350
83F0
  3
B0
350
83F1
  3
B1
350
83F2
  3
B2
350
83F3
  3
B3
350
83F4
  3
B4
350
83F5
  3
B5
350
83F6
  3
B6
350
83F7
  0
DICTIONARY
  5
83FA
102
{ACAD_REACTORS
330
C
102
}
330
C
100
AcDbDictionary
281
     1
  3
Metric50
350
83FB
  0
DICTIONARY
  5
83E4
102
{ACAD_REACTORS
330
C
102
}
330
C
100
AcDbDictionary
281
     1
  3
Standard
350
83E5
  0
DICTIONARY
  5
83CA
102
{ACAD_REACTORS
330
C
102
}
330
C
100
AcDbDictionary
281
     1
  3
2dWireframe
350
83D0
  3
Basic
350
83CF
  3
Brighten
350
83D6
  3
ColorChange
350
83DA
  3
Conceptual
350
83D3
  3
Dim
350
83D5
  3
EdgeColorOff
350
83E2
  3
Facepattern
350
83D9
  3
Flat
350
83CB
  3
FlatWithEdges
350
83CC
  3
Gouraud
350
83CD
  3
GouraudWithEdges
350
83CE
  3
Hidden
350
83D2
  3
JitterOff
350
83E0
  3
Linepattern
350
83D8
  3
OverhangOff
350
83E1
  3
Realistic
350
83D4
  3
Shaded
350
83DF
  3
Shaded with edges
350
83DE
  3
Shades of Gray
350
83DB
  3
Sketchy
350
83DC
  3
Thicken
350
83D7
  3
Wireframe
350
83D1
  3
X-Ray
350
83DD
  0
XRECORD
  5
84AC
102
{ACAD_REACTORS
330
C
102
}
330
C
100
AcDbXrecord
280
     1
 90
        1
330
83E5
330
83FB
330
83FD
  0
DICTIONARY
  5
846D
102
{ACAD_REACTORS
330
C
102
}
330
C
100
AcDbDictionary
281
     1
  3
CANNOSCALE
350
8473
  3
CMLEADERSTYLE
350
846F
  3
CTABLESTYLE
350
846E
  3
CVIEWDETAILSTYLE
350
8470
  3
CVIEWSECTIONSTYLE
350
8471
  3
LAYEREVAL
350
8475
  3
LAYERNOTIFY
350
8476
  3
LIGHTINGUNITS
350
8474
  3
MSLTSCALE
350
8472
  0
DICTIONARY
  5
8462
102
{ACAD_REACTORS
330
8461
102
}
330
8461
100
AcDbDictionary
281
     1
  0
XRECORD
  5
8455
102
{ACAD_REACTORS
330
8454
102
}
330
8454
100
AcDbXrecord
280
     1
290
     1
  0
XRECORD
  5
8457
102
{ACAD_REACTORS
330
8456
102
}
330
8456
100
AcDbXrecord
280
     1
290
     1
  0
XRECORD
  5
8459
102
{ACAD_REACTORS
330
8458
102
}
330
8458
100
AcDbXrecord
280
     1
290
     1
  0
XRECORD
  5
845B
102
{ACAD_REACTORS
330
845A
102
}
330
845A
100
AcDbXrecord
280
     1
290
     1
  0
XRECORD
  5
845D
102
{ACAD_REACTORS
330
845C
102
}
330
845C
100
AcDbXrecord
280
     1
290
     1
  0
SORTENTSTABLE
  5
8403
102
{ACAD_REACTORS
330
8402
102
}
330
8402
100
AcDbSortentsTable
330
19
331
7C34
  5
7C34
331
7C30
  5
7C30
331
7EFF
  5
7F00
331
7CED
  5
7CEE
331
7C77
  5
7C77
331
8391
  5
839E
331
7CE9
  5
7CEA
331
7EF7
  5
7EF8
331
7CAE
  5
7CAF
331
7CE5
  5
7CE6
331
7CAA
  5
7CAB
331
7CE1
  5
7CE2
331
7C2C
  5
7C2C
331
7C28
  5
7C28
331
82CF
  5
82D0
331
7CDD
  5
7CDE
331
7C67
  5
7C67
331
8365
  5
8391
331
7CA2
  5
7CA3
331
7CD9
  5
7CDA
331
824B
  5
82CF
331
7C9E
  5
7C9F
331
7CD5
  5
7CD6
331
7C5B
  5
7C5B
331
7C9A
  5
7C9C
331
7CD1
  5
7CD2
331
7C10
  5
7C10
331
7C0C
  5
7C0C
331
7CCD
  5
7CCE
331
7C57
  5
7C57
331
8355
  5
8365
331
7CC9
  5
7CCA
331
8351
  5
8352
331
7C53
  5
7C53
331
7C92
  5
7C93
331
7C8E
  5
7C8F
331
7CC5
  5
7CC6
331
7C4F
  5
7C4F
331
7C4B
  5
7C4B
331
7C8A
  5
7C8B
331
7CC1
  5
7CC2
331
8237
  5
8238
331
8233
  5
8234
331
7F0E
  5
822F
331
822F
  5
8230
331
7F0A
  5
7F0B
331
7C47
  5
7C47
331
7C86
  5
7C87
331
7CBD
  5
7CBE
331
7C43
  5
7C43
331
7C82
  5
7C83
331
7F06
  5
7F07
331
7F02
  5
7F03
331
7C7E
  5
7C7F
331
7CB5
  5
7CB6
331
7C3F
  5
7C3F
331
7C3B
  5
7C3B
331
7C7A
  5
7C7B
331
7CB1
  5
7CB2
331
7CF0
  5
7CF1
331
7C37
  5
7C37
331
7C33
  5
7C33
331
7EFE
  5
7EFF
331
7CEC
  5
7CED
331
7C76
  5
7C76
331
7EFA
  5
7EFC
331
8339
  5
8348
331
7CE8
  5
7CE9
331
7C72
  5
7C72
331
7EF6
  5
7EF7
331
7EF2
  5
7EF5
331
7C6E
  5
7C6E
331
7CAD
  5
7CAE
331
7CE4
  5
7CE5
331
7C6A
  5
7C6A
331
7CE0
  5
7CE1
331
7C2F
  5
7C2F
331
7C2B
  5
7C2B
331
7CDC
  5
7CDD
331
7C66
  5
7C66
331
7CA5
  5
7CAA
331
7CA1
  5
7CA2
331
7CD8
  5
7CD9
331
7C62
  5
7C62
331
7C5E
  5
7C5E
331
7C9D
  5
7C9E
331
7CD4
  5
7CD5
331
7CD0
  5
7CD1
331
7C0F
  5
7C0F
331
7C0B
  5
7C0B
331
7CCC
  5
7CCD
331
8354
  5
8355
331
7C56
  5
7C56
331
7C95
  5
7C97
331
7C91
  5
7C92
331
7CC8
  5
7CC9
331
823A
  5
824B
331
7C52
  5
7C52
331
8350
  5
8351
331
7C8D
  5
7C8E
331
7CC4
  5
7CC5
331
7C4E
  5
7C4E
331
7C4A
  5
7C4A
331
7C89
  5
7C8A
331
7CC0
  5
7CC1
331
7C07
  5
7C07
331
82ED
  5
831F
331
8236
  5
8237
331
8232
  5
8233
331
8348
  5
834E
331
7F0D
  5
7F0E
331
7CBC
  5
7CBD
331
7C46
  5
7C46
331
7C85
  5
7C86
331
7F09
  5
7F0A
331
7C42
  5
7C42
331
7C81
  5
7C82
331
7F05
  5
7F06
331
7F01
  5
7F02
331
7CB4
  5
7CB5
331
7C3A
  5
7C3A
331
7C79
  5
7C79
331
7CB0
  5
7CB1
331
7C36
  5
7C36
331
7CEF
  5
7CF0
331
7EFD
  5
7EFE
331
7CEB
  5
7CEC
331
7C75
  5
7C75
331
7EF9
  5
7EFA
331
82D1
  5
82E0
331
7CE7
  5
7CE8
331
7C71
  5
7C71
331
7EF5
  5
7EF6
331
7EF1
  5
7EF2
331
7C6D
  5
7C6D
331
7CAC
  5
7CAD
331
7CE3
  5
7CE4
331
7C69
  5
7C69
331
7C2E
  5
7C2E
331
7C2A
  5
7C2A
331
7C22
  5
7C22
331
832C
  5
8339
331
7CDF
  5
7CE0
331
7CDB
  5
7CDC
331
7CA4
  5
7CA5
331
7CD7
  5
7CD8
331
7C61
  5
7C61
331
7C5D
  5
7C5D
331
7C9C
  5
7C9D
331
7CD3
  5
7CD4
331
7C98
  5
7C9A
331
7C16
  5
7C16
331
7C12
  5
7C12
331
7C0E
  5
7C0E
331
7CCF
  5
7CD0
331
7CCB
  5
7CCC
331
8353
  5
8354
331
7C55
  5
7C55
331
7C94
  5
7C95
331
7CC7
  5
7CC8
331
8239
  5
823A
331
7C51
  5
7C51
331
7C4D
  5
7C4D
331
7C8C
  5
7C8D
331
7CC3
  5
7CC4
331
7C49
  5
7C49
331
7C88
  5
7C89
331
834F
  5
8350
331
8235
  5
8236
331
8231
  5
8232
331
7F0C
  5
7F0D
331
7CBF
  5
7CC0
331
7CBB
  5
7CBC
331
7C45
  5
7C45
331
7F08
  5
7F09
331
7F04
  5
7F05
331
7C80
  5
7C81
331
7CB7
  5
7CBA
331
7C41
  5
7C41
331
82E0
  5
82ED
331
7F00
  5
7F01
331
7CB3
  5
7CB4
331
7CF2
  5
7CF9
331
7C3D
  5
7C3D
331
7C39
  5
7C39
331
7C31
  5
7C31
331
839E
  5
8401
331
7CEE
  5
7CEF
331
7EFC
  5
7EFD
331
7CEA
  5
7CEB
331
7C74
  5
7C74
331
7EF8
  5
7EF9
331
7CAF
  5
7CB0
331
7CE6
  5
7CE7
331
82D0
  5
82D1
331
7EF0
  5
7EF1
331
7C6C
  5
7C6C
331
7CAB
  5
7CAC
331
7CE2
  5
7CE3
331
7C68
  5
7C68
331
7C2D
  5
7C2D
331
7C29
  5
7C29
331
7C21
  5
7C21
331
7CDE
  5
7CDF
331
7CDA
  5
7CDB
331
7CA3
  5
7CA4
331
7C9F
  5
7CA1
331
7CD6
  5
7CD7
331
7CD2
  5
7CD3
331
7C58
  5
7C58
331
7C15
  5
7C15
331
7C11
  5
7C11
331
7C09
  5
7C09
331
831F
  5
832C
331
7C97
  5
7C98
331
7CCE
  5
7CCF
331
7CCA
  5
7CCB
331
8352
  5
8353
331
7C54
  5
7C54
331
7C93
  5
7C94
331
7C8F
  5
7C91
331
7CC6
  5
7CC7
331
8238
  5
8239
331
7C50
  5
7C50
331
7C4C
  5
7C4C
331
7C8B
  5
7C8C
331
7CC2
  5
7CC3
331
7C48
  5
7C48
331
834E
  5
834F
331
8234
  5
8235
331
8230
  5
8231
331
7F0B
  5
7F0C
331
7C87
  5
7C88
331
7CBE
  5
7CBF
331
7CBA
  5
7CBB
331
7CF9
  5
7EF0
331
7C44
  5
7C44
331
7C83
  5
7C85
331
7F07
  5
7F08
331
7F03
  5
7F04
331
7C7F
  5
7C80
331
7CB6
  5
7CB7
331
7C3C
  5
7C3C
331
7C7B
  5
7C7E
331
7CB2
  5
7CB3
331
7CF1
  5
7CF2
331
7C38
  5
7C38
  0
ACDBDETAILVIEWSTYLE
  5
83FD
102
{ACAD_XDICTIONARY
360
846A
102
}
102
{ACAD_REACTORS
330
83FC
102
}
330
83FC
100
AcDbModelDocViewStyle
 70
     0
  3
Metric50
290
     0
100
AcDbDetailViewStyle
 70
     0
 71
     0
 90
        3
 71
     1
340
10
 62
   256
 40
5.0
340
0
 62
   256
 40
5.0
300

 40
0.0
280
     1
 71
     2
340
15
 90
       25
 62
   256
 71
     3
340
10
 62
   256
 40
5.0
 90
        0
 40
15.0
 90
        1
300
%<\AcVar ViewDetailId>% (%<\AcVar ViewScale \f "%sn">%)
 71
     4
340
15
 90
       25
 62
   256
340
15
 90
       25
 62
   256
280
     0
  0
LAYOUT
  5
83A5
102
{ACAD_REACTORS
330
83A3
102
}
330
83A3
100
AcDbPlotSettings
  1

  2
EPSON LP-9300
  4

  6

 40
0.0
 41
0.0
 42
0.0
 43
0.0
 44
0.0
 45
0.0
 46
0.0
 47
0.0
 48
0.0
 49
0.0
140
0.0
141
0.0
142
1.0
143
1.0
 70
  1712
 72
     0
 73
     0
 74
     0
  7

 75
     0
147
1.0
 76
     0
 77
     2
 78
   300
148
0.0
149
0.0
100
AcDbLayout
  1
Model
 70
     1
 71
     0
 10
0.0
 20
0.0
 11
12.0
 21
9.0
 12
0.0
 22
0.0
 32
0.0
 14
0.0
 24
0.0
 34
0.0
 15
0.0
 25
0.0
 35
0.0
146
0.0
 13
0.0
 23
0.0
 33
0.0
 16
1.0
 26
0.0
 36
0.0
 17
0.0
 27
1.0
 37
0.0
 76
     0
330
19
331
83AF
  0
LAYOUT
  5
83A6
102
{ACAD_REACTORS
330
83A3
102
}
330
83A3
100
AcDbPlotSettings
  1

  2
EPSON LP-9300
  4

  6

 40
0.0
 41
0.0
 42
0.0
 43
0.0
 44
0.0
 45
0.0
 46
0.0
 47
0.0
 48
0.0
 49
0.0
140
0.0
141
0.0
142
1.0
143
1.0
 70
   688
 72
     0
 73
     0
 74
     5
  7

 75
    16
147
1.0
 76
     0
 77
     2
 78
   300
148
0.0
149
0.0
100
AcDbLayout
  1
ﾚｲｱｳﾄ1
 70
     1
 71
     1
 10
0.0
 20
0.0
 11
12.0
 21
9.0
 12
0.0
 22
0.0
 32
0.0
 14
1.000000000000000E+20
 24
1.000000000000000E+20
 34
1.000000000000000E+20
 15
-1.000000000000000E+20
 25
-1.000000000000000E+20
 35
-1.000000000000000E+20
146
0.0
 13
0.0
 23
0.0
 33
0.0
 16
1.0
 26
0.0
 36
0.0
 17
0.0
 27
1.0
 37
0.0
 76
     0
330
16
  0
MATERIAL
  5
83BA
102
{ACAD_XDICTIONARY
360
83BB
102
}
102
{ACAD_REACTORS
330
83B1
102
}
330
83B1
100
AcDbMaterial
  1
ByBlock
 72
     0
 43
0.0208333333333333
 43
0.0
 43
0.0
 43
0.0
 43
0.0
 43
0.0208333333333333
 43
0.0
 43
0.0
 43
0.0
 43
0.0
 43
1.0
 43
0.0
 43
0.0
 43
0.0
 43
0.0
 43
1.0
 77
     0
 47
0.0208333333333333
 47
0.0
 47
0.0
 47
0.0
 47
0.0
 47
0.0208333333333333
 47
0.0
 47
0.0
 47
0.0
 47
0.0
 47
1.0
 47
0.0
 47
0.0
 47
0.0
 47
0.0
 47
1.0
171
     0
 49
0.0208333333333333
 49
0.0
 49
0.0
 49
0.0
 49
0.0
 49
0.0208333333333333
 49
0.0
 49
0.0
 49
0.0
 49
0.0
 49
1.0
 49
0.0
 49
0.0
 49
0.0
 49
0.0
 49
1.0
175
     0
142
0.0208333333333333
142
0.0
142
0.0
142
0.0
142
0.0
142
0.0208333333333333
142
0.0
142
0.0
142
0.0
142
0.0
142
1.0
142
0.0
142
0.0
142
0.0
142
0.0
142
1.0
179
     0
144
0.0208333333333333
144
0.0
144
0.0
144
0.0
144
0.0
144
0.0208333333333333
144
0.0
144
0.0
144
0.0
144
0.0
144
1.0
144
0.0
144
0.0
144
0.0
144
0.0
144
1.0
147
0.0208333333333333
147
0.0
147
0.0
147
0.0
147
0.0
147
0.0208333333333333
147
0.0
147
0.0
147
0.0
147
0.0
147
1.0
147
0.0
147
0.0
147
0.0
147
0.0
147
1.0
  0
MATERIAL
  5
83B2
102
{ACAD_XDICTIONARY
360
83B3
102
}
102
{ACAD_REACTORS
330
83B1
102
}
330
83B1
100
AcDbMaterial
  1
ByLayer
 72
     0
 43
0.0208333333333333
 43
0.0
 43
0.0
 43
0.0
 43
0.0
 43
0.0208333333333333
 43
0.0
 43
0.0
 43
0.0
 43
0.0
 43
1.0
 43
0.0
 43
0.0
 43
0.0
 43
0.0
 43
1.0
 77
     0
 47
0.0208333333333333
 47
0.0
 47
0.0
 47
0.0
 47
0.0
 47
0.0208333333333333
 47
0.0
 47
0.0
 47
0.0
 47
0.0
 47
1.0
 47
0.0
 47
0.0
 47
0.0
 47
0.0
 47
1.0
171
     0
 49
0.0208333333333333
 49
0.0
 49
0.0
 49
0.0
 49
0.0
 49
0.0208333333333333
 49
0.0
 49
0.0
 49
0.0
 49
0.0
 49
1.0
 49
0.0
 49
0.0
 49
0.0
 49
0.0
 49
1.0
175
     0
142
0.0208333333333333
142
0.0
142
0.0
142
0.0
142
0.0
142
0.0208333333333333
142
0.0
142
0.0
142
0.0
142
0.0
142
1.0
142
0.0
142
0.0
142
0.0
142
0.0
142
1.0
179
     0
144
0.0208333333333333
144
0.0
144
0.0
144
0.0
144
0.0
144
0.0208333333333333
144
0.0
144
0.0
144
0.0
144
0.0
144
1.0
144
0.0
144
0.0
144
0.0
144
0.0
144
1.0
147
0.0208333333333333
147
0.0
147
0.0
147
0.0
147
0.0
147
0.0208333333333333
147
0.0
147
0.0
147
0.0
147
0.0
147
1.0
147
0.0
147
0.0
147
0.0
147
0.0
147
1.0
  0
MATERIAL
  5
83C2
102
{ACAD_XDICTIONARY
360
83C3
102
}
102
{ACAD_REACTORS
330
83B1
102
}
330
83B1
100
AcDbMaterial
  1
Global
 72
     0
 43
0.0208333333333333
 43
0.0
 43
0.0
 43
0.0
 43
0.0
 43
0.0208333333333333
 43
0.0
 43
0.0
 43
0.0
 43
0.0
 43
1.0
 43
0.0
 43
0.0
 43
0.0
 43
0.0
 43
1.0
 77
     0
 47
0.0208333333333333
 47
0.0
 47
0.0
 47
0.0
 47
0.0
 47
0.0208333333333333
 47
0.0
 47
0.0
 47
0.0
 47
0.0
 47
1.0
 47
0.0
 47
0.0
 47
0.0
 47
0.0
 47
1.0
171
     0
 49
0.0208333333333333
 49
0.0
 49
0.0
 49
0.0
 49
0.0
 49
0.0208333333333333
 49
0.0
 49
0.0
 49
0.0
 49
0.0
 49
1.0
 49
0.0
 49
0.0
 49
0.0
 49
0.0
 49
1.0
175
     0
142
0.0208333333333333
142
0.0
142
0.0
142
0.0
142
0.0
142
0.0208333333333333
142
0.0
142
0.0
142
0.0
142
0.0
142
1.0
142
0.0
142
0.0
142
0.0
142
0.0
142
1.0
179
     0
144
0.0208333333333333
144
0.0
144
0.0
144
0.0
144
0.0
144
0.0208333333333333
144
0.0
144
0.0
144
0.0
144
0.0
144
1.0
144
0.0
144
0.0
144
0.0
144
0.0
144
1.0
147
0.0208333333333333
147
0.0
147
0.0
147
0.0
147
0.0
147
0.0208333333333333
147
0.0
147
0.0
147
0.0
147
0.0
147
1.0
147
0.0
147
0.0
147
0.0
147
0.0
147
1.0
  0
MLEADERSTYLE
  5
83F9
102
{ACAD_REACTORS
330
83F8
102
}
330
83F8
100
AcDbMLeaderStyle
179
     2
170
     2
171
     1
172
     0
 90
        2
 40
0.0
 41
0.0
173
     1
 91
-1056964608
340
13
 92
       -2
290
     1
 42
2.0
291
     1
 43
0.36
  3
Standard
 44
4.0
300

342
10
174
     1
178
     6
175
     1
176
     0
 93
-1056964608
 45
4.0
292
     0
297
     0
 46
4.0
 94
-1056964608
 47
1.0
 49
1.0
140
1.0
293
     1
141
0.0
294
     1
177
     0
142
1.0
295
     1
296
     0
143
0.125
271
     0
272
     9
273
     9
298
     1
  0
MLINESTYLE
  5
1C
102
{ACAD_REACTORS
330
E
102
}
330
E
100
AcDbMlineStyle
  2
STANDARD
 70
     0
  3

 62
     0
 51
90.0
 52
90.0
 71
     2
 49
0.5
 62
   256
  6
BYLAYER
 49
-0.5
 62
   256
  6
BYLAYER
  0
ACDBPLACEHOLDER
  5
83A2
102
{ACAD_REACTORS
330
83A1
102
}
330
83A1
  0
SCALE
  5
83E7
102
{ACAD_REACTORS
330
83E6
102
}
330
83E6
100
AcDbScale
 70
     0
300
1:1
140
1.0
141
1.0
290
     1
  0
SCALE
  5
83E8
102
{ACAD_REACTORS
330
83E6
102
}
330
83E6
100
AcDbScale
 70
     0
300
1:2
140
1.0
141
2.0
290
     0
  0
SCALE
  5
83E9
102
{ACAD_REACTORS
330
83E6
102
}
330
83E6
100
AcDbScale
 70
     0
300
1:4
140
1.0
141
4.0
290
     0
  0
SCALE
  5
83EA
102
{ACAD_REACTORS
330
83E6
102
}
330
83E6
100
AcDbScale
 70
     0
300
1:5
140
1.0
141
5.0
290
     0
  0
SCALE
  5
83EB
102
{ACAD_REACTORS
330
83E6
102
}
330
83E6
100
AcDbScale
 70
     0
300
1:8
140
1.0
141
8.0
290
     0
  0
SCALE
  5
83EC
102
{ACAD_REACTORS
330
83E6
102
}
330
83E6
100
AcDbScale
 70
     0
300
1:10
140
1.0
141
10.0
290
     0
  0
SCALE
  5
83ED
102
{ACAD_REACTORS
330
83E6
102
}
330
83E6
100
AcDbScale
 70
     0
300
1:16
140
1.0
141
16.0
290
     0
  0
SCALE
  5
83EE
102
{ACAD_REACTORS
330
83E6
102
}
330
83E6
100
AcDbScale
 70
     0
300
1:20
140
1.0
141
20.0
290
     0
  0
SCALE
  5
83EF
102
{ACAD_REACTORS
330
83E6
102
}
330
83E6
100
AcDbScale
 70
     0
300
1:30
140
1.0
141
30.0
290
     0
  0
SCALE
  5
83F0
102
{ACAD_REACTORS
330
83E6
102
}
330
83E6
100
AcDbScale
 70
     0
300
1:40
140
1.0
141
40.0
290
     0
  0
SCALE
  5
83F1
102
{ACAD_REACTORS
330
83E6
102
}
330
83E6
100
AcDbScale
 70
     0
300
1:50
140
1.0
141
50.0
290
     0
  0
SCALE
  5
83F2
102
{ACAD_REACTORS
330
83E6
102
}
330
83E6
100
AcDbScale
 70
     0
300
1:100
140
1.0
141
100.0
290
     0
  0
SCALE
  5
83F3
102
{ACAD_REACTORS
330
83E6
102
}
330
83E6
100
AcDbScale
 70
     0
300
2:1
140
2.0
141
1.0
290
     0
  0
SCALE
  5
83F4
102
{ACAD_REACTORS
330
83E6
102
}
330
83E6
100
AcDbScale
 70
     0
300
4:1
140
4.0
141
1.0
290
     0
  0
SCALE
  5
83F5
102
{ACAD_REACTORS
330
83E6
102
}
330
83E6
100
AcDbScale
 70
     0
300
8:1
140
8.0
141
1.0
290
     0
  0
SCALE
  5
83F6
102
{ACAD_REACTORS
330
83E6
102
}
330
83E6
100
AcDbScale
 70
     0
300
10:1
140
10.0
141
1.0
290
     0
  0
SCALE
  5
83F7
102
{ACAD_REACTORS
330
83E6
102
}
330
83E6
100
AcDbScale
 70
     0
300
100:1
140
100.0
141
1.0
290
     0
  0
ACDBSECTIONVIEWSTYLE
  5
83FB
102
{ACAD_XDICTIONARY
360
8468
102
}
102
{ACAD_REACTORS
330
83FA
102
}
330
83FA
100
AcDbModelDocViewStyle
 70
     0
  3
Metric50
290
     0
100
AcDbSectionViewStyle
 70
     0
 71
     0
 90
      102
 71
     1
340
10
 62
   256
 40
5.0
340
0
340
0
 62
   256
 40
5.0
300
I, O, Q, S, X, Z
 40
10.0
 90
        0
 40
2.5
 90
        0
 71
     2
340
15
 90
       25
 62
   256
340
15
 90
       50
 62
   256
 40
5.0
 40
2.5
 40
5.0
 71
     3
340
10
 62
   256
 40
5.0
 90
        0
 40
15.0
 90
        1
300
%<\AcVar ViewSectionStartId>%-%<\AcVar ViewSectionEndId>% (%<\AcVar ViewScale \f "%sn">%)
 71
     4
 62
   256
 62
   257
300
ANSI31
 40
1.0
 90
        0
290
     0
290
     0
 90
        6
 40
0.0
 40
1.570796326794896
 40
0.2617993877991494
 40
1.308996938995747
 40
-0.2617993877991494
 40
1.832595714594046
  0
TABLESTYLE
  5
83E5
102
{ACAD_XDICTIONARY
360
84A8
102
}
102
{ACAD_REACTORS
330
83E4
102
}
330
83E4
100
AcDbTableStyle
280
     0
  3
Standard
 70
     0
 71
     0
 40
1.5
 41
1.5
280
     0
281
     0
  7
STANDARD
140
4.5
170
     2
 62
     0
 63
     7
283
     0
 90
      512
 91
        0
  1

274
    -2
284
     1
 64
     0
275
    -2
285
     1
 65
     0
276
    -2
286
     1
 66
     0
277
    -2
287
     1
 67
     0
278
    -2
288
     1
 68
     0
279
    -2
289
     1
 69
     0
  7
STANDARD
140
6.0
170
     5
 62
     0
 63
     7
283
     0
 90
      512
 91
        0
  1

274
    -2
284
     1
 64
     0
275
    -2
285
     1
 65
     0
276
    -2
286
     1
 66
     0
277
    -2
287
     1
 67
     0
278
    -2
288
     1
 68
     0
279
    -2
289
     1
 69
     0
  7
STANDARD
140
4.5
170
     5
 62
     0
 63
     7
283
     0
 90
      512
 91
        0
  1

274
    -2
284
     1
 64
     0
275
    -2
285
     1
 65
     0
276
    -2
286
     1
 66
     0
277
    -2
287
     1
 67
     0
278
    -2
288
     1
 68
     0
279
    -2
289
     1
 69
     0
  0
VISUALSTYLE
  5
83D0
102
{ACAD_REACTORS
330
83CA
102
}
330
83CA
100
AcDbVisualStyle
  2
2dWireframe
 70
     4
177
     3
291
     0
 70
    58
 90
        0
176
     1
 90
        2
176
     1
 90
        0
176
     1
 90
        0
176
     1
 40
0.6
176
     1
 40
30.0
176
     1
 62
     7
420
 16777215
176
     1
 90
        1
176
     1
 90
        4
176
     1
 62
     7
176
     1
 62
   257
176
     1
 90
        1
176
     1
 90
        1
176
     1
 40
1.0
176
     1
 90
        0
176
     1
 62
   257
176
     1
 40
1.0
176
     1
 90
        1
176
     1
 90
        6
176
     1
 90
        2
176
     1
 62
     7
176
     1
 90
        5
176
     1
 90
        0
176
     1
 90
        0
176
     1
290
     0
176
     1
 90
        1
176
     1
 40
0.0
176
     1
 90
        0
176
     1
290
     1
176
     1
290
     1
176
     1
290
     0
176
     1
290
     0
176
     1
290
     0
176
     1
290
     0
176
     1
290
     0
176
     1
290
     0
176
     1
290
     0
176
     1
 90
       50
176
     1
 40
0.0
176
     1
 40
1.0
176
     1
 90
        0
176
     1
 62
    18
420
        0
176
     1
 90
       50
176
     1
 90
        3
176
     1
 62
     5
420
      255
176
     1
290
     0
176
     1
 90
       50
176
     1
 90
       50
176
     1
 90
       50
176
     1
290
     0
176
     1
 90
       50
176
     1
 62
   256
176
     0
 40
1.0
176
     0
 90
        2
176
     1
  1
strokes_ogs.tif
176
     1
290
     0
176
     1
 40
1.0
176
     1
 40
1.0
176
     1
  0
VISUALSTYLE
  5
83CF
102
{ACAD_REACTORS
330
83CA
102
}
330
83CA
100
AcDbVisualStyle
  2
Basic
 70
     7
177
     3
291
     1
 70
    58
 90
        1
176
     1
 90
        0
176
     1
 90
        1
176
     1
 90
        0
176
     1
 40
0.6
176
     1
 40
30.0
176
     1
 62
     7
420
 16777215
176
     1
 90
        0
176
     1
 90
        4
176
     1
 62
     7
176
     1
 62
   257
176
     1
 90
        1
176
     1
 90
        1
176
     1
 40
1.0
176
     1
 90
        8
176
     1
 62
     7
176
     1
 40
1.0
176
     1
 90
        1
176
     1
 90
        6
176
     1
 90
        2
176
     1
 62
     7
176
     1
 90
        5
176
     1
 90
        0
176
     1
 90
        0
176
     1
290
     0
176
     1
 90
        1
176
     1
 40
0.0
176
     1
 90
        0
176
     1
290
     0
176
     1
290
     1
176
     1
290
     1
176
     1
290
     0
176
     1
290
     0
176
     1
290
     0
176
     1
290
     0
176
     1
290
     0
176
     1
290
     0
176
     1
 90
       50
176
     1
 40
0.0
176
     1
 40
1.0
176
     1
 90
        0
176
     1
 62
    18
420
        0
176
     1
 90
       50
176
     1
 90
        3
176
     1
 62
     5
420
      255
176
     1
290
     0
176
     1
 90
       50
176
     1
 90
       50
176
     1
 90
       50
176
     1
290
     0
176
     1
 90
       50
176
     1
 62
   256
176
     0
 40
1.0
176
     0
 90
        2
176
     1
  1
strokes_ogs.tif
176
     1
290
     0
176
     1
 40
1.0
176
     1
 40
1.0
176
     1
  0
VISUALSTYLE
  5
83D6
102
{ACAD_REACTORS
330
83CA
102
}
330
83CA
100
AcDbVisualStyle
  2
Brighten
 70
    12
177
     3
291
     1
 70
    58
 90
        2
176
     1
 90
        2
176
     1
 90
        0
176
     1
 90
        0
176
     1
 40
0.6
176
     1
 40
30.0
176
     1
 62
     7
420
 16777215
176
     1
 90
        1
176
     1
 90
        4
176
     1
 62
     7
176
     1
 62
   257
176
     1
 90
        1
176
     1
 90
        1
176
     1
 40
1.0
176
     1
 90
        8
176
     1
 62
     7
176
     1
 40
1.0
176
     1
 90
        1
176
     1
 90
        6
176
     1
 90
        2
176
     1
 62
     7
176
     1
 90
        5
176
     1
 90
        0
176
     1
 90
        0
176
     1
290
     0
176
     1
 90
        1
176
     1
 40
50.0
176
     1
 90
        0
176
     1
290
     0
176
     1
290
     1
176
     1
290
     1
176
     1
290
     0
176
     1
290
     0
176
     1
290
     0
176
     1
290
     0
176
     1
290
     0
176
     1
290
     0
176
     1
 90
       50
176
     1
 40
0.0
176
     1
 40
1.0
176
     1
 90
        0
176
     1
 62
    18
420
        0
176
     1
 90
       50
176
     1
 90
        3
176
     1
 62
     5
420
      255
176
     1
290
     0
176
     1
 90
       50
176
     1
 90
       50
176
     1
 90
       50
176
     1
290
     0
176
     1
 90
       50
176
     1
 62
   256
176
     0
 40
1.0
176
     0
 90
        2
176
     1
  1
strokes_ogs.tif
176
     1
290
     0
176
     1
 40
1.0
176
     1
 40
1.0
176
     1
  0
VISUALSTYLE
  5
83DA
102
{ACAD_REACTORS
330
83CA
102
}
330
83CA
100
AcDbVisualStyle
  2
ColorChange
 70
    16
177
     3
291
     1
 70
    58
 90
        2
176
     1
 90
        2
176
     1
 90
        3
176
     1
 90
        0
176
     1
 40
0.6
176
     1
 40
30.0
176
     1
 62
     8
420
  8421504
176
     1
 90
        1
176
     1
 90
        4
176
     1
 62
     7
176
     1
 62
   257
176
     1
 90
        1
176
     1
 90
        1
176
     1
 40
1.0
176
     1
 90
        8
176
     1
 62
     8
420
  8421504
176
     1
 40
1.0
176
     1
 90
        1
176
     1
 90
        6
176
     1
 90
        2
176
     1
 62
     7
176
     1
 90
        5
176
     1
 90
        0
176
     1
 90
        0
176
     1
290
     0
176
     1
 90
        1
176
     1
 40
0.0
176
     1
 90
        0
176
     1
290
     0
176
     1
290
     1
176
     1
290
     1
176
     1
290
     0
176
     1
290
     0
176
     1
290
     0
176
     1
290
     0
176
     1
290
     0
176
     1
290
     0
176
     1
 90
       50
176
     1
 40
0.0
176
     1
 40
1.0
176
     1
 90
        0
176
     1
 62
    18
420
        0
176
     1
 90
       50
176
     1
 90
        3
176
     1
 62
     5
420
      255
176
     1
290
     0
176
     1
 90
       50
176
     1
 90
       50
176
     1
 90
       50
176
     1
290
     0
176
     1
 90
       50
176
     1
 62
   256
176
     0
 40
1.0
176
     0
 90
        2
176
     1
  1
strokes_ogs.tif
176
     1
290
     0
176
     1
 40
1.0
176
     1
 40
1.0
176
     1
  0
VISUALSTYLE
  5
83D3
102
{ACAD_REACTORS
330
83CA
102
}
330
83CA
100
AcDbVisualStyle
  2
Conceptual
 70
     9
177
     3
291
     0
 70
    58
 90
        3
176
     1
 90
        2
176
     1
 90
        0
176
     1
 90
        0
176
     1
 40
0.6
176
     1
 40
30.0
176
     1
 62
     7
420
 16777215
176
     1
 90
        2
176
     1
 90
        2
176
     1
 62
     7
176
     1
 62
   257
176
     1
 90
        1
176
     1
 90
        1
176
     1
 40
179.0
176
     1
 90
        8
176
     1
 62
     7
176
     1
 40
1.0
176
     1
 90
        1
176
     1
 90
        6
176
     1
 90
        2
176
     1
 62
     7
176
     1
 90
        3
176
     1
 90
        0
176
     1
 90
        0
176
     1
290
     0
176
     1
 90
        1
176
     1
 40
0.0
176
     1
 90
        0
176
     1
290
     0
176
     1
290
     1
176
     1
290
     1
176
     1
290
     0
176
     1
290
     0
176
     1
290
     0
176
     1
290
     0
176
     1
290
     0
176
     1
290
     0
176
     1
 90
       50
176
     1
 40
0.0
176
     1
 40
1.0
176
     1
 90
        0
176
     1
 62
    18
420
        0
176
     1
 90
       50
176
     1
 90
        3
176
     1
 62
     5
420
      255
176
     1
290
     0
176
     1
 90
       50
176
     1
 90
       50
176
     1
 90
       50
176
     1
290
     0
176
     1
 90
       50
176
     1
 62
   256
176
     0
 40
1.0
176
     0
 90
        2
176
     1
  1
strokes_ogs.tif
176
     1
290
     0
176
     1
 40
1.0
176
     1
 40
1.0
176
     1
  0
VISUALSTYLE
  5
83D5
102
{ACAD_REACTORS
330
83CA
102
}
330
83CA
100
AcDbVisualStyle
  2
Dim
 70
    11
177
     3
291
     1
 70
    58
 90
        2
176
     1
 90
        2
176
     1
 90
        0
176
     1
 90
        0
176
     1
 40
0.6
176
     1
 40
30.0
176
     1
 62
     7
420
 16777215
176
     1
 90
        1
176
     1
 90
        4
176
     1
 62
     7
176
     1
 62
   257
176
     1
 90
        1
176
     1
 90
        1
176
     1
 40
1.0
176
     1
 90
        8
176
     1
 62
     7
176
     1
 40
1.0
176
     1
 90
        1
176
     1
 90
        6
176
     1
 90
        2
176
     1
 62
     7
176
     1
 90
        5
176
     1
 90
        0
176
     1
 90
        0
176
     1
290
     0
176
     1
 90
        1
176
     1
 40
-50.0
176
     1
 90
        0
176
     1
290
     0
176
     1
290
     1
176
     1
290
     1
176
     1
290
     0
176
     1
290
     0
176
     1
290
     0
176
     1
290
     0
176
     1
290
     0
176
     1
290
     0
176
     1
 90
       50
176
     1
 40
0.0
176
     1
 40
1.0
176
     1
 90
        0
176
     1
 62
    18
420
        0
176
     1
 90
       50
176
     1
 90
        3
176
     1
 62
     5
420
      255
176
     1
290
     0
176
     1
 90
       50
176
     1
 90
       50
176
     1
 90
       50
176
     1
290
     0
176
     1
 90
       50
176
     1
 62
   256
176
     0
 40
1.0
176
     0
 90
        2
176
     1
  1
strokes_ogs.tif
176
     1
290
     0
176
     1
 40
1.0
176
     1
 40
1.0
176
     1
  0
VISUALSTYLE
  5
83E2
102
{ACAD_REACTORS
330
83CA
102
}
330
83CA
100
AcDbVisualStyle
  2
EdgeColorOff
 70
    22
177
     3
291
     1
 70
    58
 90
        2
176
     0
 90
        2
176
     0
 90
        0
176
     0
 90
        0
176
     0
 40
0.6
176
     0
 40
30.0
176
     0
 62
     7
420
 16777215
176
     0
 90
        1
176
     0
 90
        4
176
     0
 62
     7
176
     0
 62
   257
176
     0
 90
        1
176
     0
 90
        1
176
     0
 40
1.0
176
     0
 90
        8
176
     2
 62
     7
176
     0
 40
1.0
176
     0
 90
        1
176
     0
 90
        6
176
     0
 90
        2
176
     0
 62
     7
176
     0
 90
        5
176
     0
 90
        0
176
     0
 90
        0
176
     0
290
     0
176
     0
 90
        1
176
     0
 40
0.0
176
     0
 90
        0
176
     0
290
     0
176
     0
290
     1
176
     0
290
     1
176
     0
290
     0
176
     0
290
     0
176
     0
290
     0
176
     0
290
     0
176
     0
290
     0
176
     0
290
     0
176
     0
 90
       50
176
     0
 40
0.0
176
     0
 40
1.0
176
     0
 90
        0
176
     0
 62
    18
420
        0
176
     0
 90
       50
176
     0
 90
        3
176
     0
 62
     5
420
      255
176
     0
290
     0
176
     0
 90
       50
176
     0
 90
       50
176
     0
 90
       50
176
     0
290
     0
176
     0
 90
       50
176
     0
 62
   256
176
     0
 40
1.0
176
     0
 90
        2
176
     0
  1
strokes_ogs.tif
176
     0
290
     0
176
     0
 40
1.0
176
     0
 40
1.0
176
     0
  0
VISUALSTYLE
  5
83D9
102
{ACAD_REACTORS
330
83CA
102
}
330
83CA
100
AcDbVisualStyle
  2
Facepattern
 70
    15
177
     3
291
     1
 70
    58
 90
        2
176
     1
 90
        2
176
     1
 90
        0
176
     1
 90
        0
176
     1
 40
0.6
176
     1
 40
30.0
176
     1
 62
     7
420
 16777215
176
     1
 90
        1
176
     1
 90
        4
176
     1
 62
     7
176
     1
 62
   257
176
     1
 90
        1
176
     1
 90
        1
176
     1
 40
1.0
176
     1
 90
        8
176
     1
 62
     7
176
     1
 40
1.0
176
     1
 90
        1
176
     1
 90
        6
176
     1
 90
        2
176
     1
 62
     7
176
     1
 90
        5
176
     1
 90
        0
176
     1
 90
        0
176
     1
290
     0
176
     1
 90
        1
176
     1
 40
0.0
176
     1
 90
        0
176
     1
290
     0
176
     1
290
     1
176
     1
290
     1
176
     1
290
     0
176
     1
290
     0
176
     1
290
     0
176
     1
290
     0
176
     1
290
     0
176
     1
290
     0
176
     1
 90
       50
176
     1
 40
0.0
176
     1
 40
1.0
176
     1
 90
        0
176
     1
 62
    18
420
        0
176
     1
 90
       50
176
     1
 90
        3
176
     1
 62
     5
420
      255
176
     1
290
     0
176
     1
 90
       50
176
     1
 90
       50
176
     1
 90
       50
176
     1
290
     0
176
     1
 90
       50
176
     1
 62
   256
176
     0
 40
1.0
176
     0
 90
        2
176
     1
  1
strokes_ogs.tif
176
     1
290
     0
176
     1
 40
1.0
176
     1
 40
1.0
176
     1
  0
VISUALSTYLE
  5
83CB
102
{ACAD_REACTORS
330
83CA
102
}
330
83CA
100
AcDbVisualStyle
  2
Flat
 70
     0
177
     3
291
     1
 70
    58
 90
        2
176
     1
 90
        1
176
     1
 90
        1
176
     1
 90
        2
176
     1
 40
0.6
176
     1
 40
30.0
176
     1
 62
     7
420
 16777215
176
     1
 90
        0
176
     1
 90
        0
176
     1
 62
     7
176
     1
 62
   257
176
     1
 90
        1
176
     1
 90
        1
176
     1
 40
1.0
176
     1
 90
        8
176
     1
 62
     7
176
     1
 40
1.0
176
     1
 90
        1
176
     1
 90
        6
176
     1
 90
        2
176
     1
 62
     7
176
     1
 90
        5
176
     1
 90
        0
176
     1
 90
        0
176
     1
290
     0
176
     1
 90
       13
176
     1
 40
0.0
176
     1
 90
        0
176
     1
290
     0
176
     1
290
     1
176
     1
290
     1
176
     1
290
     0
176
     1
290
     0
176
     1
290
     0
176
     1
290
     0
176
     1
290
     0
176
     1
290
     0
176
     1
 90
       50
176
     1
 40
0.0
176
     1
 40
1.0
176
     1
 90
        0
176
     1
 62
    18
420
        0
176
     1
 90
       50
176
     1
 90
        3
176
     1
 62
     5
420
      255
176
     1
290
     0
176
     1
 90
       50
176
     1
 90
       50
176
     1
 90
       50
176
     1
290
     0
176
     1
 90
       50
176
     1
 62
   256
176
     0
 40
1.0
176
     0
 90
        2
176
     1
  1
strokes_ogs.tif
176
     1
290
     0
176
     1
 40
1.0
176
     1
 40
1.0
176
     1
  0
VISUALSTYLE
  5
83CC
102
{ACAD_REACTORS
330
83CA
102
}
330
83CA
100
AcDbVisualStyle
  2
FlatWithEdges
 70
     1
177
     3
291
     1
 70
    58
 90
        2
176
     1
 90
        1
176
     1
 90
        1
176
     1
 90
        2
176
     1
 40
0.6
176
     1
 40
30.0
176
     1
 62
     7
420
 16777215
176
     1
 90
        1
176
     1
 90
        0
176
     1
 62
     7
176
     1
 62
   257
176
     1
 90
        1
176
     1
 90
        1
176
     1
 40
1.0
176
     1
 90
        0
176
     1
 62
   257
176
     1
 40
1.0
176
     1
 90
        1
176
     1
 90
        6
176
     1
 90
        2
176
     1
 62
     7
176
     1
 90
        5
176
     1
 90
        0
176
     1
 90
        0
176
     1
290
     0
176
     1
 90
       13
176
     1
 40
0.0
176
     1
 90
        0
176
     1
290
     0
176
     1
290
     1
176
     1
290
     1
176
     1
290
     0
176
     1
290
     0
176
     1
290
     0
176
     1
290
     0
176
     1
290
     0
176
     1
290
     0
176
     1
 90
       50
176
     1
 40
0.0
176
     1
 40
1.0
176
     1
 90
        0
176
     1
 62
    18
420
        0
176
     1
 90
       50
176
     1
 90
        3
176
     1
 62
     5
420
      255
176
     1
290
     0
176
     1
 90
       50
176
     1
 90
       50
176
     1
 90
       50
176
     1
290
     0
176
     1
 90
       50
176
     1
 62
   256
176
     0
 40
1.0
176
     0
 90
        2
176
     1
  1
strokes_ogs.tif
176
     1
290
     0
176
     1
 40
1.0
176
     1
 40
1.0
176
     1
  0
VISUALSTYLE
  5
83CD
102
{ACAD_REACTORS
330
83CA
102
}
330
83CA
100
AcDbVisualStyle
  2
Gouraud
 70
     2
177
     3
291
     1
 70
    58
 90
        2
176
     1
 90
        2
176
     1
 90
        1
176
     1
 90
        2
176
     1
 40
0.6
176
     1
 40
30.0
176
     1
 62
     7
420
 16777215
176
     1
 90
        0
176
     1
 90
        0
176
     1
 62
     7
176
     1
 62
   257
176
     1
 90
        1
176
     1
 90
        1
176
     1
 40
1.0
176
     1
 90
        0
176
     1
 62
     7
176
     1
 40
1.0
176
     1
 90
        1
176
     1
 90
        6
176
     1
 90
        2
176
     1
 62
     7
176
     1
 90
        5
176
     1
 90
        0
176
     1
 90
        0
176
     1
290
     0
176
     1
 90
       13
176
     1
 40
0.0
176
     1
 90
        0
176
     1
290
     0
176
     1
290
     1
176
     1
290
     1
176
     1
290
     0
176
     1
290
     0
176
     1
290
     0
176
     1
290
     0
176
     1
290
     0
176
     1
290
     0
176
     1
 90
       50
176
     1
 40
0.0
176
     1
 40
1.0
176
     1
 90
        0
176
     1
 62
    18
420
        0
176
     1
 90
       50
176
     1
 90
        3
176
     1
 62
     5
420
      255
176
     1
290
     0
176
     1
 90
       50
176
     1
 90
       50
176
     1
 90
       50
176
     1
290
     0
176
     1
 90
       50
176
     1
 62
   256
176
     0
 40
1.0
176
     0
 90
        2
176
     1
  1
strokes_ogs.tif
176
     1
290
     0
176
     1
 40
1.0
176
     1
 40
1.0
176
     1
  0
VISUALSTYLE
  5
83CE
102
{ACAD_REACTORS
330
83CA
102
}
330
83CA
100
AcDbVisualStyle
  2
GouraudWithEdges
 70
     3
177
     3
291
     1
 70
    58
 90
        2
176
     1
 90
        2
176
     1
 90
        1
176
     1
 90
        2
176
     1
 40
0.6
176
     1
 40
30.0
176
     1
 62
     7
420
 16777215
176
     1
 90
        1
176
     1
 90
        0
176
     1
 62
     7
176
     1
 62
   257
176
     1
 90
        1
176
     1
 90
        1
176
     1
 40
1.0
176
     1
 90
        0
176
     1
 62
   257
176
     1
 40
1.0
176
     1
 90
        1
176
     1
 90
        6
176
     1
 90
        2
176
     1
 62
     7
176
     1
 90
        5
176
     1
 90
        0
176
     1
 90
        0
176
     1
290
     0
176
     1
 90
       13
176
     1
 40
0.0
176
     1
 90
        0
176
     1
290
     0
176
     1
290
     1
176
     1
290
     1
176
     1
290
     0
176
     1
290
     0
176
     1
290
     0
176
     1
290
     0
176
     1
290
     0
176
     1
290
     0
176
     1
 90
       50
176
     1
 40
0.0
176
     1
 40
1.0
176
     1
 90
        0
176
     1
 62
    18
420
        0
176
     1
 90
       50
176
     1
 90
        3
176
     1
 62
     5
420
      255
176
     1
290
     0
176
     1
 90
       50
176
     1
 90
       50
176
     1
 90
       50
176
     1
290
     0
176
     1
 90
       50
176
     1
 62
   256
176
     0
 40
1.0
176
     0
 90
        2
176
     1
  1
strokes_ogs.tif
176
     1
290
     0
176
     1
 40
1.0
176
     1
 40
1.0
176
     1
  0
VISUALSTYLE
  5
83D2
102
{ACAD_REACTORS
330
83CA
102
}
330
83CA
100
AcDbVisualStyle
  2
Hidden
 70
     6
177
     3
291
     0
 70
    58
 90
        1
176
     1
 90
        2
176
     1
 90
        2
176
     1
 90
        0
176
     1
 40
0.6
176
     1
 40
30.0
176
     1
 62
     7
420
 16777215
176
     1
 90
        2
176
     1
 90
        2
176
     1
 62
     7
176
     1
 62
   257
176
     1
 90
        2
176
     1
 90
        1
176
     1
 40
40.0
176
     1
 90
        0
176
     1
 62
   257
176
     1
 40
1.0
176
     1
 90
        1
176
     1
 90
        6
176
     1
 90
        2
176
     1
 62
     7
176
     1
 90
        3
176
     1
 90
        0
176
     1
 90
        0
176
     1
290
     0
176
     1
 90
        1
176
     1
 40
0.0
176
     1
 90
        0
176
     1
290
     0
176
     1
290
     1
176
     1
290
     1
176
     1
290
     0
176
     1
290
     0
176
     1
290
     0
176
     1
290
     0
176
     1
290
     0
176
     1
290
     0
176
     1
 90
       50
176
     1
 40
0.0
176
     1
 40
1.0
176
     1
 90
        0
176
     1
 62
    18
420
        0
176
     1
 90
       50
176
     1
 90
        3
176
     1
 62
     5
420
      255
176
     1
290
     0
176
     1
 90
       50
176
     1
 90
       50
176
     1
 90
       50
176
     1
290
     0
176
     1
 90
       50
176
     1
 62
   256
176
     0
 40
1.0
176
     0
 90
        2
176
     1
  1
strokes_ogs.tif
176
     1
290
     0
176
     1
 40
1.0
176
     1
 40
1.0
176
     1
  0
VISUALSTYLE
  5
83E0
102
{ACAD_REACTORS
330
83CA
102
}
330
83CA
100
AcDbVisualStyle
  2
JitterOff
 70
    20
177
     3
291
     1
 70
    58
 90
        2
176
     0
 90
        2
176
     0
 90
        0
176
     0
 90
        0
176
     0
 40
0.6
176
     0
 40
30.0
176
     0
 62
     7
420
 16777215
176
     0
 90
        1
176
     0
 90
        4
176
     0
 62
     7
176
     0
 62
   257
176
     0
 90
        1
176
     0
 90
        1
176
     0
 40
1.0
176
     0
 90
       10
176
     2
 62
     7
176
     0
 40
1.0
176
     0
 90
        1
176
     0
 90
        6
176
     0
 90
        2
176
     0
 62
     7
176
     0
 90
        5
176
     0
 90
        0
176
     0
 90
        0
176
     0
290
     0
176
     0
 90
        1
176
     0
 40
0.0
176
     0
 90
        0
176
     0
290
     0
176
     0
290
     1
176
     0
290
     1
176
     0
290
     0
176
     0
290
     0
176
     0
290
     0
176
     0
290
     0
176
     0
290
     0
176
     0
290
     0
176
     0
 90
       50
176
     0
 40
0.0
176
     0
 40
1.0
176
     0
 90
        0
176
     0
 62
    18
420
        0
176
     0
 90
       50
176
     0
 90
        3
176
     0
 62
     5
420
      255
176
     0
290
     0
176
     0
 90
       50
176
     0
 90
       50
176
     0
 90
       50
176
     0
290
     0
176
     0
 90
       50
176
     0
 62
   256
176
     0
 40
1.0
176
     0
 90
        2
176
     0
  1
strokes_ogs.tif
176
     0
290
     0
176
     0
 40
1.0
176
     0
 40
1.0
176
     0
  0
VISUALSTYLE
  5
83D8
102
{ACAD_REACTORS
330
83CA
102
}
330
83CA
100
AcDbVisualStyle
  2
Linepattern
 70
    14
177
     3
291
     1
 70
    58
 90
        2
176
     1
 90
        2
176
     1
 90
        0
176
     1
 90
        0
176
     1
 40
0.6
176
     1
 40
30.0
176
     1
 62
     7
420
 16777215
176
     1
 90
        1
176
     1
 90
        4
176
     1
 62
     7
176
     1
 62
   257
176
     1
 90
        7
176
     1
 90
        7
176
     1
 40
1.0
176
     1
 90
        8
176
     1
 62
     7
176
     1
 40
1.0
176
     1
 90
        1
176
     1
 90
        6
176
     1
 90
        2
176
     1
 62
     7
176
     1
 90
        5
176
     1
 90
        0
176
     1
 90
        0
176
     1
290
     0
176
     1
 90
        1
176
     1
 40
0.0
176
     1
 90
        0
176
     1
290
     0
176
     1
290
     1
176
     1
290
     1
176
     1
290
     0
176
     1
290
     0
176
     1
290
     0
176
     1
290
     0
176
     1
290
     0
176
     1
290
     0
176
     1
 90
       50
176
     1
 40
0.0
176
     1
 40
1.0
176
     1
 90
        0
176
     1
 62
    18
420
        0
176
     1
 90
       50
176
     1
 90
        3
176
     1
 62
     5
420
      255
176
     1
290
     0
176
     1
 90
       50
176
     1
 90
       50
176
     1
 90
       50
176
     1
290
     0
176
     1
 90
       50
176
     1
 62
   256
176
     0
 40
1.0
176
     0
 90
        2
176
     1
  1
strokes_ogs.tif
176
     1
290
     0
176
     1
 40
1.0
176
     1
 40
1.0
176
     1
  0
VISUALSTYLE
  5
83E1
102
{ACAD_REACTORS
330
83CA
102
}
330
83CA
100
AcDbVisualStyle
  2
OverhangOff
 70
    21
177
     3
291
     1
 70
    58
 90
        2
176
     0
 90
        2
176
     0
 90
        0
176
     0
 90
        0
176
     0
 40
0.6
176
     0
 40
30.0
176
     0
 62
     7
420
 16777215
176
     0
 90
        1
176
     0
 90
        4
176
     0
 62
     7
176
     0
 62
   257
176
     0
 90
        1
176
     0
 90
        1
176
     0
 40
1.0
176
     0
 90
        9
176
     2
 62
     7
176
     0
 40
1.0
176
     0
 90
        1
176
     0
 90
        6
176
     0
 90
        2
176
     0
 62
     7
176
     0
 90
        5
176
     0
 90
        0
176
     0
 90
        0
176
     0
290
     0
176
     0
 90
        1
176
     0
 40
0.0
176
     0
 90
        0
176
     0
290
     0
176
     0
290
     1
176
     0
290
     1
176
     0
290
     0
176
     0
290
     0
176
     0
290
     0
176
     0
290
     0
176
     0
290
     0
176
     0
290
     0
176
     0
 90
       50
176
     0
 40
0.0
176
     0
 40
1.0
176
     0
 90
        0
176
     0
 62
    18
420
        0
176
     0
 90
       50
176
     0
 90
        3
176
     0
 62
     5
420
      255
176
     0
290
     0
176
     0
 90
       50
176
     0
 90
       50
176
     0
 90
       50
176
     0
290
     0
176
     0
 90
       50
176
     0
 62
   256
176
     0
 40
1.0
176
     0
 90
        2
176
     0
  1
strokes_ogs.tif
176
     0
290
     0
176
     0
 40
1.0
176
     0
 40
1.0
176
     0
  0
VISUALSTYLE
  5
83D4
102
{ACAD_REACTORS
330
83CA
102
}
330
83CA
100
AcDbVisualStyle
  2
Realistic
 70
     8
177
     3
291
     0
 70
    58
 90
        2
176
     1
 90
        3
176
     1
 90
        0
176
     1
 90
        2
176
     1
 40
0.6
176
     1
 40
30.0
176
     1
 62
     7
420
 16777215
176
     1
 90
        0
176
     1
 90
        0
176
     1
 62
     7
176
     1
 62
   257
176
     1
 90
        1
176
     1
 90
        1
176
     1
 40
1.0
176
     1
 90
        8
176
     1
 62
   257
176
     1
 40
1.0
176
     1
 90
        1
176
     1
 90
        6
176
     1
 90
        2
176
     1
 62
     7
176
     1
 90
        3
176
     1
 90
        0
176
     1
 90
        0
176
     1
290
     0
176
     1
 90
       13
176
     1
 40
0.0
176
     1
 90
        0
176
     1
290
     0
176
     1
290
     1
176
     1
290
     1
176
     1
290
     0
176
     1
290
     0
176
     1
290
     0
176
     1
290
     0
176
     1
290
     0
176
     1
290
     0
176
     1
 90
       50
176
     1
 40
0.0
176
     1
 40
1.0
176
     1
 90
        0
176
     1
 62
    18
420
        0
176
     1
 90
       50
176
     1
 90
        3
176
     1
 62
     5
420
      255
176
     1
290
     0
176
     1
 90
       50
176
     1
 90
       50
176
     1
 90
       50
176
     1
290
     0
176
     1
 90
       50
176
     1
 62
   256
176
     0
 40
1.0
176
     0
 90
        2
176
     1
  1
strokes_ogs.tif
176
     1
290
     0
176
     1
 40
1.0
176
     1
 40
1.0
176
     1
  0
VISUALSTYLE
  5
83DF
102
{ACAD_REACTORS
330
83CA
102
}
330
83CA
100
AcDbVisualStyle
  2
Shaded
 70
    27
177
     3
291
     0
 70
    58
 90
        2
176
     1
 90
        2
176
     1
 90
        1
176
     1
 90
        2
176
     1
 40
0.6
176
     1
 40
30.0
176
     1
 62
     7
420
 16777215
176
     1
 90
        0
176
     1
 90
        4
176
     1
 62
     7
176
     1
 62
   257
176
     1
 90
        1
176
     1
 90
        1
176
     1
 40
1.0
176
     1
 90
        8
176
     1
 62
   257
176
     1
 40
1.0
176
     1
 90
        1
176
     1
 90
        6
176
     1
 90
        2
176
     1
 62
     8
420
  7895160
176
     1
 90
        3
176
     1
 90
        0
176
     1
 90
        0
176
     1
290
     0
176
     1
 90
        5
176
     1
 40
0.0
176
     1
 90
        0
176
     1
290
     0
176
     1
290
     1
176
     1
290
     1
176
     1
290
     0
176
     1
290
     0
176
     1
290
     0
176
     1
290
     0
176
     1
290
     0
176
     1
290
     0
176
     1
 90
       50
176
     1
 40
0.0
176
     1
 40
1.0
176
     1
 90
        0
176
     1
 62
    18
420
        0
176
     1
 90
       50
176
     1
 90
        3
176
     1
 62
     5
420
      255
176
     1
290
     0
176
     1
 90
       50
176
     1
 90
       50
176
     1
 90
       50
176
     1
290
     0
176
     1
 90
       50
176
     1
 62
   256
176
     0
 40
1.0
176
     0
 90
        2
176
     1
  1
strokes_ogs.tif
176
     1
290
     0
176
     1
 40
1.0
176
     1
 40
1.0
176
     1
  0
VISUALSTYLE
  5
83DE
102
{ACAD_REACTORS
330
83CA
102
}
330
83CA
100
AcDbVisualStyle
  2
Shaded with edges
 70
    26
177
     3
291
     0
 70
    58
 90
        2
176
     1
 90
        2
176
     1
 90
        1
176
     1
 90
        2
176
     1
 40
0.6
176
     1
 40
30.0
176
     1
 62
     7
420
 16777215
176
     1
 90
        1
176
     1
 90
       10
176
     1
 62
     7
176
     1
 62
   257
176
     1
 90
        2
176
     1
 90
        1
176
     1
 40
1.0
176
     1
 90
        8
176
     1
 62
   257
176
     1
 40
1.0
176
     1
 90
        1
176
     1
 90
        6
176
     1
 90
        2
176
     1
 62
     7
176
     1
 90
        3
176
     1
 90
        0
176
     1
 90
        0
176
     1
290
     0
176
     1
 90
        5
176
     1
 40
0.0
176
     1
 90
        0
176
     1
290
     0
176
     1
290
     1
176
     1
290
     1
176
     1
290
     0
176
     1
290
     0
176
     1
290
     0
176
     1
290
     0
176
     1
290
     0
176
     1
290
     0
176
     1
 90
       50
176
     1
 40
0.0
176
     1
 40
1.0
176
     1
 90
        0
176
     1
 62
    18
420
        0
176
     1
 90
       50
176
     1
 90
        3
176
     1
 62
     5
420
      255
176
     1
290
     0
176
     1
 90
       50
176
     1
 90
       50
176
     1
 90
       50
176
     1
290
     0
176
     1
 90
       50
176
     1
 62
   256
176
     0
 40
1.0
176
     0
 90
        2
176
     1
  1
strokes_ogs.tif
176
     1
290
     0
176
     1
 40
1.0
176
     1
 40
1.0
176
     1
  0
VISUALSTYLE
  5
83DB
102
{ACAD_REACTORS
330
83CA
102
}
330
83CA
100
AcDbVisualStyle
  2
Shades of Gray
 70
    23
177
     3
291
     0
 70
    58
 90
        2
176
     1
 90
        2
176
     1
 90
        3
176
     1
 90
        0
176
     1
 40
0.6
176
     1
 40
30.0
176
     1
 62
     7
420
 16777215
176
     1
 90
        2
176
     1
 90
        2
176
     1
 62
     7
176
     1
 62
     7
176
     1
 90
        1
176
     1
 90
        1
176
     1
 40
40.0
176
     1
 90
        8
176
     1
 62
     7
176
     1
 40
1.0
176
     1
 90
        1
176
     1
 90
        6
176
     1
 90
        2
176
     1
 62
     7
176
     1
 90
        3
176
     1
 90
        0
176
     1
 90
        0
176
     1
290
     0
176
     1
 90
        1
176
     1
 40
0.0
176
     1
 90
        0
176
     1
290
     0
176
     1
290
     1
176
     1
290
     1
176
     1
290
     0
176
     1
290
     0
176
     1
290
     0
176
     1
290
     0
176
     1
290
     0
176
     1
290
     0
176
     1
 90
       50
176
     1
 40
0.0
176
     1
 40
1.0
176
     1
 90
        0
176
     1
 62
    18
420
        0
176
     1
 90
       50
176
     1
 90
        3
176
     1
 62
     5
420
      255
176
     1
290
     0
176
     1
 90
       50
176
     1
 90
       50
176
     1
 90
       50
176
     1
290
     0
176
     1
 90
       50
176
     1
 62
   256
176
     0
 40
1.0
176
     0
 90
        2
176
     1
  1
strokes_ogs.tif
176
     1
290
     0
176
     1
 40
1.0
176
     1
 40
1.0
176
     1
  0
VISUALSTYLE
  5
83DC
102
{ACAD_REACTORS
330
83CA
102
}
330
83CA
100
AcDbVisualStyle
  2
Sketchy
 70
    24
177
     3
291
     0
 70
    58
 90
        1
176
     1
 90
        2
176
     1
 90
        2
176
     1
 90
        0
176
     1
 40
0.6
176
     1
 40
30.0
176
     1
 62
     7
420
 16777215
176
     1
 90
        2
176
     1
 90
        2
176
     1
 62
     7
176
     1
 62
     7
176
     1
 90
        1
176
     1
 90
        1
176
     1
 40
40.0
176
     1
 90
       11
176
     1
 62
     7
176
     1
 40
1.0
176
     1
 90
        1
176
     1
 90
        6
176
     1
 90
        2
176
     1
 62
     7
176
     1
 90
        6
176
     1
 90
        0
176
     1
 90
        0
176
     1
290
     0
176
     1
 90
        1
176
     1
 40
0.0
176
     1
 90
        0
176
     1
290
     0
176
     1
290
     1
176
     1
290
     1
176
     1
290
     0
176
     1
290
     0
176
     1
290
     0
176
     1
290
     0
176
     1
290
     0
176
     1
290
     0
176
     1
 90
       50
176
     1
 40
0.0
176
     1
 40
1.0
176
     1
 90
        0
176
     1
 62
    18
420
        0
176
     1
 90
       50
176
     1
 90
        3
176
     1
 62
     5
420
      255
176
     1
290
     0
176
     1
 90
       50
176
     1
 90
       50
176
     1
 90
       50
176
     1
290
     0
176
     1
 90
       50
176
     1
 62
   256
176
     0
 40
1.0
176
     0
 90
        2
176
     1
  1
strokes_ogs.tif
176
     1
290
     0
176
     1
 40
1.0
176
     1
 40
1.0
176
     1
  0
VISUALSTYLE
  5
83D7
102
{ACAD_REACTORS
330
83CA
102
}
330
83CA
100
AcDbVisualStyle
  2
Thicken
 70
    13
177
     3
291
     1
 70
    58
 90
        2
176
     1
 90
        2
176
     1
 90
        0
176
     1
 90
        0
176
     1
 40
0.6
176
     1
 40
30.0
176
     1
 62
     7
420
 16777215
176
     1
 90
        1
176
     1
 90
        4
176
     1
 62
     7
176
     1
 62
   257
176
     1
 90
        1
176
     1
 90
        1
176
     1
 40
1.0
176
     1
 90
       12
176
     1
 62
     7
176
     1
 40
1.0
176
     1
 90
        1
176
     1
 90
        6
176
     1
 90
        2
176
     1
 62
     7
176
     1
 90
        5
176
     1
 90
        0
176
     1
 90
        0
176
     1
290
     0
176
     1
 90
        1
176
     1
 40
0.0
176
     1
 90
        0
176
     1
290
     0
176
     1
290
     1
176
     1
290
     1
176
     1
290
     0
176
     1
290
     0
176
     1
290
     0
176
     1
290
     0
176
     1
290
     0
176
     1
290
     0
176
     1
 90
       50
176
     1
 40
0.0
176
     1
 40
1.0
176
     1
 90
        0
176
     1
 62
    18
420
        0
176
     1
 90
       50
176
     1
 90
        3
176
     1
 62
     5
420
      255
176
     1
290
     0
176
     1
 90
       50
176
     1
 90
       50
176
     1
 90
       50
176
     1
290
     0
176
     1
 90
       50
176
     1
 62
   256
176
     0
 40
1.0
176
     0
 90
        2
176
     1
  1
strokes_ogs.tif
176
     1
290
     0
176
     1
 40
1.0
176
     1
 40
1.0
176
     1
  0
VISUALSTYLE
  5
83D1
102
{ACAD_REACTORS
330
83CA
102
}
330
83CA
100
AcDbVisualStyle
  2
Wireframe
 70
     5
177
     3
291
     0
 70
    58
 90
        0
176
     1
 90
        2
176
     1
 90
        0
176
     1
 90
        0
176
     1
 40
0.6
176
     1
 40
30.0
176
     1
 62
     7
420
 16777215
176
     1
 90
        1
176
     1
 90
        4
176
     1
 62
     7
176
     1
 62
   257
176
     1
 90
        1
176
     1
 90
        1
176
     1
 40
1.0
176
     1
 90
        0
176
     1
 62
   257
176
     1
 40
1.0
176
     1
 90
        1
176
     1
 90
        6
176
     1
 90
        2
176
     1
 62
     7
176
     1
 90
        3
176
     1
 90
        0
176
     1
 90
        0
176
     1
290
     0
176
     1
 90
        1
176
     1
 40
0.0
176
     1
 90
        0
176
     1
290
     0
176
     1
290
     1
176
     1
290
     1
176
     1
290
     0
176
     1
290
     0
176
     1
290
     0
176
     1
290
     0
176
     1
290
     0
176
     1
290
     0
176
     1
 90
       50
176
     1
 40
0.0
176
     1
 40
1.0
176
     1
 90
        0
176
     1
 62
    18
420
        0
176
     1
 90
       50
176
     1
 90
        3
176
     1
 62
     5
420
      255
176
     1
290
     0
176
     1
 90
       50
176
     1
 90
       50
176
     1
 90
       50
176
     1
290
     0
176
     1
 90
       50
176
     1
 62
   256
176
     0
 40
1.0
176
     0
 90
        2
176
     1
  1
strokes_ogs.tif
176
     1
290
     0
176
     1
 40
1.0
176
     1
 40
1.0
176
     1
  0
VISUALSTYLE
  5
83DD
102
{ACAD_REACTORS
330
83CA
102
}
330
83CA
100
AcDbVisualStyle
  2
X-Ray
 70
    25
177
     3
291
     0
 70
    58
 90
        2
176
     1
 90
        2
176
     1
 90
        1
176
     1
 90
        1
176
     1
 40
0.5
176
     1
 40
30.0
176
     1
 62
     7
420
 16777215
176
     1
 90
        1
176
     1
 90
        0
176
     1
 62
     7
176
     1
 62
   257
176
     1
 90
        1
176
     1
 90
        1
176
     1
 40
1.0
176
     1
 90
        8
176
     1
 62
     7
176
     1
 40
1.0
176
     1
 90
        1
176
     1
 90
        6
176
     1
 90
        2
176
     1
 62
     7
176
     1
 90
        3
176
     1
 90
        0
176
     1
 90
        0
176
     1
290
     0
176
     1
 90
       13
176
     1
 40
0.0
176
     1
 90
        0
176
     1
290
     0
176
     1
290
     1
176
     1
290
     1
176
     1
290
     0
176
     1
290
     0
176
     1
290
     0
176
     1
290
     0
176
     1
290
     0
176
     1
290
     0
176
     1
 90
       50
176
     1
 40
0.0
176
     1
 40
1.0
176
     1
 90
        0
176
     1
 62
    18
420
        0
176
     1
 90
       50
176
     1
 90
        3
176
     1
 62
     5
420
      255
176
     1
290
     0
176
     1
 90
       50
176
     1
 90
       50
176
     1
 90
       50
176
     1
290
     0
176
     1
 90
       50
176
     1
 62
   256
176
     0
 40
1.0
176
     0
 90
        2
176
     1
  1
strokes_ogs.tif
176
     1
290
     0
176
     1
 40
1.0
176
     1
 40
1.0
176
     1
  0
DICTIONARYVAR
  5
8473
102
{ACAD_REACTORS
330
846D
102
}
330
846D
100
DictionaryVariables
280
     0
  1
1:1
  0
DICTIONARYVAR
  5
846F
102
{ACAD_REACTORS
330
846D
102
}
330
846D
100
DictionaryVariables
280
     0
  1
STANDARD
  0
DICTIONARYVAR
  5
846E
102
{ACAD_REACTORS
330
846D
102
}
330
846D
100
DictionaryVariables
280
     0
  1
STANDARD
  0
DICTIONARYVAR
  5
8470
102
{ACAD_REACTORS
330
846D
102
}
330
846D
100
DictionaryVariables
280
     0
  1
Metric50
  0
DICTIONARYVAR
  5
8471
102
{ACAD_REACTORS
330
846D
102
}
330
846D
100
DictionaryVariables
280
     0
  1
Metric50
  0
DICTIONARYVAR
  5
8475
102
{ACAD_REACTORS
330
846D
102
}
330
846D
100
DictionaryVariables
280
     0
  1
1
  0
DICTIONARYVAR
  5
8476
102
{ACAD_REACTORS
330
846D
102
}
330
846D
100
DictionaryVariables
280
     0
  1
15
  0
DICTIONARYVAR
  5
8474
102
{ACAD_REACTORS
330
846D
102
}
330
846D
100
DictionaryVariables
280
     0
  1
0
  0
DICTIONARYVAR
  5
8472
102
{ACAD_REACTORS
330
846D
102
}
330
846D
100
DictionaryVariables
280
     0
  1
0
  0
DICTIONARY
  5
846A
330
83FD
100
AcDbDictionary
280
     1
281
     1
  3
ACAD_XREC_ROUNDTRIP
360
84AB
  0
DICTIONARY
  5
83BB
330
83BA
100
AcDbDictionary
280
     1
281
     1
  3
BUMPTILE
360
83BD
  3
DIFFUSETILE
360
83BC
  3
OPACITYTILE
360
83C0
  3
REFLECTIONTILE
360
83BF
  3
REFRACTIONTILE
360
83C1
  3
SPECULARTILE
360
83BE
  0
DICTIONARY
  5
83B3
330
83B2
100
AcDbDictionary
280
     1
281
     1
  3
BUMPTILE
360
83B5
  3
DIFFUSETILE
360
83B4
  3
OPACITYTILE
360
83B8
  3
REFLECTIONTILE
360
83B7
  3
REFRACTIONTILE
360
83B9
  3
SPECULARTILE
360
83B6
  0
DICTIONARY
  5
83C3
330
83C2
100
AcDbDictionary
280
     1
281
     1
  3
BUMPTILE
360
83C5
  3
DIFFUSETILE
360
83C4
  3
OPACITYTILE
360
83C8
  3
REFLECTIONTILE
360
83C7
  3
REFRACTIONTILE
360
83C9
  3
SPECULARTILE
360
83C6
  0
DICTIONARY
  5
8468
330
83FB
100
AcDbDictionary
280
     1
281
     1
  3
ACAD_XREC_ROUNDTRIP
360
84AA
  0
DICTIONARY
  5
84A8
330
83E5
100
AcDbDictionary
280
     1
281
     1
  3
ACAD_ROUNDTRIP_2008_TABLESTYLE_CELLSTYLEMAP
360
84A9
  0
XRECORD
  5
84AB
102
{ACAD_REACTORS
330
846A
102
}
330
846A
100
AcDbXrecord
280
     1
102
DISPLAYNAME
  1
Metric50
102
FLAGS
 90
        0
  0
XRECORD
  5
83BD
102
{ACAD_REACTORS
330
83BB
102
}
330
83BB
100
AcDbXrecord
280
     1
270
     1
271
     1
  0
XRECORD
  5
83BC
102
{ACAD_REACTORS
330
83BB
102
}
330
83BB
100
AcDbXrecord
280
     1
270
     1
271
     1
  0
XRECORD
  5
83C0
102
{ACAD_REACTORS
330
83BB
102
}
330
83BB
100
AcDbXrecord
280
     1
270
     1
271
     1
  0
XRECORD
  5
83BF
102
{ACAD_REACTORS
330
83BB
102
}
330
83BB
100
AcDbXrecord
280
     1
270
     1
271
     1
  0
XRECORD
  5
83C1
102
{ACAD_REACTORS
330
83BB
102
}
330
83BB
100
AcDbXrecord
280
     1
270
     1
271
     1
  0
XRECORD
  5
83BE
102
{ACAD_REACTORS
330
83BB
102
}
330
83BB
100
AcDbXrecord
280
     1
270
     1
271
     1
  0
XRECORD
  5
83B5
102
{ACAD_REACTORS
330
83B3
102
}
330
83B3
100
AcDbXrecord
280
     1
270
     1
271
     1
  0
XRECORD
  5
83B4
102
{ACAD_REACTORS
330
83B3
102
}
330
83B3
100
AcDbXrecord
280
     1
270
     1
271
     1
  0
XRECORD
  5
83B8
102
{ACAD_REACTORS
330
83B3
102
}
330
83B3
100
AcDbXrecord
280
     1
270
     1
271
     1
  0
XRECORD
  5
83B7
102
{ACAD_REACTORS
330
83B3
102
}
330
83B3
100
AcDbXrecord
280
     1
270
     1
271
     1
  0
XRECORD
  5
83B9
102
{ACAD_REACTORS
330
83B3
102
}
330
83B3
100
AcDbXrecord
280
     1
270
     1
271
     1
  0
XRECORD
  5
83B6
102
{ACAD_REACTORS
330
83B3
102
}
330
83B3
100
AcDbXrecord
280
     1
270
     1
271
     1
  0
XRECORD
  5
83C5
102
{ACAD_REACTORS
330
83C3
102
}
330
83C3
100
AcDbXrecord
280
     1
270
     1
271
     1
  0
XRECORD
  5
83C4
102
{ACAD_REACTORS
330
83C3
102
}
330
83C3
100
AcDbXrecord
280
     1
270
     1
271
     1
  0
XRECORD
  5
83C8
102
{ACAD_REACTORS
330
83C3
102
}
330
83C3
100
AcDbXrecord
280
     1
270
     1
271
     1
  0
XRECORD
  5
83C7
102
{ACAD_REACTORS
330
83C3
102
}
330
83C3
100
AcDbXrecord
280
     1
270
     1
271
     1
  0
XRECORD
  5
83C9
102
{ACAD_REACTORS
330
83C3
102
}
330
83C3
100
AcDbXrecord
280
     1
270
     1
271
     1
  0
XRECORD
  5
83C6
102
{ACAD_REACTORS
330
83C3
102
}
330
83C3
100
AcDbXrecord
280
     1
270
     1
271
     1
  0
XRECORD
  5
84AA
102
{ACAD_REACTORS
330
8468
102
}
330
8468
100
AcDbXrecord
280
     1
102
DISPLAYNAME
  1
Metric50
102
FLAGS
 90
        0
  0
CELLSTYLEMAP
  5
84A9
102
{ACAD_REACTORS
330
84A8
102
}
330
84A8
100
AcDbCellStyleMap
 90
        3
300
CELLSTYLE
  1
TABLEFORMAT_BEGIN
 90
        5
170
     1
 91
        0
 92
    32768
 62
   257
 93
        1
300
CONTENTFORMAT
  1
CONTENTFORMAT_BEGIN
 90
        0
 91
        0
 92
      512
 93
        0
300

 40
0.0
140
1.0
 94
        5
 62
     0
340
10
144
6.0
309
CONTENTFORMAT_END
171
     1
301
MARGIN
  1
CELLMARGIN_BEGIN
 40
1.5
 40
1.5
 40
1.5
 40
1.5
 40
4.5
 40
4.5
309
CELLMARGIN_END
 94
        6
 95
        1
302
GRIDFORMAT
  1
GRIDFORMAT_BEGIN
 90
        0
 91
        1
 62
     0
 92
       -2
340
0
 93
        0
 40
1.125
309
GRIDFORMAT_END
 95
        2
302
GRIDFORMAT
  1
GRIDFORMAT_BEGIN
 90
        0
 91
        1
 62
     0
 92
       -2
340
0
 93
        0
 40
1.125
309
GRIDFORMAT_END
 95
        4
302
GRIDFORMAT
  1
GRIDFORMAT_BEGIN
 90
        0
 91
        1
 62
     0
 92
       -2
340
0
 93
        0
 40
1.125
309
GRIDFORMAT_END
 95
        8
302
GRIDFORMAT
  1
GRIDFORMAT_BEGIN
 90
        0
 91
        1
 62
     0
 92
       -2
340
0
 93
        0
 40
1.125
309
GRIDFORMAT_END
 95
       16
302
GRIDFORMAT
  1
GRIDFORMAT_BEGIN
 90
        0
 91
        1
 62
     0
 92
       -2
340
0
 93
        0
 40
1.125
309
GRIDFORMAT_END
 95
       32
302
GRIDFORMAT
  1
GRIDFORMAT_BEGIN
 90
        0
 91
        1
 62
     0
 92
       -2
340
0
 93
        0
 40
1.125
309
GRIDFORMAT_END
309
TABLEFORMAT_END
  1
CELLSTYLE_BEGIN
 90
        1
 91
        1
300
_TITLE
309
CELLSTYLE_END
300
CELLSTYLE
  1
TABLEFORMAT_BEGIN
 90
        5
170
     1
 91
        0
 92
        0
 62
   257
 93
        1
300
CONTENTFORMAT
  1
CONTENTFORMAT_BEGIN
 90
        0
 91
        0
 92
      512
 93
        0
300

 40
0.0
140
1.0
 94
        5
 62
     0
340
10
144
4.5
309
CONTENTFORMAT_END
171
     1
301
MARGIN
  1
CELLMARGIN_BEGIN
 40
1.5
 40
1.5
 40
1.5
 40
1.5
 40
4.5
 40
4.5
309
CELLMARGIN_END
 94
        6
 95
        1
302
GRIDFORMAT
  1
GRIDFORMAT_BEGIN
 90
        0
 91
        1
 62
     0
 92
       -2
340
0
 93
        0
 40
1.125
309
GRIDFORMAT_END
 95
        2
302
GRIDFORMAT
  1
GRIDFORMAT_BEGIN
 90
        0
 91
        1
 62
     0
 92
       -2
340
0
 93
        0
 40
1.125
309
GRIDFORMAT_END
 95
        4
302
GRIDFORMAT
  1
GRIDFORMAT_BEGIN
 90
        0
 91
        1
 62
     0
 92
       -2
340
0
 93
        0
 40
1.125
309
GRIDFORMAT_END
 95
        8
302
GRIDFORMAT
  1
GRIDFORMAT_BEGIN
 90
        0
 91
        1
 62
     0
 92
       -2
340
0
 93
        0
 40
1.125
309
GRIDFORMAT_END
 95
       16
302
GRIDFORMAT
  1
GRIDFORMAT_BEGIN
 90
        0
 91
        1
 62
     0
 92
       -2
340
0
 93
        0
 40
1.125
309
GRIDFORMAT_END
 95
       32
302
GRIDFORMAT
  1
GRIDFORMAT_BEGIN
 90
        0
 91
        1
 62
     0
 92
       -2
340
0
 93
        0
 40
1.125
309
GRIDFORMAT_END
309
TABLEFORMAT_END
  1
CELLSTYLE_BEGIN
 90
        2
 91
        1
300
_HEADER
309
CELLSTYLE_END
300
CELLSTYLE
  1
TABLEFORMAT_BEGIN
 90
        5
170
     1
 91
        0
 92
        0
 62
   257
 93
        1
300
CONTENTFORMAT
  1
CONTENTFORMAT_BEGIN
 90
        0
 91
        0
 92
      512
 93
        0
300

 40
0.0
140
1.0
 94
        2
 62
     0
340
10
144
4.5
309
CONTENTFORMAT_END
171
     1
301
MARGIN
  1
CELLMARGIN_BEGIN
 40
1.5
 40
1.5
 40
1.5
 40
1.5
 40
4.5
 40
4.5
309
CELLMARGIN_END
 94
        6
 95
        1
302
GRIDFORMAT
  1
GRIDFORMAT_BEGIN
 90
        0
 91
        1
 62
     0
 92
       -2
340
0
 93
        0
 40
1.125
309
GRIDFORMAT_END
 95
        2
302
GRIDFORMAT
  1
GRIDFORMAT_BEGIN
 90
        0
 91
        1
 62
     0
 92
       -2
340
0
 93
        0
 40
1.125
309
GRIDFORMAT_END
 95
        4
302
GRIDFORMAT
  1
GRIDFORMAT_BEGIN
 90
        0
 91
        1
 62
     0
 92
       -2
340
0
 93
        0
 40
1.125
309
GRIDFORMAT_END
 95
        8
302
GRIDFORMAT
  1
GRIDFORMAT_BEGIN
 90
        0
 91
        1
 62
     0
 92
       -2
340
0
 93
        0
 40
1.125
309
GRIDFORMAT_END
 95
       16
302
GRIDFORMAT
  1
GRIDFORMAT_BEGIN
 90
        0
 91
        1
 62
     0
 92
       -2
340
0
 93
        0
 40
1.125
309
GRIDFORMAT_END
 95
       32
302
GRIDFORMAT
  1
GRIDFORMAT_BEGIN
 90
        0
 91
        1
 62
     0
 92
       -2
340
0
 93
        0
 40
1.125
309
GRIDFORMAT_END
309
TABLEFORMAT_END
  1
CELLSTYLE_BEGIN
 90
        3
 91
        2
300
_DATA
309
CELLSTYLE_END
  0
ENDSEC
  0
SECTION
  2
ACDSDATA
 70
     2
 71
     8
  0
ACDSSCHEMA
 90
        0
  1
AcDb_Thumbnail_Schema
  2
AcDbDs::ID
280
    10
 91
        8
  2
Thumbnail_Data
280
    15
 91
        0
101
ACDSRECORD
 95
        0
 90
        1
  2
AcDbDs::TreatedAsObjectData
280
     1
291
     1
101
ACDSRECORD
 95
        0
 90
        2
  2
AcDbDs::Legacy
280
     1
291
     1
101
ACDSRECORD
  1
AcDbDs::ID
 90
        3
  2
AcDs:Indexable
280
     1
291
     1
101
ACDSRECORD
  1
AcDbDs::ID
 90
        4
  2
AcDbDs::HandleAttribute
280
     7
282
     1
  0
ACDSSCHEMA
 90
        1
  1
AcDbDs::TreatedAsObjectDataSchema
  2
AcDbDs::TreatedAsObjectData
280
     1
 91
        0
  0
ACDSSCHEMA
 90
        2
  1
AcDbDs::LegacySchema
  2
AcDbDs::Legacy
280
     1
 91
        0
  0
ACDSSCHEMA
 90
        3
  1
AcDbDs::IndexedPropertySchema
  2
AcDs:Indexable
280
     1
 91
        0
  0
ACDSSCHEMA
 90
        4
  1
AcDbDs::HandleAttributeSchema
  2
AcDbDs::HandleAttribute
280
     7
 91
        1
284
     1
  0
ACDSRECORD
 90
        0
  2
AcDbDs::ID
280
    10
320
83A5
  2
Thumbnail_Data
280
    15
 94
     1677
310
89504E470D0A1A0A0000000D49484452000001000000007C0803000000B13B9E5A00000300504C5445000000000000C8C8C80000000000000000000000000000000000000000000000000000330000660000990000CC0000FF0033000033330033660033990033CC0033FF0066000066330066660066990066CC0066FF0099
310
000099330099660099990099CC0099FF00CC0000CC3300CC6600CC9900CCCC00CCFF00FF0000FF3300FF6600FF9900FFCC00FFFF3300003300333300663300993300CC3300FF3333003333333333663333993333CC3333FF3366003366333366663366993366CC3366FF3399003399333399663399993399CC3399FF33CC00
310
33CC3333CC6633CC9933CCCC33CCFF33FF0033FF3333FF6633FF9933FFCC33FFFF6600006600336600666600996600CC6600FF6633006633336633666633996633CC6633FF6666006666336666666666996666CC6666FF6699006699336699666699996699CC6699FF66CC0066CC3366CC6666CC9966CCCC66CCFF66FF0066
310
FF3366FF6666FF9966FFCC66FFFF9900009900339900669900999900CC9900FF9933009933339933669933999933CC9933FF9966009966339966669966999966CC9966FF9999009999339999669999999999CC9999FF99CC0099CC3399CC6699CC9999CCCC99CCFF99FF0099FF3399FF6699FF9999FFCC99FFFFCC0000CC00
310
33CC0066CC0099CC00CCCC00FFCC3300CC3333CC3366CC3399CC33CCCC33FFCC6600CC6633CC6666CC6699CC66CCCC66FFCC9900CC9933CC9966CC9999CC99CCCC99FFCCCC00CCCC33CCCC66CCCC99CCCCCCCCCCFFCCFF00CCFF33CCFF66CCFF99CCFFCCCCFFFFFF0000FF0033FF0066FF0099FF00CCFF00FFFF3300FF3333
310
FF3366FF3399FF33CCFF33FFFF6600FF6633FF6666FF6699FF66CCFF66FFFF9900FF9933FF9966FF9999FF99CCFF99FFFFCC00FFCC33FFCC66FFCC99FFCCCCFFCCFFFFFF00FFFF33FFFF66FFFF99FFFFCCFFFFFF0000000D0D0D1A1A1A2828283535354343435050505D5D5D6B6B6B787878868686939393A1A1A1AEAEAEBB
310
BBBBC9C9C9D6D6D6E4E4E4F1F1F1FFFFFF00000000000000000000000000000000000000000000000000000000000008F1915C000002F94944415478DAED9D5D8EC3200C847D1C5E7CFFCB700DDE370D091862D2ACD46AD7F6A06DABA669547F4C06F32396E80BA57CA99095524C5D1600000000000000FECF2FBD69FCA200
310
98BE5E422A2034001A098403B03E6011C0477B002601FCB38B01C01F003874DC5F8E0729422F4A901E00D0E1EC2DD806A245BF2321ADCBEF4301A30E0631942608CF004A4BF20A8D22D84FB90B0F26883C206277B838EA0E5F2B7474C27E7E33073A4DD13F00414102286F32029300485500B55680C6F08B1B057CEEFB1813
310
0400000000000000000000000000BB00D2FECC1101B02C2101045740E2D40B2728200480BC95E9BE0F760BE42D54D64A200022627E3505FB2314805DF6001012C066810000000000138C0E207C1EA0E5810010B233244A8E331EA0871A11C04B0D21016405400E05402D710058B82C000000000000000000000000007CF797
310
3ECF8097D9B2EDEEF0D01B7A0860E210A033747FA6F101911ACEFEBC0630BF750420530DFD3900670A78760BDC7AA17505CCCF6F0150226700F89D21CA37D7B524D601D469323E8FD6D8F35201F56C16884C02E873016256640D4054F901409C621380544005C0A7135C0108CDB317058C5A481D80A600316BD694E304C02B
310
F6ED91F61761800380FAE9348D661EC0A17C3955CE3D21BC28404EA226F66282A7BA0F13AC1238D2C2A5073801405CBD9C0E0F60EEF9C01580F480E3CF7A2BF05A257EB67FB54ED700F685E45B91003C28A02D917907606A05288DA9A06D0FA8F7401226981F79800F00A70DF6A66DD90ACC79801700DA72F9EBD0C0FDCA7A
310
8B004ED95F921B7D68608A3DAD2E6B07C05CD234E4733F3EEA00807E07045200AB75CA62D06B32C1E14D0805E41B0564FB0072BFDB45A5E7EBF88F38D2A645E6CE825D00BDA6C5B0B83638EC10C07A664805703B68EA6D76F8D7CB05313D0E0000601F40F81D251791D52D56D54F0301D02BDE1B0052FE6D523977D70DA680
310
981EA02B80FA16DBC33EAB513CA0C83DD7290A00E5A05008C10342EF2C8D54180000000000000000000000000000C0240043FF7AFB078EE6914BCA8819240000000049454E44AE426082BEDA252F8E682A07F0B820BEC67E5996DF1700FF470BB4887BCB007400988E002CAF8FB100000000000000000000000000006015E0
310
A3E5F1B7FB0F83060194590AEE9E0000000049454E44AE426082
  0
ENDSEC
  0
EOF
