  0
SECTION
  2
HEADER
  9
$ACADVER
  1
AC1027
  9
$ACADMAINTVER
 70
    81
  9
$DWGCODEPAGE
  3
ANSI_932
  9
$LASTSAVEDBY
  1
reiko.miyawaki
  9
$REQUIREDVERSIONS
160
                 0
  9
$INSBASE
 10
0.0
 20
0.0
 30
0.0
  9
$EXTMIN
 10
0.0
 20
0.0
 30
0.0
  9
$EXTMAX
 10
2520.0
 20
3540.0
 30
0.0
  9
$LIMMIN
 10
0.0
 20
0.0
  9
$LIMMAX
 10
297.0
 20
210.0
  9
$ORTHOMODE
 70
     0
  9
$REGENMODE
 70
     1
  9
$FILLMODE
 70
     0
  9
$QTEXTMODE
 70
     0
  9
$MIRRTEXT
 70
     1
  9
$LTSCALE
 40
100.0
  9
$ATTMODE
 70
     1
  9
$TEXTSIZE
 40
180.0
  9
$TRACEWID
 40
0.05
  9
$TEXTSTYLE
  7
STANDARD
  9
$CLAYER
  8
3
  9
$CELTYPE
  6
BYLAYER
  9
$CECOLOR
 62
   256
  9
$CELTSCALE
 40
1.0
  9
$DISPSILH
 70
     0
  9
$DIMSCALE
 40
12.0
  9
$DIMASZ
 40
2.0
  9
$DIMEXO
 40
0.5
  9
$DIMDLI
 40
10.0
  9
$DIMRND
 40
0.0
  9
$DIMDLE
 40
0.0
  9
$DIMEXE
 40
1.0
  9
$DIMTP
 40
1.0
  9
$DIMTM
 40
1.0
  9
$DIMTXT
 40
3.0
  9
$DIMCEN
 40
0.0
  9
$DIMTSZ
 40
0.0
  9
$DIMTOL
 70
     0
  9
$DIMLIM
 70
     0
  9
$DIMTIH
 70
     0
  9
$DIMTOH
 70
     0
  9
$DIMSE1
 70
     0
  9
$DIMSE2
 70
     0
  9
$DIMTAD
 70
     1
  9
$DIMZIN
 70
     8
  9
$DIMBLK
  1

  9
$DIMASO
 70
     1
  9
$DIMSHO
 70
     1
  9
$DIMPOST
  1
(<>)
  9
$DIMAPOST
  1

  9
$DIMALT
 70
     0
  9
$DIMALTD
 70
     2
  9
$DIMALTF
 40
0.039
  9
$DIMLFAC
 40
1.0
  9
$DIMTOFL
 70
     1
  9
$DIMTVP
 40
0.0
  9
$DIMTIX
 70
     0
  9
$DIMSOXD
 70
     0
  9
$DIMSAH
 70
     1
  9
$DIMBLK1
  1
OPEN
  9
$DIMBLK2
  1
OPEN
  9
$DIMSTYLE
  2
IGA
  9
$DIMCLRD
 70
     0
  9
$DIMCLRE
 70
     0
  9
$DIMCLRT
 70
     0
  9
$DIMTFAC
 40
10.0
  9
$DIMGAP
 40
1.0
  9
$DIMJUST
 70
     0
  9
$DIMSD1
 70
     0
  9
$DIMSD2
 70
     0
  9
$DIMTOLJ
 70
     1
  9
$DIMTZIN
 70
     8
  9
$DIMALTZ
 70
     0
  9
$DIMALTTZ
 70
     0
  9
$DIMUPT
 70
     0
  9
$DIMDEC
 70
     0
  9
$DIMTDEC
 70
     0
  9
$DIMALTU
 70
     2
  9
$DIMALTTD
 70
     2
  9
$DIMTXSTY
  7
STANDARD
  9
$DIMAUNIT
 70
     0
  9
$DIMADEC
 70
     0
  9
$DIMALTRND
 40
0.0
  9
$DIMAZIN
 70
     0
  9
$DIMDSEP
 70
    46
  9
$DIMATFIT
 70
     3
  9
$DIMFRAC
 70
     0
  9
$DIMLDRBLK
  1
OPEN
  9
$DIMLUNIT
 70
     2
  9
$DIMLWD
 70
    -2
  9
$DIMLWE
 70
    -2
  9
$DIMTMOVE
 70
     2
  9
$DIMFXL
 40
1.0
  9
$DIMFXLON
 70
     0
  9
$DIMJOGANG
 40
0.7853981633974483
  9
$DIMTFILL
 70
     0
  9
$DIMTFILLCLR
 70
     0
  9
$DIMARCSYM
 70
     0
  9
$DIMLTYPE
  6

  9
$DIMLTEX1
  6

  9
$DIMLTEX2
  6

  9
$DIMTXTDIRECTION
 70
     0
  9
$LUNITS
 70
     2
  9
$LUPREC
 70
     3
  9
$SKETCHINC
 40
0.1
  9
$FILLETRAD
 40
50.0
  9
$AUNITS
 70
     0
  9
$AUPREC
 70
     0
  9
$MENU
  1
acad
  9
$ELEVATION
 40
0.0
  9
$PELEVATION
 40
0.0
  9
$THICKNESS
 40
0.0
  9
$LIMCHECK
 70
     0
  9
$CHAMFERA
 40
0.5
  9
$CHAMFERB
 40
0.5
  9
$CHAMFERC
 40
20.0
  9
$CHAMFERD
 40
0.0
  9
$SKPOLY
 70
     0
  9
$TDCREATE
 40
2451936.451587269
  9
$TDUCREATE
 40
2451936.076587269
  9
$TDUPDATE
 40
2459024.485266574
  9
$TDUUPDATE
 40
2459024.110266574
  9
$TDINDWG
 40
0.1541061343
  9
$TDUSRTIMER
 40
0.1541061343
  9
$USRTIMER
 70
     1
  9
$ANGBASE
 50
0.0
  9
$ANGDIR
 70
     0
  9
$PDMODE
 70
     0
  9
$PDSIZE
 40
0.0
  9
$PLINEWID
 40
0.0
  9
$SPLFRAME
 70
     0
  9
$SPLINETYPE
 70
     6
  9
$SPLINESEGS
 70
     8
  9
$HANDSEED
  5
8415
  9
$SURFTAB1
 70
     6
  9
$SURFTAB2
 70
     6
  9
$SURFTYPE
 70
     6
  9
$SURFU
 70
     6
  9
$SURFV
 70
     6
  9
$UCSBASE
  2

  9
$UCSNAME
  2

  9
$UCSORG
 10
0.0
 20
0.0
 30
0.0
  9
$UCSXDIR
 10
1.0
 20
0.0
 30
0.0
  9
$UCSYDIR
 10
0.0
 20
1.0
 30
0.0
  9
$UCSORTHOREF
  2

  9
$UCSORTHOVIEW
 70
     0
  9
$UCSORGTOP
 10
0.0
 20
0.0
 30
0.0
  9
$UCSORGBOTTOM
 10
0.0
 20
0.0
 30
0.0
  9
$UCSORGLEFT
 10
0.0
 20
0.0
 30
0.0
  9
$UCSORGRIGHT
 10
0.0
 20
0.0
 30
0.0
  9
$UCSORGFRONT
 10
0.0
 20
0.0
 30
0.0
  9
$UCSORGBACK
 10
0.0
 20
0.0
 30
0.0
  9
$PUCSBASE
  2

  9
$PUCSNAME
  2

  9
$PUCSORG
 10
0.0
 20
0.0
 30
0.0
  9
$PUCSXDIR
 10
1.0
 20
0.0
 30
0.0
  9
$PUCSYDIR
 10
0.0
 20
1.0
 30
0.0
  9
$PUCSORTHOREF
  2

  9
$PUCSORTHOVIEW
 70
     0
  9
$PUCSORGTOP
 10
0.0
 20
0.0
 30
0.0
  9
$PUCSORGBOTTOM
 10
0.0
 20
0.0
 30
0.0
  9
$PUCSORGLEFT
 10
0.0
 20
0.0
 30
0.0
  9
$PUCSORGRIGHT
 10
0.0
 20
0.0
 30
0.0
  9
$PUCSORGFRONT
 10
0.0
 20
0.0
 30
0.0
  9
$PUCSORGBACK
 10
0.0
 20
0.0
 30
0.0
  9
$USERI1
 70
     0
  9
$USERI2
 70
     0
  9
$USERI3
 70
     0
  9
$USERI4
 70
     0
  9
$USERI5
 70
     0
  9
$USERR1
 40
0.0
  9
$USERR2
 40
0.0
  9
$USERR3
 40
0.0
  9
$USERR4
 40
0.0
  9
$USERR5
 40
0.0
  9
$WORLDVIEW
 70
     1
  9
$SHADEDGE
 70
     3
  9
$SHADEDIF
 70
    70
  9
$TILEMODE
 70
     1
  9
$MAXACTVP
 70
    16
  9
$PINSBASE
 10
0.0
 20
0.0
 30
0.0
  9
$PLIMCHECK
 70
     0
  9
$PEXTMIN
 10
1.000000000000000E+20
 20
1.000000000000000E+20
 30
1.000000000000000E+20
  9
$PEXTMAX
 10
-1.000000000000000E+20
 20
-1.000000000000000E+20
 30
-1.000000000000000E+20
  9
$PLIMMIN
 10
0.0
 20
0.0
  9
$PLIMMAX
 10
12.0
 20
9.0
  9
$UNITMODE
 70
     0
  9
$VISRETAIN
 70
     0
  9
$PLINEGEN
 70
     0
  9
$PSLTSCALE
 70
     1
  9
$TREEDEPTH
 70
  3020
  9
$CMLSTYLE
  2
STANDARD
  9
$CMLJUST
 70
     0
  9
$CMLSCALE
 40
20.0
  9
$PROXYGRAPHICS
 70
     1
  9
$MEASUREMENT
 70
     1
  9
$CELWEIGHT
370
    -1
  9
$ENDCAPS
280
     0
  9
$JOINSTYLE
280
     0
  9
$LWDISPLAY
290
     0
  9
$INSUNITS
 70
     0
  9
$HYPERLINKBASE
  1

  9
$STYLESHEET
  1

  9
$XEDIT
290
     1
  9
$CEPSNTYPE
380
     0
  9
$PSTYLEMODE
290
     1
  9
$FINGERPRINTGUID
  2
{0EF8E8D4-E284-479E-8D65-6616C47BB58E}
  9
$VERSIONGUID
  2
{052AE8DE-6546-43A4-A507-DF5DBFF61245}
  9
$EXTNAMES
290
     1
  9
$PSVPSCALE
 40
0.0
  9
$OLESTARTUP
290
     0
  9
$SORTENTS
280
   127
  9
$INDEXCTL
280
     0
  9
$HIDETEXT
280
     0
  9
$XCLIPFRAME
280
     2
  9
$HALOGAP
280
     0
  9
$OBSCOLOR
 70
   257
  9
$OBSLTYPE
280
     0
  9
$INTERSECTIONDISPLAY
280
     0
  9
$INTERSECTIONCOLOR
 70
   257
  9
$DIMASSOC
280
     1
  9
$PROJECTNAME
  1

  9
$CAMERADISPLAY
290
     0
  9
$LENSLENGTH
 40
50.0
  9
$CAMERAHEIGHT
 40
0.0
  9
$STEPSPERSEC
 40
2.0
  9
$STEPSIZE
 40
6.0
  9
$3DDWFPREC
 40
2.0
  9
$PSOLWIDTH
 40
0.25
  9
$PSOLHEIGHT
 40
4.0
  9
$LOFTANG1
 40
1.570796326794896
  9
$LOFTANG2
 40
1.570796326794896
  9
$LOFTMAG1
 40
0.0
  9
$LOFTMAG2
 40
0.0
  9
$LOFTPARAM
 70
     7
  9
$LOFTNORMALS
280
     1
  9
$LATITUDE
 40
37.795
  9
$LONGITUDE
 40
-122.394
  9
$NORTHDIRECTION
 40
0.0
  9
$TIMEZONE
 70
 -8000
  9
$LIGHTGLYPHDISPLAY
280
     1
  9
$TILEMODELIGHTSYNCH
280
     1
  9
$CMATERIAL
347
82EE
  9
$SOLIDHIST
280
     0
  9
$SHOWHIST
280
     1
  9
$DWFFRAME
280
     2
  9
$DGNFRAME
280
     0
  9
$REALWORLDSCALE
290
     1
  9
$INTERFERECOLOR
 62
     1
  9
$INTERFEREOBJVS
345
8310
  9
$INTERFEREVPVS
346
830D
  9
$CSHADOW
280
     0
  9
$SHADOWPLANELOCATION
 40
0.0
  0
ENDSEC
  0
SECTION
  2
CLASSES
  0
CLASS
  1
ACDBDICTIONARYWDFLT
  2
AcDbDictionaryWithDefault
  3
ObjectDBX Classes
 90
        0
 91
        1
280
     0
281
     0
  0
CLASS
  1
MATERIAL
  2
AcDbMaterial
  3
ObjectDBX Classes
 90
     1153
 91
        3
280
     0
281
     0
  0
CLASS
  1
VISUALSTYLE
  2
AcDbVisualStyle
  3
ObjectDBX Classes
 90
     4095
 91
       24
280
     0
281
     0
  0
CLASS
  1
TABLESTYLE
  2
AcDbTableStyle
  3
ObjectDBX Classes
 90
     4095
 91
        1
280
     0
281
     0
  0
CLASS
  1
SCALE
  2
AcDbScale
  3
ObjectDBX Classes
 90
     1153
 91
       17
280
     0
281
     0
  0
CLASS
  1
MLEADERSTYLE
  2
AcDbMLeaderStyle
  3
ACDB_MLEADERSTYLE_CLASS
 90
     4095
 91
        1
280
     0
281
     0
  0
CLASS
  1
ACDBSECTIONVIEWSTYLE
  2
AcDbSectionViewStyle
  3
ObjectDBX Classes
 90
     1025
 91
        1
280
     0
281
     0
  0
CLASS
  1
ACDBDETAILVIEWSTYLE
  2
AcDbDetailViewStyle
  3
ObjectDBX Classes
 90
     1025
 91
        1
280
     0
281
     0
  0
CLASS
  1
SORTENTSTABLE
  2
AcDbSortentsTable
  3
ObjectDBX Classes
 90
        0
 91
        1
280
     0
281
     0
  0
CLASS
  1
DICTIONARYVAR
  2
AcDbDictionaryVar
  3
ObjectDBX Classes
 90
        0
 91
        9
280
     0
281
     0
  0
CLASS
  1
CELLSTYLEMAP
  2
AcDbCellStyleMap
  3
ObjectDBX Classes
 90
     1152
 91
        1
280
     0
281
     0
  0
ENDSEC
  0
SECTION
  2
TABLES
  0
TABLE
  2
VPORT
  5
8
330
0
100
AcDbSymbolTable
 70
     1
  0
VPORT
  5
82EB
330
8
100
AcDbSymbolTableRecord
100
AcDbViewportTableRecord
  2
*Active
 70
     0
 10
0.0
 20
0.0
 11
1.0
 21
1.0
 12
1260.000017603069
 22
1854.74632484365
 13
0.0
 23
0.0
 14
10.0
 24
10.0
 15
10.0
 25
10.0
 16
0.0
 26
0.0
 36
1.0
 17
0.0
 27
0.0
 37
0.0
 40
3732.269387335591
 41
1.957107843137254
 42
50.0
 43
0.0
 44
0.0
 50
0.0
 51
0.0
 71
     0
 72
   100
 73
     1
 74
     0
 75
     0
 76
     0
 77
     0
 78
     0
281
     0
 65
     1
110
0.0
120
0.0
130
0.0
111
1.0
121
0.0
131
0.0
112
0.0
122
1.0
132
0.0
 79
     0
146
0.0
348
830C
 60
     3
 61
     5
292
     1
282
     1
141
0.0
142
0.0
 63
   250
421
  3355443
1001
ACAD_NAV_VCDISPLAY
1070
     3
  0
ENDTAB
  0
TABLE
  2
LTYPE
  5
5
330
0
100
AcDbSymbolTable
 70
     2
  0
LTYPE
  5
13
330
5
100
AcDbSymbolTableRecord
100
AcDbLinetypeTableRecord
  2
BYBLOCK
 70
     0
  3

 72
    65
 73
     0
 40
0.0
  0
LTYPE
  5
14
330
5
100
AcDbSymbolTableRecord
100
AcDbLinetypeTableRecord
  2
BYLAYER
 70
     0
  3

 72
    65
 73
     0
 40
0.0
  0
LTYPE
  5
15
330
5
100
AcDbSymbolTableRecord
100
AcDbLinetypeTableRecord
  2
CONTINUOUS
 70
     0
  3
Solid line
 72
    65
 73
     0
 40
0.0
  0
LTYPE
  5
1F
330
5
100
AcDbSymbolTableRecord
100
AcDbLinetypeTableRecord
  2
CENTER
 70
     0
  3
____ _ ____ _ ____ _ ____ _ ____ _ ____ _ ____ 
 72
    65
 73
     4
 40
2.0
 49
1.25
 74
     0
 49
-0.25
 74
     0
 49
0.25
 74
     0
 49
-0.25
 74
     0
  0
ENDTAB
  0
TABLE
  2
LAYER
  5
2
102
{ACAD_XDICTIONARY
360
8392
102
}
330
0
100
AcDbSymbolTable
 70
     6
  0
LAYER
  5
F
102
{ACAD_XDICTIONARY
360
8385
102
}
330
2
100
AcDbSymbolTableRecord
100
AcDbLayerTableRecord
  2
0
 70
     0
 62
     7
  6
CONTINUOUS
370
    -3
390
82DE
347
82FE
348
0
  0
LAYER
  5
31
102
{ACAD_XDICTIONARY
360
8387
102
}
330
2
100
AcDbSymbolTableRecord
100
AcDbLayerTableRecord
  2
3
 70
     0
 62
     2
  6
CONTINUOUS
370
    -3
390
82DE
347
82FE
348
0
  0
LAYER
  5
76D0
102
{ACAD_XDICTIONARY
360
8389
102
}
330
2
100
AcDbSymbolTableRecord
100
AcDbLayerTableRecord
  2
2
 70
     0
 62
     3
  6
CENTER
370
    -3
390
82DE
347
82FE
348
0
  0
LAYER
  5
76D1
102
{ACAD_XDICTIONARY
360
838B
102
}
330
2
100
AcDbSymbolTableRecord
100
AcDbLayerTableRecord
  2
1
 70
     0
 62
     4
  6
CONTINUOUS
370
    -3
390
82DE
347
82FE
348
0
  0
LAYER
  5
76D2
102
{ACAD_XDICTIONARY
360
838D
102
}
330
2
100
AcDbSymbolTableRecord
100
AcDbLayerTableRecord
  2
4
 70
     0
 62
     7
  6
CONTINUOUS
370
    -3
390
82DE
347
82FE
348
0
  0
LAYER
  5
7B0A
330
2
100
AcDbSymbolTableRecord
100
AcDbLayerTableRecord
  2
DEFPOINTS
 70
     0
 62
     7
  6
CONTINUOUS
290
     0
370
    -3
390
82DE
347
82FE
348
0
  0
ENDTAB
  0
TABLE
  2
STYLE
  5
3
330
0
100
AcDbSymbolTable
 70
     1
  0
STYLE
  5
10
330
3
100
AcDbSymbolTableRecord
100
AcDbTextStyleTableRecord
  2
STANDARD
 70
     0
 40
0.0
 41
1.0
 50
0.0
 71
     0
 42
180.0
  3
simplex.shx
  4
extfont.shx
  0
ENDTAB
  0
TABLE
  2
VIEW
  5
6
330
0
100
AcDbSymbolTable
 70
     0
  0
ENDTAB
  0
TABLE
  2
UCS
  5
7
330
0
100
AcDbSymbolTable
 70
     0
  0
ENDTAB
  0
TABLE
  2
APPID
  5
9
330
0
100
AcDbSymbolTable
 70
     4
  0
APPID
  5
11
330
9
100
AcDbSymbolTableRecord
100
AcDbRegAppTableRecord
  2
ACAD
 70
     0
  0
APPID
  5
8398
330
9
100
AcDbSymbolTableRecord
100
AcDbRegAppTableRecord
  2
ACAD_NAV_VCDISPLAY
 70
     0
  0
APPID
  5
83ED
330
9
100
AcDbSymbolTableRecord
100
AcDbRegAppTableRecord
  2
AcadAnnoMonitorAlertIconDisabled
 70
     0
  0
APPID
  5
83EE
330
9
100
AcDbSymbolTableRecord
100
AcDbRegAppTableRecord
  2
ACAD_EXEMPT_FROM_CAD_STANDARDS
 70
     0
  0
ENDTAB
  0
TABLE
  2
DIMSTYLE
  5
A
330
0
100
AcDbSymbolTable
 70
     1
100
AcDbDimStyleTable
 71
     1
340
1D
  0
DIMSTYLE
105
1D
102
{ACAD_REACTORS
330
7C93
330
7C94
330
7C97
330
7CC2
330
7CC3
330
7CC4
330
7CC5
330
7CC6
330
7CC7
330
7CC8
330
7CC9
330
7CCD
330
824F
330
825C
330
8269
330
8278
330
82A2
330
82CD
330
82DA
102
}
330
A
100
AcDbSymbolTableRecord
100
AcDbDimStyleTableRecord
  2
IGA
 70
     0
 40
2.0
 41
2.0
 42
0.5
 43
10.0
 44
1.0
 47
1.0
 48
1.0
 73
     0
 74
     0
 77
     1
 78
     8
140
3.0
141
0.0
143
0.03937
146
10.0
147
1.0
173
     1
271
     1
272
     0
279
     2
284
     8
340
10
341
79FC
343
79FC
344
79FC
  0
ENDTAB
  0
TABLE
  2
BLOCK_RECORD
  5
1
330
0
100
AcDbSymbolTable
 70
    21
  0
BLOCK_RECORD
  5
19
102
{ACAD_XDICTIONARY
360
833E
102
}
330
1
100
AcDbSymbolTableRecord
100
AcDbBlockTableRecord
  2
*MODEL_SPACE
340
82E1
 70
     0
280
     1
281
     0
  0
BLOCK_RECORD
  5
16
330
1
100
AcDbSymbolTableRecord
100
AcDbBlockTableRecord
  2
*PAPER_SPACE
340
82E2
 70
     0
280
     1
281
     0
  0
BLOCK_RECORD
  5
79FC
330
1
100
AcDbSymbolTableRecord
100
AcDbBlockTableRecord
  2
_OPEN
340
0
102
{BLKREFS
331
7F5B
331
7F5C
331
7FC5
331
7FC6
331
7FDB
331
7FDC
331
8044
331
8045
331
805B
331
805C
331
8067
331
8068
331
813F
331
8140
331
815C
331
815D
331
81CD
331
81CE
331
81D9
331
81DA
331
81FE
331
81FF
331
8343
331
8344
331
834C
331
834D
331
8355
331
8356
331
8360
331
8361
331
837F
331
8380
331
83BA
331
83C4
331
83FC
331
83FD
102
}
 70
     0
280
     1
281
     0
  0
BLOCK_RECORD
  5
7A02
330
1
100
AcDbSymbolTableRecord
100
AcDbBlockTableRecord
  2
_DOT
340
0
102
{BLKREFS
331
83B9
331
83C3
102
}
 70
     0
280
     1
281
     0
  0
BLOCK_RECORD
  5
7D4F
330
1
100
AcDbSymbolTableRecord
100
AcDbBlockTableRecord
  2
*D2
340
0
 70
     0
280
     1
281
     0
  0
BLOCK_RECORD
  5
7D5B
330
1
100
AcDbSymbolTableRecord
100
AcDbBlockTableRecord
  2
*D3
340
0
 70
     0
280
     1
281
     0
  0
BLOCK_RECORD
  5
7D67
330
1
100
AcDbSymbolTableRecord
100
AcDbBlockTableRecord
  2
*D4
340
0
 70
     0
280
     1
281
     0
  0
BLOCK_RECORD
  5
7D8D
330
1
100
AcDbSymbolTableRecord
100
AcDbBlockTableRecord
  2
*D5
340
0
 70
     0
280
     1
281
     0
  0
BLOCK_RECORD
  5
7D99
330
1
100
AcDbSymbolTableRecord
100
AcDbBlockTableRecord
  2
*D6
340
0
 70
     0
280
     1
281
     0
  0
BLOCK_RECORD
  5
7DA4
330
1
100
AcDbSymbolTableRecord
100
AcDbBlockTableRecord
  2
*D7
340
0
 70
     0
280
     1
281
     0
  0
BLOCK_RECORD
  5
7DB0
330
1
100
AcDbSymbolTableRecord
100
AcDbBlockTableRecord
  2
*D8
340
0
 70
     0
280
     1
281
     0
  0
BLOCK_RECORD
  5
7DBC
330
1
100
AcDbSymbolTableRecord
100
AcDbBlockTableRecord
  2
*D9
340
0
 70
     0
280
     1
281
     0
  0
BLOCK_RECORD
  5
7DC8
330
1
100
AcDbSymbolTableRecord
100
AcDbBlockTableRecord
  2
*D10
340
0
 70
     0
280
     1
281
     0
  0
BLOCK_RECORD
  5
7DD4
330
1
100
AcDbSymbolTableRecord
100
AcDbBlockTableRecord
  2
*D11
340
0
 70
     0
280
     1
281
     0
  0
BLOCK_RECORD
  5
7DE0
330
1
100
AcDbSymbolTableRecord
100
AcDbBlockTableRecord
  2
*D12
340
0
 70
     0
280
     1
281
     0
  0
BLOCK_RECORD
  5
7E0E
330
1
100
AcDbSymbolTableRecord
100
AcDbBlockTableRecord
  2
*D13
340
0
 70
     0
280
     1
281
     0
  0
BLOCK_RECORD
  5
8243
330
1
100
AcDbSymbolTableRecord
100
AcDbBlockTableRecord
  2
*D14
340
0
 70
     0
280
     1
281
     0
  0
BLOCK_RECORD
  5
8250
330
1
100
AcDbSymbolTableRecord
100
AcDbBlockTableRecord
  2
*D15
340
0
 70
     0
280
     1
281
     0
  0
BLOCK_RECORD
  5
825D
330
1
100
AcDbSymbolTableRecord
100
AcDbBlockTableRecord
  2
*D16
340
0
 70
     0
280
     1
281
     0
  0
BLOCK_RECORD
  5
826A
330
1
100
AcDbSymbolTableRecord
100
AcDbBlockTableRecord
  2
*D17
340
0
 70
     0
280
     1
281
     0
  0
BLOCK_RECORD
  5
8294
330
1
100
AcDbSymbolTableRecord
100
AcDbBlockTableRecord
  2
*D18
340
0
 70
     0
280
     1
281
     0
  0
BLOCK_RECORD
  5
82C1
330
1
100
AcDbSymbolTableRecord
100
AcDbBlockTableRecord
  2
*D19
340
0
 70
     0
280
     1
281
     0
  0
BLOCK_RECORD
  5
82CE
330
1
100
AcDbSymbolTableRecord
100
AcDbBlockTableRecord
  2
*D20
340
0
 70
     0
280
     1
281
     0
  0
ENDTAB
  0
ENDSEC
  0
SECTION
  2
BLOCKS
  0
BLOCK
  5
1A
330
19
100
AcDbEntity
  8
0
100
AcDbBlockBegin
  2
*MODEL_SPACE
 70
     0
 10
0.0
 20
0.0
 30
0.0
  3
*MODEL_SPACE
  1

  0
ENDBLK
  5
1B
330
19
100
AcDbEntity
  8
0
100
AcDbBlockEnd
  0
BLOCK
  5
17
330
16
100
AcDbEntity
 67
     1
  8
0
100
AcDbBlockBegin
  2
*PAPER_SPACE
 70
     0
 10
0.0
 20
0.0
 30
0.0
  3
*PAPER_SPACE
  1

  0
ENDBLK
  5
18
330
16
100
AcDbEntity
 67
     1
  8
0
100
AcDbBlockEnd
  0
BLOCK
  5
7A00
330
79FC
100
AcDbEntity
  8
0
100
AcDbBlockBegin
  2
_OPEN
 70
     0
 10
0.0
 20
0.0
 30
0.0
  3
_OPEN
  1

  0
LINE
  5
79FD
330
79FC
100
AcDbEntity
  8
0
  6
ByBlock
 62
     0
100
AcDbLine
 10
-1.0
 20
0.1666666666666666
 30
0.0
 11
0.0
 21
0.0
 31
0.0
  0
LINE
  5
79FE
330
79FC
100
AcDbEntity
  8
0
  6
ByBlock
 62
     0
100
AcDbLine
 10
0.0
 20
0.0
 30
0.0
 11
-1.0
 21
-0.1666666666666666
 31
0.0
  0
LINE
  5
79FF
330
79FC
100
AcDbEntity
  8
0
  6
ByBlock
 62
     0
100
AcDbLine
 10
0.0
 20
0.0
 30
0.0
 11
-1.0
 21
0.0
 31
0.0
  0
ENDBLK
  5
7A01
330
79FC
100
AcDbEntity
  8
0
100
AcDbBlockEnd
  0
BLOCK
  5
7A08
330
7A02
100
AcDbEntity
  8
0
100
AcDbBlockBegin
  2
_DOT
 70
     0
 10
0.0
 20
0.0
 30
0.0
  3
_DOT
  1

  0
LINE
  5
814A
330
7A02
100
AcDbEntity
  8
0
  6
ByBlock
 62
     0
100
AcDbLine
 10
0.0
 20
0.0
 30
0.0
 11
-1.0
 21
-0.0000000000000284
 31
0.0
  0
LWPOLYLINE
  5
814B
330
7A02
100
AcDbEntity
  8
0
  6
ByBlock
 62
     0
100
AcDbPolyline
 90
        2
 70
     1
 43
0.1666666666666666
 10
-0.0833333333333286
 20
-0.0000000000000284
 42
1.0
 10
0.0833333333333286
 20
-0.0000000000000284
 42
1.0
  0
ENDBLK
  5
7A09
330
7A02
100
AcDbEntity
  8
0
100
AcDbBlockEnd
  0
BLOCK
  5
7FD7
330
7D4F
100
AcDbEntity
  8
0
100
AcDbBlockBegin
  2
*D2
 70
     1
 10
0.0
 20
0.0
 30
0.0
  3
*D2
  1

  0
LINE
  5
7FD8
330
7D4F
100
AcDbEntity
  8
0
  6
ByBlock
 62
     0
440
 16777216
100
AcDbLine
 10
817.732583586458
 20
1437.252194070071
 30
0.0
 11
817.732583586458
 21
1489.71042395946
 31
0.0
  0
LINE
  5
7FD9
330
7D4F
100
AcDbEntity
  8
0
  6
ByBlock
 62
     0
440
 16777216
100
AcDbLine
 10
1017.732583586458
 20
1437.252194070071
 30
0.0
 11
1017.732583586458
 21
1489.71042395946
 31
0.0
  0
LINE
  5
7FDA
330
7D4F
100
AcDbEntity
  8
0
  6
ByBlock
 62
     0
440
 16777216
100
AcDbLine
 10
841.7325835864581
 20
1477.71042395946
 30
0.0
 11
993.732583586458
 21
1477.71042395946
 31
0.0
  0
INSERT
  5
7FDB
330
7D4F
100
AcDbEntity
  8
0
  6
ByBlock
 62
     0
440
 16777216
100
AcDbBlockReference
  2
_OPEN
 10
817.732583586458
 20
1477.71042395946
 30
0.0
 41
24.0
 42
24.0
 43
24.0
 50
180.0
  0
INSERT
  5
7FDC
330
7D4F
100
AcDbEntity
  8
0
  6
ByBlock
 62
     0
440
 16777216
100
AcDbBlockReference
  2
_OPEN
 10
1017.732583586458
 20
1477.71042395946
 30
0.0
 41
24.0
 42
24.0
 43
24.0
  0
MTEXT
  5
7FDD
330
7D4F
100
AcDbEntity
  8
0
  6
ByBlock
 62
     0
440
 16777216
100
AcDbMText
 10
917.732583586458
 20
1507.71042395946
 30
0.0
 40
36.0
 41
0.0
 46
0.0
 71
     5
 72
     5
  1
\A1;200
 73
     1
 44
1.0
  0
POINT
  5
7FDE
330
7D4F
100
AcDbEntity
  8
DEFPOINTS
  6
ByBlock
 62
     0
440
 16777216
100
AcDbPoint
 10
817.732583586458
 20
1431.252194070071
 30
0.0
  0
POINT
  5
7FDF
330
7D4F
100
AcDbEntity
  8
DEFPOINTS
  6
ByBlock
 62
     0
440
 16777216
100
AcDbPoint
 10
1017.732583586458
 20
1431.252194070071
 30
0.0
  0
POINT
  5
7FE0
330
7D4F
100
AcDbEntity
  8
DEFPOINTS
  6
ByBlock
 62
     0
440
 16777216
100
AcDbPoint
 10
1017.732583586458
 20
1477.71042395946
 30
0.0
  0
ENDBLK
  5
7FE1
330
7D4F
100
AcDbEntity
  8
0
100
AcDbBlockEnd
  0
BLOCK
  5
8057
330
7D5B
100
AcDbEntity
  8
0
100
AcDbBlockBegin
  2
*D3
 70
     1
 10
0.0
 20
0.0
 30
0.0
  3
*D3
  1

  0
LINE
  5
8058
330
7D5B
100
AcDbEntity
  8
0
  6
ByBlock
 62
     0
440
 16777216
100
AcDbLine
 10
818.7325835864578
 20
1437.616596194241
 30
0.0
 11
818.7325835864578
 21
1554.844626500134
 31
0.0
  0
LINE
  5
8059
330
7D5B
100
AcDbEntity
  8
0
  6
ByBlock
 62
     0
440
 16777216
100
AcDbLine
 10
1017.732583586458
 20
1437.252194070071
 30
0.0
 11
1017.732583586458
 21
1554.844626500134
 31
0.0
  0
LINE
  5
805A
330
7D5B
100
AcDbEntity
  8
0
  6
ByBlock
 62
     0
440
 16777216
100
AcDbLine
 10
842.7325835864579
 20
1542.844626500134
 30
0.0
 11
993.732583586458
 21
1542.844626500134
 31
0.0
  0
INSERT
  5
805B
330
7D5B
100
AcDbEntity
  8
0
  6
ByBlock
 62
     0
440
 16777216
100
AcDbBlockReference
  2
_OPEN
 10
818.7325835864578
 20
1542.844626500134
 30
0.0
 41
24.0
 42
24.0
 43
24.0
 50
180.0
  0
INSERT
  5
805C
330
7D5B
100
AcDbEntity
  8
0
  6
ByBlock
 62
     0
440
 16777216
100
AcDbBlockReference
  2
_OPEN
 10
1017.732583586458
 20
1542.844626500134
 30
0.0
 41
24.0
 42
24.0
 43
24.0
  0
MTEXT
  5
805D
330
7D5B
100
AcDbEntity
  8
0
  6
ByBlock
 62
     0
440
 16777216
100
AcDbMText
 10
918.2325835864579
 20
1572.844626500134
 30
0.0
 40
36.0
 41
0.0
 46
0.0
 71
     5
 72
     5
  1
\A1;199
 73
     1
 44
1.0
  0
POINT
  5
805E
330
7D5B
100
AcDbEntity
  8
DEFPOINTS
  6
ByBlock
 62
     0
440
 16777216
100
AcDbPoint
 10
818.7325835864578
 20
1431.616596194241
 30
0.0
  0
POINT
  5
805F
330
7D5B
100
AcDbEntity
  8
DEFPOINTS
  6
ByBlock
 62
     0
440
 16777216
100
AcDbPoint
 10
1017.732583586458
 20
1431.252194070071
 30
0.0
  0
POINT
  5
8060
330
7D5B
100
AcDbEntity
  8
DEFPOINTS
  6
ByBlock
 62
     0
440
 16777216
100
AcDbPoint
 10
1017.732583586458
 20
1542.844626500134
 30
0.0
  0
ENDBLK
  5
8061
330
7D5B
100
AcDbEntity
  8
0
100
AcDbBlockEnd
  0
BLOCK
  5
7FC1
330
7D67
100
AcDbEntity
  8
0
100
AcDbBlockBegin
  2
*D4
 70
     1
 10
0.0
 20
0.0
 30
0.0
  3
*D4
  1

  0
LINE
  5
7FC2
330
7D67
100
AcDbEntity
  8
0
  6
ByBlock
 62
     0
440
 16777216
100
AcDbLine
 10
627.3681814622873
 20
1246.25219407007
 30
0.0
 11
526.5392217033295
 21
1246.25219407007
 31
0.0
  0
LINE
  5
7FC3
330
7D67
100
AcDbEntity
  8
0
  6
ByBlock
 62
     0
440
 16777216
100
AcDbLine
 10
637.7325835864581
 20
986.2521940700704
 30
0.0
 11
526.5392217033295
 21
986.2521940700704
 31
0.0
  0
LINE
  5
7FC4
330
7D67
100
AcDbEntity
  8
0
  6
ByBlock
 62
     0
440
 16777216
100
AcDbLine
 10
538.5392217033295
 20
1222.25219407007
 30
0.0
 11
538.5392217033295
 21
1010.25219407007
 31
0.0
  0
INSERT
  5
7FC5
330
7D67
100
AcDbEntity
  8
0
  6
ByBlock
 62
     0
440
 16777216
100
AcDbBlockReference
  2
_OPEN
 10
538.5392217033295
 20
1246.25219407007
 30
0.0
 41
24.0
 42
24.0
 43
24.0
 50
90.0
  0
INSERT
  5
7FC6
330
7D67
100
AcDbEntity
  8
0
  6
ByBlock
 62
     0
440
 16777216
100
AcDbBlockReference
  2
_OPEN
 10
538.5392217033295
 20
986.2521940700704
 30
0.0
 41
24.0
 42
24.0
 43
24.0
 50
270.0
  0
MTEXT
  5
7FC7
330
7D67
100
AcDbEntity
  8
0
  6
ByBlock
 62
     0
440
 16777216
100
AcDbMText
 10
508.5392217033295
 20
1116.25219407007
 30
0.0
 40
36.0
 41
0.0
 46
0.0
 71
     5
 72
     5
  1
\A1;260
 11
0.0
 21
1.0
 31
0.0
 73
     1
 44
1.0
  0
POINT
  5
7FC8
330
7D67
100
AcDbEntity
  8
DEFPOINTS
  6
ByBlock
 62
     0
440
 16777216
100
AcDbPoint
 10
633.3681814622873
 20
1246.25219407007
 30
0.0
  0
POINT
  5
7FC9
330
7D67
100
AcDbEntity
  8
DEFPOINTS
  6
ByBlock
 62
     0
440
 16777216
100
AcDbPoint
 10
643.732583586458
 20
986.2521940700704
 30
0.0
  0
POINT
  5
7FCA
330
7D67
100
AcDbEntity
  8
DEFPOINTS
  6
ByBlock
 62
     0
440
 16777216
100
AcDbPoint
 10
538.5392217033295
 20
986.2521940700704
 30
0.0
  0
ENDBLK
  5
7FCB
330
7D67
100
AcDbEntity
  8
0
100
AcDbBlockEnd
  0
BLOCK
  5
8157
330
7D8D
100
AcDbEntity
  8
0
100
AcDbBlockBegin
  2
*D5
 70
     1
 10
0.0
 20
0.0
 30
0.0
  3
*D5
  1

  0
LINE
  5
8158
330
7D8D
100
AcDbEntity
  8
0
  6
ByBlock
 62
     0
440
 16777216
100
AcDbLine
 10
2133.189439663241
 20
1382.513059168599
 30
0.0
 11
2133.189439663241
 21
1571.598463243454
 31
0.0
  0
LINE
  5
8159
330
7D8D
100
AcDbEntity
  8
0
  6
ByBlock
 62
     0
440
 16777216
100
AcDbLine
 10
2056.189439663242
 20
1528.041553322083
 30
0.0
 11
2056.189439663242
 21
1571.598463243454
 31
0.0
  0
LINE
  5
815A
330
7D8D
100
AcDbEntity
  8
0
  6
ByBlock
 62
     0
440
 16777216
100
AcDbLine
 10
2109.189439663241
 20
1559.598463243454
 30
0.0
 11
2080.189439663242
 21
1559.598463243454
 31
0.0
  0
MTEXT
  5
815B
330
7D8D
100
AcDbEntity
  8
0
  6
ByBlock
 62
     0
440
 16777216
100
AcDbMText
 10
2101.013696871103
 20
1590.746849246951
 30
0.0
 40
36.0
 41
0.0
 46
0.0
 71
     5
 72
     5
  1
\A1;79
 73
     1
 44
1.0
  0
INSERT
  5
815C
330
7D8D
100
AcDbEntity
  8
0
  6
ByBlock
 62
     0
440
 16777216
100
AcDbBlockReference
  2
_OPEN
 10
2133.189439663241
 20
1559.598463243454
 30
0.0
 41
24.0
 42
24.0
 43
24.0
  0
INSERT
  5
815D
330
7D8D
100
AcDbEntity
  8
0
  6
ByBlock
 62
     0
440
 16777216
100
AcDbBlockReference
  2
_OPEN
 10
2056.189439663242
 20
1559.598463243454
 30
0.0
 41
24.0
 42
24.0
 43
24.0
 50
180.0
  0
POINT
  5
815E
330
7D8D
100
AcDbEntity
  8
DEFPOINTS
  6
ByBlock
 62
     0
440
 16777216
100
AcDbPoint
 10
2133.189439663241
 20
1376.513059168599
 30
0.0
  0
POINT
  5
815F
330
7D8D
100
AcDbEntity
  8
DEFPOINTS
  6
ByBlock
 62
     0
440
 16777216
100
AcDbPoint
 10
2056.189439663242
 20
1522.041553322083
 30
0.0
  0
POINT
  5
8160
330
7D8D
100
AcDbEntity
  8
DEFPOINTS
  6
ByBlock
 62
     0
440
 16777216
100
AcDbPoint
 10
2056.189439663242
 20
1559.598463243454
 30
0.0
  0
ENDBLK
  5
8161
330
7D8D
100
AcDbEntity
  8
0
100
AcDbBlockEnd
  0
BLOCK
  5
8130
330
7D99
100
AcDbEntity
  8
0
100
AcDbBlockBegin
  2
*D6
 70
     1
 10
0.0
 20
0.0
 30
0.0
  3
*D6
  1

  0
LINE
  5
83F9
330
7D99
100
AcDbEntity
  8
3
 62
     0
440
 16777216
370
    -2
100
AcDbLine
 10
2056.189439663242
 20
1528.041553322083
 30
0.0
 11
2056.189439663242
 21
1571.598463243454
 31
0.0
  0
LINE
  5
83FA
330
7D99
100
AcDbEntity
  8
3
 62
     0
440
 16777216
370
    -2
100
AcDbLine
 10
1623.18943966324
 20
1332.344253043448
 30
0.0
 11
1623.18943966324
 21
1571.598463243454
 31
0.0
  0
LINE
  5
83FB
330
7D99
100
AcDbEntity
  8
3
 62
     0
440
 16777216
370
    -2
100
AcDbLine
 10
2032.189439663242
 20
1559.598463243454
 30
0.0
 11
1647.189439663241
 21
1559.598463243454
 31
0.0
  0
INSERT
  5
83FC
330
7D99
100
AcDbEntity
  8
3
 62
     0
440
 16777216
370
    -2
100
AcDbBlockReference
  2
_OPEN
 10
2056.189439663242
 20
1559.598463243454
 30
0.0
 41
24.0
 42
24.0
 43
24.0
  0
INSERT
  5
83FD
330
7D99
100
AcDbEntity
  8
3
 62
     0
440
 16777216
370
    -2
100
AcDbBlockReference
  2
_OPEN
 10
1623.18943966324
 20
1559.598463243454
 30
0.0
 41
24.0
 42
24.0
 43
24.0
 50
180.0
  0
MTEXT
  5
83FE
330
7D99
100
AcDbEntity
  8
3
 62
     0
440
 16777216
100
AcDbMText
 10
1839.689439663241
 20
1629.027034672025
 30
0.0
 40
36.0
 41
0.0
 46
0.0
 71
     5
 72
     1
  1
\A1;\P(520)
 73
     1
 44
1.0
  0
POINT
  5
83FF
330
7D99
100
AcDbEntity
  8
DEFPOINTS
 62
     0
440
 16777216
100
AcDbPoint
 10
2056.189439663242
 20
1522.041553322083
 30
0.0
  0
POINT
  5
8400
330
7D99
100
AcDbEntity
  8
DEFPOINTS
 62
     0
440
 16777216
100
AcDbPoint
 10
1623.18943966324
 20
1326.344253043448
 30
0.0
  0
POINT
  5
8401
330
7D99
100
AcDbEntity
  8
DEFPOINTS
 62
     0
440
 16777216
100
AcDbPoint
 10
1623.18943966324
 20
1559.598463243454
 30
0.0
  0
ENDBLK
  5
813A
330
7D99
100
AcDbEntity
  8
0
100
AcDbBlockEnd
  0
BLOCK
  5
81F9
330
7DA4
100
AcDbEntity
  8
0
100
AcDbBlockBegin
  2
*D7
 70
     1
 10
0.0
 20
0.0
 30
0.0
  3
*D7
  1

  0
LINE
  5
81FA
330
7DA4
100
AcDbEntity
  8
0
  6
ByBlock
 62
     0
440
 16777216
100
AcDbLine
 10
1981.189439663241
 20
1417.252194070071
 30
0.0
 11
1981.189439663241
 21
1475.873885511944
 31
0.0
  0
LINE
  5
81FB
330
7DA4
100
AcDbEntity
  8
0
  6
ByBlock
 62
     0
440
 16777216
100
AcDbLine
 10
2131.18943966324
 20
1417.25219407007
 30
0.0
 11
2131.18943966324
 21
1475.873885511944
 31
0.0
  0
LINE
  5
81FC
330
7DA4
100
AcDbEntity
  8
0
  6
ByBlock
 62
     0
440
 16777216
100
AcDbLine
 10
2005.189439663241
 20
1463.873885511944
 30
0.0
 11
2107.18943966324
 21
1463.873885511944
 31
0.0
  0
MTEXT
  5
81FD
330
7DA4
100
AcDbEntity
  8
0
  6
ByBlock
 62
     0
440
 16777216
100
AcDbMText
 10
2058.302632301135
 20
1492.877514232056
 30
0.0
 40
36.0
 41
0.0
 46
0.0
 71
     5
 72
     5
  1
\A1;150
 73
     1
 44
1.0
  0
INSERT
  5
81FE
330
7DA4
100
AcDbEntity
  8
0
  6
ByBlock
 62
     0
440
 16777216
100
AcDbBlockReference
  2
_OPEN
 10
1981.189439663241
 20
1463.873885511944
 30
0.0
 41
24.0
 42
24.0
 43
24.0
 50
180.0
  0
INSERT
  5
81FF
330
7DA4
100
AcDbEntity
  8
0
  6
ByBlock
 62
     0
440
 16777216
100
AcDbBlockReference
  2
_OPEN
 10
2131.18943966324
 20
1463.873885511944
 30
0.0
 41
24.0
 42
24.0
 43
24.0
  0
POINT
  5
8200
330
7DA4
100
AcDbEntity
  8
DEFPOINTS
  6
ByBlock
 62
     0
440
 16777216
100
AcDbPoint
 10
1981.189439663241
 20
1411.252194070071
 30
0.0
  0
POINT
  5
8201
330
7DA4
100
AcDbEntity
  8
DEFPOINTS
  6
ByBlock
 62
     0
440
 16777216
100
AcDbPoint
 10
2131.18943966324
 20
1411.25219407007
 30
0.0
  0
POINT
  5
8202
330
7DA4
100
AcDbEntity
  8
DEFPOINTS
  6
ByBlock
 62
     0
440
 16777216
100
AcDbPoint
 10
2131.18943966324
 20
1463.873885511944
 30
0.0
  0
ENDBLK
  5
8203
330
7DA4
100
AcDbEntity
  8
0
100
AcDbBlockEnd
  0
BLOCK
  5
813B
330
7DB0
100
AcDbEntity
  8
0
100
AcDbBlockBegin
  2
*D8
 70
     1
 10
0.0
 20
0.0
 30
0.0
  3
*D8
  1

  0
LINE
  5
813C
330
7DB0
100
AcDbEntity
  8
0
  6
ByBlock
 62
     0
440
 16777216
100
AcDbLine
 10
2160.189439663241
 20
1356.338287957329
 30
0.0
 11
2247.20647952708
 21
1356.338287957329
 31
0.0
  0
LINE
  5
813D
330
7DB0
100
AcDbEntity
  8
0
  6
ByBlock
 62
     0
440
 16777216
100
AcDbLine
 10
2160.189439663241
 20
1136.338287957329
 30
0.0
 11
2247.20647952708
 21
1136.338287957329
 31
0.0
  0
LINE
  5
813E
330
7DB0
100
AcDbEntity
  8
0
  6
ByBlock
 62
     0
440
 16777216
100
AcDbLine
 10
2235.20647952708
 20
1332.338287957329
 30
0.0
 11
2235.20647952708
 21
1160.338287957329
 31
0.0
  0
INSERT
  5
813F
330
7DB0
100
AcDbEntity
  8
0
  6
ByBlock
 62
     0
440
 16777216
100
AcDbBlockReference
  2
_OPEN
 10
2235.20647952708
 20
1356.338287957329
 30
0.0
 41
24.0
 42
24.0
 43
24.0
 50
90.0
  0
INSERT
  5
8140
330
7DB0
100
AcDbEntity
  8
0
  6
ByBlock
 62
     0
440
 16777216
100
AcDbBlockReference
  2
_OPEN
 10
2235.20647952708
 20
1136.338287957329
 30
0.0
 41
24.0
 42
24.0
 43
24.0
 50
270.0
  0
MTEXT
  5
8141
330
7DB0
100
AcDbEntity
  8
0
  6
ByBlock
 62
     0
440
 16777216
100
AcDbMText
 10
2205.20647952708
 20
1246.338287957329
 30
0.0
 40
36.0
 41
0.0
 46
0.0
 71
     5
 72
     5
  1
\A1;φ220
 11
0.0
 21
1.0
 31
0.0
 73
     1
 44
1.0
  0
POINT
  5
8142
330
7DB0
100
AcDbEntity
  8
DEFPOINTS
  6
ByBlock
 62
     0
440
 16777216
100
AcDbPoint
 10
2154.189439663241
 20
1356.338287957329
 30
0.0
  0
POINT
  5
8143
330
7DB0
100
AcDbEntity
  8
DEFPOINTS
  6
ByBlock
 62
     0
440
 16777216
100
AcDbPoint
 10
2154.189439663241
 20
1136.338287957329
 30
0.0
  0
POINT
  5
8144
330
7DB0
100
AcDbEntity
  8
DEFPOINTS
  6
ByBlock
 62
     0
440
 16777216
100
AcDbPoint
 10
2235.20647952708
 20
1136.338287957329
 30
0.0
  0
ENDBLK
  5
8145
330
7DB0
100
AcDbEntity
  8
0
100
AcDbBlockEnd
  0
BLOCK
  5
81C9
330
7DBC
100
AcDbEntity
  8
0
100
AcDbBlockBegin
  2
*D9
 70
     1
 10
0.0
 20
0.0
 30
0.0
  3
*D9
  1

  0
LINE
  5
81CA
330
7DBC
100
AcDbEntity
  8
0
  6
ByBlock
 62
     0
440
 16777216
100
AcDbLine
 10
637.7325835864581
 20
2320.62394900355
 30
0.0
 11
520.6219975146373
 21
2320.62394900355
 31
0.0
  0
LINE
  5
81CB
330
7DBC
100
AcDbEntity
  8
0
  6
ByBlock
 62
     0
440
 16777216
100
AcDbLine
 10
637.7325835864581
 20
1940.623949003551
 30
0.0
 11
520.6219975146373
 21
1940.623949003551
 31
0.0
  0
LINE
  5
81CC
330
7DBC
100
AcDbEntity
  8
0
  6
ByBlock
 62
     0
440
 16777216
100
AcDbLine
 10
532.6219975146373
 20
2296.623949003551
 30
0.0
 11
532.6219975146373
 21
1964.623949003551
 31
0.0
  0
INSERT
  5
81CD
330
7DBC
100
AcDbEntity
  8
0
  6
ByBlock
 62
     0
440
 16777216
100
AcDbBlockReference
  2
_OPEN
 10
532.6219975146373
 20
2320.62394900355
 30
0.0
 41
24.0
 42
24.0
 43
24.0
 50
90.0
  0
INSERT
  5
81CE
330
7DBC
100
AcDbEntity
  8
0
  6
ByBlock
 62
     0
440
 16777216
100
AcDbBlockReference
  2
_OPEN
 10
532.6219975146373
 20
1940.623949003551
 30
0.0
 41
24.0
 42
24.0
 43
24.0
 50
270.0
  0
MTEXT
  5
81CF
330
7DBC
100
AcDbEntity
  8
0
  6
ByBlock
 62
     0
440
 16777216
100
AcDbMText
 10
502.6219975146373
 20
2130.623949003551
 30
0.0
 40
36.0
 41
0.0
 46
0.0
 71
     5
 72
     5
  1
\A1;380
 11
0.0
 21
1.0
 31
0.0
 73
     1
 44
1.0
  0
POINT
  5
81D0
330
7DBC
100
AcDbEntity
  8
DEFPOINTS
  6
ByBlock
 62
     0
440
 16777216
100
AcDbPoint
 10
643.732583586458
 20
2320.62394900355
 30
0.0
  0
POINT
  5
81D1
330
7DBC
100
AcDbEntity
  8
DEFPOINTS
  6
ByBlock
 62
     0
440
 16777216
100
AcDbPoint
 10
643.732583586458
 20
1940.623949003551
 30
0.0
  0
POINT
  5
81D2
330
7DBC
100
AcDbEntity
  8
DEFPOINTS
  6
ByBlock
 62
     0
440
 16777216
100
AcDbPoint
 10
532.6219975146373
 20
1940.623949003551
 30
0.0
  0
ENDBLK
  5
81D3
330
7DBC
100
AcDbEntity
  8
0
100
AcDbBlockEnd
  0
BLOCK
  5
81D5
330
7DC8
100
AcDbEntity
  8
0
100
AcDbBlockBegin
  2
*D10
 70
     1
 10
0.0
 20
0.0
 30
0.0
  3
*D10
  1

  0
LINE
  5
81D6
330
7DC8
100
AcDbEntity
  8
0
  6
ByBlock
 62
     0
440
 16777216
100
AcDbLine
 10
1263.732583586457
 20
2326.62394900355
 30
0.0
 11
1263.732583586457
 21
2524.257987863627
 31
0.0
  0
LINE
  5
81D7
330
7DC8
100
AcDbEntity
  8
0
  6
ByBlock
 62
     0
440
 16777216
100
AcDbLine
 10
643.732583586458
 20
2326.62394900355
 30
0.0
 11
643.732583586458
 21
2524.257987863627
 31
0.0
  0
LINE
  5
81D8
330
7DC8
100
AcDbEntity
  8
0
  6
ByBlock
 62
     0
440
 16777216
100
AcDbLine
 10
1239.732583586457
 20
2512.257987863627
 30
0.0
 11
667.732583586458
 21
2512.257987863627
 31
0.0
  0
INSERT
  5
81D9
330
7DC8
100
AcDbEntity
  8
0
  6
ByBlock
 62
     0
440
 16777216
100
AcDbBlockReference
  2
_OPEN
 10
1263.732583586457
 20
2512.257987863627
 30
0.0
 41
24.0
 42
24.0
 43
24.0
  0
INSERT
  5
81DA
330
7DC8
100
AcDbEntity
  8
0
  6
ByBlock
 62
     0
440
 16777216
100
AcDbBlockReference
  2
_OPEN
 10
643.732583586458
 20
2512.257987863627
 30
0.0
 41
24.0
 42
24.0
 43
24.0
 50
180.0
  0
MTEXT
  5
81DB
330
7DC8
100
AcDbEntity
  8
0
  6
ByBlock
 62
     0
440
 16777216
100
AcDbMText
 10
953.7325835864578
 20
2542.257987863627
 30
0.0
 40
36.0
 41
0.0
 46
0.0
 71
     5
 72
     5
  1
\A1;620
 73
     1
 44
1.0
  0
POINT
  5
81DC
330
7DC8
100
AcDbEntity
  8
DEFPOINTS
  6
ByBlock
 62
     0
440
 16777216
100
AcDbPoint
 10
1263.732583586457
 20
2320.62394900355
 30
0.0
  0
POINT
  5
81DD
330
7DC8
100
AcDbEntity
  8
DEFPOINTS
  6
ByBlock
 62
     0
440
 16777216
100
AcDbPoint
 10
643.732583586458
 20
2320.62394900355
 30
0.0
  0
POINT
  5
81DE
330
7DC8
100
AcDbEntity
  8
DEFPOINTS
  6
ByBlock
 62
     0
440
 16777216
100
AcDbPoint
 10
643.732583586458
 20
2512.257987863627
 30
0.0
  0
ENDBLK
  5
81DF
330
7DC8
100
AcDbEntity
  8
0
100
AcDbBlockEnd
  0
BLOCK
  5
7F57
330
7DD4
100
AcDbEntity
  8
0
100
AcDbBlockBegin
  2
*D11
 70
     1
 10
0.0
 20
0.0
 30
0.0
  3
*D11
  1

  0
LINE
  5
7F58
330
7DD4
100
AcDbEntity
  8
0
  6
ByBlock
 62
     0
440
 16777216
100
AcDbLine
 10
789.732583586458
 20
1431.252194070071
 30
0.0
 11
527.4508542496364
 21
1431.252194070071
 31
0.0
  0
LINE
  5
7F59
330
7DD4
100
AcDbEntity
  8
0
  6
ByBlock
 62
     0
440
 16777216
100
AcDbLine
 10
627.3681814622873
 20
1246.25219407007
 30
0.0
 11
527.4508542496364
 21
1246.25219407007
 31
0.0
  0
LINE
  5
7F5A
330
7DD4
100
AcDbEntity
  8
0
  6
ByBlock
 62
     0
440
 16777216
100
AcDbLine
 10
539.4508542496364
 20
1407.252194070071
 30
0.0
 11
539.4508542496364
 21
1270.25219407007
 31
0.0
  0
INSERT
  5
7F5B
330
7DD4
100
AcDbEntity
  8
0
  6
ByBlock
 62
     0
440
 16777216
100
AcDbBlockReference
  2
_OPEN
 10
539.4508542496364
 20
1431.252194070071
 30
0.0
 41
24.0
 42
24.0
 43
24.0
 50
90.0
  0
INSERT
  5
7F5C
330
7DD4
100
AcDbEntity
  8
0
  6
ByBlock
 62
     0
440
 16777216
100
AcDbBlockReference
  2
_OPEN
 10
539.4508542496364
 20
1246.25219407007
 30
0.0
 41
24.0
 42
24.0
 43
24.0
 50
270.0
  0
MTEXT
  5
7F5D
330
7DD4
100
AcDbEntity
  8
0
  6
ByBlock
 62
     0
440
 16777216
100
AcDbMText
 10
509.4508542496364
 20
1338.75219407007
 30
0.0
 40
36.0
 41
0.0
 46
0.0
 71
     5
 72
     5
  1
\A1;185
 11
0.0
 21
1.0
 31
0.0
 73
     1
 44
1.0
  0
POINT
  5
7F5E
330
7DD4
100
AcDbEntity
  8
DEFPOINTS
  6
ByBlock
 62
     0
440
 16777216
100
AcDbPoint
 10
795.7325835864581
 20
1431.252194070071
 30
0.0
  0
POINT
  5
7F5F
330
7DD4
100
AcDbEntity
  8
DEFPOINTS
  6
ByBlock
 62
     0
440
 16777216
100
AcDbPoint
 10
633.3681814622873
 20
1246.25219407007
 30
0.0
  0
POINT
  5
7F60
330
7DD4
100
AcDbEntity
  8
DEFPOINTS
  6
ByBlock
 62
     0
440
 16777216
100
AcDbPoint
 10
539.4508542496364
 20
1246.25219407007
 30
0.0
  0
ENDBLK
  5
7F61
330
7DD4
100
AcDbEntity
  8
0
100
AcDbBlockEnd
  0
BLOCK
  5
8062
330
7DE0
100
AcDbEntity
  8
0
100
AcDbBlockBegin
  2
*D12
 70
     1
 10
0.0
 20
0.0
 30
0.0
  3
*D12
  1

  0
LINE
  5
8063
330
7DE0
100
AcDbEntity
  8
0
  6
ByBlock
 62
     0
440
 16777216
100
AcDbLine
 10
818.7325835864578
 20
1437.616596194241
 30
0.0
 11
818.7325835864578
 21
1554.844626500134
 31
0.0
  0
LINE
  5
8064
330
7DE0
100
AcDbEntity
  8
0
  6
ByBlock
 62
     0
440
 16777216
100
AcDbLine
 10
670.7325835864581
 20
1243.252194070071
 30
0.0
 11
670.7325835864581
 21
1554.844626500134
 31
0.0
  0
LINE
  5
8065
330
7DE0
100
AcDbEntity
  8
0
  6
ByBlock
 62
     0
440
 16777216
100
AcDbLine
 10
794.7325835864578
 20
1542.844626500134
 30
0.0
 11
694.7325835864581
 21
1542.844626500134
 31
0.0
  0
MTEXT
  5
8066
330
7DE0
100
AcDbEntity
  8
0
  6
ByBlock
 62
     0
440
 16777216
100
AcDbMText
 10
747.9598378340415
 20
1571.527479136904
 30
0.0
 40
36.0
 41
0.0
 46
0.0
 71
     5
 72
     5
  1
\A1;148
 73
     1
 44
1.0
  0
INSERT
  5
8067
330
7DE0
100
AcDbEntity
  8
0
  6
ByBlock
 62
     0
440
 16777216
100
AcDbBlockReference
  2
_OPEN
 10
818.7325835864578
 20
1542.844626500134
 30
0.0
 41
24.0
 42
24.0
 43
24.0
  0
INSERT
  5
8068
330
7DE0
100
AcDbEntity
  8
0
  6
ByBlock
 62
     0
440
 16777216
100
AcDbBlockReference
  2
_OPEN
 10
670.7325835864581
 20
1542.844626500134
 30
0.0
 41
24.0
 42
24.0
 43
24.0
 50
180.0
  0
POINT
  5
8069
330
7DE0
100
AcDbEntity
  8
DEFPOINTS
  6
ByBlock
 62
     0
440
 16777216
100
AcDbPoint
 10
818.7325835864578
 20
1431.616596194241
 30
0.0
  0
POINT
  5
806A
330
7DE0
100
AcDbEntity
  8
DEFPOINTS
  6
ByBlock
 62
     0
440
 16777216
100
AcDbPoint
 10
670.7325835864581
 20
1237.252194070071
 30
0.0
  0
POINT
  5
806B
330
7DE0
100
AcDbEntity
  8
DEFPOINTS
  6
ByBlock
 62
     0
440
 16777216
100
AcDbPoint
 10
670.7325835864581
 20
1542.844626500134
 30
0.0
  0
ENDBLK
  5
806C
330
7DE0
100
AcDbEntity
  8
0
100
AcDbBlockEnd
  0
BLOCK
  5
8040
330
7E0E
100
AcDbEntity
  8
0
100
AcDbBlockBegin
  2
*D13
 70
     1
 10
0.0
 20
0.0
 30
0.0
  3
*D13
  1

  0
LINE
  5
8041
330
7E0E
100
AcDbEntity
  8
0
  6
ByBlock
 62
     0
440
 16777216
100
AcDbLine
 10
670.7325835864581
 20
1243.252194070071
 30
0.0
 11
670.7325835864581
 21
1624.585564549977
 31
0.0
  0
LINE
  5
8042
330
7E0E
100
AcDbEntity
  8
0
  6
ByBlock
 62
     0
440
 16777216
100
AcDbLine
 10
1263.732583586457
 20
1032.25219407007
 30
0.0
 11
1263.732583586457
 21
1624.585564549977
 31
0.0
  0
LINE
  5
8043
330
7E0E
100
AcDbEntity
  8
0
  6
ByBlock
 62
     0
440
 16777216
100
AcDbLine
 10
694.7325835864581
 20
1612.585564549977
 30
0.0
 11
1239.732583586457
 21
1612.585564549977
 31
0.0
  0
INSERT
  5
8044
330
7E0E
100
AcDbEntity
  8
0
  6
ByBlock
 62
     0
440
 16777216
100
AcDbBlockReference
  2
_OPEN
 10
670.7325835864581
 20
1612.585564549977
 30
0.0
 41
24.0
 42
24.0
 43
24.0
 50
180.0
  0
INSERT
  5
8045
330
7E0E
100
AcDbEntity
  8
0
  6
ByBlock
 62
     0
440
 16777216
100
AcDbBlockReference
  2
_OPEN
 10
1263.732583586457
 20
1612.585564549977
 30
0.0
 41
24.0
 42
24.0
 43
24.0
  0
MTEXT
  5
8046
330
7E0E
100
AcDbEntity
  8
0
  6
ByBlock
 62
     0
440
 16777216
100
AcDbMText
 10
967.2325835864578
 20
1642.585564549977
 30
0.0
 40
36.0
 41
0.0
 46
0.0
 71
     5
 72
     5
  1
\A1;593
 73
     1
 44
1.0
  0
POINT
  5
8047
330
7E0E
100
AcDbEntity
  8
DEFPOINTS
  6
ByBlock
 62
     0
440
 16777216
100
AcDbPoint
 10
670.7325835864581
 20
1237.252194070071
 30
0.0
  0
POINT
  5
8048
330
7E0E
100
AcDbEntity
  8
DEFPOINTS
  6
ByBlock
 62
     0
440
 16777216
100
AcDbPoint
 10
1263.732583586457
 20
1026.25219407007
 30
0.0
  0
POINT
  5
8049
330
7E0E
100
AcDbEntity
  8
DEFPOINTS
  6
ByBlock
 62
     0
440
 16777216
100
AcDbPoint
 10
1263.732583586457
 20
1612.585564549977
 30
0.0
  0
ENDBLK
  5
804A
330
7E0E
100
AcDbEntity
  8
0
100
AcDbBlockEnd
  0
BLOCK
  5
8244
330
8243
100
AcDbEntity
  8
0
100
AcDbBlockBegin
  2
*D14
 70
     1
 10
0.0
 20
0.0
 30
0.0
  3
*D14
  1

  0
LINE
  5
8340
330
8243
100
AcDbEntity
  8
3
 62
     0
440
 16777216
370
    -2
100
AcDbLine
 10
643.732583586458
 20
870.2521940700703
 30
0.0
 11
643.732583586458
 21
775.9753139735858
 31
0.0
  0
LINE
  5
8341
330
8243
100
AcDbEntity
  8
3
 62
     0
440
 16777216
370
    -2
100
AcDbLine
 10
818.7325835864578
 20
870.2521940700703
 30
0.0
 11
818.7325835864578
 21
775.9753139735858
 31
0.0
  0
LINE
  5
8342
330
8243
100
AcDbEntity
  8
3
 62
     0
440
 16777216
370
    -2
100
AcDbLine
 10
667.732583586458
 20
787.9753139735858
 30
0.0
 11
794.7325835864578
 21
787.9753139735858
 31
0.0
  0
INSERT
  5
8343
330
8243
100
AcDbEntity
  8
3
 62
     0
440
 16777216
370
    -2
100
AcDbBlockReference
  2
_OPEN
 10
643.732583586458
 20
787.9753139735858
 30
0.0
 41
24.0
 42
24.0
 43
24.0
 50
180.0
  0
INSERT
  5
8344
330
8243
100
AcDbEntity
  8
3
 62
     0
440
 16777216
370
    -2
100
AcDbBlockReference
  2
_OPEN
 10
818.7325835864578
 20
787.9753139735858
 30
0.0
 41
24.0
 42
24.0
 43
24.0
  0
MTEXT
  5
8345
330
8243
100
AcDbEntity
  8
3
 62
     0
440
 16777216
100
AcDbMText
 10
731.2325835864579
 20
817.9753139735858
 30
0.0
 40
36.0
 41
0.0
 46
0.0
 71
     5
 72
     1
  1
\A1;175
 73
     1
 44
1.0
  0
POINT
  5
8346
330
8243
100
AcDbEntity
  8
DEFPOINTS
 62
     0
440
 16777216
100
AcDbPoint
 10
643.732583586458
 20
876.2521940700704
 30
0.0
  0
POINT
  5
8347
330
8243
100
AcDbEntity
  8
DEFPOINTS
 62
     0
440
 16777216
100
AcDbPoint
 10
818.7325835864578
 20
876.2521940700704
 30
0.0
  0
POINT
  5
8348
330
8243
100
AcDbEntity
  8
DEFPOINTS
 62
     0
440
 16777216
100
AcDbPoint
 10
818.7325835864578
 20
787.9753139735858
 30
0.0
  0
ENDBLK
  5
824E
330
8243
100
AcDbEntity
  8
0
100
AcDbBlockEnd
  0
BLOCK
  5
8251
330
8250
100
AcDbEntity
  8
0
100
AcDbBlockBegin
  2
*D15
 70
     1
 10
0.0
 20
0.0
 30
0.0
  3
*D15
  1

  0
LINE
  5
8349
330
8250
100
AcDbEntity
  8
3
 62
     0
440
 16777216
370
    -2
100
AcDbLine
 10
818.7325835864578
 20
870.2521940700703
 30
0.0
 11
818.7325835864578
 21
775.9753139735858
 31
0.0
  0
LINE
  5
834A
330
8250
100
AcDbEntity
  8
3
 62
     0
440
 16777216
370
    -2
100
AcDbLine
 10
1263.732583586457
 20
870.2521940700703
 30
0.0
 11
1263.732583586457
 21
775.9753139735858
 31
0.0
  0
LINE
  5
834B
330
8250
100
AcDbEntity
  8
3
 62
     0
440
 16777216
370
    -2
100
AcDbLine
 10
842.7325835864579
 20
787.9753139735858
 30
0.0
 11
1239.732583586457
 21
787.9753139735858
 31
0.0
  0
INSERT
  5
834C
330
8250
100
AcDbEntity
  8
3
 62
     0
440
 16777216
370
    -2
100
AcDbBlockReference
  2
_OPEN
 10
818.7325835864578
 20
787.9753139735858
 30
0.0
 41
24.0
 42
24.0
 43
24.0
 50
180.0
  0
INSERT
  5
834D
330
8250
100
AcDbEntity
  8
3
 62
     0
440
 16777216
370
    -2
100
AcDbBlockReference
  2
_OPEN
 10
1263.732583586457
 20
787.9753139735858
 30
0.0
 41
24.0
 42
24.0
 43
24.0
  0
MTEXT
  5
834E
330
8250
100
AcDbEntity
  8
3
 62
     0
440
 16777216
100
AcDbMText
 10
1041.232583586457
 20
817.9753139735858
 30
0.0
 40
36.0
 41
0.0
 46
0.0
 71
     5
 72
     1
  1
\A1;445
 73
     1
 44
1.0
  0
POINT
  5
834F
330
8250
100
AcDbEntity
  8
DEFPOINTS
 62
     0
440
 16777216
100
AcDbPoint
 10
818.7325835864578
 20
876.2521940700704
 30
0.0
  0
POINT
  5
8350
330
8250
100
AcDbEntity
  8
DEFPOINTS
 62
     0
440
 16777216
100
AcDbPoint
 10
1263.732583586457
 20
876.2521940700704
 30
0.0
  0
POINT
  5
8351
330
8250
100
AcDbEntity
  8
DEFPOINTS
 62
     0
440
 16777216
100
AcDbPoint
 10
1263.732583586457
 20
787.9753139735858
 30
0.0
  0
ENDBLK
  5
825B
330
8250
100
AcDbEntity
  8
0
100
AcDbBlockEnd
  0
BLOCK
  5
825E
330
825D
100
AcDbEntity
  8
0
100
AcDbBlockBegin
  2
*D16
 70
     1
 10
0.0
 20
0.0
 30
0.0
  3
*D16
  1

  0
LINE
  5
8352
330
825D
100
AcDbEntity
  8
3
 62
     0
440
 16777216
370
    -2
100
AcDbLine
 10
1636.189439663241
 20
870.3382879573293
 30
0.0
 11
1636.189439663241
 21
775.9753139735858
 31
0.0
  0
LINE
  5
8353
330
825D
100
AcDbEntity
  8
3
 62
     0
440
 16777216
370
    -2
100
AcDbLine
 10
2016.189439663242
 20
870.3382879573295
 30
0.0
 11
2016.189439663242
 21
775.9753139735858
 31
0.0
  0
LINE
  5
8354
330
825D
100
AcDbEntity
  8
3
 62
     0
440
 16777216
370
    -2
100
AcDbLine
 10
1660.189439663241
 20
787.9753139735858
 30
0.0
 11
1992.189439663241
 21
787.9753139735858
 31
0.0
  0
INSERT
  5
8355
330
825D
100
AcDbEntity
  8
3
 62
     0
440
 16777216
370
    -2
100
AcDbBlockReference
  2
_OPEN
 10
1636.189439663241
 20
787.9753139735858
 30
0.0
 41
24.0
 42
24.0
 43
24.0
 50
180.0
  0
INSERT
  5
8356
330
825D
100
AcDbEntity
  8
3
 62
     0
440
 16777216
370
    -2
100
AcDbBlockReference
  2
_OPEN
 10
2016.189439663242
 20
787.9753139735858
 30
0.0
 41
24.0
 42
24.0
 43
24.0
  0
MTEXT
  5
8357
330
825D
100
AcDbEntity
  8
3
 62
     0
440
 16777216
100
AcDbMText
 10
1826.189439663241
 20
817.9753139735858
 30
0.0
 40
36.0
 41
0.0
 46
0.0
 71
     5
 72
     1
  1
\A1;380
 73
     1
 44
1.0
  0
POINT
  5
8358
330
825D
100
AcDbEntity
  8
DEFPOINTS
 62
     0
440
 16777216
100
AcDbPoint
 10
1636.189439663241
 20
876.3382879573294
 30
0.0
  0
POINT
  5
8359
330
825D
100
AcDbEntity
  8
DEFPOINTS
 62
     0
440
 16777216
100
AcDbPoint
 10
2016.189439663242
 20
876.3382879573295
 30
0.0
  0
POINT
  5
835A
330
825D
100
AcDbEntity
  8
DEFPOINTS
 62
     0
440
 16777216
100
AcDbPoint
 10
2016.189439663242
 20
787.9753139735858
 30
0.0
  0
ENDBLK
  5
8268
330
825D
100
AcDbEntity
  8
0
100
AcDbBlockEnd
  0
BLOCK
  5
826B
330
826A
100
AcDbEntity
  8
0
100
AcDbBlockBegin
  2
*D17
 70
     1
 10
0.0
 20
0.0
 30
0.0
  3
*D17
  1

  0
LINE
  5
835B
330
826A
100
AcDbEntity
  8
3
 62
     0
440
 16777216
370
    -2
100
AcDbLine
 10
2016.189439663242
 20
870.3382879573295
 30
0.0
 11
2016.189439663242
 21
775.9753139735858
 31
0.0
  0
LINE
  5
835C
330
826A
100
AcDbEntity
  8
3
 62
     0
440
 16777216
370
    -2
100
AcDbLine
 10
2056.189439663242
 20
870.3382879573297
 30
0.0
 11
2056.189439663242
 21
775.9753139735858
 31
0.0
  0
LINE
  5
835D
330
826A
100
AcDbEntity
  8
3
 62
     0
440
 16777216
370
    -2
100
AcDbLine
 10
1992.189439663241
 20
787.9753139735858
 30
0.0
 11
1968.189439663241
 21
787.9753139735858
 31
0.0
  0
LINE
  5
835E
330
826A
100
AcDbEntity
  8
3
 62
     0
440
 16777216
370
    -2
100
AcDbLine
 10
2080.189439663242
 20
787.9753139735858
 30
0.0
 11
2186.475153948956
 21
787.9753139735858
 31
0.0
  0
LINE
  5
835F
330
826A
100
AcDbEntity
  8
3
 62
     0
440
 16777216
370
    -2
100
AcDbLine
 10
2016.189439663242
 20
787.9753139735858
 30
0.0
 11
2056.189439663242
 21
787.9753139735858
 31
0.0
  0
INSERT
  5
8360
330
826A
100
AcDbEntity
  8
3
 62
     0
440
 16777216
370
    -2
100
AcDbBlockReference
  2
_OPEN
 10
2016.189439663242
 20
787.9753139735858
 30
0.0
 41
24.0
 42
24.0
 43
24.0
  0
INSERT
  5
8361
330
826A
100
AcDbEntity
  8
3
 62
     0
440
 16777216
370
    -2
100
AcDbBlockReference
  2
_OPEN
 10
2056.189439663242
 20
787.9753139735858
 30
0.0
 41
24.0
 42
24.0
 43
24.0
 50
180.0
  0
MTEXT
  5
8362
330
826A
100
AcDbEntity
  8
3
 62
     0
440
 16777216
100
AcDbMText
 10
2145.332296806099
 20
817.9753139735858
 30
0.0
 40
36.0
 41
0.0
 46
0.0
 71
     5
 72
     1
  1
\A1;40
 73
     1
 44
1.0
  0
POINT
  5
8363
330
826A
100
AcDbEntity
  8
DEFPOINTS
 62
     0
440
 16777216
100
AcDbPoint
 10
2016.189439663242
 20
876.3382879573295
 30
0.0
  0
POINT
  5
8364
330
826A
100
AcDbEntity
  8
DEFPOINTS
 62
     0
440
 16777216
100
AcDbPoint
 10
2056.189439663242
 20
876.3382879573297
 30
0.0
  0
POINT
  5
8365
330
826A
100
AcDbEntity
  8
DEFPOINTS
 62
     0
440
 16777216
100
AcDbPoint
 10
2056.189439663242
 20
787.9753139735858
 30
0.0
  0
ENDBLK
  5
8277
330
826A
100
AcDbEntity
  8
0
100
AcDbBlockEnd
  0
BLOCK
  5
8295
330
8294
100
AcDbEntity
  8
0
100
AcDbBlockBegin
  2
*D18
 70
     1
 10
0.0
 20
0.0
 30
0.0
  3
*D18
  1

  0
LINE
  5
83BE
330
8294
100
AcDbEntity
  8
3
 62
     0
440
 16777216
370
    -2
100
AcDbLine
 10
637.7325835864581
 20
916.2521940700699
 30
0.0
 11
526.5392217033295
 21
916.2521940700699
 31
0.0
  0
LINE
  5
83BF
330
8294
100
AcDbEntity
  8
3
 62
     0
440
 16777216
370
    -2
100
AcDbLine
 10
637.7325835864581
 20
876.2521940700704
 30
0.0
 11
526.5392217033295
 21
876.2521940700704
 31
0.0
  0
LINE
  5
83C0
330
8294
100
AcDbEntity
  8
3
 62
     0
440
 16777216
370
    -2
100
AcDbLine
 10
538.5392217033295
 20
940.2521940700699
 30
0.0
 11
538.5392217033295
 21
964.2521940700699
 31
0.0
  0
LINE
  5
83C1
330
8294
100
AcDbEntity
  8
3
 62
     0
440
 16777216
370
    -2
100
AcDbLine
 10
538.5392217033295
 20
852.2521940700704
 30
0.0
 11
538.5392217033293
 21
745.966479784356
 31
0.0
  0
LINE
  5
83C2
330
8294
100
AcDbEntity
  8
3
 62
     0
440
 16777216
370
    -2
100
AcDbLine
 10
538.5392217033295
 20
916.2521940700699
 30
0.0
 11
538.5392217033295
 21
876.2521940700704
 31
0.0
  0
INSERT
  5
83C3
330
8294
100
AcDbEntity
  8
3
 62
     0
440
 16777216
370
    -2
100
AcDbBlockReference
  2
_DOT
 10
538.5392217033295
 20
916.2521940700699
 30
0.0
 41
24.0
 42
24.0
 43
24.0
 50
270.0
  0
INSERT
  5
83C4
330
8294
100
AcDbEntity
  8
3
 62
     0
440
 16777216
370
    -2
100
AcDbBlockReference
  2
_OPEN
 10
538.5392217033295
 20
876.2521940700704
 30
0.0
 41
24.0
 42
24.0
 43
24.0
 50
90.0
  0
MTEXT
  5
83C5
330
8294
100
AcDbEntity
  8
3
 62
     0
440
 16777216
100
AcDbMText
 10
508.5392217033294
 20
787.1093369272133
 30
0.0
 40
36.0
 41
0.0
 46
0.0
 71
     5
 72
     1
  1
\A1;40
 11
0.0000000000000001
 21
1.0
 31
0.0
 73
     1
 44
1.0
  0
POINT
  5
83C6
330
8294
100
AcDbEntity
  8
DEFPOINTS
 62
     0
440
 16777216
100
AcDbPoint
 10
643.732583586458
 20
916.2521940700699
 30
0.0
  0
POINT
  5
83C7
330
8294
100
AcDbEntity
  8
DEFPOINTS
 62
     0
440
 16777216
100
AcDbPoint
 10
643.732583586458
 20
876.2521940700704
 30
0.0
  0
POINT
  5
83C8
330
8294
100
AcDbEntity
  8
DEFPOINTS
 62
     0
440
 16777216
100
AcDbPoint
 10
538.5392217033295
 20
876.2521940700704
 30
0.0
  0
ENDBLK
  5
82A1
330
8294
100
AcDbEntity
  8
0
100
AcDbBlockEnd
  0
BLOCK
  5
82C2
330
82C1
100
AcDbEntity
  8
0
100
AcDbBlockBegin
  2
*D19
 70
     1
 10
0.0
 20
0.0
 30
0.0
  3
*D19
  1

  0
LINE
  5
83B3
330
82C1
100
AcDbEntity
  8
3
 62
     0
440
 16777216
370
    -2
100
AcDbLine
 10
637.7325835864581
 20
916.2521940700699
 30
0.0
 11
526.5392217033295
 21
916.2521940700699
 31
0.0
  0
LINE
  5
83B4
330
82C1
100
AcDbEntity
  8
3
 62
     0
440
 16777216
370
    -2
100
AcDbLine
 10
637.7325835864581
 20
986.2521940700704
 30
0.0
 11
526.5392217033295
 21
986.2521940700704
 31
0.0
  0
LINE
  5
83B5
330
82C1
100
AcDbEntity
  8
3
 62
     0
440
 16777216
370
    -2
100
AcDbLine
 10
538.5392217033295
 20
892.2521940700699
 30
0.0
 11
538.5392217033295
 21
868.2521940700699
 31
0.0
  0
LINE
  5
83B6
330
82C1
100
AcDbEntity
  8
3
 62
     0
440
 16777216
370
    -2
100
AcDbLine
 10
538.5392217033295
 20
1010.25219407007
 30
0.0
 11
538.5392217033295
 21
1034.25219407007
 31
0.0
  0
MTEXT
  5
83B7
330
82C1
100
AcDbEntity
  8
3
 62
     0
440
 16777216
100
AcDbMText
 10
504.2693763248971
 20
952.640598677477
 30
0.0
 40
36.0
 41
0.0
 46
0.0
 71
     5
 72
     1
  1
\A1;(70)
 11
0.0000000000000001
 21
1.0
 31
0.0
 73
     1
 44
1.0
  0
LINE
  5
83B8
330
82C1
100
AcDbEntity
  8
3
 62
     0
440
 16777216
370
    -2
100
AcDbLine
 10
538.5392217033295
 20
916.2521940700699
 30
0.0
 11
538.5392217033295
 21
986.2521940700704
 31
0.0
  0
INSERT
  5
83B9
330
82C1
100
AcDbEntity
  8
3
 62
     0
440
 16777216
370
    -2
100
AcDbBlockReference
  2
_DOT
 10
538.5392217033295
 20
916.2521940700699
 30
0.0
 41
24.0
 42
24.0
 43
24.0
 50
90.0
  0
INSERT
  5
83BA
330
82C1
100
AcDbEntity
  8
3
 62
     0
440
 16777216
370
    -2
100
AcDbBlockReference
  2
_OPEN
 10
538.5392217033295
 20
986.2521940700704
 30
0.0
 41
24.0
 42
24.0
 43
24.0
 50
270.0
  0
POINT
  5
83BB
330
82C1
100
AcDbEntity
  8
DEFPOINTS
 62
     0
440
 16777216
100
AcDbPoint
 10
643.732583586458
 20
916.2521940700699
 30
0.0
  0
POINT
  5
83BC
330
82C1
100
AcDbEntity
  8
DEFPOINTS
 62
     0
440
 16777216
100
AcDbPoint
 10
643.732583586458
 20
986.2521940700704
 30
0.0
  0
POINT
  5
83BD
330
82C1
100
AcDbEntity
  8
DEFPOINTS
 62
     0
440
 16777216
100
AcDbPoint
 10
538.5392217033295
 20
986.2521940700704
 30
0.0
  0
ENDBLK
  5
82CC
330
82C1
100
AcDbEntity
  8
0
100
AcDbBlockEnd
  0
BLOCK
  5
82CF
330
82CE
100
AcDbEntity
  8
0
100
AcDbBlockBegin
  2
*D20
 70
     1
 10
0.0
 20
0.0
 30
0.0
  3
*D20
  1

  0
LINE
  5
837C
330
82CE
100
AcDbEntity
  8
3
 62
     0
440
 16777216
370
    -2
100
AcDbLine
 10
789.732583586458
 20
1431.252194070071
 30
0.0
 11
422.0919833112604
 21
1431.252194070071
 31
0.0
  0
LINE
  5
837D
330
82CE
100
AcDbEntity
  8
3
 62
     0
440
 16777216
370
    -2
100
AcDbLine
 10
637.7325835864581
 20
876.2521940700704
 30
0.0
 11
422.0919833112602
 21
876.2521940700704
 31
0.0
  0
LINE
  5
837E
330
82CE
100
AcDbEntity
  8
3
 62
     0
440
 16777216
370
    -2
100
AcDbLine
 10
434.0919833112604
 20
1407.252194070071
 30
0.0
 11
434.0919833112603
 21
900.2521940700702
 31
0.0
  0
INSERT
  5
837F
330
82CE
100
AcDbEntity
  8
3
 62
     0
440
 16777216
370
    -2
100
AcDbBlockReference
  2
_OPEN
 10
434.0919833112604
 20
1431.252194070071
 30
0.0
 41
24.0
 42
24.0
 43
24.0
 50
90.0
  0
INSERT
  5
8380
330
82CE
100
AcDbEntity
  8
3
 62
     0
440
 16777216
370
    -2
100
AcDbBlockReference
  2
_OPEN
 10
434.0919833112602
 20
876.2521940700704
 30
0.0
 41
24.0
 42
24.0
 43
24.0
 50
270.0
  0
MTEXT
  5
8381
330
82CE
100
AcDbEntity
  8
3
 62
     0
440
 16777216
100
AcDbMText
 10
394.6634118826887
 20
1153.752194070071
 30
0.0
 40
36.0
 41
0.0
 46
0.0
 71
     5
 72
     1
  1
\A1;(555)
 11
0.0000000000000001
 21
1.0
 31
0.0
 73
     1
 44
1.0
  0
POINT
  5
8382
330
82CE
100
AcDbEntity
  8
DEFPOINTS
 62
     0
440
 16777216
100
AcDbPoint
 10
795.7325835864581
 20
1431.252194070071
 30
0.0
  0
POINT
  5
8383
330
82CE
100
AcDbEntity
  8
DEFPOINTS
 62
     0
440
 16777216
100
AcDbPoint
 10
643.732583586458
 20
876.2521940700704
 30
0.0
  0
POINT
  5
8384
330
82CE
100
AcDbEntity
  8
DEFPOINTS
 62
     0
440
 16777216
100
AcDbPoint
 10
434.0919833112602
 20
876.2521940700704
 30
0.0
  0
ENDBLK
  5
82D9
330
82CE
100
AcDbEntity
  8
0
100
AcDbBlockEnd
  0
ENDSEC
  0
SECTION
  2
ENTITIES
  0
LINE
  5
7C18
330
19
100
AcDbEntity
  8
2
100
AcDbLine
 10
818.7325835864578
 20
1484.442868408597
 30
0.0
 11
818.732583586458
 21
876.2521940700702
 31
0.0
  0
LINE
  5
7C1A
330
19
100
AcDbEntity
  8
1
100
AcDbLine
 10
1263.732583586457
 20
1026.25219407007
 30
0.0
 11
643.732583586458
 21
1026.25219407007
 31
0.0
  0
LINE
  5
7C1C
330
19
100
AcDbEntity
  8
1
100
AcDbLine
 10
1263.732583586457
 20
1026.25219407007
 30
0.0
 11
1263.732583586457
 21
986.2521940700704
 31
0.0
  0
LINE
  5
7C1D
330
19
100
AcDbEntity
  8
2
100
AcDbLine
 10
633.3681814622873
 20
1246.25219407007
 30
0.0
 11
1052.437075748354
 21
1246.25219407007
 31
0.0
  0
LINE
  5
7C1F
330
19
100
AcDbEntity
  8
1
100
AcDbLine
 10
643.732583586458
 20
1026.25219407007
 30
0.0
 11
643.732583586458
 21
986.2521940700698
 31
0.0
  0
LINE
  5
7C20
330
19
100
AcDbEntity
  8
2
100
AcDbLine
 10
2056.189439663242
 20
1454.691864184345
 30
0.0
 11
2056.189439663241
 21
876.3382879573295
 31
0.0
  0
LINE
  5
7C21
330
19
100
AcDbEntity
  8
2
100
AcDbLine
 10
1600.397214561778
 20
1246.338287957329
 30
0.0
 11
2163.657145255821
 21
1246.338287957329
 31
0.0
  0
LINE
  5
7C22
330
19
100
AcDbEntity
  8
1
100
AcDbLine
 10
1223.732583586457
 20
2320.62394900355
 30
0.0
 11
1223.732583586457
 21
2242.823949003549
 31
0.0
  0
LINE
  5
7C23
330
19
100
AcDbEntity
  8
1
100
AcDbLine
 10
1263.732583586457
 20
2320.62394900355
 30
0.0
 11
1263.732583586457
 21
1940.623949003551
 31
0.0
  0
LINE
  5
7C26
330
19
100
AcDbEntity
  8
1
100
AcDbLine
 10
643.732583586458
 20
1940.623949003551
 30
0.0
 11
1263.732583586457
 21
1940.623949003554
 31
0.0
  0
LINE
  5
7C27
330
19
100
AcDbEntity
  8
1
100
AcDbLine
 10
643.732583586458
 20
2320.62394900355
 30
0.0
 11
670.7325835864581
 21
2320.62394900355
 31
0.0
  0
LINE
  5
7C32
330
19
100
AcDbEntity
  8
1
100
AcDbLine
 10
683.7325835864585
 20
1940.623949003551
 30
0.0
 11
643.732583586458
 21
1940.623949003551
 31
0.0
  0
CIRCLE
  5
7C38
330
19
100
AcDbEntity
  8
1
100
AcDbCircle
 10
818.732583586458
 20
1116.25219407007
 30
0.0
 40
60.0
  0
LINE
  5
7C39
330
19
100
AcDbEntity
  8
1
100
AcDbLine
 10
1623.18943966324
 20
1326.344253043448
 30
0.0
 11
1623.18943966324
 21
1026.338287957329
 31
0.0
  0
LINE
  5
7C3A
330
19
100
AcDbEntity
  8
1
100
AcDbLine
 10
1698.18943966324
 20
1326.344253043448
 30
0.0
 11
1698.18943966324
 21
1026.338287957329
 31
0.0
  0
LINE
  5
7C3B
330
19
100
AcDbEntity
  8
1
100
AcDbLine
 10
768.5842501205284
 20
1326.208164454331
 30
0.0
 11
768.584250120528
 21
1026.25219407007
 31
0.0
  0
LINE
  5
7C3C
330
19
100
AcDbEntity
  8
1
100
AcDbLine
 10
1248.584250120528
 20
1326.208164454331
 30
0.0
 11
1248.584250120528
 21
1026.25219407007
 31
0.0
  0
ARC
  5
7C3D
330
19
100
AcDbEntity
  8
1
100
AcDbCircle
 10
829.732583586458
 20
1235.252194070071
 30
0.0
 40
159.0
100
AcDbArc
 50
225.7241782884698
 51
266.0329722379558
  0
LINE
  5
7C3E
330
19
100
AcDbEntity
  8
1
100
AcDbLine
 10
718.732583586458
 20
1206.55219407007
 30
0.0
 11
718.732583586458
 21
1026.25219407007
 31
0.0
  0
LINE
  5
7C3F
330
19
100
AcDbEntity
  8
1
100
AcDbLine
 10
918.732583586458
 20
1206.55219407007
 30
0.0
 11
918.732583586458
 21
1026.25219407007
 31
0.0
  0
ARC
  5
7C40
330
19
100
AcDbEntity
  8
1
100
AcDbCircle
 10
832.7325835864581
 20
1260.252194070071
 30
0.0
 40
184.0
100
AcDbArc
 50
265.6363212021045
 51
359.6659883528339
  0
LINE
  5
7C41
330
19
100
AcDbEntity
  8
1
100
AcDbLine
 10
1953.889439663241
 20
1312.338287957329
 30
0.0
 11
1953.889439663241
 21
1062.338287957329
 31
0.0
  0
LINE
  5
7C43
330
19
100
AcDbEntity
  8
1
100
AcDbLine
 10
1981.189439663241
 20
1246.338287957329
 30
0.0
 11
1981.18943966324
 21
1062.338287957329
 31
0.0
  0
LINE
  5
7C44
330
19
100
AcDbEntity
  8
1
100
AcDbLine
 10
2131.189439663241
 20
1223.338287957329
 30
0.0
 11
2131.189439663241
 21
1098.25219407007
 31
0.0
  0
LINE
  5
7C46
330
19
100
AcDbEntity
  8
1
100
AcDbLine
 10
1702.889439663241
 20
1026.338287957329
 30
0.0
 11
1702.889439663241
 21
1126.838287957329
 31
0.0
  0
LINE
  5
7C47
330
19
100
AcDbEntity
  8
1
100
AcDbLine
 10
1636.189439663241
 20
1026.338287957329
 30
0.0
 11
2016.189439663242
 21
1026.338287957329
 31
0.0
  0
LINE
  5
7C48
330
19
100
AcDbEntity
  8
1
100
AcDbLine
 10
1636.189439663241
 20
986.3382879573293
 30
0.0
 11
2016.189439663242
 21
986.3382879573295
 31
0.0
  0
LINE
  5
7C49
330
19
100
AcDbEntity
  8
1
100
AcDbLine
 10
1973.889439663241
 20
1062.338287957329
 30
0.0
 11
1973.889439663241
 21
1026.338287957329
 31
0.0
  0
LINE
  5
7C4A
330
19
100
AcDbEntity
  8
1
100
AcDbLine
 10
1981.18943966324
 20
1062.338287957329
 30
0.0
 11
1953.889439663241
 21
1062.338287957329
 31
0.0
  0
LINE
  5
7C4B
330
19
100
AcDbEntity
  8
1
100
AcDbLine
 10
1016.729457042386
 20
1259.179553196698
 30
0.0
 11
1017.732583586458
 21
1431.252194070071
 31
0.0
  0
ARC
  5
7C4C
330
19
100
AcDbEntity
  8
1
100
AcDbCircle
 10
809.732583586458
 20
1237.252194070071
 30
0.0
 40
139.0
100
AcDbArc
 50
89.36404010198062
 51
180.3983550843573
  0
LINE
  5
7C4D
330
19
100
AcDbEntity
  8
1
100
AcDbLine
 10
1248.584250120528
 20
1326.208164454331
 30
0.0
 11
768.5842501205284
 21
1326.208164454331
 31
0.0
  0
LINE
  5
7C50
330
19
100
AcDbEntity
  8
1
100
AcDbLine
 10
743.732583586458
 20
1209.75219407007
 30
0.0
 11
743.732583586458
 21
1212.95219407007
 31
0.0
  0
LINE
  5
7C51
330
19
100
AcDbEntity
  8
1
100
AcDbLine
 10
893.732583586458
 20
1212.95219407007
 30
0.0
 11
893.732583586458
 21
1209.75219407007
 31
0.0
  0
LINE
  5
7C52
330
19
100
AcDbEntity
  8
1
100
AcDbLine
 10
726.232583586458
 20
1312.25219407007
 30
0.0
 11
726.232583586458
 21
1209.75219407007
 31
0.0
  0
LINE
  5
7C53
330
19
100
AcDbEntity
  8
1
100
AcDbLine
 10
720.2325835864581
 20
1312.25219407007
 30
0.0
 11
720.2325835864581
 21
1209.75219407007
 31
0.0
  0
LINE
  5
7C54
330
19
100
AcDbEntity
  8
1
100
AcDbLine
 10
911.2325835864581
 20
1312.25219407007
 30
0.0
 11
911.2325835864581
 21
1209.75219407007
 31
0.0
  0
LINE
  5
7C55
330
19
100
AcDbEntity
  8
1
100
AcDbLine
 10
917.2325835864581
 20
1312.25219407007
 30
0.0
 11
917.2325835864581
 21
1209.75219407007
 31
0.0
  0
ARC
  5
7C56
330
19
100
AcDbEntity
  8
1
100
AcDbCircle
 10
829.732583586458
 20
1235.252194070071
 30
0.0
 40
159.0
100
AcDbArc
 50
179.6275404685949
 51
225.7241782884698
  0
LINE
  5
7C57
330
19
100
AcDbEntity
  8
1
100
AcDbLine
 10
923.7325835864581
 20
1209.75219407007
 30
0.0
 11
713.732583586458
 21
1209.75219407007
 31
0.0
  0
LINE
  5
7C58
330
19
100
AcDbEntity
  8
1
100
AcDbLine
 10
923.7325835864581
 20
1206.55219407007
 30
0.0
 11
713.732583586458
 21
1206.55219407007
 31
0.0
  0
LINE
  5
7C59
330
19
100
AcDbEntity
  8
1
100
AcDbLine
 10
923.7325835864581
 20
1209.752194070071
 30
0.0
 11
923.7325835864581
 21
1206.55219407007
 31
0.0
  0
LINE
  5
7C5A
330
19
100
AcDbEntity
  8
1
100
AcDbLine
 10
713.732583586458
 20
1209.752194070071
 30
0.0
 11
713.732583586458
 21
1206.55219407007
 31
0.0
  0
LINE
  5
7C5B
330
19
100
AcDbEntity
  8
1
100
AcDbLine
 10
743.732583586458
 20
1212.95219407007
 30
0.0
 11
893.732583586458
 21
1212.95219407007
 31
0.0
  0
LINE
  5
7C5C
330
19
100
AcDbEntity
  8
1
100
AcDbLine
 10
917.2325835864581
 20
1312.25219407007
 30
0.0
 11
911.2325835864581
 21
1312.25219407007
 31
0.0
  0
LINE
  5
7C5D
330
19
100
AcDbEntity
  8
1
100
AcDbLine
 10
726.232583586458
 20
1312.25219407007
 30
0.0
 11
720.2325835864581
 21
1312.25219407007
 31
0.0
  0
LINE
  5
7C5E
330
19
100
AcDbEntity
  8
1
100
AcDbLine
 10
1039.732549602283
 20
1411.252194070071
 30
0.0
 11
795.7325835864578
 21
1411.252194070071
 31
0.0
  0
LINE
  5
7C5F
330
19
100
AcDbEntity
  8
1
100
AcDbLine
 10
1039.732549602283
 20
1431.252194070071
 30
0.0
 11
807.7325835864581
 21
1431.252194070071
 31
0.0
  0
LINE
  5
7C60
330
19
100
AcDbEntity
  8
1
100
AcDbLine
 10
817.732583586458
 20
1376.151346609545
 30
0.0
 11
817.732583586458
 21
1431.252194070071
 31
0.0
  0
ARC
  5
7C61
330
19
100
AcDbEntity
  8
1
100
AcDbCircle
 10
812.732583586458
 20
1252.252194070071
 30
0.0
 40
124.0
100
AcDbArc
 50
87.6890597908976
 51
90.67332781938901
  0
LINE
  5
7C62
330
19
100
AcDbEntity
  8
1
100
AcDbLine
 10
815.7325835864581
 20
1411.252194070071
 30
0.0
 11
814.7325835864581
 21
1411.252194070071
 31
0.0
  0
LINE
  5
7C63
330
19
100
AcDbEntity
  8
1
100
AcDbLine
 10
795.7325835864581
 20
1431.252194070071
 30
0.0
 11
815.7325835864581
 21
1431.252194070071
 31
0.0
  0
LINE
  5
7C64
330
19
100
AcDbEntity
  8
1
100
AcDbLine
 10
795.7325835864581
 20
1411.252194070071
 30
0.0
 11
795.7325835864581
 21
1431.252194070071
 31
0.0
  0
LINE
  5
7C65
330
19
100
AcDbEntity
  8
1
100
AcDbLine
 10
2131.18943966324
 20
1411.25219407007
 30
0.0
 11
2131.189439663241
 21
1245.338287957329
 31
0.0
  0
LINE
  5
7C66
330
19
100
AcDbEntity
  8
1
100
AcDbLine
 10
1981.189439663241
 20
1411.252194070071
 30
0.0
 11
1981.189439663241
 21
1245.338287957329
 31
0.0
  0
LINE
  5
7C67
330
19
100
AcDbEntity
  8
1
100
AcDbLine
 10
2154.189439663241
 20
1356.338287957329
 30
0.0
 11
2154.189439663241
 21
1136.338287957329
 31
0.0
  0
LINE
  5
7C6A
330
19
100
AcDbEntity
  8
1
100
AcDbLine
 10
1698.18943966324
 20
1209.838287957329
 30
0.0
 11
1720.38943966324
 21
1209.838287957329
 31
0.0
  0
LINE
  5
7C6B
330
19
100
AcDbEntity
  8
1
100
AcDbLine
 10
1698.189439663241
 20
1209.838287957329
 30
0.0
 11
1698.189439663241
 21
1302.838287957329
 31
0.0
  0
LINE
  5
7C6C
330
19
100
AcDbEntity
  8
1
100
AcDbLine
 10
1684.389439663241
 20
1296.338287957329
 30
0.0
 11
1684.389439663241
 21
1201.888287957329
 31
0.0
  0
LINE
  5
7C6D
330
19
100
AcDbEntity
  8
1
100
AcDbLine
 10
1646.389439663242
 20
1296.338287957329
 30
0.0
 11
1646.38943966324
 21
1201.888287957329
 31
0.0
  0
LINE
  5
7C70
330
19
100
AcDbEntity
  8
1
100
AcDbLine
 10
1646.38943966324
 20
1201.888287957329
 30
0.0
 11
1646.38943966324
 21
1086.338287957329
 31
0.0
  0
LINE
  5
7C71
330
19
100
AcDbEntity
  8
1
100
AcDbLine
 10
1684.389439663241
 20
1201.888287957329
 30
0.0
 11
1684.389439663241
 21
1086.338287957329
 31
0.0
  0
POINT
  5
7C72
330
19
100
AcDbEntity
  8
1
100
AcDbPoint
 10
1698.189439663241
 20
1209.838287957329
 30
0.0
  0
LINE
  5
7C73
330
19
100
AcDbEntity
  8
1
100
AcDbLine
 10
1698.189439663241
 20
1206.638287957329
 30
0.0
 11
1698.189439663241
 21
1209.838287957329
 31
0.0
  0
LINE
  5
7C75
330
19
100
AcDbEntity
  8
1
100
AcDbLine
 10
1623.18943966324
 20
1326.344253043448
 30
0.0
 11
1698.18943966324
 21
1326.344253043448
 31
0.0
  0
LINE
  5
7C76
330
19
100
AcDbEntity
  8
1
100
AcDbLine
 10
1684.389439663241
 20
1236.838287957329
 30
0.0
 11
1694.389439663241
 21
1236.838287957329
 31
0.0
  0
LINE
  5
7C77
330
19
100
AcDbEntity
  8
1
100
AcDbLine
 10
1694.389439663241
 20
1236.338287957329
 30
0.0
 11
1721.089439663241
 21
1236.338287957329
 31
0.0
  0
LINE
  5
7C78
330
19
100
AcDbEntity
  8
1
100
AcDbLine
 10
1953.889439663241
 20
1236.338287957329
 30
0.0
 11
1694.389439663241
 21
1236.338287957329
 31
0.0
  0
LINE
  5
7C79
330
19
100
AcDbEntity
  8
1
100
AcDbLine
 10
1684.389439663241
 20
1255.838287957329
 30
0.0
 11
1694.389439663241
 21
1255.838287957329
 31
0.0
  0
LINE
  5
7C7B
330
19
100
AcDbEntity
  8
1
100
AcDbLine
 10
2134.189439663241
 20
1136.338287957329
 30
0.0
 11
2154.189439663241
 21
1136.338287957329
 31
0.0
  0
LINE
  5
7C7C
330
19
100
AcDbEntity
  8
1
100
AcDbLine
 10
2154.189439663241
 20
1136.338287957329
 30
0.0
 11
2154.189439663241
 21
1135.338287957329
 31
0.0
  0
ARC
  5
7C7D
330
19
100
AcDbEntity
  8
1
100
AcDbCircle
 10
2152.18943966324
 20
1135.338287957329
 30
0.0
 40
2.0
100
AcDbArc
 50
270.0
 51
0.0
  0
LINE
  5
7C7E
330
19
100
AcDbEntity
  8
1
100
AcDbLine
 10
2152.18943966324
 20
1133.338287957329
 30
0.0
 11
2141.189439663241
 21
1133.338287957329
 31
0.0
  0
ARC
  5
7C7F
330
19
100
AcDbEntity
  8
1
100
AcDbCircle
 10
2141.189439663241
 20
1129.338287957329
 30
0.0
 40
4.0
100
AcDbArc
 50
90.0
 51
180.0
  0
LINE
  5
7C80
330
19
100
AcDbEntity
  8
1
100
AcDbLine
 10
2137.189439663241
 20
1129.338287957329
 30
0.0
 11
2137.189439663241
 21
1118.338287957329
 31
0.0
  0
ARC
  5
7C81
330
19
100
AcDbEntity
  8
1
100
AcDbCircle
 10
2135.189439663241
 20
1118.338287957329
 30
0.0
 40
2.0
100
AcDbArc
 50
270.0
 51
0.0
  0
LINE
  5
7C82
330
19
100
AcDbEntity
  8
1
100
AcDbLine
 10
2135.189439663241
 20
1116.338287957329
 30
0.0
 11
2134.189439663241
 21
1116.338287957329
 31
0.0
  0
LINE
  5
7C83
330
19
100
AcDbEntity
  8
1
100
AcDbLine
 10
2134.189439663241
 20
1116.338287957329
 30
0.0
 11
2134.189439663241
 21
1356.338287957329
 31
0.0
  0
LINE
  5
7C84
330
19
100
AcDbEntity
  8
1
100
AcDbLine
 10
2131.189439663241
 20
1116.338287957329
 30
0.0
 11
2134.189439663241
 21
1116.338287957329
 31
0.0
  0
LINE
  5
7C87
330
19
100
AcDbEntity
  8
1
100
AcDbLine
 10
1953.889439663241
 20
1312.338287957329
 30
0.0
 11
1981.189439663241
 21
1312.338287957329
 31
0.0
  0
LINE
  5
7C88
330
19
100
AcDbEntity
  8
1
100
AcDbLine
 10
2131.189439663235
 20
1246.338287957329
 30
0.0
 11
2131.189439663241
 21
1223.338287957329
 31
0.0
  0
LINE
  5
7C89
330
19
100
AcDbEntity
  8
1
100
AcDbLine
 10
2133.189439663241
 20
1245.338287957329
 30
0.0
 11
2133.189439663241
 21
1246.338287957329
 31
0.0
  0
LINE
  5
7C8C
330
19
100
AcDbEntity
  8
1
100
AcDbLine
 10
2152.18943966324
 20
1359.338287957329
 30
0.0
 11
2151.189439663241
 21
1359.338287957329
 31
0.0
  0
ARC
  5
7C8D
330
19
100
AcDbEntity
  8
1
100
AcDbCircle
 10
2152.18943966324
 20
1357.338287957329
 30
0.0
 40
2.0
100
AcDbArc
 50
0.0
 51
90.0
  0
LINE
  5
7C8E
330
19
100
AcDbEntity
  8
1
100
AcDbLine
 10
2154.189439663241
 20
1356.338287957329
 30
0.0
 11
2154.189439663241
 21
1357.338287957329
 31
0.0
  0
LINE
  5
7C8F
330
19
100
AcDbEntity
  8
1
100
AcDbLine
 10
2151.189439663241
 20
1356.338287957329
 30
0.0
 11
2154.189439663241
 21
1356.338287957329
 31
0.0
  0
LINE
  5
7C91
330
19
100
AcDbEntity
  8
1
100
AcDbLine
 10
643.732583586458
 20
986.2521940700704
 30
0.0
 11
1263.732583586457
 21
986.2521940700704
 31
0.0
  0
LINE
  5
7C92
330
19
100
AcDbEntity
  8
1
100
AcDbLine
 10
1039.732549602283
 20
1431.252194070071
 30
0.0
 11
1039.732549602284
 21
1411.252194070071
 31
0.0
  0
DIMENSION
  5
7C93
330
19
100
AcDbEntity
  8
3
100
AcDbDimension
280
     0
  2
*D2
 10
1017.732583586458
 20
1477.71042395946
 30
0.0
 11
917.732583586458
 21
1507.71042395946
 31
0.0
 70
    32
 71
     5
 42
-1.0
 73
     0
 74
     0
 75
     0
  3
IGA
100
AcDbAlignedDimension
 13
817.732583586458
 23
1431.252194070071
 33
0.0
 14
1017.732583586458
 24
1431.252194070071
 34
0.0
100
AcDbRotatedDimension
1001
ACAD
1000
DSTYLE
1002
{
1070
    40
1040
12.0
1070
   143
1040
0.039
1070
   172
1070
     1
1070
   271
1070
     0
1070
   279
1070
     0
1070
   288
1070
     1
1002
}
  0
DIMENSION
  5
7C94
330
19
100
AcDbEntity
  8
3
100
AcDbDimension
280
     0
  2
*D3
 10
1017.732583586458
 20
1542.844626500134
 30
0.0
 11
918.2325835864579
 21
1572.844626500134
 31
0.0
 70
    32
 71
     5
 42
-1.0
 73
     0
 74
     0
 75
     0
  3
IGA
100
AcDbAlignedDimension
 13
818.7325835864578
 23
1431.616596194241
 33
0.0
 14
1017.732583586458
 24
1431.252194070071
 34
0.0
100
AcDbRotatedDimension
1001
ACAD
1000
DSTYLE
1002
{
1070
    40
1040
12.0
1070
   143
1040
0.039
1070
   172
1070
     1
1070
   271
1070
     0
1070
   279
1070
     0
1070
   288
1070
     1
1002
}
  0
DIMENSION
  5
7C97
330
19
100
AcDbEntity
  8
3
100
AcDbDimension
280
     0
  2
*D4
 10
538.5392217033295
 20
986.2521940700704
 30
0.0
 11
508.5392217033295
 21
1116.25219407007
 31
0.0
 70
    32
 71
     5
 42
-1.0
 73
     0
 74
     0
 75
     0
  3
IGA
100
AcDbAlignedDimension
 13
633.3681814622873
 23
1246.25219407007
 33
0.0
 14
643.732583586458
 24
986.2521940700704
 34
0.0
 50
270.0
100
AcDbRotatedDimension
1001
ACAD
1000
DSTYLE
1002
{
1070
    40
1040
12.0
1070
   143
1040
0.039
1070
   172
1070
     1
1070
   271
1070
     0
1070
   279
1070
     0
1070
   288
1070
     1
1002
}
  0
LINE
  5
7C9A
330
19
100
AcDbEntity
  8
1
100
AcDbLine
 10
2016.189439663242
 20
986.3382879573295
 30
0.0
 11
2016.189439663242
 21
1026.338287957329
 31
0.0
  0
LINE
  5
7C9B
330
19
100
AcDbEntity
  8
1
100
AcDbLine
 10
1636.189439663241
 20
986.3382879573293
 30
0.0
 11
1636.189439663241
 21
1026.338287957329
 31
0.0
  0
LINE
  5
7C9C
330
19
100
AcDbEntity
  8
1
100
AcDbLine
 10
1981.18943966324
 20
1098.25219407007
 30
0.0
 11
2131.189439663241
 21
1098.25219407007
 31
0.0
  0
LINE
  5
7C9D
330
19
100
AcDbEntity
  8
1
100
AcDbLine
 10
1953.889439663241
 20
1256.338287957329
 30
0.0
 11
1694.389439663241
 21
1256.338287957329
 31
0.0
  0
LINE
  5
7C9E
330
19
100
AcDbEntity
  8
1
100
AcDbLine
 10
1694.389439663241
 20
1256.338287957329
 30
0.0
 11
1694.389439663241
 21
1255.838287957329
 31
0.0
  0
LINE
  5
7C9F
330
19
100
AcDbEntity
  8
1
100
AcDbLine
 10
1694.389439663241
 20
1236.838287957329
 30
0.0
 11
1694.389439663241
 21
1236.338287957329
 31
0.0
  0
LINE
  5
7CA0
330
19
100
AcDbEntity
  8
1
100
AcDbLine
 10
1698.18943966324
 20
1026.338287957329
 30
0.0
 11
1623.18943966324
 21
1026.338287957329
 31
0.0
  0
LINE
  5
7CA1
330
19
100
AcDbEntity
  8
1
100
AcDbLine
 10
1961.18943966324
 20
1431.252194070071
 30
0.0
 11
1961.18943966324
 21
1411.252194070071
 31
0.0
  0
LINE
  5
7CA2
330
19
100
AcDbEntity
  8
1
100
AcDbLine
 10
2151.189439663241
 20
1431.252194070071
 30
0.0
 11
2151.189439663241
 21
1411.252194070071
 31
0.0
  0
LINE
  5
7CA4
330
19
100
AcDbEntity
  8
2
100
AcDbLine
 10
1611.447176119281
 20
1136.338287957329
 30
0.0
 11
1953.889439663241
 21
1136.338287957329
 31
0.0
  0
LINE
  5
7CA5
330
19
100
AcDbEntity
  8
2
100
AcDbLine
 10
610.1686987516927
 20
2360.623949003551
 30
0.0
 11
1066.152705803069
 21
2360.623949003551
 31
0.0
  0
LINE
  5
7CA6
330
19
100
AcDbEntity
  8
1
100
AcDbLine
 10
670.7325835864581
 20
2435.62394900355
 30
0.0
 11
797.732583586458
 21
2435.623949003551
 31
0.0
  0
LINE
  5
7CA7
330
19
100
AcDbEntity
  8
1
100
AcDbLine
 10
670.7325835864581
 20
2285.62394900355
 30
0.0
 11
797.732583586458
 21
2285.623949003551
 31
0.0
  0
LINE
  5
7CA8
330
19
100
AcDbEntity
  8
1
100
AcDbLine
 10
643.732583586458
 20
2320.62394900355
 30
0.0
 11
643.732583586458
 21
1940.623949003551
 31
0.0
  0
LINE
  5
7CA9
330
19
100
AcDbEntity
  8
1
100
AcDbLine
 10
683.7325835864576
 20
2285.623949003551
 30
0.0
 11
683.7325835864585
 21
1940.623949003551
 31
0.0
  0
LINE
  5
7CAA
330
19
100
AcDbEntity
  8
2
100
AcDbLine
 10
818.732583586458
 20
1938.543305241938
 30
0.0
 11
818.7325835864577
 21
2468.09165459613
 31
0.0
  0
LINE
  5
7CAB
330
19
100
AcDbEntity
  8
1
100
AcDbLine
 10
738.726618500339
 20
1927.62394900355
 30
0.0
 11
738.726618500339
 21
2002.62394900355
 31
0.0
  0
LINE
  5
7CAC
330
19
100
AcDbEntity
  8
1
100
AcDbLine
 10
738.726618500339
 20
1927.62394900355
 30
0.0
 11
1248.584250120528
 21
1927.62394900355
 31
0.0
  0
LINE
  5
7CAD
330
19
100
AcDbEntity
  8
1
100
AcDbLine
 10
863.1825835864574
 20
1950.823949003549
 30
0.0
 11
1198.732583586458
 21
1950.823949003547
 31
0.0
  0
LINE
  5
7CAE
330
19
100
AcDbEntity
  8
1
100
AcDbLine
 10
863.1825835864574
 20
1988.82394900355
 30
0.0
 11
1198.732583586458
 21
1988.82394900355
 31
0.0
  0
LINE
  5
7CAF
330
19
100
AcDbEntity
  8
1
100
AcDbLine
 10
738.726618500339
 20
2002.62394900355
 30
0.0
 11
1248.584250120528
 21
2002.62394900355
 31
0.0
  0
LINE
  5
7CB1
330
19
100
AcDbEntity
  8
1
100
AcDbLine
 10
828.7325835864576
 20
2265.62394900355
 30
0.0
 11
828.7325835864576
 21
1998.82394900355
 31
0.0
  0
LINE
  5
7CB2
330
19
100
AcDbEntity
  8
1
100
AcDbLine
 10
808.732583586458
 20
2265.62394900355
 30
0.0
 11
808.7325835864575
 21
1998.82394900355
 31
0.0
  0
LINE
  5
7CB3
330
19
100
AcDbEntity
  8
1
100
AcDbLine
 10
768.7325835864579
 20
1950.823949003551
 30
0.0
 11
863.1825835864574
 21
1950.823949003549
 31
0.0
  0
LINE
  5
7CB4
330
19
100
AcDbEntity
  8
1
100
AcDbLine
 10
768.7325835864579
 20
1988.82394900355
 30
0.0
 11
863.1825835864574
 21
1988.82394900355
 31
0.0
  0
LINE
  5
7CB5
330
19
100
AcDbEntity
  8
1
100
AcDbLine
 10
855.2325835864577
 20
2002.623949003551
 30
0.0
 11
762.2325835864576
 21
2002.623949003551
 31
0.0
  0
LINE
  5
7CB7
330
19
100
AcDbEntity
  8
1
100
AcDbLine
 10
809.2325835864576
 20
1988.82394900355
 30
0.0
 11
809.2325835864576
 21
1998.82394900355
 31
0.0
  0
LINE
  5
7CB8
330
19
100
AcDbEntity
  8
1
100
AcDbLine
 10
828.2325835864575
 20
1988.82394900355
 30
0.0
 11
828.2325835864575
 21
1998.82394900355
 31
0.0
  0
LINE
  5
7CBA
330
19
100
AcDbEntity
  8
1
100
AcDbLine
 10
1248.584250120528
 20
2002.62394900355
 30
0.0
 11
1248.584250120528
 21
1927.62394900355
 31
0.0
  0
LINE
  5
7CBC
330
19
100
AcDbEntity
  8
1
100
AcDbLine
 10
1223.732583586457
 20
2024.823949003549
 30
0.0
 11
1223.732583586457
 21
1940.623949003551
 31
0.0
  0
LINE
  5
7CBD
330
19
100
AcDbEntity
  8
1
100
AcDbLine
 10
718.7325835864576
 20
2007.701553091187
 30
0.0
 11
718.7325835864576
 21
2285.623949003551
 31
0.0
  0
LINE
  5
7CBE
330
19
100
AcDbEntity
  8
1
100
AcDbLine
 10
918.7325835864585
 20
2007.701553091187
 30
0.0
 11
918.7325835864585
 21
2265.623949003551
 31
0.0
  0
LINE
  5
7CBF
330
19
100
AcDbEntity
  8
1
100
AcDbLine
 10
718.732583586458
 20
2007.701553091187
 30
0.0
 11
808.7325835864575
 21
2007.701553091187
 31
0.0
  0
LINE
  5
7CC1
330
19
100
AcDbEntity
  8
1
100
AcDbLine
 10
828.7325835864576
 20
2007.701553091187
 30
0.0
 11
918.7325835864577
 21
2007.701553091187
 31
0.0
  0
DIMENSION
  5
7CC2
330
19
100
AcDbEntity
  8
3
100
AcDbDimension
280
     0
  2
*D5
 10
2056.189439663242
 20
1559.598463243454
 30
0.0
 11
2101.013696871103
 21
1590.746849246951
 31
0.0
 70
   160
  1
79
 71
     5
 42
-1.0
 73
     0
 74
     0
 75
     0
  3
IGA
100
AcDbAlignedDimension
 13
2133.189439663241
 23
1376.513059168599
 33
0.0
 14
2056.189439663242
 24
1522.041553322083
 34
0.0
100
AcDbRotatedDimension
1001
ACAD
1000
DSTYLE
1002
{
1070
   288
1070
     1
1070
   172
1070
     1
1070
    40
1040
12.0
1070
   271
1070
     0
1070
   143
1040
0.039
1002
}
  0
DIMENSION
  5
7CC3
330
19
100
AcDbEntity
  8
3
100
AcDbDimension
280
     0
  2
*D6
 10
1623.18943966324
 20
1559.598463243454
 30
0.0
 11
1839.689439663241
 21
1629.027034672025
 31
0.0
 70
    32
  1
\P(520)
 71
     5
 42
433.0000000000008
 73
     0
 74
     0
 75
     0
  3
IGA
100
AcDbAlignedDimension
 13
2056.189439663242
 23
1522.041553322083
 33
0.0
 14
1623.18943966324
 24
1326.344253043448
 34
0.0
100
AcDbRotatedDimension
1001
ACAD
1000
DSTYLE
1002
{
1070
    40
1040
12.0
1070
   143
1040
0.039
1070
   172
1070
     1
1070
   271
1070
     0
1070
   279
1070
     0
1070
   288
1070
     1
1002
}
  0
DIMENSION
  5
7CC4
330
19
100
AcDbEntity
  8
3
100
AcDbDimension
280
     0
  2
*D7
 10
2131.18943966324
 20
1463.873885511944
 30
0.0
 11
2058.302632301135
 21
1492.877514232056
 31
0.0
 70
   160
 71
     5
 42
-1.0
 73
     0
 74
     0
 75
     0
  3
IGA
100
AcDbAlignedDimension
 13
1981.189439663241
 23
1411.252194070071
 33
0.0
 14
2131.18943966324
 24
1411.25219407007
 34
0.0
100
AcDbRotatedDimension
1001
ACAD
1000
DSTYLE
1002
{
1070
   288
1070
     1
1070
   172
1070
     1
1070
    40
1040
12.0
1070
   271
1070
     0
1070
   143
1040
0.039
1002
}
  0
DIMENSION
  5
7CC5
330
19
100
AcDbEntity
  8
3
100
AcDbDimension
280
     0
  2
*D8
 10
2235.20647952708
 20
1136.338287957329
 30
0.0
 11
2205.20647952708
 21
1246.338287957329
 31
0.0
 70
    32
 71
     5
 42
-1.0
 73
     0
 74
     0
 75
     0
  3
IGA
100
AcDbAlignedDimension
 13
2154.189439663241
 23
1356.338287957329
 33
0.0
 14
2154.189439663241
 24
1136.338287957329
 34
0.0
 50
90.0
100
AcDbRotatedDimension
1001
ACAD
1000
DSTYLE
1002
{
1070
     3
1000
φ<>
1070
    40
1040
12.0
1070
   143
1040
0.039
1070
   172
1070
     1
1070
   271
1070
     0
1070
   279
1070
     0
1070
   288
1070
     1
1002
}
  0
DIMENSION
  5
7CC6
330
19
100
AcDbEntity
  8
3
100
AcDbDimension
280
     0
  2
*D9
 10
532.6219975146373
 20
1940.623949003551
 30
0.0
 11
502.6219975146373
 21
2130.623949003551
 31
0.0
 70
    32
 71
     5
 42
-1.0
 73
     0
 74
     0
 75
     0
  3
IGA
100
AcDbAlignedDimension
 13
643.732583586458
 23
2320.62394900355
 33
0.0
 14
643.732583586458
 24
1940.623949003551
 34
0.0
 50
270.0
100
AcDbRotatedDimension
1001
ACAD
1000
DSTYLE
1002
{
1070
    40
1040
12.0
1070
   143
1040
0.039
1070
   172
1070
     1
1070
   271
1070
     0
1070
   279
1070
     0
1070
   288
1070
     1
1002
}
  0
DIMENSION
  5
7CC7
330
19
100
AcDbEntity
  8
3
100
AcDbDimension
280
     0
  2
*D10
 10
643.732583586458
 20
2512.257987863627
 30
0.0
 11
953.7325835864578
 21
2512.257987863627
 31
0.0
 70
   160
 71
     5
 42
-1.0
 73
     0
 74
     0
 75
     0
  3
IGA
100
AcDbAlignedDimension
 13
1263.732583586457
 23
2320.62394900355
 33
0.0
 14
643.732583586458
 24
2320.62394900355
 34
0.0
100
AcDbRotatedDimension
1001
ACAD
1000
DSTYLE
1002
{
1070
    40
1040
12.0
1070
   143
1040
0.039
1070
   172
1070
     1
1070
   271
1070
     0
1070
   279
1070
     0
1070
   288
1070
     1
1002
}
  0
DIMENSION
  5
7CC8
330
19
100
AcDbEntity
  8
3
100
AcDbDimension
280
     0
  2
*D11
 10
539.4508542496364
 20
1246.25219407007
 30
0.0
 11
509.4508542496364
 21
1338.75219407007
 31
0.0
 70
    32
 71
     5
 42
-1.0
 73
     0
 74
     0
 75
     0
  3
IGA
100
AcDbAlignedDimension
 13
795.7325835864581
 23
1431.252194070071
 33
0.0
 14
633.3681814622873
 24
1246.25219407007
 34
0.0
 50
270.0
100
AcDbRotatedDimension
1001
ACAD
1000
DSTYLE
1002
{
1070
    40
1040
12.0
1070
   143
1040
0.039
1070
   172
1070
     1
1070
   271
1070
     0
1070
   279
1070
     0
1070
   288
1070
     1
1002
}
  0
DIMENSION
  5
7CC9
330
19
100
AcDbEntity
  8
3
100
AcDbDimension
280
     0
  2
*D12
 10
670.7325835864581
 20
1542.844626500134
 30
0.0
 11
747.9598378340415
 21
1571.527479136904
 31
0.0
 70
   160
 71
     5
 42
-1.0
 73
     0
 74
     0
 75
     0
  3
IGA
100
AcDbAlignedDimension
 13
818.7325835864578
 23
1431.616596194241
 33
0.0
 14
670.7325835864581
 24
1237.252194070071
 34
0.0
100
AcDbRotatedDimension
1001
ACAD
1000
DSTYLE
1002
{
1070
   288
1070
     1
1070
   172
1070
     1
1070
    40
1040
12.0
1070
   271
1070
     0
1070
   143
1040
0.039
1002
}
  0
DIMENSION
  5
7CCD
330
19
100
AcDbEntity
  8
3
100
AcDbDimension
280
     0
  2
*D13
 10
1263.732583586457
 20
1612.585564549977
 30
0.0
 11
967.2325835864578
 21
1642.585564549977
 31
0.0
 70
    32
 71
     5
 42
-1.0
 73
     0
 74
     0
 75
     0
  3
IGA
100
AcDbAlignedDimension
 13
670.7325835864581
 23
1237.252194070071
 33
0.0
 14
1263.732583586457
 24
1026.25219407007
 34
0.0
100
AcDbRotatedDimension
1001
ACAD
1000
DSTYLE
1002
{
1070
    40
1040
12.0
1070
   143
1040
0.039
1070
   172
1070
     1
1070
   271
1070
     0
1070
   279
1070
     0
1070
   288
1070
     1
1002
}
  0
LINE
  5
7CCE
330
19
100
AcDbEntity
  8
1
100
AcDbLine
 10
1961.18943966324
 20
1431.252194070071
 30
0.0
 11
2151.189439663241
 21
1431.252194070071
 31
0.0
  0
LINE
  5
7CCF
330
19
100
AcDbEntity
  8
1
100
AcDbLine
 10
1961.18943966324
 20
1411.252194070071
 30
0.0
 11
2151.189439663241
 21
1411.252194070071
 31
0.0
  0
LINE
  5
7CD0
330
19
100
AcDbEntity
  8
1
100
AcDbLine
 10
2134.189439663241
 20
1376.338287957329
 30
0.0
 11
2134.189439663241
 21
1356.338287957329
 31
0.0
  0
LINE
  5
7CD1
330
19
100
AcDbEntity
  8
1
100
AcDbLine
 10
2137.189439663241
 20
1363.338287957329
 30
0.0
 11
2137.189439663241
 21
1374.338287957329
 31
0.0
  0
LINE
  5
7CD2
330
19
100
AcDbEntity
  8
1
100
AcDbLine
 10
2131.18943966324
 20
1376.338287957329
 30
0.0
 11
2134.189439663241
 21
1376.338287957329
 31
0.0
  0
LINE
  5
7CD3
330
19
100
AcDbEntity
  8
1
100
AcDbLine
 10
2135.189439663241
 20
1376.338287957329
 30
0.0
 11
2134.189439663241
 21
1376.338287957329
 31
0.0
  0
ARC
  5
7CD4
330
19
100
AcDbEntity
  8
1
100
AcDbCircle
 10
2135.189439663241
 20
1374.338287957329
 30
0.0
 40
2.0
100
AcDbArc
 50
0.0
 51
90.0
  0
LINE
  5
7CD5
330
19
100
AcDbEntity
  8
1
100
AcDbLine
 10
2152.18943966324
 20
1359.338287957329
 30
0.0
 11
2141.189439663241
 21
1359.338287957329
 31
0.0
  0
LINE
  5
7CD6
330
19
100
AcDbEntity
  8
1
100
AcDbLine
 10
2134.189439663241
 20
1356.338287957329
 30
0.0
 11
2154.189439663241
 21
1356.338287957329
 31
0.0
  0
ARC
  5
7CD7
330
19
100
AcDbEntity
  8
1
100
AcDbCircle
 10
2141.189439663241
 20
1363.338287957329
 30
0.0
 40
4.0
100
AcDbArc
 50
180.0
 51
270.0
  0
ARC
  5
7CD8
330
19
100
AcDbEntity
  8
1
100
AcDbCircle
 10
2152.18943966324
 20
1357.338287957329
 30
0.0
 40
2.0
100
AcDbArc
 50
0.0
 51
90.0
  0
LINE
  5
7CD9
330
19
100
AcDbEntity
  8
1
100
AcDbLine
 10
2154.189439663241
 20
1356.338287957329
 30
0.0
 11
2154.189439663241
 21
1357.338287957329
 31
0.0
  0
LINE
  5
7CDA
330
19
100
AcDbEntity
  8
1
100
AcDbLine
 10
670.7325835864581
 20
2285.62394900355
 30
0.0
 11
670.7325835864581
 21
2435.62394900355
 31
0.0
  0
LINE
  5
7CDB
330
19
100
AcDbEntity
  8
1
100
AcDbLine
 10
1017.732583586457
 20
2285.623949003551
 30
0.0
 11
1017.732583586457
 21
2435.623949003551
 31
0.0
  0
LINE
  5
7CDC
330
19
100
AcDbEntity
  8
1
100
AcDbLine
 10
797.7325835864576
 20
2455.62394900355
 30
0.0
 11
1037.732583586457
 21
2455.62394900355
 31
0.0
  0
LINE
  5
7CDD
330
19
100
AcDbEntity
  8
1
100
AcDbLine
 10
797.7325835864576
 20
2265.623949003551
 30
0.0
 11
1037.732583586457
 21
2265.623949003551
 31
0.0
  0
LINE
  5
7CDE
330
19
100
AcDbEntity
  8
1
100
AcDbLine
 10
817.7325835864575
 20
2285.623949003551
 30
0.0
 11
817.7325835864575
 21
2435.623949003551
 31
0.0
  0
LINE
  5
7CDF
330
19
100
AcDbEntity
  8
1
100
AcDbLine
 10
1037.732583586457
 20
2265.623949003551
 30
0.0
 11
1037.732583586457
 21
2455.62394900355
 31
0.0
  0
LINE
  5
7CE0
330
19
100
AcDbEntity
  8
1
100
AcDbLine
 10
797.7325835864576
 20
2265.62394900355
 30
0.0
 11
797.7325835864576
 21
2455.62394900355
 31
0.0
  0
LINE
  5
7CE1
330
19
100
AcDbEntity
  8
1
100
AcDbLine
 10
817.7325835864575
 20
2435.62394900355
 30
0.0
 11
1017.732583586457
 21
2435.623949003551
 31
0.0
  0
LINE
  5
7CE2
330
19
100
AcDbEntity
  8
1
100
AcDbLine
 10
817.7325835864575
 20
2285.62394900355
 30
0.0
 11
1017.732583586457
 21
2285.623949003551
 31
0.0
  0
LINE
  5
7CE3
330
19
100
AcDbEntity
  8
1
100
AcDbLine
 10
818.7325835864577
 20
2435.62394900355
 30
0.0
 11
1017.732583586457
 21
2285.623949003551
 31
0.0
  0
LINE
  5
7CE4
330
19
100
AcDbEntity
  8
1
100
AcDbLine
 10
1017.732583586457
 20
2435.623949003551
 30
0.0
 11
818.7325835864577
 21
2285.62394900355
 31
0.0
  0
LINE
  5
7CE5
330
19
100
AcDbEntity
  8
1
100
AcDbLine
 10
1938.38943966324
 20
1211.138275957329
 30
0.0
 11
1720.38943966324
 21
1211.138275957329
 31
0.0
  0
LINE
  5
7CE6
330
19
100
AcDbEntity
  8
1
100
AcDbLine
 10
1720.389439663239
 20
1058.338287957329
 30
0.0
 11
1938.38943966324
 21
1058.338287957329
 31
0.0
  0
LINE
  5
7CE7
330
19
100
AcDbEntity
  8
1
100
AcDbLine
 10
1938.38943966324
 20
1211.138275957329
 30
0.0
 11
1938.38943966324
 21
1058.338287957329
 31
0.0
  0
LINE
  5
7CE8
330
19
100
AcDbEntity
  8
1
100
AcDbLine
 10
1710.38943966324
 20
1102.838287957329
 30
0.0
 11
1710.38943966324
 21
1169.838287957329
 31
0.0
  0
LINE
  5
7CE9
330
19
100
AcDbEntity
  8
1
100
AcDbLine
 10
1720.38943966324
 20
1058.338287957329
 30
0.0
 11
1720.38943966324
 21
1211.138275957329
 31
0.0
  0
LINE
  5
7CEA
330
19
100
AcDbEntity
  8
1
100
AcDbLine
 10
1865.38943966324
 20
1058.338287957329
 30
0.0
 11
1865.38943966324
 21
1026.338287957329
 31
0.0
  0
LINE
  5
7CEB
330
19
100
AcDbEntity
  8
1
100
AcDbLine
 10
1745.38943966324
 20
1058.338287957329
 30
0.0
 11
1745.38943966324
 21
1026.338287957329
 31
0.0
  0
LINE
  5
7CEC
330
19
100
AcDbEntity
  8
1
100
AcDbLine
 10
1705.38943966324
 20
1146.838287957329
 30
0.0
 11
1710.38943966324
 21
1146.838287957329
 31
0.0
  0
LINE
  5
7CED
330
19
100
AcDbEntity
  8
1
100
AcDbLine
 10
1705.38943966324
 20
1125.838287957329
 30
0.0
 11
1710.38943966324
 21
1125.838287957329
 31
0.0
  0
LINE
  5
7CEE
330
19
100
AcDbEntity
  8
1
100
AcDbLine
 10
1720.38943966324
 20
1102.838287957329
 30
0.0
 11
1710.38943966324
 21
1102.838287957329
 31
0.0
  0
LINE
  5
7CEF
330
19
100
AcDbEntity
  8
1
100
AcDbLine
 10
1720.38943966324
 20
1106.403290957329
 30
0.0
 11
1720.38943966324
 21
1097.773285957329
 31
0.0
  0
LINE
  5
7CF0
330
19
100
AcDbEntity
  8
1
100
AcDbLine
 10
1720.38943966324
 20
1108.588348957329
 30
0.0
 11
1720.38943966324
 21
1096.324414957329
 31
0.0
  0
LINE
  5
7CF1
330
19
100
AcDbEntity
  8
1
100
AcDbLine
 10
1720.38943966324
 20
1097.654083957329
 30
0.0
 11
1720.38943966324
 21
1106.654083957329
 31
0.0
  0
LINE
  5
7CF2
330
19
100
AcDbEntity
  8
1
100
AcDbLine
 10
1705.38943966324
 20
1145.838287957329
 30
0.0
 11
1684.389439663241
 21
1145.838287957329
 31
0.0
  0
LINE
  5
7CF3
330
19
100
AcDbEntity
  8
1
100
AcDbLine
 10
1684.389439663241
 20
1126.838287957329
 30
0.0
 11
1705.38943966324
 21
1126.838287957329
 31
0.0
  0
LINE
  5
7CF4
330
19
100
AcDbEntity
  8
1
100
AcDbLine
 10
1705.38943966324
 20
1125.838287957329
 30
0.0
 11
1705.38943966324
 21
1146.838287957329
 31
0.0
  0
LINE
  5
7CF5
330
19
100
AcDbEntity
  8
1
100
AcDbLine
 10
1710.38943966324
 20
1169.838287957329
 30
0.0
 11
1720.38943966324
 21
1169.838287957329
 31
0.0
  0
LINE
  5
7CF6
330
19
100
AcDbEntity
  8
1
100
AcDbLine
 10
1720.38943966324
 20
1209.153290957329
 30
0.0
 11
1720.38943966324
 21
1200.523285957329
 31
0.0
  0
LINE
  5
7CF7
330
19
100
AcDbEntity
  8
1
100
AcDbLine
 10
1720.38943966324
 20
1200.404083957329
 30
0.0
 11
1720.38943966324
 21
1209.404083957329
 31
0.0
  0
LINE
  5
7CF8
330
19
100
AcDbEntity
  8
1
100
AcDbLine
 10
1226.232583586458
 20
1056.25219407007
 30
0.0
 11
1191.232583586458
 21
1056.25219407007
 31
0.0
  0
LINE
  5
7CF9
330
19
100
AcDbEntity
  8
1
100
AcDbLine
 10
1230.507181152222
 20
1056.25219407007
 30
0.0
 11
1211.055751586458
 21
1078.43369007007
 31
0.0
  0
LINE
  5
7CFA
330
19
100
AcDbEntity
  8
2
100
AcDbLine
 10
1235.523324586458
 20
1136.25219407007
 30
0.0
 11
1055.176706586458
 21
1136.25219407007
 31
0.0
  0
LINE
  5
7CFB
330
19
100
AcDbEntity
  8
1
100
AcDbLine
 10
1251.232583586458
 20
1056.25219407007
 30
0.0
 11
1046.232583586458
 21
1056.25219407007
 31
0.0
  0
LINE
  5
7CFC
330
19
100
AcDbEntity
  8
1
100
AcDbLine
 10
1256.232583586458
 20
1026.25219407007
 30
0.0
 11
1041.232583586458
 21
1026.25219407007
 31
0.0
  0
ARC
  5
7CFD
330
19
100
AcDbEntity
  8
1
100
AcDbCircle
 10
1148.732583586458
 20
1136.25219407007
 30
0.0
 40
85.0
100
AcDbArc
 50
295.875534
 51
180.0
  0
ARC
  5
7CFE
330
19
100
AcDbEntity
  8
1
100
AcDbCircle
 10
1148.732583586458
 20
1136.25219407007
 30
0.0
 40
85.0
100
AcDbArc
 50
295.875534
 51
180.0
  0
LINE
  5
7CFF
330
19
100
AcDbEntity
  8
1
100
AcDbLine
 10
1251.232583586458
 20
1056.25219407007
 30
0.0
 11
1256.232583586458
 21
1026.25219407007
 31
0.0
  0
LINE
  5
7D00
330
19
100
AcDbEntity
  8
1
100
AcDbLine
 10
1066.958074911864
 20
1056.25219407007
 30
0.0
 11
1086.411275586458
 21
1078.43583207007
 31
0.0
  0
ARC
  5
7D01
330
19
100
AcDbEntity
  8
1
100
AcDbCircle
 10
1148.732583586458
 20
1136.25219407007
 30
0.0
 40
85.000008
100
AcDbArc
 50
180.0
 51
244.082274
  0
LINE
  5
7D02
330
19
100
AcDbEntity
  8
2
100
AcDbLine
 10
1148.732583586458
 20
1232.539845608403
 30
0.0
 11
1148.732583586458
 21
981.313262006212
 31
0.0
  0
LINE
  5
7D03
330
19
100
AcDbEntity
  8
1
100
AcDbLine
 10
1071.232583586458
 20
1056.25219407007
 30
0.0
 11
1106.232583586458
 21
1056.25219407007
 31
0.0
  0
LINE
  5
7D04
330
19
100
AcDbEntity
  8
1
100
AcDbLine
 10
1185.828082586458
 20
1059.80126607007
 30
0.0
 11
1111.580774586458
 21
1059.80126607007
 31
0.0
  0
LINE
  5
7D05
330
19
100
AcDbEntity
  8
1
100
AcDbLine
 10
1046.232583586458
 20
1056.25219407007
 30
0.0
 11
1041.232583586458
 21
1026.25219407007
 31
0.0
  0
LINE
  5
7D06
330
19
100
AcDbEntity
  8
1
100
AcDbLine
 10
1158.232583586457
 20
1988.82394900355
 30
0.0
 11
1158.232583586458
 21
2009.823949003549
 31
0.0
  0
LINE
  5
7D07
330
19
100
AcDbEntity
  8
1
100
AcDbLine
 10
1139.232583586458
 20
2009.823949003549
 30
0.0
 11
1139.232583586458
 21
1988.82394900355
 31
0.0
  0
LINE
  5
7D08
330
19
100
AcDbEntity
  8
2
100
AcDbLine
 10
1148.732583586458
 20
2248.497594003549
 30
0.0
 11
1148.732583586458
 21
1937.560395697939
 31
0.0
  0
LINE
  5
7D09
330
19
100
AcDbEntity
  8
1
100
AcDbLine
 10
1226.732583586458
 20
2024.823949003549
 30
0.0
 11
1226.732583586458
 21
2242.823949003549
 31
0.0
  0
LINE
  5
7D0A
330
19
100
AcDbEntity
  8
1
100
AcDbLine
 10
1073.932595586458
 20
2242.823949003549
 30
0.0
 11
1073.932595586458
 21
2024.823949003549
 31
0.0
  0
LINE
  5
7D0B
330
19
100
AcDbEntity
  8
1
100
AcDbLine
 10
1073.932595586458
 20
2242.823949003549
 30
0.0
 11
1226.732583586458
 21
2242.823949003549
 31
0.0
  0
LINE
  5
7D0C
330
19
100
AcDbEntity
  8
1
100
AcDbLine
 10
1226.732583586458
 20
2024.823949003549
 30
0.0
 11
1073.932595586458
 21
2024.823949003549
 31
0.0
  0
LINE
  5
7D0D
330
19
100
AcDbEntity
  8
1
100
AcDbLine
 10
1182.232583586458
 20
2014.823949003549
 30
0.0
 11
1115.232583586458
 21
2014.823949003549
 31
0.0
  0
LINE
  5
7D0E
330
19
100
AcDbEntity
  8
1
100
AcDbLine
 10
1187.416787586458
 20
2024.823949003549
 30
0.0
 11
1178.416787586457
 21
2024.823949003549
 31
0.0
  0
LINE
  5
7D0F
330
19
100
AcDbEntity
  8
1
100
AcDbLine
 10
1176.482522586458
 20
2024.823949003549
 30
0.0
 11
1188.746456586458
 21
2024.823949003549
 31
0.0
  0
LINE
  5
7D10
330
19
100
AcDbEntity
  8
1
100
AcDbLine
 10
1178.667580586458
 20
2024.823949003549
 30
0.0
 11
1187.297585586458
 21
2024.823949003549
 31
0.0
  0
LINE
  5
7D11
330
19
100
AcDbEntity
  8
1
100
AcDbLine
 10
1182.232583586458
 20
2024.823949003549
 30
0.0
 11
1182.232583586458
 21
2014.823949003549
 31
0.0
  0
LINE
  5
7D12
330
19
100
AcDbEntity
  8
1
100
AcDbLine
 10
1159.232583586458
 20
2009.823949003549
 30
0.0
 11
1138.232583586458
 21
2009.823949003549
 31
0.0
  0
LINE
  5
7D13
330
19
100
AcDbEntity
  8
1
100
AcDbLine
 10
1159.232583586458
 20
2009.823949003549
 30
0.0
 11
1159.232583586458
 21
2014.823949003549
 31
0.0
  0
LINE
  5
7D14
330
19
100
AcDbEntity
  8
1
100
AcDbLine
 10
1138.232583586458
 20
2009.823949003549
 30
0.0
 11
1138.232583586458
 21
2014.823949003549
 31
0.0
  0
LINE
  5
7D15
330
19
100
AcDbEntity
  8
1
100
AcDbLine
 10
1084.666787586457
 20
2024.823949003549
 30
0.0
 11
1075.666787586458
 21
2024.823949003549
 31
0.0
  0
LINE
  5
7D16
330
19
100
AcDbEntity
  8
1
100
AcDbLine
 10
1075.917580586458
 20
2024.823949003549
 30
0.0
 11
1084.547585586458
 21
2024.823949003549
 31
0.0
  0
LINE
  5
7D17
330
19
100
AcDbEntity
  8
1
100
AcDbLine
 10
1115.232583586458
 20
2014.823949003549
 30
0.0
 11
1115.232583586458
 21
2024.823949003549
 31
0.0
  0
ARC
  5
7D18
330
19
100
AcDbEntity
  8
1
100
AcDbCircle
 10
1080.158288586458
 20
2023.823949003549
 30
0.0
 40
2.0
100
AcDbArc
 50
150.0
 51
168.8609599999999
  0
LINE
  5
7D19
330
19
100
AcDbEntity
  8
1
100
AcDbLine
 10
1938.38943966324
 20
1211.138275957329
 30
0.0
 11
1720.38943966324
 21
1211.138275957329
 31
0.0
  0
LINE
  5
7D1A
330
19
100
AcDbEntity
  8
1
100
AcDbLine
 10
1684.389439663241
 20
1126.838287957329
 30
0.0
 11
1698.189439663241
 21
1126.838287957329
 31
0.0
  0
LINE
  5
7D1B
330
19
100
AcDbEntity
  8
1
100
AcDbLine
 10
1698.189439663241
 20
1145.838287957329
 30
0.0
 11
1684.389439663241
 21
1145.838287957329
 31
0.0
  0
LINE
  5
7D1C
330
19
100
AcDbEntity
  8
1
100
AcDbLine
 10
1720.38943966324
 20
1209.838287957329
 30
0.0
 11
1720.38943966324
 21
1211.138275957329
 31
0.0
  0
LINE
  5
7D1D
330
19
100
AcDbEntity
  8
1
100
AcDbLine
 10
1938.38943966324
 20
1211.138275957329
 30
0.0
 11
1938.38943966324
 21
1209.838287957329
 31
0.0
  0
LINE
  5
7D1E
330
19
100
AcDbEntity
  8
1
100
AcDbLine
 10
1938.38943966324
 20
1209.838287957329
 30
0.0
 11
1953.889439663241
 21
1209.838287957329
 31
0.0
  0
LINE
  5
7D1F
330
19
100
AcDbEntity
  8
1
100
AcDbLine
 10
1702.889439663241
 20
1145.838287957329
 30
0.0
 11
1702.889439663241
 21
1209.838287957329
 31
0.0
  0
LINE
  5
7EFF
330
19
100
AcDbEntity
  8
4
100
AcDbLine
 10
2220.0
 20
600.0
 30
0.0
 11
2220.0
 21
360.0
 31
0.0
  0
LINE
  5
7F00
330
19
100
AcDbEntity
  8
4
100
AcDbLine
 10
1380.0
 20
600.0
 30
0.0
 11
1380.0
 21
360.0
 31
0.0
  0
LINE
  5
7F01
330
19
100
AcDbEntity
  8
4
100
AcDbLine
 10
780.0
 20
600.0
 30
0.0
 11
780.0
 21
360.0
 31
0.0
  0
LINE
  5
7F04
330
19
100
AcDbEntity
  8
4
100
AcDbLine
 10
780.0
 20
360.0
 30
0.0
 11
2220.0
 21
360.0
 31
0.0
  0
LINE
  5
7F05
330
19
100
AcDbEntity
  8
4
100
AcDbLine
 10
780.0
 20
480.0
 30
0.0
 11
2220.0
 21
480.0
 31
0.0
  0
TEXT
  5
7F06
330
19
100
AcDbEntity
  8
4
100
AcDbText
 10
826.2024970162819
 20
517.8516310399354
 30
0.0
 40
60.0
  1
機器名称
100
AcDbText
  0
TEXT
  5
7F07
330
19
100
AcDbEntity
  8
4
100
AcDbText
 10
823.509727229757
 20
385.9741880784131
 30
0.0
 40
60.0
  1
機器型番
100
AcDbText
  0
TEXT
  5
7F08
330
19
100
AcDbEntity
  8
4
100
AcDbText
 10
1413.214494585198
 20
507.0861227490822
 30
0.0
 40
60.0
  1
ミツヤ多翼送風機
100
AcDbText
  0
TEXT
  5
7F09
330
19
100
AcDbEntity
  8
4
100
AcDbText
 10
1423.985394702577
 20
380.5915011359321
 30
0.0
 40
60.0
  1
MF#1 1/4-1
100
AcDbText
  0
TEXT
  5
7F0B
330
19
100
AcDbEntity
  8
4
100
AcDbText
 10
882.8998187788457
 20
2860.114609599019
 30
0.0
 40
64.8
  1
床置防振ベット
100
AcDbText
  0
TEXT
  5
7F0C
330
19
100
AcDbEntity
  8
4
100
AcDbText
 10
379.4011119953357
 20
3040.657171439157
 30
0.0
 40
86.4
  1
遠心式片吸込片持多翼ファン
100
AcDbText
  0
LINE
  5
7F0D
330
19
100
AcDbEntity
  8
4
100
AcDbLine
 10
300.0
 20
2963.290505117766
 30
0.0
 11
2220.0
 21
2963.290505117766
 31
0.0
  0
LINE
  5
7F0E
330
19
100
AcDbEntity
  8
4
100
AcDbLine
 10
300.0
 20
3203.290505117766
 30
0.0
 11
2220.0
 21
3203.290505117766
 31
0.0
  0
LINE
  5
7F0F
330
19
100
AcDbEntity
  8
4
100
AcDbLine
 10
780.0
 20
600.0
 30
0.0
 11
2220.0
 21
600.0
 31
0.0
  0
LINE
  5
7F10
330
19
100
AcDbEntity
  8
4
100
AcDbLine
 10
300.0
 20
3203.290505117766
 30
0.0
 11
300.0
 21
2963.290505117766
 31
0.0
  0
TEXT
  5
7F11
330
19
100
AcDbEntity
  8
4
100
AcDbText
 10
359.869220087603
 20
2858.783373055612
 30
0.0
 40
64.8
  1
左回転上向
100
AcDbText
  0
TEXT
  5
7F12
330
19
100
AcDbEntity
  8
4
100
AcDbText
 10
1762.763471099148
 20
3247.273297794371
 30
0.0
 40
67.2
  1
No.
100
AcDbText
  0
TEXT
  5
7F13
330
19
100
AcDbEntity
  8
4
100
AcDbText
 10
1573.555275120016
 20
2860.114609599019
 30
0.0
 40
64.8
  1
縮尺：1/12
100
AcDbText
  0
LINE
  5
7F14
330
19
100
AcDbEntity
  8
4
100
AcDbLine
 10
2220.0
 20
3203.290505117766
 30
0.0
 11
2220.0
 21
2963.290505117766
 31
0.0
  0
LINE
  5
7F15
330
19
100
AcDbEntity
  8
4
100
AcDbLine
 10
2520.0
 20
3540.0
 30
0.0
 11
2520.0
 21
3540.0
 31
0.0
  0
LINE
  5
7F16
330
19
100
AcDbEntity
  8
4
100
AcDbLine
 10
1728.740906831837
 20
3217.516299750482
 30
0.0
 11
1728.740906831837
 21
3343.982713859703
 31
0.0
  0
LINE
  5
7F17
330
19
100
AcDbEntity
  8
4
100
AcDbLine
 10
1728.740906831837
 20
3343.982713859703
 30
0.0
 11
2220.0
 21
3343.982713859703
 31
0.0
  0
LINE
  5
7F18
330
19
100
AcDbEntity
  8
4
100
AcDbLine
 10
2220.0
 20
3343.982713859703
 30
0.0
 11
2220.0
 21
3217.516299750482
 31
0.0
  0
LINE
  5
7F19
330
19
100
AcDbEntity
  8
4
100
AcDbLine
 10
2220.0
 20
3217.516299750482
 30
0.0
 11
1728.740906831837
 21
3217.516299750482
 31
0.0
  0
LINE
  5
7F1A
330
19
100
AcDbEntity
  8
4
100
AcDbLine
 10
0.0
 20
0.0
 30
0.0
 11
0.0
 21
3540.0
 31
0.0
  0
LINE
  5
7F1B
330
19
100
AcDbEntity
  8
4
100
AcDbLine
 10
0.0
 20
3540.0
 30
0.0
 11
2520.0
 21
3540.0
 31
0.0
  0
LINE
  5
7F1C
330
19
100
AcDbEntity
  8
4
100
AcDbLine
 10
2520.0
 20
3540.0
 30
0.0
 11
2520.0
 21
0.0
 31
0.0
  0
LINE
  5
7F1D
330
19
100
AcDbEntity
  8
4
100
AcDbLine
 10
2520.0
 20
0.0
 30
0.0
 11
0.0
 21
0.0
 31
0.0
  0
CIRCLE
  5
814F
330
19
100
AcDbEntity
  8
1
100
AcDbCircle
 10
818.7325835864578
 20
1246.25219407007
 30
0.0
 40
50.0
  0
CIRCLE
  5
8150
330
19
100
AcDbEntity
  8
1
100
AcDbCircle
 10
1148.732583586458
 20
1136.25219407007
 30
0.0
 40
50.0
  0
LINE
  5
8151
330
19
100
AcDbEntity
  8
1
100
AcDbLine
 10
834.5439718872997
 20
1293.686358972596
 30
0.0
 11
1164.5439718873
 21
1183.686358972596
 31
0.0
  0
LINE
  5
8152
330
19
100
AcDbEntity
  8
1
100
AcDbLine
 10
802.9211952856158
 20
1198.818029167544
 30
0.0
 11
1132.921195285616
 21
1088.818029167544
 31
0.0
  0
LINE
  5
8153
330
19
100
AcDbEntity
  8
1
100
AcDbLine
 10
1646.389439663242
 20
1296.338287957329
 30
0.0
 11
1684.389439663241
 21
1296.338287957329
 31
0.0
  0
LINE
  5
8154
330
19
100
AcDbEntity
  8
1
100
AcDbLine
 10
1646.38943966324
 20
1196.338287957329
 30
0.0
 11
1684.389439663241
 21
1196.338287957329
 31
0.0
  0
LINE
  5
8155
330
19
100
AcDbEntity
  8
1
100
AcDbLine
 10
1646.38943966324
 20
1186.338287957329
 30
0.0
 11
1684.389439663241
 21
1186.338287957329
 31
0.0
  0
LINE
  5
8156
330
19
100
AcDbEntity
  8
1
100
AcDbLine
 10
1646.38943966324
 20
1086.338287957329
 30
0.0
 11
1684.389439663241
 21
1086.338287957329
 31
0.0
  0
LINE
  5
8162
330
19
100
AcDbEntity
  8
1
100
AcDbLine
 10
868.732583586458
 20
1950.823949003549
 30
0.0
 11
868.732583586458
 21
1988.823949003551
 31
0.0
  0
LINE
  5
8163
330
19
100
AcDbEntity
  8
1
100
AcDbLine
 10
768.732583586458
 20
1950.823949003551
 30
0.0
 11
768.7325835864582
 21
1988.82394900355
 31
0.0
  0
LINE
  5
8164
330
19
100
AcDbEntity
  8
1
100
AcDbLine
 10
1198.732583586458
 20
1988.82394900355
 30
0.0
 11
1198.732583586458
 21
1950.823949003547
 31
0.0
  0
LINE
  5
8165
330
19
100
AcDbEntity
  8
1
100
AcDbLine
 10
1098.732583586458
 20
1988.82394900355
 30
0.0
 11
1098.732583586458
 21
1950.823949003548
 31
0.0
  0
LINE
  5
81C6
330
19
100
AcDbEntity
  8
1
100
AcDbLine
 10
1037.732583586457
 20
2320.623949003551
 30
0.0
 11
1263.732583586457
 21
2320.62394900355
 31
0.0
  0
LINE
  5
81C7
330
19
100
AcDbEntity
  8
1
100
AcDbLine
 10
683.7325835864577
 20
2280.623949003552
 30
0.0
 11
718.7325835864576
 21
2280.623949003552
 31
0.0
  0
LINE
  5
81C8
330
19
100
AcDbEntity
  8
1
100
AcDbLine
 10
1037.732583586457
 20
2280.623949003551
 30
0.0
 11
1223.732583586457
 21
2280.623949003551
 31
0.0
  0
LINE
  5
81D4
330
19
100
AcDbEntity
  8
1
100
AcDbLine
 10
683.7325835864584
 20
1980.623949003551
 30
0.0
 11
1223.732583586457
 21
1980.623949003554
 31
0.0
  0
DIMENSION
  5
824F
330
19
100
AcDbEntity
  8
3
100
AcDbDimension
280
     0
  2
*D14
 10
818.7325835864578
 20
787.9753139735858
 30
0.0
 11
731.2325835864579
 21
817.9753139735858
 31
0.0
 70
    32
 71
     5
 42
174.9999999999998
 73
     0
 74
     0
 75
     0
  3
IGA
100
AcDbAlignedDimension
 13
643.732583586458
 23
876.2521940700704
 33
0.0
 14
818.7325835864578
 24
876.2521940700704
 34
0.0
100
AcDbRotatedDimension
1001
ACAD
1000
DSTYLE
1002
{
1070
    40
1040
12.0
1070
   143
1040
0.039
1070
   172
1070
     1
1070
   271
1070
     0
1070
   279
1070
     0
1002
}
  0
DIMENSION
  5
825C
330
19
100
AcDbEntity
  8
3
100
AcDbDimension
280
     0
  2
*D15
 10
1263.732583586457
 20
787.9753139735858
 30
0.0
 11
1041.232583586457
 21
817.9753139735858
 31
0.0
 70
    32
 71
     5
 42
444.9999999999997
 73
     0
 74
     0
 75
     0
  3
IGA
100
AcDbAlignedDimension
 13
818.7325835864578
 23
876.2521940700704
 33
0.0
 14
1263.732583586457
 24
876.2521940700704
 34
0.0
100
AcDbRotatedDimension
1001
ACAD
1000
DSTYLE
1002
{
1070
    40
1040
12.0
1070
   143
1040
0.039
1070
   172
1070
     1
1070
   271
1070
     0
1070
   279
1070
     0
1002
}
  0
DIMENSION
  5
8269
330
19
100
AcDbEntity
  8
3
100
AcDbDimension
280
     0
  2
*D16
 10
2016.189439663242
 20
787.9753139735858
 30
0.0
 11
1826.189439663241
 21
817.9753139735858
 31
0.0
 70
    32
 71
     5
 42
380.0
 73
     0
 74
     0
 75
     0
  3
IGA
100
AcDbAlignedDimension
 13
1636.189439663241
 23
876.3382879573294
 33
0.0
 14
2016.189439663242
 24
876.3382879573295
 34
0.0
100
AcDbRotatedDimension
1001
ACAD
1000
DSTYLE
1002
{
1070
    40
1040
12.0
1070
   143
1040
0.039
1070
   172
1070
     1
1070
   271
1070
     0
1070
   279
1070
     0
1002
}
  0
DIMENSION
  5
8278
330
19
100
AcDbEntity
  8
3
100
AcDbDimension
280
     0
  2
*D17
 10
2056.189439663242
 20
787.9753139735858
 30
0.0
 11
2145.332296806099
 21
817.9753139735858
 31
0.0
 70
    32
 71
     5
 42
40.0
 73
     0
 74
     0
 75
     0
  3
IGA
100
AcDbAlignedDimension
 13
2016.189439663242
 23
876.3382879573295
 33
0.0
 14
2056.189439663242
 24
876.3382879573297
 34
0.0
100
AcDbRotatedDimension
1001
ACAD
1000
DSTYLE
1002
{
1070
    40
1040
12.0
1070
   143
1040
0.039
1070
   172
1070
     1
1070
   271
1070
     0
1070
   279
1070
     0
1002
}
  0
LINE
  5
828B
330
19
100
AcDbEntity
  8
1
100
AcDbLine
 10
1636.189439663241
 20
876.3382879573294
 30
0.0
 11
2016.189439663242
 21
876.3382879573295
 31
0.0
  0
LINE
  5
828C
330
19
100
AcDbEntity
  8
1
100
AcDbLine
 10
1636.189439663241
 20
916.3382879573294
 30
0.0
 11
2016.189439663242
 21
916.3382879573296
 31
0.0
  0
LINE
  5
828D
330
19
100
AcDbEntity
  8
1
100
AcDbLine
 10
2016.189439663242
 20
876.3382879573295
 30
0.0
 11
2016.189439663242
 21
916.3382879573296
 31
0.0
  0
LINE
  5
828E
330
19
100
AcDbEntity
  8
1
100
AcDbLine
 10
1636.189439663241
 20
876.3382879573294
 30
0.0
 11
1636.189439663241
 21
916.3382879573291
 31
0.0
  0
LINE
  5
828F
330
19
100
AcDbEntity
  8
1
100
AcDbLine
 10
643.732583586458
 20
876.2521940700704
 30
0.0
 11
1263.732583586457
 21
876.2521940700704
 31
0.0
  0
LINE
  5
8290
330
19
100
AcDbEntity
  8
1
100
AcDbLine
 10
1263.732583586457
 20
916.2521940700703
 30
0.0
 11
1263.732583586457
 21
876.2521940700704
 31
0.0
  0
LINE
  5
8291
330
19
100
AcDbEntity
  8
1
100
AcDbLine
 10
1263.732583586457
 20
916.2521940700703
 30
0.0
 11
643.732583586458
 21
916.2521940700699
 31
0.0
  0
LINE
  5
8292
330
19
100
AcDbEntity
  8
1
100
AcDbLine
 10
643.732583586458
 20
916.2521940700699
 30
0.0
 11
643.732583586458
 21
876.2521940700699
 31
0.0
  0
DIMENSION
  5
82A2
330
19
100
AcDbEntity
  8
3
100
AcDbDimension
280
     0
  2
*D18
 10
538.5392217033295
 20
876.2521940700704
 30
0.0
 11
508.5392217033294
 21
787.1093369272133
 31
0.0
 70
    32
 71
     5
 42
39.99999999999955
 73
     0
 74
     0
 75
     0
  3
IGA
100
AcDbAlignedDimension
 13
643.732583586458
 23
916.2521940700699
 33
0.0
 14
643.732583586458
 24
876.2521940700704
 34
0.0
 50
90.0
100
AcDbRotatedDimension
1001
ACAD
1000
DSTYLE
1002
{
1070
    40
1040
12.0
1070
   143
1040
0.039
1070
   172
1070
     1
1070
   271
1070
     0
1070
   279
1070
     0
1070
   343
1005
7A02
1002
}
  0
DIMENSION
  5
82CD
330
19
100
AcDbEntity
  8
3
100
AcDbDimension
280
     0
  2
*D19
 10
538.5392217033295
 20
986.2521940700704
 30
0.0
 11
504.2693763248971
 21
952.640598677477
 31
0.0
 70
   160
 71
     5
 42
70.00000000000046
 73
     0
 74
     0
 75
     0
  3
IGA
100
AcDbAlignedDimension
 13
643.732583586458
 23
916.2521940700699
 33
0.0
 14
643.732583586458
 24
986.2521940700704
 34
0.0
 50
90.0
100
AcDbRotatedDimension
1001
ACAD
1000
DSTYLE
1002
{
1070
     3
1000
(<>)
1070
    40
1040
12.0
1070
   143
1040
0.039
1070
   172
1070
     1
1070
   271
1070
     0
1070
   343
1005
7A02
1002
}
  0
DIMENSION
  5
82DA
330
19
100
AcDbEntity
  8
3
100
AcDbDimension
280
     0
  2
*D20
 10
434.0919833112602
 20
876.2521940700704
 30
0.0
 11
394.6634118826887
 21
1153.752194070071
 31
0.0
 70
    32
 71
     5
 42
555.0000000000006
 73
     0
 74
     0
 75
     0
  3
IGA
100
AcDbAlignedDimension
 13
795.7325835864581
 23
1431.252194070071
 33
0.0
 14
643.732583586458
 24
876.2521940700704
 34
0.0
 50
90.0
100
AcDbRotatedDimension
1001
ACAD
1000
DSTYLE
1002
{
1070
   172
1070
     1
1070
    40
1040
12.0
1070
     3
1000
(<>)
1070
   271
1070
     0
1070
   143
1040
0.039
1002
}
  0
ENDSEC
  0
SECTION
  2
OBJECTS
  0
DICTIONARY
  5
C
330
0
100
AcDbDictionary
281
     1
  3
ACAD_CIP_PREVIOUS_PRODUCT_INFO
350
833C
  3
ACAD_COLOR
350
831F
  3
ACAD_DETAILVIEWSTYLE
350
8338
  3
ACAD_GROUP
350
D
  3
ACAD_LAYOUT
350
82DF
  3
ACAD_MATERIAL
350
82ED
  3
ACAD_MLEADERSTYLE
350
8334
  3
ACAD_MLINESTYLE
350
E
  3
ACAD_PLOTSETTINGS
350
82E0
  3
ACAD_PLOTSTYLENAME
350
82DD
  3
ACAD_SCALELIST
350
8322
  3
ACAD_SECTIONVIEWSTYLE
350
8336
  3
ACAD_TABLESTYLE
350
8320
  3
ACAD_VISUALSTYLE
350
8306
  3
ACDB_RECOMPOSE_DATA
350
8414
  3
AcDbVariableDictionary
350
83D5
  0
DICTIONARY
  5
8392
330
2
100
AcDbDictionary
280
     1
281
     1
  3
ACAD_LAYERSTATES
360
8393
  0
DICTIONARY
  5
8385
330
F
100
AcDbDictionary
280
     1
281
     1
  3
ADSK_XREC_LAYER_RECONCILED
360
8386
  0
DICTIONARY
  5
8387
330
31
100
AcDbDictionary
280
     1
281
     1
  3
ADSK_XREC_LAYER_RECONCILED
360
8388
  0
DICTIONARY
  5
8389
330
76D0
100
AcDbDictionary
280
     1
281
     1
  3
ADSK_XREC_LAYER_RECONCILED
360
838A
  0
DICTIONARY
  5
838B
330
76D1
100
AcDbDictionary
280
     1
281
     1
  3
ADSK_XREC_LAYER_RECONCILED
360
838C
  0
DICTIONARY
  5
838D
330
76D2
100
AcDbDictionary
280
     1
281
     1
  3
ADSK_XREC_LAYER_RECONCILED
360
838E
  0
DICTIONARY
  5
833E
330
19
100
AcDbDictionary
280
     1
281
     1
  3
ACAD_SORTENTS
360
833F
  0
XRECORD
  5
833C
102
{ACAD_REACTORS
330
C
102
}
330
C
100
AcDbXrecord
280
     1
300
ACDLT
300
2015
300
INVLTS_F_S
  0
DICTIONARY
  5
831F
102
{ACAD_REACTORS
330
C
102
}
330
C
100
AcDbDictionary
281
     1
  0
DICTIONARY
  5
8338
102
{ACAD_REACTORS
330
C
102
}
330
C
100
AcDbDictionary
281
     1
  3
Metric50
350
8339
  0
DICTIONARY
  5
D
102
{ACAD_REACTORS
330
C
102
}
330
C
100
AcDbDictionary
281
     1
  0
DICTIONARY
  5
82DF
102
{ACAD_REACTORS
330
C
102
}
330
C
100
AcDbDictionary
281
     1
  3
Model
350
82E1
  3
ﾚｲｱｳﾄ1
350
82E2
  0
DICTIONARY
  5
82ED
102
{ACAD_REACTORS
330
C
102
}
330
C
100
AcDbDictionary
281
     1
  3
ByBlock
350
82F6
  3
ByLayer
350
82EE
  3
Global
350
82FE
  0
DICTIONARY
  5
8334
102
{ACAD_REACTORS
330
C
102
}
330
C
100
AcDbDictionary
281
     1
  3
Standard
350
8335
  0
DICTIONARY
  5
E
102
{ACAD_REACTORS
330
C
102
}
330
C
100
AcDbDictionary
281
     1
  3
STANDARD
350
1C
  0
DICTIONARY
  5
82E0
102
{ACAD_REACTORS
330
C
102
}
330
C
100
AcDbDictionary
281
     1
  0
ACDBDICTIONARYWDFLT
  5
82DD
102
{ACAD_REACTORS
330
C
102
}
330
C
100
AcDbDictionary
281
     1
  3
Normal
350
82DE
100
AcDbDictionaryWithDefault
340
82DE
  0
DICTIONARY
  5
8322
102
{ACAD_REACTORS
330
C
102
}
330
C
100
AcDbDictionary
281
     1
  3
A0
350
8323
  3
A1
350
8324
  3
A2
350
8325
  3
A3
350
8326
  3
A4
350
8327
  3
A5
350
8328
  3
A6
350
8329
  3
A7
350
832A
  3
A8
350
832B
  3
A9
350
832C
  3
B0
350
832D
  3
B1
350
832E
  3
B2
350
832F
  3
B3
350
8330
  3
B4
350
8331
  3
B5
350
8332
  3
B6
350
8333
  0
DICTIONARY
  5
8336
102
{ACAD_REACTORS
330
C
102
}
330
C
100
AcDbDictionary
281
     1
  3
Metric50
350
8337
  0
DICTIONARY
  5
8320
102
{ACAD_REACTORS
330
C
102
}
330
C
100
AcDbDictionary
281
     1
  3
Standard
350
8321
  0
DICTIONARY
  5
8306
102
{ACAD_REACTORS
330
C
102
}
330
C
100
AcDbDictionary
281
     1
  3
2dWireframe
350
830C
  3
Basic
350
830B
  3
Brighten
350
8312
  3
ColorChange
350
8316
  3
Conceptual
350
830F
  3
Dim
350
8311
  3
EdgeColorOff
350
831E
  3
Facepattern
350
8315
  3
Flat
350
8307
  3
FlatWithEdges
350
8308
  3
Gouraud
350
8309
  3
GouraudWithEdges
350
830A
  3
Hidden
350
830E
  3
JitterOff
350
831C
  3
Linepattern
350
8314
  3
OverhangOff
350
831D
  3
Realistic
350
8310
  3
Shaded
350
831B
  3
Shaded with edges
350
831A
  3
Shades of Gray
350
8317
  3
Sketchy
350
8318
  3
Thicken
350
8313
  3
Wireframe
350
830D
  3
X-Ray
350
8319
  0
XRECORD
  5
8414
102
{ACAD_REACTORS
330
C
102
}
330
C
100
AcDbXrecord
280
     1
 90
        1
330
8321
330
8337
330
8339
  0
DICTIONARY
  5
83D5
102
{ACAD_REACTORS
330
C
102
}
330
C
100
AcDbDictionary
281
     1
  3
CANNOSCALE
350
83DB
  3
CMLEADERSTYLE
350
83D7
  3
CTABLESTYLE
350
83D6
  3
CVIEWDETAILSTYLE
350
83D8
  3
CVIEWSECTIONSTYLE
350
83D9
  3
LAYEREVAL
350
83DD
  3
LAYERNOTIFY
350
83DE
  3
LIGHTINGUNITS
350
83DC
  3
MSLTSCALE
350
83DA
  0
DICTIONARY
  5
8393
102
{ACAD_REACTORS
330
8392
102
}
330
8392
100
AcDbDictionary
281
     1
  0
XRECORD
  5
8386
102
{ACAD_REACTORS
330
8385
102
}
330
8385
100
AcDbXrecord
280
     1
290
     1
  0
XRECORD
  5
8388
102
{ACAD_REACTORS
330
8387
102
}
330
8387
100
AcDbXrecord
280
     1
290
     1
  0
XRECORD
  5
838A
102
{ACAD_REACTORS
330
8389
102
}
330
8389
100
AcDbXrecord
280
     1
290
     1
  0
XRECORD
  5
838C
102
{ACAD_REACTORS
330
838B
102
}
330
838B
100
AcDbXrecord
280
     1
290
     1
  0
XRECORD
  5
838E
102
{ACAD_REACTORS
330
838D
102
}
330
838D
100
AcDbXrecord
280
     1
290
     1
  0
SORTENTSTABLE
  5
833F
102
{ACAD_REACTORS
330
833E
102
}
330
833E
100
AcDbSortentsTable
330
19
331
82CD
  5
82DA
331
7CFD
  5
7CFE
331
7C87
  5
7C87
331
7C83
  5
7C83
331
7CF9
  5
7CFA
331
7CF5
  5
7CF6
331
7C7F
  5
7C7F
331
7CBE
  5
7CBF
331
7CF1
  5
7CF2
331
7C7B
  5
7C7B
331
7C47
  5
7C47
331
7CBA
  5
7CBC
331
7C43
  5
7C43
331
81C7
  5
81C8
331
7F1A
  5
7F1B
331
7CED
  5
7CEE
331
7C77
  5
7C77
331
8163
  5
8164
331
8291
  5
8292
331
7F16
  5
7F17
331
7C73
  5
7C73
331
7C3F
  5
7C3F
331
7CB2
  5
7CB3
331
7CE9
  5
7CEA
331
7F12
  5
7F13
331
7C3B
  5
7C3B
331
7CAE
  5
7CAF
331
7CE5
  5
7CE6
331
7CE1
  5
7CE2
331
7C6B
  5
7C6B
331
7CAA
  5
7CAB
331
828D
  5
828E
331
7F0E
  5
7F0F
331
7CA6
  5
7CA7
331
7CDD
  5
7CDE
331
7D1C
  5
7D1D
331
7C67
  5
7C67
331
8153
  5
8154
331
7F06
  5
7F07
331
7C63
  5
7C63
331
7C27
  5
7C27
331
7CA2
  5
7CA4
331
7CD9
  5
7CDA
331
7D18
  5
7D19
331
7D14
  5
7D15
331
7C5F
  5
7C5F
331
7C23
  5
7C23
331
7C9E
  5
7C9F
331
7CD5
  5
7CD6
331
7CD1
  5
7CD2
331
7D10
  5
7D11
331
7C5B
  5
7C5B
331
7C1F
  5
7C1F
331
7C9A
  5
7C9B
331
814F
  5
8150
331
7CCD
  5
7CCE
331
7D0C
  5
7D0D
331
7C57
  5
7C57
331
8269
  5
8278
331
7C53
  5
7C53
331
7C92
  5
7C93
331
7CC9
  5
7CCD
331
7D08
  5
7D09
331
7D04
  5
7D05
331
7C8E
  5
7C8E
331
7CC5
  5
7CC6
331
7CC1
  5
7CC2
331
7D00
  5
7D01
331
7C4B
  5
7C4B
331
7CFC
  5
7CFD
331
7C82
  5
7C82
331
7CF8
  5
7CF9
331
7CF4
  5
7CF5
331
7C7E
  5
7C7E
331
7CBD
  5
7CBE
331
7C46
  5
7C46
331
7CF0
  5
7CF1
331
81C6
  5
81C7
331
7F1D
  5
814F
331
7F19
  5
7F1A
331
7CB5
  5
7CB7
331
7CEC
  5
7CED
331
7C76
  5
7C76
331
8162
  5
8163
331
8290
  5
8291
331
7F15
  5
7F16
331
7C72
  5
7C72
331
7C3E
  5
7C3E
331
7CB1
  5
7CB2
331
7CE8
  5
7CE9
331
7CE4
  5
7CE5
331
7C3A
  5
7C3A
331
7CAD
  5
7CAE
331
7F11
  5
7F12
331
7CE0
  5
7CE1
331
7C6A
  5
7C6A
331
7CA9
  5
7CAA
331
7C32
  5
7C32
331
828C
  5
828D
331
7F0D
  5
7F0E
331
7D1F
  5
7EFF
331
8156
  5
8162
331
7F09
  5
7F0B
331
7CA5
  5
7CA6
331
7CDC
  5
7CDD
331
7D1B
  5
7D1C
331
7C66
  5
7C66
331
8152
  5
8153
331
8278
  5
828B
331
7D17
  5
7D18
331
7F05
  5
7F06
331
7C62
  5
7C62
331
7C26
  5
7C26
331
7CA1
  5
7CA2
331
7CD8
  5
7CD9
331
7D13
  5
7D14
331
7F01
  5
7F04
331
7C5E
  5
7C5E
331
7C22
  5
7C22
331
7C9D
  5
7C9E
331
7CD4
  5
7CD5
331
7CD0
  5
7CD1
331
7C5A
  5
7C5A
331
7C1A
  5
7C1A
331
7D0F
  5
7D10
331
7D0B
  5
7D0C
331
7C56
  5
7C56
331
7C52
  5
7C52
331
7C91
  5
7C91
331
7CC8
  5
7CC9
331
7D07
  5
7D08
331
7D03
  5
7D04
331
7C8D
  5
7C8D
331
7CC4
  5
7CC5
331
7C4A
  5
7C4A
331
7C89
  5
7C89
331
7CFF
  5
7D00
331
7CFB
  5
7CFC
331
825C
  5
8269
331
7C81
  5
7C81
331
7CF7
  5
7CF8
331
7CF3
  5
7CF4
331
7C7D
  5
7C7D
331
7CBC
  5
7CBD
331
7CB8
  5
7CBA
331
7C79
  5
7C79
331
7C41
  5
7C41
331
7F1C
  5
7F1D
331
7CEF
  5
7CF0
331
8165
  5
81C6
331
7F18
  5
7F19
331
7C75
  5
7C75
331
7CB4
  5
7CB5
331
7CEB
  5
7CEC
331
7F14
  5
7F15
331
7C71
  5
7C71
331
7C3D
  5
7C3D
331
7CE7
  5
7CE8
331
7CE3
  5
7CE4
331
7C6D
  5
7C6D
331
7C39
  5
7C39
331
7CAC
  5
7CAD
331
7F10
  5
7F11
331
7CA8
  5
7CA9
331
828F
  5
8290
331
828B
  5
828C
331
7F0C
  5
7F0D
331
7CDF
  5
7CE0
331
7D1E
  5
7D1F
331
8155
  5
8156
331
7F08
  5
7F09
331
7CA4
  5
7CA5
331
7CDB
  5
7CDC
331
7D1A
  5
7D1B
331
7C65
  5
7C65
331
8151
  5
8152
331
7D16
  5
7D17
331
7F04
  5
7F05
331
7C61
  5
7C61
331
7CA0
  5
7CA1
331
7CD7
  5
7CD8
331
7CD3
  5
7CD4
331
7D12
  5
7D13
331
7C5D
  5
7C5D
331
7C21
  5
7C21
331
7C9C
  5
7C9D
331
7F00
  5
7F01
331
7C59
  5
7C59
331
7C1D
  5
7C1D
331
7CCF
  5
7CD0
331
7D0E
  5
7D0F
331
82DA
  5
833D
331
7C94
  5
7C97
331
7D0A
  5
7D0B
331
7C55
  5
7C55
331
7D06
  5
7D07
331
7C51
  5
7C51
331
7CC7
  5
7CC8
331
7D02
  5
7D03
331
7C4D
  5
7C4D
331
7C8C
  5
7C8C
331
7CC3
  5
7CC4
331
7C49
  5
7C49
331
7C88
  5
7C88
331
81D4
  5
824F
331
7CFE
  5
7CFF
331
7C84
  5
7C84
331
7CFA
  5
7CFB
331
81C8
  5
81D4
331
7C80
  5
7C80
331
7CBF
  5
7CC1
331
7CF6
  5
7CF7
331
7CF2
  5
7CF3
331
7C7C
  5
7C7C
331
7C44
  5
7C44
331
7C78
  5
7C78
331
7C40
  5
7C40
331
82A2
  5
82CD
331
7F1B
  5
7F1C
331
7CB7
  5
7CB8
331
7CEE
  5
7CEF
331
824F
  5
825C
331
8164
  5
8165
331
8292
  5
82A2
331
7F17
  5
7F18
331
7CB3
  5
7CB4
331
7CEA
  5
7CEB
331
7F13
  5
7F14
331
7C70
  5
7C70
331
7C3C
  5
7C3C
331
7CAF
  5
7CB1
331
7CE6
  5
7CE7
331
7CE2
  5
7CE3
331
7C6C
  5
7C6C
331
7C38
  5
7C38
331
7CAB
  5
7CAC
331
828E
  5
828F
331
7F0F
  5
7F10
331
7F0B
  5
7F0C
331
7CA7
  5
7CA8
331
7CDE
  5
7CDF
331
7D1D
  5
7D1E
331
8154
  5
8155
331
7F07
  5
7F08
331
7C64
  5
7C64
331
7CDA
  5
7CDB
331
7D19
  5
7D1A
331
7D15
  5
7D16
331
8150
  5
8151
331
7C60
  5
7C60
331
7C9F
  5
7CA0
331
7CD6
  5
7CD7
331
7CD2
  5
7CD3
331
7D11
  5
7D12
331
7C5C
  5
7C5C
331
7C20
  5
7C20
331
7C9B
  5
7C9C
331
7C1C
  5
7C1C
331
7C58
  5
7C58
331
7C18
  5
7C18
331
7EFF
  5
7F00
331
7C97
  5
7C9A
331
7CCE
  5
7CCF
331
7D0D
  5
7D0E
331
7C93
  5
7C94
331
7D09
  5
7D0A
331
7C54
  5
7C54
331
7D05
  5
7D06
331
7C50
  5
7C50
331
7C8F
  5
7C8F
331
7CC6
  5
7CC7
331
7CC2
  5
7CC3
331
7D01
  5
7D02
331
7C4C
  5
7C4C
331
7C48
  5
7C48
  0
ACDBDETAILVIEWSTYLE
  5
8339
102
{ACAD_XDICTIONARY
360
83D2
102
}
102
{ACAD_REACTORS
330
8338
102
}
330
8338
100
AcDbModelDocViewStyle
 70
     0
  3
Metric50
290
     0
100
AcDbDetailViewStyle
 70
     0
 71
     0
 90
        3
 71
     1
340
10
 62
   256
 40
5.0
340
0
 62
   256
 40
5.0
300

 40
0.0
280
     1
 71
     2
340
15
 90
       25
 62
   256
 71
     3
340
10
 62
   256
 40
5.0
 90
        0
 40
15.0
 90
        1
300
%<\AcVar ViewDetailId>% (%<\AcVar ViewScale \f "%sn">%)
 71
     4
340
15
 90
       25
 62
   256
340
15
 90
       25
 62
   256
280
     0
  0
LAYOUT
  5
82E1
102
{ACAD_REACTORS
330
82DF
102
}
330
82DF
100
AcDbPlotSettings
  1

  2
EPSON LP-9300
  4

  6

 40
0.0
 41
0.0
 42
0.0
 43
0.0
 44
0.0
 45
0.0
 46
0.0
 47
0.0
 48
0.0
 49
0.0
140
0.0
141
0.0
142
1.0
143
1.0
 70
  1712
 72
     0
 73
     0
 74
     0
  7

 75
     0
147
1.0
 76
     0
 77
     2
 78
   300
148
0.0
149
0.0
100
AcDbLayout
  1
Model
 70
     1
 71
     0
 10
0.0
 20
0.0
 11
12.0
 21
9.0
 12
0.0
 22
0.0
 32
0.0
 14
0.0
 24
0.0
 34
0.0
 15
0.0
 25
0.0
 35
0.0
146
0.0
 13
0.0
 23
0.0
 33
0.0
 16
1.0
 26
0.0
 36
0.0
 17
0.0
 27
1.0
 37
0.0
 76
     0
330
19
331
82EB
  0
LAYOUT
  5
82E2
102
{ACAD_REACTORS
330
82DF
102
}
330
82DF
100
AcDbPlotSettings
  1

  2
EPSON LP-9300
  4

  6

 40
0.0
 41
0.0
 42
0.0
 43
0.0
 44
0.0
 45
0.0
 46
0.0
 47
0.0
 48
0.0
 49
0.0
140
0.0
141
0.0
142
1.0
143
1.0
 70
   688
 72
     0
 73
     0
 74
     5
  7

 75
    16
147
1.0
 76
     0
 77
     2
 78
   300
148
0.0
149
0.0
100
AcDbLayout
  1
ﾚｲｱｳﾄ1
 70
     1
 71
     1
 10
0.0
 20
0.0
 11
12.0
 21
9.0
 12
0.0
 22
0.0
 32
0.0
 14
1.000000000000000E+20
 24
1.000000000000000E+20
 34
1.000000000000000E+20
 15
-1.000000000000000E+20
 25
-1.000000000000000E+20
 35
-1.000000000000000E+20
146
0.0
 13
0.0
 23
0.0
 33
0.0
 16
1.0
 26
0.0
 36
0.0
 17
0.0
 27
1.0
 37
0.0
 76
     0
330
16
  0
MATERIAL
  5
82F6
102
{ACAD_XDICTIONARY
360
82F7
102
}
102
{ACAD_REACTORS
330
82ED
102
}
330
82ED
100
AcDbMaterial
  1
ByBlock
 72
     0
 43
0.0208333333333333
 43
0.0
 43
0.0
 43
0.0
 43
0.0
 43
0.0208333333333333
 43
0.0
 43
0.0
 43
0.0
 43
0.0
 43
1.0
 43
0.0
 43
0.0
 43
0.0
 43
0.0
 43
1.0
 77
     0
 47
0.0208333333333333
 47
0.0
 47
0.0
 47
0.0
 47
0.0
 47
0.0208333333333333
 47
0.0
 47
0.0
 47
0.0
 47
0.0
 47
1.0
 47
0.0
 47
0.0
 47
0.0
 47
0.0
 47
1.0
171
     0
 49
0.0208333333333333
 49
0.0
 49
0.0
 49
0.0
 49
0.0
 49
0.0208333333333333
 49
0.0
 49
0.0
 49
0.0
 49
0.0
 49
1.0
 49
0.0
 49
0.0
 49
0.0
 49
0.0
 49
1.0
175
     0
142
0.0208333333333333
142
0.0
142
0.0
142
0.0
142
0.0
142
0.0208333333333333
142
0.0
142
0.0
142
0.0
142
0.0
142
1.0
142
0.0
142
0.0
142
0.0
142
0.0
142
1.0
179
     0
144
0.0208333333333333
144
0.0
144
0.0
144
0.0
144
0.0
144
0.0208333333333333
144
0.0
144
0.0
144
0.0
144
0.0
144
1.0
144
0.0
144
0.0
144
0.0
144
0.0
144
1.0
147
0.0208333333333333
147
0.0
147
0.0
147
0.0
147
0.0
147
0.0208333333333333
147
0.0
147
0.0
147
0.0
147
0.0
147
1.0
147
0.0
147
0.0
147
0.0
147
0.0
147
1.0
  0
MATERIAL
  5
82EE
102
{ACAD_XDICTIONARY
360
82EF
102
}
102
{ACAD_REACTORS
330
82ED
102
}
330
82ED
100
AcDbMaterial
  1
ByLayer
 72
     0
 43
0.0208333333333333
 43
0.0
 43
0.0
 43
0.0
 43
0.0
 43
0.0208333333333333
 43
0.0
 43
0.0
 43
0.0
 43
0.0
 43
1.0
 43
0.0
 43
0.0
 43
0.0
 43
0.0
 43
1.0
 77
     0
 47
0.0208333333333333
 47
0.0
 47
0.0
 47
0.0
 47
0.0
 47
0.0208333333333333
 47
0.0
 47
0.0
 47
0.0
 47
0.0
 47
1.0
 47
0.0
 47
0.0
 47
0.0
 47
0.0
 47
1.0
171
     0
 49
0.0208333333333333
 49
0.0
 49
0.0
 49
0.0
 49
0.0
 49
0.0208333333333333
 49
0.0
 49
0.0
 49
0.0
 49
0.0
 49
1.0
 49
0.0
 49
0.0
 49
0.0
 49
0.0
 49
1.0
175
     0
142
0.0208333333333333
142
0.0
142
0.0
142
0.0
142
0.0
142
0.0208333333333333
142
0.0
142
0.0
142
0.0
142
0.0
142
1.0
142
0.0
142
0.0
142
0.0
142
0.0
142
1.0
179
     0
144
0.0208333333333333
144
0.0
144
0.0
144
0.0
144
0.0
144
0.0208333333333333
144
0.0
144
0.0
144
0.0
144
0.0
144
1.0
144
0.0
144
0.0
144
0.0
144
0.0
144
1.0
147
0.0208333333333333
147
0.0
147
0.0
147
0.0
147
0.0
147
0.0208333333333333
147
0.0
147
0.0
147
0.0
147
0.0
147
1.0
147
0.0
147
0.0
147
0.0
147
0.0
147
1.0
  0
MATERIAL
  5
82FE
102
{ACAD_XDICTIONARY
360
82FF
102
}
102
{ACAD_REACTORS
330
82ED
102
}
330
82ED
100
AcDbMaterial
  1
Global
 72
     0
 43
0.0208333333333333
 43
0.0
 43
0.0
 43
0.0
 43
0.0
 43
0.0208333333333333
 43
0.0
 43
0.0
 43
0.0
 43
0.0
 43
1.0
 43
0.0
 43
0.0
 43
0.0
 43
0.0
 43
1.0
 77
     0
 47
0.0208333333333333
 47
0.0
 47
0.0
 47
0.0
 47
0.0
 47
0.0208333333333333
 47
0.0
 47
0.0
 47
0.0
 47
0.0
 47
1.0
 47
0.0
 47
0.0
 47
0.0
 47
0.0
 47
1.0
171
     0
 49
0.0208333333333333
 49
0.0
 49
0.0
 49
0.0
 49
0.0
 49
0.0208333333333333
 49
0.0
 49
0.0
 49
0.0
 49
0.0
 49
1.0
 49
0.0
 49
0.0
 49
0.0
 49
0.0
 49
1.0
175
     0
142
0.0208333333333333
142
0.0
142
0.0
142
0.0
142
0.0
142
0.0208333333333333
142
0.0
142
0.0
142
0.0
142
0.0
142
1.0
142
0.0
142
0.0
142
0.0
142
0.0
142
1.0
179
     0
144
0.0208333333333333
144
0.0
144
0.0
144
0.0
144
0.0
144
0.0208333333333333
144
0.0
144
0.0
144
0.0
144
0.0
144
1.0
144
0.0
144
0.0
144
0.0
144
0.0
144
1.0
147
0.0208333333333333
147
0.0
147
0.0
147
0.0
147
0.0
147
0.0208333333333333
147
0.0
147
0.0
147
0.0
147
0.0
147
1.0
147
0.0
147
0.0
147
0.0
147
0.0
147
1.0
  0
MLEADERSTYLE
  5
8335
102
{ACAD_REACTORS
330
8334
102
}
330
8334
100
AcDbMLeaderStyle
179
     2
170
     2
171
     1
172
     0
 90
        2
 40
0.0
 41
0.0
173
     1
 91
-1056964608
340
13
 92
       -2
290
     1
 42
2.0
291
     1
 43
0.36
  3
Standard
 44
4.0
300

342
10
174
     1
178
     6
175
     1
176
     0
 93
-1056964608
 45
4.0
292
     0
297
     0
 46
4.0
 94
-1056964608
 47
1.0
 49
1.0
140
1.0
293
     1
141
0.0
294
     1
177
     0
142
1.0
295
     1
296
     0
143
0.125
271
     0
272
     9
273
     9
298
     1
  0
MLINESTYLE
  5
1C
102
{ACAD_REACTORS
330
E
102
}
330
E
100
AcDbMlineStyle
  2
STANDARD
 70
     0
  3

 62
     0
 51
90.0
 52
90.0
 71
     2
 49
0.5
 62
   256
  6
BYLAYER
 49
-0.5
 62
   256
  6
BYLAYER
  0
ACDBPLACEHOLDER
  5
82DE
102
{ACAD_REACTORS
330
82DD
102
}
330
82DD
  0
SCALE
  5
8323
102
{ACAD_REACTORS
330
8322
102
}
330
8322
100
AcDbScale
 70
     0
300
1:1
140
1.0
141
1.0
290
     1
  0
SCALE
  5
8324
102
{ACAD_REACTORS
330
8322
102
}
330
8322
100
AcDbScale
 70
     0
300
1:2
140
1.0
141
2.0
290
     0
  0
SCALE
  5
8325
102
{ACAD_REACTORS
330
8322
102
}
330
8322
100
AcDbScale
 70
     0
300
1:4
140
1.0
141
4.0
290
     0
  0
SCALE
  5
8326
102
{ACAD_REACTORS
330
8322
102
}
330
8322
100
AcDbScale
 70
     0
300
1:5
140
1.0
141
5.0
290
     0
  0
SCALE
  5
8327
102
{ACAD_REACTORS
330
8322
102
}
330
8322
100
AcDbScale
 70
     0
300
1:8
140
1.0
141
8.0
290
     0
  0
SCALE
  5
8328
102
{ACAD_REACTORS
330
8322
102
}
330
8322
100
AcDbScale
 70
     0
300
1:10
140
1.0
141
10.0
290
     0
  0
SCALE
  5
8329
102
{ACAD_REACTORS
330
8322
102
}
330
8322
100
AcDbScale
 70
     0
300
1:16
140
1.0
141
16.0
290
     0
  0
SCALE
  5
832A
102
{ACAD_REACTORS
330
8322
102
}
330
8322
100
AcDbScale
 70
     0
300
1:20
140
1.0
141
20.0
290
     0
  0
SCALE
  5
832B
102
{ACAD_REACTORS
330
8322
102
}
330
8322
100
AcDbScale
 70
     0
300
1:30
140
1.0
141
30.0
290
     0
  0
SCALE
  5
832C
102
{ACAD_REACTORS
330
8322
102
}
330
8322
100
AcDbScale
 70
     0
300
1:40
140
1.0
141
40.0
290
     0
  0
SCALE
  5
832D
102
{ACAD_REACTORS
330
8322
102
}
330
8322
100
AcDbScale
 70
     0
300
1:50
140
1.0
141
50.0
290
     0
  0
SCALE
  5
832E
102
{ACAD_REACTORS
330
8322
102
}
330
8322
100
AcDbScale
 70
     0
300
1:100
140
1.0
141
100.0
290
     0
  0
SCALE
  5
832F
102
{ACAD_REACTORS
330
8322
102
}
330
8322
100
AcDbScale
 70
     0
300
2:1
140
2.0
141
1.0
290
     0
  0
SCALE
  5
8330
102
{ACAD_REACTORS
330
8322
102
}
330
8322
100
AcDbScale
 70
     0
300
4:1
140
4.0
141
1.0
290
     0
  0
SCALE
  5
8331
102
{ACAD_REACTORS
330
8322
102
}
330
8322
100
AcDbScale
 70
     0
300
8:1
140
8.0
141
1.0
290
     0
  0
SCALE
  5
8332
102
{ACAD_REACTORS
330
8322
102
}
330
8322
100
AcDbScale
 70
     0
300
10:1
140
10.0
141
1.0
290
     0
  0
SCALE
  5
8333
102
{ACAD_REACTORS
330
8322
102
}
330
8322
100
AcDbScale
 70
     0
300
100:1
140
100.0
141
1.0
290
     0
  0
ACDBSECTIONVIEWSTYLE
  5
8337
102
{ACAD_XDICTIONARY
360
83D0
102
}
102
{ACAD_REACTORS
330
8336
102
}
330
8336
100
AcDbModelDocViewStyle
 70
     0
  3
Metric50
290
     0
100
AcDbSectionViewStyle
 70
     0
 71
     0
 90
      102
 71
     1
340
10
 62
   256
 40
5.0
340
0
340
0
 62
   256
 40
5.0
300
I, O, Q, S, X, Z
 40
10.0
 90
        0
 40
2.5
 90
        0
 71
     2
340
15
 90
       25
 62
   256
340
15
 90
       50
 62
   256
 40
5.0
 40
2.5
 40
5.0
 71
     3
340
10
 62
   256
 40
5.0
 90
        0
 40
15.0
 90
        1
300
%<\AcVar ViewSectionStartId>%-%<\AcVar ViewSectionEndId>% (%<\AcVar ViewScale \f "%sn">%)
 71
     4
 62
   256
 62
   257
300
ANSI31
 40
1.0
 90
        0
290
     0
290
     0
 90
        6
 40
0.0
 40
1.570796326794896
 40
0.2617993877991494
 40
1.308996938995747
 40
-0.2617993877991494
 40
1.832595714594046
  0
TABLESTYLE
  5
8321
102
{ACAD_XDICTIONARY
360
8410
102
}
102
{ACAD_REACTORS
330
8320
102
}
330
8320
100
AcDbTableStyle
280
     0
  3
Standard
 70
     0
 71
     0
 40
1.5
 41
1.5
280
     0
281
     0
  7
STANDARD
140
4.5
170
     2
 62
     0
 63
     7
283
     0
 90
      512
 91
        0
  1

274
    -2
284
     1
 64
     0
275
    -2
285
     1
 65
     0
276
    -2
286
     1
 66
     0
277
    -2
287
     1
 67
     0
278
    -2
288
     1
 68
     0
279
    -2
289
     1
 69
     0
  7
STANDARD
140
6.0
170
     5
 62
     0
 63
     7
283
     0
 90
      512
 91
        0
  1

274
    -2
284
     1
 64
     0
275
    -2
285
     1
 65
     0
276
    -2
286
     1
 66
     0
277
    -2
287
     1
 67
     0
278
    -2
288
     1
 68
     0
279
    -2
289
     1
 69
     0
  7
STANDARD
140
4.5
170
     5
 62
     0
 63
     7
283
     0
 90
      512
 91
        0
  1

274
    -2
284
     1
 64
     0
275
    -2
285
     1
 65
     0
276
    -2
286
     1
 66
     0
277
    -2
287
     1
 67
     0
278
    -2
288
     1
 68
     0
279
    -2
289
     1
 69
     0
  0
VISUALSTYLE
  5
830C
102
{ACAD_REACTORS
330
8306
102
}
330
8306
100
AcDbVisualStyle
  2
2dWireframe
 70
     4
177
     3
291
     0
 70
    58
 90
        0
176
     1
 90
        2
176
     1
 90
        0
176
     1
 90
        0
176
     1
 40
0.6
176
     1
 40
30.0
176
     1
 62
     7
420
 16777215
176
     1
 90
        1
176
     1
 90
        4
176
     1
 62
     7
176
     1
 62
   257
176
     1
 90
        1
176
     1
 90
        1
176
     1
 40
1.0
176
     1
 90
        0
176
     1
 62
   257
176
     1
 40
1.0
176
     1
 90
        1
176
     1
 90
        6
176
     1
 90
        2
176
     1
 62
     7
176
     1
 90
        5
176
     1
 90
        0
176
     1
 90
        0
176
     1
290
     0
176
     1
 90
        1
176
     1
 40
0.0
176
     1
 90
        0
176
     1
290
     1
176
     1
290
     1
176
     1
290
     0
176
     1
290
     0
176
     1
290
     0
176
     1
290
     0
176
     1
290
     0
176
     1
290
     0
176
     1
290
     0
176
     1
 90
       50
176
     1
 40
0.0
176
     1
 40
1.0
176
     1
 90
        0
176
     1
 62
    18
420
        0
176
     1
 90
       50
176
     1
 90
        3
176
     1
 62
     5
420
      255
176
     1
290
     0
176
     1
 90
       50
176
     1
 90
       50
176
     1
 90
       50
176
     1
290
     0
176
     1
 90
       50
176
     1
 62
   256
176
     0
 40
1.0
176
     0
 90
        2
176
     1
  1
strokes_ogs.tif
176
     1
290
     0
176
     1
 40
1.0
176
     1
 40
1.0
176
     1
  0
VISUALSTYLE
  5
830B
102
{ACAD_REACTORS
330
8306
102
}
330
8306
100
AcDbVisualStyle
  2
Basic
 70
     7
177
     3
291
     1
 70
    58
 90
        1
176
     1
 90
        0
176
     1
 90
        1
176
     1
 90
        0
176
     1
 40
0.6
176
     1
 40
30.0
176
     1
 62
     7
420
 16777215
176
     1
 90
        0
176
     1
 90
        4
176
     1
 62
     7
176
     1
 62
   257
176
     1
 90
        1
176
     1
 90
        1
176
     1
 40
1.0
176
     1
 90
        8
176
     1
 62
     7
176
     1
 40
1.0
176
     1
 90
        1
176
     1
 90
        6
176
     1
 90
        2
176
     1
 62
     7
176
     1
 90
        5
176
     1
 90
        0
176
     1
 90
        0
176
     1
290
     0
176
     1
 90
        1
176
     1
 40
0.0
176
     1
 90
        0
176
     1
290
     0
176
     1
290
     1
176
     1
290
     1
176
     1
290
     0
176
     1
290
     0
176
     1
290
     0
176
     1
290
     0
176
     1
290
     0
176
     1
290
     0
176
     1
 90
       50
176
     1
 40
0.0
176
     1
 40
1.0
176
     1
 90
        0
176
     1
 62
    18
420
        0
176
     1
 90
       50
176
     1
 90
        3
176
     1
 62
     5
420
      255
176
     1
290
     0
176
     1
 90
       50
176
     1
 90
       50
176
     1
 90
       50
176
     1
290
     0
176
     1
 90
       50
176
     1
 62
   256
176
     0
 40
1.0
176
     0
 90
        2
176
     1
  1
strokes_ogs.tif
176
     1
290
     0
176
     1
 40
1.0
176
     1
 40
1.0
176
     1
  0
VISUALSTYLE
  5
8312
102
{ACAD_REACTORS
330
8306
102
}
330
8306
100
AcDbVisualStyle
  2
Brighten
 70
    12
177
     3
291
     1
 70
    58
 90
        2
176
     1
 90
        2
176
     1
 90
        0
176
     1
 90
        0
176
     1
 40
0.6
176
     1
 40
30.0
176
     1
 62
     7
420
 16777215
176
     1
 90
        1
176
     1
 90
        4
176
     1
 62
     7
176
     1
 62
   257
176
     1
 90
        1
176
     1
 90
        1
176
     1
 40
1.0
176
     1
 90
        8
176
     1
 62
     7
176
     1
 40
1.0
176
     1
 90
        1
176
     1
 90
        6
176
     1
 90
        2
176
     1
 62
     7
176
     1
 90
        5
176
     1
 90
        0
176
     1
 90
        0
176
     1
290
     0
176
     1
 90
        1
176
     1
 40
50.0
176
     1
 90
        0
176
     1
290
     0
176
     1
290
     1
176
     1
290
     1
176
     1
290
     0
176
     1
290
     0
176
     1
290
     0
176
     1
290
     0
176
     1
290
     0
176
     1
290
     0
176
     1
 90
       50
176
     1
 40
0.0
176
     1
 40
1.0
176
     1
 90
        0
176
     1
 62
    18
420
        0
176
     1
 90
       50
176
     1
 90
        3
176
     1
 62
     5
420
      255
176
     1
290
     0
176
     1
 90
       50
176
     1
 90
       50
176
     1
 90
       50
176
     1
290
     0
176
     1
 90
       50
176
     1
 62
   256
176
     0
 40
1.0
176
     0
 90
        2
176
     1
  1
strokes_ogs.tif
176
     1
290
     0
176
     1
 40
1.0
176
     1
 40
1.0
176
     1
  0
VISUALSTYLE
  5
8316
102
{ACAD_REACTORS
330
8306
102
}
330
8306
100
AcDbVisualStyle
  2
ColorChange
 70
    16
177
     3
291
     1
 70
    58
 90
        2
176
     1
 90
        2
176
     1
 90
        3
176
     1
 90
        0
176
     1
 40
0.6
176
     1
 40
30.0
176
     1
 62
     8
420
  8421504
176
     1
 90
        1
176
     1
 90
        4
176
     1
 62
     7
176
     1
 62
   257
176
     1
 90
        1
176
     1
 90
        1
176
     1
 40
1.0
176
     1
 90
        8
176
     1
 62
     8
420
  8421504
176
     1
 40
1.0
176
     1
 90
        1
176
     1
 90
        6
176
     1
 90
        2
176
     1
 62
     7
176
     1
 90
        5
176
     1
 90
        0
176
     1
 90
        0
176
     1
290
     0
176
     1
 90
        1
176
     1
 40
0.0
176
     1
 90
        0
176
     1
290
     0
176
     1
290
     1
176
     1
290
     1
176
     1
290
     0
176
     1
290
     0
176
     1
290
     0
176
     1
290
     0
176
     1
290
     0
176
     1
290
     0
176
     1
 90
       50
176
     1
 40
0.0
176
     1
 40
1.0
176
     1
 90
        0
176
     1
 62
    18
420
        0
176
     1
 90
       50
176
     1
 90
        3
176
     1
 62
     5
420
      255
176
     1
290
     0
176
     1
 90
       50
176
     1
 90
       50
176
     1
 90
       50
176
     1
290
     0
176
     1
 90
       50
176
     1
 62
   256
176
     0
 40
1.0
176
     0
 90
        2
176
     1
  1
strokes_ogs.tif
176
     1
290
     0
176
     1
 40
1.0
176
     1
 40
1.0
176
     1
  0
VISUALSTYLE
  5
830F
102
{ACAD_REACTORS
330
8306
102
}
330
8306
100
AcDbVisualStyle
  2
Conceptual
 70
     9
177
     3
291
     0
 70
    58
 90
        3
176
     1
 90
        2
176
     1
 90
        0
176
     1
 90
        0
176
     1
 40
0.6
176
     1
 40
30.0
176
     1
 62
     7
420
 16777215
176
     1
 90
        2
176
     1
 90
        2
176
     1
 62
     7
176
     1
 62
   257
176
     1
 90
        1
176
     1
 90
        1
176
     1
 40
179.0
176
     1
 90
        8
176
     1
 62
     7
176
     1
 40
1.0
176
     1
 90
        1
176
     1
 90
        6
176
     1
 90
        2
176
     1
 62
     7
176
     1
 90
        3
176
     1
 90
        0
176
     1
 90
        0
176
     1
290
     0
176
     1
 90
        1
176
     1
 40
0.0
176
     1
 90
        0
176
     1
290
     0
176
     1
290
     1
176
     1
290
     1
176
     1
290
     0
176
     1
290
     0
176
     1
290
     0
176
     1
290
     0
176
     1
290
     0
176
     1
290
     0
176
     1
 90
       50
176
     1
 40
0.0
176
     1
 40
1.0
176
     1
 90
        0
176
     1
 62
    18
420
        0
176
     1
 90
       50
176
     1
 90
        3
176
     1
 62
     5
420
      255
176
     1
290
     0
176
     1
 90
       50
176
     1
 90
       50
176
     1
 90
       50
176
     1
290
     0
176
     1
 90
       50
176
     1
 62
   256
176
     0
 40
1.0
176
     0
 90
        2
176
     1
  1
strokes_ogs.tif
176
     1
290
     0
176
     1
 40
1.0
176
     1
 40
1.0
176
     1
  0
VISUALSTYLE
  5
8311
102
{ACAD_REACTORS
330
8306
102
}
330
8306
100
AcDbVisualStyle
  2
Dim
 70
    11
177
     3
291
     1
 70
    58
 90
        2
176
     1
 90
        2
176
     1
 90
        0
176
     1
 90
        0
176
     1
 40
0.6
176
     1
 40
30.0
176
     1
 62
     7
420
 16777215
176
     1
 90
        1
176
     1
 90
        4
176
     1
 62
     7
176
     1
 62
   257
176
     1
 90
        1
176
     1
 90
        1
176
     1
 40
1.0
176
     1
 90
        8
176
     1
 62
     7
176
     1
 40
1.0
176
     1
 90
        1
176
     1
 90
        6
176
     1
 90
        2
176
     1
 62
     7
176
     1
 90
        5
176
     1
 90
        0
176
     1
 90
        0
176
     1
290
     0
176
     1
 90
        1
176
     1
 40
-50.0
176
     1
 90
        0
176
     1
290
     0
176
     1
290
     1
176
     1
290
     1
176
     1
290
     0
176
     1
290
     0
176
     1
290
     0
176
     1
290
     0
176
     1
290
     0
176
     1
290
     0
176
     1
 90
       50
176
     1
 40
0.0
176
     1
 40
1.0
176
     1
 90
        0
176
     1
 62
    18
420
        0
176
     1
 90
       50
176
     1
 90
        3
176
     1
 62
     5
420
      255
176
     1
290
     0
176
     1
 90
       50
176
     1
 90
       50
176
     1
 90
       50
176
     1
290
     0
176
     1
 90
       50
176
     1
 62
   256
176
     0
 40
1.0
176
     0
 90
        2
176
     1
  1
strokes_ogs.tif
176
     1
290
     0
176
     1
 40
1.0
176
     1
 40
1.0
176
     1
  0
VISUALSTYLE
  5
831E
102
{ACAD_REACTORS
330
8306
102
}
330
8306
100
AcDbVisualStyle
  2
EdgeColorOff
 70
    22
177
     3
291
     1
 70
    58
 90
        2
176
     0
 90
        2
176
     0
 90
        0
176
     0
 90
        0
176
     0
 40
0.6
176
     0
 40
30.0
176
     0
 62
     7
420
 16777215
176
     0
 90
        1
176
     0
 90
        4
176
     0
 62
     7
176
     0
 62
   257
176
     0
 90
        1
176
     0
 90
        1
176
     0
 40
1.0
176
     0
 90
        8
176
     2
 62
     7
176
     0
 40
1.0
176
     0
 90
        1
176
     0
 90
        6
176
     0
 90
        2
176
     0
 62
     7
176
     0
 90
        5
176
     0
 90
        0
176
     0
 90
        0
176
     0
290
     0
176
     0
 90
        1
176
     0
 40
0.0
176
     0
 90
        0
176
     0
290
     0
176
     0
290
     1
176
     0
290
     1
176
     0
290
     0
176
     0
290
     0
176
     0
290
     0
176
     0
290
     0
176
     0
290
     0
176
     0
290
     0
176
     0
 90
       50
176
     0
 40
0.0
176
     0
 40
1.0
176
     0
 90
        0
176
     0
 62
    18
420
        0
176
     0
 90
       50
176
     0
 90
        3
176
     0
 62
     5
420
      255
176
     0
290
     0
176
     0
 90
       50
176
     0
 90
       50
176
     0
 90
       50
176
     0
290
     0
176
     0
 90
       50
176
     0
 62
   256
176
     0
 40
1.0
176
     0
 90
        2
176
     0
  1
strokes_ogs.tif
176
     0
290
     0
176
     0
 40
1.0
176
     0
 40
1.0
176
     0
  0
VISUALSTYLE
  5
8315
102
{ACAD_REACTORS
330
8306
102
}
330
8306
100
AcDbVisualStyle
  2
Facepattern
 70
    15
177
     3
291
     1
 70
    58
 90
        2
176
     1
 90
        2
176
     1
 90
        0
176
     1
 90
        0
176
     1
 40
0.6
176
     1
 40
30.0
176
     1
 62
     7
420
 16777215
176
     1
 90
        1
176
     1
 90
        4
176
     1
 62
     7
176
     1
 62
   257
176
     1
 90
        1
176
     1
 90
        1
176
     1
 40
1.0
176
     1
 90
        8
176
     1
 62
     7
176
     1
 40
1.0
176
     1
 90
        1
176
     1
 90
        6
176
     1
 90
        2
176
     1
 62
     7
176
     1
 90
        5
176
     1
 90
        0
176
     1
 90
        0
176
     1
290
     0
176
     1
 90
        1
176
     1
 40
0.0
176
     1
 90
        0
176
     1
290
     0
176
     1
290
     1
176
     1
290
     1
176
     1
290
     0
176
     1
290
     0
176
     1
290
     0
176
     1
290
     0
176
     1
290
     0
176
     1
290
     0
176
     1
 90
       50
176
     1
 40
0.0
176
     1
 40
1.0
176
     1
 90
        0
176
     1
 62
    18
420
        0
176
     1
 90
       50
176
     1
 90
        3
176
     1
 62
     5
420
      255
176
     1
290
     0
176
     1
 90
       50
176
     1
 90
       50
176
     1
 90
       50
176
     1
290
     0
176
     1
 90
       50
176
     1
 62
   256
176
     0
 40
1.0
176
     0
 90
        2
176
     1
  1
strokes_ogs.tif
176
     1
290
     0
176
     1
 40
1.0
176
     1
 40
1.0
176
     1
  0
VISUALSTYLE
  5
8307
102
{ACAD_REACTORS
330
8306
102
}
330
8306
100
AcDbVisualStyle
  2
Flat
 70
     0
177
     3
291
     1
 70
    58
 90
        2
176
     1
 90
        1
176
     1
 90
        1
176
     1
 90
        2
176
     1
 40
0.6
176
     1
 40
30.0
176
     1
 62
     7
420
 16777215
176
     1
 90
        0
176
     1
 90
        0
176
     1
 62
     7
176
     1
 62
   257
176
     1
 90
        1
176
     1
 90
        1
176
     1
 40
1.0
176
     1
 90
        8
176
     1
 62
     7
176
     1
 40
1.0
176
     1
 90
        1
176
     1
 90
        6
176
     1
 90
        2
176
     1
 62
     7
176
     1
 90
        5
176
     1
 90
        0
176
     1
 90
        0
176
     1
290
     0
176
     1
 90
       13
176
     1
 40
0.0
176
     1
 90
        0
176
     1
290
     0
176
     1
290
     1
176
     1
290
     1
176
     1
290
     0
176
     1
290
     0
176
     1
290
     0
176
     1
290
     0
176
     1
290
     0
176
     1
290
     0
176
     1
 90
       50
176
     1
 40
0.0
176
     1
 40
1.0
176
     1
 90
        0
176
     1
 62
    18
420
        0
176
     1
 90
       50
176
     1
 90
        3
176
     1
 62
     5
420
      255
176
     1
290
     0
176
     1
 90
       50
176
     1
 90
       50
176
     1
 90
       50
176
     1
290
     0
176
     1
 90
       50
176
     1
 62
   256
176
     0
 40
1.0
176
     0
 90
        2
176
     1
  1
strokes_ogs.tif
176
     1
290
     0
176
     1
 40
1.0
176
     1
 40
1.0
176
     1
  0
VISUALSTYLE
  5
8308
102
{ACAD_REACTORS
330
8306
102
}
330
8306
100
AcDbVisualStyle
  2
FlatWithEdges
 70
     1
177
     3
291
     1
 70
    58
 90
        2
176
     1
 90
        1
176
     1
 90
        1
176
     1
 90
        2
176
     1
 40
0.6
176
     1
 40
30.0
176
     1
 62
     7
420
 16777215
176
     1
 90
        1
176
     1
 90
        0
176
     1
 62
     7
176
     1
 62
   257
176
     1
 90
        1
176
     1
 90
        1
176
     1
 40
1.0
176
     1
 90
        0
176
     1
 62
   257
176
     1
 40
1.0
176
     1
 90
        1
176
     1
 90
        6
176
     1
 90
        2
176
     1
 62
     7
176
     1
 90
        5
176
     1
 90
        0
176
     1
 90
        0
176
     1
290
     0
176
     1
 90
       13
176
     1
 40
0.0
176
     1
 90
        0
176
     1
290
     0
176
     1
290
     1
176
     1
290
     1
176
     1
290
     0
176
     1
290
     0
176
     1
290
     0
176
     1
290
     0
176
     1
290
     0
176
     1
290
     0
176
     1
 90
       50
176
     1
 40
0.0
176
     1
 40
1.0
176
     1
 90
        0
176
     1
 62
    18
420
        0
176
     1
 90
       50
176
     1
 90
        3
176
     1
 62
     5
420
      255
176
     1
290
     0
176
     1
 90
       50
176
     1
 90
       50
176
     1
 90
       50
176
     1
290
     0
176
     1
 90
       50
176
     1
 62
   256
176
     0
 40
1.0
176
     0
 90
        2
176
     1
  1
strokes_ogs.tif
176
     1
290
     0
176
     1
 40
1.0
176
     1
 40
1.0
176
     1
  0
VISUALSTYLE
  5
8309
102
{ACAD_REACTORS
330
8306
102
}
330
8306
100
AcDbVisualStyle
  2
Gouraud
 70
     2
177
     3
291
     1
 70
    58
 90
        2
176
     1
 90
        2
176
     1
 90
        1
176
     1
 90
        2
176
     1
 40
0.6
176
     1
 40
30.0
176
     1
 62
     7
420
 16777215
176
     1
 90
        0
176
     1
 90
        0
176
     1
 62
     7
176
     1
 62
   257
176
     1
 90
        1
176
     1
 90
        1
176
     1
 40
1.0
176
     1
 90
        0
176
     1
 62
     7
176
     1
 40
1.0
176
     1
 90
        1
176
     1
 90
        6
176
     1
 90
        2
176
     1
 62
     7
176
     1
 90
        5
176
     1
 90
        0
176
     1
 90
        0
176
     1
290
     0
176
     1
 90
       13
176
     1
 40
0.0
176
     1
 90
        0
176
     1
290
     0
176
     1
290
     1
176
     1
290
     1
176
     1
290
     0
176
     1
290
     0
176
     1
290
     0
176
     1
290
     0
176
     1
290
     0
176
     1
290
     0
176
     1
 90
       50
176
     1
 40
0.0
176
     1
 40
1.0
176
     1
 90
        0
176
     1
 62
    18
420
        0
176
     1
 90
       50
176
     1
 90
        3
176
     1
 62
     5
420
      255
176
     1
290
     0
176
     1
 90
       50
176
     1
 90
       50
176
     1
 90
       50
176
     1
290
     0
176
     1
 90
       50
176
     1
 62
   256
176
     0
 40
1.0
176
     0
 90
        2
176
     1
  1
strokes_ogs.tif
176
     1
290
     0
176
     1
 40
1.0
176
     1
 40
1.0
176
     1
  0
VISUALSTYLE
  5
830A
102
{ACAD_REACTORS
330
8306
102
}
330
8306
100
AcDbVisualStyle
  2
GouraudWithEdges
 70
     3
177
     3
291
     1
 70
    58
 90
        2
176
     1
 90
        2
176
     1
 90
        1
176
     1
 90
        2
176
     1
 40
0.6
176
     1
 40
30.0
176
     1
 62
     7
420
 16777215
176
     1
 90
        1
176
     1
 90
        0
176
     1
 62
     7
176
     1
 62
   257
176
     1
 90
        1
176
     1
 90
        1
176
     1
 40
1.0
176
     1
 90
        0
176
     1
 62
   257
176
     1
 40
1.0
176
     1
 90
        1
176
     1
 90
        6
176
     1
 90
        2
176
     1
 62
     7
176
     1
 90
        5
176
     1
 90
        0
176
     1
 90
        0
176
     1
290
     0
176
     1
 90
       13
176
     1
 40
0.0
176
     1
 90
        0
176
     1
290
     0
176
     1
290
     1
176
     1
290
     1
176
     1
290
     0
176
     1
290
     0
176
     1
290
     0
176
     1
290
     0
176
     1
290
     0
176
     1
290
     0
176
     1
 90
       50
176
     1
 40
0.0
176
     1
 40
1.0
176
     1
 90
        0
176
     1
 62
    18
420
        0
176
     1
 90
       50
176
     1
 90
        3
176
     1
 62
     5
420
      255
176
     1
290
     0
176
     1
 90
       50
176
     1
 90
       50
176
     1
 90
       50
176
     1
290
     0
176
     1
 90
       50
176
     1
 62
   256
176
     0
 40
1.0
176
     0
 90
        2
176
     1
  1
strokes_ogs.tif
176
     1
290
     0
176
     1
 40
1.0
176
     1
 40
1.0
176
     1
  0
VISUALSTYLE
  5
830E
102
{ACAD_REACTORS
330
8306
102
}
330
8306
100
AcDbVisualStyle
  2
Hidden
 70
     6
177
     3
291
     0
 70
    58
 90
        1
176
     1
 90
        2
176
     1
 90
        2
176
     1
 90
        0
176
     1
 40
0.6
176
     1
 40
30.0
176
     1
 62
     7
420
 16777215
176
     1
 90
        2
176
     1
 90
        2
176
     1
 62
     7
176
     1
 62
   257
176
     1
 90
        2
176
     1
 90
        1
176
     1
 40
40.0
176
     1
 90
        0
176
     1
 62
   257
176
     1
 40
1.0
176
     1
 90
        1
176
     1
 90
        6
176
     1
 90
        2
176
     1
 62
     7
176
     1
 90
        3
176
     1
 90
        0
176
     1
 90
        0
176
     1
290
     0
176
     1
 90
        1
176
     1
 40
0.0
176
     1
 90
        0
176
     1
290
     0
176
     1
290
     1
176
     1
290
     1
176
     1
290
     0
176
     1
290
     0
176
     1
290
     0
176
     1
290
     0
176
     1
290
     0
176
     1
290
     0
176
     1
 90
       50
176
     1
 40
0.0
176
     1
 40
1.0
176
     1
 90
        0
176
     1
 62
    18
420
        0
176
     1
 90
       50
176
     1
 90
        3
176
     1
 62
     5
420
      255
176
     1
290
     0
176
     1
 90
       50
176
     1
 90
       50
176
     1
 90
       50
176
     1
290
     0
176
     1
 90
       50
176
     1
 62
   256
176
     0
 40
1.0
176
     0
 90
        2
176
     1
  1
strokes_ogs.tif
176
     1
290
     0
176
     1
 40
1.0
176
     1
 40
1.0
176
     1
  0
VISUALSTYLE
  5
831C
102
{ACAD_REACTORS
330
8306
102
}
330
8306
100
AcDbVisualStyle
  2
JitterOff
 70
    20
177
     3
291
     1
 70
    58
 90
        2
176
     0
 90
        2
176
     0
 90
        0
176
     0
 90
        0
176
     0
 40
0.6
176
     0
 40
30.0
176
     0
 62
     7
420
 16777215
176
     0
 90
        1
176
     0
 90
        4
176
     0
 62
     7
176
     0
 62
   257
176
     0
 90
        1
176
     0
 90
        1
176
     0
 40
1.0
176
     0
 90
       10
176
     2
 62
     7
176
     0
 40
1.0
176
     0
 90
        1
176
     0
 90
        6
176
     0
 90
        2
176
     0
 62
     7
176
     0
 90
        5
176
     0
 90
        0
176
     0
 90
        0
176
     0
290
     0
176
     0
 90
        1
176
     0
 40
0.0
176
     0
 90
        0
176
     0
290
     0
176
     0
290
     1
176
     0
290
     1
176
     0
290
     0
176
     0
290
     0
176
     0
290
     0
176
     0
290
     0
176
     0
290
     0
176
     0
290
     0
176
     0
 90
       50
176
     0
 40
0.0
176
     0
 40
1.0
176
     0
 90
        0
176
     0
 62
    18
420
        0
176
     0
 90
       50
176
     0
 90
        3
176
     0
 62
     5
420
      255
176
     0
290
     0
176
     0
 90
       50
176
     0
 90
       50
176
     0
 90
       50
176
     0
290
     0
176
     0
 90
       50
176
     0
 62
   256
176
     0
 40
1.0
176
     0
 90
        2
176
     0
  1
strokes_ogs.tif
176
     0
290
     0
176
     0
 40
1.0
176
     0
 40
1.0
176
     0
  0
VISUALSTYLE
  5
8314
102
{ACAD_REACTORS
330
8306
102
}
330
8306
100
AcDbVisualStyle
  2
Linepattern
 70
    14
177
     3
291
     1
 70
    58
 90
        2
176
     1
 90
        2
176
     1
 90
        0
176
     1
 90
        0
176
     1
 40
0.6
176
     1
 40
30.0
176
     1
 62
     7
420
 16777215
176
     1
 90
        1
176
     1
 90
        4
176
     1
 62
     7
176
     1
 62
   257
176
     1
 90
        7
176
     1
 90
        7
176
     1
 40
1.0
176
     1
 90
        8
176
     1
 62
     7
176
     1
 40
1.0
176
     1
 90
        1
176
     1
 90
        6
176
     1
 90
        2
176
     1
 62
     7
176
     1
 90
        5
176
     1
 90
        0
176
     1
 90
        0
176
     1
290
     0
176
     1
 90
        1
176
     1
 40
0.0
176
     1
 90
        0
176
     1
290
     0
176
     1
290
     1
176
     1
290
     1
176
     1
290
     0
176
     1
290
     0
176
     1
290
     0
176
     1
290
     0
176
     1
290
     0
176
     1
290
     0
176
     1
 90
       50
176
     1
 40
0.0
176
     1
 40
1.0
176
     1
 90
        0
176
     1
 62
    18
420
        0
176
     1
 90
       50
176
     1
 90
        3
176
     1
 62
     5
420
      255
176
     1
290
     0
176
     1
 90
       50
176
     1
 90
       50
176
     1
 90
       50
176
     1
290
     0
176
     1
 90
       50
176
     1
 62
   256
176
     0
 40
1.0
176
     0
 90
        2
176
     1
  1
strokes_ogs.tif
176
     1
290
     0
176
     1
 40
1.0
176
     1
 40
1.0
176
     1
  0
VISUALSTYLE
  5
831D
102
{ACAD_REACTORS
330
8306
102
}
330
8306
100
AcDbVisualStyle
  2
OverhangOff
 70
    21
177
     3
291
     1
 70
    58
 90
        2
176
     0
 90
        2
176
     0
 90
        0
176
     0
 90
        0
176
     0
 40
0.6
176
     0
 40
30.0
176
     0
 62
     7
420
 16777215
176
     0
 90
        1
176
     0
 90
        4
176
     0
 62
     7
176
     0
 62
   257
176
     0
 90
        1
176
     0
 90
        1
176
     0
 40
1.0
176
     0
 90
        9
176
     2
 62
     7
176
     0
 40
1.0
176
     0
 90
        1
176
     0
 90
        6
176
     0
 90
        2
176
     0
 62
     7
176
     0
 90
        5
176
     0
 90
        0
176
     0
 90
        0
176
     0
290
     0
176
     0
 90
        1
176
     0
 40
0.0
176
     0
 90
        0
176
     0
290
     0
176
     0
290
     1
176
     0
290
     1
176
     0
290
     0
176
     0
290
     0
176
     0
290
     0
176
     0
290
     0
176
     0
290
     0
176
     0
290
     0
176
     0
 90
       50
176
     0
 40
0.0
176
     0
 40
1.0
176
     0
 90
        0
176
     0
 62
    18
420
        0
176
     0
 90
       50
176
     0
 90
        3
176
     0
 62
     5
420
      255
176
     0
290
     0
176
     0
 90
       50
176
     0
 90
       50
176
     0
 90
       50
176
     0
290
     0
176
     0
 90
       50
176
     0
 62
   256
176
     0
 40
1.0
176
     0
 90
        2
176
     0
  1
strokes_ogs.tif
176
     0
290
     0
176
     0
 40
1.0
176
     0
 40
1.0
176
     0
  0
VISUALSTYLE
  5
8310
102
{ACAD_REACTORS
330
8306
102
}
330
8306
100
AcDbVisualStyle
  2
Realistic
 70
     8
177
     3
291
     0
 70
    58
 90
        2
176
     1
 90
        3
176
     1
 90
        0
176
     1
 90
        2
176
     1
 40
0.6
176
     1
 40
30.0
176
     1
 62
     7
420
 16777215
176
     1
 90
        0
176
     1
 90
        0
176
     1
 62
     7
176
     1
 62
   257
176
     1
 90
        1
176
     1
 90
        1
176
     1
 40
1.0
176
     1
 90
        8
176
     1
 62
   257
176
     1
 40
1.0
176
     1
 90
        1
176
     1
 90
        6
176
     1
 90
        2
176
     1
 62
     7
176
     1
 90
        3
176
     1
 90
        0
176
     1
 90
        0
176
     1
290
     0
176
     1
 90
       13
176
     1
 40
0.0
176
     1
 90
        0
176
     1
290
     0
176
     1
290
     1
176
     1
290
     1
176
     1
290
     0
176
     1
290
     0
176
     1
290
     0
176
     1
290
     0
176
     1
290
     0
176
     1
290
     0
176
     1
 90
       50
176
     1
 40
0.0
176
     1
 40
1.0
176
     1
 90
        0
176
     1
 62
    18
420
        0
176
     1
 90
       50
176
     1
 90
        3
176
     1
 62
     5
420
      255
176
     1
290
     0
176
     1
 90
       50
176
     1
 90
       50
176
     1
 90
       50
176
     1
290
     0
176
     1
 90
       50
176
     1
 62
   256
176
     0
 40
1.0
176
     0
 90
        2
176
     1
  1
strokes_ogs.tif
176
     1
290
     0
176
     1
 40
1.0
176
     1
 40
1.0
176
     1
  0
VISUALSTYLE
  5
831B
102
{ACAD_REACTORS
330
8306
102
}
330
8306
100
AcDbVisualStyle
  2
Shaded
 70
    27
177
     3
291
     0
 70
    58
 90
        2
176
     1
 90
        2
176
     1
 90
        1
176
     1
 90
        2
176
     1
 40
0.6
176
     1
 40
30.0
176
     1
 62
     7
420
 16777215
176
     1
 90
        0
176
     1
 90
        4
176
     1
 62
     7
176
     1
 62
   257
176
     1
 90
        1
176
     1
 90
        1
176
     1
 40
1.0
176
     1
 90
        8
176
     1
 62
   257
176
     1
 40
1.0
176
     1
 90
        1
176
     1
 90
        6
176
     1
 90
        2
176
     1
 62
     8
420
  7895160
176
     1
 90
        3
176
     1
 90
        0
176
     1
 90
        0
176
     1
290
     0
176
     1
 90
        5
176
     1
 40
0.0
176
     1
 90
        0
176
     1
290
     0
176
     1
290
     1
176
     1
290
     1
176
     1
290
     0
176
     1
290
     0
176
     1
290
     0
176
     1
290
     0
176
     1
290
     0
176
     1
290
     0
176
     1
 90
       50
176
     1
 40
0.0
176
     1
 40
1.0
176
     1
 90
        0
176
     1
 62
    18
420
        0
176
     1
 90
       50
176
     1
 90
        3
176
     1
 62
     5
420
      255
176
     1
290
     0
176
     1
 90
       50
176
     1
 90
       50
176
     1
 90
       50
176
     1
290
     0
176
     1
 90
       50
176
     1
 62
   256
176
     0
 40
1.0
176
     0
 90
        2
176
     1
  1
strokes_ogs.tif
176
     1
290
     0
176
     1
 40
1.0
176
     1
 40
1.0
176
     1
  0
VISUALSTYLE
  5
831A
102
{ACAD_REACTORS
330
8306
102
}
330
8306
100
AcDbVisualStyle
  2
Shaded with edges
 70
    26
177
     3
291
     0
 70
    58
 90
        2
176
     1
 90
        2
176
     1
 90
        1
176
     1
 90
        2
176
     1
 40
0.6
176
     1
 40
30.0
176
     1
 62
     7
420
 16777215
176
     1
 90
        1
176
     1
 90
       10
176
     1
 62
     7
176
     1
 62
   257
176
     1
 90
        2
176
     1
 90
        1
176
     1
 40
1.0
176
     1
 90
        8
176
     1
 62
   257
176
     1
 40
1.0
176
     1
 90
        1
176
     1
 90
        6
176
     1
 90
        2
176
     1
 62
     7
176
     1
 90
        3
176
     1
 90
        0
176
     1
 90
        0
176
     1
290
     0
176
     1
 90
        5
176
     1
 40
0.0
176
     1
 90
        0
176
     1
290
     0
176
     1
290
     1
176
     1
290
     1
176
     1
290
     0
176
     1
290
     0
176
     1
290
     0
176
     1
290
     0
176
     1
290
     0
176
     1
290
     0
176
     1
 90
       50
176
     1
 40
0.0
176
     1
 40
1.0
176
     1
 90
        0
176
     1
 62
    18
420
        0
176
     1
 90
       50
176
     1
 90
        3
176
     1
 62
     5
420
      255
176
     1
290
     0
176
     1
 90
       50
176
     1
 90
       50
176
     1
 90
       50
176
     1
290
     0
176
     1
 90
       50
176
     1
 62
   256
176
     0
 40
1.0
176
     0
 90
        2
176
     1
  1
strokes_ogs.tif
176
     1
290
     0
176
     1
 40
1.0
176
     1
 40
1.0
176
     1
  0
VISUALSTYLE
  5
8317
102
{ACAD_REACTORS
330
8306
102
}
330
8306
100
AcDbVisualStyle
  2
Shades of Gray
 70
    23
177
     3
291
     0
 70
    58
 90
        2
176
     1
 90
        2
176
     1
 90
        3
176
     1
 90
        0
176
     1
 40
0.6
176
     1
 40
30.0
176
     1
 62
     7
420
 16777215
176
     1
 90
        2
176
     1
 90
        2
176
     1
 62
     7
176
     1
 62
     7
176
     1
 90
        1
176
     1
 90
        1
176
     1
 40
40.0
176
     1
 90
        8
176
     1
 62
     7
176
     1
 40
1.0
176
     1
 90
        1
176
     1
 90
        6
176
     1
 90
        2
176
     1
 62
     7
176
     1
 90
        3
176
     1
 90
        0
176
     1
 90
        0
176
     1
290
     0
176
     1
 90
        1
176
     1
 40
0.0
176
     1
 90
        0
176
     1
290
     0
176
     1
290
     1
176
     1
290
     1
176
     1
290
     0
176
     1
290
     0
176
     1
290
     0
176
     1
290
     0
176
     1
290
     0
176
     1
290
     0
176
     1
 90
       50
176
     1
 40
0.0
176
     1
 40
1.0
176
     1
 90
        0
176
     1
 62
    18
420
        0
176
     1
 90
       50
176
     1
 90
        3
176
     1
 62
     5
420
      255
176
     1
290
     0
176
     1
 90
       50
176
     1
 90
       50
176
     1
 90
       50
176
     1
290
     0
176
     1
 90
       50
176
     1
 62
   256
176
     0
 40
1.0
176
     0
 90
        2
176
     1
  1
strokes_ogs.tif
176
     1
290
     0
176
     1
 40
1.0
176
     1
 40
1.0
176
     1
  0
VISUALSTYLE
  5
8318
102
{ACAD_REACTORS
330
8306
102
}
330
8306
100
AcDbVisualStyle
  2
Sketchy
 70
    24
177
     3
291
     0
 70
    58
 90
        1
176
     1
 90
        2
176
     1
 90
        2
176
     1
 90
        0
176
     1
 40
0.6
176
     1
 40
30.0
176
     1
 62
     7
420
 16777215
176
     1
 90
        2
176
     1
 90
        2
176
     1
 62
     7
176
     1
 62
     7
176
     1
 90
        1
176
     1
 90
        1
176
     1
 40
40.0
176
     1
 90
       11
176
     1
 62
     7
176
     1
 40
1.0
176
     1
 90
        1
176
     1
 90
        6
176
     1
 90
        2
176
     1
 62
     7
176
     1
 90
        6
176
     1
 90
        0
176
     1
 90
        0
176
     1
290
     0
176
     1
 90
        1
176
     1
 40
0.0
176
     1
 90
        0
176
     1
290
     0
176
     1
290
     1
176
     1
290
     1
176
     1
290
     0
176
     1
290
     0
176
     1
290
     0
176
     1
290
     0
176
     1
290
     0
176
     1
290
     0
176
     1
 90
       50
176
     1
 40
0.0
176
     1
 40
1.0
176
     1
 90
        0
176
     1
 62
    18
420
        0
176
     1
 90
       50
176
     1
 90
        3
176
     1
 62
     5
420
      255
176
     1
290
     0
176
     1
 90
       50
176
     1
 90
       50
176
     1
 90
       50
176
     1
290
     0
176
     1
 90
       50
176
     1
 62
   256
176
     0
 40
1.0
176
     0
 90
        2
176
     1
  1
strokes_ogs.tif
176
     1
290
     0
176
     1
 40
1.0
176
     1
 40
1.0
176
     1
  0
VISUALSTYLE
  5
8313
102
{ACAD_REACTORS
330
8306
102
}
330
8306
100
AcDbVisualStyle
  2
Thicken
 70
    13
177
     3
291
     1
 70
    58
 90
        2
176
     1
 90
        2
176
     1
 90
        0
176
     1
 90
        0
176
     1
 40
0.6
176
     1
 40
30.0
176
     1
 62
     7
420
 16777215
176
     1
 90
        1
176
     1
 90
        4
176
     1
 62
     7
176
     1
 62
   257
176
     1
 90
        1
176
     1
 90
        1
176
     1
 40
1.0
176
     1
 90
       12
176
     1
 62
     7
176
     1
 40
1.0
176
     1
 90
        1
176
     1
 90
        6
176
     1
 90
        2
176
     1
 62
     7
176
     1
 90
        5
176
     1
 90
        0
176
     1
 90
        0
176
     1
290
     0
176
     1
 90
        1
176
     1
 40
0.0
176
     1
 90
        0
176
     1
290
     0
176
     1
290
     1
176
     1
290
     1
176
     1
290
     0
176
     1
290
     0
176
     1
290
     0
176
     1
290
     0
176
     1
290
     0
176
     1
290
     0
176
     1
 90
       50
176
     1
 40
0.0
176
     1
 40
1.0
176
     1
 90
        0
176
     1
 62
    18
420
        0
176
     1
 90
       50
176
     1
 90
        3
176
     1
 62
     5
420
      255
176
     1
290
     0
176
     1
 90
       50
176
     1
 90
       50
176
     1
 90
       50
176
     1
290
     0
176
     1
 90
       50
176
     1
 62
   256
176
     0
 40
1.0
176
     0
 90
        2
176
     1
  1
strokes_ogs.tif
176
     1
290
     0
176
     1
 40
1.0
176
     1
 40
1.0
176
     1
  0
VISUALSTYLE
  5
830D
102
{ACAD_REACTORS
330
8306
102
}
330
8306
100
AcDbVisualStyle
  2
Wireframe
 70
     5
177
     3
291
     0
 70
    58
 90
        0
176
     1
 90
        2
176
     1
 90
        0
176
     1
 90
        0
176
     1
 40
0.6
176
     1
 40
30.0
176
     1
 62
     7
420
 16777215
176
     1
 90
        1
176
     1
 90
        4
176
     1
 62
     7
176
     1
 62
   257
176
     1
 90
        1
176
     1
 90
        1
176
     1
 40
1.0
176
     1
 90
        0
176
     1
 62
   257
176
     1
 40
1.0
176
     1
 90
        1
176
     1
 90
        6
176
     1
 90
        2
176
     1
 62
     7
176
     1
 90
        3
176
     1
 90
        0
176
     1
 90
        0
176
     1
290
     0
176
     1
 90
        1
176
     1
 40
0.0
176
     1
 90
        0
176
     1
290
     0
176
     1
290
     1
176
     1
290
     1
176
     1
290
     0
176
     1
290
     0
176
     1
290
     0
176
     1
290
     0
176
     1
290
     0
176
     1
290
     0
176
     1
 90
       50
176
     1
 40
0.0
176
     1
 40
1.0
176
     1
 90
        0
176
     1
 62
    18
420
        0
176
     1
 90
       50
176
     1
 90
        3
176
     1
 62
     5
420
      255
176
     1
290
     0
176
     1
 90
       50
176
     1
 90
       50
176
     1
 90
       50
176
     1
290
     0
176
     1
 90
       50
176
     1
 62
   256
176
     0
 40
1.0
176
     0
 90
        2
176
     1
  1
strokes_ogs.tif
176
     1
290
     0
176
     1
 40
1.0
176
     1
 40
1.0
176
     1
  0
VISUALSTYLE
  5
8319
102
{ACAD_REACTORS
330
8306
102
}
330
8306
100
AcDbVisualStyle
  2
X-Ray
 70
    25
177
     3
291
     0
 70
    58
 90
        2
176
     1
 90
        2
176
     1
 90
        1
176
     1
 90
        1
176
     1
 40
0.5
176
     1
 40
30.0
176
     1
 62
     7
420
 16777215
176
     1
 90
        1
176
     1
 90
        0
176
     1
 62
     7
176
     1
 62
   257
176
     1
 90
        1
176
     1
 90
        1
176
     1
 40
1.0
176
     1
 90
        8
176
     1
 62
     7
176
     1
 40
1.0
176
     1
 90
        1
176
     1
 90
        6
176
     1
 90
        2
176
     1
 62
     7
176
     1
 90
        3
176
     1
 90
        0
176
     1
 90
        0
176
     1
290
     0
176
     1
 90
       13
176
     1
 40
0.0
176
     1
 90
        0
176
     1
290
     0
176
     1
290
     1
176
     1
290
     1
176
     1
290
     0
176
     1
290
     0
176
     1
290
     0
176
     1
290
     0
176
     1
290
     0
176
     1
290
     0
176
     1
 90
       50
176
     1
 40
0.0
176
     1
 40
1.0
176
     1
 90
        0
176
     1
 62
    18
420
        0
176
     1
 90
       50
176
     1
 90
        3
176
     1
 62
     5
420
      255
176
     1
290
     0
176
     1
 90
       50
176
     1
 90
       50
176
     1
 90
       50
176
     1
290
     0
176
     1
 90
       50
176
     1
 62
   256
176
     0
 40
1.0
176
     0
 90
        2
176
     1
  1
strokes_ogs.tif
176
     1
290
     0
176
     1
 40
1.0
176
     1
 40
1.0
176
     1
  0
DICTIONARYVAR
  5
83DB
102
{ACAD_REACTORS
330
83D5
102
}
330
83D5
100
DictionaryVariables
280
     0
  1
1:1
  0
DICTIONARYVAR
  5
83D7
102
{ACAD_REACTORS
330
83D5
102
}
330
83D5
100
DictionaryVariables
280
     0
  1
STANDARD
  0
DICTIONARYVAR
  5
83D6
102
{ACAD_REACTORS
330
83D5
102
}
330
83D5
100
DictionaryVariables
280
     0
  1
STANDARD
  0
DICTIONARYVAR
  5
83D8
102
{ACAD_REACTORS
330
83D5
102
}
330
83D5
100
DictionaryVariables
280
     0
  1
Metric50
  0
DICTIONARYVAR
  5
83D9
102
{ACAD_REACTORS
330
83D5
102
}
330
83D5
100
DictionaryVariables
280
     0
  1
Metric50
  0
DICTIONARYVAR
  5
83DD
102
{ACAD_REACTORS
330
83D5
102
}
330
83D5
100
DictionaryVariables
280
     0
  1
1
  0
DICTIONARYVAR
  5
83DE
102
{ACAD_REACTORS
330
83D5
102
}
330
83D5
100
DictionaryVariables
280
     0
  1
15
  0
DICTIONARYVAR
  5
83DC
102
{ACAD_REACTORS
330
83D5
102
}
330
83D5
100
DictionaryVariables
280
     0
  1
0
  0
DICTIONARYVAR
  5
83DA
102
{ACAD_REACTORS
330
83D5
102
}
330
83D5
100
DictionaryVariables
280
     0
  1
0
  0
DICTIONARY
  5
83D2
330
8339
100
AcDbDictionary
280
     1
281
     1
  3
ACAD_XREC_ROUNDTRIP
360
8413
  0
DICTIONARY
  5
82F7
330
82F6
100
AcDbDictionary
280
     1
281
     1
  3
BUMPTILE
360
82F9
  3
DIFFUSETILE
360
82F8
  3
OPACITYTILE
360
82FC
  3
REFLECTIONTILE
360
82FB
  3
REFRACTIONTILE
360
82FD
  3
SPECULARTILE
360
82FA
  0
DICTIONARY
  5
82EF
330
82EE
100
AcDbDictionary
280
     1
281
     1
  3
BUMPTILE
360
82F1
  3
DIFFUSETILE
360
82F0
  3
OPACITYTILE
360
82F4
  3
REFLECTIONTILE
360
82F3
  3
REFRACTIONTILE
360
82F5
  3
SPECULARTILE
360
82F2
  0
DICTIONARY
  5
82FF
330
82FE
100
AcDbDictionary
280
     1
281
     1
  3
BUMPTILE
360
8301
  3
DIFFUSETILE
360
8300
  3
OPACITYTILE
360
8304
  3
REFLECTIONTILE
360
8303
  3
REFRACTIONTILE
360
8305
  3
SPECULARTILE
360
8302
  0
DICTIONARY
  5
83D0
330
8337
100
AcDbDictionary
280
     1
281
     1
  3
ACAD_XREC_ROUNDTRIP
360
8412
  0
DICTIONARY
  5
8410
330
8321
100
AcDbDictionary
280
     1
281
     1
  3
ACAD_ROUNDTRIP_2008_TABLESTYLE_CELLSTYLEMAP
360
8411
  0
XRECORD
  5
8413
102
{ACAD_REACTORS
330
83D2
102
}
330
83D2
100
AcDbXrecord
280
     1
102
DISPLAYNAME
  1
Metric50
102
FLAGS
 90
        0
  0
XRECORD
  5
82F9
102
{ACAD_REACTORS
330
82F7
102
}
330
82F7
100
AcDbXrecord
280
     1
270
     1
271
     1
  0
XRECORD
  5
82F8
102
{ACAD_REACTORS
330
82F7
102
}
330
82F7
100
AcDbXrecord
280
     1
270
     1
271
     1
  0
XRECORD
  5
82FC
102
{ACAD_REACTORS
330
82F7
102
}
330
82F7
100
AcDbXrecord
280
     1
270
     1
271
     1
  0
XRECORD
  5
82FB
102
{ACAD_REACTORS
330
82F7
102
}
330
82F7
100
AcDbXrecord
280
     1
270
     1
271
     1
  0
XRECORD
  5
82FD
102
{ACAD_REACTORS
330
82F7
102
}
330
82F7
100
AcDbXrecord
280
     1
270
     1
271
     1
  0
XRECORD
  5
82FA
102
{ACAD_REACTORS
330
82F7
102
}
330
82F7
100
AcDbXrecord
280
     1
270
     1
271
     1
  0
XRECORD
  5
82F1
102
{ACAD_REACTORS
330
82EF
102
}
330
82EF
100
AcDbXrecord
280
     1
270
     1
271
     1
  0
XRECORD
  5
82F0
102
{ACAD_REACTORS
330
82EF
102
}
330
82EF
100
AcDbXrecord
280
     1
270
     1
271
     1
  0
XRECORD
  5
82F4
102
{ACAD_REACTORS
330
82EF
102
}
330
82EF
100
AcDbXrecord
280
     1
270
     1
271
     1
  0
XRECORD
  5
82F3
102
{ACAD_REACTORS
330
82EF
102
}
330
82EF
100
AcDbXrecord
280
     1
270
     1
271
     1
  0
XRECORD
  5
82F5
102
{ACAD_REACTORS
330
82EF
102
}
330
82EF
100
AcDbXrecord
280
     1
270
     1
271
     1
  0
XRECORD
  5
82F2
102
{ACAD_REACTORS
330
82EF
102
}
330
82EF
100
AcDbXrecord
280
     1
270
     1
271
     1
  0
XRECORD
  5
8301
102
{ACAD_REACTORS
330
82FF
102
}
330
82FF
100
AcDbXrecord
280
     1
270
     1
271
     1
  0
XRECORD
  5
8300
102
{ACAD_REACTORS
330
82FF
102
}
330
82FF
100
AcDbXrecord
280
     1
270
     1
271
     1
  0
XRECORD
  5
8304
102
{ACAD_REACTORS
330
82FF
102
}
330
82FF
100
AcDbXrecord
280
     1
270
     1
271
     1
  0
XRECORD
  5
8303
102
{ACAD_REACTORS
330
82FF
102
}
330
82FF
100
AcDbXrecord
280
     1
270
     1
271
     1
  0
XRECORD
  5
8305
102
{ACAD_REACTORS
330
82FF
102
}
330
82FF
100
AcDbXrecord
280
     1
270
     1
271
     1
  0
XRECORD
  5
8302
102
{ACAD_REACTORS
330
82FF
102
}
330
82FF
100
AcDbXrecord
280
     1
270
     1
271
     1
  0
XRECORD
  5
8412
102
{ACAD_REACTORS
330
83D0
102
}
330
83D0
100
AcDbXrecord
280
     1
102
DISPLAYNAME
  1
Metric50
102
FLAGS
 90
        0
  0
CELLSTYLEMAP
  5
8411
102
{ACAD_REACTORS
330
8410
102
}
330
8410
100
AcDbCellStyleMap
 90
        3
300
CELLSTYLE
  1
TABLEFORMAT_BEGIN
 90
        5
170
     1
 91
        0
 92
    32768
 62
   257
 93
        1
300
CONTENTFORMAT
  1
CONTENTFORMAT_BEGIN
 90
        0
 91
        0
 92
      512
 93
        0
300

 40
0.0
140
1.0
 94
        5
 62
     0
340
10
144
6.0
309
CONTENTFORMAT_END
171
     1
301
MARGIN
  1
CELLMARGIN_BEGIN
 40
1.5
 40
1.5
 40
1.5
 40
1.5
 40
4.5
 40
4.5
309
CELLMARGIN_END
 94
        6
 95
        1
302
GRIDFORMAT
  1
GRIDFORMAT_BEGIN
 90
        0
 91
        1
 62
     0
 92
       -2
340
0
 93
        0
 40
1.125
309
GRIDFORMAT_END
 95
        2
302
GRIDFORMAT
  1
GRIDFORMAT_BEGIN
 90
        0
 91
        1
 62
     0
 92
       -2
340
0
 93
        0
 40
1.125
309
GRIDFORMAT_END
 95
        4
302
GRIDFORMAT
  1
GRIDFORMAT_BEGIN
 90
        0
 91
        1
 62
     0
 92
       -2
340
0
 93
        0
 40
1.125
309
GRIDFORMAT_END
 95
        8
302
GRIDFORMAT
  1
GRIDFORMAT_BEGIN
 90
        0
 91
        1
 62
     0
 92
       -2
340
0
 93
        0
 40
1.125
309
GRIDFORMAT_END
 95
       16
302
GRIDFORMAT
  1
GRIDFORMAT_BEGIN
 90
        0
 91
        1
 62
     0
 92
       -2
340
0
 93
        0
 40
1.125
309
GRIDFORMAT_END
 95
       32
302
GRIDFORMAT
  1
GRIDFORMAT_BEGIN
 90
        0
 91
        1
 62
     0
 92
       -2
340
0
 93
        0
 40
1.125
309
GRIDFORMAT_END
309
TABLEFORMAT_END
  1
CELLSTYLE_BEGIN
 90
        1
 91
        1
300
_TITLE
309
CELLSTYLE_END
300
CELLSTYLE
  1
TABLEFORMAT_BEGIN
 90
        5
170
     1
 91
        0
 92
        0
 62
   257
 93
        1
300
CONTENTFORMAT
  1
CONTENTFORMAT_BEGIN
 90
        0
 91
        0
 92
      512
 93
        0
300

 40
0.0
140
1.0
 94
        5
 62
     0
340
10
144
4.5
309
CONTENTFORMAT_END
171
     1
301
MARGIN
  1
CELLMARGIN_BEGIN
 40
1.5
 40
1.5
 40
1.5
 40
1.5
 40
4.5
 40
4.5
309
CELLMARGIN_END
 94
        6
 95
        1
302
GRIDFORMAT
  1
GRIDFORMAT_BEGIN
 90
        0
 91
        1
 62
     0
 92
       -2
340
0
 93
        0
 40
1.125
309
GRIDFORMAT_END
 95
        2
302
GRIDFORMAT
  1
GRIDFORMAT_BEGIN
 90
        0
 91
        1
 62
     0
 92
       -2
340
0
 93
        0
 40
1.125
309
GRIDFORMAT_END
 95
        4
302
GRIDFORMAT
  1
GRIDFORMAT_BEGIN
 90
        0
 91
        1
 62
     0
 92
       -2
340
0
 93
        0
 40
1.125
309
GRIDFORMAT_END
 95
        8
302
GRIDFORMAT
  1
GRIDFORMAT_BEGIN
 90
        0
 91
        1
 62
     0
 92
       -2
340
0
 93
        0
 40
1.125
309
GRIDFORMAT_END
 95
       16
302
GRIDFORMAT
  1
GRIDFORMAT_BEGIN
 90
        0
 91
        1
 62
     0
 92
       -2
340
0
 93
        0
 40
1.125
309
GRIDFORMAT_END
 95
       32
302
GRIDFORMAT
  1
GRIDFORMAT_BEGIN
 90
        0
 91
        1
 62
     0
 92
       -2
340
0
 93
        0
 40
1.125
309
GRIDFORMAT_END
309
TABLEFORMAT_END
  1
CELLSTYLE_BEGIN
 90
        2
 91
        1
300
_HEADER
309
CELLSTYLE_END
300
CELLSTYLE
  1
TABLEFORMAT_BEGIN
 90
        5
170
     1
 91
        0
 92
        0
 62
   257
 93
        1
300
CONTENTFORMAT
  1
CONTENTFORMAT_BEGIN
 90
        0
 91
        0
 92
      512
 93
        0
300

 40
0.0
140
1.0
 94
        2
 62
     0
340
10
144
4.5
309
CONTENTFORMAT_END
171
     1
301
MARGIN
  1
CELLMARGIN_BEGIN
 40
1.5
 40
1.5
 40
1.5
 40
1.5
 40
4.5
 40
4.5
309
CELLMARGIN_END
 94
        6
 95
        1
302
GRIDFORMAT
  1
GRIDFORMAT_BEGIN
 90
        0
 91
        1
 62
     0
 92
       -2
340
0
 93
        0
 40
1.125
309
GRIDFORMAT_END
 95
        2
302
GRIDFORMAT
  1
GRIDFORMAT_BEGIN
 90
        0
 91
        1
 62
     0
 92
       -2
340
0
 93
        0
 40
1.125
309
GRIDFORMAT_END
 95
        4
302
GRIDFORMAT
  1
GRIDFORMAT_BEGIN
 90
        0
 91
        1
 62
     0
 92
       -2
340
0
 93
        0
 40
1.125
309
GRIDFORMAT_END
 95
        8
302
GRIDFORMAT
  1
GRIDFORMAT_BEGIN
 90
        0
 91
        1
 62
     0
 92
       -2
340
0
 93
        0
 40
1.125
309
GRIDFORMAT_END
 95
       16
302
GRIDFORMAT
  1
GRIDFORMAT_BEGIN
 90
        0
 91
        1
 62
     0
 92
       -2
340
0
 93
        0
 40
1.125
309
GRIDFORMAT_END
 95
       32
302
GRIDFORMAT
  1
GRIDFORMAT_BEGIN
 90
        0
 91
        1
 62
     0
 92
       -2
340
0
 93
        0
 40
1.125
309
GRIDFORMAT_END
309
TABLEFORMAT_END
  1
CELLSTYLE_BEGIN
 90
        3
 91
        2
300
_DATA
309
CELLSTYLE_END
  0
ENDSEC
  0
SECTION
  2
ACDSDATA
 70
     2
 71
     8
  0
ACDSSCHEMA
 90
        0
  1
AcDb_Thumbnail_Schema
  2
AcDbDs::ID
280
    10
 91
        8
  2
Thumbnail_Data
280
    15
 91
        0
101
ACDSRECORD
 95
        0
 90
        1
  2
AcDbDs::TreatedAsObjectData
280
     1
291
     1
101
ACDSRECORD
 95
        0
 90
        2
  2
AcDbDs::Legacy
280
     1
291
     1
101
ACDSRECORD
  1
AcDbDs::ID
 90
        3
  2
AcDs:Indexable
280
     1
291
     1
101
ACDSRECORD
  1
AcDbDs::ID
 90
        4
  2
AcDbDs::HandleAttribute
280
     7
282
     1
  0
ACDSSCHEMA
 90
        1
  1
AcDbDs::TreatedAsObjectDataSchema
  2
AcDbDs::TreatedAsObjectData
280
     1
 91
        0
  0
ACDSSCHEMA
 90
        2
  1
AcDbDs::LegacySchema
  2
AcDbDs::Legacy
280
     1
 91
        0
  0
ACDSSCHEMA
 90
        3
  1
AcDbDs::IndexedPropertySchema
  2
AcDs:Indexable
280
     1
 91
        0
  0
ACDSSCHEMA
 90
        4
  1
AcDbDs::HandleAttributeSchema
  2
AcDbDs::HandleAttribute
280
     7
 91
        1
284
     1
  0
ACDSRECORD
 90
        0
  2
AcDbDs::ID
280
    10
320
82E1
  2
Thumbnail_Data
280
    15
 94
     1677
310
89504E470D0A1A0A0000000D49484452000001000000007C0803000000B13B9E5A00000300504C5445000000000000C8C8C80000000000000000000000000000000000000000000000000000330000660000990000CC0000FF0033000033330033660033990033CC0033FF0066000066330066660066990066CC0066FF0099
310
000099330099660099990099CC0099FF00CC0000CC3300CC6600CC9900CCCC00CCFF00FF0000FF3300FF6600FF9900FFCC00FFFF3300003300333300663300993300CC3300FF3333003333333333663333993333CC3333FF3366003366333366663366993366CC3366FF3399003399333399663399993399CC3399FF33CC00
310
33CC3333CC6633CC9933CCCC33CCFF33FF0033FF3333FF6633FF9933FFCC33FFFF6600006600336600666600996600CC6600FF6633006633336633666633996633CC6633FF6666006666336666666666996666CC6666FF6699006699336699666699996699CC6699FF66CC0066CC3366CC6666CC9966CCCC66CCFF66FF0066
310
FF3366FF6666FF9966FFCC66FFFF9900009900339900669900999900CC9900FF9933009933339933669933999933CC9933FF9966009966339966669966999966CC9966FF9999009999339999669999999999CC9999FF99CC0099CC3399CC6699CC9999CCCC99CCFF99FF0099FF3399FF6699FF9999FFCC99FFFFCC0000CC00
310
33CC0066CC0099CC00CCCC00FFCC3300CC3333CC3366CC3399CC33CCCC33FFCC6600CC6633CC6666CC6699CC66CCCC66FFCC9900CC9933CC9966CC9999CC99CCCC99FFCCCC00CCCC33CCCC66CCCC99CCCCCCCCCCFFCCFF00CCFF33CCFF66CCFF99CCFFCCCCFFFFFF0000FF0033FF0066FF0099FF00CCFF00FFFF3300FF3333
310
FF3366FF3399FF33CCFF33FFFF6600FF6633FF6666FF6699FF66CCFF66FFFF9900FF9933FF9966FF9999FF99CCFF99FFFFCC00FFCC33FFCC66FFCC99FFCCCCFFCCFFFFFF00FFFF33FFFF66FFFF99FFFFCCFFFFFF0000000D0D0D1A1A1A2828283535354343435050505D5D5D6B6B6B787878868686939393A1A1A1AEAEAEBB
310
BBBBC9C9C9D6D6D6E4E4E4F1F1F1FFFFFF00000000000000000000000000000000000000000000000000000000000008F1915C000003044944415478DAEDDD5172AB300C05502DC73FDAFF66B40DFFBF601B631B01994ED31749D733699B9064A2832C0CA684E8032D7FA89195964DBD2D000000000000E07B3EE9CDC62F0A
310
C0F2F21C32034203D02C100EE0FA018B00BFBA076012E0CBDE0C00FF01A0E5F1F1ABDD4849F4AC04E901805A65EFC176881E7D21216D97DF4706CC79302543EE09E11920F7415EA63909CA53EEC24311C43820E2EE70F6B33BBC54FE535A0CCFEFCFA3BD287A0218B7F6EB632780FC3022B00AD0CAFD1C7C0798C3CF5E32E0
310
175F8F6382000000000000000000C03C80BC5A44005101241080DEA26540BACA8B2000DC5B40009E5A44809601FBCF60004938A5C4DC6FA1004ABDAF19B0DF96AEE01DA0C5BE7601A650004A8B05B0455BD2E0D8204606D80645510024388000000000885D0409000D401B0AC51E0972E80C488100CADE20C705F8E6B70500
310
00000000000000007FF9497F383F1E0540E862BAC43CC07BD3E3C3A3CB520700E5E8E81CB52CEB7E00107F00CA8A97FB14F105507F94B8E43203660E870077190000BD181A07587A753D1622FC00A01C31339B01D2BBFFC339427E016407E811F16317E0ED8432265F00DC4F937B1780873A601F403B2A3E010C29CF1E0186
310
8EBD07CA6BBFF709400740A2E9C410D60A5F53720220FBF85F649B0748A94E086CD1A519202DB306E5AC3AF3007534733A4DB6AEE2A506B8CC803AF29739C03A4D5CE6CA4E00FD4F9F00754ABCAEFD5786A709A0768FD25E4B0A80B802A00E70D305E60CB03F105A008EF16DED0A3700A7C973F3E3801E210F114E00531D3C
310
FD6F85F57100ABD3E3D75B01F603D04E92AA856E2C7AB4F4F2F98E2B80F74E90F09D0174CA8087E63F03384606C84F01C44B06D038DD25CA928B3B8E0044DA70A04F08F4B270063826861604F300CF7383F7CBED03D069BE73C973B9DA76B8A8011F785B3B000400000000006551F42B4A5E44D6AEB6A82D0D04A0AF786F00
310
A47C6D52DEAFAE1B2C0362D6003D0368B8BC6859A285EDB806E4F19AEB1405407970C810420D087D65690C850100000000000000000000000000930086BE7AFB1FCA087AD0C4CD706F0000000049454E44AE4260826082FCB600F4FF68812E74AF19005500AA1580E9F5712F000000000000000000000000000000A015C057
310
DBEBA7FB0B7D30F96FF52367450000000049454E44AE42608282
  0
ENDSEC
  0
EOF
