  0
SECTION
  2
HEADER
  9
$ACADVER
  1
AC1027
  9
$ACADMAINTVER
 70
    81
  9
$DWGCODEPAGE
  3
ANSI_932
  9
$LASTSAVEDBY
  1
reiko.miyawaki
  9
$REQUIREDVERSIONS
160
                 0
  9
$INSBASE
 10
0.0
 20
0.0
 30
0.0
  9
$EXTMIN
 10
0.0
 20
0.0
 30
0.0
  9
$EXTMAX
 10
2520.0
 20
3540.0
 30
0.0
  9
$LIMMIN
 10
0.0
 20
0.0
  9
$LIMMAX
 10
297.0
 20
210.0
  9
$ORTHOMODE
 70
     0
  9
$REGENMODE
 70
     1
  9
$FILLMODE
 70
     0
  9
$QTEXTMODE
 70
     0
  9
$MIRRTEXT
 70
     1
  9
$LTSCALE
 40
100.0
  9
$ATTMODE
 70
     1
  9
$TEXTSIZE
 40
180.0
  9
$TRACEWID
 40
0.05
  9
$TEXTSTYLE
  7
STANDARD
  9
$CLAYER
  8
3
  9
$CELTYPE
  6
BYLAYER
  9
$CECOLOR
 62
   256
  9
$CELTSCALE
 40
1.0
  9
$DISPSILH
 70
     0
  9
$DIMSCALE
 40
12.0
  9
$DIMASZ
 40
2.0
  9
$DIMEXO
 40
0.5
  9
$DIMDLI
 40
10.0
  9
$DIMRND
 40
0.0
  9
$DIMDLE
 40
0.0
  9
$DIMEXE
 40
1.0
  9
$DIMTP
 40
1.0
  9
$DIMTM
 40
1.0
  9
$DIMTXT
 40
3.0
  9
$DIMCEN
 40
0.0
  9
$DIMTSZ
 40
0.0
  9
$DIMTOL
 70
     0
  9
$DIMLIM
 70
     0
  9
$DIMTIH
 70
     0
  9
$DIMTOH
 70
     0
  9
$DIMSE1
 70
     0
  9
$DIMSE2
 70
     0
  9
$DIMTAD
 70
     1
  9
$DIMZIN
 70
     8
  9
$DIMBLK
  1

  9
$DIMASO
 70
     1
  9
$DIMSHO
 70
     1
  9
$DIMPOST
  1
(<>)
  9
$DIMAPOST
  1

  9
$DIMALT
 70
     0
  9
$DIMALTD
 70
     2
  9
$DIMALTF
 40
0.039
  9
$DIMLFAC
 40
1.0
  9
$DIMTOFL
 70
     1
  9
$DIMTVP
 40
0.0
  9
$DIMTIX
 70
     0
  9
$DIMSOXD
 70
     0
  9
$DIMSAH
 70
     1
  9
$DIMBLK1
  1
OPEN
  9
$DIMBLK2
  1
OPEN
  9
$DIMSTYLE
  2
IGA
  9
$DIMCLRD
 70
     0
  9
$DIMCLRE
 70
     0
  9
$DIMCLRT
 70
     0
  9
$DIMTFAC
 40
10.0
  9
$DIMGAP
 40
1.0
  9
$DIMJUST
 70
     0
  9
$DIMSD1
 70
     0
  9
$DIMSD2
 70
     0
  9
$DIMTOLJ
 70
     1
  9
$DIMTZIN
 70
     8
  9
$DIMALTZ
 70
     0
  9
$DIMALTTZ
 70
     0
  9
$DIMUPT
 70
     0
  9
$DIMDEC
 70
     0
  9
$DIMTDEC
 70
     0
  9
$DIMALTU
 70
     2
  9
$DIMALTTD
 70
     2
  9
$DIMTXSTY
  7
STANDARD
  9
$DIMAUNIT
 70
     0
  9
$DIMADEC
 70
     0
  9
$DIMALTRND
 40
0.0
  9
$DIMAZIN
 70
     0
  9
$DIMDSEP
 70
    46
  9
$DIMATFIT
 70
     3
  9
$DIMFRAC
 70
     0
  9
$DIMLDRBLK
  1
OPEN
  9
$DIMLUNIT
 70
     2
  9
$DIMLWD
 70
    -2
  9
$DIMLWE
 70
    -2
  9
$DIMTMOVE
 70
     2
  9
$DIMFXL
 40
1.0
  9
$DIMFXLON
 70
     0
  9
$DIMJOGANG
 40
0.7853981633974483
  9
$DIMTFILL
 70
     0
  9
$DIMTFILLCLR
 70
     0
  9
$DIMARCSYM
 70
     0
  9
$DIMLTYPE
  6

  9
$DIMLTEX1
  6

  9
$DIMLTEX2
  6

  9
$DIMTXTDIRECTION
 70
     0
  9
$LUNITS
 70
     2
  9
$LUPREC
 70
     3
  9
$SKETCHINC
 40
0.1
  9
$FILLETRAD
 40
50.0
  9
$AUNITS
 70
     0
  9
$AUPREC
 70
     0
  9
$MENU
  1
acad
  9
$ELEVATION
 40
0.0
  9
$PELEVATION
 40
0.0
  9
$THICKNESS
 40
0.0
  9
$LIMCHECK
 70
     0
  9
$CHAMFERA
 40
0.5
  9
$CHAMFERB
 40
0.5
  9
$CHAMFERC
 40
20.0
  9
$CHAMFERD
 40
0.0
  9
$SKPOLY
 70
     0
  9
$TDCREATE
 40
2451936.441193403
  9
$TDUCREATE
 40
2451936.066193403
  9
$TDUPDATE
 40
2459024.484962246
  9
$TDUUPDATE
 40
2459024.109962245
  9
$TDINDWG
 40
0.1958788194
  9
$TDUSRTIMER
 40
0.1958788194
  9
$USRTIMER
 70
     1
  9
$ANGBASE
 50
0.0
  9
$ANGDIR
 70
     0
  9
$PDMODE
 70
     0
  9
$PDSIZE
 40
0.0
  9
$PLINEWID
 40
0.0
  9
$SPLFRAME
 70
     0
  9
$SPLINETYPE
 70
     6
  9
$SPLINESEGS
 70
     8
  9
$HANDSEED
  5
841F
  9
$SURFTAB1
 70
     6
  9
$SURFTAB2
 70
     6
  9
$SURFTYPE
 70
     6
  9
$SURFU
 70
     6
  9
$SURFV
 70
     6
  9
$UCSBASE
  2

  9
$UCSNAME
  2

  9
$UCSORG
 10
0.0
 20
0.0
 30
0.0
  9
$UCSXDIR
 10
1.0
 20
0.0
 30
0.0
  9
$UCSYDIR
 10
0.0
 20
1.0
 30
0.0
  9
$UCSORTHOREF
  2

  9
$UCSORTHOVIEW
 70
     0
  9
$UCSORGTOP
 10
0.0
 20
0.0
 30
0.0
  9
$UCSORGBOTTOM
 10
0.0
 20
0.0
 30
0.0
  9
$UCSORGLEFT
 10
0.0
 20
0.0
 30
0.0
  9
$UCSORGRIGHT
 10
0.0
 20
0.0
 30
0.0
  9
$UCSORGFRONT
 10
0.0
 20
0.0
 30
0.0
  9
$UCSORGBACK
 10
0.0
 20
0.0
 30
0.0
  9
$PUCSBASE
  2

  9
$PUCSNAME
  2

  9
$PUCSORG
 10
0.0
 20
0.0
 30
0.0
  9
$PUCSXDIR
 10
1.0
 20
0.0
 30
0.0
  9
$PUCSYDIR
 10
0.0
 20
1.0
 30
0.0
  9
$PUCSORTHOREF
  2

  9
$PUCSORTHOVIEW
 70
     0
  9
$PUCSORGTOP
 10
0.0
 20
0.0
 30
0.0
  9
$PUCSORGBOTTOM
 10
0.0
 20
0.0
 30
0.0
  9
$PUCSORGLEFT
 10
0.0
 20
0.0
 30
0.0
  9
$PUCSORGRIGHT
 10
0.0
 20
0.0
 30
0.0
  9
$PUCSORGFRONT
 10
0.0
 20
0.0
 30
0.0
  9
$PUCSORGBACK
 10
0.0
 20
0.0
 30
0.0
  9
$USERI1
 70
     0
  9
$USERI2
 70
     0
  9
$USERI3
 70
     0
  9
$USERI4
 70
     0
  9
$USERI5
 70
     0
  9
$USERR1
 40
0.0
  9
$USERR2
 40
0.0
  9
$USERR3
 40
0.0
  9
$USERR4
 40
0.0
  9
$USERR5
 40
0.0
  9
$WORLDVIEW
 70
     1
  9
$SHADEDGE
 70
     3
  9
$SHADEDIF
 70
    70
  9
$TILEMODE
 70
     1
  9
$MAXACTVP
 70
    16
  9
$PINSBASE
 10
0.0
 20
0.0
 30
0.0
  9
$PLIMCHECK
 70
     0
  9
$PEXTMIN
 10
1.000000000000000E+20
 20
1.000000000000000E+20
 30
1.000000000000000E+20
  9
$PEXTMAX
 10
-1.000000000000000E+20
 20
-1.000000000000000E+20
 30
-1.000000000000000E+20
  9
$PLIMMIN
 10
0.0
 20
0.0
  9
$PLIMMAX
 10
12.0
 20
9.0
  9
$UNITMODE
 70
     0
  9
$VISRETAIN
 70
     0
  9
$PLINEGEN
 70
     0
  9
$PSLTSCALE
 70
     1
  9
$TREEDEPTH
 70
  3020
  9
$CMLSTYLE
  2
STANDARD
  9
$CMLJUST
 70
     0
  9
$CMLSCALE
 40
20.0
  9
$PROXYGRAPHICS
 70
     1
  9
$MEASUREMENT
 70
     1
  9
$CELWEIGHT
370
    -1
  9
$ENDCAPS
280
     0
  9
$JOINSTYLE
280
     0
  9
$LWDISPLAY
290
     0
  9
$INSUNITS
 70
     0
  9
$HYPERLINKBASE
  1

  9
$STYLESHEET
  1

  9
$XEDIT
290
     1
  9
$CEPSNTYPE
380
     0
  9
$PSTYLEMODE
290
     1
  9
$FINGERPRINTGUID
  2
{F936A1B5-2BD1-45A9-8293-C51F8DA7A374}
  9
$VERSIONGUID
  2
{83910D1C-587C-4227-A691-CB7D5E3F7182}
  9
$EXTNAMES
290
     1
  9
$PSVPSCALE
 40
0.0
  9
$OLESTARTUP
290
     0
  9
$SORTENTS
280
   127
  9
$INDEXCTL
280
     0
  9
$HIDETEXT
280
     0
  9
$XCLIPFRAME
280
     2
  9
$HALOGAP
280
     0
  9
$OBSCOLOR
 70
   257
  9
$OBSLTYPE
280
     0
  9
$INTERSECTIONDISPLAY
280
     0
  9
$INTERSECTIONCOLOR
 70
   257
  9
$DIMASSOC
280
     1
  9
$PROJECTNAME
  1

  9
$CAMERADISPLAY
290
     0
  9
$LENSLENGTH
 40
50.0
  9
$CAMERAHEIGHT
 40
0.0
  9
$STEPSPERSEC
 40
2.0
  9
$STEPSIZE
 40
6.0
  9
$3DDWFPREC
 40
2.0
  9
$PSOLWIDTH
 40
0.25
  9
$PSOLHEIGHT
 40
4.0
  9
$LOFTANG1
 40
1.570796326794896
  9
$LOFTANG2
 40
1.570796326794896
  9
$LOFTMAG1
 40
0.0
  9
$LOFTMAG2
 40
0.0
  9
$LOFTPARAM
 70
     7
  9
$LOFTNORMALS
280
     1
  9
$LATITUDE
 40
37.795
  9
$LONGITUDE
 40
-122.394
  9
$NORTHDIRECTION
 40
0.0
  9
$TIMEZONE
 70
 -8000
  9
$LIGHTGLYPHDISPLAY
280
     1
  9
$TILEMODELIGHTSYNCH
280
     1
  9
$CMATERIAL
347
82F8
  9
$SOLIDHIST
280
     0
  9
$SHOWHIST
280
     1
  9
$DWFFRAME
280
     2
  9
$DGNFRAME
280
     0
  9
$REALWORLDSCALE
290
     1
  9
$INTERFERECOLOR
 62
     1
  9
$INTERFEREOBJVS
345
831A
  9
$INTERFEREVPVS
346
8317
  9
$CSHADOW
280
     0
  9
$SHADOWPLANELOCATION
 40
0.0
  0
ENDSEC
  0
SECTION
  2
CLASSES
  0
CLASS
  1
ACDBDICTIONARYWDFLT
  2
AcDbDictionaryWithDefault
  3
ObjectDBX Classes
 90
        0
 91
        1
280
     0
281
     0
  0
CLASS
  1
MATERIAL
  2
AcDbMaterial
  3
ObjectDBX Classes
 90
     1153
 91
        3
280
     0
281
     0
  0
CLASS
  1
VISUALSTYLE
  2
AcDbVisualStyle
  3
ObjectDBX Classes
 90
     4095
 91
       24
280
     0
281
     0
  0
CLASS
  1
TABLESTYLE
  2
AcDbTableStyle
  3
ObjectDBX Classes
 90
     4095
 91
        1
280
     0
281
     0
  0
CLASS
  1
SCALE
  2
AcDbScale
  3
ObjectDBX Classes
 90
     1153
 91
       17
280
     0
281
     0
  0
CLASS
  1
MLEADERSTYLE
  2
AcDbMLeaderStyle
  3
ACDB_MLEADERSTYLE_CLASS
 90
     4095
 91
        1
280
     0
281
     0
  0
CLASS
  1
ACDBSECTIONVIEWSTYLE
  2
AcDbSectionViewStyle
  3
ObjectDBX Classes
 90
     1025
 91
        1
280
     0
281
     0
  0
CLASS
  1
ACDBDETAILVIEWSTYLE
  2
AcDbDetailViewStyle
  3
ObjectDBX Classes
 90
     1025
 91
        1
280
     0
281
     0
  0
CLASS
  1
SORTENTSTABLE
  2
AcDbSortentsTable
  3
ObjectDBX Classes
 90
        0
 91
        1
280
     0
281
     0
  0
CLASS
  1
DICTIONARYVAR
  2
AcDbDictionaryVar
  3
ObjectDBX Classes
 90
        0
 91
        9
280
     0
281
     0
  0
CLASS
  1
CELLSTYLEMAP
  2
AcDbCellStyleMap
  3
ObjectDBX Classes
 90
     1152
 91
        1
280
     0
281
     0
  0
ENDSEC
  0
SECTION
  2
TABLES
  0
TABLE
  2
VPORT
  5
8
330
0
100
AcDbSymbolTable
 70
     1
  0
VPORT
  5
82F5
330
8
100
AcDbSymbolTableRecord
100
AcDbViewportTableRecord
  2
*Active
 70
     0
 10
0.0
 20
0.0
 11
1.0
 21
1.0
 12
1260.000017603069
 22
1854.74632484365
 13
0.0
 23
0.0
 14
10.0
 24
10.0
 15
10.0
 25
10.0
 16
0.0
 26
0.0
 36
1.0
 17
0.0
 27
0.0
 37
0.0
 40
3732.269387335591
 41
1.957107843137254
 42
50.0
 43
0.0
 44
0.0
 50
0.0
 51
0.0
 71
     0
 72
   100
 73
     1
 74
     0
 75
     0
 76
     0
 77
     0
 78
     0
281
     0
 65
     1
110
0.0
120
0.0
130
0.0
111
1.0
121
0.0
131
0.0
112
0.0
122
1.0
132
0.0
 79
     0
146
0.0
348
8316
 60
     3
 61
     5
292
     1
282
     1
141
0.0
142
0.0
 63
   250
421
  3355443
1001
ACAD_NAV_VCDISPLAY
1070
     3
  0
ENDTAB
  0
TABLE
  2
LTYPE
  5
5
330
0
100
AcDbSymbolTable
 70
     2
  0
LTYPE
  5
13
330
5
100
AcDbSymbolTableRecord
100
AcDbLinetypeTableRecord
  2
BYBLOCK
 70
     0
  3

 72
    65
 73
     0
 40
0.0
  0
LTYPE
  5
14
330
5
100
AcDbSymbolTableRecord
100
AcDbLinetypeTableRecord
  2
BYLAYER
 70
     0
  3

 72
    65
 73
     0
 40
0.0
  0
LTYPE
  5
15
330
5
100
AcDbSymbolTableRecord
100
AcDbLinetypeTableRecord
  2
CONTINUOUS
 70
     0
  3
Solid line
 72
    65
 73
     0
 40
0.0
  0
LTYPE
  5
1F
330
5
100
AcDbSymbolTableRecord
100
AcDbLinetypeTableRecord
  2
CENTER
 70
     0
  3
____ _ ____ _ ____ _ ____ _ ____ _ ____ _ ____ 
 72
    65
 73
     4
 40
2.0
 49
1.25
 74
     0
 49
-0.25
 74
     0
 49
0.25
 74
     0
 49
-0.25
 74
     0
  0
ENDTAB
  0
TABLE
  2
LAYER
  5
2
102
{ACAD_XDICTIONARY
360
839C
102
}
330
0
100
AcDbSymbolTable
 70
     6
  0
LAYER
  5
F
102
{ACAD_XDICTIONARY
360
838F
102
}
330
2
100
AcDbSymbolTableRecord
100
AcDbLayerTableRecord
  2
0
 70
     0
 62
     7
  6
CONTINUOUS
370
    -3
390
82E8
347
8308
348
0
  0
LAYER
  5
31
102
{ACAD_XDICTIONARY
360
8391
102
}
330
2
100
AcDbSymbolTableRecord
100
AcDbLayerTableRecord
  2
3
 70
     0
 62
     2
  6
CONTINUOUS
370
    -3
390
82E8
347
8308
348
0
  0
LAYER
  5
76D0
102
{ACAD_XDICTIONARY
360
8393
102
}
330
2
100
AcDbSymbolTableRecord
100
AcDbLayerTableRecord
  2
2
 70
     0
 62
     3
  6
CENTER
370
    -3
390
82E8
347
8308
348
0
  0
LAYER
  5
76D1
102
{ACAD_XDICTIONARY
360
8395
102
}
330
2
100
AcDbSymbolTableRecord
100
AcDbLayerTableRecord
  2
1
 70
     0
 62
     4
  6
CONTINUOUS
370
    -3
390
82E8
347
8308
348
0
  0
LAYER
  5
76D2
102
{ACAD_XDICTIONARY
360
8397
102
}
330
2
100
AcDbSymbolTableRecord
100
AcDbLayerTableRecord
  2
4
 70
     0
 62
     7
  6
CONTINUOUS
370
    -3
390
82E8
347
8308
348
0
  0
LAYER
  5
7B0C
330
2
100
AcDbSymbolTableRecord
100
AcDbLayerTableRecord
  2
DEFPOINTS
 70
     0
 62
     7
  6
CONTINUOUS
290
     0
370
    -3
390
82E8
347
8308
348
0
  0
ENDTAB
  0
TABLE
  2
STYLE
  5
3
330
0
100
AcDbSymbolTable
 70
     1
  0
STYLE
  5
10
330
3
100
AcDbSymbolTableRecord
100
AcDbTextStyleTableRecord
  2
STANDARD
 70
     0
 40
0.0
 41
1.0
 50
0.0
 71
     0
 42
180.0
  3
simplex.shx
  4
extfont.shx
  0
ENDTAB
  0
TABLE
  2
VIEW
  5
6
330
0
100
AcDbSymbolTable
 70
     0
  0
ENDTAB
  0
TABLE
  2
UCS
  5
7
330
0
100
AcDbSymbolTable
 70
     0
  0
ENDTAB
  0
TABLE
  2
APPID
  5
9
330
0
100
AcDbSymbolTable
 70
     4
  0
APPID
  5
11
330
9
100
AcDbSymbolTableRecord
100
AcDbRegAppTableRecord
  2
ACAD
 70
     0
  0
APPID
  5
83A2
330
9
100
AcDbSymbolTableRecord
100
AcDbRegAppTableRecord
  2
ACAD_NAV_VCDISPLAY
 70
     0
  0
APPID
  5
83F7
330
9
100
AcDbSymbolTableRecord
100
AcDbRegAppTableRecord
  2
AcadAnnoMonitorAlertIconDisabled
 70
     0
  0
APPID
  5
83F8
330
9
100
AcDbSymbolTableRecord
100
AcDbRegAppTableRecord
  2
ACAD_EXEMPT_FROM_CAD_STANDARDS
 70
     0
  0
ENDTAB
  0
TABLE
  2
DIMSTYLE
  5
A
330
0
100
AcDbSymbolTable
 70
     1
100
AcDbDimStyleTable
 71
     1
340
1D
  0
DIMSTYLE
105
1D
102
{ACAD_REACTORS
330
7C8E
330
7C8F
330
7C92
330
7C95
330
7CA4
330
7CA6
330
7CC8
330
7CC9
330
7CCA
330
7CCB
330
81F5
330
820D
330
824C
330
8259
330
8273
330
8282
330
82AC
330
82D7
330
82E4
102
}
330
A
100
AcDbSymbolTableRecord
100
AcDbDimStyleTableRecord
  2
IGA
 70
     0
 40
2.0
 41
2.0
 42
0.5
 43
10.0
 44
1.0
 47
1.0
 48
1.0
 73
     0
 74
     0
 77
     1
 78
     8
140
3.0
141
0.0
143
0.03937
146
10.0
147
1.0
173
     1
271
     1
272
     0
279
     2
284
     8
340
10
341
79FC
343
79FC
344
79FC
  0
ENDTAB
  0
TABLE
  2
BLOCK_RECORD
  5
1
330
0
100
AcDbSymbolTable
 70
    21
  0
BLOCK_RECORD
  5
19
102
{ACAD_XDICTIONARY
360
8348
102
}
330
1
100
AcDbSymbolTableRecord
100
AcDbBlockTableRecord
  2
*MODEL_SPACE
340
82EB
 70
     0
280
     1
281
     0
  0
BLOCK_RECORD
  5
16
330
1
100
AcDbSymbolTableRecord
100
AcDbBlockTableRecord
  2
*PAPER_SPACE
340
82EC
 70
     0
280
     1
281
     0
  0
BLOCK_RECORD
  5
79FC
330
1
100
AcDbSymbolTableRecord
100
AcDbBlockTableRecord
  2
_OPEN
340
0
102
{BLKREFS
331
834D
331
834E
331
8356
331
8357
331
835F
331
8360
331
836A
331
836B
331
8389
331
838A
331
83B9
331
83CE
331
8406
331
8407
331
7F7E
331
7F7F
331
7F89
331
7F8A
331
7F94
331
7F95
331
7FCF
331
7FD0
331
8045
331
8046
331
8050
331
8051
331
80AC
331
80AD
331
80B7
331
80B8
331
8125
331
8126
331
81FA
331
81FB
331
8206
331
8207
102
}
 70
     0
280
     1
281
     0
  0
BLOCK_RECORD
  5
7A02
330
1
100
AcDbSymbolTableRecord
100
AcDbBlockTableRecord
  2
_DOT
340
0
102
{BLKREFS
331
83B8
331
83CD
102
}
 70
     0
280
     1
281
     0
  0
BLOCK_RECORD
  5
7D41
330
1
100
AcDbSymbolTableRecord
100
AcDbBlockTableRecord
  2
*D2
340
0
 70
     0
280
     1
281
     0
  0
BLOCK_RECORD
  5
7D4D
330
1
100
AcDbSymbolTableRecord
100
AcDbBlockTableRecord
  2
*D3
340
0
 70
     0
280
     1
281
     0
  0
BLOCK_RECORD
  5
7D59
330
1
100
AcDbSymbolTableRecord
100
AcDbBlockTableRecord
  2
*D4
340
0
 70
     0
280
     1
281
     0
  0
BLOCK_RECORD
  5
7D7F
330
1
100
AcDbSymbolTableRecord
100
AcDbBlockTableRecord
  2
*D5
340
0
 70
     0
280
     1
281
     0
  0
BLOCK_RECORD
  5
7D8B
330
1
100
AcDbSymbolTableRecord
100
AcDbBlockTableRecord
  2
*D6
340
0
 70
     0
280
     1
281
     0
  0
BLOCK_RECORD
  5
7D97
330
1
100
AcDbSymbolTableRecord
100
AcDbBlockTableRecord
  2
*D7
340
0
 70
     0
280
     1
281
     0
  0
BLOCK_RECORD
  5
7DA2
330
1
100
AcDbSymbolTableRecord
100
AcDbBlockTableRecord
  2
*D8
340
0
 70
     0
280
     1
281
     0
  0
BLOCK_RECORD
  5
7DB0
330
1
100
AcDbSymbolTableRecord
100
AcDbBlockTableRecord
  2
*D9
340
0
 70
     0
280
     1
281
     0
  0
BLOCK_RECORD
  5
7DBB
330
1
100
AcDbSymbolTableRecord
100
AcDbBlockTableRecord
  2
*D10
340
0
 70
     0
280
     1
281
     0
  0
BLOCK_RECORD
  5
7DC7
330
1
100
AcDbSymbolTableRecord
100
AcDbBlockTableRecord
  2
*D11
340
0
 70
     0
280
     1
281
     0
  0
BLOCK_RECORD
  5
81E9
330
1
100
AcDbSymbolTableRecord
100
AcDbBlockTableRecord
  2
*D12
340
0
 70
     0
280
     1
281
     0
  0
BLOCK_RECORD
  5
8201
330
1
100
AcDbSymbolTableRecord
100
AcDbBlockTableRecord
  2
*D13
340
0
 70
     0
280
     1
281
     0
  0
BLOCK_RECORD
  5
8240
330
1
100
AcDbSymbolTableRecord
100
AcDbBlockTableRecord
  2
*D14
340
0
 70
     0
280
     1
281
     0
  0
BLOCK_RECORD
  5
824D
330
1
100
AcDbSymbolTableRecord
100
AcDbBlockTableRecord
  2
*D15
340
0
 70
     0
280
     1
281
     0
  0
BLOCK_RECORD
  5
8267
330
1
100
AcDbSymbolTableRecord
100
AcDbBlockTableRecord
  2
*D16
340
0
 70
     0
280
     1
281
     0
  0
BLOCK_RECORD
  5
8274
330
1
100
AcDbSymbolTableRecord
100
AcDbBlockTableRecord
  2
*D17
340
0
 70
     0
280
     1
281
     0
  0
BLOCK_RECORD
  5
829E
330
1
100
AcDbSymbolTableRecord
100
AcDbBlockTableRecord
  2
*D18
340
0
 70
     0
280
     1
281
     0
  0
BLOCK_RECORD
  5
82CB
330
1
100
AcDbSymbolTableRecord
100
AcDbBlockTableRecord
  2
*D19
340
0
 70
     0
280
     1
281
     0
  0
BLOCK_RECORD
  5
82D8
330
1
100
AcDbSymbolTableRecord
100
AcDbBlockTableRecord
  2
*D20
340
0
 70
     0
280
     1
281
     0
  0
ENDTAB
  0
ENDSEC
  0
SECTION
  2
BLOCKS
  0
BLOCK
  5
1A
330
19
100
AcDbEntity
  8
0
100
AcDbBlockBegin
  2
*MODEL_SPACE
 70
     0
 10
0.0
 20
0.0
 30
0.0
  3
*MODEL_SPACE
  1

  0
ENDBLK
  5
1B
330
19
100
AcDbEntity
  8
0
100
AcDbBlockEnd
  0
BLOCK
  5
17
330
16
100
AcDbEntity
 67
     1
  8
0
100
AcDbBlockBegin
  2
*PAPER_SPACE
 70
     0
 10
0.0
 20
0.0
 30
0.0
  3
*PAPER_SPACE
  1

  0
ENDBLK
  5
18
330
16
100
AcDbEntity
 67
     1
  8
0
100
AcDbBlockEnd
  0
BLOCK
  5
7A00
330
79FC
100
AcDbEntity
  8
0
100
AcDbBlockBegin
  2
_OPEN
 70
     0
 10
0.0
 20
0.0
 30
0.0
  3
_OPEN
  1

  0
LINE
  5
79FD
330
79FC
100
AcDbEntity
  8
0
  6
ByBlock
 62
     0
100
AcDbLine
 10
-1.0
 20
0.1666666666666666
 30
0.0
 11
0.0
 21
0.0
 31
0.0
  0
LINE
  5
79FE
330
79FC
100
AcDbEntity
  8
0
  6
ByBlock
 62
     0
100
AcDbLine
 10
0.0
 20
0.0
 30
0.0
 11
-1.0
 21
-0.1666666666666666
 31
0.0
  0
LINE
  5
79FF
330
79FC
100
AcDbEntity
  8
0
  6
ByBlock
 62
     0
100
AcDbLine
 10
0.0
 20
0.0
 30
0.0
 11
-1.0
 21
0.0
 31
0.0
  0
ENDBLK
  5
7A01
330
79FC
100
AcDbEntity
  8
0
100
AcDbBlockEnd
  0
BLOCK
  5
7A08
330
7A02
100
AcDbEntity
  8
0
100
AcDbBlockBegin
  2
_DOT
 70
     0
 10
0.0
 20
0.0
 30
0.0
  3
_DOT
  1

  0
LINE
  5
8130
330
7A02
100
AcDbEntity
  8
0
  6
ByBlock
 62
     0
100
AcDbLine
 10
0.0
 20
0.0
 30
0.0
 11
-1.0
 21
-0.0000000000000284
 31
0.0
  0
LWPOLYLINE
  5
8131
330
7A02
100
AcDbEntity
  8
0
  6
ByBlock
 62
     0
100
AcDbPolyline
 90
        2
 70
     1
 43
0.1666666666666666
 10
-0.0833333333333286
 20
-0.0000000000000284
 42
1.0
 10
0.0833333333333286
 20
-0.0000000000000284
 42
1.0
  0
ENDBLK
  5
7A09
330
7A02
100
AcDbEntity
  8
0
100
AcDbBlockEnd
  0
BLOCK
  5
7FCB
330
7D41
100
AcDbEntity
  8
0
100
AcDbBlockBegin
  2
*D2
 70
     1
 10
0.0
 20
0.0
 30
0.0
  3
*D2
  1

  0
LINE
  5
7FCC
330
7D41
100
AcDbEntity
  8
0
  6
ByBlock
 62
     0
440
 16777216
100
AcDbLine
 10
608.6629664994334
 20
1189.341295447079
 30
0.0
 11
556.2047366100442
 21
1189.341295447079
 31
0.0
  0
LINE
  5
7FCD
330
7D41
100
AcDbEntity
  8
0
  6
ByBlock
 62
     0
440
 16777216
100
AcDbLine
 10
608.6629664994334
 20
1389.341295447079
 30
0.0
 11
556.2047366100442
 21
1389.341295447079
 31
0.0
  0
LINE
  5
7FCE
330
7D41
100
AcDbEntity
  8
0
  6
ByBlock
 62
     0
440
 16777216
100
AcDbLine
 10
568.2047366100441
 20
1213.341295447079
 30
0.0
 11
568.2047366100441
 21
1365.341295447079
 31
0.0
  0
INSERT
  5
7FCF
330
7D41
100
AcDbEntity
  8
0
  6
ByBlock
 62
     0
440
 16777216
100
AcDbBlockReference
  2
_OPEN
 10
568.2047366100441
 20
1189.341295447079
 30
0.0
 41
24.0
 42
24.0
 43
24.0
 50
270.0
  0
INSERT
  5
7FD0
330
7D41
100
AcDbEntity
  8
0
  6
ByBlock
 62
     0
440
 16777216
100
AcDbBlockReference
  2
_OPEN
 10
568.2047366100441
 20
1389.341295447079
 30
0.0
 41
24.0
 42
24.0
 43
24.0
 50
90.0
  0
MTEXT
  5
7FD1
330
7D41
100
AcDbEntity
  8
0
  6
ByBlock
 62
     0
440
 16777216
100
AcDbMText
 10
538.2047366100441
 20
1289.341295447079
 30
0.0
 40
36.0
 41
0.0
 46
0.0
 71
     5
 72
     5
  1
\A1;200
 11
0.0
 21
1.0
 31
0.0
 73
     1
 44
1.0
  0
POINT
  5
7FD2
330
7D41
100
AcDbEntity
  8
DEFPOINTS
  6
ByBlock
 62
     0
440
 16777216
100
AcDbPoint
 10
614.6629664994334
 20
1189.341295447079
 30
0.0
  0
POINT
  5
7FD3
330
7D41
100
AcDbEntity
  8
DEFPOINTS
  6
ByBlock
 62
     0
440
 16777216
100
AcDbPoint
 10
614.6629664994334
 20
1389.341295447079
 30
0.0
  0
POINT
  5
7FD4
330
7D41
100
AcDbEntity
  8
DEFPOINTS
  6
ByBlock
 62
     0
440
 16777216
100
AcDbPoint
 10
568.2047366100441
 20
1389.341295447079
 30
0.0
  0
ENDBLK
  5
7FD5
330
7D41
100
AcDbEntity
  8
0
100
AcDbBlockEnd
  0
BLOCK
  5
8041
330
7D4D
100
AcDbEntity
  8
0
100
AcDbBlockBegin
  2
*D3
 70
     1
 10
0.0
 20
0.0
 30
0.0
  3
*D3
  1

  0
LINE
  5
8042
330
7D4D
100
AcDbEntity
  8
0
  6
ByBlock
 62
     0
440
 16777216
100
AcDbLine
 10
608.2985643752631
 20
1190.341295447078
 30
0.0
 11
493.0949063411945
 21
1190.341295447078
 31
0.0
  0
LINE
  5
8043
330
7D4D
100
AcDbEntity
  8
0
  6
ByBlock
 62
     0
440
 16777216
100
AcDbLine
 10
608.6629664994334
 20
1389.341295447079
 30
0.0
 11
493.0949063411945
 21
1389.341295447079
 31
0.0
  0
LINE
  5
8044
330
7D4D
100
AcDbEntity
  8
0
  6
ByBlock
 62
     0
440
 16777216
100
AcDbLine
 10
505.0949063411945
 20
1214.341295447078
 30
0.0
 11
505.0949063411945
 21
1365.341295447079
 31
0.0
  0
INSERT
  5
8045
330
7D4D
100
AcDbEntity
  8
0
  6
ByBlock
 62
     0
440
 16777216
100
AcDbBlockReference
  2
_OPEN
 10
505.0949063411945
 20
1190.341295447078
 30
0.0
 41
24.0
 42
24.0
 43
24.0
 50
270.0
  0
INSERT
  5
8046
330
7D4D
100
AcDbEntity
  8
0
  6
ByBlock
 62
     0
440
 16777216
100
AcDbBlockReference
  2
_OPEN
 10
505.0949063411945
 20
1389.341295447079
 30
0.0
 41
24.0
 42
24.0
 43
24.0
 50
90.0
  0
MTEXT
  5
8047
330
7D4D
100
AcDbEntity
  8
0
  6
ByBlock
 62
     0
440
 16777216
100
AcDbMText
 10
475.0949063411944
 20
1289.841295447079
 30
0.0
 40
36.0
 41
0.0
 46
0.0
 71
     5
 72
     5
  1
\A1;199
 11
0.0
 21
1.0
 31
0.0
 73
     1
 44
1.0
  0
POINT
  5
8048
330
7D4D
100
AcDbEntity
  8
DEFPOINTS
  6
ByBlock
 62
     0
440
 16777216
100
AcDbPoint
 10
614.2985643752631
 20
1190.341295447078
 30
0.0
  0
POINT
  5
8049
330
7D4D
100
AcDbEntity
  8
DEFPOINTS
  6
ByBlock
 62
     0
440
 16777216
100
AcDbPoint
 10
614.6629664994334
 20
1389.341295447079
 30
0.0
  0
POINT
  5
804A
330
7D4D
100
AcDbEntity
  8
DEFPOINTS
  6
ByBlock
 62
     0
440
 16777216
100
AcDbPoint
 10
505.0949063411945
 20
1389.341295447079
 30
0.0
  0
ENDBLK
  5
804B
330
7D4D
100
AcDbEntity
  8
0
100
AcDbBlockEnd
  0
BLOCK
  5
804C
330
7D59
100
AcDbEntity
  8
0
100
AcDbBlockBegin
  2
*D4
 70
     1
 10
0.0
 20
0.0
 30
0.0
  3
*D4
  1

  0
LINE
  5
804D
330
7D59
100
AcDbEntity
  8
0
  6
ByBlock
 62
     0
440
 16777216
100
AcDbLine
 10
608.2985643752631
 20
1190.341295447078
 30
0.0
 11
493.0949063411945
 21
1190.341295447078
 31
0.0
  0
LINE
  5
804E
330
7D59
100
AcDbEntity
  8
0
  6
ByBlock
 62
     0
440
 16777216
100
AcDbLine
 10
618.6629664994338
 20
930.3412954470791
 30
0.0
 11
493.0949063411945
 21
930.3412954470791
 31
0.0
  0
LINE
  5
804F
330
7D59
100
AcDbEntity
  8
0
  6
ByBlock
 62
     0
440
 16777216
100
AcDbLine
 10
505.0949063411945
 20
1166.341295447078
 30
0.0
 11
505.0949063411945
 21
954.3412954470792
 31
0.0
  0
INSERT
  5
8050
330
7D59
100
AcDbEntity
  8
0
  6
ByBlock
 62
     0
440
 16777216
100
AcDbBlockReference
  2
_OPEN
 10
505.0949063411945
 20
1190.341295447078
 30
0.0
 41
24.0
 42
24.0
 43
24.0
 50
90.0
  0
INSERT
  5
8051
330
7D59
100
AcDbEntity
  8
0
  6
ByBlock
 62
     0
440
 16777216
100
AcDbBlockReference
  2
_OPEN
 10
505.0949063411945
 20
930.3412954470791
 30
0.0
 41
24.0
 42
24.0
 43
24.0
 50
270.0
  0
MTEXT
  5
8052
330
7D59
100
AcDbEntity
  8
0
  6
ByBlock
 62
     0
440
 16777216
100
AcDbMText
 10
475.0949063411944
 20
1060.341295447079
 30
0.0
 40
36.0
 41
0.0
 46
0.0
 71
     5
 72
     5
  1
\A1;260
 11
0.0
 21
1.0
 31
0.0
 73
     1
 44
1.0
  0
POINT
  5
8053
330
7D59
100
AcDbEntity
  8
DEFPOINTS
  6
ByBlock
 62
     0
440
 16777216
100
AcDbPoint
 10
614.2985643752631
 20
1190.341295447078
 30
0.0
  0
POINT
  5
8054
330
7D59
100
AcDbEntity
  8
DEFPOINTS
  6
ByBlock
 62
     0
440
 16777216
100
AcDbPoint
 10
624.6629664994339
 20
930.3412954470791
 30
0.0
  0
POINT
  5
8055
330
7D59
100
AcDbEntity
  8
DEFPOINTS
  6
ByBlock
 62
     0
440
 16777216
100
AcDbPoint
 10
505.0949063411945
 20
930.3412954470791
 30
0.0
  0
ENDBLK
  5
8056
330
7D59
100
AcDbEntity
  8
0
100
AcDbBlockEnd
  0
BLOCK
  5
7F90
330
7D7F
100
AcDbEntity
  8
0
100
AcDbBlockBegin
  2
*D5
 70
     1
 10
0.0
 20
0.0
 30
0.0
  3
*D5
  1

  0
LINE
  5
7F91
330
7D7F
100
AcDbEntity
  8
0
  6
ByBlock
 62
     0
440
 16777216
100
AcDbLine
 10
614.6629664994329
 20
1417.341261462905
 30
0.0
 11
614.6629664994329
 21
1487.58323183922
 31
0.0
  0
LINE
  5
7F92
330
7D7F
100
AcDbEntity
  8
0
  6
ByBlock
 62
     0
440
 16777216
100
AcDbLine
 10
799.6629664994334
 20
1434.531969785606
 30
0.0
 11
799.6629664994334
 21
1487.58323183922
 31
0.0
  0
LINE
  5
7F93
330
7D7F
100
AcDbEntity
  8
0
  6
ByBlock
 62
     0
440
 16777216
100
AcDbLine
 10
638.6629664994329
 20
1475.58323183922
 30
0.0
 11
775.6629664994334
 21
1475.58323183922
 31
0.0
  0
INSERT
  5
7F94
330
7D7F
100
AcDbEntity
  8
0
  6
ByBlock
 62
     0
440
 16777216
100
AcDbBlockReference
  2
_OPEN
 10
614.6629664994329
 20
1475.58323183922
 30
0.0
 41
24.0
 42
24.0
 43
24.0
 50
180.0
  0
INSERT
  5
7F95
330
7D7F
100
AcDbEntity
  8
0
  6
ByBlock
 62
     0
440
 16777216
100
AcDbBlockReference
  2
_OPEN
 10
799.6629664994334
 20
1475.58323183922
 30
0.0
 41
24.0
 42
24.0
 43
24.0
  0
MTEXT
  5
7F96
330
7D7F
100
AcDbEntity
  8
0
  6
ByBlock
 62
     0
440
 16777216
100
AcDbMText
 10
707.1629664994332
 20
1505.58323183922
 30
0.0
 40
36.0
 41
0.0
 46
0.0
 71
     5
 72
     5
  1
\A1;185
 73
     1
 44
1.0
  0
POINT
  5
7F97
330
7D7F
100
AcDbEntity
  8
DEFPOINTS
  6
ByBlock
 62
     0
440
 16777216
100
AcDbPoint
 10
614.6629664994329
 20
1411.341261462905
 30
0.0
  0
POINT
  5
7F98
330
7D7F
100
AcDbEntity
  8
DEFPOINTS
  6
ByBlock
 62
     0
440
 16777216
100
AcDbPoint
 10
799.6629664994334
 20
1428.531969785606
 30
0.0
  0
POINT
  5
7F99
330
7D7F
100
AcDbEntity
  8
DEFPOINTS
  6
ByBlock
 62
     0
440
 16777216
100
AcDbPoint
 10
799.6629664994334
 20
1475.58323183922
 30
0.0
  0
ENDBLK
  5
7F9A
330
7D7F
100
AcDbEntity
  8
0
100
AcDbBlockEnd
  0
BLOCK
  5
7F85
330
7D8B
100
AcDbEntity
  8
0
100
AcDbBlockBegin
  2
*D6
 70
     1
 10
0.0
 20
0.0
 30
0.0
  3
*D6
  1

  0
LINE
  5
7F86
330
7D8B
100
AcDbEntity
  8
0
  6
ByBlock
 62
     0
440
 16777216
100
AcDbLine
 10
614.6629664994329
 20
1422.341261462904
 30
0.0
 11
614.6629664994329
 21
1565.922323389792
 31
0.0
  0
LINE
  5
7F87
330
7D8B
100
AcDbEntity
  8
0
  6
ByBlock
 62
     0
440
 16777216
100
AcDbLine
 10
1244.662966499433
 20
976.3412954470791
 30
0.0
 11
1244.662966499433
 21
1565.922323389792
 31
0.0
  0
LINE
  5
7F88
330
7D8B
100
AcDbEntity
  8
0
  6
ByBlock
 62
     0
440
 16777216
100
AcDbLine
 10
638.6629664994329
 20
1553.922323389792
 30
0.0
 11
1220.662966499433
 21
1553.922323389792
 31
0.0
  0
INSERT
  5
7F89
330
7D8B
100
AcDbEntity
  8
0
  6
ByBlock
 62
     0
440
 16777216
100
AcDbBlockReference
  2
_OPEN
 10
614.6629664994329
 20
1553.922323389792
 30
0.0
 41
24.0
 42
24.0
 43
24.0
 50
180.0
  0
INSERT
  5
7F8A
330
7D8B
100
AcDbEntity
  8
0
  6
ByBlock
 62
     0
440
 16777216
100
AcDbBlockReference
  2
_OPEN
 10
1244.662966499433
 20
1553.922323389792
 30
0.0
 41
24.0
 42
24.0
 43
24.0
  0
MTEXT
  5
7F8B
330
7D8B
100
AcDbEntity
  8
0
  6
ByBlock
 62
     0
440
 16777216
100
AcDbMText
 10
929.6629664994332
 20
1583.922323389792
 30
0.0
 40
36.0
 41
0.0
 46
0.0
 71
     5
 72
     5
  1
\A1;630
 73
     1
 44
1.0
  0
POINT
  5
7F8C
330
7D8B
100
AcDbEntity
  8
DEFPOINTS
  6
ByBlock
 62
     0
440
 16777216
100
AcDbPoint
 10
614.6629664994329
 20
1416.341261462904
 30
0.0
  0
POINT
  5
7F8D
330
7D8B
100
AcDbEntity
  8
DEFPOINTS
  6
ByBlock
 62
     0
440
 16777216
100
AcDbPoint
 10
1244.662966499433
 20
970.341295447079
 30
0.0
  0
POINT
  5
7F8E
330
7D8B
100
AcDbEntity
  8
DEFPOINTS
  6
ByBlock
 62
     0
440
 16777216
100
AcDbPoint
 10
1244.662966499433
 20
1553.922323389792
 30
0.0
  0
ENDBLK
  5
7F8F
330
7D8B
100
AcDbEntity
  8
0
100
AcDbBlockEnd
  0
BLOCK
  5
7F7A
330
7D97
100
AcDbEntity
  8
0
100
AcDbBlockBegin
  2
*D7
 70
     1
 10
0.0
 20
0.0
 30
0.0
  3
*D7
  1

  0
LINE
  5
7F7B
330
7D97
100
AcDbEntity
  8
0
  6
ByBlock
 62
     0
440
 16777216
100
AcDbLine
 10
799.6629664994334
 20
1434.531969785606
 30
0.0
 11
799.6629664994334
 21
1487.58323183922
 31
0.0
  0
LINE
  5
7F7C
330
7D97
100
AcDbEntity
  8
0
  6
ByBlock
 62
     0
440
 16777216
100
AcDbLine
 10
969.6629664994334
 20
1210.341295447079
 30
0.0
 11
969.6629664994334
 21
1487.58323183922
 31
0.0
  0
LINE
  5
7F7D
330
7D97
100
AcDbEntity
  8
0
  6
ByBlock
 62
     0
440
 16777216
100
AcDbLine
 10
823.6629664994334
 20
1475.58323183922
 30
0.0
 11
945.6629664994334
 21
1475.58323183922
 31
0.0
  0
INSERT
  5
7F7E
330
7D97
100
AcDbEntity
  8
0
  6
ByBlock
 62
     0
440
 16777216
100
AcDbBlockReference
  2
_OPEN
 10
799.6629664994334
 20
1475.58323183922
 30
0.0
 41
24.0
 42
24.0
 43
24.0
 50
180.0
  0
INSERT
  5
7F7F
330
7D97
100
AcDbEntity
  8
0
  6
ByBlock
 62
     0
440
 16777216
100
AcDbBlockReference
  2
_OPEN
 10
969.6629664994334
 20
1475.58323183922
 30
0.0
 41
24.0
 42
24.0
 43
24.0
  0
MTEXT
  5
7F80
330
7D97
100
AcDbEntity
  8
0
  6
ByBlock
 62
     0
440
 16777216
100
AcDbMText
 10
884.6629664994335
 20
1505.58323183922
 30
0.0
 40
36.0
 41
0.0
 46
0.0
 71
     5
 72
     5
  1
\A1;170
 73
     1
 44
1.0
  0
POINT
  5
7F81
330
7D97
100
AcDbEntity
  8
DEFPOINTS
  6
ByBlock
 62
     0
440
 16777216
100
AcDbPoint
 10
799.6629664994334
 20
1428.531969785606
 30
0.0
  0
POINT
  5
7F82
330
7D97
100
AcDbEntity
  8
DEFPOINTS
  6
ByBlock
 62
     0
440
 16777216
100
AcDbPoint
 10
969.6629664994334
 20
1204.341295447079
 30
0.0
  0
POINT
  5
7F83
330
7D97
100
AcDbEntity
  8
DEFPOINTS
  6
ByBlock
 62
     0
440
 16777216
100
AcDbPoint
 10
969.6629664994334
 20
1475.58323183922
 30
0.0
  0
ENDBLK
  5
7F84
330
7D97
100
AcDbEntity
  8
0
100
AcDbBlockEnd
  0
BLOCK
  5
80B2
330
7DA2
100
AcDbEntity
  8
0
100
AcDbBlockBegin
  2
*D8
 70
     1
 10
0.0
 20
0.0
 30
0.0
  3
*D8
  1

  0
LINE
  5
80B3
330
7DA2
100
AcDbEntity
  8
0
  6
ByBlock
 62
     0
440
 16777216
100
AcDbLine
 10
2176.156964860706
 20
1326.427389334338
 30
0.0
 11
2176.156964860706
 21
1534.398014837212
 31
0.0
  0
LINE
  5
80B4
330
7DA2
100
AcDbEntity
  8
0
  6
ByBlock
 62
     0
440
 16777216
100
AcDbLine
 10
2098.156964860706
 20
1497.032998348144
 30
0.0
 11
2098.156964860706
 21
1534.398014837212
 31
0.0
  0
LINE
  5
80B5
330
7DA2
100
AcDbEntity
  8
0
  6
ByBlock
 62
     0
440
 16777216
100
AcDbLine
 10
2152.156964860706
 20
1522.398014837211
 30
0.0
 11
2122.156964860705
 21
1522.398014837211
 31
0.0
  0
MTEXT
  5
80B6
330
7DA2
100
AcDbEntity
  8
0
  6
ByBlock
 62
     0
440
 16777216
100
AcDbMText
 10
2137.156964860706
 20
1570.398014837211
 30
0.0
 40
36.0
 41
0.0
 46
0.0
 71
     5
 72
     5
  1
\A1;79
 73
     1
 44
1.0
  0
INSERT
  5
80B7
330
7DA2
100
AcDbEntity
  8
0
  6
ByBlock
 62
     0
440
 16777216
100
AcDbBlockReference
  2
_OPEN
 10
2176.156964860706
 20
1522.398014837211
 30
0.0
 41
24.0
 42
24.0
 43
24.0
  0
INSERT
  5
80B8
330
7DA2
100
AcDbEntity
  8
0
  6
ByBlock
 62
     0
440
 16777216
100
AcDbBlockReference
  2
_OPEN
 10
2098.156964860706
 20
1522.398014837211
 30
0.0
 41
24.0
 42
24.0
 43
24.0
 50
180.0
  0
POINT
  5
80B9
330
7DA2
100
AcDbEntity
  8
DEFPOINTS
  6
ByBlock
 62
     0
440
 16777216
100
AcDbPoint
 10
2176.156964860706
 20
1320.427389334338
 30
0.0
  0
POINT
  5
80BA
330
7DA2
100
AcDbEntity
  8
DEFPOINTS
  6
ByBlock
 62
     0
440
 16777216
100
AcDbPoint
 10
2098.156964860706
 20
1491.032998348144
 30
0.0
  0
POINT
  5
80BB
330
7DA2
100
AcDbEntity
  8
DEFPOINTS
  6
ByBlock
 62
     0
440
 16777216
100
AcDbPoint
 10
2098.156964860706
 20
1522.398014837211
 30
0.0
  0
ENDBLK
  5
80BC
330
7DA2
100
AcDbEntity
  8
0
100
AcDbBlockEnd
  0
BLOCK
  5
8116
330
7DB0
100
AcDbEntity
  8
0
100
AcDbBlockBegin
  2
*D9
 70
     1
 10
0.0
 20
0.0
 30
0.0
  3
*D9
  1

  0
LINE
  5
8403
330
7DB0
100
AcDbEntity
  8
3
 62
     0
440
 16777216
370
    -2
100
AcDbLine
 10
2098.156964860706
 20
1497.032998348144
 30
0.0
 11
2098.156964860706
 21
1534.398014837212
 31
0.0
  0
LINE
  5
8404
330
7DB0
100
AcDbEntity
  8
3
 62
     0
440
 16777216
370
    -2
100
AcDbLine
 10
1665.156964860704
 20
1276.433354420456
 30
0.0
 11
1665.156964860704
 21
1534.398014837212
 31
0.0
  0
LINE
  5
8405
330
7DB0
100
AcDbEntity
  8
3
 62
     0
440
 16777216
370
    -2
100
AcDbLine
 10
2074.156964860705
 20
1522.398014837211
 30
0.0
 11
1689.156964860704
 21
1522.398014837211
 31
0.0
  0
INSERT
  5
8406
330
7DB0
100
AcDbEntity
  8
3
 62
     0
440
 16777216
370
    -2
100
AcDbBlockReference
  2
_OPEN
 10
2098.156964860706
 20
1522.398014837211
 30
0.0
 41
24.0
 42
24.0
 43
24.0
  0
INSERT
  5
8407
330
7DB0
100
AcDbEntity
  8
3
 62
     0
440
 16777216
370
    -2
100
AcDbBlockReference
  2
_OPEN
 10
1665.156964860704
 20
1522.398014837211
 30
0.0
 41
24.0
 42
24.0
 43
24.0
 50
180.0
  0
MTEXT
  5
8408
330
7DB0
100
AcDbEntity
  8
3
 62
     0
440
 16777216
100
AcDbMText
 10
1881.656964860705
 20
1591.826586265783
 30
0.0
 40
36.0
 41
0.0
 46
0.0
 71
     5
 72
     1
  1
\A1;\P(520)
 73
     1
 44
1.0
  0
POINT
  5
8409
330
7DB0
100
AcDbEntity
  8
DEFPOINTS
 62
     0
440
 16777216
100
AcDbPoint
 10
2098.156964860706
 20
1491.032998348144
 30
0.0
  0
POINT
  5
840A
330
7DB0
100
AcDbEntity
  8
DEFPOINTS
 62
     0
440
 16777216
100
AcDbPoint
 10
1665.156964860704
 20
1270.433354420457
 30
0.0
  0
POINT
  5
840B
330
7DB0
100
AcDbEntity
  8
DEFPOINTS
 62
     0
440
 16777216
100
AcDbPoint
 10
1665.156964860704
 20
1522.398014837211
 30
0.0
  0
ENDBLK
  5
8120
330
7DB0
100
AcDbEntity
  8
0
100
AcDbBlockEnd
  0
BLOCK
  5
80A7
330
7DBB
100
AcDbEntity
  8
0
100
AcDbBlockBegin
  2
*D10
 70
     1
 10
0.0
 20
0.0
 30
0.0
  3
*D10
  1

  0
LINE
  5
80A8
330
7DBB
100
AcDbEntity
  8
0
  6
ByBlock
 62
     0
440
 16777216
100
AcDbLine
 10
2023.156964860705
 20
1395.427389334338
 30
0.0
 11
2023.156964860705
 21
1459.322289620244
 31
0.0
  0
LINE
  5
80A9
330
7DBB
100
AcDbEntity
  8
0
  6
ByBlock
 62
     0
440
 16777216
100
AcDbLine
 10
2173.156964860705
 20
1395.427389334338
 30
0.0
 11
2173.156964860705
 21
1459.322289620244
 31
0.0
  0
LINE
  5
80AA
330
7DBB
100
AcDbEntity
  8
0
  6
ByBlock
 62
     0
440
 16777216
100
AcDbLine
 10
2047.156964860705
 20
1447.322289620244
 30
0.0
 11
2149.156964860705
 21
1447.322289620244
 31
0.0
  0
MTEXT
  5
80AB
330
7DBB
100
AcDbEntity
  8
0
  6
ByBlock
 62
     0
440
 16777216
100
AcDbMText
 10
2098.156964860705
 20
1473.270656444202
 30
0.0
 40
36.0
 41
0.0
 46
0.0
 71
     5
 72
     5
  1
\A1;150
 73
     1
 44
1.0
  0
INSERT
  5
80AC
330
7DBB
100
AcDbEntity
  8
0
  6
ByBlock
 62
     0
440
 16777216
100
AcDbBlockReference
  2
_OPEN
 10
2023.156964860705
 20
1447.322289620244
 30
0.0
 41
24.0
 42
24.0
 43
24.0
 50
180.0
  0
INSERT
  5
80AD
330
7DBB
100
AcDbEntity
  8
0
  6
ByBlock
 62
     0
440
 16777216
100
AcDbBlockReference
  2
_OPEN
 10
2173.156964860705
 20
1447.322289620244
 30
0.0
 41
24.0
 42
24.0
 43
24.0
  0
POINT
  5
80AE
330
7DBB
100
AcDbEntity
  8
DEFPOINTS
  6
ByBlock
 62
     0
440
 16777216
100
AcDbPoint
 10
2023.156964860705
 20
1389.427389334338
 30
0.0
  0
POINT
  5
80AF
330
7DBB
100
AcDbEntity
  8
DEFPOINTS
  6
ByBlock
 62
     0
440
 16777216
100
AcDbPoint
 10
2173.156964860705
 20
1389.427389334338
 30
0.0
  0
POINT
  5
80B0
330
7DBB
100
AcDbEntity
  8
DEFPOINTS
  6
ByBlock
 62
     0
440
 16777216
100
AcDbPoint
 10
2173.156964860705
 20
1447.322289620244
 30
0.0
  0
ENDBLK
  5
80B1
330
7DBB
100
AcDbEntity
  8
0
100
AcDbBlockEnd
  0
BLOCK
  5
8121
330
7DC7
100
AcDbEntity
  8
0
100
AcDbBlockBegin
  2
*D11
 70
     1
 10
0.0
 20
0.0
 30
0.0
  3
*D11
  1

  0
LINE
  5
8122
330
7DC7
100
AcDbEntity
  8
0
  6
ByBlock
 62
     0
440
 16777216
100
AcDbLine
 10
2202.156964860705
 20
1300.427389334338
 30
0.0
 11
2289.174004724544
 21
1300.427389334338
 31
0.0
  0
LINE
  5
8123
330
7DC7
100
AcDbEntity
  8
0
  6
ByBlock
 62
     0
440
 16777216
100
AcDbLine
 10
2202.156964860705
 20
1080.427389334338
 30
0.0
 11
2289.174004724544
 21
1080.427389334338
 31
0.0
  0
LINE
  5
8124
330
7DC7
100
AcDbEntity
  8
0
  6
ByBlock
 62
     0
440
 16777216
100
AcDbLine
 10
2277.174004724544
 20
1276.427389334338
 30
0.0
 11
2277.174004724544
 21
1104.427389334338
 31
0.0
  0
INSERT
  5
8125
330
7DC7
100
AcDbEntity
  8
0
  6
ByBlock
 62
     0
440
 16777216
100
AcDbBlockReference
  2
_OPEN
 10
2277.174004724544
 20
1300.427389334338
 30
0.0
 41
24.0
 42
24.0
 43
24.0
 50
90.0
  0
INSERT
  5
8126
330
7DC7
100
AcDbEntity
  8
0
  6
ByBlock
 62
     0
440
 16777216
100
AcDbBlockReference
  2
_OPEN
 10
2277.174004724544
 20
1080.427389334338
 30
0.0
 41
24.0
 42
24.0
 43
24.0
 50
270.0
  0
MTEXT
  5
8127
330
7DC7
100
AcDbEntity
  8
0
  6
ByBlock
 62
     0
440
 16777216
100
AcDbMText
 10
2247.174004724544
 20
1190.427389334338
 30
0.0
 40
36.0
 41
0.0
 46
0.0
 71
     5
 72
     5
  1
\A1;φ220
 11
0.0
 21
1.0
 31
0.0
 73
     1
 44
1.0
  0
POINT
  5
8128
330
7DC7
100
AcDbEntity
  8
DEFPOINTS
  6
ByBlock
 62
     0
440
 16777216
100
AcDbPoint
 10
2196.156964860705
 20
1300.427389334338
 30
0.0
  0
POINT
  5
8129
330
7DC7
100
AcDbEntity
  8
DEFPOINTS
  6
ByBlock
 62
     0
440
 16777216
100
AcDbPoint
 10
2196.156964860705
 20
1080.427389334338
 30
0.0
  0
POINT
  5
812A
330
7DC7
100
AcDbEntity
  8
DEFPOINTS
  6
ByBlock
 62
     0
440
 16777216
100
AcDbPoint
 10
2277.174004724544
 20
1080.427389334338
 30
0.0
  0
ENDBLK
  5
812B
330
7DC7
100
AcDbEntity
  8
0
100
AcDbBlockEnd
  0
BLOCK
  5
81F6
330
81E9
100
AcDbEntity
  8
0
100
AcDbBlockBegin
  2
*D12
 70
     1
 10
0.0
 20
0.0
 30
0.0
  3
*D12
  1

  0
LINE
  5
81F7
330
81E9
100
AcDbEntity
  8
0
  6
ByBlock
 62
     0
440
 16777216
100
AcDbLine
 10
1250.662966499433
 20
2341.590547353314
 30
0.0
 11
1354.638716686779
 21
2341.590547353314
 31
0.0
  0
LINE
  5
81F8
330
81E9
100
AcDbEntity
  8
0
  6
ByBlock
 62
     0
440
 16777216
100
AcDbLine
 10
1250.662966499433
 20
1961.590547353317
 30
0.0
 11
1354.638716686779
 21
1961.590547353317
 31
0.0
  0
LINE
  5
81F9
330
81E9
100
AcDbEntity
  8
0
  6
ByBlock
 62
     0
440
 16777216
100
AcDbLine
 10
1342.638716686779
 20
2317.590547353314
 30
0.0
 11
1342.638716686779
 21
1985.590547353318
 31
0.0
  0
INSERT
  5
81FA
330
81E9
100
AcDbEntity
  8
0
  6
ByBlock
 62
     0
440
 16777216
100
AcDbBlockReference
  2
_OPEN
 10
1342.638716686779
 20
2341.590547353314
 30
0.0
 41
24.0
 42
24.0
 43
24.0
 50
90.0
  0
INSERT
  5
81FB
330
81E9
100
AcDbEntity
  8
0
  6
ByBlock
 62
     0
440
 16777216
100
AcDbBlockReference
  2
_OPEN
 10
1342.638716686779
 20
1961.590547353317
 30
0.0
 41
24.0
 42
24.0
 43
24.0
 50
270.0
  0
MTEXT
  5
81FC
330
81E9
100
AcDbEntity
  8
0
  6
ByBlock
 62
     0
440
 16777216
100
AcDbMText
 10
1312.638716686779
 20
2146.307272644718
 30
0.0
 40
36.0
 41
0.0
 46
0.0
 71
     5
 72
     5
  1
\A1;380
 11
0.0
 21
1.0
 31
0.0
 73
     1
 44
1.0
  0
POINT
  5
81FD
330
81E9
100
AcDbEntity
  8
DEFPOINTS
  6
ByBlock
 62
     0
440
 16777216
100
AcDbPoint
 10
1244.662966499433
 20
2341.590547353314
 30
0.0
  0
POINT
  5
81FE
330
81E9
100
AcDbEntity
  8
DEFPOINTS
  6
ByBlock
 62
     0
440
 16777216
100
AcDbPoint
 10
1244.662966499433
 20
1961.590547353317
 30
0.0
  0
POINT
  5
81FF
330
81E9
100
AcDbEntity
  8
DEFPOINTS
  6
ByBlock
 62
     0
440
 16777216
100
AcDbPoint
 10
1342.638716686779
 20
1961.590547353317
 30
0.0
  0
ENDBLK
  5
8200
330
81E9
100
AcDbEntity
  8
0
100
AcDbBlockEnd
  0
BLOCK
  5
8202
330
8201
100
AcDbEntity
  8
0
100
AcDbBlockBegin
  2
*D13
 70
     1
 10
0.0
 20
0.0
 30
0.0
  3
*D13
  1

  0
LINE
  5
8203
330
8201
100
AcDbEntity
  8
0
  6
ByBlock
 62
     0
440
 16777216
100
AcDbLine
 10
624.6629664994339
 20
1955.590547353314
 30
0.0
 11
624.6629664994339
 21
1835.776856011912
 31
0.0
  0
LINE
  5
8204
330
8201
100
AcDbEntity
  8
0
  6
ByBlock
 62
     0
440
 16777216
100
AcDbLine
 10
1244.662966499433
 20
1955.590547353317
 30
0.0
 11
1244.662966499433
 21
1835.776856011912
 31
0.0
  0
LINE
  5
8205
330
8201
100
AcDbEntity
  8
0
  6
ByBlock
 62
     0
440
 16777216
100
AcDbLine
 10
648.6629664994339
 20
1847.776856011912
 30
0.0
 11
1220.662966499433
 21
1847.776856011912
 31
0.0
  0
INSERT
  5
8206
330
8201
100
AcDbEntity
  8
0
  6
ByBlock
 62
     0
440
 16777216
100
AcDbBlockReference
  2
_OPEN
 10
624.6629664994339
 20
1847.776856011912
 30
0.0
 41
24.0
 42
24.0
 43
24.0
 50
180.0
  0
INSERT
  5
8207
330
8201
100
AcDbEntity
  8
0
  6
ByBlock
 62
     0
440
 16777216
100
AcDbBlockReference
  2
_OPEN
 10
1244.662966499433
 20
1847.776856011912
 30
0.0
 41
24.0
 42
24.0
 43
24.0
  0
MTEXT
  5
8208
330
8201
100
AcDbEntity
  8
0
  6
ByBlock
 62
     0
440
 16777216
100
AcDbMText
 10
909.7649960486487
 20
1877.776856011912
 30
0.0
 40
36.0
 41
0.0
 46
0.0
 71
     5
 72
     5
  1
\A1;620
 73
     1
 44
1.0
  0
POINT
  5
8209
330
8201
100
AcDbEntity
  8
DEFPOINTS
  6
ByBlock
 62
     0
440
 16777216
100
AcDbPoint
 10
624.6629664994339
 20
1961.590547353314
 30
0.0
  0
POINT
  5
820A
330
8201
100
AcDbEntity
  8
DEFPOINTS
  6
ByBlock
 62
     0
440
 16777216
100
AcDbPoint
 10
1244.662966499433
 20
1961.590547353317
 30
0.0
  0
POINT
  5
820B
330
8201
100
AcDbEntity
  8
DEFPOINTS
  6
ByBlock
 62
     0
440
 16777216
100
AcDbPoint
 10
1244.662966499433
 20
1847.776856011912
 30
0.0
  0
ENDBLK
  5
820C
330
8201
100
AcDbEntity
  8
0
100
AcDbBlockEnd
  0
BLOCK
  5
8241
330
8240
100
AcDbEntity
  8
0
100
AcDbBlockBegin
  2
*D14
 70
     1
 10
0.0
 20
0.0
 30
0.0
  3
*D14
  1

  0
LINE
  5
834A
330
8240
100
AcDbEntity
  8
3
 62
     0
440
 16777216
370
    -2
100
AcDbLine
 10
624.6629664994339
 20
814.3412954470788
 30
0.0
 11
624.6629664994339
 21
726.8205333301658
 31
0.0
  0
LINE
  5
834B
330
8240
100
AcDbEntity
  8
3
 62
     0
440
 16777216
370
    -2
100
AcDbLine
 10
799.6629664994334
 20
814.3412954470793
 30
0.0
 11
799.6629664994334
 21
726.8205333301658
 31
0.0
  0
LINE
  5
834C
330
8240
100
AcDbEntity
  8
3
 62
     0
440
 16777216
370
    -2
100
AcDbLine
 10
648.6629664994339
 20
738.8205333301658
 30
0.0
 11
775.6629664994334
 21
738.8205333301658
 31
0.0
  0
INSERT
  5
834D
330
8240
100
AcDbEntity
  8
3
 62
     0
440
 16777216
370
    -2
100
AcDbBlockReference
  2
_OPEN
 10
624.6629664994339
 20
738.8205333301658
 30
0.0
 41
24.0
 42
24.0
 43
24.0
 50
180.0
  0
INSERT
  5
834E
330
8240
100
AcDbEntity
  8
3
 62
     0
440
 16777216
370
    -2
100
AcDbBlockReference
  2
_OPEN
 10
799.6629664994334
 20
738.8205333301658
 30
0.0
 41
24.0
 42
24.0
 43
24.0
  0
MTEXT
  5
834F
330
8240
100
AcDbEntity
  8
3
 62
     0
440
 16777216
100
AcDbMText
 10
712.1629664994336
 20
768.8205333301659
 30
0.0
 40
36.0
 41
0.0
 46
0.0
 71
     5
 72
     1
  1
\A1;175
 73
     1
 44
1.0
  0
POINT
  5
8350
330
8240
100
AcDbEntity
  8
DEFPOINTS
 62
     0
440
 16777216
100
AcDbPoint
 10
624.6629664994339
 20
820.3412954470788
 30
0.0
  0
POINT
  5
8351
330
8240
100
AcDbEntity
  8
DEFPOINTS
 62
     0
440
 16777216
100
AcDbPoint
 10
799.6629664994334
 20
820.3412954470794
 30
0.0
  0
POINT
  5
8352
330
8240
100
AcDbEntity
  8
DEFPOINTS
 62
     0
440
 16777216
100
AcDbPoint
 10
799.6629664994334
 20
738.8205333301658
 30
0.0
  0
ENDBLK
  5
824B
330
8240
100
AcDbEntity
  8
0
100
AcDbBlockEnd
  0
BLOCK
  5
824E
330
824D
100
AcDbEntity
  8
0
100
AcDbBlockBegin
  2
*D15
 70
     1
 10
0.0
 20
0.0
 30
0.0
  3
*D15
  1

  0
LINE
  5
8353
330
824D
100
AcDbEntity
  8
3
 62
     0
440
 16777216
370
    -2
100
AcDbLine
 10
799.6629664994334
 20
814.3412954470793
 30
0.0
 11
799.6629664994334
 21
726.8205333301658
 31
0.0
  0
LINE
  5
8354
330
824D
100
AcDbEntity
  8
3
 62
     0
440
 16777216
370
    -2
100
AcDbLine
 10
1244.662966499433
 20
814.3412954470791
 30
0.0
 11
1244.662966499433
 21
726.8205333301658
 31
0.0
  0
LINE
  5
8355
330
824D
100
AcDbEntity
  8
3
 62
     0
440
 16777216
370
    -2
100
AcDbLine
 10
823.6629664994334
 20
738.8205333301658
 30
0.0
 11
1220.662966499433
 21
738.8205333301658
 31
0.0
  0
INSERT
  5
8356
330
824D
100
AcDbEntity
  8
3
 62
     0
440
 16777216
370
    -2
100
AcDbBlockReference
  2
_OPEN
 10
799.6629664994334
 20
738.8205333301658
 30
0.0
 41
24.0
 42
24.0
 43
24.0
 50
180.0
  0
INSERT
  5
8357
330
824D
100
AcDbEntity
  8
3
 62
     0
440
 16777216
370
    -2
100
AcDbBlockReference
  2
_OPEN
 10
1244.662966499433
 20
738.8205333301658
 30
0.0
 41
24.0
 42
24.0
 43
24.0
  0
MTEXT
  5
8358
330
824D
100
AcDbEntity
  8
3
 62
     0
440
 16777216
100
AcDbMText
 10
1022.162966499433
 20
768.8205333301659
 30
0.0
 40
36.0
 41
0.0
 46
0.0
 71
     5
 72
     1
  1
\A1;445
 73
     1
 44
1.0
  0
POINT
  5
8359
330
824D
100
AcDbEntity
  8
DEFPOINTS
 62
     0
440
 16777216
100
AcDbPoint
 10
799.6629664994334
 20
820.3412954470794
 30
0.0
  0
POINT
  5
835A
330
824D
100
AcDbEntity
  8
DEFPOINTS
 62
     0
440
 16777216
100
AcDbPoint
 10
1244.662966499433
 20
820.3412954470792
 30
0.0
  0
POINT
  5
835B
330
824D
100
AcDbEntity
  8
DEFPOINTS
 62
     0
440
 16777216
100
AcDbPoint
 10
1244.662966499433
 20
738.8205333301658
 30
0.0
  0
ENDBLK
  5
8258
330
824D
100
AcDbEntity
  8
0
100
AcDbBlockEnd
  0
BLOCK
  5
8268
330
8267
100
AcDbEntity
  8
0
100
AcDbBlockBegin
  2
*D16
 70
     1
 10
0.0
 20
0.0
 30
0.0
  3
*D16
  1

  0
LINE
  5
835C
330
8267
100
AcDbEntity
  8
3
 62
     0
440
 16777216
370
    -2
100
AcDbLine
 10
1678.156964860705
 20
814.4273893343383
 30
0.0
 11
1678.156964860705
 21
726.8205333301658
 31
0.0
  0
LINE
  5
835D
330
8267
100
AcDbEntity
  8
3
 62
     0
440
 16777216
370
    -2
100
AcDbLine
 10
2058.156964860705
 20
814.4273893343385
 30
0.0
 11
2058.156964860705
 21
726.8205333301658
 31
0.0
  0
LINE
  5
835E
330
8267
100
AcDbEntity
  8
3
 62
     0
440
 16777216
370
    -2
100
AcDbLine
 10
1702.156964860705
 20
738.8205333301658
 30
0.0
 11
2034.156964860706
 21
738.8205333301658
 31
0.0
  0
INSERT
  5
835F
330
8267
100
AcDbEntity
  8
3
 62
     0
440
 16777216
370
    -2
100
AcDbBlockReference
  2
_OPEN
 10
1678.156964860705
 20
738.8205333301658
 30
0.0
 41
24.0
 42
24.0
 43
24.0
 50
180.0
  0
INSERT
  5
8360
330
8267
100
AcDbEntity
  8
3
 62
     0
440
 16777216
370
    -2
100
AcDbBlockReference
  2
_OPEN
 10
2058.156964860705
 20
738.8205333301658
 30
0.0
 41
24.0
 42
24.0
 43
24.0
  0
MTEXT
  5
8361
330
8267
100
AcDbEntity
  8
3
 62
     0
440
 16777216
100
AcDbMText
 10
1868.156964860705
 20
768.8205333301659
 30
0.0
 40
36.0
 41
0.0
 46
0.0
 71
     5
 72
     1
  1
\A1;380
 73
     1
 44
1.0
  0
POINT
  5
8362
330
8267
100
AcDbEntity
  8
DEFPOINTS
 62
     0
440
 16777216
100
AcDbPoint
 10
1678.156964860705
 20
820.4273893343382
 30
0.0
  0
POINT
  5
8363
330
8267
100
AcDbEntity
  8
DEFPOINTS
 62
     0
440
 16777216
100
AcDbPoint
 10
2058.156964860705
 20
820.4273893343385
 30
0.0
  0
POINT
  5
8364
330
8267
100
AcDbEntity
  8
DEFPOINTS
 62
     0
440
 16777216
100
AcDbPoint
 10
2058.156964860705
 20
738.8205333301658
 30
0.0
  0
ENDBLK
  5
8272
330
8267
100
AcDbEntity
  8
0
100
AcDbBlockEnd
  0
BLOCK
  5
8275
330
8274
100
AcDbEntity
  8
0
100
AcDbBlockBegin
  2
*D17
 70
     1
 10
0.0
 20
0.0
 30
0.0
  3
*D17
  1

  0
LINE
  5
8365
330
8274
100
AcDbEntity
  8
3
 62
     0
440
 16777216
370
    -2
100
AcDbLine
 10
2058.156964860705
 20
814.4273893343385
 30
0.0
 11
2058.156964860705
 21
726.8205333301658
 31
0.0
  0
LINE
  5
8366
330
8274
100
AcDbEntity
  8
3
 62
     0
440
 16777216
370
    -2
100
AcDbLine
 10
2098.156964860706
 20
814.4273893343383
 30
0.0
 11
2098.156964860706
 21
726.8205333301658
 31
0.0
  0
LINE
  5
8367
330
8274
100
AcDbEntity
  8
3
 62
     0
440
 16777216
370
    -2
100
AcDbLine
 10
2034.156964860706
 20
738.8205333301658
 30
0.0
 11
2010.156964860706
 21
738.8205333301658
 31
0.0
  0
LINE
  5
8368
330
8274
100
AcDbEntity
  8
3
 62
     0
440
 16777216
370
    -2
100
AcDbLine
 10
2122.156964860705
 20
738.8205333301658
 30
0.0
 11
2228.44267914642
 21
738.8205333301658
 31
0.0
  0
LINE
  5
8369
330
8274
100
AcDbEntity
  8
3
 62
     0
440
 16777216
370
    -2
100
AcDbLine
 10
2058.156964860705
 20
738.8205333301658
 30
0.0
 11
2098.156964860706
 21
738.8205333301658
 31
0.0
  0
INSERT
  5
836A
330
8274
100
AcDbEntity
  8
3
 62
     0
440
 16777216
370
    -2
100
AcDbBlockReference
  2
_OPEN
 10
2058.156964860705
 20
738.8205333301658
 30
0.0
 41
24.0
 42
24.0
 43
24.0
  0
INSERT
  5
836B
330
8274
100
AcDbEntity
  8
3
 62
     0
440
 16777216
370
    -2
100
AcDbBlockReference
  2
_OPEN
 10
2098.156964860706
 20
738.8205333301658
 30
0.0
 41
24.0
 42
24.0
 43
24.0
 50
180.0
  0
MTEXT
  5
836C
330
8274
100
AcDbEntity
  8
3
 62
     0
440
 16777216
100
AcDbMText
 10
2187.299822003563
 20
768.8205333301659
 30
0.0
 40
36.0
 41
0.0
 46
0.0
 71
     5
 72
     1
  1
\A1;40
 73
     1
 44
1.0
  0
POINT
  5
836D
330
8274
100
AcDbEntity
  8
DEFPOINTS
 62
     0
440
 16777216
100
AcDbPoint
 10
2058.156964860705
 20
820.4273893343385
 30
0.0
  0
POINT
  5
836E
330
8274
100
AcDbEntity
  8
DEFPOINTS
 62
     0
440
 16777216
100
AcDbPoint
 10
2098.156964860706
 20
820.4273893343383
 30
0.0
  0
POINT
  5
836F
330
8274
100
AcDbEntity
  8
DEFPOINTS
 62
     0
440
 16777216
100
AcDbPoint
 10
2098.156964860706
 20
738.8205333301658
 30
0.0
  0
ENDBLK
  5
8281
330
8274
100
AcDbEntity
  8
0
100
AcDbBlockEnd
  0
BLOCK
  5
829F
330
829E
100
AcDbEntity
  8
0
100
AcDbBlockBegin
  2
*D18
 70
     1
 10
0.0
 20
0.0
 30
0.0
  3
*D18
  1

  0
LINE
  5
83C8
330
829E
100
AcDbEntity
  8
3
 62
     0
440
 16777216
370
    -2
100
AcDbLine
 10
618.6629664994338
 20
860.3412954470787
 30
0.0
 11
493.3934268061257
 21
860.3412954470787
 31
0.0
  0
LINE
  5
83C9
330
829E
100
AcDbEntity
  8
3
 62
     0
440
 16777216
370
    -2
100
AcDbLine
 10
618.6629664994338
 20
820.3412954470792
 30
0.0
 11
493.3934268061257
 21
820.3412954470792
 31
0.0
  0
LINE
  5
83CA
330
829E
100
AcDbEntity
  8
3
 62
     0
440
 16777216
370
    -2
100
AcDbLine
 10
505.3934268061257
 20
884.3412954470787
 30
0.0
 11
505.3934268061257
 21
908.3412954470787
 31
0.0
  0
LINE
  5
83CB
330
829E
100
AcDbEntity
  8
3
 62
     0
440
 16777216
370
    -2
100
AcDbLine
 10
505.3934268061257
 20
796.3412954470792
 30
0.0
 11
505.3934268061257
 21
690.0555811613649
 31
0.0
  0
LINE
  5
83CC
330
829E
100
AcDbEntity
  8
3
 62
     0
440
 16777216
370
    -2
100
AcDbLine
 10
505.3934268061257
 20
860.3412954470787
 30
0.0
 11
505.3934268061257
 21
820.3412954470792
 31
0.0
  0
INSERT
  5
83CD
330
829E
100
AcDbEntity
  8
3
 62
     0
440
 16777216
370
    -2
100
AcDbBlockReference
  2
_DOT
 10
505.3934268061257
 20
860.3412954470787
 30
0.0
 41
24.0
 42
24.0
 43
24.0
 50
270.0
  0
INSERT
  5
83CE
330
829E
100
AcDbEntity
  8
3
 62
     0
440
 16777216
370
    -2
100
AcDbBlockReference
  2
_OPEN
 10
505.3934268061257
 20
820.3412954470792
 30
0.0
 41
24.0
 42
24.0
 43
24.0
 50
90.0
  0
MTEXT
  5
83CF
330
829E
100
AcDbEntity
  8
3
 62
     0
440
 16777216
100
AcDbMText
 10
475.3934268061255
 20
731.1984383042222
 30
0.0
 40
36.0
 41
0.0
 46
0.0
 71
     5
 72
     1
  1
\A1;40
 11
0.0000000000000001
 21
1.0
 31
0.0
 73
     1
 44
1.0
  0
POINT
  5
83D0
330
829E
100
AcDbEntity
  8
DEFPOINTS
 62
     0
440
 16777216
100
AcDbPoint
 10
624.6629664994339
 20
860.3412954470787
 30
0.0
  0
POINT
  5
83D1
330
829E
100
AcDbEntity
  8
DEFPOINTS
 62
     0
440
 16777216
100
AcDbPoint
 10
624.6629664994339
 20
820.3412954470792
 30
0.0
  0
POINT
  5
83D2
330
829E
100
AcDbEntity
  8
DEFPOINTS
 62
     0
440
 16777216
100
AcDbPoint
 10
505.3934268061257
 20
820.3412954470792
 30
0.0
  0
ENDBLK
  5
82AB
330
829E
100
AcDbEntity
  8
0
100
AcDbBlockEnd
  0
BLOCK
  5
82CC
330
82CB
100
AcDbEntity
  8
0
100
AcDbBlockBegin
  2
*D19
 70
     1
 10
0.0
 20
0.0
 30
0.0
  3
*D19
  1

  0
LINE
  5
83B2
330
82CB
100
AcDbEntity
  8
3
 62
     0
440
 16777216
370
    -2
100
AcDbLine
 10
618.6629664994338
 20
860.3412954470787
 30
0.0
 11
493.3667344997956
 21
860.3412954470787
 31
0.0
  0
LINE
  5
83B3
330
82CB
100
AcDbEntity
  8
3
 62
     0
440
 16777216
370
    -2
100
AcDbLine
 10
618.6629664994338
 20
930.3412954470791
 30
0.0
 11
493.3667344997957
 21
930.3412954470791
 31
0.0
  0
LINE
  5
83B4
330
82CB
100
AcDbEntity
  8
3
 62
     0
440
 16777216
370
    -2
100
AcDbLine
 10
505.3667344997956
 20
836.3412954470787
 30
0.0
 11
505.3667344997956
 21
812.3412954470788
 31
0.0
  0
LINE
  5
83B5
330
82CB
100
AcDbEntity
  8
3
 62
     0
440
 16777216
370
    -2
100
AcDbLine
 10
505.3667344997957
 20
954.3412954470792
 30
0.0
 11
505.3667344997957
 21
978.341295447079
 31
0.0
  0
MTEXT
  5
83B6
330
82CB
100
AcDbEntity
  8
3
 62
     0
440
 16777216
100
AcDbMText
 10
463.494495101062
 20
895.4259460138345
 30
0.0
 40
36.0
 41
0.0
 46
0.0
 71
     5
 72
     1
  1
\A1;(70)
 11
0.0000000000000001
 21
1.0
 31
0.0
 73
     1
 44
1.0
  0
LINE
  5
83B7
330
82CB
100
AcDbEntity
  8
3
 62
     0
440
 16777216
370
    -2
100
AcDbLine
 10
505.3667344997956
 20
860.3412954470787
 30
0.0
 11
505.3667344997957
 21
930.3412954470791
 31
0.0
  0
INSERT
  5
83B8
330
82CB
100
AcDbEntity
  8
3
 62
     0
440
 16777216
370
    -2
100
AcDbBlockReference
  2
_DOT
 10
505.3667344997956
 20
860.3412954470787
 30
0.0
 41
24.0
 42
24.0
 43
24.0
 50
90.0
  0
INSERT
  5
83B9
330
82CB
100
AcDbEntity
  8
3
 62
     0
440
 16777216
370
    -2
100
AcDbBlockReference
  2
_OPEN
 10
505.3667344997957
 20
930.3412954470791
 30
0.0
 41
24.0
 42
24.0
 43
24.0
 50
270.0
  0
POINT
  5
83BA
330
82CB
100
AcDbEntity
  8
DEFPOINTS
 62
     0
440
 16777216
100
AcDbPoint
 10
624.6629664994339
 20
860.3412954470787
 30
0.0
  0
POINT
  5
83BB
330
82CB
100
AcDbEntity
  8
DEFPOINTS
 62
     0
440
 16777216
100
AcDbPoint
 10
624.6629664994339
 20
930.3412954470791
 30
0.0
  0
POINT
  5
83BC
330
82CB
100
AcDbEntity
  8
DEFPOINTS
 62
     0
440
 16777216
100
AcDbPoint
 10
505.3667344997957
 20
930.3412954470791
 30
0.0
  0
ENDBLK
  5
82D6
330
82CB
100
AcDbEntity
  8
0
100
AcDbBlockEnd
  0
BLOCK
  5
82D9
330
82D8
100
AcDbEntity
  8
0
100
AcDbBlockBegin
  2
*D20
 70
     1
 10
0.0
 20
0.0
 30
0.0
  3
*D20
  1

  0
LINE
  5
8386
330
82D8
100
AcDbEntity
  8
3
 62
     0
440
 16777216
370
    -2
100
AcDbLine
 10
608.662966499433
 20
1411.341261462904
 30
0.0
 11
387.2864626779812
 21
1411.341261462905
 31
0.0
  0
LINE
  5
8387
330
82D8
100
AcDbEntity
  8
3
 62
     0
440
 16777216
370
    -2
100
AcDbLine
 10
618.6629664994338
 20
820.3412954470792
 30
0.0
 11
387.2864626779811
 21
820.3412954470792
 31
0.0
  0
LINE
  5
8388
330
82D8
100
AcDbEntity
  8
3
 62
     0
440
 16777216
370
    -2
100
AcDbLine
 10
399.2864626779812
 20
1387.341261462905
 30
0.0
 11
399.286462677981
 21
844.3412954470792
 31
0.0
  0
INSERT
  5
8389
330
82D8
100
AcDbEntity
  8
3
 62
     0
440
 16777216
370
    -2
100
AcDbBlockReference
  2
_OPEN
 10
399.2864626779812
 20
1411.341261462905
 30
0.0
 41
24.0
 42
24.0
 43
24.0
 50
90.0
  0
INSERT
  5
838A
330
82D8
100
AcDbEntity
  8
3
 62
     0
440
 16777216
370
    -2
100
AcDbBlockReference
  2
_OPEN
 10
399.286462677981
 20
820.3412954470792
 30
0.0
 41
24.0
 42
24.0
 43
24.0
 50
270.0
  0
MTEXT
  5
838B
330
82D8
100
AcDbEntity
  8
3
 62
     0
440
 16777216
100
AcDbMText
 10
359.8578912494095
 20
1115.841278454992
 30
0.0
 40
36.0
 41
0.0
 46
0.0
 71
     5
 72
     1
  1
\A1;(591)
 11
0.0000000000000001
 21
1.0
 31
0.0
 73
     1
 44
1.0
  0
POINT
  5
838C
330
82D8
100
AcDbEntity
  8
DEFPOINTS
 62
     0
440
 16777216
100
AcDbPoint
 10
614.6629664994329
 20
1411.341261462904
 30
0.0
  0
POINT
  5
838D
330
82D8
100
AcDbEntity
  8
DEFPOINTS
 62
     0
440
 16777216
100
AcDbPoint
 10
624.6629664994339
 20
820.3412954470792
 30
0.0
  0
POINT
  5
838E
330
82D8
100
AcDbEntity
  8
DEFPOINTS
 62
     0
440
 16777216
100
AcDbPoint
 10
399.286462677981
 20
820.3412954470792
 30
0.0
  0
ENDBLK
  5
82E3
330
82D8
100
AcDbEntity
  8
0
100
AcDbBlockEnd
  0
ENDSEC
  0
SECTION
  2
ENTITIES
  0
LINE
  5
7C12
330
19
100
AcDbEntity
  8
2
100
AcDbLine
 10
799.6629664994334
 20
1428.531969785606
 30
0.0
 11
799.6629664994334
 21
820.3412954470792
 31
0.0
  0
LINE
  5
7C14
330
19
100
AcDbEntity
  8
1
100
AcDbLine
 10
1244.662966499433
 20
970.341295447079
 30
0.0
 11
624.6629664994339
 21
970.3412954470786
 31
0.0
  0
LINE
  5
7C16
330
19
100
AcDbEntity
  8
1
100
AcDbLine
 10
1244.662966499433
 20
970.341295447079
 30
0.0
 11
1244.662966499433
 21
930.3412954470791
 31
0.0
  0
LINE
  5
7C17
330
19
100
AcDbEntity
  8
2
100
AcDbLine
 10
614.2985643752631
 20
1190.341295447079
 30
0.0
 11
982.5147425764676
 21
1190.341295447079
 31
0.0
  0
LINE
  5
7C19
330
19
100
AcDbEntity
  8
1
100
AcDbLine
 10
624.6629664994339
 20
970.3412954470786
 30
0.0
 11
624.6629664994339
 21
930.3412954470786
 31
0.0
  0
LINE
  5
7C1A
330
19
100
AcDbEntity
  8
2
100
AcDbLine
 10
2098.156964860706
 20
1451.392472542492
 30
0.0
 11
2098.156964860706
 21
820.4273893343382
 31
0.0
  0
LINE
  5
7C1B
330
19
100
AcDbEntity
  8
2
100
AcDbLine
 10
1642.364739759242
 20
1190.427389334338
 30
0.0
 11
2205.624670453285
 21
1190.427389334338
 31
0.0
  0
LINE
  5
7C1C
330
19
100
AcDbEntity
  8
1
100
AcDbLine
 10
1204.662966499433
 20
2341.590547353314
 30
0.0
 11
1204.662966499433
 21
2263.790547353313
 31
0.0
  0
LINE
  5
7C1D
330
19
100
AcDbEntity
  8
1
100
AcDbLine
 10
1244.662966499433
 20
2341.590547353314
 30
0.0
 11
1244.662966499433
 21
1961.590547353314
 31
0.0
  0
LINE
  5
7C20
330
19
100
AcDbEntity
  8
1
100
AcDbLine
 10
624.6629664994339
 20
1961.590547353314
 30
0.0
 11
1244.662966499433
 21
1961.590547353317
 31
0.0
  0
LINE
  5
7C2B
330
19
100
AcDbEntity
  8
1
100
AcDbLine
 10
969.6629664994334
 20
2341.590547353314
 30
0.0
 11
1244.662966499433
 21
2341.590547353314
 31
0.0
  0
LINE
  5
7C2C
330
19
100
AcDbEntity
  8
1
100
AcDbLine
 10
664.6629664994343
 20
1961.590547353314
 30
0.0
 11
624.6629664994339
 21
1961.590547353314
 31
0.0
  0
CIRCLE
  5
7C32
330
19
100
AcDbEntity
  8
1
100
AcDbCircle
 10
799.6629664994339
 20
1060.341295447079
 30
0.0
 40
60.0
  0
LINE
  5
7C33
330
19
100
AcDbEntity
  8
1
100
AcDbLine
 10
1665.156964860704
 20
1270.433354420457
 30
0.0
 11
1665.156964860704
 21
970.4273893343382
 31
0.0
  0
LINE
  5
7C34
330
19
100
AcDbEntity
  8
1
100
AcDbLine
 10
1740.156964860705
 20
1270.433354420457
 30
0.0
 11
1740.156964860704
 21
1230.54214724115
 31
0.0
  0
LINE
  5
7C35
330
19
100
AcDbEntity
  8
1
100
AcDbLine
 10
749.5146330335042
 20
1270.29726583134
 30
0.0
 11
749.5146330335037
 21
970.3412954470786
 31
0.0
  0
LINE
  5
7C36
330
19
100
AcDbEntity
  8
1
100
AcDbLine
 10
1229.514633033504
 20
1270.29726583134
 30
0.0
 11
1229.514633033504
 21
970.341295447079
 31
0.0
  0
ARC
  5
7C37
330
19
100
AcDbEntity
  8
1
100
AcDbCircle
 10
810.6629664994335
 20
1201.341295447079
 30
0.0
 40
159.0
100
AcDbArc
 50
315.7241782884698
 51
356.0329722379559
  0
LINE
  5
7C38
330
19
100
AcDbEntity
  8
1
100
AcDbLine
 10
699.6629664994339
 20
1150.641295447079
 30
0.0
 11
699.6629664994339
 21
970.3412954470795
 31
0.0
  0
LINE
  5
7C39
330
19
100
AcDbEntity
  8
1
100
AcDbLine
 10
899.6629664994339
 20
1150.641295447079
 30
0.0
 11
899.6629664994339
 21
970.3412954470795
 31
0.0
  0
ARC
  5
7C3A
330
19
100
AcDbEntity
  8
1
100
AcDbCircle
 10
785.6629664994334
 20
1204.341295447079
 30
0.0
 40
184.0
100
AcDbArc
 50
355.6363212021045
 51
89.66598835283388
  0
LINE
  5
7C3B
330
19
100
AcDbEntity
  8
1
100
AcDbLine
 10
1995.856964860705
 20
1256.427389334338
 30
0.0
 11
1995.856964860705
 21
1006.427389334338
 31
0.0
  0
LINE
  5
7C3D
330
19
100
AcDbEntity
  8
1
100
AcDbLine
 10
2023.156964860705
 20
1189.427389334338
 30
0.0
 11
2023.156964860705
 21
1006.427389334338
 31
0.0
  0
LINE
  5
7C3E
330
19
100
AcDbEntity
  8
1
100
AcDbLine
 10
2173.156964860705
 20
1190.427389334338
 30
0.0
 11
2173.156964860705
 21
1042.341295447079
 31
0.0
  0
LINE
  5
7C40
330
19
100
AcDbEntity
  8
1
100
AcDbLine
 10
1744.856964860705
 20
970.427389334338
 30
0.0
 11
1744.856964860706
 21
1070.841295447079
 31
0.0
  0
LINE
  5
7C41
330
19
100
AcDbEntity
  8
1
100
AcDbLine
 10
1678.156964860705
 20
970.4273893343382
 30
0.0
 11
2058.156964860705
 21
970.4273893343383
 31
0.0
  0
LINE
  5
7C42
330
19
100
AcDbEntity
  8
1
100
AcDbLine
 10
1678.156964860705
 20
930.4273893343381
 30
0.0
 11
2058.156964860705
 21
930.4273893343383
 31
0.0
  0
LINE
  5
7C43
330
19
100
AcDbEntity
  8
1
100
AcDbLine
 10
2015.856964860705
 20
1006.427389334338
 30
0.0
 11
2015.856964860705
 21
970.4273893343383
 31
0.0
  0
LINE
  5
7C44
330
19
100
AcDbEntity
  8
1
100
AcDbLine
 10
2023.156964860705
 20
1006.427389334338
 30
0.0
 11
1995.856964860705
 21
1006.427389334338
 31
0.0
  0
LINE
  5
7C45
330
19
100
AcDbEntity
  8
1
100
AcDbLine
 10
786.7356073728061
 20
1388.338168903007
 30
0.0
 11
614.6629664994334
 21
1389.341295447079
 31
0.0
  0
ARC
  5
7C46
330
19
100
AcDbEntity
  8
1
100
AcDbCircle
 10
808.6629664994333
 20
1181.341295447079
 30
0.0
 40
139.0
100
AcDbArc
 50
179.3640401019806
 51
270.3983550843573
  0
LINE
  5
7C47
330
19
100
AcDbEntity
  8
1
100
AcDbLine
 10
1229.514633033504
 20
1270.29726583134
 30
0.0
 11
749.5146330335042
 21
1270.29726583134
 31
0.0
  0
LINE
  5
7C4A
330
19
100
AcDbEntity
  8
1
100
AcDbLine
 10
724.6629664994339
 20
1153.84129544708
 30
0.0
 11
724.6629664994339
 21
1157.041295447079
 31
0.0
  0
LINE
  5
7C4B
330
19
100
AcDbEntity
  8
1
100
AcDbLine
 10
874.6629664994339
 20
1157.041295447079
 30
0.0
 11
874.6629664994339
 21
1153.84129544708
 31
0.0
  0
LINE
  5
7C4C
330
19
100
AcDbEntity
  8
1
100
AcDbLine
 10
707.1629664994339
 20
1256.341295447079
 30
0.0
 11
707.1629664994339
 21
1153.84129544708
 31
0.0
  0
LINE
  5
7C4D
330
19
100
AcDbEntity
  8
1
100
AcDbLine
 10
701.1629664994338
 20
1256.341295447079
 30
0.0
 11
701.1629664994338
 21
1153.84129544708
 31
0.0
  0
LINE
  5
7C4E
330
19
100
AcDbEntity
  8
1
100
AcDbLine
 10
892.1629664994339
 20
1256.341295447079
 30
0.0
 11
892.1629664994339
 21
1153.84129544708
 31
0.0
  0
LINE
  5
7C4F
330
19
100
AcDbEntity
  8
1
100
AcDbLine
 10
898.1629664994338
 20
1256.341295447079
 30
0.0
 11
898.1629664994338
 21
1153.84129544708
 31
0.0
  0
ARC
  5
7C50
330
19
100
AcDbEntity
  8
1
100
AcDbCircle
 10
810.6629664994335
 20
1201.341295447079
 30
0.0
 40
159.0
100
AcDbArc
 50
269.6275404685949
 51
315.7241782884698
  0
LINE
  5
7C52
330
19
100
AcDbEntity
  8
1
100
AcDbLine
 10
904.6629664994339
 20
1153.84129544708
 30
0.0
 11
694.6629664994339
 21
1153.84129544708
 31
0.0
  0
LINE
  5
7C53
330
19
100
AcDbEntity
  8
1
100
AcDbLine
 10
904.6629664994339
 20
1150.641295447079
 30
0.0
 11
694.6629664994339
 21
1150.641295447079
 31
0.0
  0
LINE
  5
7C54
330
19
100
AcDbEntity
  8
1
100
AcDbLine
 10
904.6629664994339
 20
1153.84129544708
 30
0.0
 11
904.6629664994339
 21
1150.64129544708
 31
0.0
  0
LINE
  5
7C55
330
19
100
AcDbEntity
  8
1
100
AcDbLine
 10
694.6629664994339
 20
1153.84129544708
 30
0.0
 11
694.6629664994339
 21
1150.64129544708
 31
0.0
  0
LINE
  5
7C56
330
19
100
AcDbEntity
  8
1
100
AcDbLine
 10
724.6629664994339
 20
1157.041295447079
 30
0.0
 11
874.6629664994339
 21
1157.041295447079
 31
0.0
  0
LINE
  5
7C57
330
19
100
AcDbEntity
  8
1
100
AcDbLine
 10
898.1629664994338
 20
1256.341295447079
 30
0.0
 11
892.1629664994339
 21
1256.341295447079
 31
0.0
  0
LINE
  5
7C58
330
19
100
AcDbEntity
  8
1
100
AcDbLine
 10
707.1629664994339
 20
1256.341295447079
 30
0.0
 11
701.1629664994338
 21
1256.341295447079
 31
0.0
  0
LINE
  5
7C59
330
19
100
AcDbEntity
  8
1
100
AcDbLine
 10
634.6629664994329
 20
1411.341261462905
 30
0.0
 11
634.6629664994334
 21
1167.341295447078
 31
0.0
  0
LINE
  5
7C5A
330
19
100
AcDbEntity
  8
1
100
AcDbLine
 10
614.6629664994329
 20
1411.341261462904
 30
0.0
 11
614.6629664994334
 21
1179.341295447079
 31
0.0
  0
LINE
  5
7C5B
330
19
100
AcDbEntity
  8
1
100
AcDbLine
 10
669.763813959959
 20
1189.341295447079
 30
0.0
 11
614.6629664994334
 21
1189.341295447079
 31
0.0
  0
ARC
  5
7C5C
330
19
100
AcDbEntity
  8
1
100
AcDbCircle
 10
793.6629664994334
 20
1184.341295447079
 30
0.0
 40
124.0
100
AcDbArc
 50
177.6890597908976
 51
180.673327819389
  0
LINE
  5
7C5D
330
19
100
AcDbEntity
  8
1
100
AcDbLine
 10
634.6629664994334
 20
1187.341295447079
 30
0.0
 11
634.6629664994334
 21
1186.341295447079
 31
0.0
  0
LINE
  5
7C5E
330
19
100
AcDbEntity
  8
1
100
AcDbLine
 10
614.6629664994334
 20
1167.341295447079
 30
0.0
 11
614.6629664994334
 21
1187.341295447079
 31
0.0
  0
LINE
  5
7C5F
330
19
100
AcDbEntity
  8
1
100
AcDbLine
 10
634.6629664994334
 20
1167.341295447079
 30
0.0
 11
614.6629664994334
 21
1167.341295447079
 31
0.0
  0
LINE
  5
7C60
330
19
100
AcDbEntity
  8
1
100
AcDbLine
 10
2173.156964860705
 20
1389.427389334338
 30
0.0
 11
2173.156964860705
 21
1189.427389334338
 31
0.0
  0
LINE
  5
7C61
330
19
100
AcDbEntity
  8
1
100
AcDbLine
 10
2023.156964860705
 20
1389.427389334338
 30
0.0
 11
2023.156964860705
 21
1189.427389334338
 31
0.0
  0
LINE
  5
7C62
330
19
100
AcDbEntity
  8
1
100
AcDbLine
 10
2196.156964860705
 20
1300.427389334338
 30
0.0
 11
2196.156964860705
 21
1080.427389334338
 31
0.0
  0
LINE
  5
7C65
330
19
100
AcDbEntity
  8
1
100
AcDbLine
 10
1740.156964860705
 20
1153.927389334338
 30
0.0
 11
1762.356964860704
 21
1153.927389334338
 31
0.0
  0
LINE
  5
7C67
330
19
100
AcDbEntity
  8
1
100
AcDbLine
 10
1726.356964860706
 20
1240.427389334338
 30
0.0
 11
1726.356964860705
 21
1145.977389334338
 31
0.0
  0
LINE
  5
7C68
330
19
100
AcDbEntity
  8
1
100
AcDbLine
 10
1688.356964860705
 20
1240.427389334338
 30
0.0
 11
1688.356964860704
 21
1145.977389334338
 31
0.0
  0
LINE
  5
7C6B
330
19
100
AcDbEntity
  8
1
100
AcDbLine
 10
1688.356964860704
 20
1145.977389334338
 30
0.0
 11
1688.356964860704
 21
1030.341295447079
 31
0.0
  0
LINE
  5
7C6C
330
19
100
AcDbEntity
  8
1
100
AcDbLine
 10
1726.356964860705
 20
1145.977389334338
 30
0.0
 11
1726.356964860705
 21
1030.341295447079
 31
0.0
  0
LINE
  5
7C70
330
19
100
AcDbEntity
  8
1
100
AcDbLine
 10
1665.156964860704
 20
1270.433354420457
 30
0.0
 11
1740.156964860705
 21
1270.433354420457
 31
0.0
  0
LINE
  5
7C71
330
19
100
AcDbEntity
  8
1
100
AcDbLine
 10
1726.356964860705
 20
1180.927389334337
 30
0.0
 11
1736.356964860705
 21
1180.927389334337
 31
0.0
  0
LINE
  5
7C72
330
19
100
AcDbEntity
  8
1
100
AcDbLine
 10
1736.356964860705
 20
1180.427389334338
 30
0.0
 11
1763.056964860705
 21
1180.427389334338
 31
0.0
  0
LINE
  5
7C73
330
19
100
AcDbEntity
  8
1
100
AcDbLine
 10
1995.856964860705
 20
1180.427389334338
 30
0.0
 11
1736.356964860705
 21
1180.427389334338
 31
0.0
  0
LINE
  5
7C74
330
19
100
AcDbEntity
  8
1
100
AcDbLine
 10
1726.356964860705
 20
1199.927389334338
 30
0.0
 11
1736.356964860705
 21
1199.927389334338
 31
0.0
  0
LINE
  5
7C76
330
19
100
AcDbEntity
  8
1
100
AcDbLine
 10
2176.156964860705
 20
1080.427389334338
 30
0.0
 11
2196.156964860705
 21
1080.427389334338
 31
0.0
  0
LINE
  5
7C77
330
19
100
AcDbEntity
  8
1
100
AcDbLine
 10
2196.156964860705
 20
1080.427389334338
 30
0.0
 11
2196.156964860705
 21
1079.427389334338
 31
0.0
  0
ARC
  5
7C78
330
19
100
AcDbEntity
  8
1
100
AcDbCircle
 10
2194.156964860705
 20
1079.427389334338
 30
0.0
 40
2.0
100
AcDbArc
 50
270.0
 51
0.0
  0
LINE
  5
7C79
330
19
100
AcDbEntity
  8
1
100
AcDbLine
 10
2194.156964860705
 20
1077.427389334338
 30
0.0
 11
2183.156964860705
 21
1077.427389334338
 31
0.0
  0
ARC
  5
7C7A
330
19
100
AcDbEntity
  8
1
100
AcDbCircle
 10
2183.156964860705
 20
1073.427389334338
 30
0.0
 40
4.0
100
AcDbArc
 50
90.0
 51
180.0
  0
LINE
  5
7C7B
330
19
100
AcDbEntity
  8
1
100
AcDbLine
 10
2179.156964860705
 20
1073.427389334338
 30
0.0
 11
2179.156964860705
 21
1062.427389334338
 31
0.0
  0
ARC
  5
7C7C
330
19
100
AcDbEntity
  8
1
100
AcDbCircle
 10
2177.156964860705
 20
1062.427389334338
 30
0.0
 40
2.0
100
AcDbArc
 50
270.0
 51
0.0
  0
LINE
  5
7C7D
330
19
100
AcDbEntity
  8
1
100
AcDbLine
 10
2177.156964860705
 20
1060.427389334338
 30
0.0
 11
2176.156964860705
 21
1060.427389334338
 31
0.0
  0
LINE
  5
7C7E
330
19
100
AcDbEntity
  8
1
100
AcDbLine
 10
2176.156964860705
 20
1060.427389334338
 30
0.0
 11
2176.156964860705
 21
1300.427389334338
 31
0.0
  0
LINE
  5
7C7F
330
19
100
AcDbEntity
  8
1
100
AcDbLine
 10
2173.156964860705
 20
1060.427389334338
 30
0.0
 11
2176.156964860706
 21
1060.427389334338
 31
0.0
  0
LINE
  5
7C82
330
19
100
AcDbEntity
  8
1
100
AcDbLine
 10
1995.856964860705
 20
1256.427389334338
 30
0.0
 11
2023.156964860705
 21
1256.427389334338
 31
0.0
  0
LINE
  5
7C83
330
19
100
AcDbEntity
  8
1
100
AcDbLine
 10
2173.156964860704
 20
1169.427389334338
 30
0.0
 11
2173.156964860705
 21
1167.427389334338
 31
0.0
  0
LINE
  5
7C84
330
19
100
AcDbEntity
  8
1
100
AcDbLine
 10
2175.156964860705
 20
1189.427389334338
 30
0.0
 11
2175.156964860704
 21
1190.427389334338
 31
0.0
  0
LINE
  5
7C87
330
19
100
AcDbEntity
  8
1
100
AcDbLine
 10
2194.156964860705
 20
1303.427389334338
 30
0.0
 11
2193.156964860705
 21
1303.427389334338
 31
0.0
  0
ARC
  5
7C88
330
19
100
AcDbEntity
  8
1
100
AcDbCircle
 10
2194.156964860705
 20
1301.427389334338
 30
0.0
 40
2.0
100
AcDbArc
 50
0.0
 51
90.0
  0
LINE
  5
7C89
330
19
100
AcDbEntity
  8
1
100
AcDbLine
 10
2196.156964860705
 20
1300.427389334338
 30
0.0
 11
2196.156964860705
 21
1301.427389334338
 31
0.0
  0
LINE
  5
7C8A
330
19
100
AcDbEntity
  8
1
100
AcDbLine
 10
2193.156964860705
 20
1300.427389334338
 30
0.0
 11
2196.156964860705
 21
1300.427389334338
 31
0.0
  0
LINE
  5
7C8C
330
19
100
AcDbEntity
  8
1
100
AcDbLine
 10
624.6629664994339
 20
930.3412954470791
 30
0.0
 11
1244.662966499433
 21
930.3412954470791
 31
0.0
  0
LINE
  5
7C8D
330
19
100
AcDbEntity
  8
1
100
AcDbLine
 10
614.6629664994329
 20
1411.341261462905
 30
0.0
 11
634.6629664994329
 21
1411.341261462905
 31
0.0
  0
DIMENSION
  5
7C8E
330
19
100
AcDbEntity
  8
3
100
AcDbDimension
280
     0
  2
*D2
 10
568.2047366100441
 20
1389.341295447079
 30
0.0
 11
538.2047366100441
 21
1289.341295447079
 31
0.0
 70
    32
 71
     5
 42
-1.0
 73
     0
 74
     0
 75
     0
  3
IGA
100
AcDbAlignedDimension
 13
614.6629664994334
 23
1189.341295447079
 33
0.0
 14
614.6629664994334
 24
1389.341295447079
 34
0.0
 50
90.0
100
AcDbRotatedDimension
1001
ACAD
1000
DSTYLE
1002
{
1070
    40
1040
12.0
1070
   143
1040
0.039
1070
   172
1070
     1
1070
   271
1070
     0
1070
   279
1070
     0
1070
   288
1070
     1
1002
}
  0
DIMENSION
  5
7C8F
330
19
100
AcDbEntity
  8
3
100
AcDbDimension
280
     0
  2
*D3
 10
505.0949063411945
 20
1389.341295447079
 30
0.0
 11
475.0949063411944
 21
1289.841295447079
 31
0.0
 70
    32
 71
     5
 42
-1.0
 73
     0
 74
     0
 75
     0
  3
IGA
100
AcDbAlignedDimension
 13
614.2985643752631
 23
1190.341295447078
 33
0.0
 14
614.6629664994334
 24
1389.341295447079
 34
0.0
 50
90.0
100
AcDbRotatedDimension
1001
ACAD
1000
DSTYLE
1002
{
1070
    40
1040
12.0
1070
   143
1040
0.039
1070
   172
1070
     1
1070
   271
1070
     0
1070
   279
1070
     0
1070
   288
1070
     1
1002
}
  0
DIMENSION
  5
7C92
330
19
100
AcDbEntity
  8
3
100
AcDbDimension
280
     0
  2
*D4
 10
505.0949063411945
 20
930.3412954470791
 30
0.0
 11
475.0949063411944
 21
1060.341295447079
 31
0.0
 70
    32
 71
     5
 42
-1.0
 73
     0
 74
     0
 75
     0
  3
IGA
100
AcDbAlignedDimension
 13
614.2985643752631
 23
1190.341295447078
 33
0.0
 14
624.6629664994339
 24
930.3412954470791
 34
0.0
 50
270.0
100
AcDbRotatedDimension
1001
ACAD
1000
DSTYLE
1002
{
1070
    40
1040
12.0
1070
   143
1040
0.039
1070
   172
1070
     1
1070
   271
1070
     0
1070
   279
1070
     0
1070
   288
1070
     1
1002
}
  0
DIMENSION
  5
7C95
330
19
100
AcDbEntity
  8
3
100
AcDbDimension
280
     0
  2
*D5
 10
799.6629664994334
 20
1475.58323183922
 30
0.0
 11
707.1629664994332
 21
1505.58323183922
 31
0.0
 70
    32
 71
     5
 42
-1.0
 73
     0
 74
     0
 75
     0
  3
IGA
100
AcDbAlignedDimension
 13
614.6629664994329
 23
1411.341261462905
 33
0.0
 14
799.6629664994334
 24
1428.531969785606
 34
0.0
100
AcDbRotatedDimension
1001
ACAD
1000
DSTYLE
1002
{
1070
    40
1040
12.0
1070
   143
1040
0.039
1070
   172
1070
     1
1070
   271
1070
     0
1070
   279
1070
     0
1070
   288
1070
     1
1002
}
  0
LINE
  5
7C96
330
19
100
AcDbEntity
  8
1
100
AcDbLine
 10
2058.156964860705
 20
930.4273893343383
 30
0.0
 11
2058.156964860706
 21
970.4273893343383
 31
0.0
  0
LINE
  5
7C97
330
19
100
AcDbEntity
  8
1
100
AcDbLine
 10
1678.156964860705
 20
930.4273893343381
 30
0.0
 11
1678.156964860705
 21
970.427389334338
 31
0.0
  0
LINE
  5
7C98
330
19
100
AcDbEntity
  8
1
100
AcDbLine
 10
2023.156964860705
 20
1389.427389334338
 30
0.0
 11
2173.156964860705
 21
1389.427389334338
 31
0.0
  0
LINE
  5
7C9A
330
19
100
AcDbEntity
  8
1
100
AcDbLine
 10
2023.156964860705
 20
1042.341295447079
 30
0.0
 11
2173.156964860704
 21
1042.341295447079
 31
0.0
  0
LINE
  5
7C9B
330
19
100
AcDbEntity
  8
1
100
AcDbLine
 10
1995.856964860705
 20
1200.427389334338
 30
0.0
 11
1736.356964860705
 21
1200.427389334338
 31
0.0
  0
LINE
  5
7C9C
330
19
100
AcDbEntity
  8
1
100
AcDbLine
 10
1736.356964860705
 20
1200.427389334338
 30
0.0
 11
1736.356964860705
 21
1199.927389334338
 31
0.0
  0
LINE
  5
7C9D
330
19
100
AcDbEntity
  8
1
100
AcDbLine
 10
1736.356964860705
 20
1180.927389334337
 30
0.0
 11
1736.356964860705
 21
1180.427389334338
 31
0.0
  0
LINE
  5
7C9E
330
19
100
AcDbEntity
  8
1
100
AcDbLine
 10
1740.156964860705
 20
970.4273893343382
 30
0.0
 11
1665.156964860704
 21
970.4273893343382
 31
0.0
  0
LINE
  5
7C9F
330
19
100
AcDbEntity
  8
1
100
AcDbLine
 10
2003.156964860705
 20
1409.427389334338
 30
0.0
 11
2193.156964860705
 21
1409.427389334338
 31
0.0
  0
LINE
  5
7CA0
330
19
100
AcDbEntity
  8
1
100
AcDbLine
 10
2003.156964860705
 20
1409.427389334338
 30
0.0
 11
2003.156964860705
 21
1256.427389334338
 31
0.0
  0
LINE
  5
7CA1
330
19
100
AcDbEntity
  8
1
100
AcDbLine
 10
2193.156964860705
 20
1409.427389334338
 30
0.0
 11
2193.156964860705
 21
1303.427389334338
 31
0.0
  0
LINE
  5
7CA3
330
19
100
AcDbEntity
  8
2
100
AcDbLine
 10
1658.53171995987
 20
1080.341295447079
 30
0.0
 11
2008.130660763796
 21
1080.341295447079
 31
0.0
  0
DIMENSION
  5
7CA4
330
19
100
AcDbEntity
  8
3
100
AcDbDimension
280
     0
  2
*D6
 10
1244.662966499433
 20
1553.922323389792
 30
0.0
 11
929.6629664994332
 21
1583.922323389792
 31
0.0
 70
    32
 71
     5
 42
-1.0
 73
     0
 74
     0
 75
     0
  3
IGA
100
AcDbAlignedDimension
 13
614.6629664994329
 23
1416.341261462904
 33
0.0
 14
1244.662966499433
 24
970.341295447079
 34
0.0
100
AcDbRotatedDimension
1001
ACAD
1000
DSTYLE
1002
{
1070
    40
1040
12.0
1070
   143
1040
0.039
1070
   172
1070
     1
1070
   271
1070
     0
1070
   279
1070
     0
1070
   288
1070
     1
1002
}
  0
LINE
  5
7CA5
330
19
100
AcDbEntity
  8
1
100
AcDbLine
 10
614.6629664994338
 20
2476.590547353314
 30
0.0
 11
614.6629664994334
 21
2286.590547353314
 31
0.0
  0
DIMENSION
  5
7CA6
330
19
100
AcDbEntity
  8
3
100
AcDbDimension
280
     0
  2
*D7
 10
969.6629664994334
 20
1475.58323183922
 30
0.0
 11
884.6629664994335
 21
1505.58323183922
 31
0.0
 70
    32
 71
     5
 42
-1.0
 73
     0
 74
     0
 75
     0
  3
IGA
100
AcDbAlignedDimension
 13
799.6629664994334
 23
1428.531969785606
 33
0.0
 14
969.6629664994334
 24
1204.341295447079
 34
0.0
100
AcDbRotatedDimension
1001
ACAD
1000
DSTYLE
1002
{
1070
    40
1040
12.0
1070
   143
1040
0.039
1070
   172
1070
     1
1070
   271
1070
     0
1070
   279
1070
     0
1070
   288
1070
     1
1002
}
  0
LINE
  5
7CA7
330
19
100
AcDbEntity
  8
1
100
AcDbLine
 10
969.6629664994334
 20
2456.590547353314
 30
0.0
 11
969.6629664994334
 21
2306.590547353314
 31
0.0
  0
LINE
  5
7CA8
330
19
100
AcDbEntity
  8
2
100
AcDbLine
 10
591.0990816646686
 20
2381.590547353314
 30
0.0
 11
1047.083088716045
 21
2381.590547353314
 31
0.0
  0
LINE
  5
7CA9
330
19
100
AcDbEntity
  8
1
100
AcDbLine
 10
634.6629664994334
 20
2456.590547353314
 30
0.0
 11
969.6629664994334
 21
2456.590547353314
 31
0.0
  0
LINE
  5
7CAA
330
19
100
AcDbEntity
  8
1
100
AcDbLine
 10
634.6629664994334
 20
2306.590547353314
 30
0.0
 11
969.6629664994334
 21
2306.590547353314
 31
0.0
  0
LINE
  5
7CAB
330
19
100
AcDbEntity
  8
1
100
AcDbLine
 10
614.6629664994338
 20
2476.590547353314
 30
0.0
 11
634.6629664994334
 21
2476.590547353314
 31
0.0
  0
LINE
  5
7CAC
330
19
100
AcDbEntity
  8
1
100
AcDbLine
 10
614.6629664994338
 20
2286.590547353314
 30
0.0
 11
634.6629664994334
 21
2286.590547353314
 31
0.0
  0
LINE
  5
7CAD
330
19
100
AcDbEntity
  8
1
100
AcDbLine
 10
634.6629664994338
 20
2476.590547353314
 30
0.0
 11
634.6629664994334
 21
2286.590547353314
 31
0.0
  0
LINE
  5
7CAE
330
19
100
AcDbEntity
  8
1
100
AcDbLine
 10
624.6629664994339
 20
2286.590547353314
 30
0.0
 11
624.6629664994339
 21
1961.590547353314
 31
0.0
  0
LINE
  5
7CAF
330
19
100
AcDbEntity
  8
1
100
AcDbLine
 10
664.6629664994334
 20
2306.590547353314
 30
0.0
 11
664.6629664994343
 21
1961.590547353314
 31
0.0
  0
LINE
  5
7CB0
330
19
100
AcDbEntity
  8
2
100
AcDbLine
 10
799.6629664994334
 20
1963.513158726052
 30
0.0
 11
799.6629664994334
 21
2489.058252945894
 31
0.0
  0
LINE
  5
7CB1
330
19
100
AcDbEntity
  8
1
100
AcDbLine
 10
719.6570014133149
 20
1948.590547353313
 30
0.0
 11
719.6570014133149
 21
2023.590547353313
 31
0.0
  0
LINE
  5
7CB2
330
19
100
AcDbEntity
  8
1
100
AcDbLine
 10
719.6570014133149
 20
1948.590547353313
 30
0.0
 11
1229.514633033504
 21
1948.590547353313
 31
0.0
  0
LINE
  5
7CB3
330
19
100
AcDbEntity
  8
1
100
AcDbLine
 10
844.1129664994331
 20
1971.790547353313
 30
0.0
 11
1179.662966499434
 21
1971.79054735331
 31
0.0
  0
LINE
  5
7CB4
330
19
100
AcDbEntity
  8
1
100
AcDbLine
 10
844.1129664994331
 20
2009.790547353314
 30
0.0
 11
1179.662966499434
 21
2009.790547353313
 31
0.0
  0
LINE
  5
7CB5
330
19
100
AcDbEntity
  8
1
100
AcDbLine
 10
719.6570014133149
 20
2023.590547353313
 30
0.0
 11
1229.514633033504
 21
2023.590547353313
 31
0.0
  0
LINE
  5
7CB7
330
19
100
AcDbEntity
  8
1
100
AcDbLine
 10
809.6629664994335
 20
2306.590547353314
 30
0.0
 11
809.6629664994335
 21
2019.790547353314
 31
0.0
  0
LINE
  5
7CB8
330
19
100
AcDbEntity
  8
1
100
AcDbLine
 10
789.6629664994334
 20
2306.590547353314
 30
0.0
 11
789.6629664994334
 21
2019.790547353314
 31
0.0
  0
LINE
  5
7CB9
330
19
100
AcDbEntity
  8
1
100
AcDbLine
 10
749.6629664994334
 20
1971.790547353314
 30
0.0
 11
844.1129664994331
 21
1971.790547353313
 31
0.0
  0
LINE
  5
7CBA
330
19
100
AcDbEntity
  8
1
100
AcDbLine
 10
749.6629664994334
 20
2009.790547353314
 30
0.0
 11
844.1129664994331
 21
2009.790547353314
 31
0.0
  0
LINE
  5
7CBB
330
19
100
AcDbEntity
  8
1
100
AcDbLine
 10
836.1629664994334
 20
2023.590547353314
 30
0.0
 11
743.1629664994334
 21
2023.590547353314
 31
0.0
  0
LINE
  5
7CBD
330
19
100
AcDbEntity
  8
1
100
AcDbLine
 10
790.1629664994334
 20
2009.790547353314
 30
0.0
 11
790.1629664994334
 21
2019.790547353314
 31
0.0
  0
LINE
  5
7CBE
330
19
100
AcDbEntity
  8
1
100
AcDbLine
 10
809.1629664994334
 20
2009.790547353314
 30
0.0
 11
809.1629664994334
 21
2019.790547353314
 31
0.0
  0
LINE
  5
7CC0
330
19
100
AcDbEntity
  8
1
100
AcDbLine
 10
1229.514633033504
 20
2023.590547353313
 30
0.0
 11
1229.514633033504
 21
1948.590547353313
 31
0.0
  0
LINE
  5
7CC2
330
19
100
AcDbEntity
  8
1
100
AcDbLine
 10
1204.662966499433
 20
2045.790547353313
 30
0.0
 11
1204.662966499433
 21
1961.590547353314
 31
0.0
  0
LINE
  5
7CC3
330
19
100
AcDbEntity
  8
1
100
AcDbLine
 10
699.6629664994334
 20
2028.668151440951
 30
0.0
 11
699.6629664994334
 21
2306.590547353314
 31
0.0
  0
LINE
  5
7CC4
330
19
100
AcDbEntity
  8
1
100
AcDbLine
 10
899.6629664994342
 20
2028.668151440951
 30
0.0
 11
899.6629664994342
 21
2306.590547353314
 31
0.0
  0
LINE
  5
7CC5
330
19
100
AcDbEntity
  8
1
100
AcDbLine
 10
699.6629664994339
 20
2028.668151440951
 30
0.0
 11
789.6629664994334
 21
2028.668151440951
 31
0.0
  0
LINE
  5
7CC7
330
19
100
AcDbEntity
  8
1
100
AcDbLine
 10
809.6629664994335
 20
2028.668151440951
 30
0.0
 11
899.6629664994333
 21
2028.668151440951
 31
0.0
  0
DIMENSION
  5
7CC8
330
19
100
AcDbEntity
  8
3
100
AcDbDimension
280
     0
  2
*D8
 10
2098.156964860706
 20
1522.398014837211
 30
0.0
 11
2137.156964860706
 21
1570.398014837211
 31
0.0
 70
    32
  1
79
 71
     5
 42
-1.0
 73
     0
 74
     0
 75
     0
  3
IGA
100
AcDbAlignedDimension
 13
2176.156964860706
 23
1320.427389334338
 33
0.0
 14
2098.156964860706
 24
1491.032998348144
 34
0.0
100
AcDbRotatedDimension
1001
ACAD
1000
DSTYLE
1002
{
1070
   288
1070
     1
1070
   172
1070
     1
1070
    40
1040
12.0
1070
   271
1070
     0
1070
   143
1040
0.039
1002
}
  0
DIMENSION
  5
7CC9
330
19
100
AcDbEntity
  8
3
100
AcDbDimension
280
     0
  2
*D9
 10
1665.156964860704
 20
1522.398014837211
 30
0.0
 11
1881.656964860705
 21
1591.826586265783
 31
0.0
 70
    32
  1
\P(520)
 71
     5
 42
433.0000000000008
 73
     0
 74
     0
 75
     0
  3
IGA
100
AcDbAlignedDimension
 13
2098.156964860706
 23
1491.032998348144
 33
0.0
 14
1665.156964860704
 24
1270.433354420457
 34
0.0
100
AcDbRotatedDimension
1001
ACAD
1000
DSTYLE
1002
{
1070
    40
1040
12.0
1070
   143
1040
0.039
1070
   172
1070
     1
1070
   271
1070
     0
1070
   279
1070
     0
1070
   288
1070
     1
1002
}
  0
DIMENSION
  5
7CCA
330
19
100
AcDbEntity
  8
3
100
AcDbDimension
280
     0
  2
*D10
 10
2173.156964860705
 20
1447.322289620244
 30
0.0
 11
2098.156964860705
 21
1473.270656444202
 31
0.0
 70
   160
 71
     5
 42
-1.0
 73
     0
 74
     0
 75
     0
  3
IGA
100
AcDbAlignedDimension
 13
2023.156964860705
 23
1389.427389334338
 33
0.0
 14
2173.156964860705
 24
1389.427389334338
 34
0.0
100
AcDbRotatedDimension
1001
ACAD
1000
DSTYLE
1002
{
1070
   288
1070
     1
1070
   172
1070
     1
1070
    40
1040
12.0
1070
   271
1070
     0
1070
   143
1040
0.039
1002
}
  0
DIMENSION
  5
7CCB
330
19
100
AcDbEntity
  8
3
100
AcDbDimension
280
     0
  2
*D11
 10
2277.174004724544
 20
1080.427389334338
 30
0.0
 11
2247.174004724544
 21
1190.427389334338
 31
0.0
 70
    32
 71
     5
 42
-1.0
 73
     0
 74
     0
 75
     0
  3
IGA
100
AcDbAlignedDimension
 13
2196.156964860705
 23
1300.427389334338
 33
0.0
 14
2196.156964860705
 24
1080.427389334338
 34
0.0
 50
90.0
100
AcDbRotatedDimension
1001
ACAD
1000
DSTYLE
1002
{
1070
     3
1000
φ<>
1070
    40
1040
12.0
1070
   143
1040
0.039
1070
   172
1070
     1
1070
   271
1070
     0
1070
   279
1070
     0
1070
   288
1070
     1
1002
}
  0
LINE
  5
7CD2
330
19
100
AcDbEntity
  8
1
100
AcDbLine
 10
1980.356964860704
 20
1155.141283447079
 30
0.0
 11
1980.356964860704
 21
1002.341295447079
 31
0.0
  0
LINE
  5
7CD3
330
19
100
AcDbEntity
  8
1
100
AcDbLine
 10
1762.356964860704
 20
1002.341295447079
 30
0.0
 11
1762.356964860704
 21
1155.141283447079
 31
0.0
  0
LINE
  5
7CD4
330
19
100
AcDbEntity
  8
1
100
AcDbLine
 10
1752.356964860704
 20
1046.841295447079
 30
0.0
 11
1752.356964860704
 21
1113.841295447079
 31
0.0
  0
LINE
  5
7CD5
330
19
100
AcDbEntity
  8
1
100
AcDbLine
 10
1762.356964860703
 20
1002.341295447079
 30
0.0
 11
1980.356964860704
 21
1002.341295447079
 31
0.0
  0
LINE
  5
7CD6
330
19
100
AcDbEntity
  8
1
100
AcDbLine
 10
1907.356964860704
 20
1002.341295447079
 30
0.0
 11
1907.356964860704
 21
970.4273893343382
 31
0.0
  0
LINE
  5
7CD7
330
19
100
AcDbEntity
  8
1
100
AcDbLine
 10
1787.356964860704
 20
1002.341295447079
 30
0.0
 11
1787.356964860704
 21
970.4273893343382
 31
0.0
  0
LINE
  5
7CD8
330
19
100
AcDbEntity
  8
1
100
AcDbLine
 10
1762.356964860704
 20
1041.657091447079
 30
0.0
 11
1762.356964860704
 21
1050.657091447079
 31
0.0
  0
LINE
  5
7CD9
330
19
100
AcDbEntity
  8
1
100
AcDbLine
 10
1762.356964860704
 20
1052.591356447079
 30
0.0
 11
1762.356964860704
 21
1040.327422447079
 31
0.0
  0
LINE
  5
7CDA
330
19
100
AcDbEntity
  8
1
100
AcDbLine
 10
1762.356964860704
 20
1050.406298447079
 30
0.0
 11
1762.356964860704
 21
1041.776293447079
 31
0.0
  0
LINE
  5
7CDB
330
19
100
AcDbEntity
  8
1
100
AcDbLine
 10
1762.356964860704
 20
1046.841295447079
 30
0.0
 11
1752.356964860704
 21
1046.841295447079
 31
0.0
  0
LINE
  5
7CDC
330
19
100
AcDbEntity
  8
1
100
AcDbLine
 10
1980.356964860704
 20
1155.141283447079
 30
0.0
 11
1762.356964860704
 21
1155.141283447079
 31
0.0
  0
LINE
  5
7CDD
330
19
100
AcDbEntity
  8
1
100
AcDbLine
 10
1726.356964860705
 20
1070.841295447079
 30
0.0
 11
1747.356964860704
 21
1070.841295447079
 31
0.0
  0
LINE
  5
7CDE
330
19
100
AcDbEntity
  8
1
100
AcDbLine
 10
1747.356964860704
 20
1089.841295447079
 30
0.0
 11
1726.356964860705
 21
1089.841295447079
 31
0.0
  0
LINE
  5
7CDF
330
19
100
AcDbEntity
  8
1
100
AcDbLine
 10
1747.356964860704
 20
1069.841295447079
 30
0.0
 11
1747.356964860704
 21
1090.841295447079
 31
0.0
  0
LINE
  5
7CE0
330
19
100
AcDbEntity
  8
1
100
AcDbLine
 10
1747.356964860704
 20
1069.841295447079
 30
0.0
 11
1752.356964860704
 21
1069.841295447079
 31
0.0
  0
LINE
  5
7CE1
330
19
100
AcDbEntity
  8
1
100
AcDbLine
 10
1747.356964860704
 20
1090.841295447079
 30
0.0
 11
1752.356964860704
 21
1090.841295447079
 31
0.0
  0
LINE
  5
7CE2
330
19
100
AcDbEntity
  8
1
100
AcDbLine
 10
1752.356964860704
 20
1113.841295447079
 30
0.0
 11
1762.356964860704
 21
1113.841295447079
 31
0.0
  0
LINE
  5
7CE3
330
19
100
AcDbEntity
  8
1
100
AcDbLine
 10
1762.356964860704
 20
1144.407091447079
 30
0.0
 11
1762.356964860704
 21
1153.407091447079
 31
0.0
  0
LINE
  5
7CE4
330
19
100
AcDbEntity
  8
1
100
AcDbLine
 10
1762.356964860704
 20
1153.156298447079
 30
0.0
 11
1762.356964860704
 21
1144.526293447079
 31
0.0
  0
ARC
  5
7CE5
330
19
100
AcDbEntity
  8
1
100
AcDbCircle
 10
1129.662966499434
 20
1080.341295447079
 30
0.0
 40
85.0
100
AcDbArc
 50
295.875534
 51
180.0
  0
LINE
  5
7CE6
330
19
100
AcDbEntity
  8
2
100
AcDbLine
 10
1129.662966499434
 20
1176.628946985411
 30
0.0
 11
1129.662966499434
 21
925.4023633832208
 31
0.0
  0
ARC
  5
7CE7
330
19
100
AcDbEntity
  8
1
100
AcDbCircle
 10
1129.662966499434
 20
1080.341295447079
 30
0.0
 40
85.0
100
AcDbArc
 50
295.875534
 51
180.0
  0
LINE
  5
7CE8
330
19
100
AcDbEntity
  8
1
100
AcDbLine
 10
1237.162966499434
 20
970.3412954470786
 30
0.0
 11
1022.162966499434
 21
970.341295447079
 31
0.0
  0
LINE
  5
7CE9
330
19
100
AcDbEntity
  8
1
100
AcDbLine
 10
1232.162966499434
 20
1000.341295447079
 30
0.0
 11
1027.162966499434
 21
1000.341295447079
 31
0.0
  0
LINE
  5
7CEA
330
19
100
AcDbEntity
  8
2
100
AcDbLine
 10
1216.453707499433
 20
1080.341295447079
 30
0.0
 11
1036.107089499434
 21
1080.341295447079
 31
0.0
  0
LINE
  5
7CEB
330
19
100
AcDbEntity
  8
1
100
AcDbLine
 10
1211.437564065198
 20
1000.341295447079
 30
0.0
 11
1191.986134499434
 21
1022.522791447079
 31
0.0
  0
LINE
  5
7CEC
330
19
100
AcDbEntity
  8
1
100
AcDbLine
 10
1232.162966499434
 20
1000.341295447079
 30
0.0
 11
1237.162966499434
 21
970.3412954470786
 31
0.0
  0
LINE
  5
7CED
330
19
100
AcDbEntity
  8
1
100
AcDbLine
 10
1207.162966499434
 20
1000.341295447079
 30
0.0
 11
1172.162966499434
 21
1000.341295447079
 31
0.0
  0
ARC
  5
7CEE
330
19
100
AcDbEntity
  8
1
100
AcDbCircle
 10
1129.662966499434
 20
1080.341295447079
 30
0.0
 40
85.000008
100
AcDbArc
 50
180.0
 51
244.082274
  0
LINE
  5
7CEF
330
19
100
AcDbEntity
  8
1
100
AcDbLine
 10
1047.88845782484
 20
1000.341295447079
 30
0.0
 11
1067.341658499434
 21
1022.524933447079
 31
0.0
  0
LINE
  5
7CF0
330
19
100
AcDbEntity
  8
1
100
AcDbLine
 10
1166.758465499434
 20
1003.890367447079
 30
0.0
 11
1092.511157499434
 21
1003.890367447079
 31
0.0
  0
LINE
  5
7CF1
330
19
100
AcDbEntity
  8
1
100
AcDbLine
 10
1052.162966499434
 20
1000.341295447079
 30
0.0
 11
1087.162966499434
 21
1000.341295447079
 31
0.0
  0
LINE
  5
7CF2
330
19
100
AcDbEntity
  8
1
100
AcDbLine
 10
1027.162966499434
 20
1000.341295447079
 30
0.0
 11
1022.162966499434
 21
970.341295447079
 31
0.0
  0
LINE
  5
7CF3
330
19
100
AcDbEntity
  8
1
100
AcDbLine
 10
1054.862978499434
 20
2263.790547353313
 30
0.0
 11
1054.862978499434
 21
2045.790547353313
 31
0.0
  0
LINE
  5
7CF4
330
19
100
AcDbEntity
  8
1
100
AcDbLine
 10
1207.662966499434
 20
2045.790547353312
 30
0.0
 11
1207.662966499434
 21
2263.790547353313
 31
0.0
  0
LINE
  5
7CF5
330
19
100
AcDbEntity
  8
2
100
AcDbLine
 10
1129.662966499434
 20
2269.464192353312
 30
0.0
 11
1129.662966499434
 21
1962.498065268152
 31
0.0
  0
LINE
  5
7CF6
330
19
100
AcDbEntity
  8
1
100
AcDbLine
 10
1054.862978499434
 20
2263.790547353313
 30
0.0
 11
1207.662966499434
 21
2263.790547353313
 31
0.0
  0
LINE
  5
7CF7
330
19
100
AcDbEntity
  8
1
100
AcDbLine
 10
1163.162966499434
 20
2035.790547353312
 30
0.0
 11
1096.162966499434
 21
2035.790547353312
 31
0.0
  0
LINE
  5
7CF8
330
19
100
AcDbEntity
  8
1
100
AcDbLine
 10
1207.662966499434
 20
2045.790547353313
 30
0.0
 11
1054.862978499434
 21
2045.790547353313
 31
0.0
  0
LINE
  5
7CF9
330
19
100
AcDbEntity
  8
1
100
AcDbLine
 10
1119.162966499434
 20
2030.790547353312
 30
0.0
 11
1119.162966499434
 21
2035.790547353312
 31
0.0
  0
LINE
  5
7CFA
330
19
100
AcDbEntity
  8
1
100
AcDbLine
 10
1140.162966499434
 20
2030.790547353312
 30
0.0
 11
1140.162966499434
 21
2035.790547353312
 31
0.0
  0
LINE
  5
7CFB
330
19
100
AcDbEntity
  8
1
100
AcDbLine
 10
1163.162966499434
 20
2045.790547353313
 30
0.0
 11
1163.162966499434
 21
2035.790547353312
 31
0.0
  0
LINE
  5
7CFC
330
19
100
AcDbEntity
  8
1
100
AcDbLine
 10
1159.597963499434
 20
2045.790547353313
 30
0.0
 11
1168.227968499434
 21
2045.790547353313
 31
0.0
  0
LINE
  5
7CFD
330
19
100
AcDbEntity
  8
1
100
AcDbLine
 10
1157.412905499434
 20
2045.790547353313
 30
0.0
 11
1169.676839499434
 21
2045.790547353313
 31
0.0
  0
LINE
  5
7CFE
330
19
100
AcDbEntity
  8
1
100
AcDbLine
 10
1168.347170499434
 20
2045.790547353313
 30
0.0
 11
1159.347170499434
 21
2045.790547353313
 31
0.0
  0
LINE
  5
7CFF
330
19
100
AcDbEntity
  8
1
100
AcDbLine
 10
1120.162966499434
 20
2030.790547353312
 30
0.0
 11
1120.162966499434
 21
2023.590547353313
 31
0.0
  0
LINE
  5
7D00
330
19
100
AcDbEntity
  8
1
100
AcDbLine
 10
1139.162966499433
 20
2023.590547353313
 30
0.0
 11
1139.162966499434
 21
2030.790547353312
 31
0.0
  0
LINE
  5
7D01
330
19
100
AcDbEntity
  8
1
100
AcDbLine
 10
1140.162966499434
 20
2030.790547353312
 30
0.0
 11
1119.162966499434
 21
2030.790547353312
 31
0.0
  0
LINE
  5
7D02
330
19
100
AcDbEntity
  8
1
100
AcDbLine
 10
1096.162966499434
 20
2035.790547353312
 30
0.0
 11
1096.162966499434
 21
2045.790547353313
 31
0.0
  0
LINE
  5
7D03
330
19
100
AcDbEntity
  8
1
100
AcDbLine
 10
1056.847963499434
 20
2045.790547353313
 30
0.0
 11
1065.477968499434
 21
2045.790547353313
 31
0.0
  0
LINE
  5
7D04
330
19
100
AcDbEntity
  8
1
100
AcDbLine
 10
1065.597170499434
 20
2045.790547353313
 30
0.0
 11
1056.597170499434
 21
2045.790547353313
 31
0.0
  0
ARC
  5
7D05
330
19
100
AcDbEntity
  8
1
100
AcDbCircle
 10
1061.088671499433
 20
2044.790547353312
 30
0.0
 40
2.0
100
AcDbArc
 50
150.0
 51
168.8609599999999
  0
LINE
  5
7D06
330
19
100
AcDbEntity
  8
1
100
AcDbLine
 10
1744.856964860706
 20
1089.841295447079
 30
0.0
 11
1744.856964860705
 21
1153.927389334338
 31
0.0
  0
LINE
  5
7D07
330
19
100
AcDbEntity
  8
1
100
AcDbLine
 10
1980.356964860704
 20
1153.927389334338
 30
0.0
 11
1995.856964860705
 21
1153.927389334338
 31
0.0
  0
LINE
  5
7D08
330
19
100
AcDbEntity
  8
1
100
AcDbLine
 10
2176.156964860705
 20
1320.427389334338
 30
0.0
 11
2176.156964860705
 21
1300.427389334338
 31
0.0
  0
LINE
  5
7D09
330
19
100
AcDbEntity
  8
1
100
AcDbLine
 10
2179.156964860705
 20
1307.427389334338
 30
0.0
 11
2179.156964860705
 21
1318.427389334338
 31
0.0
  0
LINE
  5
7D0A
330
19
100
AcDbEntity
  8
1
100
AcDbLine
 10
2173.156964860705
 20
1320.427389334337
 30
0.0
 11
2176.156964860706
 21
1320.427389334338
 31
0.0
  0
LINE
  5
7D0B
330
19
100
AcDbEntity
  8
1
100
AcDbLine
 10
2177.156964860705
 20
1320.427389334338
 30
0.0
 11
2176.156964860705
 21
1320.427389334338
 31
0.0
  0
ARC
  5
7D0C
330
19
100
AcDbEntity
  8
1
100
AcDbCircle
 10
2177.156964860705
 20
1318.427389334338
 30
0.0
 40
2.0
100
AcDbArc
 50
0.0
 51
90.0
  0
LINE
  5
7D0D
330
19
100
AcDbEntity
  8
1
100
AcDbLine
 10
2194.156964860705
 20
1303.427389334338
 30
0.0
 11
2183.156964860705
 21
1303.427389334338
 31
0.0
  0
LINE
  5
7D0E
330
19
100
AcDbEntity
  8
1
100
AcDbLine
 10
2176.156964860705
 20
1300.427389334338
 30
0.0
 11
2196.156964860705
 21
1300.427389334338
 31
0.0
  0
ARC
  5
7D0F
330
19
100
AcDbEntity
  8
1
100
AcDbCircle
 10
2183.156964860705
 20
1307.427389334338
 30
0.0
 40
4.0
100
AcDbArc
 50
180.0
 51
270.0
  0
LINE
  5
7D10
330
19
100
AcDbEntity
  8
1
100
AcDbLine
 10
2196.156964860705
 20
1300.427389334338
 30
0.0
 11
2196.156964860705
 21
1301.427389334338
 31
0.0
  0
LINE
  5
7EF5
330
19
100
AcDbEntity
  8
4
100
AcDbLine
 10
2220.0
 20
600.0
 30
0.0
 11
2220.0
 21
360.0
 31
0.0
  0
LINE
  5
7EF6
330
19
100
AcDbEntity
  8
4
100
AcDbLine
 10
1380.0
 20
600.0
 30
0.0
 11
1380.0
 21
360.0
 31
0.0
  0
LINE
  5
7EF7
330
19
100
AcDbEntity
  8
4
100
AcDbLine
 10
780.0
 20
600.0
 30
0.0
 11
780.0
 21
360.0
 31
0.0
  0
LINE
  5
7EFA
330
19
100
AcDbEntity
  8
4
100
AcDbLine
 10
780.0
 20
360.0
 30
0.0
 11
2220.0
 21
360.0
 31
0.0
  0
LINE
  5
7EFB
330
19
100
AcDbEntity
  8
4
100
AcDbLine
 10
780.0
 20
480.0
 30
0.0
 11
2220.0
 21
480.0
 31
0.0
  0
TEXT
  5
7EFC
330
19
100
AcDbEntity
  8
4
100
AcDbText
 10
826.2024970162819
 20
517.8516310399354
 30
0.0
 40
60.0
  1
機器名称
100
AcDbText
  0
TEXT
  5
7EFD
330
19
100
AcDbEntity
  8
4
100
AcDbText
 10
823.509727229757
 20
385.9741880784131
 30
0.0
 40
60.0
  1
機器型番
100
AcDbText
  0
TEXT
  5
7EFE
330
19
100
AcDbEntity
  8
4
100
AcDbText
 10
1413.214494585198
 20
507.0861227490822
 30
0.0
 40
60.0
  1
ミツヤ多翼送風機
100
AcDbText
  0
TEXT
  5
7EFF
330
19
100
AcDbEntity
  8
4
100
AcDbText
 10
1423.985394702577
 20
380.5915011359321
 30
0.0
 40
60.0
  1
MF#1 1/4-1
100
AcDbText
  0
TEXT
  5
7F01
330
19
100
AcDbEntity
  8
4
100
AcDbText
 10
896.8889844099066
 20
2860.114609599019
 30
0.0
 40
64.8
  1
床置防振ベット
100
AcDbText
  0
TEXT
  5
7F02
330
19
100
AcDbEntity
  8
4
100
AcDbText
 10
379.4011119953357
 20
3040.657171439157
 30
0.0
 40
86.4
  1
遠心式片吸込片持多翼ファン
100
AcDbText
  0
LINE
  5
7F03
330
19
100
AcDbEntity
  8
4
100
AcDbLine
 10
300.0
 20
2963.290505117766
 30
0.0
 11
2220.0
 21
2963.290505117766
 31
0.0
  0
LINE
  5
7F04
330
19
100
AcDbEntity
  8
4
100
AcDbLine
 10
300.0
 20
3203.290505117766
 30
0.0
 11
2220.0
 21
3203.290505117766
 31
0.0
  0
LINE
  5
7F05
330
19
100
AcDbEntity
  8
4
100
AcDbLine
 10
780.0
 20
600.0
 30
0.0
 11
2220.0
 21
600.0
 31
0.0
  0
LINE
  5
7F06
330
19
100
AcDbEntity
  8
4
100
AcDbLine
 10
300.0
 20
3203.290505117766
 30
0.0
 11
300.0
 21
2963.290505117766
 31
0.0
  0
TEXT
  5
7F07
330
19
100
AcDbEntity
  8
4
100
AcDbText
 10
373.858385718664
 20
2858.783373055612
 30
0.0
 40
64.8
  1
左回転左横向
100
AcDbText
  0
TEXT
  5
7F08
330
19
100
AcDbEntity
  8
4
100
AcDbText
 10
1762.763471099148
 20
3247.273297794371
 30
0.0
 40
67.2
  1
No.
100
AcDbText
  0
TEXT
  5
7F09
330
19
100
AcDbEntity
  8
4
100
AcDbText
 10
1573.555275120016
 20
2860.114609599019
 30
0.0
 40
64.8
  1
縮尺：1/12
100
AcDbText
  0
LINE
  5
7F0A
330
19
100
AcDbEntity
  8
4
100
AcDbLine
 10
2220.0
 20
3203.290505117766
 30
0.0
 11
2220.0
 21
2963.290505117766
 31
0.0
  0
LINE
  5
7F0B
330
19
100
AcDbEntity
  8
4
100
AcDbLine
 10
2520.0
 20
3540.0
 30
0.0
 11
2520.0
 21
3540.0
 31
0.0
  0
LINE
  5
7F0C
330
19
100
AcDbEntity
  8
4
100
AcDbLine
 10
1728.740906831837
 20
3217.516299750482
 30
0.0
 11
1728.740906831837
 21
3343.982713859703
 31
0.0
  0
LINE
  5
7F0D
330
19
100
AcDbEntity
  8
4
100
AcDbLine
 10
1728.740906831837
 20
3343.982713859703
 30
0.0
 11
2220.0
 21
3343.982713859703
 31
0.0
  0
LINE
  5
7F0E
330
19
100
AcDbEntity
  8
4
100
AcDbLine
 10
2220.0
 20
3343.982713859703
 30
0.0
 11
2220.0
 21
3217.516299750482
 31
0.0
  0
LINE
  5
7F0F
330
19
100
AcDbEntity
  8
4
100
AcDbLine
 10
2220.0
 20
3217.516299750482
 30
0.0
 11
1728.740906831837
 21
3217.516299750482
 31
0.0
  0
LINE
  5
7F10
330
19
100
AcDbEntity
  8
4
100
AcDbLine
 10
0.0
 20
0.0
 30
0.0
 11
0.0
 21
3540.0
 31
0.0
  0
LINE
  5
7F11
330
19
100
AcDbEntity
  8
4
100
AcDbLine
 10
0.0
 20
3540.0
 30
0.0
 11
2520.0
 21
3540.0
 31
0.0
  0
LINE
  5
7F12
330
19
100
AcDbEntity
  8
4
100
AcDbLine
 10
2520.0
 20
3540.0
 30
0.0
 11
2520.0
 21
0.0
 31
0.0
  0
LINE
  5
7F13
330
19
100
AcDbEntity
  8
4
100
AcDbLine
 10
2520.0
 20
0.0
 30
0.0
 11
0.0
 21
0.0
 31
0.0
  0
CIRCLE
  5
8135
330
19
100
AcDbEntity
  8
1
100
AcDbCircle
 10
799.6629664994334
 20
1190.341295447079
 30
0.0
 40
50.0
  0
CIRCLE
  5
8136
330
19
100
AcDbEntity
  8
1
100
AcDbCircle
 10
1129.662966499434
 20
1080.341295447079
 30
0.0
 40
50.0
  0
LINE
  5
8137
330
19
100
AcDbEntity
  8
1
100
AcDbLine
 10
815.4743548002752
 20
1237.775460349605
 30
0.0
 11
1145.474354800275
 21
1127.775460349605
 31
0.0
  0
LINE
  5
8138
330
19
100
AcDbEntity
  8
1
100
AcDbLine
 10
783.8515781985915
 20
1142.907130544553
 30
0.0
 11
1113.851578198592
 21
1032.907130544553
 31
0.0
  0
LINE
  5
8139
330
19
100
AcDbEntity
  8
1
100
AcDbLine
 10
1688.356964860705
 20
1240.427389334338
 30
0.0
 11
1726.356964860706
 21
1240.427389334338
 31
0.0
  0
LINE
  5
813A
330
19
100
AcDbEntity
  8
1
100
AcDbLine
 10
1688.356964860705
 20
1140.427389334338
 30
0.0
 11
1726.356964860705
 21
1140.427389334337
 31
0.0
  0
LINE
  5
813B
330
19
100
AcDbEntity
  8
1
100
AcDbLine
 10
1688.356964860704
 20
1130.341295447079
 30
0.0
 11
1726.356964860705
 21
1130.341295447079
 31
0.0
  0
LINE
  5
813C
330
19
100
AcDbEntity
  8
1
100
AcDbLine
 10
1688.356964860704
 20
1030.341295447079
 30
0.0
 11
1726.356964860705
 21
1030.341295447079
 31
0.0
  0
LINE
  5
813D
330
19
100
AcDbEntity
  8
1
100
AcDbLine
 10
849.6629664994335
 20
1971.790547353313
 30
0.0
 11
849.6629664994335
 21
2009.790547353314
 31
0.0
  0
LINE
  5
813E
330
19
100
AcDbEntity
  8
1
100
AcDbLine
 10
749.6629664994332
 20
1971.790547353314
 30
0.0
 11
749.6629664994332
 21
2009.790547353314
 31
0.0
  0
LINE
  5
813F
330
19
100
AcDbEntity
  8
1
100
AcDbLine
 10
1179.662966499434
 20
2009.790547353313
 30
0.0
 11
1179.662966499434
 21
1971.79054735331
 31
0.0
  0
LINE
  5
8140
330
19
100
AcDbEntity
  8
1
100
AcDbLine
 10
1079.662966499433
 20
2009.790547353313
 30
0.0
 11
1079.662966499433
 21
1971.790547353311
 31
0.0
  0
LINE
  5
8146
330
19
100
AcDbEntity
  8
1
100
AcDbLine
 10
1740.156964860704
 20
1004.078703442658
 30
0.0
 11
1740.156964860705
 21
970.4273893343382
 31
0.0
  0
LINE
  5
81E6
330
19
100
AcDbEntity
  8
1
100
AcDbLine
 10
664.6629664994342
 20
2001.590547353314
 30
0.0
 11
1204.662966499433
 21
2001.590547353317
 31
0.0
  0
LINE
  5
81E7
330
19
100
AcDbEntity
  8
1
100
AcDbLine
 10
664.6629664994334
 20
2301.590547353313
 30
0.0
 11
699.6629664994335
 21
2301.590547353312
 31
0.0
  0
LINE
  5
81E8
330
19
100
AcDbEntity
  8
1
100
AcDbLine
 10
899.6629664994342
 20
2301.590547353313
 30
0.0
 11
1204.662966499433
 21
2301.590547353314
 31
0.0
  0
DIMENSION
  5
81F5
330
19
100
AcDbEntity
  8
3
100
AcDbDimension
280
     0
  2
*D12
 10
1342.638716686779
 20
1961.590547353317
 30
0.0
 11
1342.638716686779
 21
2146.307272644718
 31
0.0
 70
   160
 71
     5
 42
-1.0
 73
     0
 74
     0
 75
     0
  3
IGA
100
AcDbAlignedDimension
 13
1244.662966499433
 23
2341.590547353314
 33
0.0
 14
1244.662966499433
 24
1961.590547353317
 34
0.0
 50
90.0
100
AcDbRotatedDimension
1001
ACAD
1000
DSTYLE
1002
{
1070
    40
1040
12.0
1070
   143
1040
0.039
1070
   172
1070
     1
1070
   271
1070
     0
1070
   279
1070
     0
1070
   288
1070
     1
1002
}
  0
DIMENSION
  5
820D
330
19
100
AcDbEntity
  8
3
100
AcDbDimension
280
     0
  2
*D13
 10
1244.662966499433
 20
1847.776856011912
 30
0.0
 11
909.7649960486487
 21
1847.776856011912
 31
0.0
 70
   160
 71
     5
 42
-1.0
 73
     0
 74
     0
 75
     0
  3
IGA
100
AcDbAlignedDimension
 13
624.6629664994339
 23
1961.590547353314
 33
0.0
 14
1244.662966499433
 24
1961.590547353317
 34
0.0
100
AcDbRotatedDimension
1001
ACAD
1000
DSTYLE
1002
{
1070
    40
1040
12.0
1070
   143
1040
0.039
1070
   172
1070
     1
1070
   271
1070
     0
1070
   279
1070
     0
1070
   288
1070
     1
1002
}
  0
DIMENSION
  5
824C
330
19
100
AcDbEntity
  8
3
100
AcDbDimension
280
     0
  2
*D14
 10
799.6629664994334
 20
738.8205333301658
 30
0.0
 11
712.1629664994336
 21
768.8205333301659
 31
0.0
 70
    32
 71
     5
 42
174.9999999999995
 73
     0
 74
     0
 75
     0
  3
IGA
100
AcDbAlignedDimension
 13
624.6629664994339
 23
820.3412954470788
 33
0.0
 14
799.6629664994334
 24
820.3412954470794
 34
0.0
100
AcDbRotatedDimension
1001
ACAD
1000
DSTYLE
1002
{
1070
    40
1040
12.0
1070
   143
1040
0.039
1070
   172
1070
     1
1070
   271
1070
     0
1070
   279
1070
     0
1002
}
  0
DIMENSION
  5
8259
330
19
100
AcDbEntity
  8
3
100
AcDbDimension
280
     0
  2
*D15
 10
1244.662966499433
 20
738.8205333301658
 30
0.0
 11
1022.162966499433
 21
768.8205333301659
 31
0.0
 70
    32
 71
     5
 42
445.0
 73
     0
 74
     0
 75
     0
  3
IGA
100
AcDbAlignedDimension
 13
799.6629664994334
 23
820.3412954470794
 33
0.0
 14
1244.662966499433
 24
820.3412954470792
 34
0.0
100
AcDbRotatedDimension
1001
ACAD
1000
DSTYLE
1002
{
1070
    40
1040
12.0
1070
   143
1040
0.039
1070
   172
1070
     1
1070
   271
1070
     0
1070
   279
1070
     0
1002
}
  0
DIMENSION
  5
8273
330
19
100
AcDbEntity
  8
3
100
AcDbDimension
280
     0
  2
*D16
 10
2058.156964860705
 20
738.8205333301658
 30
0.0
 11
1868.156964860705
 21
768.8205333301659
 31
0.0
 70
    32
 71
     5
 42
380.0
 73
     0
 74
     0
 75
     0
  3
IGA
100
AcDbAlignedDimension
 13
1678.156964860705
 23
820.4273893343382
 33
0.0
 14
2058.156964860705
 24
820.4273893343385
 34
0.0
100
AcDbRotatedDimension
1001
ACAD
1000
DSTYLE
1002
{
1070
    40
1040
12.0
1070
   143
1040
0.039
1070
   172
1070
     1
1070
   271
1070
     0
1070
   279
1070
     0
1002
}
  0
DIMENSION
  5
8282
330
19
100
AcDbEntity
  8
3
100
AcDbDimension
280
     0
  2
*D17
 10
2098.156964860706
 20
738.8205333301658
 30
0.0
 11
2187.299822003563
 21
768.8205333301659
 31
0.0
 70
    32
 71
     5
 42
40.0
 73
     0
 74
     0
 75
     0
  3
IGA
100
AcDbAlignedDimension
 13
2058.156964860705
 23
820.4273893343385
 33
0.0
 14
2098.156964860706
 24
820.4273893343383
 34
0.0
100
AcDbRotatedDimension
1001
ACAD
1000
DSTYLE
1002
{
1070
    40
1040
12.0
1070
   143
1040
0.039
1070
   172
1070
     1
1070
   271
1070
     0
1070
   279
1070
     0
1002
}
  0
LINE
  5
8296
330
19
100
AcDbEntity
  8
1
100
AcDbLine
 10
1678.156964860705
 20
820.4273893343382
 30
0.0
 11
2058.156964860705
 21
820.4273893343385
 31
0.0
  0
LINE
  5
8297
330
19
100
AcDbEntity
  8
1
100
AcDbLine
 10
1678.156964860705
 20
860.4273893343382
 30
0.0
 11
2058.156964860705
 21
860.4273893343385
 31
0.0
  0
LINE
  5
8298
330
19
100
AcDbEntity
  8
1
100
AcDbLine
 10
2058.156964860705
 20
820.4273893343385
 30
0.0
 11
2058.156964860706
 21
860.4273893343385
 31
0.0
  0
LINE
  5
8299
330
19
100
AcDbEntity
  8
1
100
AcDbLine
 10
1678.156964860705
 20
820.4273893343382
 30
0.0
 11
1678.156964860705
 21
860.4273893343382
 31
0.0
  0
LINE
  5
829A
330
19
100
AcDbEntity
  8
1
100
AcDbLine
 10
624.6629664994339
 20
820.3412954470792
 30
0.0
 11
1244.662966499433
 21
820.3412954470792
 31
0.0
  0
LINE
  5
829B
330
19
100
AcDbEntity
  8
1
100
AcDbLine
 10
1244.662966499433
 20
860.3412954470792
 30
0.0
 11
1244.662966499433
 21
820.3412954470792
 31
0.0
  0
LINE
  5
829C
330
19
100
AcDbEntity
  8
1
100
AcDbLine
 10
1244.662966499433
 20
860.3412954470792
 30
0.0
 11
624.6629664994339
 21
860.3412954470787
 31
0.0
  0
LINE
  5
829D
330
19
100
AcDbEntity
  8
1
100
AcDbLine
 10
624.6629664994339
 20
860.3412954470787
 30
0.0
 11
624.6629664994339
 21
820.3412954470788
 31
0.0
  0
DIMENSION
  5
82AC
330
19
100
AcDbEntity
  8
3
100
AcDbDimension
280
     0
  2
*D18
 10
505.3934268061257
 20
820.3412954470792
 30
0.0
 11
475.3934268061255
 21
731.1984383042222
 31
0.0
 70
    32
 71
     5
 42
39.99999999999955
 73
     0
 74
     0
 75
     0
  3
IGA
100
AcDbAlignedDimension
 13
624.6629664994339
 23
860.3412954470787
 33
0.0
 14
624.6629664994339
 24
820.3412954470792
 34
0.0
 50
90.0
100
AcDbRotatedDimension
1001
ACAD
1000
DSTYLE
1002
{
1070
    40
1040
12.0
1070
   143
1040
0.039
1070
   172
1070
     1
1070
   271
1070
     0
1070
   279
1070
     0
1070
   343
1005
7A02
1002
}
  0
DIMENSION
  5
82D7
330
19
100
AcDbEntity
  8
3
100
AcDbDimension
280
     0
  2
*D19
 10
505.3667344997957
 20
930.3412954470791
 30
0.0
 11
463.494495101062
 21
895.4259460138345
 31
0.0
 70
   160
 71
     5
 42
70.00000000000034
 73
     0
 74
     0
 75
     0
  3
IGA
100
AcDbAlignedDimension
 13
624.6629664994339
 23
860.3412954470787
 33
0.0
 14
624.6629664994339
 24
930.3412954470791
 34
0.0
 50
90.0
100
AcDbRotatedDimension
1001
ACAD
1000
DSTYLE
1002
{
1070
     3
1000
(<>)
1070
    40
1040
12.0
1070
   143
1040
0.039
1070
   172
1070
     1
1070
   271
1070
     0
1070
   343
1005
7A02
1002
}
  0
DIMENSION
  5
82E4
330
19
100
AcDbEntity
  8
3
100
AcDbDimension
280
     0
  2
*D20
 10
399.286462677981
 20
820.3412954470792
 30
0.0
 11
359.8578912494095
 21
1115.841278454992
 31
0.0
 70
    32
 71
     5
 42
590.9999660158253
 73
     0
 74
     0
 75
     0
  3
IGA
100
AcDbAlignedDimension
 13
614.6629664994329
 23
1411.341261462904
 33
0.0
 14
624.6629664994339
 24
820.3412954470792
 34
0.0
 50
90.0
100
AcDbRotatedDimension
1001
ACAD
1000
DSTYLE
1002
{
1070
   172
1070
     1
1070
    40
1040
12.0
1070
     3
1000
(<>)
1070
   271
1070
     0
1070
   143
1040
0.039
1002
}
  0
ENDSEC
  0
SECTION
  2
OBJECTS
  0
DICTIONARY
  5
C
330
0
100
AcDbDictionary
281
     1
  3
ACAD_CIP_PREVIOUS_PRODUCT_INFO
350
8346
  3
ACAD_COLOR
350
8329
  3
ACAD_DETAILVIEWSTYLE
350
8342
  3
ACAD_GROUP
350
D
  3
ACAD_LAYOUT
350
82E9
  3
ACAD_MATERIAL
350
82F7
  3
ACAD_MLEADERSTYLE
350
833E
  3
ACAD_MLINESTYLE
350
E
  3
ACAD_PLOTSETTINGS
350
82EA
  3
ACAD_PLOTSTYLENAME
350
82E7
  3
ACAD_SCALELIST
350
832C
  3
ACAD_SECTIONVIEWSTYLE
350
8340
  3
ACAD_TABLESTYLE
350
832A
  3
ACAD_VISUALSTYLE
350
8310
  3
ACDB_RECOMPOSE_DATA
350
841E
  3
AcDbVariableDictionary
350
83DF
  0
DICTIONARY
  5
839C
330
2
100
AcDbDictionary
280
     1
281
     1
  3
ACAD_LAYERSTATES
360
839D
  0
DICTIONARY
  5
838F
330
F
100
AcDbDictionary
280
     1
281
     1
  3
ADSK_XREC_LAYER_RECONCILED
360
8390
  0
DICTIONARY
  5
8391
330
31
100
AcDbDictionary
280
     1
281
     1
  3
ADSK_XREC_LAYER_RECONCILED
360
8392
  0
DICTIONARY
  5
8393
330
76D0
100
AcDbDictionary
280
     1
281
     1
  3
ADSK_XREC_LAYER_RECONCILED
360
8394
  0
DICTIONARY
  5
8395
330
76D1
100
AcDbDictionary
280
     1
281
     1
  3
ADSK_XREC_LAYER_RECONCILED
360
8396
  0
DICTIONARY
  5
8397
330
76D2
100
AcDbDictionary
280
     1
281
     1
  3
ADSK_XREC_LAYER_RECONCILED
360
8398
  0
DICTIONARY
  5
8348
330
19
100
AcDbDictionary
280
     1
281
     1
  3
ACAD_SORTENTS
360
8349
  0
XRECORD
  5
8346
102
{ACAD_REACTORS
330
C
102
}
330
C
100
AcDbXrecord
280
     1
300
ACDLT
300
2015
300
INVLTS_F_S
  0
DICTIONARY
  5
8329
102
{ACAD_REACTORS
330
C
102
}
330
C
100
AcDbDictionary
281
     1
  0
DICTIONARY
  5
8342
102
{ACAD_REACTORS
330
C
102
}
330
C
100
AcDbDictionary
281
     1
  3
Metric50
350
8343
  0
DICTIONARY
  5
D
102
{ACAD_REACTORS
330
C
102
}
330
C
100
AcDbDictionary
281
     1
  0
DICTIONARY
  5
82E9
102
{ACAD_REACTORS
330
C
102
}
330
C
100
AcDbDictionary
281
     1
  3
Model
350
82EB
  3
ﾚｲｱｳﾄ1
350
82EC
  0
DICTIONARY
  5
82F7
102
{ACAD_REACTORS
330
C
102
}
330
C
100
AcDbDictionary
281
     1
  3
ByBlock
350
8300
  3
ByLayer
350
82F8
  3
Global
350
8308
  0
DICTIONARY
  5
833E
102
{ACAD_REACTORS
330
C
102
}
330
C
100
AcDbDictionary
281
     1
  3
Standard
350
833F
  0
DICTIONARY
  5
E
102
{ACAD_REACTORS
330
C
102
}
330
C
100
AcDbDictionary
281
     1
  3
STANDARD
350
1C
  0
DICTIONARY
  5
82EA
102
{ACAD_REACTORS
330
C
102
}
330
C
100
AcDbDictionary
281
     1
  0
ACDBDICTIONARYWDFLT
  5
82E7
102
{ACAD_REACTORS
330
C
102
}
330
C
100
AcDbDictionary
281
     1
  3
Normal
350
82E8
100
AcDbDictionaryWithDefault
340
82E8
  0
DICTIONARY
  5
832C
102
{ACAD_REACTORS
330
C
102
}
330
C
100
AcDbDictionary
281
     1
  3
A0
350
832D
  3
A1
350
832E
  3
A2
350
832F
  3
A3
350
8330
  3
A4
350
8331
  3
A5
350
8332
  3
A6
350
8333
  3
A7
350
8334
  3
A8
350
8335
  3
A9
350
8336
  3
B0
350
8337
  3
B1
350
8338
  3
B2
350
8339
  3
B3
350
833A
  3
B4
350
833B
  3
B5
350
833C
  3
B6
350
833D
  0
DICTIONARY
  5
8340
102
{ACAD_REACTORS
330
C
102
}
330
C
100
AcDbDictionary
281
     1
  3
Metric50
350
8341
  0
DICTIONARY
  5
832A
102
{ACAD_REACTORS
330
C
102
}
330
C
100
AcDbDictionary
281
     1
  3
Standard
350
832B
  0
DICTIONARY
  5
8310
102
{ACAD_REACTORS
330
C
102
}
330
C
100
AcDbDictionary
281
     1
  3
2dWireframe
350
8316
  3
Basic
350
8315
  3
Brighten
350
831C
  3
ColorChange
350
8320
  3
Conceptual
350
8319
  3
Dim
350
831B
  3
EdgeColorOff
350
8328
  3
Facepattern
350
831F
  3
Flat
350
8311
  3
FlatWithEdges
350
8312
  3
Gouraud
350
8313
  3
GouraudWithEdges
350
8314
  3
Hidden
350
8318
  3
JitterOff
350
8326
  3
Linepattern
350
831E
  3
OverhangOff
350
8327
  3
Realistic
350
831A
  3
Shaded
350
8325
  3
Shaded with edges
350
8324
  3
Shades of Gray
350
8321
  3
Sketchy
350
8322
  3
Thicken
350
831D
  3
Wireframe
350
8317
  3
X-Ray
350
8323
  0
XRECORD
  5
841E
102
{ACAD_REACTORS
330
C
102
}
330
C
100
AcDbXrecord
280
     1
 90
        1
330
832B
330
8341
330
8343
  0
DICTIONARY
  5
83DF
102
{ACAD_REACTORS
330
C
102
}
330
C
100
AcDbDictionary
281
     1
  3
CANNOSCALE
350
83E5
  3
CMLEADERSTYLE
350
83E1
  3
CTABLESTYLE
350
83E0
  3
CVIEWDETAILSTYLE
350
83E2
  3
CVIEWSECTIONSTYLE
350
83E3
  3
LAYEREVAL
350
83E7
  3
LAYERNOTIFY
350
83E8
  3
LIGHTINGUNITS
350
83E6
  3
MSLTSCALE
350
83E4
  0
DICTIONARY
  5
839D
102
{ACAD_REACTORS
330
839C
102
}
330
839C
100
AcDbDictionary
281
     1
  0
XRECORD
  5
8390
102
{ACAD_REACTORS
330
838F
102
}
330
838F
100
AcDbXrecord
280
     1
290
     1
  0
XRECORD
  5
8392
102
{ACAD_REACTORS
330
8391
102
}
330
8391
100
AcDbXrecord
280
     1
290
     1
  0
XRECORD
  5
8394
102
{ACAD_REACTORS
330
8393
102
}
330
8393
100
AcDbXrecord
280
     1
290
     1
  0
XRECORD
  5
8396
102
{ACAD_REACTORS
330
8395
102
}
330
8395
100
AcDbXrecord
280
     1
290
     1
  0
XRECORD
  5
8398
102
{ACAD_REACTORS
330
8397
102
}
330
8397
100
AcDbXrecord
280
     1
290
     1
  0
SORTENTSTABLE
  5
8349
102
{ACAD_REACTORS
330
8348
102
}
330
8348
100
AcDbSortentsTable
330
19
331
7CEE
  5
7CEF
331
7CEA
  5
7CEB
331
82E4
  5
8347
331
7C74
  5
7C74
331
7C70
  5
7C70
331
7CAF
  5
7CB0
331
7CE6
  5
7CE7
331
7C6C
  5
7C6C
331
7CAB
  5
7CAC
331
7CE2
  5
7CE3
331
7C68
  5
7C68
331
7C37
  5
7C37
331
7C33
  5
7C33
331
7CDE
  5
7CDF
331
7CA7
  5
7CA8
331
7CA3
  5
7CA4
331
7CDA
  5
7CDB
331
7C9F
  5
7CA0
331
7CD6
  5
7CD7
331
7C60
  5
7C60
331
7C5C
  5
7C5C
331
7C9B
  5
7C9C
331
7CD2
  5
7CD3
331
7C58
  5
7C58
331
7F10
  5
7F11
331
7C2B
  5
7C2B
331
7D0D
  5
7D0E
331
7C97
  5
7C98
331
7CCA
  5
7CCB
331
7D09
  5
7D0A
331
81E6
  5
81E7
331
82AC
  5
82D7
331
7C54
  5
7C54
331
7C8F
  5
7C92
331
7D05
  5
7D06
331
8259
  5
8273
331
7C50
  5
7C50
331
7D01
  5
7D02
331
7C4C
  5
7C4C
331
829C
  5
829D
331
7CC2
  5
7CC3
331
8146
  5
81E6
331
8298
  5
8299
331
7F0C
  5
7F0D
331
7F08
  5
7F09
331
7F04
  5
7F05
331
7C1B
  5
7C1B
331
7C17
  5
7C17
331
7CFD
  5
7CFE
331
7C87
  5
7C87
331
7CBE
  5
7CC0
331
7CBA
  5
7CBB
331
7CF9
  5
7CFA
331
813E
  5
813F
331
7C44
  5
7C44
331
7C83
  5
7C83
331
7C7F
  5
7C7F
331
7CF5
  5
7CF6
331
813A
  5
813B
331
7C40
  5
7C40
331
820D
  5
824C
331
7C7B
  5
7C7B
331
7CB2
  5
7CB3
331
8136
  5
8137
331
7CF1
  5
7CF2
331
7C38
  5
7C38
331
7EFC
  5
7EFD
331
7CED
  5
7CEE
331
7C77
  5
7C77
331
7CE9
  5
7CEA
331
7C73
  5
7C73
331
7CAE
  5
7CAF
331
7CE5
  5
7CE6
331
7C6B
  5
7C6B
331
7CAA
  5
7CAB
331
7CE1
  5
7CE2
331
7C36
  5
7C36
331
7C32
  5
7C32
331
7CDD
  5
7CDE
331
82D7
  5
82E4
331
7C67
  5
7C67
331
7CA6
  5
7CA7
331
7CD9
  5
7CDA
331
81F5
  5
820D
331
7C5F
  5
7C5F
331
7C9E
  5
7C9F
331
7CD5
  5
7CD6
331
7D10
  5
7EF5
331
7C5B
  5
7C5B
331
7C9A
  5
7C9B
331
7F13
  5
8135
331
7D0C
  5
7D0D
331
7C57
  5
7C57
331
7C96
  5
7C97
331
7C92
  5
7C95
331
7CC9
  5
7CCA
331
7D08
  5
7D09
331
7C53
  5
7C53
331
7C8E
  5
7C8F
331
7CC5
  5
7CC7
331
7D04
  5
7D05
331
7C4F
  5
7C4F
331
7D00
  5
7D01
331
7C4B
  5
7C4B
331
7C8A
  5
7C8A
331
824C
  5
8259
331
829B
  5
829C
331
7F0F
  5
7F10
331
7F0B
  5
7F0C
331
7F07
  5
7F08
331
7F03
  5
7F04
331
7C1A
  5
7C1A
331
7C16
  5
7C16
331
7C12
  5
7C12
331
7CBD
  5
7CBE
331
7CFC
  5
7CFD
331
7C47
  5
7C47
331
8297
  5
8298
331
7CB9
  5
7CBA
331
7CF8
  5
7CF9
331
813D
  5
813E
331
7C43
  5
7C43
331
7C82
  5
7C82
331
7C7E
  5
7C7E
331
7CB5
  5
7CB7
331
8139
  5
813A
331
7CF4
  5
7CF5
331
7CF0
  5
7CF1
331
7C3B
  5
7C3B
331
7C7A
  5
7C7A
331
7CB1
  5
7CB2
331
8135
  5
8136
331
7EFF
  5
7F01
331
7EFB
  5
7EFC
331
7EF7
  5
7EFA
331
7CEC
  5
7CED
331
7C76
  5
7C76
331
7CE8
  5
7CE9
331
7C72
  5
7C72
331
7CAD
  5
7CAE
331
7CE4
  5
7CE5
331
8273
  5
8282
331
7CA9
  5
7CAA
331
7CE0
  5
7CE1
331
7C35
  5
7C35
331
7CDC
  5
7CDD
331
7CA5
  5
7CA6
331
7CA1
  5
7CA3
331
7CD8
  5
7CD9
331
7C62
  5
7C62
331
7C5E
  5
7C5E
331
7C9D
  5
7C9E
331
7CD4
  5
7CD5
331
7C5A
  5
7C5A
331
81E8
  5
81F5
331
7F12
  5
7F13
331
7D0F
  5
7D10
331
7D0B
  5
7D0C
331
7C56
  5
7C56
331
7C95
  5
7C96
331
7CC8
  5
7CC9
331
7D07
  5
7D08
331
7C52
  5
7C52
331
7C4E
  5
7C4E
331
7C8D
  5
7C8E
331
7CC4
  5
7CC5
331
7D03
  5
7D04
331
7C4A
  5
7C4A
331
7C89
  5
7C89
331
829A
  5
829B
331
7CC0
  5
7CC2
331
7F0E
  5
7F0F
331
8140
  5
8146
331
7F0A
  5
7F0B
331
7F06
  5
7F07
331
7F02
  5
7F03
331
7C1D
  5
7C1D
331
7C19
  5
7C19
331
7CFF
  5
7D00
331
7CFB
  5
7CFC
331
7C46
  5
7C46
331
8296
  5
8297
331
7CB8
  5
7CB9
331
7CF7
  5
7CF8
331
813C
  5
813D
331
7C42
  5
7C42
331
7C7D
  5
7C7D
331
7CB4
  5
7CB5
331
7CF3
  5
7CF4
331
8138
  5
8139
331
7C3E
  5
7C3E
331
7C3A
  5
7C3A
331
7C79
  5
7C79
331
8282
  5
8296
331
7CB0
  5
7CB1
331
7EFE
  5
7EFF
331
7EFA
  5
7EFB
331
7EF6
  5
7EF7
331
7CEF
  5
7CF0
331
7CEB
  5
7CEC
331
7CE7
  5
7CE8
331
7C71
  5
7C71
331
7CAC
  5
7CAD
331
7CE3
  5
7CE4
331
7CA8
  5
7CA9
331
7C34
  5
7C34
331
7CDF
  5
7CE0
331
7CDB
  5
7CDC
331
7C65
  5
7C65
331
7CA4
  5
7CA5
331
7CA0
  5
7CA1
331
7CD7
  5
7CD8
331
7C61
  5
7C61
331
7C5D
  5
7C5D
331
7C9C
  5
7C9D
331
7CD3
  5
7CD4
331
7C59
  5
7C59
331
7C98
  5
7C99
331
7F11
  5
7F12
331
7C2C
  5
7C2C
331
7C20
  5
7C20
331
7D0E
  5
7D0F
331
7CCB
  5
7CD0
331
7D0A
  5
7D0B
331
81E7
  5
81E8
331
7C55
  5
7C55
331
7CC7
  5
7CC8
331
7D06
  5
7D07
331
7C4D
  5
7C4D
331
7C8C
  5
7C8C
331
829D
  5
82AC
331
7CC3
  5
7CC4
331
7D02
  5
7D03
331
7C88
  5
7C88
331
8299
  5
829A
331
7F0D
  5
7F0E
331
7F09
  5
7F0A
331
7F05
  5
7F06
331
7F01
  5
7F02
331
7C1C
  5
7C1C
331
7C14
  5
7C14
331
7CFE
  5
7CFF
331
7CBB
  5
7CBD
331
7CFA
  5
7CFB
331
813F
  5
8140
331
7C45
  5
7C45
331
7C84
  5
7C84
331
7CB7
  5
7CB8
331
7CF6
  5
7CF7
331
813B
  5
813C
331
7C41
  5
7C41
331
7C3D
  5
7C3D
331
7C7C
  5
7C7C
331
7CB3
  5
7CB4
331
8137
  5
8138
331
7CF2
  5
7CF3
331
7C39
  5
7C39
331
7C78
  5
7C78
331
7EFD
  5
7EFE
331
7EF5
  5
7EF6
  0
ACDBDETAILVIEWSTYLE
  5
8343
102
{ACAD_XDICTIONARY
360
83DC
102
}
102
{ACAD_REACTORS
330
8342
102
}
330
8342
100
AcDbModelDocViewStyle
 70
     0
  3
Metric50
290
     0
100
AcDbDetailViewStyle
 70
     0
 71
     0
 90
        3
 71
     1
340
10
 62
   256
 40
5.0
340
0
 62
   256
 40
5.0
300

 40
0.0
280
     1
 71
     2
340
15
 90
       25
 62
   256
 71
     3
340
10
 62
   256
 40
5.0
 90
        0
 40
15.0
 90
        1
300
%<\AcVar ViewDetailId>% (%<\AcVar ViewScale \f "%sn">%)
 71
     4
340
15
 90
       25
 62
   256
340
15
 90
       25
 62
   256
280
     0
  0
LAYOUT
  5
82EB
102
{ACAD_REACTORS
330
82E9
102
}
330
82E9
100
AcDbPlotSettings
  1

  2
EPSON LP-9300
  4

  6

 40
0.0
 41
0.0
 42
0.0
 43
0.0
 44
0.0
 45
0.0
 46
0.0
 47
0.0
 48
0.0
 49
0.0
140
0.0
141
0.0
142
1.0
143
1.0
 70
  1712
 72
     0
 73
     0
 74
     0
  7

 75
     0
147
1.0
 76
     0
 77
     2
 78
   300
148
0.0
149
0.0
100
AcDbLayout
  1
Model
 70
     1
 71
     0
 10
0.0
 20
0.0
 11
12.0
 21
9.0
 12
0.0
 22
0.0
 32
0.0
 14
0.0
 24
0.0
 34
0.0
 15
0.0
 25
0.0
 35
0.0
146
0.0
 13
0.0
 23
0.0
 33
0.0
 16
1.0
 26
0.0
 36
0.0
 17
0.0
 27
1.0
 37
0.0
 76
     0
330
19
331
82F5
  0
LAYOUT
  5
82EC
102
{ACAD_REACTORS
330
82E9
102
}
330
82E9
100
AcDbPlotSettings
  1

  2
EPSON LP-9300
  4

  6

 40
0.0
 41
0.0
 42
0.0
 43
0.0
 44
0.0
 45
0.0
 46
0.0
 47
0.0
 48
0.0
 49
0.0
140
0.0
141
0.0
142
1.0
143
1.0
 70
   688
 72
     0
 73
     0
 74
     5
  7

 75
    16
147
1.0
 76
     0
 77
     2
 78
   300
148
0.0
149
0.0
100
AcDbLayout
  1
ﾚｲｱｳﾄ1
 70
     1
 71
     1
 10
0.0
 20
0.0
 11
12.0
 21
9.0
 12
0.0
 22
0.0
 32
0.0
 14
1.000000000000000E+20
 24
1.000000000000000E+20
 34
1.000000000000000E+20
 15
-1.000000000000000E+20
 25
-1.000000000000000E+20
 35
-1.000000000000000E+20
146
0.0
 13
0.0
 23
0.0
 33
0.0
 16
1.0
 26
0.0
 36
0.0
 17
0.0
 27
1.0
 37
0.0
 76
     0
330
16
  0
MATERIAL
  5
8300
102
{ACAD_XDICTIONARY
360
8301
102
}
102
{ACAD_REACTORS
330
82F7
102
}
330
82F7
100
AcDbMaterial
  1
ByBlock
 72
     0
 43
0.0208333333333333
 43
0.0
 43
0.0
 43
0.0
 43
0.0
 43
0.0208333333333333
 43
0.0
 43
0.0
 43
0.0
 43
0.0
 43
1.0
 43
0.0
 43
0.0
 43
0.0
 43
0.0
 43
1.0
 77
     0
 47
0.0208333333333333
 47
0.0
 47
0.0
 47
0.0
 47
0.0
 47
0.0208333333333333
 47
0.0
 47
0.0
 47
0.0
 47
0.0
 47
1.0
 47
0.0
 47
0.0
 47
0.0
 47
0.0
 47
1.0
171
     0
 49
0.0208333333333333
 49
0.0
 49
0.0
 49
0.0
 49
0.0
 49
0.0208333333333333
 49
0.0
 49
0.0
 49
0.0
 49
0.0
 49
1.0
 49
0.0
 49
0.0
 49
0.0
 49
0.0
 49
1.0
175
     0
142
0.0208333333333333
142
0.0
142
0.0
142
0.0
142
0.0
142
0.0208333333333333
142
0.0
142
0.0
142
0.0
142
0.0
142
1.0
142
0.0
142
0.0
142
0.0
142
0.0
142
1.0
179
     0
144
0.0208333333333333
144
0.0
144
0.0
144
0.0
144
0.0
144
0.0208333333333333
144
0.0
144
0.0
144
0.0
144
0.0
144
1.0
144
0.0
144
0.0
144
0.0
144
0.0
144
1.0
147
0.0208333333333333
147
0.0
147
0.0
147
0.0
147
0.0
147
0.0208333333333333
147
0.0
147
0.0
147
0.0
147
0.0
147
1.0
147
0.0
147
0.0
147
0.0
147
0.0
147
1.0
  0
MATERIAL
  5
82F8
102
{ACAD_XDICTIONARY
360
82F9
102
}
102
{ACAD_REACTORS
330
82F7
102
}
330
82F7
100
AcDbMaterial
  1
ByLayer
 72
     0
 43
0.0208333333333333
 43
0.0
 43
0.0
 43
0.0
 43
0.0
 43
0.0208333333333333
 43
0.0
 43
0.0
 43
0.0
 43
0.0
 43
1.0
 43
0.0
 43
0.0
 43
0.0
 43
0.0
 43
1.0
 77
     0
 47
0.0208333333333333
 47
0.0
 47
0.0
 47
0.0
 47
0.0
 47
0.0208333333333333
 47
0.0
 47
0.0
 47
0.0
 47
0.0
 47
1.0
 47
0.0
 47
0.0
 47
0.0
 47
0.0
 47
1.0
171
     0
 49
0.0208333333333333
 49
0.0
 49
0.0
 49
0.0
 49
0.0
 49
0.0208333333333333
 49
0.0
 49
0.0
 49
0.0
 49
0.0
 49
1.0
 49
0.0
 49
0.0
 49
0.0
 49
0.0
 49
1.0
175
     0
142
0.0208333333333333
142
0.0
142
0.0
142
0.0
142
0.0
142
0.0208333333333333
142
0.0
142
0.0
142
0.0
142
0.0
142
1.0
142
0.0
142
0.0
142
0.0
142
0.0
142
1.0
179
     0
144
0.0208333333333333
144
0.0
144
0.0
144
0.0
144
0.0
144
0.0208333333333333
144
0.0
144
0.0
144
0.0
144
0.0
144
1.0
144
0.0
144
0.0
144
0.0
144
0.0
144
1.0
147
0.0208333333333333
147
0.0
147
0.0
147
0.0
147
0.0
147
0.0208333333333333
147
0.0
147
0.0
147
0.0
147
0.0
147
1.0
147
0.0
147
0.0
147
0.0
147
0.0
147
1.0
  0
MATERIAL
  5
8308
102
{ACAD_XDICTIONARY
360
8309
102
}
102
{ACAD_REACTORS
330
82F7
102
}
330
82F7
100
AcDbMaterial
  1
Global
 72
     0
 43
0.0208333333333333
 43
0.0
 43
0.0
 43
0.0
 43
0.0
 43
0.0208333333333333
 43
0.0
 43
0.0
 43
0.0
 43
0.0
 43
1.0
 43
0.0
 43
0.0
 43
0.0
 43
0.0
 43
1.0
 77
     0
 47
0.0208333333333333
 47
0.0
 47
0.0
 47
0.0
 47
0.0
 47
0.0208333333333333
 47
0.0
 47
0.0
 47
0.0
 47
0.0
 47
1.0
 47
0.0
 47
0.0
 47
0.0
 47
0.0
 47
1.0
171
     0
 49
0.0208333333333333
 49
0.0
 49
0.0
 49
0.0
 49
0.0
 49
0.0208333333333333
 49
0.0
 49
0.0
 49
0.0
 49
0.0
 49
1.0
 49
0.0
 49
0.0
 49
0.0
 49
0.0
 49
1.0
175
     0
142
0.0208333333333333
142
0.0
142
0.0
142
0.0
142
0.0
142
0.0208333333333333
142
0.0
142
0.0
142
0.0
142
0.0
142
1.0
142
0.0
142
0.0
142
0.0
142
0.0
142
1.0
179
     0
144
0.0208333333333333
144
0.0
144
0.0
144
0.0
144
0.0
144
0.0208333333333333
144
0.0
144
0.0
144
0.0
144
0.0
144
1.0
144
0.0
144
0.0
144
0.0
144
0.0
144
1.0
147
0.0208333333333333
147
0.0
147
0.0
147
0.0
147
0.0
147
0.0208333333333333
147
0.0
147
0.0
147
0.0
147
0.0
147
1.0
147
0.0
147
0.0
147
0.0
147
0.0
147
1.0
  0
MLEADERSTYLE
  5
833F
102
{ACAD_REACTORS
330
833E
102
}
330
833E
100
AcDbMLeaderStyle
179
     2
170
     2
171
     1
172
     0
 90
        2
 40
0.0
 41
0.0
173
     1
 91
-1056964608
340
13
 92
       -2
290
     1
 42
2.0
291
     1
 43
0.36
  3
Standard
 44
4.0
300

342
10
174
     1
178
     6
175
     1
176
     0
 93
-1056964608
 45
4.0
292
     0
297
     0
 46
4.0
 94
-1056964608
 47
1.0
 49
1.0
140
1.0
293
     1
141
0.0
294
     1
177
     0
142
1.0
295
     1
296
     0
143
0.125
271
     0
272
     9
273
     9
298
     1
  0
MLINESTYLE
  5
1C
102
{ACAD_REACTORS
330
E
102
}
330
E
100
AcDbMlineStyle
  2
STANDARD
 70
     0
  3

 62
     0
 51
90.0
 52
90.0
 71
     2
 49
0.5
 62
   256
  6
BYLAYER
 49
-0.5
 62
   256
  6
BYLAYER
  0
ACDBPLACEHOLDER
  5
82E8
102
{ACAD_REACTORS
330
82E7
102
}
330
82E7
  0
SCALE
  5
832D
102
{ACAD_REACTORS
330
832C
102
}
330
832C
100
AcDbScale
 70
     0
300
1:1
140
1.0
141
1.0
290
     1
  0
SCALE
  5
832E
102
{ACAD_REACTORS
330
832C
102
}
330
832C
100
AcDbScale
 70
     0
300
1:2
140
1.0
141
2.0
290
     0
  0
SCALE
  5
832F
102
{ACAD_REACTORS
330
832C
102
}
330
832C
100
AcDbScale
 70
     0
300
1:4
140
1.0
141
4.0
290
     0
  0
SCALE
  5
8330
102
{ACAD_REACTORS
330
832C
102
}
330
832C
100
AcDbScale
 70
     0
300
1:5
140
1.0
141
5.0
290
     0
  0
SCALE
  5
8331
102
{ACAD_REACTORS
330
832C
102
}
330
832C
100
AcDbScale
 70
     0
300
1:8
140
1.0
141
8.0
290
     0
  0
SCALE
  5
8332
102
{ACAD_REACTORS
330
832C
102
}
330
832C
100
AcDbScale
 70
     0
300
1:10
140
1.0
141
10.0
290
     0
  0
SCALE
  5
8333
102
{ACAD_REACTORS
330
832C
102
}
330
832C
100
AcDbScale
 70
     0
300
1:16
140
1.0
141
16.0
290
     0
  0
SCALE
  5
8334
102
{ACAD_REACTORS
330
832C
102
}
330
832C
100
AcDbScale
 70
     0
300
1:20
140
1.0
141
20.0
290
     0
  0
SCALE
  5
8335
102
{ACAD_REACTORS
330
832C
102
}
330
832C
100
AcDbScale
 70
     0
300
1:30
140
1.0
141
30.0
290
     0
  0
SCALE
  5
8336
102
{ACAD_REACTORS
330
832C
102
}
330
832C
100
AcDbScale
 70
     0
300
1:40
140
1.0
141
40.0
290
     0
  0
SCALE
  5
8337
102
{ACAD_REACTORS
330
832C
102
}
330
832C
100
AcDbScale
 70
     0
300
1:50
140
1.0
141
50.0
290
     0
  0
SCALE
  5
8338
102
{ACAD_REACTORS
330
832C
102
}
330
832C
100
AcDbScale
 70
     0
300
1:100
140
1.0
141
100.0
290
     0
  0
SCALE
  5
8339
102
{ACAD_REACTORS
330
832C
102
}
330
832C
100
AcDbScale
 70
     0
300
2:1
140
2.0
141
1.0
290
     0
  0
SCALE
  5
833A
102
{ACAD_REACTORS
330
832C
102
}
330
832C
100
AcDbScale
 70
     0
300
4:1
140
4.0
141
1.0
290
     0
  0
SCALE
  5
833B
102
{ACAD_REACTORS
330
832C
102
}
330
832C
100
AcDbScale
 70
     0
300
8:1
140
8.0
141
1.0
290
     0
  0
SCALE
  5
833C
102
{ACAD_REACTORS
330
832C
102
}
330
832C
100
AcDbScale
 70
     0
300
10:1
140
10.0
141
1.0
290
     0
  0
SCALE
  5
833D
102
{ACAD_REACTORS
330
832C
102
}
330
832C
100
AcDbScale
 70
     0
300
100:1
140
100.0
141
1.0
290
     0
  0
ACDBSECTIONVIEWSTYLE
  5
8341
102
{ACAD_XDICTIONARY
360
83DA
102
}
102
{ACAD_REACTORS
330
8340
102
}
330
8340
100
AcDbModelDocViewStyle
 70
     0
  3
Metric50
290
     0
100
AcDbSectionViewStyle
 70
     0
 71
     0
 90
      102
 71
     1
340
10
 62
   256
 40
5.0
340
0
340
0
 62
   256
 40
5.0
300
I, O, Q, S, X, Z
 40
10.0
 90
        0
 40
2.5
 90
        0
 71
     2
340
15
 90
       25
 62
   256
340
15
 90
       50
 62
   256
 40
5.0
 40
2.5
 40
5.0
 71
     3
340
10
 62
   256
 40
5.0
 90
        0
 40
15.0
 90
        1
300
%<\AcVar ViewSectionStartId>%-%<\AcVar ViewSectionEndId>% (%<\AcVar ViewScale \f "%sn">%)
 71
     4
 62
   256
 62
   257
300
ANSI31
 40
1.0
 90
        0
290
     0
290
     0
 90
        6
 40
0.0
 40
1.570796326794896
 40
0.2617993877991494
 40
1.308996938995747
 40
-0.2617993877991494
 40
1.832595714594046
  0
TABLESTYLE
  5
832B
102
{ACAD_XDICTIONARY
360
841A
102
}
102
{ACAD_REACTORS
330
832A
102
}
330
832A
100
AcDbTableStyle
280
     0
  3
Standard
 70
     0
 71
     0
 40
1.5
 41
1.5
280
     0
281
     0
  7
STANDARD
140
4.5
170
     2
 62
     0
 63
     7
283
     0
 90
      512
 91
        0
  1

274
    -2
284
     1
 64
     0
275
    -2
285
     1
 65
     0
276
    -2
286
     1
 66
     0
277
    -2
287
     1
 67
     0
278
    -2
288
     1
 68
     0
279
    -2
289
     1
 69
     0
  7
STANDARD
140
6.0
170
     5
 62
     0
 63
     7
283
     0
 90
      512
 91
        0
  1

274
    -2
284
     1
 64
     0
275
    -2
285
     1
 65
     0
276
    -2
286
     1
 66
     0
277
    -2
287
     1
 67
     0
278
    -2
288
     1
 68
     0
279
    -2
289
     1
 69
     0
  7
STANDARD
140
4.5
170
     5
 62
     0
 63
     7
283
     0
 90
      512
 91
        0
  1

274
    -2
284
     1
 64
     0
275
    -2
285
     1
 65
     0
276
    -2
286
     1
 66
     0
277
    -2
287
     1
 67
     0
278
    -2
288
     1
 68
     0
279
    -2
289
     1
 69
     0
  0
VISUALSTYLE
  5
8316
102
{ACAD_REACTORS
330
8310
102
}
330
8310
100
AcDbVisualStyle
  2
2dWireframe
 70
     4
177
     3
291
     0
 70
    58
 90
        0
176
     1
 90
        2
176
     1
 90
        0
176
     1
 90
        0
176
     1
 40
0.6
176
     1
 40
30.0
176
     1
 62
     7
420
 16777215
176
     1
 90
        1
176
     1
 90
        4
176
     1
 62
     7
176
     1
 62
   257
176
     1
 90
        1
176
     1
 90
        1
176
     1
 40
1.0
176
     1
 90
        0
176
     1
 62
   257
176
     1
 40
1.0
176
     1
 90
        1
176
     1
 90
        6
176
     1
 90
        2
176
     1
 62
     7
176
     1
 90
        5
176
     1
 90
        0
176
     1
 90
        0
176
     1
290
     0
176
     1
 90
        1
176
     1
 40
0.0
176
     1
 90
        0
176
     1
290
     1
176
     1
290
     1
176
     1
290
     0
176
     1
290
     0
176
     1
290
     0
176
     1
290
     0
176
     1
290
     0
176
     1
290
     0
176
     1
290
     0
176
     1
 90
       50
176
     1
 40
0.0
176
     1
 40
1.0
176
     1
 90
        0
176
     1
 62
    18
420
        0
176
     1
 90
       50
176
     1
 90
        3
176
     1
 62
     5
420
      255
176
     1
290
     0
176
     1
 90
       50
176
     1
 90
       50
176
     1
 90
       50
176
     1
290
     0
176
     1
 90
       50
176
     1
 62
   256
176
     0
 40
1.0
176
     0
 90
        2
176
     1
  1
strokes_ogs.tif
176
     1
290
     0
176
     1
 40
1.0
176
     1
 40
1.0
176
     1
  0
VISUALSTYLE
  5
8315
102
{ACAD_REACTORS
330
8310
102
}
330
8310
100
AcDbVisualStyle
  2
Basic
 70
     7
177
     3
291
     1
 70
    58
 90
        1
176
     1
 90
        0
176
     1
 90
        1
176
     1
 90
        0
176
     1
 40
0.6
176
     1
 40
30.0
176
     1
 62
     7
420
 16777215
176
     1
 90
        0
176
     1
 90
        4
176
     1
 62
     7
176
     1
 62
   257
176
     1
 90
        1
176
     1
 90
        1
176
     1
 40
1.0
176
     1
 90
        8
176
     1
 62
     7
176
     1
 40
1.0
176
     1
 90
        1
176
     1
 90
        6
176
     1
 90
        2
176
     1
 62
     7
176
     1
 90
        5
176
     1
 90
        0
176
     1
 90
        0
176
     1
290
     0
176
     1
 90
        1
176
     1
 40
0.0
176
     1
 90
        0
176
     1
290
     0
176
     1
290
     1
176
     1
290
     1
176
     1
290
     0
176
     1
290
     0
176
     1
290
     0
176
     1
290
     0
176
     1
290
     0
176
     1
290
     0
176
     1
 90
       50
176
     1
 40
0.0
176
     1
 40
1.0
176
     1
 90
        0
176
     1
 62
    18
420
        0
176
     1
 90
       50
176
     1
 90
        3
176
     1
 62
     5
420
      255
176
     1
290
     0
176
     1
 90
       50
176
     1
 90
       50
176
     1
 90
       50
176
     1
290
     0
176
     1
 90
       50
176
     1
 62
   256
176
     0
 40
1.0
176
     0
 90
        2
176
     1
  1
strokes_ogs.tif
176
     1
290
     0
176
     1
 40
1.0
176
     1
 40
1.0
176
     1
  0
VISUALSTYLE
  5
831C
102
{ACAD_REACTORS
330
8310
102
}
330
8310
100
AcDbVisualStyle
  2
Brighten
 70
    12
177
     3
291
     1
 70
    58
 90
        2
176
     1
 90
        2
176
     1
 90
        0
176
     1
 90
        0
176
     1
 40
0.6
176
     1
 40
30.0
176
     1
 62
     7
420
 16777215
176
     1
 90
        1
176
     1
 90
        4
176
     1
 62
     7
176
     1
 62
   257
176
     1
 90
        1
176
     1
 90
        1
176
     1
 40
1.0
176
     1
 90
        8
176
     1
 62
     7
176
     1
 40
1.0
176
     1
 90
        1
176
     1
 90
        6
176
     1
 90
        2
176
     1
 62
     7
176
     1
 90
        5
176
     1
 90
        0
176
     1
 90
        0
176
     1
290
     0
176
     1
 90
        1
176
     1
 40
50.0
176
     1
 90
        0
176
     1
290
     0
176
     1
290
     1
176
     1
290
     1
176
     1
290
     0
176
     1
290
     0
176
     1
290
     0
176
     1
290
     0
176
     1
290
     0
176
     1
290
     0
176
     1
 90
       50
176
     1
 40
0.0
176
     1
 40
1.0
176
     1
 90
        0
176
     1
 62
    18
420
        0
176
     1
 90
       50
176
     1
 90
        3
176
     1
 62
     5
420
      255
176
     1
290
     0
176
     1
 90
       50
176
     1
 90
       50
176
     1
 90
       50
176
     1
290
     0
176
     1
 90
       50
176
     1
 62
   256
176
     0
 40
1.0
176
     0
 90
        2
176
     1
  1
strokes_ogs.tif
176
     1
290
     0
176
     1
 40
1.0
176
     1
 40
1.0
176
     1
  0
VISUALSTYLE
  5
8320
102
{ACAD_REACTORS
330
8310
102
}
330
8310
100
AcDbVisualStyle
  2
ColorChange
 70
    16
177
     3
291
     1
 70
    58
 90
        2
176
     1
 90
        2
176
     1
 90
        3
176
     1
 90
        0
176
     1
 40
0.6
176
     1
 40
30.0
176
     1
 62
     8
420
  8421504
176
     1
 90
        1
176
     1
 90
        4
176
     1
 62
     7
176
     1
 62
   257
176
     1
 90
        1
176
     1
 90
        1
176
     1
 40
1.0
176
     1
 90
        8
176
     1
 62
     8
420
  8421504
176
     1
 40
1.0
176
     1
 90
        1
176
     1
 90
        6
176
     1
 90
        2
176
     1
 62
     7
176
     1
 90
        5
176
     1
 90
        0
176
     1
 90
        0
176
     1
290
     0
176
     1
 90
        1
176
     1
 40
0.0
176
     1
 90
        0
176
     1
290
     0
176
     1
290
     1
176
     1
290
     1
176
     1
290
     0
176
     1
290
     0
176
     1
290
     0
176
     1
290
     0
176
     1
290
     0
176
     1
290
     0
176
     1
 90
       50
176
     1
 40
0.0
176
     1
 40
1.0
176
     1
 90
        0
176
     1
 62
    18
420
        0
176
     1
 90
       50
176
     1
 90
        3
176
     1
 62
     5
420
      255
176
     1
290
     0
176
     1
 90
       50
176
     1
 90
       50
176
     1
 90
       50
176
     1
290
     0
176
     1
 90
       50
176
     1
 62
   256
176
     0
 40
1.0
176
     0
 90
        2
176
     1
  1
strokes_ogs.tif
176
     1
290
     0
176
     1
 40
1.0
176
     1
 40
1.0
176
     1
  0
VISUALSTYLE
  5
8319
102
{ACAD_REACTORS
330
8310
102
}
330
8310
100
AcDbVisualStyle
  2
Conceptual
 70
     9
177
     3
291
     0
 70
    58
 90
        3
176
     1
 90
        2
176
     1
 90
        0
176
     1
 90
        0
176
     1
 40
0.6
176
     1
 40
30.0
176
     1
 62
     7
420
 16777215
176
     1
 90
        2
176
     1
 90
        2
176
     1
 62
     7
176
     1
 62
   257
176
     1
 90
        1
176
     1
 90
        1
176
     1
 40
179.0
176
     1
 90
        8
176
     1
 62
     7
176
     1
 40
1.0
176
     1
 90
        1
176
     1
 90
        6
176
     1
 90
        2
176
     1
 62
     7
176
     1
 90
        3
176
     1
 90
        0
176
     1
 90
        0
176
     1
290
     0
176
     1
 90
        1
176
     1
 40
0.0
176
     1
 90
        0
176
     1
290
     0
176
     1
290
     1
176
     1
290
     1
176
     1
290
     0
176
     1
290
     0
176
     1
290
     0
176
     1
290
     0
176
     1
290
     0
176
     1
290
     0
176
     1
 90
       50
176
     1
 40
0.0
176
     1
 40
1.0
176
     1
 90
        0
176
     1
 62
    18
420
        0
176
     1
 90
       50
176
     1
 90
        3
176
     1
 62
     5
420
      255
176
     1
290
     0
176
     1
 90
       50
176
     1
 90
       50
176
     1
 90
       50
176
     1
290
     0
176
     1
 90
       50
176
     1
 62
   256
176
     0
 40
1.0
176
     0
 90
        2
176
     1
  1
strokes_ogs.tif
176
     1
290
     0
176
     1
 40
1.0
176
     1
 40
1.0
176
     1
  0
VISUALSTYLE
  5
831B
102
{ACAD_REACTORS
330
8310
102
}
330
8310
100
AcDbVisualStyle
  2
Dim
 70
    11
177
     3
291
     1
 70
    58
 90
        2
176
     1
 90
        2
176
     1
 90
        0
176
     1
 90
        0
176
     1
 40
0.6
176
     1
 40
30.0
176
     1
 62
     7
420
 16777215
176
     1
 90
        1
176
     1
 90
        4
176
     1
 62
     7
176
     1
 62
   257
176
     1
 90
        1
176
     1
 90
        1
176
     1
 40
1.0
176
     1
 90
        8
176
     1
 62
     7
176
     1
 40
1.0
176
     1
 90
        1
176
     1
 90
        6
176
     1
 90
        2
176
     1
 62
     7
176
     1
 90
        5
176
     1
 90
        0
176
     1
 90
        0
176
     1
290
     0
176
     1
 90
        1
176
     1
 40
-50.0
176
     1
 90
        0
176
     1
290
     0
176
     1
290
     1
176
     1
290
     1
176
     1
290
     0
176
     1
290
     0
176
     1
290
     0
176
     1
290
     0
176
     1
290
     0
176
     1
290
     0
176
     1
 90
       50
176
     1
 40
0.0
176
     1
 40
1.0
176
     1
 90
        0
176
     1
 62
    18
420
        0
176
     1
 90
       50
176
     1
 90
        3
176
     1
 62
     5
420
      255
176
     1
290
     0
176
     1
 90
       50
176
     1
 90
       50
176
     1
 90
       50
176
     1
290
     0
176
     1
 90
       50
176
     1
 62
   256
176
     0
 40
1.0
176
     0
 90
        2
176
     1
  1
strokes_ogs.tif
176
     1
290
     0
176
     1
 40
1.0
176
     1
 40
1.0
176
     1
  0
VISUALSTYLE
  5
8328
102
{ACAD_REACTORS
330
8310
102
}
330
8310
100
AcDbVisualStyle
  2
EdgeColorOff
 70
    22
177
     3
291
     1
 70
    58
 90
        2
176
     0
 90
        2
176
     0
 90
        0
176
     0
 90
        0
176
     0
 40
0.6
176
     0
 40
30.0
176
     0
 62
     7
420
 16777215
176
     0
 90
        1
176
     0
 90
        4
176
     0
 62
     7
176
     0
 62
   257
176
     0
 90
        1
176
     0
 90
        1
176
     0
 40
1.0
176
     0
 90
        8
176
     2
 62
     7
176
     0
 40
1.0
176
     0
 90
        1
176
     0
 90
        6
176
     0
 90
        2
176
     0
 62
     7
176
     0
 90
        5
176
     0
 90
        0
176
     0
 90
        0
176
     0
290
     0
176
     0
 90
        1
176
     0
 40
0.0
176
     0
 90
        0
176
     0
290
     0
176
     0
290
     1
176
     0
290
     1
176
     0
290
     0
176
     0
290
     0
176
     0
290
     0
176
     0
290
     0
176
     0
290
     0
176
     0
290
     0
176
     0
 90
       50
176
     0
 40
0.0
176
     0
 40
1.0
176
     0
 90
        0
176
     0
 62
    18
420
        0
176
     0
 90
       50
176
     0
 90
        3
176
     0
 62
     5
420
      255
176
     0
290
     0
176
     0
 90
       50
176
     0
 90
       50
176
     0
 90
       50
176
     0
290
     0
176
     0
 90
       50
176
     0
 62
   256
176
     0
 40
1.0
176
     0
 90
        2
176
     0
  1
strokes_ogs.tif
176
     0
290
     0
176
     0
 40
1.0
176
     0
 40
1.0
176
     0
  0
VISUALSTYLE
  5
831F
102
{ACAD_REACTORS
330
8310
102
}
330
8310
100
AcDbVisualStyle
  2
Facepattern
 70
    15
177
     3
291
     1
 70
    58
 90
        2
176
     1
 90
        2
176
     1
 90
        0
176
     1
 90
        0
176
     1
 40
0.6
176
     1
 40
30.0
176
     1
 62
     7
420
 16777215
176
     1
 90
        1
176
     1
 90
        4
176
     1
 62
     7
176
     1
 62
   257
176
     1
 90
        1
176
     1
 90
        1
176
     1
 40
1.0
176
     1
 90
        8
176
     1
 62
     7
176
     1
 40
1.0
176
     1
 90
        1
176
     1
 90
        6
176
     1
 90
        2
176
     1
 62
     7
176
     1
 90
        5
176
     1
 90
        0
176
     1
 90
        0
176
     1
290
     0
176
     1
 90
        1
176
     1
 40
0.0
176
     1
 90
        0
176
     1
290
     0
176
     1
290
     1
176
     1
290
     1
176
     1
290
     0
176
     1
290
     0
176
     1
290
     0
176
     1
290
     0
176
     1
290
     0
176
     1
290
     0
176
     1
 90
       50
176
     1
 40
0.0
176
     1
 40
1.0
176
     1
 90
        0
176
     1
 62
    18
420
        0
176
     1
 90
       50
176
     1
 90
        3
176
     1
 62
     5
420
      255
176
     1
290
     0
176
     1
 90
       50
176
     1
 90
       50
176
     1
 90
       50
176
     1
290
     0
176
     1
 90
       50
176
     1
 62
   256
176
     0
 40
1.0
176
     0
 90
        2
176
     1
  1
strokes_ogs.tif
176
     1
290
     0
176
     1
 40
1.0
176
     1
 40
1.0
176
     1
  0
VISUALSTYLE
  5
8311
102
{ACAD_REACTORS
330
8310
102
}
330
8310
100
AcDbVisualStyle
  2
Flat
 70
     0
177
     3
291
     1
 70
    58
 90
        2
176
     1
 90
        1
176
     1
 90
        1
176
     1
 90
        2
176
     1
 40
0.6
176
     1
 40
30.0
176
     1
 62
     7
420
 16777215
176
     1
 90
        0
176
     1
 90
        0
176
     1
 62
     7
176
     1
 62
   257
176
     1
 90
        1
176
     1
 90
        1
176
     1
 40
1.0
176
     1
 90
        8
176
     1
 62
     7
176
     1
 40
1.0
176
     1
 90
        1
176
     1
 90
        6
176
     1
 90
        2
176
     1
 62
     7
176
     1
 90
        5
176
     1
 90
        0
176
     1
 90
        0
176
     1
290
     0
176
     1
 90
       13
176
     1
 40
0.0
176
     1
 90
        0
176
     1
290
     0
176
     1
290
     1
176
     1
290
     1
176
     1
290
     0
176
     1
290
     0
176
     1
290
     0
176
     1
290
     0
176
     1
290
     0
176
     1
290
     0
176
     1
 90
       50
176
     1
 40
0.0
176
     1
 40
1.0
176
     1
 90
        0
176
     1
 62
    18
420
        0
176
     1
 90
       50
176
     1
 90
        3
176
     1
 62
     5
420
      255
176
     1
290
     0
176
     1
 90
       50
176
     1
 90
       50
176
     1
 90
       50
176
     1
290
     0
176
     1
 90
       50
176
     1
 62
   256
176
     0
 40
1.0
176
     0
 90
        2
176
     1
  1
strokes_ogs.tif
176
     1
290
     0
176
     1
 40
1.0
176
     1
 40
1.0
176
     1
  0
VISUALSTYLE
  5
8312
102
{ACAD_REACTORS
330
8310
102
}
330
8310
100
AcDbVisualStyle
  2
FlatWithEdges
 70
     1
177
     3
291
     1
 70
    58
 90
        2
176
     1
 90
        1
176
     1
 90
        1
176
     1
 90
        2
176
     1
 40
0.6
176
     1
 40
30.0
176
     1
 62
     7
420
 16777215
176
     1
 90
        1
176
     1
 90
        0
176
     1
 62
     7
176
     1
 62
   257
176
     1
 90
        1
176
     1
 90
        1
176
     1
 40
1.0
176
     1
 90
        0
176
     1
 62
   257
176
     1
 40
1.0
176
     1
 90
        1
176
     1
 90
        6
176
     1
 90
        2
176
     1
 62
     7
176
     1
 90
        5
176
     1
 90
        0
176
     1
 90
        0
176
     1
290
     0
176
     1
 90
       13
176
     1
 40
0.0
176
     1
 90
        0
176
     1
290
     0
176
     1
290
     1
176
     1
290
     1
176
     1
290
     0
176
     1
290
     0
176
     1
290
     0
176
     1
290
     0
176
     1
290
     0
176
     1
290
     0
176
     1
 90
       50
176
     1
 40
0.0
176
     1
 40
1.0
176
     1
 90
        0
176
     1
 62
    18
420
        0
176
     1
 90
       50
176
     1
 90
        3
176
     1
 62
     5
420
      255
176
     1
290
     0
176
     1
 90
       50
176
     1
 90
       50
176
     1
 90
       50
176
     1
290
     0
176
     1
 90
       50
176
     1
 62
   256
176
     0
 40
1.0
176
     0
 90
        2
176
     1
  1
strokes_ogs.tif
176
     1
290
     0
176
     1
 40
1.0
176
     1
 40
1.0
176
     1
  0
VISUALSTYLE
  5
8313
102
{ACAD_REACTORS
330
8310
102
}
330
8310
100
AcDbVisualStyle
  2
Gouraud
 70
     2
177
     3
291
     1
 70
    58
 90
        2
176
     1
 90
        2
176
     1
 90
        1
176
     1
 90
        2
176
     1
 40
0.6
176
     1
 40
30.0
176
     1
 62
     7
420
 16777215
176
     1
 90
        0
176
     1
 90
        0
176
     1
 62
     7
176
     1
 62
   257
176
     1
 90
        1
176
     1
 90
        1
176
     1
 40
1.0
176
     1
 90
        0
176
     1
 62
     7
176
     1
 40
1.0
176
     1
 90
        1
176
     1
 90
        6
176
     1
 90
        2
176
     1
 62
     7
176
     1
 90
        5
176
     1
 90
        0
176
     1
 90
        0
176
     1
290
     0
176
     1
 90
       13
176
     1
 40
0.0
176
     1
 90
        0
176
     1
290
     0
176
     1
290
     1
176
     1
290
     1
176
     1
290
     0
176
     1
290
     0
176
     1
290
     0
176
     1
290
     0
176
     1
290
     0
176
     1
290
     0
176
     1
 90
       50
176
     1
 40
0.0
176
     1
 40
1.0
176
     1
 90
        0
176
     1
 62
    18
420
        0
176
     1
 90
       50
176
     1
 90
        3
176
     1
 62
     5
420
      255
176
     1
290
     0
176
     1
 90
       50
176
     1
 90
       50
176
     1
 90
       50
176
     1
290
     0
176
     1
 90
       50
176
     1
 62
   256
176
     0
 40
1.0
176
     0
 90
        2
176
     1
  1
strokes_ogs.tif
176
     1
290
     0
176
     1
 40
1.0
176
     1
 40
1.0
176
     1
  0
VISUALSTYLE
  5
8314
102
{ACAD_REACTORS
330
8310
102
}
330
8310
100
AcDbVisualStyle
  2
GouraudWithEdges
 70
     3
177
     3
291
     1
 70
    58
 90
        2
176
     1
 90
        2
176
     1
 90
        1
176
     1
 90
        2
176
     1
 40
0.6
176
     1
 40
30.0
176
     1
 62
     7
420
 16777215
176
     1
 90
        1
176
     1
 90
        0
176
     1
 62
     7
176
     1
 62
   257
176
     1
 90
        1
176
     1
 90
        1
176
     1
 40
1.0
176
     1
 90
        0
176
     1
 62
   257
176
     1
 40
1.0
176
     1
 90
        1
176
     1
 90
        6
176
     1
 90
        2
176
     1
 62
     7
176
     1
 90
        5
176
     1
 90
        0
176
     1
 90
        0
176
     1
290
     0
176
     1
 90
       13
176
     1
 40
0.0
176
     1
 90
        0
176
     1
290
     0
176
     1
290
     1
176
     1
290
     1
176
     1
290
     0
176
     1
290
     0
176
     1
290
     0
176
     1
290
     0
176
     1
290
     0
176
     1
290
     0
176
     1
 90
       50
176
     1
 40
0.0
176
     1
 40
1.0
176
     1
 90
        0
176
     1
 62
    18
420
        0
176
     1
 90
       50
176
     1
 90
        3
176
     1
 62
     5
420
      255
176
     1
290
     0
176
     1
 90
       50
176
     1
 90
       50
176
     1
 90
       50
176
     1
290
     0
176
     1
 90
       50
176
     1
 62
   256
176
     0
 40
1.0
176
     0
 90
        2
176
     1
  1
strokes_ogs.tif
176
     1
290
     0
176
     1
 40
1.0
176
     1
 40
1.0
176
     1
  0
VISUALSTYLE
  5
8318
102
{ACAD_REACTORS
330
8310
102
}
330
8310
100
AcDbVisualStyle
  2
Hidden
 70
     6
177
     3
291
     0
 70
    58
 90
        1
176
     1
 90
        2
176
     1
 90
        2
176
     1
 90
        0
176
     1
 40
0.6
176
     1
 40
30.0
176
     1
 62
     7
420
 16777215
176
     1
 90
        2
176
     1
 90
        2
176
     1
 62
     7
176
     1
 62
   257
176
     1
 90
        2
176
     1
 90
        1
176
     1
 40
40.0
176
     1
 90
        0
176
     1
 62
   257
176
     1
 40
1.0
176
     1
 90
        1
176
     1
 90
        6
176
     1
 90
        2
176
     1
 62
     7
176
     1
 90
        3
176
     1
 90
        0
176
     1
 90
        0
176
     1
290
     0
176
     1
 90
        1
176
     1
 40
0.0
176
     1
 90
        0
176
     1
290
     0
176
     1
290
     1
176
     1
290
     1
176
     1
290
     0
176
     1
290
     0
176
     1
290
     0
176
     1
290
     0
176
     1
290
     0
176
     1
290
     0
176
     1
 90
       50
176
     1
 40
0.0
176
     1
 40
1.0
176
     1
 90
        0
176
     1
 62
    18
420
        0
176
     1
 90
       50
176
     1
 90
        3
176
     1
 62
     5
420
      255
176
     1
290
     0
176
     1
 90
       50
176
     1
 90
       50
176
     1
 90
       50
176
     1
290
     0
176
     1
 90
       50
176
     1
 62
   256
176
     0
 40
1.0
176
     0
 90
        2
176
     1
  1
strokes_ogs.tif
176
     1
290
     0
176
     1
 40
1.0
176
     1
 40
1.0
176
     1
  0
VISUALSTYLE
  5
8326
102
{ACAD_REACTORS
330
8310
102
}
330
8310
100
AcDbVisualStyle
  2
JitterOff
 70
    20
177
     3
291
     1
 70
    58
 90
        2
176
     0
 90
        2
176
     0
 90
        0
176
     0
 90
        0
176
     0
 40
0.6
176
     0
 40
30.0
176
     0
 62
     7
420
 16777215
176
     0
 90
        1
176
     0
 90
        4
176
     0
 62
     7
176
     0
 62
   257
176
     0
 90
        1
176
     0
 90
        1
176
     0
 40
1.0
176
     0
 90
       10
176
     2
 62
     7
176
     0
 40
1.0
176
     0
 90
        1
176
     0
 90
        6
176
     0
 90
        2
176
     0
 62
     7
176
     0
 90
        5
176
     0
 90
        0
176
     0
 90
        0
176
     0
290
     0
176
     0
 90
        1
176
     0
 40
0.0
176
     0
 90
        0
176
     0
290
     0
176
     0
290
     1
176
     0
290
     1
176
     0
290
     0
176
     0
290
     0
176
     0
290
     0
176
     0
290
     0
176
     0
290
     0
176
     0
290
     0
176
     0
 90
       50
176
     0
 40
0.0
176
     0
 40
1.0
176
     0
 90
        0
176
     0
 62
    18
420
        0
176
     0
 90
       50
176
     0
 90
        3
176
     0
 62
     5
420
      255
176
     0
290
     0
176
     0
 90
       50
176
     0
 90
       50
176
     0
 90
       50
176
     0
290
     0
176
     0
 90
       50
176
     0
 62
   256
176
     0
 40
1.0
176
     0
 90
        2
176
     0
  1
strokes_ogs.tif
176
     0
290
     0
176
     0
 40
1.0
176
     0
 40
1.0
176
     0
  0
VISUALSTYLE
  5
831E
102
{ACAD_REACTORS
330
8310
102
}
330
8310
100
AcDbVisualStyle
  2
Linepattern
 70
    14
177
     3
291
     1
 70
    58
 90
        2
176
     1
 90
        2
176
     1
 90
        0
176
     1
 90
        0
176
     1
 40
0.6
176
     1
 40
30.0
176
     1
 62
     7
420
 16777215
176
     1
 90
        1
176
     1
 90
        4
176
     1
 62
     7
176
     1
 62
   257
176
     1
 90
        7
176
     1
 90
        7
176
     1
 40
1.0
176
     1
 90
        8
176
     1
 62
     7
176
     1
 40
1.0
176
     1
 90
        1
176
     1
 90
        6
176
     1
 90
        2
176
     1
 62
     7
176
     1
 90
        5
176
     1
 90
        0
176
     1
 90
        0
176
     1
290
     0
176
     1
 90
        1
176
     1
 40
0.0
176
     1
 90
        0
176
     1
290
     0
176
     1
290
     1
176
     1
290
     1
176
     1
290
     0
176
     1
290
     0
176
     1
290
     0
176
     1
290
     0
176
     1
290
     0
176
     1
290
     0
176
     1
 90
       50
176
     1
 40
0.0
176
     1
 40
1.0
176
     1
 90
        0
176
     1
 62
    18
420
        0
176
     1
 90
       50
176
     1
 90
        3
176
     1
 62
     5
420
      255
176
     1
290
     0
176
     1
 90
       50
176
     1
 90
       50
176
     1
 90
       50
176
     1
290
     0
176
     1
 90
       50
176
     1
 62
   256
176
     0
 40
1.0
176
     0
 90
        2
176
     1
  1
strokes_ogs.tif
176
     1
290
     0
176
     1
 40
1.0
176
     1
 40
1.0
176
     1
  0
VISUALSTYLE
  5
8327
102
{ACAD_REACTORS
330
8310
102
}
330
8310
100
AcDbVisualStyle
  2
OverhangOff
 70
    21
177
     3
291
     1
 70
    58
 90
        2
176
     0
 90
        2
176
     0
 90
        0
176
     0
 90
        0
176
     0
 40
0.6
176
     0
 40
30.0
176
     0
 62
     7
420
 16777215
176
     0
 90
        1
176
     0
 90
        4
176
     0
 62
     7
176
     0
 62
   257
176
     0
 90
        1
176
     0
 90
        1
176
     0
 40
1.0
176
     0
 90
        9
176
     2
 62
     7
176
     0
 40
1.0
176
     0
 90
        1
176
     0
 90
        6
176
     0
 90
        2
176
     0
 62
     7
176
     0
 90
        5
176
     0
 90
        0
176
     0
 90
        0
176
     0
290
     0
176
     0
 90
        1
176
     0
 40
0.0
176
     0
 90
        0
176
     0
290
     0
176
     0
290
     1
176
     0
290
     1
176
     0
290
     0
176
     0
290
     0
176
     0
290
     0
176
     0
290
     0
176
     0
290
     0
176
     0
290
     0
176
     0
 90
       50
176
     0
 40
0.0
176
     0
 40
1.0
176
     0
 90
        0
176
     0
 62
    18
420
        0
176
     0
 90
       50
176
     0
 90
        3
176
     0
 62
     5
420
      255
176
     0
290
     0
176
     0
 90
       50
176
     0
 90
       50
176
     0
 90
       50
176
     0
290
     0
176
     0
 90
       50
176
     0
 62
   256
176
     0
 40
1.0
176
     0
 90
        2
176
     0
  1
strokes_ogs.tif
176
     0
290
     0
176
     0
 40
1.0
176
     0
 40
1.0
176
     0
  0
VISUALSTYLE
  5
831A
102
{ACAD_REACTORS
330
8310
102
}
330
8310
100
AcDbVisualStyle
  2
Realistic
 70
     8
177
     3
291
     0
 70
    58
 90
        2
176
     1
 90
        3
176
     1
 90
        0
176
     1
 90
        2
176
     1
 40
0.6
176
     1
 40
30.0
176
     1
 62
     7
420
 16777215
176
     1
 90
        0
176
     1
 90
        0
176
     1
 62
     7
176
     1
 62
   257
176
     1
 90
        1
176
     1
 90
        1
176
     1
 40
1.0
176
     1
 90
        8
176
     1
 62
   257
176
     1
 40
1.0
176
     1
 90
        1
176
     1
 90
        6
176
     1
 90
        2
176
     1
 62
     7
176
     1
 90
        3
176
     1
 90
        0
176
     1
 90
        0
176
     1
290
     0
176
     1
 90
       13
176
     1
 40
0.0
176
     1
 90
        0
176
     1
290
     0
176
     1
290
     1
176
     1
290
     1
176
     1
290
     0
176
     1
290
     0
176
     1
290
     0
176
     1
290
     0
176
     1
290
     0
176
     1
290
     0
176
     1
 90
       50
176
     1
 40
0.0
176
     1
 40
1.0
176
     1
 90
        0
176
     1
 62
    18
420
        0
176
     1
 90
       50
176
     1
 90
        3
176
     1
 62
     5
420
      255
176
     1
290
     0
176
     1
 90
       50
176
     1
 90
       50
176
     1
 90
       50
176
     1
290
     0
176
     1
 90
       50
176
     1
 62
   256
176
     0
 40
1.0
176
     0
 90
        2
176
     1
  1
strokes_ogs.tif
176
     1
290
     0
176
     1
 40
1.0
176
     1
 40
1.0
176
     1
  0
VISUALSTYLE
  5
8325
102
{ACAD_REACTORS
330
8310
102
}
330
8310
100
AcDbVisualStyle
  2
Shaded
 70
    27
177
     3
291
     0
 70
    58
 90
        2
176
     1
 90
        2
176
     1
 90
        1
176
     1
 90
        2
176
     1
 40
0.6
176
     1
 40
30.0
176
     1
 62
     7
420
 16777215
176
     1
 90
        0
176
     1
 90
        4
176
     1
 62
     7
176
     1
 62
   257
176
     1
 90
        1
176
     1
 90
        1
176
     1
 40
1.0
176
     1
 90
        8
176
     1
 62
   257
176
     1
 40
1.0
176
     1
 90
        1
176
     1
 90
        6
176
     1
 90
        2
176
     1
 62
     8
420
  7895160
176
     1
 90
        3
176
     1
 90
        0
176
     1
 90
        0
176
     1
290
     0
176
     1
 90
        5
176
     1
 40
0.0
176
     1
 90
        0
176
     1
290
     0
176
     1
290
     1
176
     1
290
     1
176
     1
290
     0
176
     1
290
     0
176
     1
290
     0
176
     1
290
     0
176
     1
290
     0
176
     1
290
     0
176
     1
 90
       50
176
     1
 40
0.0
176
     1
 40
1.0
176
     1
 90
        0
176
     1
 62
    18
420
        0
176
     1
 90
       50
176
     1
 90
        3
176
     1
 62
     5
420
      255
176
     1
290
     0
176
     1
 90
       50
176
     1
 90
       50
176
     1
 90
       50
176
     1
290
     0
176
     1
 90
       50
176
     1
 62
   256
176
     0
 40
1.0
176
     0
 90
        2
176
     1
  1
strokes_ogs.tif
176
     1
290
     0
176
     1
 40
1.0
176
     1
 40
1.0
176
     1
  0
VISUALSTYLE
  5
8324
102
{ACAD_REACTORS
330
8310
102
}
330
8310
100
AcDbVisualStyle
  2
Shaded with edges
 70
    26
177
     3
291
     0
 70
    58
 90
        2
176
     1
 90
        2
176
     1
 90
        1
176
     1
 90
        2
176
     1
 40
0.6
176
     1
 40
30.0
176
     1
 62
     7
420
 16777215
176
     1
 90
        1
176
     1
 90
       10
176
     1
 62
     7
176
     1
 62
   257
176
     1
 90
        2
176
     1
 90
        1
176
     1
 40
1.0
176
     1
 90
        8
176
     1
 62
   257
176
     1
 40
1.0
176
     1
 90
        1
176
     1
 90
        6
176
     1
 90
        2
176
     1
 62
     7
176
     1
 90
        3
176
     1
 90
        0
176
     1
 90
        0
176
     1
290
     0
176
     1
 90
        5
176
     1
 40
0.0
176
     1
 90
        0
176
     1
290
     0
176
     1
290
     1
176
     1
290
     1
176
     1
290
     0
176
     1
290
     0
176
     1
290
     0
176
     1
290
     0
176
     1
290
     0
176
     1
290
     0
176
     1
 90
       50
176
     1
 40
0.0
176
     1
 40
1.0
176
     1
 90
        0
176
     1
 62
    18
420
        0
176
     1
 90
       50
176
     1
 90
        3
176
     1
 62
     5
420
      255
176
     1
290
     0
176
     1
 90
       50
176
     1
 90
       50
176
     1
 90
       50
176
     1
290
     0
176
     1
 90
       50
176
     1
 62
   256
176
     0
 40
1.0
176
     0
 90
        2
176
     1
  1
strokes_ogs.tif
176
     1
290
     0
176
     1
 40
1.0
176
     1
 40
1.0
176
     1
  0
VISUALSTYLE
  5
8321
102
{ACAD_REACTORS
330
8310
102
}
330
8310
100
AcDbVisualStyle
  2
Shades of Gray
 70
    23
177
     3
291
     0
 70
    58
 90
        2
176
     1
 90
        2
176
     1
 90
        3
176
     1
 90
        0
176
     1
 40
0.6
176
     1
 40
30.0
176
     1
 62
     7
420
 16777215
176
     1
 90
        2
176
     1
 90
        2
176
     1
 62
     7
176
     1
 62
     7
176
     1
 90
        1
176
     1
 90
        1
176
     1
 40
40.0
176
     1
 90
        8
176
     1
 62
     7
176
     1
 40
1.0
176
     1
 90
        1
176
     1
 90
        6
176
     1
 90
        2
176
     1
 62
     7
176
     1
 90
        3
176
     1
 90
        0
176
     1
 90
        0
176
     1
290
     0
176
     1
 90
        1
176
     1
 40
0.0
176
     1
 90
        0
176
     1
290
     0
176
     1
290
     1
176
     1
290
     1
176
     1
290
     0
176
     1
290
     0
176
     1
290
     0
176
     1
290
     0
176
     1
290
     0
176
     1
290
     0
176
     1
 90
       50
176
     1
 40
0.0
176
     1
 40
1.0
176
     1
 90
        0
176
     1
 62
    18
420
        0
176
     1
 90
       50
176
     1
 90
        3
176
     1
 62
     5
420
      255
176
     1
290
     0
176
     1
 90
       50
176
     1
 90
       50
176
     1
 90
       50
176
     1
290
     0
176
     1
 90
       50
176
     1
 62
   256
176
     0
 40
1.0
176
     0
 90
        2
176
     1
  1
strokes_ogs.tif
176
     1
290
     0
176
     1
 40
1.0
176
     1
 40
1.0
176
     1
  0
VISUALSTYLE
  5
8322
102
{ACAD_REACTORS
330
8310
102
}
330
8310
100
AcDbVisualStyle
  2
Sketchy
 70
    24
177
     3
291
     0
 70
    58
 90
        1
176
     1
 90
        2
176
     1
 90
        2
176
     1
 90
        0
176
     1
 40
0.6
176
     1
 40
30.0
176
     1
 62
     7
420
 16777215
176
     1
 90
        2
176
     1
 90
        2
176
     1
 62
     7
176
     1
 62
     7
176
     1
 90
        1
176
     1
 90
        1
176
     1
 40
40.0
176
     1
 90
       11
176
     1
 62
     7
176
     1
 40
1.0
176
     1
 90
        1
176
     1
 90
        6
176
     1
 90
        2
176
     1
 62
     7
176
     1
 90
        6
176
     1
 90
        0
176
     1
 90
        0
176
     1
290
     0
176
     1
 90
        1
176
     1
 40
0.0
176
     1
 90
        0
176
     1
290
     0
176
     1
290
     1
176
     1
290
     1
176
     1
290
     0
176
     1
290
     0
176
     1
290
     0
176
     1
290
     0
176
     1
290
     0
176
     1
290
     0
176
     1
 90
       50
176
     1
 40
0.0
176
     1
 40
1.0
176
     1
 90
        0
176
     1
 62
    18
420
        0
176
     1
 90
       50
176
     1
 90
        3
176
     1
 62
     5
420
      255
176
     1
290
     0
176
     1
 90
       50
176
     1
 90
       50
176
     1
 90
       50
176
     1
290
     0
176
     1
 90
       50
176
     1
 62
   256
176
     0
 40
1.0
176
     0
 90
        2
176
     1
  1
strokes_ogs.tif
176
     1
290
     0
176
     1
 40
1.0
176
     1
 40
1.0
176
     1
  0
VISUALSTYLE
  5
831D
102
{ACAD_REACTORS
330
8310
102
}
330
8310
100
AcDbVisualStyle
  2
Thicken
 70
    13
177
     3
291
     1
 70
    58
 90
        2
176
     1
 90
        2
176
     1
 90
        0
176
     1
 90
        0
176
     1
 40
0.6
176
     1
 40
30.0
176
     1
 62
     7
420
 16777215
176
     1
 90
        1
176
     1
 90
        4
176
     1
 62
     7
176
     1
 62
   257
176
     1
 90
        1
176
     1
 90
        1
176
     1
 40
1.0
176
     1
 90
       12
176
     1
 62
     7
176
     1
 40
1.0
176
     1
 90
        1
176
     1
 90
        6
176
     1
 90
        2
176
     1
 62
     7
176
     1
 90
        5
176
     1
 90
        0
176
     1
 90
        0
176
     1
290
     0
176
     1
 90
        1
176
     1
 40
0.0
176
     1
 90
        0
176
     1
290
     0
176
     1
290
     1
176
     1
290
     1
176
     1
290
     0
176
     1
290
     0
176
     1
290
     0
176
     1
290
     0
176
     1
290
     0
176
     1
290
     0
176
     1
 90
       50
176
     1
 40
0.0
176
     1
 40
1.0
176
     1
 90
        0
176
     1
 62
    18
420
        0
176
     1
 90
       50
176
     1
 90
        3
176
     1
 62
     5
420
      255
176
     1
290
     0
176
     1
 90
       50
176
     1
 90
       50
176
     1
 90
       50
176
     1
290
     0
176
     1
 90
       50
176
     1
 62
   256
176
     0
 40
1.0
176
     0
 90
        2
176
     1
  1
strokes_ogs.tif
176
     1
290
     0
176
     1
 40
1.0
176
     1
 40
1.0
176
     1
  0
VISUALSTYLE
  5
8317
102
{ACAD_REACTORS
330
8310
102
}
330
8310
100
AcDbVisualStyle
  2
Wireframe
 70
     5
177
     3
291
     0
 70
    58
 90
        0
176
     1
 90
        2
176
     1
 90
        0
176
     1
 90
        0
176
     1
 40
0.6
176
     1
 40
30.0
176
     1
 62
     7
420
 16777215
176
     1
 90
        1
176
     1
 90
        4
176
     1
 62
     7
176
     1
 62
   257
176
     1
 90
        1
176
     1
 90
        1
176
     1
 40
1.0
176
     1
 90
        0
176
     1
 62
   257
176
     1
 40
1.0
176
     1
 90
        1
176
     1
 90
        6
176
     1
 90
        2
176
     1
 62
     7
176
     1
 90
        3
176
     1
 90
        0
176
     1
 90
        0
176
     1
290
     0
176
     1
 90
        1
176
     1
 40
0.0
176
     1
 90
        0
176
     1
290
     0
176
     1
290
     1
176
     1
290
     1
176
     1
290
     0
176
     1
290
     0
176
     1
290
     0
176
     1
290
     0
176
     1
290
     0
176
     1
290
     0
176
     1
 90
       50
176
     1
 40
0.0
176
     1
 40
1.0
176
     1
 90
        0
176
     1
 62
    18
420
        0
176
     1
 90
       50
176
     1
 90
        3
176
     1
 62
     5
420
      255
176
     1
290
     0
176
     1
 90
       50
176
     1
 90
       50
176
     1
 90
       50
176
     1
290
     0
176
     1
 90
       50
176
     1
 62
   256
176
     0
 40
1.0
176
     0
 90
        2
176
     1
  1
strokes_ogs.tif
176
     1
290
     0
176
     1
 40
1.0
176
     1
 40
1.0
176
     1
  0
VISUALSTYLE
  5
8323
102
{ACAD_REACTORS
330
8310
102
}
330
8310
100
AcDbVisualStyle
  2
X-Ray
 70
    25
177
     3
291
     0
 70
    58
 90
        2
176
     1
 90
        2
176
     1
 90
        1
176
     1
 90
        1
176
     1
 40
0.5
176
     1
 40
30.0
176
     1
 62
     7
420
 16777215
176
     1
 90
        1
176
     1
 90
        0
176
     1
 62
     7
176
     1
 62
   257
176
     1
 90
        1
176
     1
 90
        1
176
     1
 40
1.0
176
     1
 90
        8
176
     1
 62
     7
176
     1
 40
1.0
176
     1
 90
        1
176
     1
 90
        6
176
     1
 90
        2
176
     1
 62
     7
176
     1
 90
        3
176
     1
 90
        0
176
     1
 90
        0
176
     1
290
     0
176
     1
 90
       13
176
     1
 40
0.0
176
     1
 90
        0
176
     1
290
     0
176
     1
290
     1
176
     1
290
     1
176
     1
290
     0
176
     1
290
     0
176
     1
290
     0
176
     1
290
     0
176
     1
290
     0
176
     1
290
     0
176
     1
 90
       50
176
     1
 40
0.0
176
     1
 40
1.0
176
     1
 90
        0
176
     1
 62
    18
420
        0
176
     1
 90
       50
176
     1
 90
        3
176
     1
 62
     5
420
      255
176
     1
290
     0
176
     1
 90
       50
176
     1
 90
       50
176
     1
 90
       50
176
     1
290
     0
176
     1
 90
       50
176
     1
 62
   256
176
     0
 40
1.0
176
     0
 90
        2
176
     1
  1
strokes_ogs.tif
176
     1
290
     0
176
     1
 40
1.0
176
     1
 40
1.0
176
     1
  0
DICTIONARYVAR
  5
83E5
102
{ACAD_REACTORS
330
83DF
102
}
330
83DF
100
DictionaryVariables
280
     0
  1
1:1
  0
DICTIONARYVAR
  5
83E1
102
{ACAD_REACTORS
330
83DF
102
}
330
83DF
100
DictionaryVariables
280
     0
  1
STANDARD
  0
DICTIONARYVAR
  5
83E0
102
{ACAD_REACTORS
330
83DF
102
}
330
83DF
100
DictionaryVariables
280
     0
  1
STANDARD
  0
DICTIONARYVAR
  5
83E2
102
{ACAD_REACTORS
330
83DF
102
}
330
83DF
100
DictionaryVariables
280
     0
  1
Metric50
  0
DICTIONARYVAR
  5
83E3
102
{ACAD_REACTORS
330
83DF
102
}
330
83DF
100
DictionaryVariables
280
     0
  1
Metric50
  0
DICTIONARYVAR
  5
83E7
102
{ACAD_REACTORS
330
83DF
102
}
330
83DF
100
DictionaryVariables
280
     0
  1
1
  0
DICTIONARYVAR
  5
83E8
102
{ACAD_REACTORS
330
83DF
102
}
330
83DF
100
DictionaryVariables
280
     0
  1
15
  0
DICTIONARYVAR
  5
83E6
102
{ACAD_REACTORS
330
83DF
102
}
330
83DF
100
DictionaryVariables
280
     0
  1
0
  0
DICTIONARYVAR
  5
83E4
102
{ACAD_REACTORS
330
83DF
102
}
330
83DF
100
DictionaryVariables
280
     0
  1
0
  0
DICTIONARY
  5
83DC
330
8343
100
AcDbDictionary
280
     1
281
     1
  3
ACAD_XREC_ROUNDTRIP
360
841D
  0
DICTIONARY
  5
8301
330
8300
100
AcDbDictionary
280
     1
281
     1
  3
BUMPTILE
360
8303
  3
DIFFUSETILE
360
8302
  3
OPACITYTILE
360
8306
  3
REFLECTIONTILE
360
8305
  3
REFRACTIONTILE
360
8307
  3
SPECULARTILE
360
8304
  0
DICTIONARY
  5
82F9
330
82F8
100
AcDbDictionary
280
     1
281
     1
  3
BUMPTILE
360
82FB
  3
DIFFUSETILE
360
82FA
  3
OPACITYTILE
360
82FE
  3
REFLECTIONTILE
360
82FD
  3
REFRACTIONTILE
360
82FF
  3
SPECULARTILE
360
82FC
  0
DICTIONARY
  5
8309
330
8308
100
AcDbDictionary
280
     1
281
     1
  3
BUMPTILE
360
830B
  3
DIFFUSETILE
360
830A
  3
OPACITYTILE
360
830E
  3
REFLECTIONTILE
360
830D
  3
REFRACTIONTILE
360
830F
  3
SPECULARTILE
360
830C
  0
DICTIONARY
  5
83DA
330
8341
100
AcDbDictionary
280
     1
281
     1
  3
ACAD_XREC_ROUNDTRIP
360
841C
  0
DICTIONARY
  5
841A
330
832B
100
AcDbDictionary
280
     1
281
     1
  3
ACAD_ROUNDTRIP_2008_TABLESTYLE_CELLSTYLEMAP
360
841B
  0
XRECORD
  5
841D
102
{ACAD_REACTORS
330
83DC
102
}
330
83DC
100
AcDbXrecord
280
     1
102
DISPLAYNAME
  1
Metric50
102
FLAGS
 90
        0
  0
XRECORD
  5
8303
102
{ACAD_REACTORS
330
8301
102
}
330
8301
100
AcDbXrecord
280
     1
270
     1
271
     1
  0
XRECORD
  5
8302
102
{ACAD_REACTORS
330
8301
102
}
330
8301
100
AcDbXrecord
280
     1
270
     1
271
     1
  0
XRECORD
  5
8306
102
{ACAD_REACTORS
330
8301
102
}
330
8301
100
AcDbXrecord
280
     1
270
     1
271
     1
  0
XRECORD
  5
8305
102
{ACAD_REACTORS
330
8301
102
}
330
8301
100
AcDbXrecord
280
     1
270
     1
271
     1
  0
XRECORD
  5
8307
102
{ACAD_REACTORS
330
8301
102
}
330
8301
100
AcDbXrecord
280
     1
270
     1
271
     1
  0
XRECORD
  5
8304
102
{ACAD_REACTORS
330
8301
102
}
330
8301
100
AcDbXrecord
280
     1
270
     1
271
     1
  0
XRECORD
  5
82FB
102
{ACAD_REACTORS
330
82F9
102
}
330
82F9
100
AcDbXrecord
280
     1
270
     1
271
     1
  0
XRECORD
  5
82FA
102
{ACAD_REACTORS
330
82F9
102
}
330
82F9
100
AcDbXrecord
280
     1
270
     1
271
     1
  0
XRECORD
  5
82FE
102
{ACAD_REACTORS
330
82F9
102
}
330
82F9
100
AcDbXrecord
280
     1
270
     1
271
     1
  0
XRECORD
  5
82FD
102
{ACAD_REACTORS
330
82F9
102
}
330
82F9
100
AcDbXrecord
280
     1
270
     1
271
     1
  0
XRECORD
  5
82FF
102
{ACAD_REACTORS
330
82F9
102
}
330
82F9
100
AcDbXrecord
280
     1
270
     1
271
     1
  0
XRECORD
  5
82FC
102
{ACAD_REACTORS
330
82F9
102
}
330
82F9
100
AcDbXrecord
280
     1
270
     1
271
     1
  0
XRECORD
  5
830B
102
{ACAD_REACTORS
330
8309
102
}
330
8309
100
AcDbXrecord
280
     1
270
     1
271
     1
  0
XRECORD
  5
830A
102
{ACAD_REACTORS
330
8309
102
}
330
8309
100
AcDbXrecord
280
     1
270
     1
271
     1
  0
XRECORD
  5
830E
102
{ACAD_REACTORS
330
8309
102
}
330
8309
100
AcDbXrecord
280
     1
270
     1
271
     1
  0
XRECORD
  5
830D
102
{ACAD_REACTORS
330
8309
102
}
330
8309
100
AcDbXrecord
280
     1
270
     1
271
     1
  0
XRECORD
  5
830F
102
{ACAD_REACTORS
330
8309
102
}
330
8309
100
AcDbXrecord
280
     1
270
     1
271
     1
  0
XRECORD
  5
830C
102
{ACAD_REACTORS
330
8309
102
}
330
8309
100
AcDbXrecord
280
     1
270
     1
271
     1
  0
XRECORD
  5
841C
102
{ACAD_REACTORS
330
83DA
102
}
330
83DA
100
AcDbXrecord
280
     1
102
DISPLAYNAME
  1
Metric50
102
FLAGS
 90
        0
  0
CELLSTYLEMAP
  5
841B
102
{ACAD_REACTORS
330
841A
102
}
330
841A
100
AcDbCellStyleMap
 90
        3
300
CELLSTYLE
  1
TABLEFORMAT_BEGIN
 90
        5
170
     1
 91
        0
 92
    32768
 62
   257
 93
        1
300
CONTENTFORMAT
  1
CONTENTFORMAT_BEGIN
 90
        0
 91
        0
 92
      512
 93
        0
300

 40
0.0
140
1.0
 94
        5
 62
     0
340
10
144
6.0
309
CONTENTFORMAT_END
171
     1
301
MARGIN
  1
CELLMARGIN_BEGIN
 40
1.5
 40
1.5
 40
1.5
 40
1.5
 40
4.5
 40
4.5
309
CELLMARGIN_END
 94
        6
 95
        1
302
GRIDFORMAT
  1
GRIDFORMAT_BEGIN
 90
        0
 91
        1
 62
     0
 92
       -2
340
0
 93
        0
 40
1.125
309
GRIDFORMAT_END
 95
        2
302
GRIDFORMAT
  1
GRIDFORMAT_BEGIN
 90
        0
 91
        1
 62
     0
 92
       -2
340
0
 93
        0
 40
1.125
309
GRIDFORMAT_END
 95
        4
302
GRIDFORMAT
  1
GRIDFORMAT_BEGIN
 90
        0
 91
        1
 62
     0
 92
       -2
340
0
 93
        0
 40
1.125
309
GRIDFORMAT_END
 95
        8
302
GRIDFORMAT
  1
GRIDFORMAT_BEGIN
 90
        0
 91
        1
 62
     0
 92
       -2
340
0
 93
        0
 40
1.125
309
GRIDFORMAT_END
 95
       16
302
GRIDFORMAT
  1
GRIDFORMAT_BEGIN
 90
        0
 91
        1
 62
     0
 92
       -2
340
0
 93
        0
 40
1.125
309
GRIDFORMAT_END
 95
       32
302
GRIDFORMAT
  1
GRIDFORMAT_BEGIN
 90
        0
 91
        1
 62
     0
 92
       -2
340
0
 93
        0
 40
1.125
309
GRIDFORMAT_END
309
TABLEFORMAT_END
  1
CELLSTYLE_BEGIN
 90
        1
 91
        1
300
_TITLE
309
CELLSTYLE_END
300
CELLSTYLE
  1
TABLEFORMAT_BEGIN
 90
        5
170
     1
 91
        0
 92
        0
 62
   257
 93
        1
300
CONTENTFORMAT
  1
CONTENTFORMAT_BEGIN
 90
        0
 91
        0
 92
      512
 93
        0
300

 40
0.0
140
1.0
 94
        5
 62
     0
340
10
144
4.5
309
CONTENTFORMAT_END
171
     1
301
MARGIN
  1
CELLMARGIN_BEGIN
 40
1.5
 40
1.5
 40
1.5
 40
1.5
 40
4.5
 40
4.5
309
CELLMARGIN_END
 94
        6
 95
        1
302
GRIDFORMAT
  1
GRIDFORMAT_BEGIN
 90
        0
 91
        1
 62
     0
 92
       -2
340
0
 93
        0
 40
1.125
309
GRIDFORMAT_END
 95
        2
302
GRIDFORMAT
  1
GRIDFORMAT_BEGIN
 90
        0
 91
        1
 62
     0
 92
       -2
340
0
 93
        0
 40
1.125
309
GRIDFORMAT_END
 95
        4
302
GRIDFORMAT
  1
GRIDFORMAT_BEGIN
 90
        0
 91
        1
 62
     0
 92
       -2
340
0
 93
        0
 40
1.125
309
GRIDFORMAT_END
 95
        8
302
GRIDFORMAT
  1
GRIDFORMAT_BEGIN
 90
        0
 91
        1
 62
     0
 92
       -2
340
0
 93
        0
 40
1.125
309
GRIDFORMAT_END
 95
       16
302
GRIDFORMAT
  1
GRIDFORMAT_BEGIN
 90
        0
 91
        1
 62
     0
 92
       -2
340
0
 93
        0
 40
1.125
309
GRIDFORMAT_END
 95
       32
302
GRIDFORMAT
  1
GRIDFORMAT_BEGIN
 90
        0
 91
        1
 62
     0
 92
       -2
340
0
 93
        0
 40
1.125
309
GRIDFORMAT_END
309
TABLEFORMAT_END
  1
CELLSTYLE_BEGIN
 90
        2
 91
        1
300
_HEADER
309
CELLSTYLE_END
300
CELLSTYLE
  1
TABLEFORMAT_BEGIN
 90
        5
170
     1
 91
        0
 92
        0
 62
   257
 93
        1
300
CONTENTFORMAT
  1
CONTENTFORMAT_BEGIN
 90
        0
 91
        0
 92
      512
 93
        0
300

 40
0.0
140
1.0
 94
        2
 62
     0
340
10
144
4.5
309
CONTENTFORMAT_END
171
     1
301
MARGIN
  1
CELLMARGIN_BEGIN
 40
1.5
 40
1.5
 40
1.5
 40
1.5
 40
4.5
 40
4.5
309
CELLMARGIN_END
 94
        6
 95
        1
302
GRIDFORMAT
  1
GRIDFORMAT_BEGIN
 90
        0
 91
        1
 62
     0
 92
       -2
340
0
 93
        0
 40
1.125
309
GRIDFORMAT_END
 95
        2
302
GRIDFORMAT
  1
GRIDFORMAT_BEGIN
 90
        0
 91
        1
 62
     0
 92
       -2
340
0
 93
        0
 40
1.125
309
GRIDFORMAT_END
 95
        4
302
GRIDFORMAT
  1
GRIDFORMAT_BEGIN
 90
        0
 91
        1
 62
     0
 92
       -2
340
0
 93
        0
 40
1.125
309
GRIDFORMAT_END
 95
        8
302
GRIDFORMAT
  1
GRIDFORMAT_BEGIN
 90
        0
 91
        1
 62
     0
 92
       -2
340
0
 93
        0
 40
1.125
309
GRIDFORMAT_END
 95
       16
302
GRIDFORMAT
  1
GRIDFORMAT_BEGIN
 90
        0
 91
        1
 62
     0
 92
       -2
340
0
 93
        0
 40
1.125
309
GRIDFORMAT_END
 95
       32
302
GRIDFORMAT
  1
GRIDFORMAT_BEGIN
 90
        0
 91
        1
 62
     0
 92
       -2
340
0
 93
        0
 40
1.125
309
GRIDFORMAT_END
309
TABLEFORMAT_END
  1
CELLSTYLE_BEGIN
 90
        3
 91
        2
300
_DATA
309
CELLSTYLE_END
  0
ENDSEC
  0
SECTION
  2
ACDSDATA
 70
     2
 71
     8
  0
ACDSSCHEMA
 90
        0
  1
AcDb_Thumbnail_Schema
  2
AcDbDs::ID
280
    10
 91
        8
  2
Thumbnail_Data
280
    15
 91
        0
101
ACDSRECORD
 95
        0
 90
        1
  2
AcDbDs::TreatedAsObjectData
280
     1
291
     1
101
ACDSRECORD
 95
        0
 90
        2
  2
AcDbDs::Legacy
280
     1
291
     1
101
ACDSRECORD
  1
AcDbDs::ID
 90
        3
  2
AcDs:Indexable
280
     1
291
     1
101
ACDSRECORD
  1
AcDbDs::ID
 90
        4
  2
AcDbDs::HandleAttribute
280
     7
282
     1
  0
ACDSSCHEMA
 90
        1
  1
AcDbDs::TreatedAsObjectDataSchema
  2
AcDbDs::TreatedAsObjectData
280
     1
 91
        0
  0
ACDSSCHEMA
 90
        2
  1
AcDbDs::LegacySchema
  2
AcDbDs::Legacy
280
     1
 91
        0
  0
ACDSSCHEMA
 90
        3
  1
AcDbDs::IndexedPropertySchema
  2
AcDs:Indexable
280
     1
 91
        0
  0
ACDSSCHEMA
 90
        4
  1
AcDbDs::HandleAttributeSchema
  2
AcDbDs::HandleAttribute
280
     7
 91
        1
284
     1
  0
ACDSRECORD
 90
        0
  2
AcDbDs::ID
280
    10
320
82EB
  2
Thumbnail_Data
280
    15
 94
     1682
310
89504E470D0A1A0A0000000D49484452000001000000007C0803000000B13B9E5A00000300504C5445000000000000C8C8C80000000000000000000000000000000000000000000000000000330000660000990000CC0000FF0033000033330033660033990033CC0033FF0066000066330066660066990066CC0066FF0099
310
000099330099660099990099CC0099FF00CC0000CC3300CC6600CC9900CCCC00CCFF00FF0000FF3300FF6600FF9900FFCC00FFFF3300003300333300663300993300CC3300FF3333003333333333663333993333CC3333FF3366003366333366663366993366CC3366FF3399003399333399663399993399CC3399FF33CC00
310
33CC3333CC6633CC9933CCCC33CCFF33FF0033FF3333FF6633FF9933FFCC33FFFF6600006600336600666600996600CC6600FF6633006633336633666633996633CC6633FF6666006666336666666666996666CC6666FF6699006699336699666699996699CC6699FF66CC0066CC3366CC6666CC9966CCCC66CCFF66FF0066
310
FF3366FF6666FF9966FFCC66FFFF9900009900339900669900999900CC9900FF9933009933339933669933999933CC9933FF9966009966339966669966999966CC9966FF9999009999339999669999999999CC9999FF99CC0099CC3399CC6699CC9999CCCC99CCFF99FF0099FF3399FF6699FF9999FFCC99FFFFCC0000CC00
310
33CC0066CC0099CC00CCCC00FFCC3300CC3333CC3366CC3399CC33CCCC33FFCC6600CC6633CC6666CC6699CC66CCCC66FFCC9900CC9933CC9966CC9999CC99CCCC99FFCCCC00CCCC33CCCC66CCCC99CCCCCCCCCCFFCCFF00CCFF33CCFF66CCFF99CCFFCCCCFFFFFF0000FF0033FF0066FF0099FF00CCFF00FFFF3300FF3333
310
FF3366FF3399FF33CCFF33FFFF6600FF6633FF6666FF6699FF66CCFF66FFFF9900FF9933FF9966FF9999FF99CCFF99FFFFCC00FFCC33FFCC66FFCC99FFCCCCFFCCFFFFFF00FFFF33FFFF66FFFF99FFFFCCFFFFFF0000000D0D0D1A1A1A2828283535354343435050505D5D5D6B6B6B787878868686939393A1A1A1AEAEAEBB
310
BBBBC9C9C9D6D6D6E4E4E4F1F1F1FFFFFF00000000000000000000000000000000000000000000000000000000000008F1915C000002F44944415478DAEDDD5B72C3200C05502D871FF6BF19B6C17FCDFB61193B93A60DD265A669A7753DE1200418D725FA40F11F2AB44BF15B9D16000000000000F03DEF7431F86901987E
310
DDAB8C00D500340AA803B8FEC68E00BFBA02D812E0CB4E06807F00C871DC3EE50F6202DD339594004039B3D7CA56885AFB4842DC925F46048C71300483AF012119C0D7499EA73108E221ABEA2109621EA07139EC052D87CF0D7A6A5FDF1D9986C29C14C502D0301894BA36007F3323D81880C608C803453DB055DF8B8980DF
310
FB7D5C1304000000000000000000000000007604B036BC1ACD00A198F4497B04680430C69AA120025403D4E242D194044F854813408A03DB7B1C005ABA008D00B13B000000CF530000000000244149002AE701FC4C503D8092A9B03BD5DDE85A0CF1D574EF9E764380A1CD01A008802F7A00BEF6B40000000000000000FCE5
310
3B7D6DF49707703BFF6933A4F140353341A900791130D6DADD29490370530F708BD5B13400B65D17008EA445C0FC7A072024026AAB77F7073C01B0F11A9AB302003242BB0CAA0C200F67F50E91B01BF404206E9D8800487DB9BB45C63E07B02201E815809608F707A87B236D8F6006682D2E08804600EA72C00C6065028428
310
C8008686763F01D0B06B260020BDFD320C86BB45C34B6A687B0230E55EE2B4757614290025BE73D3C67DF2B43778EA021223A054A1047806085F3000F330B83F80EB004C5208F50B016EA62E10623EDF4C7D1C1A009C9304101BDDE6F63F7A3C9B04454E845A04A40E50BBFBAA0BCC7F5AB1F33CA0CB01E91EA12ED32D8741
310
1201103F2EEF16BF1C05AC1480723D80BB45460B40CBF37DCEBF3D9170005202E0AEBA80961CF006809300D0AD08DBACAE7EC55D10A9FB4253F7D917C0B9B93ABA00BA25F1DDDEE0F288DD01B8165F6F8DC9CA011F38ED3E00040000941F697FA2E445CDD22356D99F2A02E01B5E1A0031FF36A93C68515B04E8CC017C0450
310
7BC43695076D6ACA01BE7FE63A690160BED945082107A87EB234A6C200000000000000000000000000C096001BFDEBED1FDD1F7CA66C99CB430000000049454E44AE4260824260827500E480766DDDB38FA48B2D9ACA01322E485E633F5F96DF1780FC470B7411F79601A802988E005C5E1F73010000000000000000000000
310
0000C02AC057CBC7BFEE3FC1DA00BD753AA6A50000000049454E44AE426082
  0
ENDSEC
  0
EOF
