  0
SECTION
  2
HEADER
  9
$ACADVER
  1
AC1009
  9
$INSBASE
 10
0.0
 20
0.0
 30
0.0
  9
$EXTMIN
 10
0.0
 20
0.0
 30
0.0
  9
$EXTMAX
 10
2520.0
 20
3540.0
 30
0.0
  9
$LIMMIN
 10
0.0
 20
0.0
  9
$LIMMAX
 10
297.0
 20
210.0
  9
$ORTHOMODE
 70
     0
  9
$REGENMODE
 70
     1
  9
$FILLMODE
 70
     0
  9
$QTEXTMODE
 70
     0
  9
$MIRRTEXT
 70
     1
  9
$DRAGMODE
 70
     2
  9
$LTSCALE
 40
100.0
  9
$OSMODE
 70
    37
  9
$ATTMODE
 70
     1
  9
$TEXTSIZE
 40
180.0
  9
$TRACEWID
 40
0.05
  9
$TEXTSTYLE
  7
STANDARD
  9
$CLAYER
  8
3
  9
$CELTYPE
  6
BYLAYER
  9
$CECOLOR
 62
   256
  9
$DIMSCALE
 40
12.0
  9
$DIMASZ
 40
2.0
  9
$DIMEXO
 40
0.5
  9
$DIMDLI
 40
10.0
  9
$DIMRND
 40
0.0
  9
$DIMDLE
 40
0.0
  9
$DIMEXE
 40
1.0
  9
$DIMTP
 40
1.0
  9
$DIMTM
 40
1.0
  9
$DIMTXT
 40
3.0
  9
$DIMCEN
 40
0.0
  9
$DIMTSZ
 40
0.0
  9
$DIMTOL
 70
     0
  9
$DIMLIM
 70
     0
  9
$DIMTIH
 70
     0
  9
$DIMTOH
 70
     0
  9
$DIMSE1
 70
     0
  9
$DIMSE2
 70
     0
  9
$DIMTAD
 70
     1
  9
$DIMZIN
 70
     8
  9
$DIMBLK
  1

  9
$DIMASO
 70
     1
  9
$DIMSHO
 70
     1
  9
$DIMPOST
  1
(<>)
  9
$DIMAPOST
  1

  9
$DIMALT
 70
     0
  9
$DIMALTD
 70
     2
  9
$DIMALTF
 40
0.039
  9
$DIMLFAC
 40
1.0
  9
$DIMTOFL
 70
     1
  9
$DIMTVP
 40
0.0
  9
$DIMTIX
 70
     0
  9
$DIMSOXD
 70
     0
  9
$DIMSAH
 70
     1
  9
$DIMBLK1
  1
OPEN
  9
$DIMBLK2
  1
OPEN
  9
$DIMSTYLE
  2
IGA
  9
$DIMCLRD
 70
     0
  9
$DIMCLRE
 70
     0
  9
$DIMCLRT
 70
     0
  9
$DIMTFAC
 40
10.0
  9
$DIMGAP
 40
1.0
  9
$LUNITS
 70
     2
  9
$LUPREC
 70
     3
  9
$SKETCHINC
 40
0.1
  9
$FILLETRAD
 40
50.0
  9
$AUNITS
 70
     0
  9
$AUPREC
 70
     0
  9
$MENU
  1
acad
  9
$ELEVATION
 40
0.0
  9
$PELEVATION
 40
0.0
  9
$THICKNESS
 40
0.0
  9
$LIMCHECK
 70
     0
  9
$BLIPMODE
 70
     0
  9
$CHAMFERA
 40
0.5
  9
$CHAMFERB
 40
0.5
  9
$SKPOLY
 70
     0
  9
$TDCREATE
 40
2451936.4263177081
  9
$TDUPDATE
 40
2454953.7507430902
  9
$TDINDWG
 40
0.0248413426
  9
$TDUSRTIMER
 40
0.0248413426
  9
$USRTIMER
 70
     1
  9
$ANGBASE
 50
0.0
  9
$ANGDIR
 70
     0
  9
$PDMODE
 70
     0
  9
$PDSIZE
 40
0.0
  9
$PLINEWID
 40
0.0
  9
$COORDS
 70
     1
  9
$SPLFRAME
 70
     0
  9
$SPLINETYPE
 70
     6
  9
$SPLINESEGS
 70
     8
  9
$ATTDIA
 70
     0
  9
$ATTREQ
 70
     1
  9
$HANDLING
 70
 10241
  9
$HANDSEED
  5
8389
  9
$SURFTAB1
 70
     6
  9
$SURFTAB2
 70
     6
  9
$SURFTYPE
 70
     6
  9
$SURFU
 70
     6
  9
$SURFV
 70
     6
  9
$UCSNAME
  2

  9
$UCSORG
 10
0.0
 20
0.0
 30
0.0
  9
$UCSXDIR
 10
1.0
 20
0.0
 30
0.0
  9
$UCSYDIR
 10
0.0
 20
1.0
 30
0.0
  9
$PUCSNAME
  2

  9
$PUCSORG
 10
0.0
 20
0.0
 30
0.0
  9
$PUCSXDIR
 10
1.0
 20
0.0
 30
0.0
  9
$PUCSYDIR
 10
0.0
 20
1.0
 30
0.0
  9
$USERI1
 70
     0
  9
$USERI2
 70
     0
  9
$USERI3
 70
     0
  9
$USERI4
 70
     0
  9
$USERI5
 70
     0
  9
$USERR1
 40
0.0
  9
$USERR2
 40
0.0
  9
$USERR3
 40
0.0
  9
$USERR4
 40
0.0
  9
$USERR5
 40
0.0
  9
$WORLDVIEW
 70
     1
  9
$SHADEDGE
 70
     3
  9
$SHADEDIF
 70
    70
  9
$TILEMODE
 70
     1
  9
$MAXACTVP
 70
    16
  9
$PLIMCHECK
 70
     0
  9
$PEXTMIN
 10
1.0000000000000000E+020
 20
1.0000000000000000E+020
 30
1.0000000000000000E+020
  9
$PEXTMAX
 10
-1.0000000000000000E+020
 20
-1.0000000000000000E+020
 30
-1.0000000000000000E+020
  9
$PLIMMIN
 10
0.0
 20
0.0
  9
$PLIMMAX
 10
12.0
 20
9.0
  9
$UNITMODE
 70
     0
  9
$VISRETAIN
 70
     0
  9
$PLINEGEN
 70
     0
  9
$PSLTSCALE
 70
     1
  0
ENDSEC
  0
SECTION
  2
TABLES
  0
TABLE
  2
VPORT
 70
     2
  0
VPORT
  2
*ACTIVE
 70
     0
 10
0.0
 20
0.0
 11
1.0
 21
1.0
 12
4243.9319506216398
 22
1770.000008242205
 13
0.0
 23
0.0
 14
10.0
 24
10.0
 15
10.0
 25
10.0
 16
0.0
 26
0.0
 36
1.0
 17
0.0
 27
0.0
 37
0.0
 40
3567.1378596203222
 41
3.1666666666666661
 42
50.0
 43
0.0
 44
0.0
 50
0.0
 51
0.0
 71
     0
 72
   100
 73
     1
 74
     0
 75
     0
 76
     0
 77
     0
 78
     0
  0
ENDTAB
  0
TABLE
  2
LTYPE
 70
     2
  0
LTYPE
  2
CONTINUOUS
 70
     0
  3
Solid line
 72
    65
 73
     0
 40
0.0
  0
LTYPE
  2
CENTER
 70
     0
  3
____ _ ____ _ ____ _ ____ _ ____ _ ____ _ ____ 
 72
    65
 73
     4
 40
2.0
 49
1.25
 49
-0.25
 49
0.25
 49
-0.25
  0
ENDTAB
  0
TABLE
  2
LAYER
 70
     6
  0
LAYER
  2
0
 70
     0
 62
     7
  6
CONTINUOUS
  0
LAYER
  2
3
 70
     0
 62
     2
  6
CONTINUOUS
  0
LAYER
  2
2
 70
     0
 62
     3
  6
CENTER
  0
LAYER
  2
1
 70
     0
 62
     4
  6
CONTINUOUS
  0
LAYER
  2
4
 70
     0
 62
     7
  6
CONTINUOUS
  0
LAYER
  2
DEFPOINTS
 70
     0
 62
     7
  6
CONTINUOUS
  0
ENDTAB
  0
TABLE
  2
STYLE
 70
     1
  0
STYLE
  2
STANDARD
 70
     0
 40
0.0
 41
1.0
 50
0.0
 71
     0
 42
180.0
  3
simplex.shx
  4
extfont.shx
  0
ENDTAB
  0
TABLE
  2
VIEW
 70
     0
  0
ENDTAB
  0
TABLE
  2
UCS
 70
     0
  0
ENDTAB
  0
TABLE
  2
APPID
 70
     1
  0
APPID
  2
ACAD
 70
     0
  0
ENDTAB
  0
TABLE
  2
DIMSTYLE
 70
     1
  0
DIMSTYLE
  2
IGA
 70
     0
  3

  4

  5

  6
OPEN
  7
OPEN
 40
2.0
 41
2.0
 42
0.5
 43
10.0
 44
1.0
 45
0.0
 46
0.0
 47
1.0
 48
1.0
140
3.0
141
0.0
142
0.0
143
0.03937
144
1.0
145
0.0
146
10.0
147
1.0
 71
     0
 72
     0
 73
     0
 74
     0
 75
     0
 76
     0
 77
     1
 78
     8
170
     0
171
     2
172
     0
173
     1
174
     0
175
     0
176
     0
177
     0
178
     0
  0
ENDTAB
  0
ENDSEC
  0
SECTION
  2
BLOCKS
  0
BLOCK
  8
0
  2
$MODEL_SPACE
 70
     0
 10
0.0
 20
0.0
 30
0.0
  3
$MODEL_SPACE
  1

  0
ENDBLK
  5
1B
  8
0
  0
BLOCK
 67
     1
  8
0
  2
$PAPER_SPACE
 70
     0
 10
0.0
 20
0.0
 30
0.0
  3
$PAPER_SPACE
  1

  0
ENDBLK
  5
18
 67
     1
  8
0
  0
BLOCK
  8
0
  2
_OPEN
 70
     0
 10
0.0
 20
0.0
 30
0.0
  3
_OPEN
  1

  0
LINE
  5
79FD
  8
0
  6
BYBLOCK
 62
     0
 10
-1.0
 20
0.1666666666666666
 30
0.0
 11
0.0
 21
0.0
 31
0.0
  0
LINE
  5
79FE
  8
0
  6
BYBLOCK
 62
     0
 10
0.0
 20
0.0
 30
0.0
 11
-1.0
 21
-0.1666666666666666
 31
0.0
  0
LINE
  5
79FF
  8
0
  6
BYBLOCK
 62
     0
 10
0.0
 20
0.0
 30
0.0
 11
-1.0
 21
0.0
 31
0.0
  0
ENDBLK
  5
7A01
  8
0
  0
BLOCK
  8
0
  2
_DOT
 70
     0
 10
0.0
 20
0.0
 30
0.0
  3
_DOT
  1

  0
LINE
  5
8175
  8
0
  6
BYBLOCK
 62
     0
 10
0.0
 20
0.0
 30
0.0
 11
-1.0
 21
-0.0000000000000284
 31
0.0
  0
POLYLINE
  5
8176
  8
0
  6
BYBLOCK
 62
     0
 66
     1
 10
0.0
 20
0.0
 30
0.0
 70
     1
 40
0.1666666666666666
 41
0.1666666666666666
  0
VERTEX
  5
8346
  8
0
  6
BYBLOCK
 62
     0
 10
-0.0833333333333286
 20
-0.0000000000000284
 30
0.0
 42
1.0
  0
VERTEX
  5
8347
  8
0
  6
BYBLOCK
 62
     0
 10
0.0833333333333286
 20
-0.0000000000000284
 30
0.0
 42
1.0
  0
SEQEND
  5
8348
  8
0
  6
BYBLOCK
 62
     0
  0
ENDBLK
  5
7A09
  8
0
  0
BLOCK
  8
0
  2
*D2
 70
     1
 10
0.0
 20
0.0
 30
0.0
  3
*D2
  1

  0
LINE
  5
82F5
  8
3
 62
     0
 10
970.44297315727272
 20
1409.2967488917179
 30
0.0
 11
970.44297315727272
 21
1461.754978781107
 31
0.0
  0
LINE
  5
82F6
  8
3
 62
     0
 10
770.44297315727272
 20
1409.2967488917179
 30
0.0
 11
770.44297315727272
 21
1461.754978781107
 31
0.0
  0
LINE
  5
82F7
  8
3
 62
     0
 10
946.4429731572726
 20
1449.754978781107
 30
0.0
 11
794.44297315727272
 21
1449.754978781107
 31
0.0
  0
INSERT
  5
82F8
  8
3
 62
     0
  2
_OPEN
 10
970.44297315727272
 20
1449.754978781107
 30
0.0
 41
24.0
 42
24.0
 43
24.0
  0
INSERT
  5
82F9
  8
3
 62
     0
  2
_OPEN
 10
770.44297315727272
 20
1449.754978781107
 30
0.0
 41
24.0
 42
24.0
 43
24.0
 50
180.0
  0
TEXT
  8
3
  40
36
  5
837A
  62
0
  72
0
  71
0
 10
798.443
 20
1416.03
 30
0.000000
  1
200
  0
POINT
  5
82FB
  8
DEFPOINTS
 62
     0
 10
970.44297315727272
 20
1403.2967488917179
 30
0.0
  0
POINT
  5
82FC
  8
DEFPOINTS
 62
     0
 10
770.44297315727272
 20
1403.2967488917179
 30
0.0
  0
POINT
  5
82FD
  8
DEFPOINTS
 62
     0
 10
770.44297315727272
 20
1449.754978781107
 30
0.0
  0
ENDBLK
  5
8012
  8
0
  0
BLOCK
  8
0
  2
*D3
 70
     1
 10
0.0
 20
0.0
 30
0.0
  3
*D3
  1

  0
LINE
  5
82FE
  8
3
 62
     0
 10
969.44297315727295
 20
1409.661151015888
 30
0.0
 11
969.44297315727295
 21
1524.0818019629569
 31
0.0
  0
LINE
  5
82FF
  8
3
 62
     0
 10
770.44297315727272
 20
1409.2967488917179
 30
0.0
 11
770.44297315727272
 21
1524.0818019629569
 31
0.0
  0
LINE
  5
8300
  8
3
 62
     0
 10
945.44297315727283
 20
1512.081801962956
 30
0.0
 11
794.44297315727272
 21
1512.081801962956
 31
0.0
  0
INSERT
  5
8301
  8
3
 62
     0
  2
_OPEN
 10
969.44297315727295
 20
1512.081801962956
 30
0.0
 41
24.0
 42
24.0
 43
24.0
  0
INSERT
  5
8302
  8
3
 62
     0
  2
_OPEN
 10
770.44297315727272
 20
1512.081801962956
 30
0.0
 41
24.0
 42
24.0
 43
24.0
 50
180.0
  0
TEXT
  8
3
  40
36
  5
837B
  62
0
  72
0
  71
0
 10
797.943
 20
1478.36
 30
0.000000
  1
199
  0
POINT
  5
8304
  8
DEFPOINTS
 62
     0
 10
969.44297315727295
 20
1403.661151015888
 30
0.0
  0
POINT
  5
8305
  8
DEFPOINTS
 62
     0
 10
770.44297315727272
 20
1403.2967488917179
 30
0.0
  0
POINT
  5
8306
  8
DEFPOINTS
 62
     0
 10
770.44297315727272
 20
1512.081801962956
 30
0.0
  0
ENDBLK
  5
8077
  8
0
  0
BLOCK
  8
0
  2
*D4
 70
     1
 10
0.0
 20
0.0
 30
0.0
  3
*D4
  1

  0
LINE
  5
8307
  8
3
 62
     0
 10
1160.807375281443
 20
1218.296748891717
 30
0.0
 11
1261.636335040401
 21
1218.296748891717
 31
0.0
  0
LINE
  5
8308
  8
3
 62
     0
 10
1150.442973157272
 20
958.29674889171781
 30
0.0
 11
1261.636335040401
 21
958.29674889171781
 31
0.0
  0
LINE
  5
8309
  8
3
 62
     0
 10
1249.636335040401
 20
1194.296748891717
 30
0.0
 11
1249.636335040401
 21
982.29674889171781
 31
0.0
  0
INSERT
  5
830A
  8
3
 62
     0
  2
_OPEN
 10
1249.636335040401
 20
1218.296748891717
 30
0.0
 41
24.0
 42
24.0
 43
24.0
 50
90.0
  0
INSERT
  5
830B
  8
3
 62
     0
  2
_OPEN
 10
1249.636335040401
 20
958.29674889171781
 30
0.0
 41
24.0
 42
24.0
 43
24.0
 50
270.0
  0
TEXT
  8
3
  40
36
  5
837C
  62
0
  72
0
  71
0
 10
1147.64
 20
1024.58
 30
0.000000
  1
260
  0
POINT
  5
830D
  8
DEFPOINTS
 62
     0
 10
1154.807375281443
 20
1218.296748891717
 30
0.0
  0
POINT
  5
830E
  8
DEFPOINTS
 62
     0
 10
1144.442973157272
 20
958.29674889171781
 30
0.0
  0
POINT
  5
830F
  8
DEFPOINTS
 62
     0
 10
1249.636335040401
 20
958.29674889171781
 30
0.0
  0
ENDBLK
  5
7FFC
  8
0
  0
BLOCK
  8
0
  2
*D5
 70
     1
 10
0.0
 20
0.0
 30
0.0
  3
*D5
  1

  0
LINE
  5
8103
  8
0
  6
BYBLOCK
 62
     0
 10
2161.1677992296441
 20
1389.2967488917179
 30
0.0
 11
2161.1677992296441
 21
1538.7453100193841
 31
0.0
  0
LINE
  5
8104
  8
0
  6
BYBLOCK
 62
     0
 10
2084.1677992296441
 20
1497.4859314979749
 30
0.0
 11
2084.1677992296441
 21
1538.7453100193841
 31
0.0
  0
LINE
  5
8105
  8
0
  6
BYBLOCK
 62
     0
 10
2137.1677992296441
 20
1526.7453100193841
 30
0.0
 11
2108.1677992296441
 21
1526.7453100193841
 31
0.0
  0
TEXT
  5
8106
  8
3
 62
     0
 10
2094.028427658825
 20
1533.3765254394959
 30
0.0
 40
36.0
  1
79
  0
INSERT
  5
8107
  8
0
  6
BYBLOCK
 62
     0
  2
_OPEN
 10
2161.1677992296441
 20
1526.7453100193841
 30
0.0
 41
24.0
 42
24.0
 43
24.0
  0
INSERT
  5
8108
  8
0
  6
BYBLOCK
 62
     0
  2
_OPEN
 10
2084.1677992296441
 20
1526.7453100193841
 30
0.0
 41
24.0
 42
24.0
 43
24.0
 50
180.0
  0
POINT
  5
8109
  8
DEFPOINTS
  6
BYBLOCK
 62
     0
 10
2161.1677992296441
 20
1383.2967488917179
 30
0.0
  0
POINT
  5
810A
  8
DEFPOINTS
  6
BYBLOCK
 62
     0
 10
2084.1677992296441
 20
1491.4859314979749
 30
0.0
  0
POINT
  5
810B
  8
DEFPOINTS
  6
BYBLOCK
 62
     0
 10
2084.1677992296441
 20
1526.7453100193841
 30
0.0
  0
ENDBLK
  5
810C
  8
0
  0
BLOCK
  8
0
  2
*D6
 70
     1
 10
0.0
 20
0.0
 30
0.0
  3
*D6
  1

  0
LINE
  5
8310
  8
3
 62
     0
 10
2084.1677992296441
 20
1497.4859314979749
 30
0.0
 11
2084.1677992296441
 21
1538.7453100193841
 31
0.0
  0
LINE
  5
8311
  8
3
 62
     0
 10
1651.1677992296429
 20
1304.388807865095
 30
0.0
 11
1651.1677992296429
 21
1538.7453100193841
 31
0.0
  0
LINE
  5
8312
  8
3
 62
     0
 10
2060.1677992296441
 20
1526.7453100193841
 30
0.0
 11
1675.1677992296429
 21
1526.7453100193841
 31
0.0
  0
INSERT
  5
8313
  8
3
 62
     0
  2
_OPEN
 10
2084.1677992296441
 20
1526.7453100193841
 30
0.0
 41
24.0
 42
24.0
 43
24.0
  0
INSERT
  5
8314
  8
3
 62
     0
  2
_OPEN
 10
1651.1677992296429
 20
1526.7453100193841
 30
0.0
 41
24.0
 42
24.0
 43
24.0
 50
180.0
  0
TEXT
  8
3
  40
36
  5
837D
  62
0
  72
0
  71
0
 10
1795.67
 20
1523.03
 30
0.000000
  1
MAX
  0
TEXT
  8
3
  40
36
  5
837E
  62
0
  72
0
  71
0
 10
1795.67
 20
1476.23
 30
0.000000
  1
520
  0
POINT
  5
8316
  8
DEFPOINTS
 62
     0
 10
2084.1677992296441
 20
1491.4859314979749
 30
0.0
  0
POINT
  5
8317
  8
DEFPOINTS
 62
     0
 10
1651.1677992296429
 20
1298.388807865095
 30
0.0
  0
POINT
  5
8318
  8
DEFPOINTS
 62
     0
 10
1651.1677992296429
 20
1526.7453100193841
 30
0.0
  0
ENDBLK
  5
8165
  8
0
  0
BLOCK
  8
0
  2
*D7
 70
     1
 10
0.0
 20
0.0
 30
0.0
  3
*D7
  1

  0
LINE
  5
810E
  8
0
  6
BYBLOCK
 62
     0
 10
2009.1677992296429
 20
1389.2967488917179
 30
0.0
 11
2009.1677992296429
 21
1459.7752227700751
 31
0.0
  0
LINE
  5
810F
  8
0
  6
BYBLOCK
 62
     0
 10
2159.1677992296432
 20
1389.2967488917179
 30
0.0
 11
2159.1677992296432
 21
1459.7752227700751
 31
0.0
  0
LINE
  5
8110
  8
0
  6
BYBLOCK
 62
     0
 10
2033.1677992296429
 20
1447.7752227700751
 30
0.0
 11
2135.1677992296418
 21
1447.7752227700751
 31
0.0
  0
TEXT
  5
8111
  8
3
 62
     0
 10
2041.3106563725
 20
1458.4349078818909
 30
0.0
 40
36.0
  1
150
  0
INSERT
  5
8112
  8
0
  6
BYBLOCK
 62
     0
  2
_OPEN
 10
2009.1677992296429
 20
1447.7752227700751
 30
0.0
 41
24.0
 42
24.0
 43
24.0
 50
180.0
  0
INSERT
  5
8113
  8
0
  6
BYBLOCK
 62
     0
  2
_OPEN
 10
2159.1677992296432
 20
1447.7752227700751
 30
0.0
 41
24.0
 42
24.0
 43
24.0
  0
POINT
  5
8114
  8
DEFPOINTS
  6
BYBLOCK
 62
     0
 10
2009.1677992296429
 20
1383.2967488917179
 30
0.0
  0
POINT
  5
8115
  8
DEFPOINTS
  6
BYBLOCK
 62
     0
 10
2159.1677992296432
 20
1383.2967488917179
 30
0.0
  0
POINT
  5
8116
  8
DEFPOINTS
  6
BYBLOCK
 62
     0
 10
2159.1677992296432
 20
1447.7752227700751
 30
0.0
  0
ENDBLK
  5
8117
  8
0
  0
BLOCK
  8
0
  2
*D8
 70
     1
 10
0.0
 20
0.0
 30
0.0
  3
*D8
  1

  0
LINE
  5
8319
  8
3
 62
     0
 10
2188.1677992296432
 20
1328.3828427789761
 30
0.0
 11
2275.1848390934829
 21
1328.3828427789761
 31
0.0
  0
LINE
  5
831A
  8
3
 62
     0
 10
2188.1677992296432
 20
1108.3828427789761
 30
0.0
 11
2275.1848390934829
 21
1108.3828427789761
 31
0.0
  0
LINE
  5
831B
  8
3
 62
     0
 10
2263.1848390934829
 20
1304.3828427789761
 30
0.0
 11
2263.1848390934829
 21
1132.3828427789761
 31
0.0
  0
INSERT
  5
831C
  8
3
 62
     0
  2
_OPEN
 10
2263.1848390934829
 20
1328.3828427789761
 30
0.0
 41
24.0
 42
24.0
 43
24.0
 50
90.0
  0
INSERT
  5
831D
  8
3
 62
     0
  2
_OPEN
 10
2263.1848390934829
 20
1108.3828427789761
 30
0.0
 41
24.0
 42
24.0
 43
24.0
 50
270.0
  0
TEXT
  8
3
  40
36
  5
837F
  62
0
  72
0
  71
0
 10
2161.18
 20
1154.66
 30
0.000000
  1
φ220
  0
POINT
  5
831F
  8
DEFPOINTS
 62
     0
 10
2182.1677992296432
 20
1328.3828427789761
 30
0.0
  0
POINT
  5
8320
  8
DEFPOINTS
 62
     0
 10
2182.1677992296432
 20
1108.3828427789761
 30
0.0
  0
POINT
  5
8321
  8
DEFPOINTS
 62
     0
 10
2263.1848390934829
 20
1108.3828427789761
 30
0.0
  0
ENDBLK
  5
8170
  8
0
  0
BLOCK
  8
0
  2
*D9
 70
     1
 10
0.0
 20
0.0
 30
0.0
  3
*D9
  1

  0
LINE
  5
8322
  8
3
 62
     0
 10
1150.442973157272
 20
2390.5125908814312
 30
0.0
 11
1267.553559229093
 21
2390.5125908814312
 31
0.0
  0
LINE
  5
8323
  8
3
 62
     0
 10
1150.442973157272
 20
2010.5125908814309
 30
0.0
 11
1267.553559229093
 21
2010.5125908814309
 31
0.0
  0
LINE
  5
8324
  8
3
 62
     0
 10
1255.553559229093
 20
2366.5125908814312
 30
0.0
 11
1255.553559229093
 21
2034.5125908814309
 31
0.0
  0
INSERT
  5
8325
  8
3
 62
     0
  2
_OPEN
 10
1255.553559229093
 20
2390.5125908814312
 30
0.0
 41
24.0
 42
24.0
 43
24.0
 50
90.0
  0
INSERT
  5
8326
  8
3
 62
     0
  2
_OPEN
 10
1255.553559229093
 20
2010.5125908814309
 30
0.0
 41
24.0
 42
24.0
 43
24.0
 50
270.0
  0
TEXT
  8
3
  40
36
  5
8380
  62
0
  72
0
  71
0
 10
1153.55
 20
2136.79
 30
0.000000
  1
380
  0
POINT
  5
8328
  8
DEFPOINTS
 62
     0
 10
1144.442973157272
 20
2390.5125908814312
 30
0.0
  0
POINT
  5
8329
  8
DEFPOINTS
 62
     0
 10
1144.442973157272
 20
2010.5125908814309
 30
0.0
  0
POINT
  5
832A
  8
DEFPOINTS
 62
     0
 10
1255.553559229093
 20
2010.5125908814309
 30
0.0
  0
ENDBLK
  5
821E
  8
0
  0
BLOCK
  8
0
  2
*D10
 70
     1
 10
0.0
 20
0.0
 30
0.0
  3
*D10
  1

  0
LINE
  5
832B
  8
3
 62
     0
 10
524.44297315727306
 20
2396.5125908814312
 30
0.0
 11
524.44297315727306
 21
2598.8111429710889
 31
0.0
  0
LINE
  5
832C
  8
3
 62
     0
 10
1144.442973157272
 20
2396.5125908814312
 30
0.0
 11
1144.442973157272
 21
2598.8111429710889
 31
0.0
  0
LINE
  5
832D
  8
3
 62
     0
 10
548.44297315727306
 20
2586.8111429710889
 30
0.0
 11
1120.442973157272
 21
2586.8111429710889
 31
0.0
  0
INSERT
  5
832E
  8
3
 62
     0
  2
_OPEN
 10
524.44297315727306
 20
2586.8111429710889
 30
0.0
 41
24.0
 42
24.0
 43
24.0
 50
180.0
  0
INSERT
  5
832F
  8
3
 62
     0
  2
_OPEN
 10
1144.442973157272
 20
2586.8111429710889
 30
0.0
 41
24.0
 42
24.0
 43
24.0
  0
TEXT
  8
3
  40
36
  5
8381
  62
0
  72
0
  71
0
 10
762.443
 20
2553.09
 30
0.000000
  1
620
  0
POINT
  5
8331
  8
DEFPOINTS
 62
     0
 10
524.44297315727306
 20
2390.5125908814312
 30
0.0
  0
POINT
  5
8332
  8
DEFPOINTS
 62
     0
 10
1144.442973157272
 20
2390.5125908814312
 30
0.0
  0
POINT
  5
8333
  8
DEFPOINTS
 62
     0
 10
1144.442973157272
 20
2586.8111429710889
 30
0.0
  0
ENDBLK
  5
8238
  8
0
  0
BLOCK
  8
0
  2
*D11
 70
     1
 10
0.0
 20
0.0
 30
0.0
  3
*D11
  1

  0
LINE
  5
8334
  8
3
 62
     0
 10
998.44297315727283
 20
1403.2967488917179
 30
0.0
 11
1260.7247024940939
 21
1403.2967488917179
 31
0.0
  0
LINE
  5
8335
  8
3
 62
     0
 10
1160.807375281443
 20
1218.2967488917179
 30
0.0
 11
1260.7247024940939
 21
1218.2967488917179
 31
0.0
  0
LINE
  5
8336
  8
3
 62
     0
 10
1248.7247024940939
 20
1379.2967488917179
 30
0.0
 11
1248.7247024940939
 21
1242.2967488917179
 31
0.0
  0
INSERT
  5
8337
  8
3
 62
     0
  2
_OPEN
 10
1248.7247024940939
 20
1403.2967488917179
 30
0.0
 41
24.0
 42
24.0
 43
24.0
 50
90.0
  0
INSERT
  5
8338
  8
3
 62
     0
  2
_OPEN
 10
1248.7247024940939
 20
1218.2967488917179
 30
0.0
 41
24.0
 42
24.0
 43
24.0
 50
270.0
  0
TEXT
  8
3
  40
36
  5
8382
  62
0
  72
0
  71
0
 10
1146.72
 20
1247.08
 30
0.000000
  1
185
  0
POINT
  5
833A
  8
DEFPOINTS
 62
     0
 10
992.44297315727272
 20
1403.2967488917179
 30
0.0
  0
POINT
  5
833B
  8
DEFPOINTS
 62
     0
 10
1154.807375281443
 20
1218.2967488917179
 30
0.0
  0
POINT
  5
833C
  8
DEFPOINTS
 62
     0
 10
1248.7247024940939
 20
1218.2967488917179
 30
0.0
  0
ENDBLK
  5
7F92
  8
0
  0
BLOCK
  8
0
  2
*D12
 70
     1
 10
0.0
 20
0.0
 30
0.0
  3
*D12
  1

  0
LINE
  5
8063
  8
0
  6
BYBLOCK
 62
     0
 10
969.44297315727295
 20
1409.661151015888
 30
0.0
 11
969.44297315727295
 21
1524.0818019629569
 31
0.0
  0
LINE
  5
8064
  8
0
  6
BYBLOCK
 62
     0
 10
1117.442973157272
 20
1215.2967488917179
 30
0.0
 11
1117.442973157272
 21
1524.0818019629569
 31
0.0
  0
LINE
  5
8065
  8
0
  6
BYBLOCK
 62
     0
 10
993.44297315727295
 20
1512.081801962956
 30
0.0
 11
1093.442973157272
 21
1512.081801962956
 31
0.0
  0
TEXT
  5
8066
  8
3
 62
     0
 10
1000.585830300129
 20
1517.893158945421
 30
0.0
 40
36.0
  1
148
  0
INSERT
  5
8067
  8
0
  6
BYBLOCK
 62
     0
  2
_OPEN
 10
969.44297315727295
 20
1512.081801962956
 30
0.0
 41
24.0
 42
24.0
 43
24.0
 50
180.0
  0
INSERT
  5
8068
  8
0
  6
BYBLOCK
 62
     0
  2
_OPEN
 10
1117.442973157272
 20
1512.081801962956
 30
0.0
 41
24.0
 42
24.0
 43
24.0
  0
POINT
  5
8069
  8
DEFPOINTS
  6
BYBLOCK
 62
     0
 10
969.44297315727295
 20
1403.661151015888
 30
0.0
  0
POINT
  5
806A
  8
DEFPOINTS
  6
BYBLOCK
 62
     0
 10
1117.442973157272
 20
1209.2967488917179
 30
0.0
  0
POINT
  5
806B
  8
DEFPOINTS
  6
BYBLOCK
 62
     0
 10
1117.442973157272
 20
1512.081801962956
 30
0.0
  0
ENDBLK
  5
806C
  8
0
  0
BLOCK
  8
0
  2
*D13
 70
     1
 10
0.0
 20
0.0
 30
0.0
  3
*D13
  1

  0
LINE
  5
833D
  8
3
 62
     0
 10
1117.442973157272
 20
1215.2967488917179
 30
0.0
 11
1117.442973157272
 21
1589.656209720986
 31
0.0
  0
LINE
  5
833E
  8
3
 62
     0
 10
524.44297315727295
 20
1004.296748891718
 30
0.0
 11
524.44297315727295
 21
1589.656209720986
 31
0.0
  0
LINE
  5
833F
  8
3
 62
     0
 10
1093.442973157272
 20
1577.656209720986
 30
0.0
 11
548.44297315727295
 21
1577.656209720986
 31
0.0
  0
INSERT
  5
8340
  8
3
 62
     0
  2
_OPEN
 10
1117.442973157272
 20
1577.656209720986
 30
0.0
 41
24.0
 42
24.0
 43
24.0
  0
INSERT
  5
8341
  8
3
 62
     0
  2
_OPEN
 10
524.44297315727295
 20
1577.656209720986
 30
0.0
 41
24.0
 42
24.0
 43
24.0
 50
180.0
  0
TEXT
  8
3
  40
36
  5
8383
  62
0
  72
0
  71
0
 10
748.943
 20
1543.94
 30
0.000000
  1
593
  0
POINT
  5
8343
  8
DEFPOINTS
 62
     0
 10
1117.442973157272
 20
1209.2967488917179
 30
0.0
  0
POINT
  5
8344
  8
DEFPOINTS
 62
     0
 10
524.44297315727295
 20
998.29674889171793
 30
0.0
  0
POINT
  5
8345
  8
DEFPOINTS
 62
     0
 10
524.44297315727295
 20
1577.656209720986
 30
0.0
  0
ENDBLK
  5
8061
  8
0
  0
BLOCK
  8
0
  2
*D14
 70
     1
 10
0.0
 20
0.0
 30
0.0
  3
*D14
  1

  0
LINE
  5
8349
  8
3
 62
     0
 10
524.44297315727295
 20
890.29674889171793
 30
0.0
 11
524.44297315727295
 21
792.12854170054641
 31
0.0
  0
LINE
  5
834A
  8
3
 62
     0
 10
969.44297315727295
 20
890.29674889171815
 30
0.0
 11
969.44297315727295
 21
792.12854170054641
 31
0.0
  0
LINE
  5
834B
  8
3
 62
     0
 10
548.44297315727295
 20
804.12854170054652
 30
0.0
 11
945.44297315727283
 21
804.12854170054652
 31
0.0
  0
INSERT
  5
834C
  8
3
 62
     0
  2
_OPEN
 10
524.44297315727295
 20
804.12854170054652
 30
0.0
 41
24.0
 42
24.0
 43
24.0
 50
180.0
  0
INSERT
  5
834D
  8
3
 62
     0
  2
_OPEN
 10
969.44297315727295
 20
804.12854170054652
 30
0.0
 41
24.0
 42
24.0
 43
24.0
  0
TEXT
  8
3
  40
36
  5
8384
  62
0
  72
0
  71
0
 10
674.943
 20
770.409
 30
0.000000
  1
445
  0
POINT
  5
834F
  8
DEFPOINTS
 62
     0
 10
524.44297315727295
 20
896.29674889171793
 30
0.0
  0
POINT
  5
8350
  8
DEFPOINTS
 62
     0
 10
969.44297315727295
 20
896.29674889171815
 30
0.0
  0
POINT
  5
8351
  8
DEFPOINTS
 62
     0
 10
969.44297315727295
 20
804.12854170054652
 30
0.0
  0
ENDBLK
  5
826A
  8
0
  0
BLOCK
  8
0
  2
*D15
 70
     1
 10
0.0
 20
0.0
 30
0.0
  3
*D15
  1

  0
LINE
  5
8352
  8
3
 62
     0
 10
969.44297315727295
 20
890.29674889171815
 30
0.0
 11
969.44297315727295
 21
792.12854170054641
 31
0.0
  0
LINE
  5
8353
  8
3
 62
     0
 10
1144.442973157272
 20
890.29674889171793
 30
0.0
 11
1144.442973157272
 21
792.12854170054641
 31
0.0
  0
LINE
  5
8354
  8
3
 62
     0
 10
993.44297315727295
 20
804.12854170054652
 30
0.0
 11
1120.442973157272
 21
804.12854170054652
 31
0.0
  0
INSERT
  5
8355
  8
3
 62
     0
  2
_OPEN
 10
969.44297315727295
 20
804.12854170054652
 30
0.0
 41
24.0
 42
24.0
 43
24.0
 50
180.0
  0
INSERT
  5
8356
  8
3
 62
     0
  2
_OPEN
 10
1144.442973157272
 20
804.12854170054652
 30
0.0
 41
24.0
 42
24.0
 43
24.0
  0
TEXT
  8
3
  40
36
  5
8385
  62
0
  72
0
  71
0
 10
984.943
 20
770.409
 30
0.000000
  1
175
  0
POINT
  5
8358
  8
DEFPOINTS
 62
     0
 10
969.44297315727295
 20
896.29674889171815
 30
0.0
  0
POINT
  5
8359
  8
DEFPOINTS
 62
     0
 10
1144.442973157272
 20
896.29674889171793
 30
0.0
  0
POINT
  5
835A
  8
DEFPOINTS
 62
     0
 10
1144.442973157272
 20
804.12854170054652
 30
0.0
  0
ENDBLK
  5
8277
  8
0
  0
BLOCK
  8
0
  2
*D16
 70
     1
 10
0.0
 20
0.0
 30
0.0
  3
*D16
  1

  0
LINE
  5
835B
  8
3
 62
     0
 10
1664.1677992296441
 20
890.38284277897696
 30
0.0
 11
1664.1677992296441
 21
792.12854170054641
 31
0.0
  0
LINE
  5
835C
  8
3
 62
     0
 10
2044.1677992296441
 20
890.38284277897719
 30
0.0
 11
2044.1677992296441
 21
792.12854170054641
 31
0.0
  0
LINE
  5
835D
  8
3
 62
     0
 10
1688.1677992296441
 20
804.12854170054652
 30
0.0
 11
2020.1677992296441
 21
804.12854170054652
 31
0.0
  0
INSERT
  5
835E
  8
3
 62
     0
  2
_OPEN
 10
1664.1677992296441
 20
804.12854170054652
 30
0.0
 41
24.0
 42
24.0
 43
24.0
 50
180.0
  0
INSERT
  5
835F
  8
3
 62
     0
  2
_OPEN
 10
2044.1677992296441
 20
804.12854170054652
 30
0.0
 41
24.0
 42
24.0
 43
24.0
  0
TEXT
  8
3
  40
36
  5
8386
  62
0
  72
0
  71
0
 10
1782.17
 20
770.409
 30
0.000000
  1
380
  0
POINT
  5
8361
  8
DEFPOINTS
 62
     0
 10
1664.1677992296441
 20
896.38284277897685
 30
0.0
  0
POINT
  5
8362
  8
DEFPOINTS
 62
     0
 10
2044.1677992296441
 20
896.38284277897719
 30
0.0
  0
POINT
  5
8363
  8
DEFPOINTS
 62
     0
 10
2044.1677992296441
 20
804.12854170054652
 30
0.0
  0
ENDBLK
  5
8284
  8
0
  0
BLOCK
  8
0
  2
*D17
 70
     1
 10
0.0
 20
0.0
 30
0.0
  3
*D17
  1

  0
LINE
  5
8364
  8
3
 62
     0
 10
2044.1677992296441
 20
890.38284277897719
 30
0.0
 11
2044.1677992296441
 21
792.12854170054641
 31
0.0
  0
LINE
  5
8365
  8
3
 62
     0
 10
2084.1677992296441
 20
890.38284277897696
 30
0.0
 11
2084.1677992296441
 21
792.12854170054641
 31
0.0
  0
LINE
  5
8366
  8
3
 62
     0
 10
2020.1677992296441
 20
804.12854170054652
 30
0.0
 11
1996.1677992296441
 21
804.12854170054652
 31
0.0
  0
LINE
  5
8367
  8
3
 62
     0
 10
2108.1677992296441
 20
804.12854170054652
 30
0.0
 11
2214.4535135153578
 21
804.12854170054652
 31
0.0
  0
LINE
  5
8368
  8
3
 62
     0
 10
2044.1677992296441
 20
804.12854170054652
 30
0.0
 11
2084.1677992296441
 21
804.12854170054652
 31
0.0
  0
INSERT
  5
8369
  8
3
 62
     0
  2
_OPEN
 10
2044.1677992296441
 20
804.12854170054652
 30
0.0
 41
24.0
 42
24.0
 43
24.0
  0
INSERT
  5
836A
  8
3
 62
     0
  2
_OPEN
 10
2084.1677992296441
 20
804.12854170054652
 30
0.0
 41
24.0
 42
24.0
 43
24.0
 50
180.0
  0
TEXT
  8
3
  40
36
  5
8387
  62
0
  72
0
  71
0
 10
2101.31
 20
770.409
 30
0.000000
  1
40
  0
POINT
  5
836C
  8
DEFPOINTS
 62
     0
 10
2044.1677992296441
 20
896.38284277897719
 30
0.0
  0
POINT
  5
836D
  8
DEFPOINTS
 62
     0
 10
2084.1677992296441
 20
896.38284277897708
 30
0.0
  0
POINT
  5
836E
  8
DEFPOINTS
 62
     0
 10
2084.1677992296441
 20
804.12854170054652
 30
0.0
  0
ENDBLK
  5
8293
  8
0
  0
BLOCK
  8
0
  2
*D18
 70
     1
 10
0.0
 20
0.0
 30
0.0
  3
*D18
  1

  0
LINE
  5
836F
  8
3
 62
     0
 10
1150.442973157272
 20
936.29674889171736
 30
0.0
 11
1261.2358687881219
 21
936.29674889171736
 31
0.0
  0
LINE
  5
8370
  8
3
 62
     0
 10
1150.442973157272
 20
896.29674889171793
 30
0.0
 11
1261.2358687881219
 21
896.29674889171793
 31
0.0
  0
LINE
  5
8371
  8
3
 62
     0
 10
1249.2358687881219
 20
960.29674889171736
 30
0.0
 11
1249.2358687881219
 21
984.29674889171736
 31
0.0
  0
LINE
  5
8372
  8
3
 62
     0
 10
1249.2358687881219
 20
872.29674889171793
 30
0.0
 11
1249.2358687881219
 21
766.0110346060037
 31
0.0
  0
LINE
  5
8373
  8
3
 62
     0
 10
1249.2358687881219
 20
936.29674889171736
 30
0.0
 11
1249.2358687881219
 21
896.29674889171793
 31
0.0
  0
INSERT
  5
8374
  8
3
 62
     0
  2
_DOT
 10
1249.2358687881219
 20
936.29674889171736
 30
0.0
 41
24.0
 42
24.0
 43
24.0
 50
270.0
  0
INSERT
  5
8375
  8
3
 62
     0
  2
_OPEN
 10
1249.2358687881219
 20
896.29674889171793
 30
0.0
 41
24.0
 42
24.0
 43
24.0
 50
90.0
  0
TEXT
  8
3
  40
36
  5
8388
  62
0
  72
0
  71
0
 10
1147.24
 20
743.434
 30
0.000000
  1
40
  0
POINT
  5
8377
  8
DEFPOINTS
 62
     0
 10
1144.442973157272
 20
936.29674889171736
 30
0.0
  0
POINT
  5
8378
  8
DEFPOINTS
 62
     0
 10
1144.442973157272
 20
896.29674889171793
 30
0.0
  0
POINT
  5
8379
  8
DEFPOINTS
 62
     0
 10
1249.2358687881219
 20
896.29674889171793
 30
0.0
  0
ENDBLK
  5
82BC
  8
0
  0
BLOCK
  8
0
  2
*D19
 70
     1
 10
0.0
 20
0.0
 30
0.0
  3
*D19
  1

  0
LINE
  5
82C0
  8
0
  6
BYBLOCK
 62
     0
 10
1150.442973157272
 20
936.29674889171736
 30
0.0
 11
1261.2358687881219
 21
936.29674889171736
 31
0.0
  0
LINE
  5
82C1
  8
0
  6
BYBLOCK
 62
     0
 10
1150.442973157272
 20
958.29674889171781
 30
0.0
 11
1261.2358687881219
 21
958.29674889171781
 31
0.0
  0
LINE
  5
82C2
  8
0
  6
BYBLOCK
 62
     0
 10
1249.2358687881219
 20
912.29674889171736
 30
0.0
 11
1249.2358687881219
 21
888.29674889171736
 31
0.0
  0
LINE
  5
82C3
  8
0
  6
BYBLOCK
 62
     0
 10
1249.2358687881219
 20
982.29674889171781
 30
0.0
 11
1249.2358687881219
 21
1006.296748891718
 31
0.0
  0
TEXT
  5
82C4
  8
3
 62
     0
 10
1318.664440216693
 20
895.01103460600336
 30
0.0
 40
36.0
  1
(22)
 50
90.0
  0
LINE
  5
82C5
  8
0
  6
BYBLOCK
 62
     0
 10
1249.2358687881219
 20
936.29674889171736
 30
0.0
 11
1249.2358687881219
 21
958.29674889171781
 31
0.0
  0
INSERT
  5
82C6
  8
0
  6
BYBLOCK
 62
     0
  2
_DOT
 10
1249.2358687881219
 20
936.29674889171736
 30
0.0
 41
24.0
 42
24.0
 43
24.0
 50
90.0
  0
INSERT
  5
82C7
  8
0
  6
BYBLOCK
 62
     0
  2
_OPEN
 10
1249.2358687881219
 20
958.29674889171781
 30
0.0
 41
24.0
 42
24.0
 43
24.0
 50
270.0
  0
POINT
  5
82C8
  8
DEFPOINTS
  6
BYBLOCK
 62
     0
 10
1144.442973157272
 20
936.29674889171736
 30
0.0
  0
POINT
  5
82C9
  8
DEFPOINTS
  6
BYBLOCK
 62
     0
 10
1144.442973157272
 20
958.29674889171781
 30
0.0
  0
POINT
  5
82CA
  8
DEFPOINTS
  6
BYBLOCK
 62
     0
 10
1249.2358687881219
 20
958.29674889171781
 30
0.0
  0
ENDBLK
  5
82CB
  8
0
  0
BLOCK
  8
0
  2
*D20
 70
     1
 10
0.0
 20
0.0
 30
0.0
  3
*D20
  1

  0
LINE
  5
82CF
  8
0
  6
BYBLOCK
 62
     0
 10
998.44297315727283
 20
1403.2967488917179
 30
0.0
 11
1372.4656715864689
 21
1403.2967488917179
 31
0.0
  0
LINE
  5
82D0
  8
0
  6
BYBLOCK
 62
     0
 10
1150.442973157272
 20
896.29674889171793
 30
0.0
 11
1372.4656715864689
 21
896.29674889171793
 31
0.0
  0
LINE
  5
82D1
  8
0
  6
BYBLOCK
 62
     0
 10
1360.4656715864689
 20
1379.2967488917179
 30
0.0
 11
1360.4656715864689
 21
920.29674889171793
 31
0.0
  0
INSERT
  5
82D2
  8
0
  6
BYBLOCK
 62
     0
  2
_OPEN
 10
1360.4656715864689
 20
1403.2967488917179
 30
0.0
 41
24.0
 42
24.0
 43
24.0
 50
90.0
  0
INSERT
  5
82D3
  8
0
  6
BYBLOCK
 62
     0
  2
_OPEN
 10
1360.4656715864689
 20
896.29674889171793
 30
0.0
 41
24.0
 42
24.0
 43
24.0
 50
270.0
  0
TEXT
  5
82D4
  8
3
 62
     0
 10
1333.0371001578981
 20
1080.368177463147
 30
0.0
 40
36.0
  1
(507)
 50
90.0
  0
POINT
  5
82D5
  8
DEFPOINTS
  6
BYBLOCK
 62
     0
 10
992.44297315727272
 20
1403.2967488917179
 30
0.0
  0
POINT
  5
82D6
  8
DEFPOINTS
  6
BYBLOCK
 62
     0
 10
1144.442973157272
 20
896.29674889171793
 30
0.0
  0
POINT
  5
82D7
  8
DEFPOINTS
  6
BYBLOCK
 62
     0
 10
1360.4656715864689
 20
896.29674889171793
 30
0.0
  0
ENDBLK
  5
82D8
  8
0
  0
ENDSEC
  0
SECTION
  2
ENTITIES
  0
LINE
  5
7C30
  8
2
 10
969.44297315727295
 20
1456.4874232302441
 30
0.0
 11
969.44297315727272
 21
896.29674889171793
 31
0.0
  0
LINE
  5
7C32
  8
1
 10
524.44297315727295
 20
998.29674889171793
 30
0.0
 11
1144.442973157272
 21
998.29674889171747
 31
0.0
  0
LINE
  5
7C34
  8
1
 10
524.44297315727295
 20
998.29674889171793
 30
0.0
 11
524.44297315727295
 21
958.29674889171781
 31
0.0
  0
LINE
  5
7C35
  8
2
 10
1154.807375281443
 20
1218.2967488917179
 30
0.0
 11
786.591197080239
 21
1218.2967488917179
 31
0.0
  0
LINE
  5
7C37
  8
1
 10
1144.442973157272
 20
998.29674889171747
 30
0.0
 11
1144.442973157272
 21
958.29674889171747
 31
0.0
  0
LINE
  5
7C38
  8
2
 10
2084.1677992296441
 20
1451.845405692324
 30
0.0
 11
2084.1677992296441
 21
896.38284277897708
 31
0.0
  0
LINE
  5
7C39
  8
2
 10
1628.3755741281809
 20
1218.3828427789761
 30
0.0
 11
2191.635504822224
 21
1218.3828427789761
 31
0.0
  0
LINE
  5
7C3A
  8
1
 10
564.44297315727306
 20
2390.5125908814312
 30
0.0
 11
564.44297315727306
 21
2312.7125908814292
 31
0.0
  0
LINE
  5
7C3B
  8
1
 10
524.44297315727306
 20
2390.5125908814312
 30
0.0
 11
524.44297315727306
 21
2010.5125908814309
 31
0.0
  0
LINE
  5
7C3E
  8
1
 10
1144.442973157272
 20
2010.5125908814309
 30
0.0
 11
524.44297315727329
 21
2010.512590881435
 31
0.0
  0
LINE
  5
7C3F
  8
2
 10
639.44297315727272
 20
2328.127516353185
 30
0.0
 11
639.44297315727272
 21
1982.967400147835
 31
0.0
  0
LINE
  5
7C40
  8
1
 10
1144.442973157272
 20
2390.5125908814312
 30
0.0
 11
1117.442973157272
 21
2390.5125908814312
 31
0.0
  0
LINE
  5
7C4B
  8
1
 10
1104.4429731572709
 20
2010.5125908814309
 30
0.0
 11
1144.442973157272
 21
2010.5125908814309
 31
0.0
  0
CIRCLE
  5
7C51
  8
1
 10
969.44297315727272
 20
1088.2967488917179
 30
0.0
 40
60.0
  0
LINE
  5
7C52
  8
1
 10
1651.1677992296429
 20
1298.388807865095
 30
0.0
 11
1651.1677992296429
 21
998.38284277897696
 31
0.0
  0
LINE
  5
7C53
  8
1
 10
1726.1677992296429
 20
1298.388807865095
 30
0.0
 11
1726.1677992296429
 21
1273.527621291136
 31
0.0
  0
LINE
  5
7C54
  8
1
 10
1019.5913066232019
 20
1298.2527192759781
 30
0.0
 11
1019.5913066232019
 21
998.29674889171747
 31
0.0
  0
LINE
  5
7C55
  8
1
 10
539.5913066232024
 20
1298.2527192759781
 30
0.0
 11
539.5913066232024
 21
998.29674889171793
 31
0.0
  0
ARC
  5
7C56
  8
1
 10
958.44297315727272
 20
1207.2967488917179
 30
0.0
 40
159.0
 50
273.9670277620441
 51
314.27582171153023
  0
LINE
  5
7C57
  8
1
 10
1069.442973157272
 20
1178.5967488917181
 30
0.0
 11
1069.442973157272
 21
998.29674889171804
 31
0.0
  0
LINE
  5
7C58
  8
1
 10
869.44297315727272
 20
1178.5967488917181
 30
0.0
 11
869.44297315727272
 21
998.29674889171804
 31
0.0
  0
ARC
  5
7C59
  8
1
 10
955.4429731572726
 20
1232.2967488917179
 30
0.0
 40
184.0
 50
180.33401164716611
 51
274.36367879789537
  0
LINE
  5
7C5A
  8
1
 10
1981.8677992296441
 20
1284.3828427789761
 30
0.0
 11
1981.8677992296441
 21
1034.382842778977
 31
0.0
  0
LINE
  5
7C5C
  8
1
 10
2009.1677992296429
 20
1218.3828427789761
 30
0.0
 11
2009.1677992296429
 21
1034.382842778977
 31
0.0
  0
LINE
  5
7C5D
  8
1
 10
2159.1677992296432
 20
1195.3828427789761
 30
0.0
 11
2159.1677992296432
 21
1070.2967488917179
 31
0.0
  0
LINE
  5
7C5F
  8
1
 10
1730.8677992296441
 20
998.38284277897674
 30
0.0
 11
1730.8677992296441
 21
1181.8828427789761
 31
0.0
  0
LINE
  5
7C60
  8
1
 10
1664.1677992296441
 20
998.38284277897696
 30
0.0
 11
2044.1677992296441
 21
998.38284277897719
 31
0.0
  0
LINE
  5
7C61
  8
1
 10
1664.1677992296441
 20
958.38284277897696
 30
0.0
 11
2044.1677992296441
 21
958.38284277897719
 31
0.0
  0
LINE
  5
7C62
  8
1
 10
2001.8677992296441
 20
1034.382842778977
 30
0.0
 11
2001.8677992296441
 21
998.38284277897719
 31
0.0
  0
LINE
  5
7C63
  8
1
 10
2009.1677992296429
 20
1034.382842778977
 30
0.0
 11
1981.8677992296441
 21
1034.382842778977
 31
0.0
  0
LINE
  5
7C64
  8
1
 10
771.44609970134468
 20
1231.224108018346
 30
0.0
 11
770.44297315727272
 21
1403.2967488917179
 31
0.0
  0
ARC
  5
7C65
  8
1
 10
978.44297315727272
 20
1209.2967488917179
 30
0.0
 40
139.0
 50
359.60164491564262
 51
90.635959898019365
  0
LINE
  5
7C66
  8
1
 10
539.5913066232024
 20
1298.2527192759781
 30
0.0
 11
1019.5913066232019
 21
1298.2527192759781
 31
0.0
  0
LINE
  5
7C69
  8
1
 10
1044.442973157272
 20
1181.7967488917179
 30
0.0
 11
1044.442973157272
 21
1184.996748891718
 31
0.0
  0
LINE
  5
7C6A
  8
1
 10
894.44297315727272
 20
1184.996748891718
 30
0.0
 11
894.44297315727272
 21
1181.7967488917179
 31
0.0
  0
LINE
  5
7C6B
  8
1
 10
1061.942973157272
 20
1284.2967488917179
 30
0.0
 11
1061.942973157272
 21
1181.7967488917179
 31
0.0
  0
LINE
  5
7C6C
  8
1
 10
1067.942973157272
 20
1284.2967488917179
 30
0.0
 11
1067.942973157272
 21
1181.7967488917179
 31
0.0
  0
LINE
  5
7C6D
  8
1
 10
876.9429731572726
 20
1284.2967488917179
 30
0.0
 11
876.9429731572726
 21
1181.7967488917179
 31
0.0
  0
LINE
  5
7C6E
  8
1
 10
870.94297315727272
 20
1284.2967488917179
 30
0.0
 11
870.94297315727272
 21
1181.7967488917179
 31
0.0
  0
ARC
  5
7C6F
  8
1
 10
958.44297315727272
 20
1207.2967488917179
 30
0.0
 40
159.0
 50
314.27582171153023
 51
0.3724595314050472
  0
LINE
  5
7C70
  8
1
 10
864.4429731572726
 20
1181.7967488917179
 30
0.0
 11
1074.442973157272
 21
1181.7967488917179
 31
0.0
  0
LINE
  5
7C71
  8
1
 10
864.4429731572726
 20
1178.5967488917181
 30
0.0
 11
1074.442973157272
 21
1178.5967488917181
 31
0.0
  0
LINE
  5
7C72
  8
1
 10
864.4429731572726
 20
1181.7967488917179
 30
0.0
 11
864.4429731572726
 21
1178.5967488917181
 31
0.0
  0
LINE
  5
7C73
  8
1
 10
1074.442973157272
 20
1181.7967488917179
 30
0.0
 11
1074.442973157272
 21
1178.5967488917181
 31
0.0
  0
LINE
  5
7C74
  8
1
 10
1044.442973157272
 20
1184.996748891718
 30
0.0
 11
894.44297315727272
 21
1184.9967488917171
 31
0.0
  0
LINE
  5
7C75
  8
1
 10
870.94297315727272
 20
1284.2967488917179
 30
0.0
 11
876.9429731572726
 21
1284.2967488917179
 31
0.0
  0
LINE
  5
7C76
  8
1
 10
1061.942973157272
 20
1284.2967488917179
 30
0.0
 11
1067.942973157272
 21
1284.2967488917179
 31
0.0
  0
LINE
  5
7C77
  8
1
 10
748.4430071414472
 20
1383.2967488917179
 30
0.0
 11
992.44297315727295
 21
1383.2967488917179
 31
0.0
  0
LINE
  5
7C78
  8
1
 10
748.44300714144742
 20
1403.2967488917179
 30
0.0
 11
980.4429731572726
 21
1403.2967488917179
 31
0.0
  0
LINE
  5
7C79
  8
1
 10
970.44297315727272
 20
1348.1959014311931
 30
0.0
 11
970.44297315727272
 21
1403.2967488917179
 31
0.0
  0
ARC
  5
7C7A
  8
1
 10
975.44297315727272
 20
1224.2967488917179
 30
0.0
 40
124.0
 50
89.326672180610984
 51
92.310940209102384
  0
LINE
  5
7C7B
  8
1
 10
972.4429731572726
 20
1383.2967488917179
 30
0.0
 11
973.44297315727283
 21
1383.2967488917179
 31
0.0
  0
LINE
  5
7C7C
  8
1
 10
992.44297315727272
 20
1403.2967488917179
 30
0.0
 11
972.4429731572726
 21
1403.2967488917179
 31
0.0
  0
LINE
  5
7C7D
  8
1
 10
992.44297315727272
 20
1383.2967488917179
 30
0.0
 11
992.44297315727272
 21
1403.2967488917179
 31
0.0
  0
LINE
  5
7C7E
  8
1
 10
2159.1677992296432
 20
1383.2967488917179
 30
0.0
 11
2159.1677992296432
 21
1217.382842778977
 31
0.0
  0
LINE
  5
7C7F
  8
1
 10
2009.1677992296429
 20
1383.2967488917179
 30
0.0
 11
2009.1677992296429
 21
1217.382842778977
 31
0.0
  0
LINE
  5
7C80
  8
1
 10
2182.1677992296432
 20
1328.3828427789761
 30
0.0
 11
2182.1677992296432
 21
1108.3828427789761
 31
0.0
  0
LINE
  5
7C83
  8
1
 10
1726.1677992296429
 20
1181.8828427789761
 30
0.0
 11
1981.8677992296441
 21
1181.8828427789761
 31
0.0
  0
LINE
  5
7C85
  8
1
 10
1712.3677992296441
 20
1268.3828427789761
 30
0.0
 11
1712.3677992296441
 21
1173.9328427789769
 31
0.0
  0
LINE
  5
7C86
  8
1
 10
1674.3677992296441
 20
1268.3828427789761
 30
0.0
 11
1674.367799229643
 21
1173.9328427789769
 31
0.0
  0
LINE
  5
7C89
  8
1
 10
1674.367799229643
 20
1173.9328427789769
 30
0.0
 11
1674.3677992296421
 21
1058.3828427789761
 31
0.0
  0
LINE
  5
7C8A
  8
1
 10
1712.3677992296441
 20
1173.9328427789769
 30
0.0
 11
1712.3677992296441
 21
1058.3828427789761
 31
0.0
  0
LINE
  5
7C8E
  8
1
 10
1651.1677992296429
 20
1298.388807865095
 30
0.0
 11
1726.1677992296429
 21
1298.388807865095
 31
0.0
  0
LINE
  5
7C8F
  8
1
 10
1712.3677992296441
 20
1208.8828427789761
 30
0.0
 11
1722.3677992296441
 21
1208.8828427789761
 31
0.0
  0
LINE
  5
7C90
  8
1
 10
1722.3677992296441
 20
1208.3828427789761
 30
0.0
 11
1749.0677992296439
 21
1208.3828427789761
 31
0.0
  0
LINE
  5
7C91
  8
1
 10
1981.8677992296441
 20
1208.3828427789761
 30
0.0
 11
1722.3677992296441
 21
1208.3828427789761
 31
0.0
  0
LINE
  5
7C92
  8
1
 10
1712.3677992296441
 20
1227.8828427789761
 30
0.0
 11
1722.3677992296441
 21
1227.8828427789761
 31
0.0
  0
LINE
  5
7C94
  8
1
 10
2162.1677992296432
 20
1108.3828427789761
 30
0.0
 11
2182.1677992296432
 21
1108.3828427789761
 31
0.0
  0
LINE
  5
7C95
  8
1
 10
2182.1677992296432
 20
1108.3828427789761
 30
0.0
 11
2182.1677992296432
 21
1107.3828427789761
 31
0.0
  0
ARC
  5
7C96
  8
1
 10
2180.1677992296432
 20
1107.3828427789761
 30
0.0
 40
2.0
 50
270.0
 51
0.0
  0
LINE
  5
7C97
  8
1
 10
2180.1677992296432
 20
1105.3828427789761
 30
0.0
 11
2169.1677992296432
 21
1105.3828427789761
 31
0.0
  0
ARC
  5
7C98
  8
1
 10
2169.1677992296432
 20
1101.3828427789761
 30
0.0
 40
4.0
 50
90.0
 51
180.0
  0
LINE
  5
7C99
  8
1
 10
2165.1677992296441
 20
1101.3828427789761
 30
0.0
 11
2165.1677992296441
 21
1090.3828427789761
 31
0.0
  0
ARC
  5
7C9A
  8
1
 10
2163.1677992296432
 20
1090.3828427789761
 30
0.0
 40
2.0
 50
270.0
 51
0.0
  0
LINE
  5
7C9B
  8
1
 10
2163.1677992296432
 20
1088.3828427789761
 30
0.0
 11
2162.1677992296432
 21
1088.3828427789761
 31
0.0
  0
LINE
  5
7C9C
  8
1
 10
2162.1677992296432
 20
1088.3828427789761
 30
0.0
 11
2162.1677992296432
 21
1108.3828427789761
 31
0.0
  0
LINE
  5
7C9D
  8
1
 10
2159.1677992296432
 20
1088.3828427789761
 30
0.0
 11
2162.1677992296441
 21
1088.3828427789761
 31
0.0
  0
LINE
  5
7CA0
  8
1
 10
1981.8677992296441
 20
1284.3828427789761
 30
0.0
 11
2006.867799229643
 21
1284.3828427789761
 31
0.0
  0
LINE
  5
7CA1
  8
1
 10
2159.1677992296381
 20
1218.3828427789761
 30
0.0
 11
2159.1677992296432
 21
1195.3828427789761
 31
0.0
  0
LINE
  5
7CA2
  8
1
 10
2161.1677992296441
 20
1217.382842778977
 30
0.0
 11
2161.1677992296432
 21
1218.3828427789761
 31
0.0
  0
LINE
  5
7CA5
  8
1
 10
2180.1677992296432
 20
1331.3828427789761
 30
0.0
 11
2179.1677992296432
 21
1331.3828427789761
 31
0.0
  0
ARC
  5
7CA6
  8
1
 10
2180.1677992296432
 20
1329.3828427789761
 30
0.0
 40
2.0
 50
0.0
 51
90.0
  0
LINE
  5
7CA7
  8
1
 10
2182.1677992296432
 20
1328.3828427789761
 30
0.0
 11
2182.1677992296432
 21
1329.3828427789761
 31
0.0
  0
LINE
  5
7CA8
  8
1
 10
2179.1677992296441
 20
1328.3828427789761
 30
0.0
 11
2182.1677992296432
 21
1328.3828427789761
 31
0.0
  0
LINE
  5
7CAA
  8
1
 10
1144.442973157272
 20
958.29674889171781
 30
0.0
 11
524.44297315727295
 21
958.29674889171781
 31
0.0
  0
LINE
  5
7CAB
  8
1
 10
748.4430071414472
 20
1403.2967488917179
 30
0.0
 11
748.44300714144686
 21
1383.2967488917179
 31
0.0
  0
DIMENSION
  5
7CAC
  8
3
  2
*D2
 10
770.44297315727272
 20
1449.754978781107
 30
0.0
 11
870.44297315727272
 21
1479.754978781107
 31
0.0
 70
     0
 13
970.44297315727272
 23
1403.2967488917179
 33
0.0
 14
770.44297315727272
 24
1403.2967488917179
 34
0.0
1001
ACAD
1000
DSTYLE
1002
{
1070
   287
1070
     3
1070
    40
1040
12.0
1070
   143
1040
0.039
1070
   172
1070
     1
1070
   271
1070
     0
1070
   279
1070
     0
1070
   288
1070
     1
1002
}
  0
DIMENSION
  5
7CAD
  8
3
  2
*D3
 10
770.44297315727272
 20
1512.081801962956
 30
0.0
 11
869.94297315727283
 21
1542.081801962956
 31
0.0
 70
     0
 13
969.44297315727295
 23
1403.661151015888
 33
0.0
 14
770.44297315727272
 24
1403.2967488917179
 34
0.0
1001
ACAD
1000
DSTYLE
1002
{
1070
   287
1070
     3
1070
    40
1040
12.0
1070
   143
1040
0.039
1070
   172
1070
     1
1070
   271
1070
     0
1070
   279
1070
     0
1070
   288
1070
     1
1002
}
  0
DIMENSION
  5
7CB0
  8
3
  2
*D4
 10
1249.636335040401
 20
958.29674889171781
 30
0.0
 11
1219.636335040401
 21
1088.296748891717
 31
0.0
 70
     0
 13
1154.807375281443
 23
1218.296748891717
 33
0.0
 14
1144.442973157272
 24
958.29674889171781
 34
0.0
 50
90.0
1001
ACAD
1000
DSTYLE
1002
{
1070
   287
1070
     3
1070
    40
1040
12.0
1070
   143
1040
0.039
1070
   172
1070
     1
1070
   271
1070
     0
1070
   279
1070
     0
1070
   288
1070
     1
1002
}
  0
LINE
  5
7CB3
  8
1
 10
2044.1677992296441
 20
958.38284277897719
 30
0.0
 11
2044.167799229645
 21
998.38284277897719
 31
0.0
  0
LINE
  5
7CB4
  8
1
 10
1664.1677992296441
 20
958.38284277897696
 30
0.0
 11
1664.1677992296441
 21
998.38284277897685
 31
0.0
  0
LINE
  5
7CB5
  8
1
 10
2009.1677992296429
 20
1070.2967488917179
 30
0.0
 11
2159.1677992296432
 21
1070.296748891717
 31
0.0
  0
LINE
  5
7CB6
  8
1
 10
1981.8677992296441
 20
1228.3828427789761
 30
0.0
 11
1722.3677992296441
 21
1228.3828427789761
 31
0.0
  0
LINE
  5
7CB7
  8
1
 10
1722.3677992296441
 20
1228.3828427789761
 30
0.0
 11
1722.3677992296441
 21
1227.8828427789761
 31
0.0
  0
LINE
  5
7CB8
  8
1
 10
1722.3677992296441
 20
1208.8828427789761
 30
0.0
 11
1722.3677992296441
 21
1208.3828427789761
 31
0.0
  0
LINE
  5
7CB9
  8
1
 10
1726.1677992296429
 20
998.38284277897696
 30
0.0
 11
1651.1677992296429
 21
998.38284277897696
 31
0.0
  0
LINE
  5
7CBA
  8
1
 10
1989.1677992296429
 20
1403.2967488917179
 30
0.0
 11
1989.1677992296429
 21
1383.2967488917179
 31
0.0
  0
LINE
  5
7CBB
  8
1
 10
2179.1677992296441
 20
1403.2967488917179
 30
0.0
 11
2179.1677992296441
 21
1383.2967488917179
 31
0.0
  0
LINE
  5
7CBD
  8
2
 10
1639.4255356856829
 20
1108.382842778977
 30
0.0
 11
1745.887893462743
 21
1108.382842778977
 31
0.0
  0
LINE
  5
7CBE
  8
2
 10
1133.5827123819699
 20
2430.5125908814321
 30
0.0
 11
735.88531116529884
 21
2430.5125908814321
 31
0.0
  0
LINE
  5
7CBF
  8
1
 10
1117.442973157272
 20
2505.5125908814298
 30
0.0
 11
990.44297315727283
 21
2505.5125908814321
 31
0.0
  0
LINE
  5
7CC0
  8
1
 10
1117.442973157272
 20
2355.5125908814312
 30
0.0
 11
990.44297315727283
 21
2355.5125908814312
 31
0.0
  0
LINE
  5
7CC1
  8
1
 10
1144.442973157272
 20
2390.5125908814312
 30
0.0
 11
1144.442973157272
 21
2010.5125908814309
 31
0.0
  0
LINE
  5
7CC2
  8
1
 10
1104.4429731572729
 20
2355.5125908814312
 30
0.0
 11
1104.442973157272
 21
2010.5125908814309
 31
0.0
  0
LINE
  5
7CC3
  8
2
 10
969.44297315727272
 20
1984.417653813633
 30
0.0
 11
969.44297315727272
 21
2537.9802964740111
 31
0.0
  0
LINE
  5
7CC4
  8
1
 10
1049.448938243391
 20
1997.51259088143
 30
0.0
 11
1049.448938243391
 21
2072.5125908814298
 31
0.0
  0
LINE
  5
7CC5
  8
1
 10
1049.448938243391
 20
1997.51259088143
 30
0.0
 11
539.5913066232024
 21
1997.51259088143
 31
0.0
  0
LINE
  5
7CC6
  8
1
 10
924.9929731572729
 20
2020.7125908814301
 30
0.0
 11
589.44297315727272
 21
2020.712590881428
 31
0.0
  0
LINE
  5
7CC7
  8
1
 10
924.9929731572729
 20
2058.712590881431
 30
0.0
 11
589.44297315727272
 21
2058.712590881431
 31
0.0
  0
LINE
  5
7CC8
  8
1
 10
1049.448938243391
 20
2072.5125908814298
 30
0.0
 11
539.5913066232024
 21
2072.5125908814298
 31
0.0
  0
LINE
  5
7CCA
  8
1
 10
959.44297315727306
 20
2335.5125908814312
 30
0.0
 11
959.44297315727272
 21
2068.712590881431
 31
0.0
  0
LINE
  5
7CCB
  8
1
 10
979.4429731572726
 20
2335.5125908814312
 30
0.0
 11
979.4429731572726
 21
2068.712590881431
 31
0.0
  0
LINE
  5
7CCC
  8
1
 10
1019.442973157272
 20
2020.712590881431
 30
0.0
 11
924.9929731572729
 21
2020.7125908814301
 31
0.0
  0
LINE
  5
7CCD
  8
1
 10
1019.442973157272
 20
2058.712590881431
 30
0.0
 11
924.9929731572729
 21
2058.712590881431
 31
0.0
  0
LINE
  5
7CCE
  8
1
 10
932.94297315727272
 20
2072.5125908814312
 30
0.0
 11
1025.942973157272
 21
2072.5125908814312
 31
0.0
  0
LINE
  5
7CD0
  8
1
 10
978.94297315727272
 20
2058.712590881431
 30
0.0
 11
978.94297315727272
 21
2068.712590881431
 31
0.0
  0
LINE
  5
7CD1
  8
1
 10
959.9429731572726
 20
2058.712590881431
 30
0.0
 11
959.9429731572726
 21
2068.712590881431
 31
0.0
  0
LINE
  5
7CD3
  8
1
 10
539.5913066232024
 20
2072.5125908814298
 30
0.0
 11
539.5913066232024
 21
1997.51259088143
 31
0.0
  0
LINE
  5
7CD5
  8
1
 10
564.44297315727306
 20
2094.7125908814292
 30
0.0
 11
564.44297315727306
 21
2010.5125908814309
 31
0.0
  0
LINE
  5
7CD6
  8
1
 10
1069.442973157272
 20
2077.5901949690679
 30
0.0
 11
1069.442973157272
 21
2355.5125908814312
 31
0.0
  0
LINE
  5
7CD7
  8
1
 10
869.44297315727272
 20
2077.5901949690679
 30
0.0
 11
869.44297315727272
 21
2335.5125908814312
 31
0.0
  0
LINE
  5
7CD8
  8
1
 10
1069.442973157272
 20
2077.5901949690679
 30
0.0
 11
979.4429731572726
 21
2077.5901949690679
 31
0.0
  0
LINE
  5
7CDA
  8
1
 10
959.44297315727363
 20
2077.5901949690679
 30
0.0
 11
869.44297315727272
 21
2077.5901949690679
 31
0.0
  0
DIMENSION
  5
7CDB
  8
3
  2
*D5
 10
2084.1677992296441
 20
1526.7453100193841
 30
0.0
 11
2122.3141419445401
 21
1551.3765254394959
 31
0.0
 70
   128
  1
79
 13
2161.1677992296441
 23
1383.2967488917179
 33
0.0
 14
2084.1677992296441
 24
1491.4859314979749
 34
0.0
1001
ACAD
1000
DSTYLE
1002
{
1070
   288
1070
     1
1070
   172
1070
     1
1070
    40
1040
12.0
1070
   271
1070
     0
1070
   143
1040
0.039
1002
}
  0
DIMENSION
  5
7CDC
  8
3
  2
*D6
 10
1651.1677992296429
 20
1526.7453100193841
 30
0.0
 11
1867.6677992296441
 21
1586.7453100193841
 31
0.0
 70
     0
  1
MAX\P520
 13
2084.1677992296441
 23
1491.4859314979749
 33
0.0
 14
1651.1677992296429
 24
1298.388807865095
 34
0.0
1001
ACAD
1000
DSTYLE
1002
{
1070
   287
1070
     3
1070
    40
1040
12.0
1070
   143
1040
0.039
1070
   172
1070
     1
1070
   271
1070
     0
1070
   279
1070
     0
1070
   288
1070
     1
1002
}
  0
DIMENSION
  5
7CDD
  8
3
  2
*D7
 10
2159.1677992296432
 20
1447.7752227700751
 30
0.0
 11
2084.1677992296432
 21
1476.4349078818909
 31
0.0
 70
   128
 13
2009.1677992296429
 23
1383.2967488917179
 33
0.0
 14
2159.1677992296432
 24
1383.2967488917179
 34
0.0
1001
ACAD
1000
DSTYLE
1002
{
1070
   288
1070
     1
1070
   172
1070
     1
1070
    40
1040
12.0
1070
   271
1070
     0
1070
   143
1040
0.039
1002
}
  0
DIMENSION
  5
7CDE
  8
3
  2
*D8
 10
2263.1848390934829
 20
1108.3828427789761
 30
0.0
 11
2233.184839093482
 21
1218.382842778977
 31
0.0
 70
     0
 13
2182.1677992296432
 23
1328.3828427789761
 33
0.0
 14
2182.1677992296432
 24
1108.3828427789761
 34
0.0
 50
90.0
1001
ACAD
1000
DSTYLE
1002
{
1070
   287
1070
     3
1070
     3
1000
φ<>
1070
    40
1040
12.0
1070
   143
1040
0.039
1070
   172
1070
     1
1070
   271
1070
     0
1070
   279
1070
     0
1070
   288
1070
     1
1002
}
  0
DIMENSION
  5
7CDF
  8
3
  2
*D9
 10
1255.553559229093
 20
2010.5125908814309
 30
0.0
 11
1225.553559229093
 21
2200.5125908814321
 31
0.0
 70
     0
 13
1144.442973157272
 23
2390.5125908814312
 33
0.0
 14
1144.442973157272
 24
2010.5125908814309
 34
0.0
 50
90.0
1001
ACAD
1000
DSTYLE
1002
{
1070
   287
1070
     3
1070
    40
1040
12.0
1070
   143
1040
0.039
1070
   172
1070
     1
1070
   271
1070
     0
1070
   279
1070
     0
1070
   288
1070
     1
1002
}
  0
DIMENSION
  5
7CE0
  8
3
  2
*D10
 10
1144.442973157272
 20
2586.8111429710889
 30
0.0
 11
834.44297315727295
 21
2586.8111429710889
 31
0.0
 70
   128
 13
524.44297315727306
 23
2390.5125908814312
 33
0.0
 14
1144.442973157272
 24
2390.5125908814312
 34
0.0
1001
ACAD
1000
DSTYLE
1002
{
1070
   287
1070
     3
1070
    40
1040
12.0
1070
   143
1040
0.039
1070
   172
1070
     1
1070
   271
1070
     0
1070
   279
1070
     0
1070
   288
1070
     1
1002
}
  0
DIMENSION
  5
7CE1
  8
3
  2
*D11
 10
1248.7247024940939
 20
1218.2967488917179
 30
0.0
 11
1218.7247024940939
 21
1310.7967488917179
 31
0.0
 70
     0
 13
992.44297315727272
 23
1403.2967488917179
 33
0.0
 14
1154.807375281443
 24
1218.2967488917179
 34
0.0
 50
90.0
1001
ACAD
1000
DSTYLE
1002
{
1070
   287
1070
     3
1070
    40
1040
12.0
1070
   143
1040
0.039
1070
   172
1070
     1
1070
   271
1070
     0
1070
   279
1070
     0
1070
   288
1070
     1
1002
}
  0
DIMENSION
  5
7CE2
  8
3
  2
*D12
 10
1117.442973157272
 20
1512.081801962956
 30
0.0
 11
1043.442973157272
 21
1535.893158945421
 31
0.0
 70
   128
 13
969.44297315727295
 23
1403.661151015888
 33
0.0
 14
1117.442973157272
 24
1209.2967488917179
 34
0.0
1001
ACAD
1000
DSTYLE
1002
{
1070
   288
1070
     1
1070
   172
1070
     1
1070
    40
1040
12.0
1070
   271
1070
     0
1070
   143
1040
0.039
1002
}
  0
DIMENSION
  5
7CE6
  8
3
  2
*D13
 10
524.44297315727295
 20
1577.656209720986
 30
0.0
 11
820.94297315727272
 21
1607.656209720986
 31
0.0
 70
     0
 13
1117.442973157272
 23
1209.2967488917179
 33
0.0
 14
524.44297315727295
 24
998.29674889171793
 34
0.0
1001
ACAD
1000
DSTYLE
1002
{
1070
   287
1070
     3
1070
    40
1040
12.0
1070
   143
1040
0.039
1070
   172
1070
     1
1070
   271
1070
     0
1070
   279
1070
     0
1070
   288
1070
     1
1002
}
  0
LINE
  5
7CE7
  8
1
 10
1989.1677992296429
 20
1403.2967488917179
 30
0.0
 11
2179.1677992296441
 21
1403.2967488917179
 31
0.0
  0
LINE
  5
7CE8
  8
1
 10
1989.1677992296429
 20
1383.2967488917179
 30
0.0
 11
2179.1677992296441
 21
1383.2967488917179
 31
0.0
  0
LINE
  5
7CE9
  8
1
 10
2162.1677992296432
 20
1348.3828427789761
 30
0.0
 11
2162.1677992296432
 21
1108.3828427789761
 31
0.0
  0
LINE
  5
7CEA
  8
1
 10
2165.1677992296441
 20
1335.3828427789761
 30
0.0
 11
2165.1677992296441
 21
1346.3828427789761
 31
0.0
  0
LINE
  5
7CEB
  8
1
 10
2159.1677992296432
 20
1348.3828427789761
 30
0.0
 11
2162.1677992296441
 21
1348.3828427789761
 31
0.0
  0
LINE
  5
7CEC
  8
1
 10
2163.1677992296432
 20
1348.3828427789761
 30
0.0
 11
2162.1677992296432
 21
1348.3828427789761
 31
0.0
  0
ARC
  5
7CED
  8
1
 10
2163.1677992296432
 20
1346.3828427789761
 30
0.0
 40
2.0
 50
0.0
 51
90.0
  0
LINE
  5
7CEE
  8
1
 10
2180.1677992296432
 20
1331.3828427789761
 30
0.0
 11
2169.1677992296432
 21
1331.3828427789761
 31
0.0
  0
LINE
  5
7CEF
  8
1
 10
2162.1677992296432
 20
1328.3828427789761
 30
0.0
 11
2182.1677992296432
 21
1328.3828427789761
 31
0.0
  0
ARC
  5
7CF0
  8
1
 10
2169.1677992296432
 20
1335.3828427789761
 30
0.0
 40
4.0
 50
180.0
 51
270.0
  0
ARC
  5
7CF1
  8
1
 10
2180.1677992296432
 20
1329.3828427789761
 30
0.0
 40
2.0
 50
0.0
 51
90.0
  0
LINE
  5
7CF2
  8
1
 10
2182.1677992296432
 20
1328.3828427789761
 30
0.0
 11
2182.1677992296432
 21
1329.3828427789761
 31
0.0
  0
LINE
  5
7CF3
  8
1
 10
1117.442973157272
 20
2355.5125908814312
 30
0.0
 11
1117.442973157272
 21
2505.5125908814298
 31
0.0
  0
LINE
  5
7CF4
  8
1
 10
770.44297315727272
 20
2355.5125908814321
 30
0.0
 11
770.44297315727272
 21
2505.5125908814321
 31
0.0
  0
LINE
  5
7CF5
  8
1
 10
990.44297315727283
 20
2525.5125908814312
 30
0.0
 11
750.44297315727317
 21
2525.5125908814312
 31
0.0
  0
LINE
  5
7CF6
  8
1
 10
990.44297315727283
 20
2335.5125908814312
 30
0.0
 11
750.44297315727317
 21
2335.5125908814312
 31
0.0
  0
LINE
  5
7CF7
  8
1
 10
970.44297315727272
 20
2355.5125908814321
 30
0.0
 11
970.44297315727272
 21
2505.5125908814321
 31
0.0
  0
LINE
  5
7CF8
  8
1
 10
750.44297315727317
 20
2335.5125908814312
 30
0.0
 11
750.44297315727317
 21
2525.5125908814312
 31
0.0
  0
LINE
  5
7CF9
  8
1
 10
990.44297315727283
 20
2335.5125908814312
 30
0.0
 11
990.44297315727283
 21
2525.5125908814312
 31
0.0
  0
LINE
  5
7CFA
  8
1
 10
970.44297315727272
 20
2505.5125908814312
 30
0.0
 11
770.44297315727272
 21
2505.5125908814321
 31
0.0
  0
LINE
  5
7CFB
  8
1
 10
970.44297315727272
 20
2355.5125908814312
 30
0.0
 11
770.44297315727272
 21
2355.5125908814312
 31
0.0
  0
LINE
  5
7CFC
  8
1
 10
969.44297315727272
 20
2505.5125908814312
 30
0.0
 11
770.44297315727272
 21
2355.5125908814312
 31
0.0
  0
LINE
  5
7CFD
  8
1
 10
770.44297315727272
 20
2505.5125908814321
 30
0.0
 11
969.44297315727272
 21
2355.5125908814312
 31
0.0
  0
LINE
  5
7D29
  8
1
 10
561.94297315727272
 20
1028.2967488917179
 30
0.0
 11
596.94297315727272
 21
1028.2967488917179
 31
0.0
  0
LINE
  5
7D2A
  8
1
 10
557.66837559150872
 20
1028.2967488917179
 30
0.0
 11
577.11980515727282
 21
1050.4782448917181
 31
0.0
  0
LINE
  5
7D2B
  8
2
 10
552.65223215727292
 20
1108.296748891717
 30
0.0
 11
732.99885015727239
 21
1108.296748891717
 31
0.0
  0
LINE
  5
7D2C
  8
1
 10
536.94297315727215
 20
1028.2967488917179
 30
0.0
 11
741.94297315727215
 21
1028.2967488917179
 31
0.0
  0
LINE
  5
7D2D
  8
1
 10
531.94297315727272
 20
998.2967488917177
 30
0.0
 11
746.94297315727272
 21
998.29674889171793
 31
0.0
  0
ARC
  5
7D2E
  8
1
 10
639.44297315727272
 20
1108.296748891717
 30
0.0
 40
85.0
 50
0.0
 51
244.12446600000001
  0
ARC
  5
7D2F
  8
1
 10
639.44297315727272
 20
1108.296748891717
 30
0.0
 40
85.0
 50
0.0
 51
244.12446600000001
  0
LINE
  5
7D30
  8
1
 10
536.94297315727272
 20
1028.2967488917179
 30
0.0
 11
531.94297315727272
 21
998.2967488917177
 31
0.0
  0
LINE
  5
7D31
  8
1
 10
721.21748183186673
 20
1028.2967488917179
 30
0.0
 11
701.76428115727265
 21
1050.480386891717
 31
0.0
  0
ARC
  5
7D32
  8
1
 10
639.44297315727272
 20
1108.296748891717
 30
0.0
 40
85.000007999999994
 50
295.9177259999999
 51
0.0
  0
LINE
  5
7D33
  8
2
 10
639.44297315727272
 20
1204.58440043005
 30
0.0
 11
639.44297315727272
 21
953.35781682785944
 31
0.0
  0
LINE
  5
7D34
  8
1
 10
716.9429731572726
 20
1028.2967488917179
 30
0.0
 11
681.94297315727272
 21
1028.2967488917179
 31
0.0
  0
LINE
  5
7D35
  8
1
 10
602.34747415727259
 20
1031.8458208917179
 30
0.0
 11
676.59478215727256
 21
1031.8458208917179
 31
0.0
  0
LINE
  5
7D36
  8
1
 10
741.94297315727215
 20
1028.2967488917179
 30
0.0
 11
746.94297315727226
 21
998.29674889171793
 31
0.0
  0
LINE
  5
7D37
  8
1
 10
629.94297315727272
 20
2058.712590881431
 30
0.0
 11
629.94297315727272
 21
2079.7125908814301
 31
0.0
  0
LINE
  5
7D38
  8
1
 10
648.94297315727272
 20
2079.7125908814301
 30
0.0
 11
648.94297315727272
 21
2058.712590881431
 31
0.0
  0
LINE
  5
7D3A
  8
1
 10
561.44297315727272
 20
2094.7125908814292
 30
0.0
 11
561.44297315727272
 21
2312.7125908814292
 31
0.0
  0
LINE
  5
7D3B
  8
1
 10
714.24296115727293
 20
2312.7125908814292
 30
0.0
 11
714.24296115727236
 21
2094.7125908814292
 31
0.0
  0
LINE
  5
7D3C
  8
1
 10
714.24296115727293
 20
2312.7125908814292
 30
0.0
 11
561.44297315727272
 21
2312.7125908814292
 31
0.0
  0
LINE
  5
7D3D
  8
1
 10
561.44297315727272
 20
2094.7125908814292
 30
0.0
 11
714.24296115727236
 21
2094.7125908814292
 31
0.0
  0
LINE
  5
7D3E
  8
1
 10
605.94297315727272
 20
2084.7125908814301
 30
0.0
 11
672.94297315727272
 21
2084.7125908814301
 31
0.0
  0
LINE
  5
7D3F
  8
1
 10
600.75876915727304
 20
2094.7125908814292
 30
0.0
 11
609.75876915727304
 21
2094.7125908814292
 31
0.0
  0
LINE
  5
7D40
  8
1
 10
611.6930341572729
 20
2094.7125908814292
 30
0.0
 11
599.42910015727284
 21
2094.7125908814292
 31
0.0
  0
LINE
  5
7D41
  8
1
 10
609.50797615727276
 20
2094.7125908814292
 30
0.0
 11
600.8779711572729
 21
2094.7125908814292
 31
0.0
  0
LINE
  5
7D42
  8
1
 10
605.94297315727272
 20
2094.7125908814292
 30
0.0
 11
605.94297315727272
 21
2084.7125908814301
 31
0.0
  0
LINE
  5
7D43
  8
1
 10
628.94297315727272
 20
2079.7125908814301
 30
0.0
 11
649.9429731572726
 21
2079.7125908814301
 31
0.0
  0
LINE
  5
7D44
  8
1
 10
628.94297315727272
 20
2079.7125908814301
 30
0.0
 11
628.94297315727272
 21
2084.7125908814301
 31
0.0
  0
LINE
  5
7D45
  8
1
 10
649.9429731572726
 20
2079.7125908814301
 30
0.0
 11
649.9429731572726
 21
2084.7125908814301
 31
0.0
  0
LINE
  5
7D46
  8
1
 10
703.50876915727304
 20
2094.7125908814292
 30
0.0
 11
712.50876915727304
 21
2094.7125908814292
 31
0.0
  0
LINE
  5
7D47
  8
1
 10
712.25797615727288
 20
2094.7125908814292
 30
0.0
 11
703.6279711572729
 21
2094.7125908814292
 31
0.0
  0
LINE
  5
7D48
  8
1
 10
672.94297315727272
 20
2084.7125908814301
 30
0.0
 11
672.94297315727272
 21
2094.7125908814292
 31
0.0
  0
ARC
  5
7D49
  8
1
 10
708.01726815727295
 20
2093.7125908814301
 30
0.0
 40
2.0
 50
11.139040000000019
 51
29.999999999999989
  0
LINE
  5
7D4B
  8
1
 10
1966.367799229643
 20
1183.1828307789769
 30
0.0
 11
1748.367799229643
 21
1183.182830778976
 31
0.0
  0
LINE
  5
7D4C
  8
1
 10
1712.3677992296441
 20
1098.8828427789761
 30
0.0
 11
1730.8677992296441
 21
1098.8828427789761
 31
0.0
  0
LINE
  5
7D4D
  8
1
 10
1730.8677992296441
 20
1117.8828427789761
 30
0.0
 11
1712.3677992296441
 21
1117.8828427789761
 31
0.0
  0
LINE
  5
7D4E
  8
1
 10
1748.367799229643
 20
1181.8828427789761
 30
0.0
 11
1748.367799229643
 21
1183.182830778976
 31
0.0
  0
LINE
  5
7D4F
  8
1
 10
1966.367799229643
 20
1183.1828307789769
 30
0.0
 11
1966.367799229643
 21
1181.8828427789761
 31
0.0
  0
LINE
  5
7F2F
  8
4
 10
2220.0
 20
600.0
 30
0.0
 11
2220.0
 21
360.0
 31
0.0
  0
LINE
  5
7F30
  8
4
 10
1380.0
 20
600.0
 30
0.0
 11
1380.0
 21
360.0
 31
0.0
  0
LINE
  5
7F31
  8
4
 10
780.0
 20
600.0
 30
0.0
 11
780.0
 21
360.0
 31
0.0
  0
LINE
  5
7F34
  8
4
 10
780.0
 20
360.0
 30
0.0
 11
2220.0
 21
360.0
 31
0.0
  0
LINE
  5
7F35
  8
4
 10
780.0
 20
480.0
 30
0.0
 11
2220.0
 21
480.0
 31
0.0
  0
TEXT
  5
7F36
  8
4
 10
826.20249701628188
 20
517.85163103993546
 30
0.0
 40
60.0
  1
機器名称
  0
TEXT
  5
7F37
  8
4
 10
823.509727229757
 20
385.97418807841308
 30
0.0
 40
60.0
  1
機器型番
  0
TEXT
  5
7F38
  8
4
 10
1413.2144945851969
 20
507.08612274908222
 30
0.0
 40
60.0
  1
ミツヤ多翼送風機
  0
TEXT
  5
7F39
  8
4
 10
1423.9853947025761
 20
380.59150113593199
 30
0.0
 40
60.0
  1
MF#1 1/4-1
  0
TEXT
  5
7F3B
  8
4
 10
882.89980462670428
 20
2860.1146095990189
 30
0.0
 40
64.799999999999997
  1
床置防振ベット
  0
TEXT
  5
7F3C
  8
4
 10
379.40111199533561
 20
3040.6571714391571
 30
0.0
 40
86.400000000000006
  1
遠心式片吸込片持多翼ファン
  0
LINE
  5
7F3D
  8
4
 10
300.0
 20
2963.2905051177659
 30
0.0
 11
2220.0
 21
2963.2905051177659
 31
0.0
  0
LINE
  5
7F3E
  8
4
 10
300.0
 20
3203.290505117765
 30
0.0
 11
2220.0
 21
3203.290505117765
 31
0.0
  0
LINE
  5
7F3F
  8
4
 10
780.0
 20
600.0
 30
0.0
 11
2220.0
 21
600.0
 31
0.0
  0
LINE
  5
7F40
  8
4
 10
300.0
 20
3203.290505117765
 30
0.0
 11
300.0
 21
2963.2905051177659
 31
0.0
  0
TEXT
  5
7F41
  8
4
 10
359.86920593546159
 20
2858.7833730556122
 30
0.0
 40
64.799999999999997
  1
右回転上向
  0
TEXT
  5
7F42
  8
4
 10
1762.763471099147
 20
3247.2732977943701
 30
0.0
 40
67.200000000000003
  1
No.
  0
TEXT
  5
7F43
  8
4
 10
1573.555275120015
 20
2860.1146095990189
 30
0.0
 40
64.799999999999997
  1
縮尺：1/12
  0
LINE
  5
7F44
  8
4
 10
2220.0
 20
3203.290505117765
 30
0.0
 11
2220.0
 21
2963.2905051177659
 31
0.0
  0
LINE
  5
7F45
  8
4
 10
2520.0
 20
3540.0
 30
0.0
 11
2520.0
 21
3540.0
 31
0.0
  0
LINE
  5
7F46
  8
4
 10
1728.740906831837
 20
3217.5162997504808
 30
0.0
 11
1728.740906831837
 21
3343.9827138597029
 31
0.0
  0
LINE
  5
7F47
  8
4
 10
1728.740906831837
 20
3343.9827138597029
 30
0.0
 11
2220.0
 21
3343.9827138597029
 31
0.0
  0
LINE
  5
7F48
  8
4
 10
2220.0
 20
3343.9827138597029
 30
0.0
 11
2220.0
 21
3217.5162997504808
 31
0.0
  0
LINE
  5
7F49
  8
4
 10
2220.0
 20
3217.5162997504808
 30
0.0
 11
1728.740906831837
 21
3217.5162997504808
 31
0.0
  0
LINE
  5
7F4A
  8
4
 10
0.0
 20
0.0
 30
0.0
 11
0.0
 21
3540.0
 31
0.0
  0
LINE
  5
7F4B
  8
4
 10
0.0
 20
3540.0
 30
0.0
 11
2520.0
 21
3540.0
 31
0.0
  0
LINE
  5
7F4C
  8
4
 10
2520.0
 20
3540.0
 30
0.0
 11
2520.0
 21
0.0
 31
0.0
  0
LINE
  5
7F4D
  8
4
 10
2520.0
 20
0.0
 30
0.0
 11
0.0
 21
0.0
 31
0.0
  0
CIRCLE
  5
817A
  8
1
 10
969.44297315727295
 20
1218.2967488917179
 30
0.0
 40
50.0
  0
CIRCLE
  5
817B
  8
1
 10
639.44297315727272
 20
1108.296748891717
 30
0.0
 40
50.0
  0
LINE
  5
817C
  8
1
 10
953.631584856431
 20
1265.730913794243
 30
0.0
 11
623.63158485643066
 21
1155.730913794243
 31
0.0
  0
LINE
  5
817D
  8
1
 10
985.25436145811489
 20
1170.862583989192
 30
0.0
 11
655.25436145811454
 21
1060.862583989192
 31
0.0
  0
LINE
  5
8183
  8
1
 10
1674.367799229643
 20
1168.3828427789761
 30
0.0
 11
1712.3677992296441
 21
1168.3828427789761
 31
0.0
  0
LINE
  5
8184
  8
1
 10
1674.367799229643
 20
1158.382842778977
 30
0.0
 11
1712.3677992296441
 21
1158.382842778977
 31
0.0
  0
LINE
  5
8185
  8
1
 10
1674.3677992296421
 20
1058.3828427789761
 30
0.0
 11
1712.3677992296441
 21
1058.3828427789761
 31
0.0
  0
LINE
  5
8186
  8
1
 10
1674.3677992296441
 20
1268.3828427789761
 30
0.0
 11
1712.3677992296441
 21
1268.3828427789761
 31
0.0
  0
LINE
  5
8187
  8
1
 10
689.44297315727272
 20
2058.712590881431
 30
0.0
 11
689.44297315727272
 21
2020.7125908814289
 31
0.0
  0
LINE
  5
8188
  8
1
 10
589.44297315727272
 20
2058.7125908814319
 30
0.0
 11
589.44297315727272
 21
2020.712590881428
 31
0.0
  0
LINE
  5
8189
  8
1
 10
1019.442973157272
 20
2020.712590881431
 30
0.0
 11
1019.442973157272
 21
2058.712590881431
 31
0.0
  0
LINE
  5
818A
  8
1
 10
919.44297315727272
 20
2020.7125908814301
 30
0.0
 11
919.44297315727295
 21
2058.712590881431
 31
0.0
  0
LINE
  5
818F
  8
1
 10
1726.1677992296429
 20
1027.5363635934871
 30
0.0
 11
1726.1677992296429
 21
998.38284277897696
 31
0.0
  0
LINE
  5
821F
  8
1
 10
750.44297315727295
 20
2350.5125908814312
 30
0.0
 11
564.44297315727306
 21
2350.5125908814312
 31
0.0
  0
LINE
  5
8222
  8
1
 10
750.44297315727295
 20
2390.5125908814312
 30
0.0
 11
524.44297315727306
 21
2390.5125908814312
 31
0.0
  0
DIMENSION
  5
826B
  8
3
  2
*D14
 10
969.44297315727295
 20
804.12854170054652
 30
0.0
 11
746.94297315727295
 21
834.12854170054652
 31
0.0
 70
     0
 13
524.44297315727295
 23
896.29674889171793
 33
0.0
 14
969.44297315727295
 24
896.29674889171815
 34
0.0
1001
ACAD
1000
DSTYLE
1002
{
1070
   287
1070
     3
1070
    40
1040
12.0
1070
   143
1040
0.039
1070
   172
1070
     1
1070
   271
1070
     0
1070
   279
1070
     0
1002
}
  0
DIMENSION
  5
8278
  8
3
  2
*D15
 10
1144.442973157272
 20
804.12854170054652
 30
0.0
 11
1056.942973157272
 21
834.12854170054652
 31
0.0
 70
     0
 13
969.44297315727295
 23
896.29674889171815
 33
0.0
 14
1144.442973157272
 24
896.29674889171793
 34
0.0
1001
ACAD
1000
DSTYLE
1002
{
1070
   287
1070
     3
1070
    40
1040
12.0
1070
   143
1040
0.039
1070
   172
1070
     1
1070
   271
1070
     0
1070
   279
1070
     0
1002
}
  0
DIMENSION
  5
8285
  8
3
  2
*D16
 10
2044.1677992296441
 20
804.12854170054652
 30
0.0
 11
1854.1677992296441
 21
834.12854170054652
 31
0.0
 70
     0
 13
1664.1677992296441
 23
896.38284277897685
 33
0.0
 14
2044.1677992296441
 24
896.38284277897719
 34
0.0
1001
ACAD
1000
DSTYLE
1002
{
1070
   287
1070
     3
1070
    40
1040
12.0
1070
   143
1040
0.039
1070
   172
1070
     1
1070
   271
1070
     0
1070
   279
1070
     0
1002
}
  0
DIMENSION
  5
8294
  8
3
  2
*D17
 10
2084.1677992296441
 20
804.12854170054652
 30
0.0
 11
2173.3106563725009
 21
834.12854170054652
 31
0.0
 70
     0
 13
2044.1677992296441
 23
896.38284277897719
 33
0.0
 14
2084.1677992296441
 24
896.38284277897708
 34
0.0
1001
ACAD
1000
DSTYLE
1002
{
1070
   287
1070
     3
1070
    40
1040
12.0
1070
   143
1040
0.039
1070
   172
1070
     1
1070
   271
1070
     0
1070
   279
1070
     0
1002
}
  0
LINE
  5
82A6
  8
1
 10
1664.1677992296441
 20
896.38284277897685
 30
0.0
 11
2044.1677992296441
 21
896.38284277897719
 31
0.0
  0
LINE
  5
82A7
  8
1
 10
1664.1677992296441
 20
936.38284277897685
 30
0.0
 11
2044.1677992296441
 21
936.38284277897708
 31
0.0
  0
LINE
  5
82A8
  8
1
 10
2044.1677992296441
 20
896.38284277897719
 30
0.0
 11
2044.167799229645
 21
936.38284277897708
 31
0.0
  0
LINE
  5
82A9
  8
1
 10
1664.1677992296441
 20
896.38284277897685
 30
0.0
 11
1664.1677992296441
 21
936.38284277897674
 31
0.0
  0
LINE
  5
82AA
  8
1
 10
524.44297315727295
 20
936.29674889171793
 30
0.0
 11
1144.442973157272
 21
936.29674889171736
 31
0.0
  0
LINE
  5
82AB
  8
1
 10
1144.442973157272
 20
936.29674889171736
 30
0.0
 11
1144.442973157272
 21
896.29674889171736
 31
0.0
  0
LINE
  5
82AC
  8
1
 10
1144.442973157272
 20
896.29674889171793
 30
0.0
 11
524.44297315727295
 21
896.29674889171793
 31
0.0
  0
LINE
  5
82AD
  8
1
 10
524.44297315727295
 20
936.29674889171793
 30
0.0
 11
524.44297315727295
 21
896.29674889171793
 31
0.0
  0
DIMENSION
  5
82BD
  8
3
  2
*D18
 10
1249.2358687881219
 20
896.29674889171793
 30
0.0
 11
1219.2358687881219
 21
807.15389174886093
 31
0.0
 70
     0
 13
1144.442973157272
 23
936.29674889171736
 33
0.0
 14
1144.442973157272
 24
896.29674889171793
 34
0.0
 50
90.0
1001
ACAD
1000
DSTYLE
1002
{
1070
   287
1070
     3
1070
    40
1040
12.0
1070
   143
1040
0.039
1070
   172
1070
     1
1070
   271
1070
     0
1070
   279
1070
     0
1070
     6
1000
DOT
1002
}
  0
DIMENSION
  5
82CC
  8
3
  2
*D19
 10
1249.2358687881219
 20
958.29674889171781
 30
0.0
 11
1306.664440216693
 21
947.2967488917177
 31
0.0
 70
     0
 13
1144.442973157272
 23
936.29674889171736
 33
0.0
 14
1144.442973157272
 24
958.29674889171781
 34
0.0
 50
90.0
1001
ACAD
1000
DSTYLE
1002
{
1070
   172
1070
     1
1070
    40
1040
12.0
1070
     3
1000
(<>)
1070
   271
1070
     0
1070
     6
1000
_DOT
1070
   143
1040
0.039
1002
}
  0
DIMENSION
  5
82D9
  8
3
  2
*D20
 10
1360.4656715864689
 20
896.29674889171793
 30
0.0
 11
1321.0371001578981
 21
1149.7967488917179
 31
0.0
 70
     0
 13
992.44297315727272
 23
1403.2967488917179
 33
0.0
 14
1144.442973157272
 24
896.29674889171793
 34
0.0
 50
90.0
1001
ACAD
1000
DSTYLE
1002
{
1070
   172
1070
     1
1070
    40
1040
12.0
1070
     3
1000
(<>)
1070
   271
1070
     0
1070
   143
1040
0.039
1002
}
  0
ENDSEC
  0
EOF
