  0
SECTION
  2
HEADER
  9
$ACADVER
  1
AC1015
  9
$ACADMAINTVER
 70
     6
  9
$DWGCODEPAGE
  3
ANSI_932
  9
$INSBASE
 10
0.0
 20
0.0
 30
0.0
  9
$EXTMIN
 10
0.0
 20
0.0
 30
0.0
  9
$EXTMAX
 10
2520.0
 20
3540.0
 30
0.0
  9
$LIMMIN
 10
0.0
 20
0.0
  9
$LIMMAX
 10
297.0
 20
210.0
  9
$ORTHOMODE
 70
     0
  9
$REGENMODE
 70
     1
  9
$FILLMODE
 70
     0
  9
$QTEXTMODE
 70
     0
  9
$MIRRTEXT
 70
     1
  9
$LTSCALE
 40
100.0
  9
$ATTMODE
 70
     1
  9
$TEXTSIZE
 40
180.0
  9
$TRACEWID
 40
0.05
  9
$TEXTSTYLE
  7
STANDARD
  9
$CLAYER
  8
3
  9
$CELTYPE
  6
BYLAYER
  9
$CECOLOR
 62
   256
  9
$CELTSCALE
 40
1.0
  9
$DISPSILH
 70
     0
  9
$DIMSCALE
 40
12.0
  9
$DIMASZ
 40
2.0
  9
$DIMEXO
 40
0.5
  9
$DIMDLI
 40
10.0
  9
$DIMRND
 40
0.0
  9
$DIMDLE
 40
0.0
  9
$DIMEXE
 40
1.0
  9
$DIMTP
 40
1.0
  9
$DIMTM
 40
1.0
  9
$DIMTXT
 40
3.0
  9
$DIMCEN
 40
0.0
  9
$DIMTSZ
 40
0.0
  9
$DIMTOL
 70
     0
  9
$DIMLIM
 70
     0
  9
$DIMTIH
 70
     0
  9
$DIMTOH
 70
     0
  9
$DIMSE1
 70
     0
  9
$DIMSE2
 70
     0
  9
$DIMTAD
 70
     1
  9
$DIMZIN
 70
     8
  9
$DIMBLK
  1

  9
$DIMASO
 70
     1
  9
$DIMSHO
 70
     1
  9
$DIMPOST
  1
(<>)
  9
$DIMAPOST
  1

  9
$DIMALT
 70
     0
  9
$DIMALTD
 70
     2
  9
$DIMALTF
 40
0.039
  9
$DIMLFAC
 40
1.0
  9
$DIMTOFL
 70
     1
  9
$DIMTVP
 40
0.0
  9
$DIMTIX
 70
     0
  9
$DIMSOXD
 70
     0
  9
$DIMSAH
 70
     1
  9
$DIMBLK1
  1
OPEN
  9
$DIMBLK2
  1
OPEN
  9
$DIMSTYLE
  2
IGA
  9
$DIMCLRD
 70
     0
  9
$DIMCLRE
 70
     0
  9
$DIMCLRT
 70
     0
  9
$DIMTFAC
 40
10.0
  9
$DIMGAP
 40
1.0
  9
$DIMJUST
 70
     0
  9
$DIMSD1
 70
     0
  9
$DIMSD2
 70
     0
  9
$DIMTOLJ
 70
     1
  9
$DIMTZIN
 70
     8
  9
$DIMALTZ
 70
     0
  9
$DIMALTTZ
 70
     0
  9
$DIMUPT
 70
     0
  9
$DIMDEC
 70
     0
  9
$DIMTDEC
 70
     0
  9
$DIMALTU
 70
     2
  9
$DIMALTTD
 70
     2
  9
$DIMTXSTY
  7
STANDARD
  9
$DIMAUNIT
 70
     0
  9
$DIMADEC
 70
     0
  9
$DIMALTRND
 40
0.0
  9
$DIMAZIN
 70
     0
  9
$DIMDSEP
 70
    46
  9
$DIMATFIT
 70
     3
  9
$DIMFRAC
 70
     0
  9
$DIMLDRBLK
  1
OPEN
  9
$DIMLUNIT
 70
     2
  9
$DIMLWD
 70
    -2
  9
$DIMLWE
 70
    -2
  9
$DIMTMOVE
 70
     2
  9
$LUNITS
 70
     2
  9
$LUPREC
 70
     3
  9
$SKETCHINC
 40
0.1
  9
$FILLETRAD
 40
50.0
  9
$AUNITS
 70
     0
  9
$AUPREC
 70
     0
  9
$MENU
  1
acad
  9
$ELEVATION
 40
0.0
  9
$PELEVATION
 40
0.0
  9
$THICKNESS
 40
0.0
  9
$LIMCHECK
 70
     0
  9
$CHAMFERA
 40
0.5
  9
$CHAMFERB
 40
0.5
  9
$CHAMFERC
 40
20.0
  9
$CHAMFERD
 40
0.0
  9
$SKPOLY
 70
     0
  9
$TDCREATE
 40
2451935.658972337
  9
$TDUCREATE
 40
2451935.283972337
  9
$TDUPDATE
 40
2456463.494734166
  9
$TDUUPDATE
 40
2456463.119734166
  9
$TDINDWG
 40
0.0445274653
  9
$TDUSRTIMER
 40
0.0445274653
  9
$USRTIMER
 70
     1
  9
$ANGBASE
 50
0.0
  9
$ANGDIR
 70
     0
  9
$PDMODE
 70
     0
  9
$PDSIZE
 40
0.0
  9
$PLINEWID
 40
0.0
  9
$SPLFRAME
 70
     0
  9
$SPLINETYPE
 70
     6
  9
$SPLINESEGS
 70
     8
  9
$HANDSEED
  5
8672
  9
$SURFTAB1
 70
     6
  9
$SURFTAB2
 70
     6
  9
$SURFTYPE
 70
     6
  9
$SURFU
 70
     6
  9
$SURFV
 70
     6
  9
$UCSBASE
  2

  9
$UCSNAME
  2

  9
$UCSORG
 10
0.0
 20
0.0
 30
0.0
  9
$UCSXDIR
 10
1.0
 20
0.0
 30
0.0
  9
$UCSYDIR
 10
0.0
 20
1.0
 30
0.0
  9
$UCSORTHOREF
  2

  9
$UCSORTHOVIEW
 70
     0
  9
$UCSORGTOP
 10
0.0
 20
0.0
 30
0.0
  9
$UCSORGBOTTOM
 10
0.0
 20
0.0
 30
0.0
  9
$UCSORGLEFT
 10
0.0
 20
0.0
 30
0.0
  9
$UCSORGRIGHT
 10
0.0
 20
0.0
 30
0.0
  9
$UCSORGFRONT
 10
0.0
 20
0.0
 30
0.0
  9
$UCSORGBACK
 10
0.0
 20
0.0
 30
0.0
  9
$PUCSBASE
  2

  9
$PUCSNAME
  2

  9
$PUCSORG
 10
0.0
 20
0.0
 30
0.0
  9
$PUCSXDIR
 10
1.0
 20
0.0
 30
0.0
  9
$PUCSYDIR
 10
0.0
 20
1.0
 30
0.0
  9
$PUCSORTHOREF
  2

  9
$PUCSORTHOVIEW
 70
     0
  9
$PUCSORGTOP
 10
0.0
 20
0.0
 30
0.0
  9
$PUCSORGBOTTOM
 10
0.0
 20
0.0
 30
0.0
  9
$PUCSORGLEFT
 10
0.0
 20
0.0
 30
0.0
  9
$PUCSORGRIGHT
 10
0.0
 20
0.0
 30
0.0
  9
$PUCSORGFRONT
 10
0.0
 20
0.0
 30
0.0
  9
$PUCSORGBACK
 10
0.0
 20
0.0
 30
0.0
  9
$USERI1
 70
     0
  9
$USERI2
 70
     0
  9
$USERI3
 70
     0
  9
$USERI4
 70
     0
  9
$USERI5
 70
     0
  9
$USERR1
 40
0.0
  9
$USERR2
 40
0.0
  9
$USERR3
 40
0.0
  9
$USERR4
 40
0.0
  9
$USERR5
 40
0.0
  9
$WORLDVIEW
 70
     1
  9
$SHADEDGE
 70
     3
  9
$SHADEDIF
 70
    70
  9
$TILEMODE
 70
     1
  9
$MAXACTVP
 70
    16
  9
$PINSBASE
 10
0.0
 20
0.0
 30
0.0
  9
$PLIMCHECK
 70
     0
  9
$PEXTMIN
 10
1.000000000000000E+20
 20
1.000000000000000E+20
 30
1.000000000000000E+20
  9
$PEXTMAX
 10
-1.000000000000000E+20
 20
-1.000000000000000E+20
 30
-1.000000000000000E+20
  9
$PLIMMIN
 10
0.0
 20
0.0
  9
$PLIMMAX
 10
12.0
 20
9.0
  9
$UNITMODE
 70
     0
  9
$VISRETAIN
 70
     0
  9
$PLINEGEN
 70
     0
  9
$PSLTSCALE
 70
     1
  9
$TREEDEPTH
 70
  3020
  9
$CMLSTYLE
  2
STANDARD
  9
$CMLJUST
 70
     0
  9
$CMLSCALE
 40
20.0
  9
$PROXYGRAPHICS
 70
     1
  9
$MEASUREMENT
 70
     1
  9
$CELWEIGHT
370
    -1
  9
$ENDCAPS
280
     0
  9
$JOINSTYLE
280
     0
  9
$LWDISPLAY
290
     0
  9
$INSUNITS
 70
     0
  9
$HYPERLINKBASE
  1

  9
$STYLESHEET
  1

  9
$XEDIT
290
     1
  9
$CEPSNTYPE
380
     0
  9
$PSTYLEMODE
290
     1
  9
$FINGERPRINTGUID
  2
{B9131E3D-0862-4681-B06B-079B3799ABBC}
  9
$VERSIONGUID
  2
{91336A93-F21A-4EA6-A726-9E7E758C8669}
  9
$EXTNAMES
290
     1
  9
$PSVPSCALE
 40
0.0
  9
$OLESTARTUP
290
     0
  0
ENDSEC
  0
SECTION
  2
CLASSES
  0
CLASS
  1
ACDBDICTIONARYWDFLT
  2
AcDbDictionaryWithDefault
  3
AutoCAD 2000
 90
        0
280
     0
281
     0
  0
CLASS
  1
ACDBPLACEHOLDER
  2
AcDbPlaceHolder
  3
AutoCAD 2000
 90
        0
280
     0
281
     0
  0
CLASS
  1
LAYOUT
  2
AcDbLayout
  3
AutoCAD 2000
 90
        0
280
     0
281
     0
  0
ENDSEC
  0
SECTION
  2
TABLES
  0
TABLE
  2
VPORT
  5
8
330
0
100
AcDbSymbolTable
 70
     2
  0
VPORT
  5
8671
330
8
100
AcDbSymbolTableRecord
100
AcDbViewportTableRecord
  2
*Active
 70
     0
 10
0.0
 20
0.0
 11
1.0
 21
1.0
 12
1699.324272752787
 22
1770.000008242205
 13
0.0
 23
0.0
 14
10.0
 24
10.0
 15
10.0
 25
10.0
 16
0.0
 26
0.0
 36
1.0
 17
0.0
 27
0.0
 37
0.0
 40
3567.137859620322
 41
1.73997233748271
 42
50.0
 43
0.0
 44
0.0
 50
0.0
 51
0.0
 71
     0
 72
   100
 73
     1
 74
     0
 75
     0
 76
     0
 77
     0
 78
     0
281
     0
 65
     1
110
0.0
120
0.0
130
0.0
111
1.0
121
0.0
131
0.0
112
0.0
122
1.0
132
0.0
 79
     0
146
0.0
  0
ENDTAB
  0
TABLE
  2
LTYPE
  5
5
330
0
100
AcDbSymbolTable
 70
     2
  0
LTYPE
  5
13
330
5
100
AcDbSymbolTableRecord
100
AcDbLinetypeTableRecord
  2
BYBLOCK
 70
     0
  3

 72
    65
 73
     0
 40
0.0
  0
LTYPE
  5
14
330
5
100
AcDbSymbolTableRecord
100
AcDbLinetypeTableRecord
  2
BYLAYER
 70
     0
  3

 72
    65
 73
     0
 40
0.0
  0
LTYPE
  5
15
330
5
100
AcDbSymbolTableRecord
100
AcDbLinetypeTableRecord
  2
CONTINUOUS
 70
     0
  3
Solid line
 72
    65
 73
     0
 40
0.0
  0
LTYPE
  5
1F
330
5
100
AcDbSymbolTableRecord
100
AcDbLinetypeTableRecord
  2
CENTER
 70
     0
  3
____ _ ____ _ ____ _ ____ _ ____ _ ____ _ ____ 
 72
    65
 73
     4
 40
2.0
 49
1.25
 74
     0
 49
-0.25
 74
     0
 49
0.25
 74
     0
 49
-0.25
 74
     0
  0
ENDTAB
  0
TABLE
  2
LAYER
  5
2
330
0
100
AcDbSymbolTable
 70
     6
  0
LAYER
  5
F
330
2
100
AcDbSymbolTableRecord
100
AcDbLayerTableRecord
  2
0
 70
     0
 62
     7
  6
CONTINUOUS
370
    -3
390
865A
  0
LAYER
  5
31
330
2
100
AcDbSymbolTableRecord
100
AcDbLayerTableRecord
  2
3
 70
     0
 62
     2
  6
CONTINUOUS
370
    -3
390
865A
  0
LAYER
  5
76D0
330
2
100
AcDbSymbolTableRecord
100
AcDbLayerTableRecord
  2
2
 70
     0
 62
     3
  6
CENTER
370
    -3
390
865A
  0
LAYER
  5
76D1
330
2
100
AcDbSymbolTableRecord
100
AcDbLayerTableRecord
  2
1
 70
     0
 62
     4
  6
CONTINUOUS
370
    -3
390
865A
  0
LAYER
  5
76D2
330
2
100
AcDbSymbolTableRecord
100
AcDbLayerTableRecord
  2
4
 70
     0
 62
     7
  6
CONTINUOUS
370
    -3
390
865A
  0
LAYER
  5
7B0C
330
2
100
AcDbSymbolTableRecord
100
AcDbLayerTableRecord
  2
DEFPOINTS
 70
     0
 62
     7
  6
CONTINUOUS
290
     0
370
    -3
390
865A
  0
ENDTAB
  0
TABLE
  2
STYLE
  5
3
330
0
100
AcDbSymbolTable
 70
     1
  0
STYLE
  5
10
330
3
100
AcDbSymbolTableRecord
100
AcDbTextStyleTableRecord
  2
STANDARD
 70
     0
 40
0.0
 41
1.0
 50
0.0
 71
     0
 42
180.0
  3
simplex.shx
  4
extfont.shx
  0
ENDTAB
  0
TABLE
  2
VIEW
  5
6
330
0
100
AcDbSymbolTable
 70
     0
  0
ENDTAB
  0
TABLE
  2
UCS
  5
7
330
0
100
AcDbSymbolTable
 70
     0
  0
ENDTAB
  0
TABLE
  2
APPID
  5
9
330
0
100
AcDbSymbolTable
 70
     1
  0
APPID
  5
11
330
9
100
AcDbSymbolTableRecord
100
AcDbRegAppTableRecord
  2
ACAD
 70
     0
  0
ENDTAB
  0
TABLE
  2
DIMSTYLE
  5
A
330
0
100
AcDbSymbolTable
 70
     1
100
AcDbDimStyleTable
 71
     0
  0
DIMSTYLE
105
1D
102
{ACAD_REACTORS
330
7CA1
330
7CA2
330
7CA5
330
7CA8
330
7CB8
330
7CBA
330
7CDC
330
7CDD
330
7CDE
330
7CDF
330
858C
330
8599
330
85E7
330
85F4
330
8601
330
8610
330
863A
330
8649
330
8656
102
}
330
A
100
AcDbSymbolTableRecord
100
AcDbDimStyleTableRecord
  2
IGA
 70
     0
 40
2.0
 41
2.0
 42
0.5
 43
10.0
 44
1.0
 47
1.0
 48
1.0
 73
     0
 74
     0
 77
     1
 78
     8
140
3.0
141
0.0
143
0.03937
146
10.0
147
1.0
173
     1
271
     1
272
     0
279
     2
284
     8
340
10
341
79FC
343
79FC
344
79FC
  0
ENDTAB
  0
TABLE
  2
BLOCK_RECORD
  5
1
330
0
100
AcDbSymbolTable
 70
    21
  0
BLOCK_RECORD
  5
19
330
1
100
AcDbSymbolTableRecord
100
AcDbBlockTableRecord
  2
*MODEL_SPACE
340
865D
  0
BLOCK_RECORD
  5
16
330
1
100
AcDbSymbolTableRecord
100
AcDbBlockTableRecord
  2
*PAPER_SPACE
340
865E
  0
BLOCK_RECORD
  5
79FC
330
1
100
AcDbSymbolTableRecord
100
AcDbBlockTableRecord
  2
_OPEN
340
0
102
{BLKREFS
331
8330
331
8331
331
849F
331
84A0
331
84C2
331
84C3
331
826D
331
826E
331
8257
331
8258
331
8262
331
8263
331
848A
331
848B
331
8473
331
8474
331
845D
331
845E
331
8446
331
8447
331
8585
331
8586
331
8592
331
8593
331
85E0
331
85E1
331
85ED
331
85EE
331
85FA
331
85FB
331
8609
331
860A
331
8634
331
8644
331
864F
331
8650
102
}
  0
BLOCK_RECORD
  5
7A02
330
1
100
AcDbSymbolTableRecord
100
AcDbBlockTableRecord
  2
_DOT
340
0
102
{BLKREFS
331
8633
331
8643
102
}
  0
BLOCK_RECORD
  5
7D67
330
1
100
AcDbSymbolTableRecord
100
AcDbBlockTableRecord
  2
*D2
340
0
  0
BLOCK_RECORD
  5
7D73
330
1
100
AcDbSymbolTableRecord
100
AcDbBlockTableRecord
  2
*D3
340
0
  0
BLOCK_RECORD
  5
7D7F
330
1
100
AcDbSymbolTableRecord
100
AcDbBlockTableRecord
  2
*D4
340
0
  0
BLOCK_RECORD
  5
7DA5
330
1
100
AcDbSymbolTableRecord
100
AcDbBlockTableRecord
  2
*D5
340
0
  0
BLOCK_RECORD
  5
7DB1
330
1
100
AcDbSymbolTableRecord
100
AcDbBlockTableRecord
  2
*D6
340
0
  0
BLOCK_RECORD
  5
7DBD
330
1
100
AcDbSymbolTableRecord
100
AcDbBlockTableRecord
  2
*D7
340
0
  0
BLOCK_RECORD
  5
7DC8
330
1
100
AcDbSymbolTableRecord
100
AcDbBlockTableRecord
  2
*D8
340
0
  0
BLOCK_RECORD
  5
7DD6
330
1
100
AcDbSymbolTableRecord
100
AcDbBlockTableRecord
  2
*D9
340
0
  0
BLOCK_RECORD
  5
7DE1
330
1
100
AcDbSymbolTableRecord
100
AcDbBlockTableRecord
  2
*D10
340
0
  0
BLOCK_RECORD
  5
7DED
330
1
100
AcDbSymbolTableRecord
100
AcDbBlockTableRecord
  2
*D11
340
0
  0
BLOCK_RECORD
  5
8580
330
1
100
AcDbSymbolTableRecord
100
AcDbBlockTableRecord
  2
*D12
340
0
  0
BLOCK_RECORD
  5
858D
330
1
100
AcDbSymbolTableRecord
100
AcDbBlockTableRecord
  2
*D13
340
0
  0
BLOCK_RECORD
  5
85DB
330
1
100
AcDbSymbolTableRecord
100
AcDbBlockTableRecord
  2
*D14
340
0
  0
BLOCK_RECORD
  5
85E8
330
1
100
AcDbSymbolTableRecord
100
AcDbBlockTableRecord
  2
*D15
340
0
  0
BLOCK_RECORD
  5
85F5
330
1
100
AcDbSymbolTableRecord
100
AcDbBlockTableRecord
  2
*D16
340
0
  0
BLOCK_RECORD
  5
8602
330
1
100
AcDbSymbolTableRecord
100
AcDbBlockTableRecord
  2
*D17
340
0
  0
BLOCK_RECORD
  5
862C
330
1
100
AcDbSymbolTableRecord
100
AcDbBlockTableRecord
  2
*D18
340
0
  0
BLOCK_RECORD
  5
863B
330
1
100
AcDbSymbolTableRecord
100
AcDbBlockTableRecord
  2
*D19
340
0
  0
BLOCK_RECORD
  5
864A
330
1
100
AcDbSymbolTableRecord
100
AcDbBlockTableRecord
  2
*D20
340
0
  0
ENDTAB
  0
ENDSEC
  0
SECTION
  2
BLOCKS
  0
BLOCK
  5
1A
330
19
100
AcDbEntity
  8
0
100
AcDbBlockBegin
  2
*MODEL_SPACE
 70
     0
 10
0.0
 20
0.0
 30
0.0
  3
*MODEL_SPACE
  1

  0
ENDBLK
  5
1B
330
19
100
AcDbEntity
  8
0
100
AcDbBlockEnd
  0
BLOCK
  5
17
330
16
100
AcDbEntity
 67
     1
  8
0
100
AcDbBlockBegin
  2
*PAPER_SPACE
 70
     0
 10
0.0
 20
0.0
 30
0.0
  3
*PAPER_SPACE
  1

  0
ENDBLK
  5
18
330
16
100
AcDbEntity
 67
     1
  8
0
100
AcDbBlockEnd
  0
BLOCK
  5
7A00
330
79FC
100
AcDbEntity
  8
0
100
AcDbBlockBegin
  2
_OPEN
 70
     0
 10
0.0
 20
0.0
 30
0.0
  3
_OPEN
  1

  0
LINE
  5
79FD
330
79FC
100
AcDbEntity
  8
0
  6
ByBlock
 62
     0
100
AcDbLine
 10
-1.0
 20
0.1666666666666666
 30
0.0
 11
0.0
 21
0.0
 31
0.0
  0
LINE
  5
79FE
330
79FC
100
AcDbEntity
  8
0
  6
ByBlock
 62
     0
100
AcDbLine
 10
0.0
 20
0.0
 30
0.0
 11
-1.0
 21
-0.1666666666666666
 31
0.0
  0
LINE
  5
79FF
330
79FC
100
AcDbEntity
  8
0
  6
ByBlock
 62
     0
100
AcDbLine
 10
0.0
 20
0.0
 30
0.0
 11
-1.0
 21
0.0
 31
0.0
  0
ENDBLK
  5
7A01
330
79FC
100
AcDbEntity
  8
0
100
AcDbBlockEnd
  0
BLOCK
  5
7A08
330
7A02
100
AcDbEntity
  8
0
100
AcDbBlockBegin
  2
_DOT
 70
     0
 10
0.0
 20
0.0
 30
0.0
  3
_DOT
  1

  0
LINE
  5
8221
330
7A02
100
AcDbEntity
  8
0
  6
ByBlock
 62
     0
100
AcDbLine
 10
0.0
 20
0.0
 30
0.0
 11
-1.0
 21
-0.0000000000000284
 31
0.0
  0
LWPOLYLINE
  5
8222
330
7A02
100
AcDbEntity
  8
0
  6
ByBlock
 62
     0
100
AcDbPolyline
 90
        2
 70
     1
 43
0.1666666666666666
 10
-0.0833333333333286
 20
-0.0000000000000284
 42
1.0
 10
0.0833333333333286
 20
-0.0000000000000284
 42
1.0
  0
ENDBLK
  5
7A09
330
7A02
100
AcDbEntity
  8
0
100
AcDbBlockEnd
  0
BLOCK
  5
832C
330
7D67
100
AcDbEntity
  8
0
100
AcDbBlockBegin
  2
*D2
 70
     1
 10
0.0
 20
0.0
 30
0.0
  3
*D2
  1

  0
LINE
  5
832D
330
7D67
100
AcDbEntity
  8
0
  6
ByBlock
 62
     0
100
AcDbLine
 10
1062.518714674858
 20
1175.363560458474
 30
0.0
 11
1130.635823225584
 21
1175.363560458474
 31
0.0
  0
LINE
  5
832E
330
7D67
100
AcDbEntity
  8
0
  6
ByBlock
 62
     0
100
AcDbLine
 10
1062.518714674858
 20
1375.363560458474
 30
0.0
 11
1130.635823225584
 21
1375.363560458474
 31
0.0
  0
LINE
  5
832F
330
7D67
100
AcDbEntity
  8
0
  6
ByBlock
 62
     0
100
AcDbLine
 10
1118.635823225584
 20
1199.363560458474
 30
0.0
 11
1118.635823225584
 21
1351.363560458474
 31
0.0
  0
INSERT
  5
8330
330
7D67
100
AcDbEntity
  8
0
  6
ByBlock
 62
     0
100
AcDbBlockReference
  2
_OPEN
 10
1118.635823225584
 20
1175.363560458474
 30
0.0
 41
24.0
 42
24.0
 43
24.0
 50
270.0
  0
INSERT
  5
8331
330
7D67
100
AcDbEntity
  8
0
  6
ByBlock
 62
     0
100
AcDbBlockReference
  2
_OPEN
 10
1118.635823225584
 20
1375.363560458474
 30
0.0
 41
24.0
 42
24.0
 43
24.0
 50
90.0
  0
MTEXT
  5
8332
330
7D67
100
AcDbEntity
  8
0
  6
ByBlock
 62
     0
100
AcDbMText
 10
1088.635823225584
 20
1275.363560458474
 30
0.0
 40
36.0
 41
0.0
 71
     5
 72
     5
  1
\A1;200
 11
0.0
 21
1.0
 31
0.0
 73
     1
 44
1.0
  0
POINT
  5
8333
330
7D67
100
AcDbEntity
  8
DEFPOINTS
  6
ByBlock
 62
     0
100
AcDbPoint
 10
1056.518714674858
 20
1175.363560458474
 30
0.0
  0
POINT
  5
8334
330
7D67
100
AcDbEntity
  8
DEFPOINTS
  6
ByBlock
 62
     0
100
AcDbPoint
 10
1056.518714674858
 20
1375.363560458474
 30
0.0
  0
POINT
  5
8335
330
7D67
100
AcDbEntity
  8
DEFPOINTS
  6
ByBlock
 62
     0
100
AcDbPoint
 10
1118.635823225584
 20
1375.363560458474
 30
0.0
  0
ENDBLK
  5
8336
330
7D67
100
AcDbEntity
  8
0
100
AcDbBlockEnd
  0
BLOCK
  5
849B
330
7D73
100
AcDbEntity
  8
0
100
AcDbBlockBegin
  2
*D3
 70
     1
 10
0.0
 20
0.0
 30
0.0
  3
*D3
  1

  0
LINE
  5
849C
330
7D73
100
AcDbEntity
  8
0
  6
ByBlock
 62
     0
100
AcDbLine
 10
1062.883116799028
 20
1176.363560458474
 30
0.0
 11
1189.708268201646
 21
1176.363560458474
 31
0.0
  0
LINE
  5
849D
330
7D73
100
AcDbEntity
  8
0
  6
ByBlock
 62
     0
100
AcDbLine
 10
1062.518714674858
 20
1375.363560458474
 30
0.0
 11
1189.708268201646
 21
1375.363560458474
 31
0.0
  0
LINE
  5
849E
330
7D73
100
AcDbEntity
  8
0
  6
ByBlock
 62
     0
100
AcDbLine
 10
1177.708268201646
 20
1200.363560458474
 30
0.0
 11
1177.708268201646
 21
1351.363560458474
 31
0.0
  0
INSERT
  5
849F
330
7D73
100
AcDbEntity
  8
0
  6
ByBlock
 62
     0
100
AcDbBlockReference
  2
_OPEN
 10
1177.708268201646
 20
1176.363560458474
 30
0.0
 41
24.0
 42
24.0
 43
24.0
 50
270.0
  0
INSERT
  5
84A0
330
7D73
100
AcDbEntity
  8
0
  6
ByBlock
 62
     0
100
AcDbBlockReference
  2
_OPEN
 10
1177.708268201646
 20
1375.363560458474
 30
0.0
 41
24.0
 42
24.0
 43
24.0
 50
90.0
  0
MTEXT
  5
84A1
330
7D73
100
AcDbEntity
  8
0
  6
ByBlock
 62
     0
100
AcDbMText
 10
1147.708268201646
 20
1275.863560458474
 30
0.0
 40
36.0
 41
0.0
 71
     5
 72
     5
  1
\A1;199
 11
0.0
 21
1.0
 31
0.0
 73
     1
 44
1.0
  0
POINT
  5
84A2
330
7D73
100
AcDbEntity
  8
DEFPOINTS
  6
ByBlock
 62
     0
100
AcDbPoint
 10
1056.883116799028
 20
1176.363560458474
 30
0.0
  0
POINT
  5
84A3
330
7D73
100
AcDbEntity
  8
DEFPOINTS
  6
ByBlock
 62
     0
100
AcDbPoint
 10
1056.518714674858
 20
1375.363560458474
 30
0.0
  0
POINT
  5
84A4
330
7D73
100
AcDbEntity
  8
DEFPOINTS
  6
ByBlock
 62
     0
100
AcDbPoint
 10
1177.708268201646
 20
1375.363560458474
 30
0.0
  0
ENDBLK
  5
84A5
330
7D73
100
AcDbEntity
  8
0
100
AcDbBlockEnd
  0
BLOCK
  5
84BE
330
7D7F
100
AcDbEntity
  8
0
100
AcDbBlockBegin
  2
*D4
 70
     1
 10
0.0
 20
0.0
 30
0.0
  3
*D4
  1

  0
LINE
  5
84BF
330
7D7F
100
AcDbEntity
  8
0
  6
ByBlock
 62
     0
100
AcDbLine
 10
1062.883116799028
 20
1176.363560458474
 30
0.0
 11
1189.708268201646
 21
1176.363560458474
 31
0.0
  0
LINE
  5
84C0
330
7D7F
100
AcDbEntity
  8
0
  6
ByBlock
 62
     0
100
AcDbLine
 10
1052.518714674857
 20
916.3635604584747
 30
0.0
 11
1189.708268201646
 21
916.3635604584747
 31
0.0
  0
LINE
  5
84C1
330
7D7F
100
AcDbEntity
  8
0
  6
ByBlock
 62
     0
100
AcDbLine
 10
1177.708268201646
 20
1152.363560458474
 30
0.0
 11
1177.708268201646
 21
940.3635604584748
 31
0.0
  0
INSERT
  5
84C2
330
7D7F
100
AcDbEntity
  8
0
  6
ByBlock
 62
     0
100
AcDbBlockReference
  2
_OPEN
 10
1177.708268201646
 20
1176.363560458474
 30
0.0
 41
24.0
 42
24.0
 43
24.0
 50
90.0
  0
INSERT
  5
84C3
330
7D7F
100
AcDbEntity
  8
0
  6
ByBlock
 62
     0
100
AcDbBlockReference
  2
_OPEN
 10
1177.708268201646
 20
916.3635604584747
 30
0.0
 41
24.0
 42
24.0
 43
24.0
 50
270.0
  0
MTEXT
  5
84C4
330
7D7F
100
AcDbEntity
  8
0
  6
ByBlock
 62
     0
100
AcDbMText
 10
1147.708268201646
 20
1046.363560458474
 30
0.0
 40
36.0
 41
0.0
 71
     5
 72
     5
  1
\A1;260
 11
0.0
 21
1.0
 31
0.0
 73
     1
 44
1.0
  0
POINT
  5
84C5
330
7D7F
100
AcDbEntity
  8
DEFPOINTS
  6
ByBlock
 62
     0
100
AcDbPoint
 10
1056.883116799028
 20
1176.363560458474
 30
0.0
  0
POINT
  5
84C6
330
7D7F
100
AcDbEntity
  8
DEFPOINTS
  6
ByBlock
 62
     0
100
AcDbPoint
 10
1046.518714674857
 20
916.3635604584747
 30
0.0
  0
POINT
  5
84C7
330
7D7F
100
AcDbEntity
  8
DEFPOINTS
  6
ByBlock
 62
     0
100
AcDbPoint
 10
1177.708268201646
 20
916.3635604584747
 30
0.0
  0
ENDBLK
  5
84C8
330
7D7F
100
AcDbEntity
  8
0
100
AcDbBlockEnd
  0
BLOCK
  5
8269
330
7DA5
100
AcDbEntity
  8
0
100
AcDbBlockBegin
  2
*D5
 70
     1
 10
0.0
 20
0.0
 30
0.0
  3
*D5
  1

  0
LINE
  5
826A
330
7DA5
100
AcDbEntity
  8
0
  6
ByBlock
 62
     0
100
AcDbLine
 10
1056.518714674858
 20
1403.3635264743
 30
0.0
 11
1056.518714674858
 21
1473.605496850615
 31
0.0
  0
LINE
  5
826B
330
7DA5
100
AcDbEntity
  8
0
  6
ByBlock
 62
     0
100
AcDbLine
 10
871.5187146748576
 20
1420.554234797001
 30
0.0
 11
871.5187146748576
 21
1473.605496850615
 31
0.0
  0
LINE
  5
826C
330
7DA5
100
AcDbEntity
  8
0
  6
ByBlock
 62
     0
100
AcDbLine
 10
1032.518714674858
 20
1461.605496850615
 30
0.0
 11
895.5187146748576
 21
1461.605496850615
 31
0.0
  0
INSERT
  5
826D
330
7DA5
100
AcDbEntity
  8
0
  6
ByBlock
 62
     0
100
AcDbBlockReference
  2
_OPEN
 10
1056.518714674858
 20
1461.605496850615
 30
0.0
 41
24.0
 42
24.0
 43
24.0
  0
INSERT
  5
826E
330
7DA5
100
AcDbEntity
  8
0
  6
ByBlock
 62
     0
100
AcDbBlockReference
  2
_OPEN
 10
871.5187146748576
 20
1461.605496850615
 30
0.0
 41
24.0
 42
24.0
 43
24.0
 50
180.0
  0
MTEXT
  5
826F
330
7DA5
100
AcDbEntity
  8
0
  6
ByBlock
 62
     0
100
AcDbMText
 10
964.018714674858
 20
1491.605496850615
 30
0.0
 40
36.0
 41
0.0
 71
     5
 72
     5
  1
\A1;185
 73
     1
 44
1.0
  0
POINT
  5
8270
330
7DA5
100
AcDbEntity
  8
DEFPOINTS
  6
ByBlock
 62
     0
100
AcDbPoint
 10
1056.518714674858
 20
1397.3635264743
 30
0.0
  0
POINT
  5
8271
330
7DA5
100
AcDbEntity
  8
DEFPOINTS
  6
ByBlock
 62
     0
100
AcDbPoint
 10
871.5187146748576
 20
1414.554234797001
 30
0.0
  0
POINT
  5
8272
330
7DA5
100
AcDbEntity
  8
DEFPOINTS
  6
ByBlock
 62
     0
100
AcDbPoint
 10
871.5187146748576
 20
1461.605496850615
 30
0.0
  0
ENDBLK
  5
8273
330
7DA5
100
AcDbEntity
  8
0
100
AcDbBlockEnd
  0
BLOCK
  5
8253
330
7DB1
100
AcDbEntity
  8
0
100
AcDbBlockBegin
  2
*D6
 70
     1
 10
0.0
 20
0.0
 30
0.0
  3
*D6
  1

  0
LINE
  5
8254
330
7DB1
100
AcDbEntity
  8
0
  6
ByBlock
 62
     0
100
AcDbLine
 10
1056.518714674858
 20
1408.3635264743
 30
0.0
 11
1056.518714674858
 21
1551.944588401187
 31
0.0
  0
LINE
  5
8255
330
7DB1
100
AcDbEntity
  8
0
  6
ByBlock
 62
     0
100
AcDbLine
 10
426.5187146748576
 20
962.3635604584746
 30
0.0
 11
426.5187146748576
 21
1551.944588401187
 31
0.0
  0
LINE
  5
8256
330
7DB1
100
AcDbEntity
  8
0
  6
ByBlock
 62
     0
100
AcDbLine
 10
1032.518714674858
 20
1539.944588401188
 30
0.0
 11
450.5187146748576
 21
1539.944588401188
 31
0.0
  0
INSERT
  5
8257
330
7DB1
100
AcDbEntity
  8
0
  6
ByBlock
 62
     0
100
AcDbBlockReference
  2
_OPEN
 10
1056.518714674858
 20
1539.944588401188
 30
0.0
 41
24.0
 42
24.0
 43
24.0
  0
INSERT
  5
8258
330
7DB1
100
AcDbEntity
  8
0
  6
ByBlock
 62
     0
100
AcDbBlockReference
  2
_OPEN
 10
426.5187146748576
 20
1539.944588401188
 30
0.0
 41
24.0
 42
24.0
 43
24.0
 50
180.0
  0
MTEXT
  5
8259
330
7DB1
100
AcDbEntity
  8
0
  6
ByBlock
 62
     0
100
AcDbMText
 10
741.518714674858
 20
1569.944588401187
 30
0.0
 40
36.0
 41
0.0
 71
     5
 72
     5
  1
\A1;630
 73
     1
 44
1.0
  0
POINT
  5
825A
330
7DB1
100
AcDbEntity
  8
DEFPOINTS
  6
ByBlock
 62
     0
100
AcDbPoint
 10
1056.518714674858
 20
1402.3635264743
 30
0.0
  0
POINT
  5
825B
330
7DB1
100
AcDbEntity
  8
DEFPOINTS
  6
ByBlock
 62
     0
100
AcDbPoint
 10
426.5187146748576
 20
956.3635604584746
 30
0.0
  0
POINT
  5
825C
330
7DB1
100
AcDbEntity
  8
DEFPOINTS
  6
ByBlock
 62
     0
100
AcDbPoint
 10
426.5187146748576
 20
1539.944588401188
 30
0.0
  0
ENDBLK
  5
825D
330
7DB1
100
AcDbEntity
  8
0
100
AcDbBlockEnd
  0
BLOCK
  5
825E
330
7DBD
100
AcDbEntity
  8
0
100
AcDbBlockBegin
  2
*D7
 70
     1
 10
0.0
 20
0.0
 30
0.0
  3
*D7
  1

  0
LINE
  5
825F
330
7DBD
100
AcDbEntity
  8
0
  6
ByBlock
 62
     0
100
AcDbLine
 10
871.5187146748576
 20
1420.554234797001
 30
0.0
 11
871.5187146748576
 21
1473.605496850615
 31
0.0
  0
LINE
  5
8260
330
7DBD
100
AcDbEntity
  8
0
  6
ByBlock
 62
     0
100
AcDbLine
 10
701.518714674858
 20
1196.363560458474
 30
0.0
 11
701.518714674858
 21
1473.605496850615
 31
0.0
  0
LINE
  5
8261
330
7DBD
100
AcDbEntity
  8
0
  6
ByBlock
 62
     0
100
AcDbLine
 10
847.5187146748575
 20
1461.605496850615
 30
0.0
 11
725.518714674858
 21
1461.605496850615
 31
0.0
  0
INSERT
  5
8262
330
7DBD
100
AcDbEntity
  8
0
  6
ByBlock
 62
     0
100
AcDbBlockReference
  2
_OPEN
 10
871.5187146748576
 20
1461.605496850615
 30
0.0
 41
24.0
 42
24.0
 43
24.0
  0
INSERT
  5
8263
330
7DBD
100
AcDbEntity
  8
0
  6
ByBlock
 62
     0
100
AcDbBlockReference
  2
_OPEN
 10
701.518714674858
 20
1461.605496850615
 30
0.0
 41
24.0
 42
24.0
 43
24.0
 50
180.0
  0
MTEXT
  5
8264
330
7DBD
100
AcDbEntity
  8
0
  6
ByBlock
 62
     0
100
AcDbMText
 10
786.5187146748578
 20
1491.605496850615
 30
0.0
 40
36.0
 41
0.0
 71
     5
 72
     5
  1
\A1;170
 73
     1
 44
1.0
  0
POINT
  5
8265
330
7DBD
100
AcDbEntity
  8
DEFPOINTS
  6
ByBlock
 62
     0
100
AcDbPoint
 10
871.5187146748576
 20
1414.554234797001
 30
0.0
  0
POINT
  5
8266
330
7DBD
100
AcDbEntity
  8
DEFPOINTS
  6
ByBlock
 62
     0
100
AcDbPoint
 10
701.518714674858
 20
1190.363560458474
 30
0.0
  0
POINT
  5
8267
330
7DBD
100
AcDbEntity
  8
DEFPOINTS
  6
ByBlock
 62
     0
100
AcDbPoint
 10
701.518714674858
 20
1461.605496850615
 30
0.0
  0
ENDBLK
  5
8268
330
7DBD
100
AcDbEntity
  8
0
100
AcDbBlockEnd
  0
BLOCK
  5
8485
330
7DC8
100
AcDbEntity
  8
0
100
AcDbBlockBegin
  2
*D8
 70
     1
 10
0.0
 20
0.0
 30
0.0
  3
*D8
  1

  0
LINE
  5
8486
330
7DC8
100
AcDbEntity
  8
0
  6
ByBlock
 62
     0
100
AcDbLine
 10
2064.243540747228
 20
1072.449654345733
 30
0.0
 11
2064.243540747228
 21
1530.450616792897
 31
0.0
  0
LINE
  5
8487
330
7DC8
100
AcDbEntity
  8
0
  6
ByBlock
 62
     0
100
AcDbLine
 10
1986.243540747229
 20
1483.055263359539
 30
0.0
 11
1986.243540747229
 21
1530.450616792897
 31
0.0
  0
LINE
  5
8488
330
7DC8
100
AcDbEntity
  8
0
  6
ByBlock
 62
     0
100
AcDbLine
 10
2040.243540747228
 20
1518.450616792897
 30
0.0
 11
2010.243540747229
 21
1518.450616792897
 31
0.0
  0
MTEXT
  5
8489
330
7DC8
100
AcDbEntity
  8
0
  6
ByBlock
 62
     0
100
AcDbMText
 10
2025.243540747229
 20
1551.401913525908
 30
0.0
 40
36.0
 41
0.0
 71
     5
 72
     5
  1
\A1;79
 73
     1
 44
1.0
  0
INSERT
  5
848A
330
7DC8
100
AcDbEntity
  8
0
  6
ByBlock
 62
     0
100
AcDbBlockReference
  2
_OPEN
 10
2064.243540747228
 20
1518.450616792897
 30
0.0
 41
24.0
 42
24.0
 43
24.0
  0
INSERT
  5
848B
330
7DC8
100
AcDbEntity
  8
0
  6
ByBlock
 62
     0
100
AcDbBlockReference
  2
_OPEN
 10
1986.243540747229
 20
1518.450616792897
 30
0.0
 41
24.0
 42
24.0
 43
24.0
 50
180.0
  0
POINT
  5
848C
330
7DC8
100
AcDbEntity
  8
DEFPOINTS
  6
ByBlock
 62
     0
100
AcDbPoint
 10
2064.243540747228
 20
1066.449654345733
 30
0.0
  0
POINT
  5
848D
330
7DC8
100
AcDbEntity
  8
DEFPOINTS
  6
ByBlock
 62
     0
100
AcDbPoint
 10
1986.243540747229
 20
1477.055263359539
 30
0.0
  0
POINT
  5
848E
330
7DC8
100
AcDbEntity
  8
DEFPOINTS
  6
ByBlock
 62
     0
100
AcDbPoint
 10
1986.243540747229
 20
1518.450616792897
 30
0.0
  0
ENDBLK
  5
848F
330
7DC8
100
AcDbEntity
  8
0
100
AcDbBlockEnd
  0
BLOCK
  5
846F
330
7DD6
100
AcDbEntity
  8
0
100
AcDbBlockBegin
  2
*D9
 70
     1
 10
0.0
 20
0.0
 30
0.0
  3
*D9
  1

  0
LINE
  5
8470
330
7DD6
100
AcDbEntity
  8
0
  6
ByBlock
 62
     0
100
AcDbLine
 10
1986.243540747229
 20
1483.055263359539
 30
0.0
 11
1986.243540747229
 21
1530.450616792897
 31
0.0
  0
LINE
  5
8471
330
7DD6
100
AcDbEntity
  8
0
  6
ByBlock
 62
     0
100
AcDbLine
 10
1553.243540747228
 20
1262.455619431852
 30
0.0
 11
1553.243540747228
 21
1530.450616792897
 31
0.0
  0
LINE
  5
8472
330
7DD6
100
AcDbEntity
  8
0
  6
ByBlock
 62
     0
100
AcDbLine
 10
1962.243540747229
 20
1518.450616792897
 30
0.0
 11
1577.243540747228
 21
1518.450616792897
 31
0.0
  0
INSERT
  5
8473
330
7DD6
100
AcDbEntity
  8
0
  6
ByBlock
 62
     0
100
AcDbBlockReference
  2
_OPEN
 10
1986.243540747229
 20
1518.450616792897
 30
0.0
 41
24.0
 42
24.0
 43
24.0
  0
INSERT
  5
8474
330
7DD6
100
AcDbEntity
  8
0
  6
ByBlock
 62
     0
100
AcDbBlockReference
  2
_OPEN
 10
1553.243540747228
 20
1518.450616792897
 30
0.0
 41
24.0
 42
24.0
 43
24.0
 50
180.0
  0
MTEXT
  5
8475
330
7DD6
100
AcDbEntity
  8
0
  6
ByBlock
 62
     0
100
AcDbMText
 10
1769.743540747229
 20
1578.450616792897
 30
0.0
 40
36.0
 41
0.0
 71
     5
 72
     5
  1
\A1;MAX\P520
 73
     1
 44
1.0
  0
POINT
  5
8476
330
7DD6
100
AcDbEntity
  8
DEFPOINTS
  6
ByBlock
 62
     0
100
AcDbPoint
 10
1986.243540747229
 20
1477.055263359539
 30
0.0
  0
POINT
  5
8477
330
7DD6
100
AcDbEntity
  8
DEFPOINTS
  6
ByBlock
 62
     0
100
AcDbPoint
 10
1553.243540747228
 20
1256.455619431852
 30
0.0
  0
POINT
  5
8478
330
7DD6
100
AcDbEntity
  8
DEFPOINTS
  6
ByBlock
 62
     0
100
AcDbPoint
 10
1553.243540747228
 20
1518.450616792897
 30
0.0
  0
ENDBLK
  5
8479
330
7DD6
100
AcDbEntity
  8
0
100
AcDbBlockEnd
  0
BLOCK
  5
8458
330
7DE1
100
AcDbEntity
  8
0
100
AcDbBlockBegin
  2
*D10
 70
     1
 10
0.0
 20
0.0
 30
0.0
  3
*D10
  1

  0
LINE
  5
8459
330
7DE1
100
AcDbEntity
  8
0
  6
ByBlock
 62
     0
100
AcDbLine
 10
1911.243540747228
 20
1381.449654345733
 30
0.0
 11
1911.243540747228
 21
1445.344554631639
 31
0.0
  0
LINE
  5
845A
330
7DE1
100
AcDbEntity
  8
0
  6
ByBlock
 62
     0
100
AcDbLine
 10
2061.243540747228
 20
1381.449654345733
 30
0.0
 11
2061.243540747228
 21
1445.344554631639
 31
0.0
  0
LINE
  5
845B
330
7DE1
100
AcDbEntity
  8
0
  6
ByBlock
 62
     0
100
AcDbLine
 10
1935.243540747228
 20
1433.344554631639
 30
0.0
 11
2037.243540747228
 21
1433.344554631639
 31
0.0
  0
MTEXT
  5
845C
330
7DE1
100
AcDbEntity
  8
0
  6
ByBlock
 62
     0
100
AcDbMText
 10
1986.243540747228
 20
1462.574493836214
 30
0.0
 40
36.0
 41
0.0
 71
     5
 72
     5
  1
\A1;150
 73
     1
 44
1.0
  0
INSERT
  5
845D
330
7DE1
100
AcDbEntity
  8
0
  6
ByBlock
 62
     0
100
AcDbBlockReference
  2
_OPEN
 10
1911.243540747228
 20
1433.344554631639
 30
0.0
 41
24.0
 42
24.0
 43
24.0
 50
180.0
  0
INSERT
  5
845E
330
7DE1
100
AcDbEntity
  8
0
  6
ByBlock
 62
     0
100
AcDbBlockReference
  2
_OPEN
 10
2061.243540747228
 20
1433.344554631639
 30
0.0
 41
24.0
 42
24.0
 43
24.0
  0
POINT
  5
845F
330
7DE1
100
AcDbEntity
  8
DEFPOINTS
  6
ByBlock
 62
     0
100
AcDbPoint
 10
1911.243540747228
 20
1375.449654345733
 30
0.0
  0
POINT
  5
8460
330
7DE1
100
AcDbEntity
  8
DEFPOINTS
  6
ByBlock
 62
     0
100
AcDbPoint
 10
2061.243540747228
 20
1375.449654345733
 30
0.0
  0
POINT
  5
8461
330
7DE1
100
AcDbEntity
  8
DEFPOINTS
  6
ByBlock
 62
     0
100
AcDbPoint
 10
2061.243540747228
 20
1433.344554631639
 30
0.0
  0
ENDBLK
  5
8462
330
7DE1
100
AcDbEntity
  8
0
100
AcDbBlockEnd
  0
BLOCK
  5
8442
330
7DED
100
AcDbEntity
  8
0
100
AcDbBlockBegin
  2
*D11
 70
     1
 10
0.0
 20
0.0
 30
0.0
  3
*D11
  1

  0
LINE
  5
8443
330
7DED
100
AcDbEntity
  8
0
  6
ByBlock
 62
     0
100
AcDbLine
 10
2090.243540747228
 20
1286.449654345733
 30
0.0
 11
2177.260580611068
 21
1286.449654345733
 31
0.0
  0
LINE
  5
8444
330
7DED
100
AcDbEntity
  8
0
  6
ByBlock
 62
     0
100
AcDbLine
 10
2090.243540747228
 20
1066.449654345733
 30
0.0
 11
2177.260580611068
 21
1066.449654345733
 31
0.0
  0
LINE
  5
8445
330
7DED
100
AcDbEntity
  8
0
  6
ByBlock
 62
     0
100
AcDbLine
 10
2165.260580611068
 20
1262.449654345733
 30
0.0
 11
2165.260580611068
 21
1090.449654345733
 31
0.0
  0
INSERT
  5
8446
330
7DED
100
AcDbEntity
  8
0
  6
ByBlock
 62
     0
100
AcDbBlockReference
  2
_OPEN
 10
2165.260580611068
 20
1286.449654345733
 30
0.0
 41
24.0
 42
24.0
 43
24.0
 50
90.0
  0
INSERT
  5
8447
330
7DED
100
AcDbEntity
  8
0
  6
ByBlock
 62
     0
100
AcDbBlockReference
  2
_OPEN
 10
2165.260580611068
 20
1066.449654345733
 30
0.0
 41
24.0
 42
24.0
 43
24.0
 50
270.0
  0
MTEXT
  5
8448
330
7DED
100
AcDbEntity
  8
0
  6
ByBlock
 62
     0
100
AcDbMText
 10
2135.260580611067
 20
1176.449654345733
 30
0.0
 40
36.0
 41
0.0
 71
     5
 72
     5
  1
\A1;φ220
 11
0.0
 21
1.0
 31
0.0
 73
     1
 44
1.0
  0
POINT
  5
8449
330
7DED
100
AcDbEntity
  8
DEFPOINTS
  6
ByBlock
 62
     0
100
AcDbPoint
 10
2084.243540747228
 20
1286.449654345733
 30
0.0
  0
POINT
  5
844A
330
7DED
100
AcDbEntity
  8
DEFPOINTS
  6
ByBlock
 62
     0
100
AcDbPoint
 10
2084.243540747228
 20
1066.449654345733
 30
0.0
  0
POINT
  5
844B
330
7DED
100
AcDbEntity
  8
DEFPOINTS
  6
ByBlock
 62
     0
100
AcDbPoint
 10
2165.260580611068
 20
1066.449654345733
 30
0.0
  0
ENDBLK
  5
844C
330
7DED
100
AcDbEntity
  8
0
100
AcDbBlockEnd
  0
BLOCK
  5
8581
330
8580
100
AcDbEntity
  8
0
100
AcDbBlockBegin
  2
*D12
 70
     1
 10
0.0
 20
0.0
 30
0.0
  3
*D12
  1

  0
LINE
  5
8582
330
8580
100
AcDbEntity
  8
0
  6
ByBlock
 62
     0
100
AcDbLine
 10
420.518714674858
 20
2383.523719253987
 30
0.0
 11
338.8341901432559
 21
2383.523719253987
 31
0.0
  0
LINE
  5
8583
330
8580
100
AcDbEntity
  8
0
  6
ByBlock
 62
     0
100
AcDbLine
 10
420.518714674858
 20
2003.52371925399
 30
0.0
 11
338.8341901432559
 21
2003.52371925399
 31
0.0
  0
LINE
  5
8584
330
8580
100
AcDbEntity
  8
0
  6
ByBlock
 62
     0
100
AcDbLine
 10
350.8341901432558
 20
2359.523719253987
 30
0.0
 11
350.8341901432558
 21
2027.52371925399
 31
0.0
  0
INSERT
  5
8585
330
8580
100
AcDbEntity
  8
0
  6
ByBlock
 62
     0
100
AcDbBlockReference
  2
_OPEN
 10
350.8341901432558
 20
2383.523719253987
 30
0.0
 41
24.0
 42
24.0
 43
24.0
 50
90.0
  0
INSERT
  5
8586
330
8580
100
AcDbEntity
  8
0
  6
ByBlock
 62
     0
100
AcDbBlockReference
  2
_OPEN
 10
350.8341901432558
 20
2003.52371925399
 30
0.0
 41
24.0
 42
24.0
 43
24.0
 50
270.0
  0
MTEXT
  5
8587
330
8580
100
AcDbEntity
  8
0
  6
ByBlock
 62
     0
100
AcDbMText
 10
320.8341901432559
 20
2187.908923321319
 30
0.0
 40
36.0
 41
0.0
 71
     5
 72
     5
  1
\A1;380
 11
0.0
 21
1.0
 31
0.0
 73
     1
 44
1.0
  0
POINT
  5
8588
330
8580
100
AcDbEntity
  8
DEFPOINTS
  6
ByBlock
 62
     0
100
AcDbPoint
 10
426.518714674858
 20
2383.523719253987
 30
0.0
  0
POINT
  5
8589
330
8580
100
AcDbEntity
  8
DEFPOINTS
  6
ByBlock
 62
     0
100
AcDbPoint
 10
426.518714674858
 20
2003.52371925399
 30
0.0
  0
POINT
  5
858A
330
8580
100
AcDbEntity
  8
DEFPOINTS
  6
ByBlock
 62
     0
100
AcDbPoint
 10
350.8341901432558
 20
2003.52371925399
 30
0.0
  0
ENDBLK
  5
858B
330
8580
100
AcDbEntity
  8
0
100
AcDbBlockEnd
  0
BLOCK
  5
858E
330
858D
100
AcDbEntity
  8
0
100
AcDbBlockBegin
  2
*D13
 70
     1
 10
0.0
 20
0.0
 30
0.0
  3
*D13
  1

  0
LINE
  5
858F
330
858D
100
AcDbEntity
  8
0
  6
ByBlock
 62
     0
100
AcDbLine
 10
426.518714674858
 20
1997.52371925399
 30
0.0
 11
426.518714674858
 21
1881.525202040117
 31
0.0
  0
LINE
  5
8590
330
858D
100
AcDbEntity
  8
0
  6
ByBlock
 62
     0
100
AcDbLine
 10
1046.518714674857
 20
1997.523719253987
 30
0.0
 11
1046.518714674857
 21
1881.525202040117
 31
0.0
  0
LINE
  5
8591
330
858D
100
AcDbEntity
  8
0
  6
ByBlock
 62
     0
100
AcDbLine
 10
450.518714674858
 20
1893.525202040117
 30
0.0
 11
1022.518714674857
 21
1893.525202040117
 31
0.0
  0
INSERT
  5
8592
330
858D
100
AcDbEntity
  8
0
  6
ByBlock
 62
     0
100
AcDbBlockReference
  2
_OPEN
 10
426.518714674858
 20
1893.525202040117
 30
0.0
 41
24.0
 42
24.0
 43
24.0
 50
180.0
  0
INSERT
  5
8593
330
858D
100
AcDbEntity
  8
0
  6
ByBlock
 62
     0
100
AcDbBlockReference
  2
_OPEN
 10
1046.518714674857
 20
1893.525202040117
 30
0.0
 41
24.0
 42
24.0
 43
24.0
  0
MTEXT
  5
8594
330
858D
100
AcDbEntity
  8
0
  6
ByBlock
 62
     0
100
AcDbMText
 10
726.0230712500815
 20
1923.525202040117
 30
0.0
 40
36.0
 41
0.0
 71
     5
 72
     5
  1
\A1;620
 73
     1
 44
1.0
  0
POINT
  5
8595
330
858D
100
AcDbEntity
  8
DEFPOINTS
  6
ByBlock
 62
     0
100
AcDbPoint
 10
426.518714674858
 20
2003.52371925399
 30
0.0
  0
POINT
  5
8596
330
858D
100
AcDbEntity
  8
DEFPOINTS
  6
ByBlock
 62
     0
100
AcDbPoint
 10
1046.518714674857
 20
2003.523719253986
 30
0.0
  0
POINT
  5
8597
330
858D
100
AcDbEntity
  8
DEFPOINTS
  6
ByBlock
 62
     0
100
AcDbPoint
 10
1046.518714674857
 20
1893.525202040117
 30
0.0
  0
ENDBLK
  5
8598
330
858D
100
AcDbEntity
  8
0
100
AcDbBlockEnd
  0
BLOCK
  5
85DC
330
85DB
100
AcDbEntity
  8
0
100
AcDbBlockBegin
  2
*D14
 70
     1
 10
0.0
 20
0.0
 30
0.0
  3
*D14
  1

  0
LINE
  5
85DD
330
85DB
100
AcDbEntity
  8
0
  6
ByBlock
 62
     0
100
AcDbLine
 10
475.4348173531398
 20
910.3635604584747
 30
0.0
 11
475.4348173531398
 21
820.8546429684856
 31
0.0
  0
LINE
  5
85DE
330
85DB
100
AcDbEntity
  8
0
  6
ByBlock
 62
     0
100
AcDbLine
 10
920.4348173531393
 20
910.3635604584747
 30
0.0
 11
920.4348173531393
 21
820.8546429684856
 31
0.0
  0
LINE
  5
85DF
330
85DB
100
AcDbEntity
  8
0
  6
ByBlock
 62
     0
100
AcDbLine
 10
499.4348173531398
 20
832.8546429684857
 30
0.0
 11
896.4348173531393
 21
832.8546429684857
 31
0.0
  0
INSERT
  5
85E0
330
85DB
100
AcDbEntity
  8
0
  6
ByBlock
 62
     0
100
AcDbBlockReference
  2
_OPEN
 10
475.4348173531398
 20
832.8546429684857
 30
0.0
 41
24.0
 42
24.0
 43
24.0
 50
180.0
  0
INSERT
  5
85E1
330
85DB
100
AcDbEntity
  8
0
  6
ByBlock
 62
     0
100
AcDbBlockReference
  2
_OPEN
 10
920.4348173531393
 20
832.8546429684857
 30
0.0
 41
24.0
 42
24.0
 43
24.0
  0
MTEXT
  5
85E2
330
85DB
100
AcDbEntity
  8
0
  6
ByBlock
 62
     0
100
AcDbMText
 10
697.9348173531396
 20
862.8546429684856
 30
0.0
 40
36.0
 41
0.0
 71
     5
 72
     5
  1
\A1;445
 73
     1
 44
1.0
  0
POINT
  5
85E3
330
85DB
100
AcDbEntity
  8
DEFPOINTS
  6
ByBlock
 62
     0
100
AcDbPoint
 10
475.4348173531398
 20
916.3635604584747
 30
0.0
  0
POINT
  5
85E4
330
85DB
100
AcDbEntity
  8
DEFPOINTS
  6
ByBlock
 62
     0
100
AcDbPoint
 10
920.4348173531393
 20
916.3635604584747
 30
0.0
  0
POINT
  5
85E5
330
85DB
100
AcDbEntity
  8
DEFPOINTS
  6
ByBlock
 62
     0
100
AcDbPoint
 10
920.4348173531393
 20
832.8546429684857
 30
0.0
  0
ENDBLK
  5
85E6
330
85DB
100
AcDbEntity
  8
0
100
AcDbBlockEnd
  0
BLOCK
  5
85E9
330
85E8
100
AcDbEntity
  8
0
100
AcDbBlockBegin
  2
*D15
 70
     1
 10
0.0
 20
0.0
 30
0.0
  3
*D15
  1

  0
LINE
  5
85EA
330
85E8
100
AcDbEntity
  8
0
  6
ByBlock
 62
     0
100
AcDbLine
 10
920.4348173531393
 20
910.3635604584747
 30
0.0
 11
920.4348173531393
 21
820.8546429684856
 31
0.0
  0
LINE
  5
85EB
330
85E8
100
AcDbEntity
  8
0
  6
ByBlock
 62
     0
100
AcDbLine
 10
1095.434817353139
 20
910.3635604584741
 30
0.0
 11
1095.434817353139
 21
820.8546429684856
 31
0.0
  0
LINE
  5
85EC
330
85E8
100
AcDbEntity
  8
0
  6
ByBlock
 62
     0
100
AcDbLine
 10
944.4348173531393
 20
832.8546429684857
 30
0.0
 11
1071.434817353139
 21
832.8546429684857
 31
0.0
  0
INSERT
  5
85ED
330
85E8
100
AcDbEntity
  8
0
  6
ByBlock
 62
     0
100
AcDbBlockReference
  2
_OPEN
 10
920.4348173531393
 20
832.8546429684857
 30
0.0
 41
24.0
 42
24.0
 43
24.0
 50
180.0
  0
INSERT
  5
85EE
330
85E8
100
AcDbEntity
  8
0
  6
ByBlock
 62
     0
100
AcDbBlockReference
  2
_OPEN
 10
1095.434817353139
 20
832.8546429684857
 30
0.0
 41
24.0
 42
24.0
 43
24.0
  0
MTEXT
  5
85EF
330
85E8
100
AcDbEntity
  8
0
  6
ByBlock
 62
     0
100
AcDbMText
 10
1007.934817353139
 20
862.8546429684856
 30
0.0
 40
36.0
 41
0.0
 71
     5
 72
     5
  1
\A1;175
 73
     1
 44
1.0
  0
POINT
  5
85F0
330
85E8
100
AcDbEntity
  8
DEFPOINTS
  6
ByBlock
 62
     0
100
AcDbPoint
 10
920.4348173531393
 20
916.3635604584747
 30
0.0
  0
POINT
  5
85F1
330
85E8
100
AcDbEntity
  8
DEFPOINTS
  6
ByBlock
 62
     0
100
AcDbPoint
 10
1095.434817353139
 20
916.3635604584742
 30
0.0
  0
POINT
  5
85F2
330
85E8
100
AcDbEntity
  8
DEFPOINTS
  6
ByBlock
 62
     0
100
AcDbPoint
 10
1095.434817353139
 20
832.8546429684857
 30
0.0
  0
ENDBLK
  5
85F3
330
85E8
100
AcDbEntity
  8
0
100
AcDbBlockEnd
  0
BLOCK
  5
85F6
330
85F5
100
AcDbEntity
  8
0
100
AcDbBlockBegin
  2
*D16
 70
     1
 10
0.0
 20
0.0
 30
0.0
  3
*D16
  1

  0
LINE
  5
85F7
330
85F5
100
AcDbEntity
  8
0
  6
ByBlock
 62
     0
100
AcDbLine
 10
1566.243540747229
 20
910.4496543457335
 30
0.0
 11
1566.243540747229
 21
820.8546429684856
 31
0.0
  0
LINE
  5
85F8
330
85F5
100
AcDbEntity
  8
0
  6
ByBlock
 62
     0
100
AcDbLine
 10
1946.243540747229
 20
910.449654345734
 30
0.0
 11
1946.243540747229
 21
820.8546429684856
 31
0.0
  0
LINE
  5
85F9
330
85F5
100
AcDbEntity
  8
0
  6
ByBlock
 62
     0
100
AcDbLine
 10
1590.243540747229
 20
832.8546429684857
 30
0.0
 11
1922.243540747229
 21
832.8546429684857
 31
0.0
  0
INSERT
  5
85FA
330
85F5
100
AcDbEntity
  8
0
  6
ByBlock
 62
     0
100
AcDbBlockReference
  2
_OPEN
 10
1566.243540747229
 20
832.8546429684857
 30
0.0
 41
24.0
 42
24.0
 43
24.0
 50
180.0
  0
INSERT
  5
85FB
330
85F5
100
AcDbEntity
  8
0
  6
ByBlock
 62
     0
100
AcDbBlockReference
  2
_OPEN
 10
1946.243540747229
 20
832.8546429684857
 30
0.0
 41
24.0
 42
24.0
 43
24.0
  0
MTEXT
  5
85FC
330
85F5
100
AcDbEntity
  8
0
  6
ByBlock
 62
     0
100
AcDbMText
 10
1756.243540747229
 20
862.8546429684856
 30
0.0
 40
36.0
 41
0.0
 71
     5
 72
     5
  1
\A1;380
 73
     1
 44
1.0
  0
POINT
  5
85FD
330
85F5
100
AcDbEntity
  8
DEFPOINTS
  6
ByBlock
 62
     0
100
AcDbPoint
 10
1566.243540747229
 20
916.4496543457335
 30
0.0
  0
POINT
  5
85FE
330
85F5
100
AcDbEntity
  8
DEFPOINTS
  6
ByBlock
 62
     0
100
AcDbPoint
 10
1946.243540747229
 20
916.4496543457339
 30
0.0
  0
POINT
  5
85FF
330
85F5
100
AcDbEntity
  8
DEFPOINTS
  6
ByBlock
 62
     0
100
AcDbPoint
 10
1946.243540747229
 20
832.8546429684857
 30
0.0
  0
ENDBLK
  5
8600
330
85F5
100
AcDbEntity
  8
0
100
AcDbBlockEnd
  0
BLOCK
  5
8603
330
8602
100
AcDbEntity
  8
0
100
AcDbBlockBegin
  2
*D17
 70
     1
 10
0.0
 20
0.0
 30
0.0
  3
*D17
  1

  0
LINE
  5
8604
330
8602
100
AcDbEntity
  8
0
  6
ByBlock
 62
     0
100
AcDbLine
 10
1946.243540747229
 20
910.449654345734
 30
0.0
 11
1946.243540747229
 21
820.8546429684856
 31
0.0
  0
LINE
  5
8605
330
8602
100
AcDbEntity
  8
0
  6
ByBlock
 62
     0
100
AcDbLine
 10
1986.243540747229
 20
910.449654345734
 30
0.0
 11
1986.243540747229
 21
820.8546429684856
 31
0.0
  0
LINE
  5
8606
330
8602
100
AcDbEntity
  8
0
  6
ByBlock
 62
     0
100
AcDbLine
 10
1922.243540747229
 20
832.8546429684857
 30
0.0
 11
1898.243540747229
 21
832.8546429684857
 31
0.0
  0
LINE
  5
8607
330
8602
100
AcDbEntity
  8
0
  6
ByBlock
 62
     0
100
AcDbLine
 10
2010.243540747229
 20
832.8546429684857
 30
0.0
 11
2116.529255032943
 21
832.8546429684857
 31
0.0
  0
LINE
  5
8608
330
8602
100
AcDbEntity
  8
0
  6
ByBlock
 62
     0
100
AcDbLine
 10
1946.243540747229
 20
832.8546429684857
 30
0.0
 11
1986.243540747229
 21
832.8546429684857
 31
0.0
  0
INSERT
  5
8609
330
8602
100
AcDbEntity
  8
0
  6
ByBlock
 62
     0
100
AcDbBlockReference
  2
_OPEN
 10
1946.243540747229
 20
832.8546429684857
 30
0.0
 41
24.0
 42
24.0
 43
24.0
  0
INSERT
  5
860A
330
8602
100
AcDbEntity
  8
0
  6
ByBlock
 62
     0
100
AcDbBlockReference
  2
_OPEN
 10
1986.243540747229
 20
832.8546429684857
 30
0.0
 41
24.0
 42
24.0
 43
24.0
 50
180.0
  0
MTEXT
  5
860B
330
8602
100
AcDbEntity
  8
0
  6
ByBlock
 62
     0
100
AcDbMText
 10
2075.386397890086
 20
862.8546429684856
 30
0.0
 40
36.0
 41
0.0
 71
     5
 72
     5
  1
\A1;40
 73
     1
 44
1.0
  0
POINT
  5
860C
330
8602
100
AcDbEntity
  8
DEFPOINTS
  6
ByBlock
 62
     0
100
AcDbPoint
 10
1946.243540747229
 20
916.4496543457339
 30
0.0
  0
POINT
  5
860D
330
8602
100
AcDbEntity
  8
DEFPOINTS
  6
ByBlock
 62
     0
100
AcDbPoint
 10
1986.243540747229
 20
916.4496543457341
 30
0.0
  0
POINT
  5
860E
330
8602
100
AcDbEntity
  8
DEFPOINTS
  6
ByBlock
 62
     0
100
AcDbPoint
 10
1986.243540747229
 20
832.8546429684857
 30
0.0
  0
ENDBLK
  5
860F
330
8602
100
AcDbEntity
  8
0
100
AcDbBlockEnd
  0
BLOCK
  5
862D
330
862C
100
AcDbEntity
  8
0
100
AcDbBlockBegin
  2
*D18
 70
     1
 10
0.0
 20
0.0
 30
0.0
  3
*D18
  1

  0
LINE
  5
862E
330
862C
100
AcDbEntity
  8
0
  6
ByBlock
 62
     0
100
AcDbLine
 10
1101.434817353139
 20
894.3635604584741
 30
0.0
 11
1238.049785297804
 21
894.3635604584741
 31
0.0
  0
LINE
  5
862F
330
862C
100
AcDbEntity
  8
0
  6
ByBlock
 62
     0
100
AcDbLine
 10
1101.434817353139
 20
854.3635604584746
 30
0.0
 11
1238.049785297804
 21
854.3635604584746
 31
0.0
  0
LINE
  5
8630
330
862C
100
AcDbEntity
  8
0
  6
ByBlock
 62
     0
100
AcDbLine
 10
1226.049785297804
 20
918.3635604584742
 30
0.0
 11
1226.049785297804
 21
942.3635604584742
 31
0.0
  0
LINE
  5
8631
330
862C
100
AcDbEntity
  8
0
  6
ByBlock
 62
     0
100
AcDbLine
 10
1226.049785297804
 20
830.3635604584746
 30
0.0
 11
1226.049785297804
 21
724.0778461727605
 31
0.0
  0
LINE
  5
8632
330
862C
100
AcDbEntity
  8
0
  6
ByBlock
 62
     0
100
AcDbLine
 10
1226.049785297804
 20
894.3635604584741
 30
0.0
 11
1226.049785297804
 21
854.3635604584746
 31
0.0
  0
INSERT
  5
8633
330
862C
100
AcDbEntity
  8
0
  6
ByBlock
 62
     0
100
AcDbBlockReference
  2
_DOT
 10
1226.049785297804
 20
894.3635604584741
 30
0.0
 41
24.0
 42
24.0
 43
24.0
 50
270.0
  0
INSERT
  5
8634
330
862C
100
AcDbEntity
  8
0
  6
ByBlock
 62
     0
100
AcDbBlockReference
  2
_OPEN
 10
1226.049785297804
 20
854.3635604584746
 30
0.0
 41
24.0
 42
24.0
 43
24.0
 50
90.0
  0
MTEXT
  5
8635
330
862C
100
AcDbEntity
  8
0
  6
ByBlock
 62
     0
100
AcDbMText
 10
1196.049785297804
 20
765.2207033156176
 30
0.0
 40
36.0
 41
0.0
 71
     5
 72
     5
  1
\A1;40
 11
0.0
 21
1.0
 31
0.0
 73
     1
 44
1.0
  0
POINT
  5
8636
330
862C
100
AcDbEntity
  8
DEFPOINTS
  6
ByBlock
 62
     0
100
AcDbPoint
 10
1095.434817353139
 20
894.3635604584741
 30
0.0
  0
POINT
  5
8637
330
862C
100
AcDbEntity
  8
DEFPOINTS
  6
ByBlock
 62
     0
100
AcDbPoint
 10
1095.434817353139
 20
854.3635604584746
 30
0.0
  0
POINT
  5
8638
330
862C
100
AcDbEntity
  8
DEFPOINTS
  6
ByBlock
 62
     0
100
AcDbPoint
 10
1226.049785297804
 20
854.3635604584746
 30
0.0
  0
ENDBLK
  5
8639
330
862C
100
AcDbEntity
  8
0
100
AcDbBlockEnd
  0
BLOCK
  5
863C
330
863B
100
AcDbEntity
  8
0
100
AcDbBlockBegin
  2
*D19
 70
     1
 10
0.0
 20
0.0
 30
0.0
  3
*D19
  1

  0
LINE
  5
863D
330
863B
100
AcDbEntity
  8
0
  6
ByBlock
 62
     0
100
AcDbLine
 10
1101.434817353139
 20
894.3635604584741
 30
0.0
 11
1238.049785297804
 21
894.3635604584741
 31
0.0
  0
LINE
  5
863E
330
863B
100
AcDbEntity
  8
0
  6
ByBlock
 62
     0
100
AcDbLine
 10
1101.434817353139
 20
916.3635604584747
 30
0.0
 11
1238.049785297804
 21
916.3635604584747
 31
0.0
  0
LINE
  5
863F
330
863B
100
AcDbEntity
  8
0
  6
ByBlock
 62
     0
100
AcDbLine
 10
1226.049785297804
 20
870.3635604584743
 30
0.0
 11
1226.049785297804
 21
846.3635604584743
 31
0.0
  0
LINE
  5
8640
330
863B
100
AcDbEntity
  8
0
  6
ByBlock
 62
     0
100
AcDbLine
 10
1226.049785297804
 20
940.3635604584748
 30
0.0
 11
1226.049785297804
 21
964.3635604584746
 31
0.0
  0
MTEXT
  5
8641
330
863B
100
AcDbEntity
  8
0
  6
ByBlock
 62
     0
100
AcDbMText
 10
1283.478356726375
 20
905.3635604584744
 30
0.0
 40
36.0
 41
0.0
 71
     5
 72
     5
  1
\A1;(22)
 11
0.0
 21
1.0
 31
0.0
 73
     1
 44
1.0
  0
LINE
  5
8642
330
863B
100
AcDbEntity
  8
0
  6
ByBlock
 62
     0
100
AcDbLine
 10
1226.049785297804
 20
894.3635604584741
 30
0.0
 11
1226.049785297804
 21
916.3635604584747
 31
0.0
  0
INSERT
  5
8643
330
863B
100
AcDbEntity
  8
0
  6
ByBlock
 62
     0
100
AcDbBlockReference
  2
_DOT
 10
1226.049785297804
 20
894.3635604584741
 30
0.0
 41
24.0
 42
24.0
 43
24.0
 50
90.0
  0
INSERT
  5
8644
330
863B
100
AcDbEntity
  8
0
  6
ByBlock
 62
     0
100
AcDbBlockReference
  2
_OPEN
 10
1226.049785297804
 20
916.3635604584747
 30
0.0
 41
24.0
 42
24.0
 43
24.0
 50
270.0
  0
POINT
  5
8645
330
863B
100
AcDbEntity
  8
DEFPOINTS
  6
ByBlock
 62
     0
100
AcDbPoint
 10
1095.434817353139
 20
894.3635604584741
 30
0.0
  0
POINT
  5
8646
330
863B
100
AcDbEntity
  8
DEFPOINTS
  6
ByBlock
 62
     0
100
AcDbPoint
 10
1095.434817353139
 20
916.3635604584747
 30
0.0
  0
POINT
  5
8647
330
863B
100
AcDbEntity
  8
DEFPOINTS
  6
ByBlock
 62
     0
100
AcDbPoint
 10
1226.049785297804
 20
916.3635604584747
 30
0.0
  0
ENDBLK
  5
8648
330
863B
100
AcDbEntity
  8
0
100
AcDbBlockEnd
  0
BLOCK
  5
864B
330
864A
100
AcDbEntity
  8
0
100
AcDbBlockBegin
  2
*D20
 70
     1
 10
0.0
 20
0.0
 30
0.0
  3
*D20
  1

  0
LINE
  5
864C
330
864A
100
AcDbEntity
  8
0
  6
ByBlock
 62
     0
100
AcDbLine
 10
1111.43481735314
 20
1397.3635264743
 30
0.0
 11
1354.508341295837
 21
1397.3635264743
 31
0.0
  0
LINE
  5
864D
330
864A
100
AcDbEntity
  8
0
  6
ByBlock
 62
     0
100
AcDbLine
 10
1101.434817353139
 20
854.3635604584746
 30
0.0
 11
1354.508341295837
 21
854.3635604584746
 31
0.0
  0
LINE
  5
864E
330
864A
100
AcDbEntity
  8
0
  6
ByBlock
 62
     0
100
AcDbLine
 10
1342.508341295837
 20
1373.3635264743
 30
0.0
 11
1342.508341295837
 21
878.3635604584747
 31
0.0
  0
INSERT
  5
864F
330
864A
100
AcDbEntity
  8
0
  6
ByBlock
 62
     0
100
AcDbBlockReference
  2
_OPEN
 10
1342.508341295837
 20
1397.3635264743
 30
0.0
 41
24.0
 42
24.0
 43
24.0
 50
90.0
  0
INSERT
  5
8650
330
864A
100
AcDbEntity
  8
0
  6
ByBlock
 62
     0
100
AcDbBlockReference
  2
_OPEN
 10
1342.508341295837
 20
854.3635604584746
 30
0.0
 41
24.0
 42
24.0
 43
24.0
 50
270.0
  0
MTEXT
  5
8651
330
864A
100
AcDbEntity
  8
0
  6
ByBlock
 62
     0
100
AcDbMText
 10
1303.079769867266
 20
1125.863543466387
 30
0.0
 40
36.0
 41
0.0
 71
     5
 72
     5
  1
\A1;(543)
 11
0.0
 21
1.0
 31
0.0
 73
     1
 44
1.0
  0
POINT
  5
8652
330
864A
100
AcDbEntity
  8
DEFPOINTS
  6
ByBlock
 62
     0
100
AcDbPoint
 10
1105.43481735314
 20
1397.3635264743
 30
0.0
  0
POINT
  5
8653
330
864A
100
AcDbEntity
  8
DEFPOINTS
  6
ByBlock
 62
     0
100
AcDbPoint
 10
1095.434817353139
 20
854.3635604584746
 30
0.0
  0
POINT
  5
8654
330
864A
100
AcDbEntity
  8
DEFPOINTS
  6
ByBlock
 62
     0
100
AcDbPoint
 10
1342.508341295837
 20
854.3635604584746
 30
0.0
  0
ENDBLK
  5
8655
330
864A
100
AcDbEntity
  8
0
100
AcDbBlockEnd
  0
ENDSEC
  0
SECTION
  2
ENTITIES
  0
LINE
  5
7C25
330
19
100
AcDbEntity
  8
2
100
AcDbLine
 10
920.4348173531398
 20
1414.554234797001
 30
0.0
 11
920.4348173531391
 21
854.3635604584748
 31
0.0
  0
LINE
  5
7C27
330
19
100
AcDbEntity
  8
1
100
AcDbLine
 10
475.4348173531398
 20
956.3635604584746
 30
0.0
 11
1095.434817353139
 21
956.3635604584742
 31
0.0
  0
LINE
  5
7C29
330
19
100
AcDbEntity
  8
1
100
AcDbLine
 10
475.4348173531398
 20
956.3635604584746
 30
0.0
 11
475.4348173531398
 21
916.3635604584747
 31
0.0
  0
LINE
  5
7C2A
330
19
100
AcDbEntity
  8
2
100
AcDbLine
 10
1105.79921947731
 20
1176.363560458474
 30
0.0
 11
737.5830412761061
 21
1176.363560458474
 31
0.0
  0
LINE
  5
7C2C
330
19
100
AcDbEntity
  8
1
100
AcDbLine
 10
1095.434817353139
 20
956.3635604584742
 30
0.0
 11
1095.434817353139
 21
916.3635604584742
 31
0.0
  0
LINE
  5
7C2D
330
19
100
AcDbEntity
  8
2
100
AcDbLine
 10
1986.243540747229
 20
1437.414737553888
 30
0.0
 11
1986.243540747229
 21
854.449654345734
 31
0.0
  0
LINE
  5
7C2E
330
19
100
AcDbEntity
  8
2
100
AcDbLine
 10
1522.856657069362
 20
1176.449654345733
 30
0.0
 11
2093.711246339809
 21
1176.449654345733
 31
0.0
  0
LINE
  5
7C2F
330
19
100
AcDbEntity
  8
1
100
AcDbLine
 10
515.4348173531402
 20
2383.523719253987
 30
0.0
 11
515.4348173531407
 21
2305.723719253986
 31
0.0
  0
LINE
  5
7C30
330
19
100
AcDbEntity
  8
1
100
AcDbLine
 10
475.4348173531402
 20
2383.523719253987
 30
0.0
 11
475.4348173531402
 21
2003.523719253986
 31
0.0
  0
LINE
  5
7C33
330
19
100
AcDbEntity
  8
1
100
AcDbLine
 10
1095.434817353139
 20
2003.523719253986
 30
0.0
 11
475.4348173531401
 21
2003.52371925399
 31
0.0
  0
LINE
  5
7C3E
330
19
100
AcDbEntity
  8
1
100
AcDbLine
 10
750.43481735314
 20
2383.523719253987
 30
0.0
 11
475.4348173531402
 21
2383.523719253987
 31
0.0
  0
LINE
  5
7C3F
330
19
100
AcDbEntity
  8
1
100
AcDbLine
 10
1055.434817353139
 20
2003.523719253986
 30
0.0
 11
1095.434817353139
 21
2003.523719253986
 31
0.0
  0
CIRCLE
  5
7C45
330
19
100
AcDbEntity
  8
1
100
AcDbCircle
 10
920.4348173531398
 20
1046.363560458475
 30
0.0
 40
60.0
  0
LINE
  5
7C46
330
19
100
AcDbEntity
  8
1
100
AcDbLine
 10
1553.243540747228
 20
1256.455619431852
 30
0.0
 11
1553.243540747228
 21
956.4496543457336
 31
0.0
  0
LINE
  5
7C47
330
19
100
AcDbEntity
  8
1
100
AcDbLine
 10
1628.243540747228
 20
1256.455619431852
 30
0.0
 11
1628.243540747228
 21
1224.319572549998
 31
0.0
  0
LINE
  5
7C48
330
19
100
AcDbEntity
  8
1
100
AcDbLine
 10
970.5831508190694
 20
1256.319530842735
 30
0.0
 11
970.5831508190694
 21
956.3635604584742
 31
0.0
  0
LINE
  5
7C49
330
19
100
AcDbEntity
  8
1
100
AcDbLine
 10
490.5831508190694
 20
1256.319530842735
 30
0.0
 11
490.5831508190694
 21
956.3635604584746
 31
0.0
  0
ARC
  5
7C4A
330
19
100
AcDbEntity
  8
1
100
AcDbCircle
 10
909.4348173531402
 20
1187.363560458474
 30
0.0
 40
159.0
100
AcDbArc
 50
183.9670277620441
 51
224.2758217115302
  0
LINE
  5
7C4B
330
19
100
AcDbEntity
  8
1
100
AcDbLine
 10
1020.434817353139
 20
1136.663560458474
 30
0.0
 11
1020.434817353139
 21
956.3635604584751
 31
0.0
  0
LINE
  5
7C4C
330
19
100
AcDbEntity
  8
1
100
AcDbLine
 10
820.4348173531398
 20
1136.663560458474
 30
0.0
 11
820.4348173531398
 21
956.3635604584751
 31
0.0
  0
ARC
  5
7C4D
330
19
100
AcDbEntity
  8
1
100
AcDbCircle
 10
934.4348173531402
 20
1190.363560458474
 30
0.0
 40
184.0
100
AcDbArc
 50
90.33401164716613
 51
184.3636787978954
  0
LINE
  5
7C4E
330
19
100
AcDbEntity
  8
1
100
AcDbLine
 10
1883.943540747229
 20
1242.449654345733
 30
0.0
 11
1883.943540747229
 21
992.4496543457339
 31
0.0
  0
LINE
  5
7C50
330
19
100
AcDbEntity
  8
1
100
AcDbLine
 10
1911.243540747228
 20
1155.449654345733
 30
0.0
 11
1911.243540747228
 21
992.449654345734
 31
0.0
  0
LINE
  5
7C51
330
19
100
AcDbEntity
  8
1
100
AcDbLine
 10
2061.243540747228
 20
1153.449654345733
 30
0.0
 11
2061.243540747228
 21
1028.363560458474
 31
0.0
  0
LINE
  5
7C53
330
19
100
AcDbEntity
  8
1
100
AcDbLine
 10
1632.943540747229
 20
956.4496543457336
 30
0.0
 11
1632.943540747229
 21
1139.949654345733
 31
0.0
  0
LINE
  5
7C54
330
19
100
AcDbEntity
  8
1
100
AcDbLine
 10
1566.243540747229
 20
956.4496543457336
 30
0.0
 11
1946.243540747229
 21
956.4496543457339
 31
0.0
  0
LINE
  5
7C55
330
19
100
AcDbEntity
  8
1
100
AcDbLine
 10
1566.243540747229
 20
916.4496543457335
 30
0.0
 11
1946.243540747229
 21
916.4496543457339
 31
0.0
  0
LINE
  5
7C56
330
19
100
AcDbEntity
  8
1
100
AcDbLine
 10
1903.943540747229
 20
992.4496543457339
 30
0.0
 11
1903.943540747229
 21
956.4496543457339
 31
0.0
  0
LINE
  5
7C57
330
19
100
AcDbEntity
  8
1
100
AcDbLine
 10
1911.243540747228
 20
992.449654345734
 30
0.0
 11
1883.943540747229
 21
992.4496543457339
 31
0.0
  0
LINE
  5
7C58
330
19
100
AcDbEntity
  8
1
100
AcDbLine
 10
933.3621764797682
 20
1374.360433914402
 30
0.0
 11
1105.43481735314
 21
1375.363560458474
 31
0.0
  0
ARC
  5
7C59
330
19
100
AcDbEntity
  8
1
100
AcDbCircle
 10
911.4348173531402
 20
1167.363560458474
 30
0.0
 40
139.0
100
AcDbArc
 50
269.6016449156426
 51
0.6359598980193723
  0
LINE
  5
7C5A
330
19
100
AcDbEntity
  8
1
100
AcDbLine
 10
490.5831508190694
 20
1256.319530842735
 30
0.0
 11
970.5831508190694
 21
1256.319530842735
 31
0.0
  0
LINE
  5
7C5D
330
19
100
AcDbEntity
  8
1
100
AcDbLine
 10
995.4348173531398
 20
1139.863560458475
 30
0.0
 11
995.4348173531398
 21
1143.063560458474
 31
0.0
  0
LINE
  5
7C5E
330
19
100
AcDbEntity
  8
1
100
AcDbLine
 10
845.4348173531398
 20
1143.063560458474
 30
0.0
 11
845.4348173531398
 21
1139.863560458475
 31
0.0
  0
LINE
  5
7C5F
330
19
100
AcDbEntity
  8
1
100
AcDbLine
 10
1012.934817353139
 20
1242.363560458475
 30
0.0
 11
1012.934817353139
 21
1139.863560458475
 31
0.0
  0
LINE
  5
7C60
330
19
100
AcDbEntity
  8
1
100
AcDbLine
 10
1018.934817353139
 20
1242.363560458475
 30
0.0
 11
1018.934817353139
 21
1139.863560458475
 31
0.0
  0
LINE
  5
7C61
330
19
100
AcDbEntity
  8
1
100
AcDbLine
 10
827.9348173531397
 20
1242.363560458475
 30
0.0
 11
827.9348173531397
 21
1139.863560458475
 31
0.0
  0
LINE
  5
7C62
330
19
100
AcDbEntity
  8
1
100
AcDbLine
 10
821.9348173531397
 20
1242.363560458475
 30
0.0
 11
821.9348173531397
 21
1139.863560458475
 31
0.0
  0
ARC
  5
7C63
330
19
100
AcDbEntity
  8
1
100
AcDbCircle
 10
909.4348173531402
 20
1187.363560458474
 30
0.0
 40
159.0
100
AcDbArc
 50
224.2758217115302
 51
270.372459531405
  0
LINE
  5
7C65
330
19
100
AcDbEntity
  8
1
100
AcDbLine
 10
815.4348173531397
 20
1139.863560458475
 30
0.0
 11
1025.434817353139
 21
1139.863560458475
 31
0.0
  0
LINE
  5
7C66
330
19
100
AcDbEntity
  8
1
100
AcDbLine
 10
815.4348173531397
 20
1136.663560458474
 30
0.0
 11
1025.434817353139
 21
1136.663560458474
 31
0.0
  0
LINE
  5
7C67
330
19
100
AcDbEntity
  8
1
100
AcDbLine
 10
815.4348173531397
 20
1139.863560458475
 30
0.0
 11
815.4348173531397
 21
1136.663560458475
 31
0.0
  0
LINE
  5
7C68
330
19
100
AcDbEntity
  8
1
100
AcDbLine
 10
1025.434817353139
 20
1139.863560458475
 30
0.0
 11
1025.434817353139
 21
1136.663560458475
 31
0.0
  0
LINE
  5
7C69
330
19
100
AcDbEntity
  8
1
100
AcDbLine
 10
995.4348173531398
 20
1143.063560458474
 30
0.0
 11
845.4348173531398
 21
1143.063560458474
 31
0.0
  0
LINE
  5
7C6A
330
19
100
AcDbEntity
  8
1
100
AcDbLine
 10
821.9348173531397
 20
1242.363560458475
 30
0.0
 11
827.9348173531397
 21
1242.363560458475
 31
0.0
  0
LINE
  5
7C6B
330
19
100
AcDbEntity
  8
1
100
AcDbLine
 10
1012.934817353139
 20
1242.363560458474
 30
0.0
 11
1018.934817353139
 21
1242.363560458475
 31
0.0
  0
LINE
  5
7C6C
330
19
100
AcDbEntity
  8
1
100
AcDbLine
 10
1085.43481735314
 20
1397.3635264743
 30
0.0
 11
1085.43481735314
 21
1153.363560458474
 31
0.0
  0
LINE
  5
7C6D
330
19
100
AcDbEntity
  8
1
100
AcDbLine
 10
1105.43481735314
 20
1397.3635264743
 30
0.0
 11
1105.43481735314
 21
1165.363560458474
 31
0.0
  0
LINE
  5
7C6E
330
19
100
AcDbEntity
  8
1
100
AcDbLine
 10
1050.333969892614
 20
1175.363560458474
 30
0.0
 11
1105.43481735314
 21
1175.363560458474
 31
0.0
  0
ARC
  5
7C6F
330
19
100
AcDbEntity
  8
1
100
AcDbCircle
 10
926.4348173531402
 20
1170.363560458474
 30
0.0
 40
124.0
100
AcDbArc
 50
359.326672180611
 51
2.310940209102385
  0
LINE
  5
7C70
330
19
100
AcDbEntity
  8
1
100
AcDbLine
 10
1085.43481735314
 20
1173.363560458474
 30
0.0
 11
1085.43481735314
 21
1172.363560458474
 31
0.0
  0
LINE
  5
7C71
330
19
100
AcDbEntity
  8
1
100
AcDbLine
 10
1105.43481735314
 20
1153.363560458474
 30
0.0
 11
1105.43481735314
 21
1173.363560458474
 31
0.0
  0
LINE
  5
7C72
330
19
100
AcDbEntity
  8
1
100
AcDbLine
 10
1085.43481735314
 20
1153.363560458474
 30
0.0
 11
1105.43481735314
 21
1153.363560458474
 31
0.0
  0
LINE
  5
7C73
330
19
100
AcDbEntity
  8
1
100
AcDbLine
 10
2061.243540747228
 20
1375.449654345733
 30
0.0
 11
2061.243540747228
 21
1175.449654345733
 31
0.0
  0
LINE
  5
7C74
330
19
100
AcDbEntity
  8
1
100
AcDbLine
 10
1911.243540747228
 20
1375.449654345733
 30
0.0
 11
1911.243540747228
 21
1175.449654345733
 31
0.0
  0
LINE
  5
7C75
330
19
100
AcDbEntity
  8
1
100
AcDbLine
 10
2084.243540747228
 20
1286.449654345733
 30
0.0
 11
2084.243540747228
 21
1066.449654345733
 31
0.0
  0
LINE
  5
7C78
330
19
100
AcDbEntity
  8
1
100
AcDbLine
 10
1628.243540747228
 20
1139.949654345733
 30
0.0
 11
1883.943540747229
 21
1139.949654345733
 31
0.0
  0
LINE
  5
7C7A
330
19
100
AcDbEntity
  8
1
100
AcDbLine
 10
1614.443540747229
 20
1226.449654345733
 30
0.0
 11
1614.443540747229
 21
1131.999654345733
 31
0.0
  0
LINE
  5
7C7B
330
19
100
AcDbEntity
  8
1
100
AcDbLine
 10
1576.443540747229
 20
1226.449654345733
 30
0.0
 11
1576.443540747228
 21
1131.999654345733
 31
0.0
  0
LINE
  5
7C7E
330
19
100
AcDbEntity
  8
1
100
AcDbLine
 10
1576.443540747228
 20
1131.999654345733
 30
0.0
 11
1576.443540747227
 21
1016.363560458474
 31
0.0
  0
LINE
  5
7C7F
330
19
100
AcDbEntity
  8
1
100
AcDbLine
 10
1614.443540747229
 20
1131.999654345733
 30
0.0
 11
1614.443540747229
 21
1016.363560458474
 31
0.0
  0
LINE
  5
7C83
330
19
100
AcDbEntity
  8
1
100
AcDbLine
 10
1553.243540747228
 20
1256.455619431852
 30
0.0
 11
1628.243540747228
 21
1256.455619431852
 31
0.0
  0
LINE
  5
7C84
330
19
100
AcDbEntity
  8
1
100
AcDbLine
 10
1614.443540747229
 20
1166.949654345733
 30
0.0
 11
1624.443540747229
 21
1166.949654345733
 31
0.0
  0
LINE
  5
7C85
330
19
100
AcDbEntity
  8
1
100
AcDbLine
 10
1624.443540747229
 20
1166.449654345733
 30
0.0
 11
1651.143540747229
 21
1166.449654345733
 31
0.0
  0
LINE
  5
7C86
330
19
100
AcDbEntity
  8
1
100
AcDbLine
 10
1883.943540747229
 20
1166.449654345733
 30
0.0
 11
1624.443540747229
 21
1166.449654345733
 31
0.0
  0
LINE
  5
7C87
330
19
100
AcDbEntity
  8
1
100
AcDbLine
 10
1614.443540747229
 20
1185.949654345733
 30
0.0
 11
1624.443540747229
 21
1185.949654345733
 31
0.0
  0
LINE
  5
7C89
330
19
100
AcDbEntity
  8
1
100
AcDbLine
 10
2064.243540747228
 20
1066.449654345733
 30
0.0
 11
2084.243540747228
 21
1066.449654345733
 31
0.0
  0
LINE
  5
7C8A
330
19
100
AcDbEntity
  8
1
100
AcDbLine
 10
2084.243540747228
 20
1066.449654345733
 30
0.0
 11
2084.243540747228
 21
1065.449654345733
 31
0.0
  0
ARC
  5
7C8B
330
19
100
AcDbEntity
  8
1
100
AcDbCircle
 10
2082.243540747228
 20
1065.449654345733
 30
0.0
 40
2.0
100
AcDbArc
 50
270.0
 51
0.0
  0
LINE
  5
7C8C
330
19
100
AcDbEntity
  8
1
100
AcDbLine
 10
2082.243540747228
 20
1063.449654345733
 30
0.0
 11
2071.243540747228
 21
1063.449654345733
 31
0.0
  0
ARC
  5
7C8D
330
19
100
AcDbEntity
  8
1
100
AcDbCircle
 10
2071.243540747228
 20
1059.449654345733
 30
0.0
 40
4.0
100
AcDbArc
 50
90.0
 51
180.0
  0
LINE
  5
7C8E
330
19
100
AcDbEntity
  8
1
100
AcDbLine
 10
2067.243540747228
 20
1059.449654345733
 30
0.0
 11
2067.243540747228
 21
1048.449654345733
 31
0.0
  0
ARC
  5
7C8F
330
19
100
AcDbEntity
  8
1
100
AcDbCircle
 10
2065.243540747228
 20
1048.449654345733
 30
0.0
 40
2.0
100
AcDbArc
 50
270.0
 51
0.0
  0
LINE
  5
7C90
330
19
100
AcDbEntity
  8
1
100
AcDbLine
 10
2065.243540747228
 20
1046.449654345733
 30
0.0
 11
2064.243540747228
 21
1046.449654345733
 31
0.0
  0
LINE
  5
7C91
330
19
100
AcDbEntity
  8
1
100
AcDbLine
 10
2064.243540747228
 20
1046.449654345733
 30
0.0
 11
2064.243540747228
 21
1066.449654345733
 31
0.0
  0
LINE
  5
7C92
330
19
100
AcDbEntity
  8
1
100
AcDbLine
 10
2061.243540747228
 20
1046.449654345733
 30
0.0
 11
2064.243540747229
 21
1046.449654345733
 31
0.0
  0
LINE
  5
7C95
330
19
100
AcDbEntity
  8
1
100
AcDbLine
 10
1883.943540747229
 20
1242.449654345733
 30
0.0
 11
1891.243540747228
 21
1242.449654345733
 31
0.0
  0
LINE
  5
7C96
330
19
100
AcDbEntity
  8
1
100
AcDbLine
 10
2061.243540747228
 20
1155.449654345733
 30
0.0
 11
2061.243540747228
 21
1153.449654345733
 31
0.0
  0
LINE
  5
7C9A
330
19
100
AcDbEntity
  8
1
100
AcDbLine
 10
2082.243540747228
 20
1289.449654345733
 30
0.0
 11
2081.243540747228
 21
1289.449654345733
 31
0.0
  0
ARC
  5
7C9B
330
19
100
AcDbEntity
  8
1
100
AcDbCircle
 10
2082.243540747228
 20
1287.449654345733
 30
0.0
 40
2.0
100
AcDbArc
 50
0.0
 51
90.0
  0
LINE
  5
7C9C
330
19
100
AcDbEntity
  8
1
100
AcDbLine
 10
2084.243540747228
 20
1286.449654345733
 30
0.0
 11
2084.243540747228
 21
1287.449654345733
 31
0.0
  0
LINE
  5
7C9D
330
19
100
AcDbEntity
  8
1
100
AcDbLine
 10
2081.243540747228
 20
1286.449654345733
 30
0.0
 11
2084.243540747228
 21
1286.449654345733
 31
0.0
  0
LINE
  5
7C9F
330
19
100
AcDbEntity
  8
1
100
AcDbLine
 10
1095.434817353139
 20
916.3635604584747
 30
0.0
 11
475.4348173531398
 21
916.3635604584747
 31
0.0
  0
LINE
  5
7CA0
330
19
100
AcDbEntity
  8
1
100
AcDbLine
 10
1105.43481735314
 20
1397.3635264743
 30
0.0
 11
1085.43481735314
 21
1397.3635264743
 31
0.0
  0
DIMENSION
  5
7CA1
330
19
100
AcDbEntity
  8
3
100
AcDbDimension
  2
*D2
 10
1167.551925903866
 20
1375.363560458474
 30
0.0
 11
1137.551925903867
 21
1275.363560458474
 31
0.0
 12
48.91610267828219
 22
0.0
 32
0.0
 70
    32
 71
     5
 42
-1.0
  3
IGA
100
AcDbAlignedDimension
 13
1105.43481735314
 23
1175.363560458474
 33
0.0
 14
1105.43481735314
 24
1375.363560458474
 34
0.0
 50
270.0
100
AcDbRotatedDimension
1001
ACAD
1000
DSTYLE
1002
{
1070
    40
1040
12.0
1070
   143
1040
0.039
1070
   172
1070
     1
1070
   271
1070
     0
1070
   279
1070
     0
1070
   288
1070
     1
1002
}
  0
DIMENSION
  5
7CA2
330
19
100
AcDbEntity
  8
3
100
AcDbDimension
  2
*D3
 10
1226.624370879928
 20
1375.363560458474
 30
0.0
 11
1196.624370879928
 21
1275.863560458474
 31
0.0
 12
48.91610267828219
 22
0.0
 32
0.0
 70
    32
 71
     5
 42
-1.0
  3
IGA
100
AcDbAlignedDimension
 13
1105.79921947731
 23
1176.363560458474
 33
0.0
 14
1105.43481735314
 24
1375.363560458474
 34
0.0
 50
270.0
100
AcDbRotatedDimension
1001
ACAD
1000
DSTYLE
1002
{
1070
    40
1040
12.0
1070
   143
1040
0.039
1070
   172
1070
     1
1070
   271
1070
     0
1070
   279
1070
     0
1070
   288
1070
     1
1002
}
  0
DIMENSION
  5
7CA5
330
19
100
AcDbEntity
  8
3
100
AcDbDimension
  2
*D4
 10
1226.624370879928
 20
916.3635604584747
 30
0.0
 11
1196.624370879928
 21
1046.363560458474
 31
0.0
 12
48.91610267828219
 22
0.0
 32
0.0
 70
    32
 71
     5
 42
-1.0
  3
IGA
100
AcDbAlignedDimension
 13
1105.79921947731
 23
1176.363560458474
 33
0.0
 14
1095.434817353139
 24
916.3635604584747
 34
0.0
 50
90.0
100
AcDbRotatedDimension
1001
ACAD
1000
DSTYLE
1002
{
1070
    40
1040
12.0
1070
   143
1040
0.039
1070
   172
1070
     1
1070
   271
1070
     0
1070
   279
1070
     0
1070
   288
1070
     1
1002
}
  0
DIMENSION
  5
7CA8
330
19
100
AcDbEntity
  8
3
100
AcDbDimension
  2
*D5
 10
920.4348173531398
 20
1461.605496850615
 30
0.0
 11
1012.93481735314
 21
1491.605496850615
 31
0.0
 12
48.91610267828219
 22
0.0
 32
0.0
 70
    32
 71
     5
 42
-1.0
  3
IGA
100
AcDbAlignedDimension
 13
1105.43481735314
 23
1397.3635264743
 33
0.0
 14
920.4348173531398
 24
1414.554234797001
 34
0.0
100
AcDbRotatedDimension
1001
ACAD
1000
DSTYLE
1002
{
1070
    40
1040
12.0
1070
   143
1040
0.039
1070
   172
1070
     1
1070
   271
1070
     0
1070
   279
1070
     0
1070
   288
1070
     1
1002
}
  0
LINE
  5
7CA9
330
19
100
AcDbEntity
  8
1
100
AcDbLine
 10
1946.243540747229
 20
916.4496543457339
 30
0.0
 11
1946.24354074723
 21
956.4496543457339
 31
0.0
  0
LINE
  5
7CAA
330
19
100
AcDbEntity
  8
1
100
AcDbLine
 10
1566.243540747229
 20
916.4496543457335
 30
0.0
 11
1566.243540747229
 21
956.4496543457336
 31
0.0
  0
LINE
  5
7CAB
330
19
100
AcDbEntity
  8
1
100
AcDbLine
 10
1911.243540747228
 20
1375.449654345733
 30
0.0
 11
2061.243540747228
 21
1375.449654345733
 31
0.0
  0
LINE
  5
7CAC
330
19
100
AcDbEntity
  8
1
100
AcDbLine
 10
1911.243540747228
 20
1175.449654345733
 30
0.0
 11
2061.243540747228
 21
1175.449654345733
 31
0.0
  0
LINE
  5
7CAD
330
19
100
AcDbEntity
  8
1
100
AcDbLine
 10
1911.243540747228
 20
1028.363560458474
 30
0.0
 11
2061.243540747228
 21
1028.363560458474
 31
0.0
  0
LINE
  5
7CAE
330
19
100
AcDbEntity
  8
1
100
AcDbLine
 10
1883.943540747229
 20
1186.449654345733
 30
0.0
 11
1624.443540747229
 21
1186.449654345733
 31
0.0
  0
LINE
  5
7CAF
330
19
100
AcDbEntity
  8
1
100
AcDbLine
 10
1624.443540747229
 20
1186.449654345733
 30
0.0
 11
1624.443540747229
 21
1185.949654345733
 31
0.0
  0
LINE
  5
7CB0
330
19
100
AcDbEntity
  8
1
100
AcDbLine
 10
1624.443540747229
 20
1166.949654345733
 30
0.0
 11
1624.443540747229
 21
1166.449654345733
 31
0.0
  0
LINE
  5
7CB1
330
19
100
AcDbEntity
  8
1
100
AcDbLine
 10
1628.243540747228
 20
956.4496543457336
 30
0.0
 11
1553.243540747228
 21
956.4496543457336
 31
0.0
  0
LINE
  5
7CB2
330
19
100
AcDbEntity
  8
1
100
AcDbLine
 10
1891.243540747228
 20
1395.449654345733
 30
0.0
 11
2081.243540747228
 21
1395.449654345733
 31
0.0
  0
LINE
  5
7CB3
330
19
100
AcDbEntity
  8
1
100
AcDbLine
 10
1891.243540747228
 20
1395.449654345733
 30
0.0
 11
1891.243540747228
 21
1155.449654345733
 31
0.0
  0
LINE
  5
7CB4
330
19
100
AcDbEntity
  8
1
100
AcDbLine
 10
2081.243540747228
 20
1395.449654345733
 30
0.0
 11
2081.243540747228
 21
1155.449654345733
 31
0.0
  0
LINE
  5
7CB5
330
19
100
AcDbEntity
  8
1
100
AcDbLine
 10
1891.243540747228
 20
1155.449654345733
 30
0.0
 11
2081.243540747228
 21
1155.449654345733
 31
0.0
  0
LINE
  5
7CB7
330
19
100
AcDbEntity
  8
2
100
AcDbLine
 10
1522.856657069362
 20
1066.363560458474
 30
0.0
 11
1657.875597485854
 21
1066.363560458474
 31
0.0
  0
DIMENSION
  5
7CB8
330
19
100
AcDbEntity
  8
3
100
AcDbDimension
  2
*D6
 10
475.4348173531398
 20
1539.944588401188
 30
0.0
 11
790.4348173531403
 21
1569.944588401187
 31
0.0
 12
48.91610267828219
 22
0.0
 32
0.0
 70
    32
 71
     5
 42
-1.0
  3
IGA
100
AcDbAlignedDimension
 13
1105.43481735314
 23
1402.3635264743
 33
0.0
 14
475.4348173531398
 24
956.3635604584746
 34
0.0
100
AcDbRotatedDimension
1001
ACAD
1000
DSTYLE
1002
{
1070
    40
1040
12.0
1070
   143
1040
0.039
1070
   172
1070
     1
1070
   271
1070
     0
1070
   279
1070
     0
1070
   288
1070
     1
1002
}
  0
LINE
  5
7CB9
330
19
100
AcDbEntity
  8
1
100
AcDbLine
 10
1105.434817353139
 20
2518.523719253986
 30
0.0
 11
1105.43481735314
 21
2328.523719253987
 31
0.0
  0
DIMENSION
  5
7CBA
330
19
100
AcDbEntity
  8
3
100
AcDbDimension
  2
*D7
 10
750.4348173531402
 20
1461.605496850615
 30
0.0
 11
835.43481735314
 21
1491.605496850615
 31
0.0
 12
48.91610267828219
 22
0.0
 32
0.0
 70
    32
 71
     5
 42
-1.0
  3
IGA
100
AcDbAlignedDimension
 13
920.4348173531398
 23
1414.554234797001
 33
0.0
 14
750.4348173531402
 24
1190.363560458474
 34
0.0
100
AcDbRotatedDimension
1001
ACAD
1000
DSTYLE
1002
{
1070
    40
1040
12.0
1070
   143
1040
0.039
1070
   172
1070
     1
1070
   271
1070
     0
1070
   279
1070
     0
1070
   288
1070
     1
1002
}
  0
LINE
  5
7CBB
330
19
100
AcDbEntity
  8
1
100
AcDbLine
 10
750.4348173531402
 20
2498.523719253987
 30
0.0
 11
750.4348173531398
 21
2348.523719253987
 31
0.0
  0
LINE
  5
7CBC
330
19
100
AcDbEntity
  8
2
100
AcDbLine
 10
1128.998702187905
 20
2423.523719253987
 30
0.0
 11
673.0146951365286
 21
2423.523719253987
 31
0.0
  0
LINE
  5
7CBD
330
19
100
AcDbEntity
  8
1
100
AcDbLine
 10
1085.43481735314
 20
2498.523719253986
 30
0.0
 11
750.4348173531398
 21
2498.523719253987
 31
0.0
  0
LINE
  5
7CBE
330
19
100
AcDbEntity
  8
1
100
AcDbLine
 10
1085.43481735314
 20
2348.523719253987
 30
0.0
 11
750.4348173531398
 21
2348.523719253987
 31
0.0
  0
LINE
  5
7CBF
330
19
100
AcDbEntity
  8
1
100
AcDbLine
 10
1105.434817353139
 20
2518.523719253986
 30
0.0
 11
1085.43481735314
 21
2518.523719253987
 31
0.0
  0
LINE
  5
7CC0
330
19
100
AcDbEntity
  8
1
100
AcDbLine
 10
1105.434817353139
 20
2328.523719253987
 30
0.0
 11
1085.43481735314
 21
2328.523719253987
 31
0.0
  0
LINE
  5
7CC1
330
19
100
AcDbEntity
  8
1
100
AcDbLine
 10
1085.434817353139
 20
2518.523719253986
 30
0.0
 11
1085.43481735314
 21
2328.523719253987
 31
0.0
  0
LINE
  5
7CC2
330
19
100
AcDbEntity
  8
1
100
AcDbLine
 10
1095.434817353139
 20
2328.523719253987
 30
0.0
 11
1095.434817353139
 21
2003.523719253986
 31
0.0
  0
LINE
  5
7CC3
330
19
100
AcDbEntity
  8
1
100
AcDbLine
 10
1055.43481735314
 20
2348.523719253987
 30
0.0
 11
1055.434817353139
 21
2003.523719253986
 31
0.0
  0
LINE
  5
7CC4
330
19
100
AcDbEntity
  8
2
100
AcDbLine
 10
920.4348173531398
 20
1977.729123982349
 30
0.0
 11
920.4348173531398
 21
2530.991424846567
 31
0.0
  0
LINE
  5
7CC5
330
19
100
AcDbEntity
  8
1
100
AcDbLine
 10
1000.440782439258
 20
1990.523719253986
 30
0.0
 11
1000.440782439258
 21
2065.523719253986
 31
0.0
  0
LINE
  5
7CC6
330
19
100
AcDbEntity
  8
1
100
AcDbLine
 10
1000.440782439258
 20
1990.523719253986
 30
0.0
 11
490.5831508190694
 21
1990.523719253986
 31
0.0
  0
LINE
  5
7CC7
330
19
100
AcDbEntity
  8
1
100
AcDbLine
 10
875.98481735314
 20
2013.723719253986
 30
0.0
 11
540.4348173531397
 21
2013.723719253984
 31
0.0
  0
LINE
  5
7CC8
330
19
100
AcDbEntity
  8
1
100
AcDbLine
 10
875.98481735314
 20
2051.723719253986
 30
0.0
 11
540.4348173531397
 21
2051.723719253986
 31
0.0
  0
LINE
  5
7CC9
330
19
100
AcDbEntity
  8
1
100
AcDbLine
 10
1000.440782439258
 20
2065.523719253986
 30
0.0
 11
490.5831508190694
 21
2065.523719253986
 31
0.0
  0
LINE
  5
7CCB
330
19
100
AcDbEntity
  8
1
100
AcDbLine
 10
910.4348173531402
 20
2348.523719253987
 30
0.0
 11
910.4348173531398
 21
2061.723719253987
 31
0.0
  0
LINE
  5
7CCC
330
19
100
AcDbEntity
  8
1
100
AcDbLine
 10
930.4348173531398
 20
2348.523719253987
 30
0.0
 11
930.4348173531398
 21
2061.723719253987
 31
0.0
  0
LINE
  5
7CCD
330
19
100
AcDbEntity
  8
1
100
AcDbLine
 10
970.4348173531396
 20
2013.723719253986
 30
0.0
 11
875.98481735314
 21
2013.723719253986
 31
0.0
  0
LINE
  5
7CCE
330
19
100
AcDbEntity
  8
1
100
AcDbLine
 10
970.4348173531396
 20
2051.723719253987
 30
0.0
 11
875.98481735314
 21
2051.723719253986
 31
0.0
  0
LINE
  5
7CCF
330
19
100
AcDbEntity
  8
1
100
AcDbLine
 10
883.9348173531398
 20
2065.523719253987
 30
0.0
 11
976.9348173531398
 21
2065.523719253987
 31
0.0
  0
LINE
  5
7CD1
330
19
100
AcDbEntity
  8
1
100
AcDbLine
 10
929.9348173531397
 20
2051.723719253986
 30
0.0
 11
929.9348173531397
 21
2061.723719253987
 31
0.0
  0
LINE
  5
7CD2
330
19
100
AcDbEntity
  8
1
100
AcDbLine
 10
910.9348173531397
 20
2051.723719253986
 30
0.0
 11
910.9348173531397
 21
2061.723719253987
 31
0.0
  0
LINE
  5
7CD4
330
19
100
AcDbEntity
  8
1
100
AcDbLine
 10
490.5831508190694
 20
2065.523719253986
 30
0.0
 11
490.5831508190694
 21
1990.523719253986
 31
0.0
  0
LINE
  5
7CD6
330
19
100
AcDbEntity
  8
1
100
AcDbLine
 10
515.4348173531402
 20
2087.723719253985
 30
0.0
 11
515.4348173531402
 21
2003.523719253986
 31
0.0
  0
LINE
  5
7CD7
330
19
100
AcDbEntity
  8
1
100
AcDbLine
 10
1020.43481735314
 20
2070.601323341624
 30
0.0
 11
1020.43481735314
 21
2348.523719253987
 31
0.0
  0
LINE
  5
7CD8
330
19
100
AcDbEntity
  8
1
100
AcDbLine
 10
820.4348173531398
 20
2070.601323341624
 30
0.0
 11
820.4348173531398
 21
2348.523719253987
 31
0.0
  0
LINE
  5
7CD9
330
19
100
AcDbEntity
  8
1
100
AcDbLine
 10
1020.434817353139
 20
2070.601323341624
 30
0.0
 11
930.4348173531398
 21
2070.601323341624
 31
0.0
  0
LINE
  5
7CDB
330
19
100
AcDbEntity
  8
1
100
AcDbLine
 10
910.4348173531407
 20
2070.601323341624
 30
0.0
 11
820.4348173531398
 21
2070.601323341624
 31
0.0
  0
DIMENSION
  5
7CDC
330
19
100
AcDbEntity
  8
3
100
AcDbDimension
  2
*D8
 10
1986.243540747229
 20
1518.450616792897
 30
0.0
 11
2025.243540747229
 21
1551.401913525908
 31
0.0
 70
   160
  1
79
 71
     5
 42
-1.0
  3
IGA
100
AcDbAlignedDimension
 13
2064.243540747228
 23
1066.449654345733
 33
0.0
 14
1986.243540747229
 24
1477.055263359539
 34
0.0
100
AcDbRotatedDimension
1001
ACAD
1000
DSTYLE
1002
{
1070
   288
1070
     1
1070
   172
1070
     1
1070
    40
1040
12.0
1070
   271
1070
     0
1070
   143
1040
0.039
1002
}
  0
DIMENSION
  5
7CDD
330
19
100
AcDbEntity
  8
3
100
AcDbDimension
  2
*D9
 10
1553.243540747228
 20
1518.450616792897
 30
0.0
 11
1769.743540747229
 21
1578.450616792897
 31
0.0
 70
    32
  1
MAX\P520
 71
     5
 42
-1.0
  3
IGA
100
AcDbAlignedDimension
 13
1986.243540747229
 23
1477.055263359539
 33
0.0
 14
1553.243540747228
 24
1256.455619431852
 34
0.0
100
AcDbRotatedDimension
1001
ACAD
1000
DSTYLE
1002
{
1070
    40
1040
12.0
1070
   143
1040
0.039
1070
   172
1070
     1
1070
   271
1070
     0
1070
   279
1070
     0
1070
   288
1070
     1
1002
}
  0
DIMENSION
  5
7CDE
330
19
100
AcDbEntity
  8
3
100
AcDbDimension
  2
*D10
 10
2061.243540747228
 20
1433.344554631639
 30
0.0
 11
1986.243540747228
 21
1462.574493836214
 31
0.0
 70
   160
 71
     5
 42
-1.0
  3
IGA
100
AcDbAlignedDimension
 13
1911.243540747228
 23
1375.449654345733
 33
0.0
 14
2061.243540747228
 24
1375.449654345733
 34
0.0
100
AcDbRotatedDimension
1001
ACAD
1000
DSTYLE
1002
{
1070
   288
1070
     1
1070
   172
1070
     1
1070
    40
1040
12.0
1070
   271
1070
     0
1070
   143
1040
0.039
1002
}
  0
DIMENSION
  5
7CDF
330
19
100
AcDbEntity
  8
3
100
AcDbDimension
  2
*D11
 10
2165.260580611068
 20
1066.449654345733
 30
0.0
 11
2135.260580611067
 21
1176.449654345733
 31
0.0
 70
    32
 71
     5
 42
-1.0
  3
IGA
100
AcDbAlignedDimension
 13
2084.243540747228
 23
1286.449654345733
 33
0.0
 14
2084.243540747228
 24
1066.449654345733
 34
0.0
 50
90.0
100
AcDbRotatedDimension
1001
ACAD
1000
DSTYLE
1002
{
1070
     3
1000
φ<>
1070
    40
1040
12.0
1070
   143
1040
0.039
1070
   172
1070
     1
1070
   271
1070
     0
1070
   279
1070
     0
1070
   288
1070
     1
1002
}
  0
LINE
  5
7CE4
330
19
100
AcDbEntity
  8
1
100
AcDbLine
 10
1911.243540747228
 20
1375.449654345733
 30
0.0
 11
2061.243540747228
 21
1175.449654345733
 31
0.0
  0
LINE
  5
7CE5
330
19
100
AcDbEntity
  8
1
100
AcDbLine
 10
1911.243540747228
 20
1175.449654345733
 30
0.0
 11
2061.243540747228
 21
1375.449654345733
 31
0.0
  0
ARC
  5
7D11
330
19
100
AcDbEntity
  8
1
100
AcDbCircle
 10
590.4348173531397
 20
1066.363560458474
 30
0.0
 40
85.0
100
AcDbArc
 50
0.0
 51
244.124466
  0
LINE
  5
7D12
330
19
100
AcDbEntity
  8
2
100
AcDbLine
 10
590.4348173531397
 20
1179.00843556412
 30
0.0
 11
590.4348173531397
 21
911.4246283946163
 31
0.0
  0
ARC
  5
7D13
330
19
100
AcDbEntity
  8
1
100
AcDbCircle
 10
590.4348173531397
 20
1066.363560458474
 30
0.0
 40
85.0
100
AcDbArc
 50
0.0
 51
244.124466
  0
LINE
  5
7D14
330
19
100
AcDbEntity
  8
1
100
AcDbLine
 10
482.9348173531398
 20
956.3635604584742
 30
0.0
 11
697.9348173531398
 21
956.3635604584746
 31
0.0
  0
LINE
  5
7D15
330
19
100
AcDbEntity
  8
1
100
AcDbLine
 10
487.9348173531393
 20
986.3635604584747
 30
0.0
 11
692.9348173531393
 21
986.3635604584747
 31
0.0
  0
LINE
  5
7D16
330
19
100
AcDbEntity
  8
2
100
AcDbLine
 10
472.5524545224925
 20
1066.363560458474
 30
0.0
 11
699.6698458641803
 21
1066.363560458474
 31
0.0
  0
LINE
  5
7D17
330
19
100
AcDbEntity
  8
1
100
AcDbLine
 10
508.6602197873758
 20
986.3635604584747
 30
0.0
 11
528.1116493531398
 21
1008.545056458474
 31
0.0
  0
LINE
  5
7D18
330
19
100
AcDbEntity
  8
1
100
AcDbLine
 10
487.9348173531398
 20
986.3635604584747
 30
0.0
 11
482.9348173531398
 21
956.3635604584742
 31
0.0
  0
LINE
  5
7D19
330
19
100
AcDbEntity
  8
1
100
AcDbLine
 10
512.9348173531398
 20
986.3635604584747
 30
0.0
 11
547.9348173531398
 21
986.3635604584747
 31
0.0
  0
ARC
  5
7D1A
330
19
100
AcDbEntity
  8
1
100
AcDbCircle
 10
590.4348173531397
 20
1066.363560458474
 30
0.0
 40
85.000008
100
AcDbArc
 50
295.9177259999999
 51
0.0
  0
LINE
  5
7D1B
330
19
100
AcDbEntity
  8
1
100
AcDbLine
 10
672.2093260277338
 20
986.3635604584747
 30
0.0
 11
652.7561253531398
 21
1008.547198458474
 31
0.0
  0
LINE
  5
7D1C
330
19
100
AcDbEntity
  8
1
100
AcDbLine
 10
553.3393183531398
 20
989.9126324584749
 30
0.0
 11
627.5866263531398
 21
989.9126324584749
 31
0.0
  0
LINE
  5
7D1D
330
19
100
AcDbEntity
  8
1
100
AcDbLine
 10
667.9348173531398
 20
986.3635604584747
 30
0.0
 11
632.9348173531398
 21
986.3635604584747
 31
0.0
  0
LINE
  5
7D1E
330
19
100
AcDbEntity
  8
1
100
AcDbLine
 10
692.9348173531393
 20
986.3635604584747
 30
0.0
 11
697.9348173531393
 21
956.3635604584746
 31
0.0
  0
LINE
  5
7D1F
330
19
100
AcDbEntity
  8
1
100
AcDbLine
 10
665.2348053531396
 20
2305.723719253985
 30
0.0
 11
665.2348053531396
 21
2087.723719253985
 31
0.0
  0
LINE
  5
7D20
330
19
100
AcDbEntity
  8
1
100
AcDbLine
 10
512.4348173531398
 20
2087.723719253985
 30
0.0
 11
512.4348173531398
 21
2305.723719253985
 31
0.0
  0
LINE
  5
7D21
330
19
100
AcDbEntity
  8
2
100
AcDbLine
 10
590.4348173531397
 20
2311.397364253985
 30
0.0
 11
590.4348173531397
 21
1978.976589919976
 31
0.0
  0
LINE
  5
7D22
330
19
100
AcDbEntity
  8
1
100
AcDbLine
 10
665.2348053531396
 20
2305.723719253985
 30
0.0
 11
512.4348173531398
 21
2305.723719253985
 31
0.0
  0
LINE
  5
7D23
330
19
100
AcDbEntity
  8
1
100
AcDbLine
 10
556.9348173531397
 20
2077.723719253985
 30
0.0
 11
623.9348173531397
 21
2077.723719253985
 31
0.0
  0
LINE
  5
7D24
330
19
100
AcDbEntity
  8
1
100
AcDbLine
 10
512.4348173531398
 20
2087.723719253985
 30
0.0
 11
665.2348053531396
 21
2087.723719253985
 31
0.0
  0
LINE
  5
7D25
330
19
100
AcDbEntity
  8
1
100
AcDbLine
 10
600.9348173531398
 20
2072.723719253985
 30
0.0
 11
600.9348173531398
 21
2077.723719253985
 31
0.0
  0
LINE
  5
7D26
330
19
100
AcDbEntity
  8
1
100
AcDbLine
 10
579.9348173531398
 20
2072.723719253985
 30
0.0
 11
579.9348173531398
 21
2077.723719253985
 31
0.0
  0
LINE
  5
7D27
330
19
100
AcDbEntity
  8
1
100
AcDbLine
 10
556.9348173531397
 20
2087.723719253985
 30
0.0
 11
556.9348173531397
 21
2077.723719253985
 31
0.0
  0
LINE
  5
7D28
330
19
100
AcDbEntity
  8
1
100
AcDbLine
 10
560.4998203531395
 20
2087.723719253985
 30
0.0
 11
551.8698153531395
 21
2087.723719253985
 31
0.0
  0
LINE
  5
7D29
330
19
100
AcDbEntity
  8
1
100
AcDbLine
 10
562.6848783531395
 20
2087.723719253985
 30
0.0
 11
550.4209443531399
 21
2087.723719253985
 31
0.0
  0
LINE
  5
7D2A
330
19
100
AcDbEntity
  8
1
100
AcDbLine
 10
551.7506133531396
 20
2087.723719253985
 30
0.0
 11
560.7506133531396
 21
2087.723719253985
 31
0.0
  0
LINE
  5
7D2B
330
19
100
AcDbEntity
  8
1
100
AcDbLine
 10
599.9348173531398
 20
2072.723719253985
 30
0.0
 11
599.9348173531398
 21
2065.523719253986
 31
0.0
  0
LINE
  5
7D2C
330
19
100
AcDbEntity
  8
1
100
AcDbLine
 10
580.9348173531398
 20
2065.523719253986
 30
0.0
 11
580.9348173531398
 21
2072.723719253985
 31
0.0
  0
LINE
  5
7D2D
330
19
100
AcDbEntity
  8
1
100
AcDbLine
 10
579.9348173531398
 20
2072.723719253985
 30
0.0
 11
600.9348173531398
 21
2072.723719253985
 31
0.0
  0
LINE
  5
7D2E
330
19
100
AcDbEntity
  8
1
100
AcDbLine
 10
623.9348173531397
 20
2077.723719253985
 30
0.0
 11
623.9348173531397
 21
2087.723719253985
 31
0.0
  0
LINE
  5
7D2F
330
19
100
AcDbEntity
  8
1
100
AcDbLine
 10
663.2498203531395
 20
2087.723719253985
 30
0.0
 11
654.6198153531395
 21
2087.723719253985
 31
0.0
  0
LINE
  5
7D30
330
19
100
AcDbEntity
  8
1
100
AcDbLine
 10
654.5006133531396
 20
2087.723719253985
 30
0.0
 11
663.5006133531397
 21
2087.723719253985
 31
0.0
  0
ARC
  5
7D31
330
19
100
AcDbEntity
  8
1
100
AcDbCircle
 10
659.0091123531401
 20
2086.723719253985
 30
0.0
 40
2.0
100
AcDbArc
 50
11.13904000000002
 51
29.99999999999999
  0
LINE
  5
7D32
330
19
100
AcDbEntity
  8
1
100
AcDbLine
 10
1868.443540747227
 20
1141.163548458474
 30
0.0
 11
1650.443540747227
 21
1141.163548458474
 31
0.0
  0
LINE
  5
7D33
330
19
100
AcDbEntity
  8
1
100
AcDbLine
 10
1868.443540747227
 20
1141.163548458474
 30
0.0
 11
1868.443540747227
 21
1139.949654345733
 31
0.0
  0
LINE
  5
7D34
330
19
100
AcDbEntity
  8
1
100
AcDbLine
 10
1632.943540747229
 20
1075.863560458474
 30
0.0
 11
1614.443540747228
 21
1075.863560458474
 31
0.0
  0
LINE
  5
7D35
330
19
100
AcDbEntity
  8
1
100
AcDbLine
 10
1614.443540747228
 20
1056.863560458474
 30
0.0
 11
1632.943540747229
 21
1056.863560458474
 31
0.0
  0
LINE
  5
7D36
330
19
100
AcDbEntity
  8
1
100
AcDbLine
 10
1650.443540747227
 20
1141.163548458474
 30
0.0
 11
1650.443540747228
 21
1139.949654345733
 31
0.0
  0
LINE
  5
8168
330
19
100
AcDbEntity
  8
4
100
AcDbLine
 10
2220.0
 20
600.0
 30
0.0
 11
2220.0
 21
360.0
 31
0.0
  0
LINE
  5
8169
330
19
100
AcDbEntity
  8
4
100
AcDbLine
 10
1380.0
 20
600.0
 30
0.0
 11
1380.0
 21
360.0
 31
0.0
  0
LINE
  5
816A
330
19
100
AcDbEntity
  8
4
100
AcDbLine
 10
780.0
 20
600.0
 30
0.0
 11
780.0
 21
360.0
 31
0.0
  0
LINE
  5
816D
330
19
100
AcDbEntity
  8
4
100
AcDbLine
 10
780.0
 20
360.0
 30
0.0
 11
2220.0
 21
360.0
 31
0.0
  0
LINE
  5
816E
330
19
100
AcDbEntity
  8
4
100
AcDbLine
 10
780.0
 20
480.0
 30
0.0
 11
2220.0
 21
480.0
 31
0.0
  0
TEXT
  5
816F
330
19
100
AcDbEntity
  8
4
100
AcDbText
 10
826.2024970162819
 20
517.8516310399354
 30
0.0
 40
60.0
  1
機器名称
100
AcDbText
  0
TEXT
  5
8170
330
19
100
AcDbEntity
  8
4
100
AcDbText
 10
823.509727229757
 20
385.9741880784131
 30
0.0
 40
60.0
  1
機器型番
100
AcDbText
  0
TEXT
  5
8171
330
19
100
AcDbEntity
  8
4
100
AcDbText
 10
1413.214494585197
 20
507.0861227490822
 30
0.0
 40
60.0
  1
ミツヤ多翼送風機
100
AcDbText
  0
TEXT
  5
8172
330
19
100
AcDbEntity
  8
4
100
AcDbText
 10
1423.985394702576
 20
380.591501135932
 30
0.0
 40
60.0
  1
MF#1 1/4-1
100
AcDbText
  0
TEXT
  5
8174
330
19
100
AcDbEntity
  8
4
100
AcDbText
 10
889.8944015943744
 20
2860.114609599019
 30
0.0
 40
64.8
  1
床置防振ベット
100
AcDbText
  0
TEXT
  5
8175
330
19
100
AcDbEntity
  8
4
100
AcDbText
 10
379.4011119953356
 20
3040.657171439157
 30
0.0
 40
86.4
  1
遠心式片吸込片持多翼ファン
100
AcDbText
  0
LINE
  5
8176
330
19
100
AcDbEntity
  8
4
100
AcDbLine
 10
300.0
 20
2963.290505117766
 30
0.0
 11
2220.0
 21
2963.290505117766
 31
0.0
  0
LINE
  5
8177
330
19
100
AcDbEntity
  8
4
100
AcDbLine
 10
300.0
 20
3203.290505117765
 30
0.0
 11
2220.0
 21
3203.290505117765
 31
0.0
  0
LINE
  5
8178
330
19
100
AcDbEntity
  8
4
100
AcDbLine
 10
780.0
 20
600.0
 30
0.0
 11
2220.0
 21
600.0
 31
0.0
  0
LINE
  5
8179
330
19
100
AcDbEntity
  8
4
100
AcDbLine
 10
300.0
 20
3203.290505117765
 30
0.0
 11
300.0
 21
2963.290505117766
 31
0.0
  0
TEXT
  5
817A
330
19
100
AcDbEntity
  8
4
100
AcDbText
 10
366.8638029031317
 20
2858.783373055612
 30
0.0
 40
64.8
  1
右回転右横向
100
AcDbText
  0
TEXT
  5
817B
330
19
100
AcDbEntity
  8
4
100
AcDbText
 10
1762.763471099147
 20
3247.27329779437
 30
0.0
 40
67.2
  1
No.
100
AcDbText
  0
TEXT
  5
817C
330
19
100
AcDbEntity
  8
4
100
AcDbText
 10
1573.555275120015
 20
2860.114609599019
 30
0.0
 40
64.8
  1
縮尺：1/12
100
AcDbText
  0
LINE
  5
817D
330
19
100
AcDbEntity
  8
4
100
AcDbLine
 10
2220.0
 20
3203.290505117765
 30
0.0
 11
2220.0
 21
2963.290505117766
 31
0.0
  0
LINE
  5
817E
330
19
100
AcDbEntity
  8
4
100
AcDbLine
 10
2520.0
 20
3540.0
 30
0.0
 11
2520.0
 21
3540.0
 31
0.0
  0
LINE
  5
817F
330
19
100
AcDbEntity
  8
4
100
AcDbLine
 10
1728.740906831837
 20
3217.516299750481
 30
0.0
 11
1728.740906831837
 21
3343.982713859703
 31
0.0
  0
LINE
  5
8180
330
19
100
AcDbEntity
  8
4
100
AcDbLine
 10
1728.740906831837
 20
3343.982713859703
 30
0.0
 11
2220.0
 21
3343.982713859703
 31
0.0
  0
LINE
  5
8181
330
19
100
AcDbEntity
  8
4
100
AcDbLine
 10
2220.0
 20
3343.982713859703
 30
0.0
 11
2220.0
 21
3217.516299750481
 31
0.0
  0
LINE
  5
8182
330
19
100
AcDbEntity
  8
4
100
AcDbLine
 10
2220.0
 20
3217.516299750481
 30
0.0
 11
1728.740906831837
 21
3217.516299750481
 31
0.0
  0
LINE
  5
8183
330
19
100
AcDbEntity
  8
4
100
AcDbLine
 10
0.0
 20
0.0
 30
0.0
 11
0.0
 21
3540.0
 31
0.0
  0
LINE
  5
8184
330
19
100
AcDbEntity
  8
4
100
AcDbLine
 10
0.0
 20
3540.0
 30
0.0
 11
2520.0
 21
3540.0
 31
0.0
  0
LINE
  5
8185
330
19
100
AcDbEntity
  8
4
100
AcDbLine
 10
2520.0
 20
3540.0
 30
0.0
 11
2520.0
 21
0.0
 31
0.0
  0
LINE
  5
8186
330
19
100
AcDbEntity
  8
4
100
AcDbLine
 10
2520.0
 20
0.0
 30
0.0
 11
0.0
 21
0.0
 31
0.0
  0
CIRCLE
  5
8227
330
19
100
AcDbEntity
  8
1
100
AcDbCircle
 10
920.4348173531396
 20
1176.363560458474
 30
0.0
 40
50.0
  0
CIRCLE
  5
8228
330
19
100
AcDbEntity
  8
1
100
AcDbCircle
 10
590.4348173531397
 20
1066.363560458474
 30
0.0
 40
50.0
  0
LINE
  5
8229
330
19
100
AcDbEntity
  8
1
100
AcDbLine
 10
904.6234290522976
 20
1223.797725361
 30
0.0
 11
574.6234290522978
 21
1113.797725361
 31
0.0
  0
LINE
  5
822A
330
19
100
AcDbEntity
  8
1
100
AcDbLine
 10
936.2462056539815
 20
1128.929395555948
 30
0.0
 11
606.2462056539817
 21
1018.929395555949
 31
0.0
  0
LINE
  5
822B
330
19
100
AcDbEntity
  8
1
100
AcDbLine
 10
1576.443540747229
 20
1226.449654345733
 30
0.0
 11
1614.443540747229
 21
1226.449654345733
 31
0.0
  0
LINE
  5
822C
330
19
100
AcDbEntity
  8
1
100
AcDbLine
 10
1576.443540747228
 20
1126.449654345733
 30
0.0
 11
1614.443540747229
 21
1126.449654345733
 31
0.0
  0
LINE
  5
822D
330
19
100
AcDbEntity
  8
1
100
AcDbLine
 10
1576.443540747228
 20
1116.363560458474
 30
0.0
 11
1614.443540747229
 21
1116.363560458474
 31
0.0
  0
LINE
  5
822E
330
19
100
AcDbEntity
  8
1
100
AcDbLine
 10
1576.443540747227
 20
1016.363560458474
 30
0.0
 11
1614.443540747229
 21
1016.363560458474
 31
0.0
  0
LINE
  5
822F
330
19
100
AcDbEntity
  8
1
100
AcDbLine
 10
970.4348173531398
 20
2013.723719253986
 30
0.0
 11
970.43481735314
 21
2051.723719253987
 31
0.0
  0
LINE
  5
8230
330
19
100
AcDbEntity
  8
1
100
AcDbLine
 10
870.4348173531398
 20
2013.723719253986
 30
0.0
 11
870.4348173531398
 21
2051.723719253987
 31
0.0
  0
LINE
  5
8231
330
19
100
AcDbEntity
  8
1
100
AcDbLine
 10
540.4348173531397
 20
2051.723719253986
 30
0.0
 11
540.4348173531397
 21
2013.723719253984
 31
0.0
  0
LINE
  5
8232
330
19
100
AcDbEntity
  8
1
100
AcDbLine
 10
640.4348173531396
 20
2051.723719253986
 30
0.0
 11
640.4348173531396
 21
2013.723719253984
 31
0.0
  0
LINE
  5
8238
330
19
100
AcDbEntity
  8
1
100
AcDbLine
 10
1628.243540747228
 20
978.2186047108053
 30
0.0
 11
1628.243540747228
 21
956.4496543457336
 31
0.0
  0
LINE
  5
857B
330
19
100
AcDbEntity
  8
1
100
AcDbLine
 10
1055.434817353139
 20
2043.523719253987
 30
0.0
 11
515.4348173531402
 21
2043.52371925399
 31
0.0
  0
LINE
  5
857C
330
19
100
AcDbEntity
  8
1
100
AcDbLine
 10
1055.43481735314
 20
2343.523719253987
 30
0.0
 11
1020.43481735314
 21
2343.523719253986
 31
0.0
  0
LINE
  5
857D
330
19
100
AcDbEntity
  8
1
100
AcDbLine
 10
820.4348173531396
 20
2343.523719253986
 30
0.0
 11
515.4348173531404
 21
2343.523719253987
 31
0.0
  0
DIMENSION
  5
858C
330
19
100
AcDbEntity
  8
3
100
AcDbDimension
  2
*D12
 10
399.750292821538
 20
2003.52371925399
 30
0.0
 11
399.750292821538
 21
2187.908923321319
 31
0.0
 12
48.91610267828219
 22
0.0
 32
0.0
 70
   160
 71
     5
 42
-1.0
  3
IGA
100
AcDbAlignedDimension
 13
475.4348173531402
 23
2383.523719253987
 33
0.0
 14
475.4348173531402
 24
2003.52371925399
 34
0.0
 50
90.0
100
AcDbRotatedDimension
1001
ACAD
1000
DSTYLE
1002
{
1070
    40
1040
12.0
1070
   143
1040
0.039
1070
   172
1070
     1
1070
   271
1070
     0
1070
   279
1070
     0
1070
   288
1070
     1
1002
}
  0
DIMENSION
  5
8599
330
19
100
AcDbEntity
  8
3
100
AcDbDimension
  2
*D13
 10
1095.434817353139
 20
1893.525202040117
 30
0.0
 11
774.9391739283638
 21
1893.525202040117
 31
0.0
 12
48.91610267828219
 22
0.0
 32
0.0
 70
   160
 71
     5
 42
-1.0
  3
IGA
100
AcDbAlignedDimension
 13
475.4348173531402
 23
2003.52371925399
 33
0.0
 14
1095.434817353139
 24
2003.523719253986
 34
0.0
100
AcDbRotatedDimension
1001
ACAD
1000
DSTYLE
1002
{
1070
    40
1040
12.0
1070
   143
1040
0.039
1070
   172
1070
     1
1070
   271
1070
     0
1070
   279
1070
     0
1070
   288
1070
     1
1002
}
  0
DIMENSION
  5
85E7
330
19
100
AcDbEntity
  8
3
100
AcDbDimension
  2
*D14
 10
920.4348173531393
 20
770.8546429684856
 30
0.0
 11
697.9348173531396
 21
800.8546429684857
 31
0.0
 12
0.0
 22
-62.0
 32
0.0
 70
    32
 71
     5
 42
-1.0
  3
IGA
100
AcDbAlignedDimension
 13
475.4348173531398
 23
854.3635604584746
 33
0.0
 14
920.4348173531393
 24
854.3635604584746
 34
0.0
100
AcDbRotatedDimension
1001
ACAD
1000
DSTYLE
1002
{
1070
    40
1040
12.0
1070
   143
1040
0.039
1070
   172
1070
     1
1070
   271
1070
     0
1070
   279
1070
     0
1002
}
  0
DIMENSION
  5
85F4
330
19
100
AcDbEntity
  8
3
100
AcDbDimension
  2
*D15
 10
1095.434817353139
 20
770.8546429684856
 30
0.0
 11
1007.934817353139
 21
800.8546429684857
 31
0.0
 12
0.0
 22
-62.0
 32
0.0
 70
    32
 71
     5
 42
-1.0
  3
IGA
100
AcDbAlignedDimension
 13
920.4348173531393
 23
854.3635604584746
 33
0.0
 14
1095.434817353139
 24
854.3635604584743
 34
0.0
100
AcDbRotatedDimension
1001
ACAD
1000
DSTYLE
1002
{
1070
    40
1040
12.0
1070
   143
1040
0.039
1070
   172
1070
     1
1070
   271
1070
     0
1070
   279
1070
     0
1002
}
  0
DIMENSION
  5
8601
330
19
100
AcDbEntity
  8
3
100
AcDbDimension
  2
*D16
 10
1946.243540747229
 20
770.8546429684856
 30
0.0
 11
1756.243540747229
 21
800.8546429684857
 31
0.0
 12
0.0
 22
-62.0
 32
0.0
 70
    32
 71
     5
 42
-1.0
  3
IGA
100
AcDbAlignedDimension
 13
1566.243540747229
 23
854.4496543457334
 33
0.0
 14
1946.243540747229
 24
854.449654345734
 34
0.0
100
AcDbRotatedDimension
1001
ACAD
1000
DSTYLE
1002
{
1070
    40
1040
12.0
1070
   143
1040
0.039
1070
   172
1070
     1
1070
   271
1070
     0
1070
   279
1070
     0
1002
}
  0
DIMENSION
  5
8610
330
19
100
AcDbEntity
  8
3
100
AcDbDimension
  2
*D17
 10
1986.243540747229
 20
770.8546429684856
 30
0.0
 11
2075.386397890086
 21
800.8546429684857
 31
0.0
 12
0.0
 22
-62.0
 32
0.0
 70
    32
 71
     5
 42
-1.0
  3
IGA
100
AcDbAlignedDimension
 13
1946.243540747229
 23
854.449654345734
 33
0.0
 14
1986.243540747229
 24
854.449654345734
 34
0.0
100
AcDbRotatedDimension
1001
ACAD
1000
DSTYLE
1002
{
1070
    40
1040
12.0
1070
   143
1040
0.039
1070
   172
1070
     1
1070
   271
1070
     0
1070
   279
1070
     0
1002
}
  0
LINE
  5
8623
330
19
100
AcDbEntity
  8
1
100
AcDbLine
 10
1566.243540747229
 20
854.4496543457334
 30
0.0
 11
1946.243540747229
 21
854.449654345734
 31
0.0
  0
LINE
  5
8624
330
19
100
AcDbEntity
  8
1
100
AcDbLine
 10
1566.243540747229
 20
894.4496543457335
 30
0.0
 11
1946.243540747229
 21
894.449654345734
 31
0.0
  0
LINE
  5
8625
330
19
100
AcDbEntity
  8
1
100
AcDbLine
 10
1946.243540747229
 20
854.449654345734
 30
0.0
 11
1946.24354074723
 21
894.449654345734
 31
0.0
  0
LINE
  5
8626
330
19
100
AcDbEntity
  8
1
100
AcDbLine
 10
1566.243540747229
 20
854.4496543457334
 30
0.0
 11
1566.243540747229
 21
894.4496543457335
 31
0.0
  0
LINE
  5
8627
330
19
100
AcDbEntity
  8
1
100
AcDbLine
 10
475.4348173531398
 20
894.3635604584747
 30
0.0
 11
1095.434817353139
 21
894.3635604584741
 31
0.0
  0
LINE
  5
8628
330
19
100
AcDbEntity
  8
1
100
AcDbLine
 10
1095.434817353139
 20
894.3635604584741
 30
0.0
 11
1095.434817353139
 21
854.3635604584743
 31
0.0
  0
LINE
  5
8629
330
19
100
AcDbEntity
  8
1
100
AcDbLine
 10
1095.434817353139
 20
854.3635604584746
 30
0.0
 11
475.4348173531398
 21
854.3635604584746
 31
0.0
  0
LINE
  5
862A
330
19
100
AcDbEntity
  8
1
100
AcDbLine
 10
475.4348173531398
 20
894.3635604584747
 30
0.0
 11
475.4348173531398
 21
854.3635604584746
 31
0.0
  0
DIMENSION
  5
863A
330
19
100
AcDbEntity
  8
3
100
AcDbDimension
  2
*D18
 10
1226.049785297804
 20
854.3635604584746
 30
0.0
 11
1196.049785297804
 21
765.2207033156176
 31
0.0
 70
    32
 71
     5
 42
-1.0
  3
IGA
100
AcDbAlignedDimension
 13
1095.434817353139
 23
894.3635604584741
 33
0.0
 14
1095.434817353139
 24
854.3635604584746
 34
0.0
 50
90.0
100
AcDbRotatedDimension
1001
ACAD
1000
DSTYLE
1002
{
1070
    40
1040
12.0
1070
   143
1040
0.039
1070
   172
1070
     1
1070
   271
1070
     0
1070
   279
1070
     0
1070
   343
1005
7A02
1002
}
  0
DIMENSION
  5
8649
330
19
100
AcDbEntity
  8
3
100
AcDbDimension
  2
*D19
 10
1226.049785297804
 20
916.3635604584747
 30
0.0
 11
1283.478356726375
 21
905.3635604584744
 31
0.0
 70
    32
 71
     5
 42
-1.0
  3
IGA
100
AcDbAlignedDimension
 13
1095.434817353139
 23
894.3635604584741
 33
0.0
 14
1095.434817353139
 24
916.3635604584747
 34
0.0
 50
90.0
100
AcDbRotatedDimension
1001
ACAD
1000
DSTYLE
1002
{
1070
   172
1070
     1
1070
    40
1040
12.0
1070
     3
1000
(<>)
1070
   271
1070
     0
1070
     6
1000
_DOT
1070
   143
1040
0.039
1002
}
  0
DIMENSION
  5
8656
330
19
100
AcDbEntity
  8
3
100
AcDbDimension
  2
*D20
 10
1342.508341295837
 20
854.3635604584746
 30
0.0
 11
1303.079769867266
 21
1125.863543466387
 31
0.0
 70
    32
 71
     5
 42
-1.0
  3
IGA
100
AcDbAlignedDimension
 13
1105.43481735314
 23
1397.3635264743
 33
0.0
 14
1095.434817353139
 24
854.3635604584746
 34
0.0
 50
90.0
100
AcDbRotatedDimension
1001
ACAD
1000
DSTYLE
1002
{
1070
   172
1070
     1
1070
    40
1040
12.0
1070
     3
1000
(<>)
1070
   271
1070
     0
1070
   143
1040
0.039
1002
}
  0
ENDSEC
  0
SECTION
  2
OBJECTS
  0
DICTIONARY
  5
C
330
0
100
AcDbDictionary
281
     1
  3
ACAD_GROUP
350
D
  3
ACAD_LAYOUT
350
865B
  3
ACAD_MLINESTYLE
350
E
  3
ACAD_PLOTSETTINGS
350
865C
  3
ACAD_PLOTSTYLENAME
350
8659
  0
DICTIONARY
  5
D
102
{ACAD_REACTORS
330
C
102
}
330
C
100
AcDbDictionary
281
     1
  0
DICTIONARY
  5
865B
102
{ACAD_REACTORS
330
C
102
}
330
C
100
AcDbDictionary
281
     1
  3
Model
350
865D
  3
ﾚｲｱｳﾄ1
350
865E
  0
DICTIONARY
  5
E
102
{ACAD_REACTORS
330
C
102
}
330
C
100
AcDbDictionary
281
     1
  3
STANDARD
350
1C
  0
DICTIONARY
  5
865C
102
{ACAD_REACTORS
330
C
102
}
330
C
100
AcDbDictionary
281
     1
  0
ACDBDICTIONARYWDFLT
  5
8659
102
{ACAD_REACTORS
330
C
102
}
330
C
100
AcDbDictionary
281
     1
  3
Normal
350
865A
100
AcDbDictionaryWithDefault
340
865A
  0
LAYOUT
  5
865D
102
{ACAD_REACTORS
330
865B
102
}
330
865B
100
AcDbPlotSettings
  1

  2
EPSON LP-9300
  4

  6

 40
0.0
 41
0.0
 42
0.0
 43
0.0
 44
0.0
 45
0.0
 46
0.0
 47
0.0
 48
0.0
 49
0.0
140
0.0
141
0.0
142
1.0
143
1.0
 70
  1712
 72
     0
 73
     0
 74
     0
  7

 75
     0
147
1.0
148
0.0
149
0.0
100
AcDbLayout
  1
Model
 70
     1
 71
     0
 10
0.0
 20
0.0
 11
12.0
 21
9.0
 12
0.0
 22
0.0
 32
0.0
 14
0.0
 24
0.0
 34
0.0
 15
0.0
 25
0.0
 35
0.0
146
0.0
 13
0.0
 23
0.0
 33
0.0
 16
1.0
 26
0.0
 36
0.0
 17
0.0
 27
1.0
 37
0.0
 76
     0
330
19
  0
LAYOUT
  5
865E
102
{ACAD_REACTORS
330
865B
102
}
330
865B
100
AcDbPlotSettings
  1

  2
EPSON LP-9300
  4

  6

 40
0.0
 41
0.0
 42
0.0
 43
0.0
 44
0.0
 45
0.0
 46
0.0
 47
0.0
 48
0.0
 49
0.0
140
0.0
141
0.0
142
1.0
143
1.0
 70
   688
 72
     0
 73
     0
 74
     5
  7

 75
    16
147
1.0
148
0.0
149
0.0
100
AcDbLayout
  1
ﾚｲｱｳﾄ1
 70
     1
 71
     1
 10
0.0
 20
0.0
 11
12.0
 21
9.0
 12
0.0
 22
0.0
 32
0.0
 14
1.000000000000000E+20
 24
1.000000000000000E+20
 34
1.000000000000000E+20
 15
-1.000000000000000E+20
 25
-1.000000000000000E+20
 35
-1.000000000000000E+20
146
0.0
 13
0.0
 23
0.0
 33
0.0
 16
1.0
 26
0.0
 36
0.0
 17
0.0
 27
1.0
 37
0.0
 76
     0
330
16
  0
MLINESTYLE
  5
1C
102
{ACAD_REACTORS
330
E
102
}
330
E
100
AcDbMlineStyle
  2
STANDARD
 70
     0
  3

 62
     0
 51
90.0
 52
90.0
 71
     2
 49
0.5
 62
   256
  6
BYLAYER
 49
-0.5
 62
   256
  6
BYLAYER
  0
ACDBPLACEHOLDER
  5
865A
102
{ACAD_REACTORS
330
8659
102
}
330
8659
  0
ENDSEC
  0
EOF
