  0
SECTION
  2
HEADER
  9
$ACADVER
  1
AC1009
  9
$INSBASE
 10
0.0
 20
0.0
 30
0.0
  9
$EXTMIN
 10
0.0
 20
0.0
 30
0.0
  9
$EXTMAX
 10
2520.0
 20
3540.0
 30
0.0
  9
$LIMMIN
 10
0.0
 20
0.0
  9
$LIMMAX
 10
297.0
 20
210.0
  9
$ORTHOMODE
 70
     0
  9
$REGENMODE
 70
     1
  9
$FILLMODE
 70
     0
  9
$QTEXTMODE
 70
     0
  9
$MIRRTEXT
 70
     1
  9
$DRAGMODE
 70
     2
  9
$LTSCALE
 40
100.0
  9
$OSMODE
 70
    37
  9
$ATTMODE
 70
     1
  9
$TEXTSIZE
 40
180.0
  9
$TRACEWID
 40
0.05
  9
$TEXTSTYLE
  7
STANDARD
  9
$CLAYER
  8
3
  9
$CELTYPE
  6
BYLAYER
  9
$CECOLOR
 62
   256
  9
$DIMSCALE
 40
12.0
  9
$DIMASZ
 40
2.0
  9
$DIMEXO
 40
0.5
  9
$DIMDLI
 40
10.0
  9
$DIMRND
 40
0.0
  9
$DIMDLE
 40
0.0
  9
$DIMEXE
 40
1.0
  9
$DIMTP
 40
1.0
  9
$DIMTM
 40
1.0
  9
$DIMTXT
 40
3.0
  9
$DIMCEN
 40
0.0
  9
$DIMTSZ
 40
0.0
  9
$DIMTOL
 70
     0
  9
$DIMLIM
 70
     0
  9
$DIMTIH
 70
     0
  9
$DIMTOH
 70
     0
  9
$DIMSE1
 70
     0
  9
$DIMSE2
 70
     0
  9
$DIMTAD
 70
     1
  9
$DIMZIN
 70
     8
  9
$DIMBLK
  1

  9
$DIMASO
 70
     1
  9
$DIMSHO
 70
     1
  9
$DIMPOST
  1
(<>)
  9
$DIMAPOST
  1

  9
$DIMALT
 70
     0
  9
$DIMALTD
 70
     2
  9
$DIMALTF
 40
0.039
  9
$DIMLFAC
 40
1.0
  9
$DIMTOFL
 70
     1
  9
$DIMTVP
 40
0.0
  9
$DIMTIX
 70
     0
  9
$DIMSOXD
 70
     0
  9
$DIMSAH
 70
     1
  9
$DIMBLK1
  1
OPEN
  9
$DIMBLK2
  1
OPEN
  9
$DIMSTYLE
  2
IGA
  9
$DIMCLRD
 70
     0
  9
$DIMCLRE
 70
     0
  9
$DIMCLRT
 70
     0
  9
$DIMTFAC
 40
10.0
  9
$DIMGAP
 40
1.0
  9
$LUNITS
 70
     2
  9
$LUPREC
 70
     3
  9
$SKETCHINC
 40
0.1
  9
$FILLETRAD
 40
50.0
  9
$AUNITS
 70
     0
  9
$AUPREC
 70
     0
  9
$MENU
  1
acad
  9
$ELEVATION
 40
0.0
  9
$PELEVATION
 40
0.0
  9
$THICKNESS
 40
0.0
  9
$LIMCHECK
 70
     0
  9
$BLIPMODE
 70
     0
  9
$CHAMFERA
 40
0.5
  9
$CHAMFERB
 40
0.5
  9
$SKPOLY
 70
     0
  9
$TDCREATE
 40
2451936.457337962
  9
$TDUPDATE
 40
2454953.7506367471
  9
$TDINDWG
 40
0.0499271528
  9
$TDUSRTIMER
 40
0.0499271528
  9
$USRTIMER
 70
     1
  9
$ANGBASE
 50
0.0
  9
$ANGDIR
 70
     0
  9
$PDMODE
 70
     0
  9
$PDSIZE
 40
0.0
  9
$PLINEWID
 40
0.0
  9
$COORDS
 70
     1
  9
$SPLFRAME
 70
     0
  9
$SPLINETYPE
 70
     6
  9
$SPLINESEGS
 70
     8
  9
$ATTDIA
 70
     0
  9
$ATTREQ
 70
     1
  9
$HANDLING
 70
 10241
  9
$HANDSEED
  5
843A
  9
$SURFTAB1
 70
     6
  9
$SURFTAB2
 70
     6
  9
$SURFTYPE
 70
     6
  9
$SURFU
 70
     6
  9
$SURFV
 70
     6
  9
$UCSNAME
  2

  9
$UCSORG
 10
0.0
 20
0.0
 30
0.0
  9
$UCSXDIR
 10
1.0
 20
0.0
 30
0.0
  9
$UCSYDIR
 10
0.0
 20
1.0
 30
0.0
  9
$PUCSNAME
  2

  9
$PUCSORG
 10
0.0
 20
0.0
 30
0.0
  9
$PUCSXDIR
 10
1.0
 20
0.0
 30
0.0
  9
$PUCSYDIR
 10
0.0
 20
1.0
 30
0.0
  9
$USERI1
 70
     0
  9
$USERI2
 70
     0
  9
$USERI3
 70
     0
  9
$USERI4
 70
     0
  9
$USERI5
 70
     0
  9
$USERR1
 40
0.0
  9
$USERR2
 40
0.0
  9
$USERR3
 40
0.0
  9
$USERR4
 40
0.0
  9
$USERR5
 40
0.0
  9
$WORLDVIEW
 70
     1
  9
$SHADEDGE
 70
     3
  9
$SHADEDIF
 70
    70
  9
$TILEMODE
 70
     1
  9
$MAXACTVP
 70
    16
  9
$PLIMCHECK
 70
     0
  9
$PEXTMIN
 10
1.0000000000000000E+020
 20
1.0000000000000000E+020
 30
1.0000000000000000E+020
  9
$PEXTMAX
 10
-1.0000000000000000E+020
 20
-1.0000000000000000E+020
 30
-1.0000000000000000E+020
  9
$PLIMMIN
 10
0.0
 20
0.0
  9
$PLIMMAX
 10
12.0
 20
9.0
  9
$UNITMODE
 70
     0
  9
$VISRETAIN
 70
     0
  9
$PLINEGEN
 70
     0
  9
$PSLTSCALE
 70
     1
  0
ENDSEC
  0
SECTION
  2
TABLES
  0
TABLE
  2
VPORT
 70
     2
  0
VPORT
  2
*ACTIVE
 70
     0
 10
0.0
 20
0.0
 11
1.0
 21
1.0
 12
4243.9319506216398
 22
1770.000008242205
 13
0.0
 23
0.0
 14
10.0
 24
10.0
 15
10.0
 25
10.0
 16
0.0
 26
0.0
 36
1.0
 17
0.0
 27
0.0
 37
0.0
 40
3567.1378596203222
 41
3.1666666666666661
 42
50.0
 43
0.0
 44
0.0
 50
0.0
 51
0.0
 71
     0
 72
   100
 73
     1
 74
     0
 75
     0
 76
     0
 77
     0
 78
     0
  0
ENDTAB
  0
TABLE
  2
LTYPE
 70
     2
  0
LTYPE
  2
CONTINUOUS
 70
     0
  3
Solid line
 72
    65
 73
     0
 40
0.0
  0
LTYPE
  2
CENTER
 70
     0
  3
____ _ ____ _ ____ _ ____ _ ____ _ ____ _ ____ 
 72
    65
 73
     4
 40
2.0
 49
1.25
 49
-0.25
 49
0.25
 49
-0.25
  0
ENDTAB
  0
TABLE
  2
LAYER
 70
     6
  0
LAYER
  2
0
 70
     0
 62
     7
  6
CONTINUOUS
  0
LAYER
  2
3
 70
     0
 62
     2
  6
CONTINUOUS
  0
LAYER
  2
2
 70
     0
 62
     3
  6
CENTER
  0
LAYER
  2
1
 70
     0
 62
     4
  6
CONTINUOUS
  0
LAYER
  2
4
 70
     0
 62
     7
  6
CONTINUOUS
  0
LAYER
  2
DEFPOINTS
 70
     0
 62
     7
  6
CONTINUOUS
  0
ENDTAB
  0
TABLE
  2
STYLE
 70
     1
  0
STYLE
  2
STANDARD
 70
     0
 40
0.0
 41
1.0
 50
0.0
 71
     0
 42
180.0
  3
simplex.shx
  4
extfont.shx
  0
ENDTAB
  0
TABLE
  2
VIEW
 70
     0
  0
ENDTAB
  0
TABLE
  2
UCS
 70
     0
  0
ENDTAB
  0
TABLE
  2
APPID
 70
     1
  0
APPID
  2
ACAD
 70
     0
  0
ENDTAB
  0
TABLE
  2
DIMSTYLE
 70
     1
  0
DIMSTYLE
  2
IGA
 70
     0
  3

  4

  5

  6
OPEN
  7
OPEN
 40
2.0
 41
2.0
 42
0.5
 43
10.0
 44
1.0
 45
0.0
 46
0.0
 47
1.0
 48
1.0
140
3.0
141
0.0
142
0.0
143
0.03937
144
1.0
145
0.0
146
10.0
147
1.0
 71
     0
 72
     0
 73
     0
 74
     0
 75
     0
 76
     0
 77
     1
 78
     8
170
     0
171
     2
172
     0
173
     1
174
     0
175
     0
176
     0
177
     0
178
     0
  0
ENDTAB
  0
ENDSEC
  0
SECTION
  2
BLOCKS
  0
BLOCK
  8
0
  2
$MODEL_SPACE
 70
     0
 10
0.0
 20
0.0
 30
0.0
  3
$MODEL_SPACE
  1

  0
ENDBLK
  5
1B
  8
0
  0
BLOCK
 67
     1
  8
0
  2
$PAPER_SPACE
 70
     0
 10
0.0
 20
0.0
 30
0.0
  3
$PAPER_SPACE
  1

  0
ENDBLK
  5
18
 67
     1
  8
0
  0
BLOCK
  8
0
  2
_OPEN
 70
     0
 10
0.0
 20
0.0
 30
0.0
  3
_OPEN
  1

  0
LINE
  5
79FD
  8
0
  6
BYBLOCK
 62
     0
 10
-1.0
 20
0.1666666666666666
 30
0.0
 11
0.0
 21
0.0
 31
0.0
  0
LINE
  5
79FE
  8
0
  6
BYBLOCK
 62
     0
 10
0.0
 20
0.0
 30
0.0
 11
-1.0
 21
-0.1666666666666666
 31
0.0
  0
LINE
  5
79FF
  8
0
  6
BYBLOCK
 62
     0
 10
0.0
 20
0.0
 30
0.0
 11
-1.0
 21
0.0
 31
0.0
  0
ENDBLK
  5
7A01
  8
0
  0
BLOCK
  8
0
  2
*D1
 70
     1
 10
0.0
 20
0.0
 30
0.0
  3
*D1
  1

  0
LINE
  5
839C
  8
3
 62
     0
 10
942.33874170275567
 20
1205.3190139031119
 30
0.0
 11
1011.0855489014961
 21
1205.3190139031119
 31
0.0
  0
LINE
  5
839D
  8
3
 62
     0
 10
942.33874170275567
 20
1005.319013903112
 30
0.0
 11
1011.0855489014961
 21
1005.319013903112
 31
0.0
  0
LINE
  5
839E
  8
3
 62
     0
 10
999.08554890149605
 20
1181.3190139031119
 30
0.0
 11
999.08554890149605
 21
1029.3190139031119
 31
0.0
  0
INSERT
  5
839F
  8
3
 62
     0
  2
_OPEN
 10
999.08554890149605
 20
1205.3190139031119
 30
0.0
 41
24.0
 42
24.0
 43
24.0
 50
90.0
  0
INSERT
  5
83A0
  8
3
 62
     0
  2
_OPEN
 10
999.08554890149605
 20
1005.319013903112
 30
0.0
 41
24.0
 42
24.0
 43
24.0
 50
270.0
  0
TEXT
  8
3
  40
36
  5
842A
  62
0
  72
0
  71
0
 10
897.086
 20
1041.60
 30
0.000000
  1
200
  0
POINT
  5
83A2
  8
DEFPOINTS
 62
     0
 10
936.33874170275556
 20
1205.3190139031119
 30
0.0
  0
POINT
  5
83A3
  8
DEFPOINTS
 62
     0
 10
936.33874170275556
 20
1005.319013903112
 30
0.0
  0
POINT
  5
83A4
  8
DEFPOINTS
 62
     0
 10
999.08554890149605
 20
1005.319013903112
 30
0.0
  0
ENDBLK
  5
806A
  8
0
  0
BLOCK
  8
0
  2
*D2
 70
     1
 10
0.0
 20
0.0
 30
0.0
  3
*D2
  1

  0
LINE
  5
83A5
  8
3
 62
     0
 10
942.70314382692595
 20
1204.3190139031119
 30
0.0
 11
1073.7823206106989
 21
1204.3190139031119
 31
0.0
  0
LINE
  5
83A6
  8
3
 62
     0
 10
942.33874170275567
 20
1005.319013903112
 30
0.0
 11
1073.7823206106989
 21
1005.319013903112
 31
0.0
  0
LINE
  5
83A7
  8
3
 62
     0
 10
1061.7823206106989
 20
1180.3190139031119
 30
0.0
 11
1061.7823206106989
 21
1029.3190139031119
 31
0.0
  0
INSERT
  5
83A8
  8
3
 62
     0
  2
_OPEN
 10
1061.7823206106989
 20
1204.3190139031119
 30
0.0
 41
24.0
 42
24.0
 43
24.0
 50
90.0
  0
INSERT
  5
83A9
  8
3
 62
     0
  2
_OPEN
 10
1061.7823206106989
 20
1005.319013903112
 30
0.0
 41
24.0
 42
24.0
 43
24.0
 50
270.0
  0
TEXT
  8
3
  40
36
  5
842B
  62
0
  72
0
  71
0
 10
959.782
 20
1041.10
 30
0.000000
  1
199
  0
POINT
  5
83AB
  8
DEFPOINTS
 62
     0
 10
936.70314382692595
 20
1204.3190139031119
 30
0.0
  0
POINT
  5
83AC
  8
DEFPOINTS
 62
     0
 10
936.33874170275556
 20
1005.319013903112
 30
0.0
  0
POINT
  5
83AD
  8
DEFPOINTS
 62
     0
 10
1061.7823206106989
 20
1005.319013903112
 30
0.0
  0
ENDBLK
  5
80C6
  8
0
  0
BLOCK
  8
0
  2
*D3
 70
     1
 10
0.0
 20
0.0
 30
0.0
  3
*D3
  1

  0
LINE
  5
823D
  8
0
  6
BYBLOCK
 62
     0
 10
2147.1786052942998
 20
1340.7810285178809
 30
0.0
 11
2147.1786052942998
 21
1498.6647229407631
 31
0.0
  0
LINE
  5
823E
  8
0
  6
BYBLOCK
 62
     0
 10
2070.1786052942998
 20
1455.107821285676
 30
0.0
 11
2070.1786052942998
 21
1498.6647229407631
 31
0.0
  0
LINE
  5
823F
  8
0
  6
BYBLOCK
 62
     0
 10
2123.1786052942998
 20
1486.6647229407631
 30
0.0
 11
2094.1786052942998
 21
1486.6647229407631
 31
0.0
  0
TEXT
  5
8240
  8
3
 62
     0
 10
2077.6572301462588
 20
1495.649229356841
 30
0.0
 40
36.0
  1
79
  0
INSERT
  5
8241
  8
0
  6
BYBLOCK
 62
     0
  2
_OPEN
 10
2147.1786052942998
 20
1486.6647229407631
 30
0.0
 41
24.0
 42
24.0
 43
24.0
  0
INSERT
  5
8242
  8
0
  6
BYBLOCK
 62
     0
  2
_OPEN
 10
2070.1786052942998
 20
1486.6647229407631
 30
0.0
 41
24.0
 42
24.0
 43
24.0
 50
180.0
  0
POINT
  5
8243
  8
DEFPOINTS
  6
BYBLOCK
 62
     0
 10
2147.1786052942998
 20
1334.7810285178809
 30
0.0
  0
POINT
  5
8244
  8
DEFPOINTS
  6
BYBLOCK
 62
     0
 10
2070.1786052942998
 20
1449.107821285676
 30
0.0
  0
POINT
  5
8245
  8
DEFPOINTS
  6
BYBLOCK
 62
     0
 10
2070.1786052942998
 20
1486.6647229407631
 30
0.0
  0
ENDBLK
  5
8246
  8
0
  0
BLOCK
  8
0
  2
*D4
 70
     1
 10
0.0
 20
0.0
 30
0.0
  3
*D4
  1

  0
LINE
  5
83AE
  8
3
 62
     0
 10
2070.1786052942998
 20
1455.107821285676
 30
0.0
 11
2070.1786052942998
 21
1498.6647229407631
 31
0.0
  0
LINE
  5
83AF
  8
3
 62
     0
 10
1637.1786052942989
 20
1290.4110728764899
 30
0.0
 11
1637.1786052942989
 21
1498.6647229407631
 31
0.0
  0
LINE
  5
83B0
  8
3
 62
     0
 10
2046.1786052943
 20
1486.6647229407631
 30
0.0
 11
1661.1786052943
 21
1486.6647229407631
 31
0.0
  0
INSERT
  5
83B1
  8
3
 62
     0
  2
_OPEN
 10
2070.1786052942998
 20
1486.6647229407631
 30
0.0
 41
24.0
 42
24.0
 43
24.0
  0
INSERT
  5
83B2
  8
3
 62
     0
  2
_OPEN
 10
1637.1786052942989
 20
1486.6647229407631
 30
0.0
 41
24.0
 42
24.0
 43
24.0
 50
180.0
  0
TEXT
  8
3
  40
36
  5
842C
  62
0
  72
0
  71
0
 10
1781.68
 20
1482.94
 30
0.000000
  1
MAX
  0
TEXT
  8
3
  40
36
  5
842D
  62
0
  72
0
  71
0
 10
1781.68
 20
1436.14
 30
0.000000
  1
520
  0
POINT
  5
83B4
  8
DEFPOINTS
 62
     0
 10
2070.1786052942998
 20
1449.107821285676
 30
0.0
  0
POINT
  5
83B5
  8
DEFPOINTS
 62
     0
 10
1637.1786052942989
 20
1284.4110728764899
 30
0.0
  0
POINT
  5
83B6
  8
DEFPOINTS
 62
     0
 10
1637.1786052942989
 20
1486.6647229407631
 30
0.0
  0
ENDBLK
  5
81F9
  8
0
  0
BLOCK
  8
0
  2
*D5
 70
     1
 10
0.0
 20
0.0
 30
0.0
  3
*D5
  1

  0
LINE
  5
8166
  8
0
  6
BYBLOCK
 62
     0
 10
1995.1786052943
 20
1355.2688249964999
 30
0.0
 11
1995.1786052943
 21
1408.2554273911269
 31
0.0
  0
LINE
  5
8167
  8
0
  6
BYBLOCK
 62
     0
 10
2145.1786052942989
 20
1355.2688301336441
 30
0.0
 11
2145.1786052942989
 21
1408.2554273911269
 31
0.0
  0
LINE
  5
8168
  8
0
  6
BYBLOCK
 62
     0
 10
2019.1786052942989
 20
1396.2554273911269
 30
0.0
 11
2121.1786052942989
 21
1396.2554273911269
 31
0.0
  0
TEXT
  5
8169
  8
3
 62
     0
 10
2027.3214624371569
 20
1407.759014819349
 30
0.0
 40
36.0
  1
150
  0
INSERT
  5
816A
  8
0
  6
BYBLOCK
 62
     0
  2
_OPEN
 10
1995.1786052943
 20
1396.2554273911269
 30
0.0
 41
24.0
 42
24.0
 43
24.0
 50
180.0
  0
INSERT
  5
816B
  8
0
  6
BYBLOCK
 62
     0
  2
_OPEN
 10
2145.1786052942989
 20
1396.2554273911269
 30
0.0
 41
24.0
 42
24.0
 43
24.0
  0
POINT
  5
816C
  8
DEFPOINTS
  6
BYBLOCK
 62
     0
 10
1995.1786052943
 20
1349.2688249964999
 30
0.0
  0
POINT
  5
816D
  8
DEFPOINTS
  6
BYBLOCK
 62
     0
 10
2145.1786052942989
 20
1349.2688301336441
 30
0.0
  0
POINT
  5
816E
  8
DEFPOINTS
  6
BYBLOCK
 62
     0
 10
2145.1786052942989
 20
1396.2554273911269
 30
0.0
  0
ENDBLK
  5
816F
  8
0
  0
BLOCK
  8
0
  2
*D6
 70
     1
 10
0.0
 20
0.0
 30
0.0
  3
*D6
  1

  0
LINE
  5
83B7
  8
3
 62
     0
 10
2174.1786052942989
 20
1314.4051077903709
 30
0.0
 11
2261.1956451581391
 21
1314.4051077903709
 31
0.0
  0
LINE
  5
83B8
  8
3
 62
     0
 10
2174.1786052942989
 20
1094.4051077903709
 30
0.0
 11
2261.1956451581391
 21
1094.4051077903709
 31
0.0
  0
LINE
  5
83B9
  8
3
 62
     0
 10
2249.1956451581391
 20
1290.4051077903709
 30
0.0
 11
2249.1956451581391
 21
1118.4051077903709
 31
0.0
  0
INSERT
  5
83BA
  8
3
 62
     0
  2
_OPEN
 10
2249.1956451581391
 20
1314.4051077903709
 30
0.0
 41
24.0
 42
24.0
 43
24.0
 50
90.0
  0
INSERT
  5
83BB
  8
3
 62
     0
  2
_OPEN
 10
2249.1956451581391
 20
1094.4051077903709
 30
0.0
 41
24.0
 42
24.0
 43
24.0
 50
270.0
  0
TEXT
  8
3
  40
36
  5
842E
  62
0
  72
0
  71
0
 10
2147.20
 20
1140.69
 30
0.000000
  1
φ220
  0
POINT
  5
83BD
  8
DEFPOINTS
 62
     0
 10
2168.1786052942998
 20
1314.4051077903709
 30
0.0
  0
POINT
  5
83BE
  8
DEFPOINTS
 62
     0
 10
2168.1786052942998
 20
1094.4051077903709
 30
0.0
  0
POINT
  5
83BF
  8
DEFPOINTS
 62
     0
 10
2249.1956451581391
 20
1094.4051077903709
 30
0.0
  0
ENDBLK
  5
8204
  8
0
  0
BLOCK
  8
0
  2
*D7
 70
     1
 10
0.0
 20
0.0
 30
0.0
  3
*D7
  1

  0
LINE
  5
80E0
  8
0
  6
BYBLOCK
 62
     0
 10
746.33874170275556
 20
1352.3190139031119
 30
0.0
 11
1146.7084732972189
 21
1352.3190139031119
 31
0.0
  0
LINE
  5
80E1
  8
0
  6
BYBLOCK
 62
     0
 10
942.70314382692595
 20
1204.3190139031119
 30
0.0
 11
1146.7084732972189
 21
1204.3190139031119
 31
0.0
  0
LINE
  5
80E2
  8
0
  6
BYBLOCK
 62
     0
 10
1134.7084732972189
 20
1328.3190139031119
 30
0.0
 11
1134.7084732972189
 21
1228.3190139031119
 31
0.0
  0
TEXT
  5
80E3
  8
3
 62
     0
 10
1121.444739550685
 20
1235.461871045969
 30
0.0
 40
36.0
  1
148
 50
90.0
  0
INSERT
  5
80E4
  8
0
  6
BYBLOCK
 62
     0
  2
_OPEN
 10
1134.7084732972189
 20
1352.3190139031119
 30
0.0
 41
24.0
 42
24.0
 43
24.0
 50
90.0
  0
INSERT
  5
80E5
  8
0
  6
BYBLOCK
 62
     0
  2
_OPEN
 10
1134.7084732972189
 20
1204.3190139031119
 30
0.0
 41
24.0
 42
24.0
 43
24.0
 50
270.0
  0
POINT
  5
80E6
  8
DEFPOINTS
  6
BYBLOCK
 62
     0
 10
740.33874170275556
 20
1352.3190139031119
 30
0.0
  0
POINT
  5
80E7
  8
DEFPOINTS
  6
BYBLOCK
 62
     0
 10
936.70314382692595
 20
1204.3190139031119
 30
0.0
  0
POINT
  5
80E8
  8
DEFPOINTS
  6
BYBLOCK
 62
     0
 10
1134.7084732972189
 20
1204.3190139031119
 30
0.0
  0
ENDBLK
  5
80E9
  8
0
  0
BLOCK
  8
0
  2
*D8
 70
     1
 10
0.0
 20
0.0
 30
0.0
  3
*D8
  1

  0
LINE
  5
83C0
  8
3
 62
     0
 10
942.70314382692595
 20
1204.3190139031119
 30
0.0
 11
1146.7084732972189
 21
1204.3190139031119
 31
0.0
  0
LINE
  5
83C1
  8
3
 62
     0
 10
932.33874170275521
 20
944.31901390311248
 30
0.0
 11
1146.7084732972189
 21
944.31901390311248
 31
0.0
  0
LINE
  5
83C2
  8
3
 62
     0
 10
1134.7084732972189
 20
1180.3190139031119
 30
0.0
 11
1134.7084732972189
 21
968.31901390311248
 31
0.0
  0
INSERT
  5
83C3
  8
3
 62
     0
  2
_OPEN
 10
1134.7084732972189
 20
1204.3190139031119
 30
0.0
 41
24.0
 42
24.0
 43
24.0
 50
90.0
  0
INSERT
  5
83C4
  8
3
 62
     0
  2
_OPEN
 10
1134.7084732972189
 20
944.31901390311248
 30
0.0
 41
24.0
 42
24.0
 43
24.0
 50
270.0
  0
TEXT
  8
3
  40
36
  5
842F
  62
0
  72
0
  71
0
 10
1032.71
 20
1010.60
 30
0.000000
  1
260
  0
POINT
  5
83C6
  8
DEFPOINTS
 62
     0
 10
936.70314382692595
 20
1204.3190139031119
 30
0.0
  0
POINT
  5
83C7
  8
DEFPOINTS
 62
     0
 10
926.3387417027551
 20
944.31901390311248
 30
0.0
  0
POINT
  5
83C8
  8
DEFPOINTS
 62
     0
 10
1134.7084732972189
 20
944.31901390311248
 30
0.0
  0
ENDBLK
  5
8101
  8
0
  0
BLOCK
  8
0
  2
*D9
 70
     1
 10
0.0
 20
0.0
 30
0.0
  3
*D9
  1

  0
LINE
  5
83C9
  8
3
 62
     0
 10
936.33874170275556
 20
1233.3190139031119
 30
0.0
 11
936.33874170275556
 21
1429.172414038592
 31
0.0
  0
LINE
  5
83CA
  8
3
 62
     0
 10
751.3387417027551
 20
1385.144972564316
 30
0.0
 11
751.3387417027551
 21
1429.172414038592
 31
0.0
  0
LINE
  5
83CB
  8
3
 62
     0
 10
912.33874170275556
 20
1417.172414038592
 30
0.0
 11
775.33874170275521
 21
1417.172414038592
 31
0.0
  0
INSERT
  5
83CC
  8
3
 62
     0
  2
_OPEN
 10
936.33874170275556
 20
1417.172414038592
 30
0.0
 41
24.0
 42
24.0
 43
24.0
  0
INSERT
  5
83CD
  8
3
 62
     0
  2
_OPEN
 10
751.3387417027551
 20
1417.172414038592
 30
0.0
 41
24.0
 42
24.0
 43
24.0
 50
180.0
  0
TEXT
  8
3
  40
36
  5
8430
  62
0
  72
0
  71
0
 10
771.839
 20
1383.45
 30
0.000000
  1
185
  0
POINT
  5
83CF
  8
DEFPOINTS
 62
     0
 10
936.33874170275556
 20
1227.3190139031119
 30
0.0
  0
POINT
  5
83D0
  8
DEFPOINTS
 62
     0
 10
751.3387417027551
 20
1379.144972564316
 30
0.0
  0
POINT
  5
83D1
  8
DEFPOINTS
 62
     0
 10
751.3387417027551
 20
1417.172414038592
 30
0.0
  0
ENDBLK
  5
8223
  8
0
  0
BLOCK
  8
0
  2
*D10
 70
     1
 10
0.0
 20
0.0
 30
0.0
  3
*D10
  1

  0
LINE
  5
83D2
  8
3
 62
     0
 10
751.3387417027551
 20
1385.144972564316
 30
0.0
 11
751.3387417027551
 21
1429.172414038592
 31
0.0
  0
LINE
  5
83D3
  8
3
 62
     0
 10
581.33874170275567
 20
1196.3190139031119
 30
0.0
 11
581.33874170275567
 21
1429.172414038592
 31
0.0
  0
LINE
  5
83D4
  8
3
 62
     0
 10
727.33874170275521
 20
1417.172414038592
 30
0.0
 11
605.33874170275567
 21
1417.172414038592
 31
0.0
  0
INSERT
  5
83D5
  8
3
 62
     0
  2
_OPEN
 10
751.3387417027551
 20
1417.172414038592
 30
0.0
 41
24.0
 42
24.0
 43
24.0
  0
INSERT
  5
83D6
  8
3
 62
     0
  2
_OPEN
 10
581.33874170275567
 20
1417.172414038592
 30
0.0
 41
24.0
 42
24.0
 43
24.0
 50
180.0
  0
TEXT
  8
3
  40
36
  5
8431
  62
0
  72
0
  71
0
 10
594.339
 20
1383.45
 30
0.000000
  1
170
  0
POINT
  5
83D8
  8
DEFPOINTS
 62
     0
 10
751.3387417027551
 20
1379.144972564316
 30
0.0
  0
POINT
  5
83D9
  8
DEFPOINTS
 62
     0
 10
581.33874170275567
 20
1190.3190139031119
 30
0.0
  0
POINT
  5
83DA
  8
DEFPOINTS
 62
     0
 10
581.33874170275567
 20
1417.172414038592
 30
0.0
  0
ENDBLK
  5
822E
  8
0
  0
BLOCK
  8
0
  2
*D11
 70
     1
 10
0.0
 20
0.0
 30
0.0
  3
*D11
  1

  0
LINE
  5
83DB
  8
3
 62
     0
 10
936.33874170275556
 20
1233.3190139031119
 30
0.0
 11
936.33874170275556
 21
1515.5605349500961
 31
0.0
  0
LINE
  5
83DC
  8
3
 62
     0
 10
306.33874170275521
 20
990.31901390311259
 30
0.0
 11
306.33874170275521
 21
1515.5605349500961
 31
0.0
  0
LINE
  5
83DD
  8
3
 62
     0
 10
912.33874170275556
 20
1503.5605349500961
 30
0.0
 11
330.33874170275521
 21
1503.5605349500961
 31
0.0
  0
INSERT
  5
83DE
  8
3
 62
     0
  2
_OPEN
 10
936.33874170275556
 20
1503.5605349500961
 30
0.0
 41
24.0
 42
24.0
 43
24.0
  0
INSERT
  5
83DF
  8
3
 62
     0
  2
_OPEN
 10
306.33874170275521
 20
1503.5605349500961
 30
0.0
 41
24.0
 42
24.0
 43
24.0
 50
180.0
  0
TEXT
  8
3
  40
36
  5
8432
  62
0
  72
0
  71
0
 10
549.339
 20
1469.84
 30
0.000000
  1
630
  0
POINT
  5
83E1
  8
DEFPOINTS
 62
     0
 10
936.33874170275556
 20
1227.3190139031119
 30
0.0
  0
POINT
  5
83E2
  8
DEFPOINTS
 62
     0
 10
306.33874170275521
 20
984.31901390311259
 30
0.0
  0
POINT
  5
83E3
  8
DEFPOINTS
 62
     0
 10
306.33874170275521
 20
1503.5605349500961
 30
0.0
  0
ENDBLK
  5
8218
  8
0
  0
BLOCK
  8
0
  2
_DOT
 70
     0
 10
0.0
 20
0.0
 30
0.0
  3
_DOT
  1

  0
LINE
  5
8209
  8
0
  6
BYBLOCK
 62
     0
 10
0.0
 20
0.0
 30
0.0
 11
-1.0
 21
-0.0000000000000284
 31
0.0
  0
POLYLINE
  5
820A
  8
0
  6
BYBLOCK
 62
     0
 66
     1
 10
0.0
 20
0.0
 30
0.0
 70
     1
 40
0.1666666666666666
 41
0.1666666666666666
  0
VERTEX
  5
83E4
  8
0
  6
BYBLOCK
 62
     0
 10
-0.0833333333333286
 20
-0.0000000000000284
 30
0.0
 42
1.0
  0
VERTEX
  5
83E5
  8
0
  6
BYBLOCK
 62
     0
 10
0.0833333333333286
 20
-0.0000000000000284
 30
0.0
 42
1.0
  0
SEQEND
  5
83E6
  8
0
  6
BYBLOCK
 62
     0
  0
ENDBLK
  5
8177
  8
0
  0
BLOCK
  8
0
  2
*D13
 70
     1
 10
0.0
 20
0.0
 30
0.0
  3
*D13
  1

  0
LINE
  5
83E7
  8
3
 62
     0
 10
306.33874170275561
 20
1983.545992531667
 30
0.0
 11
306.33874170275561
 21
1872.9510437011729
 31
0.0
  0
LINE
  5
83E8
  8
3
 62
     0
 10
926.3387417027551
 20
1983.545992531667
 30
0.0
 11
926.3387417027551
 21
1872.9510437011729
 31
0.0
  0
LINE
  5
83E9
  8
3
 62
     0
 10
330.33874170275561
 20
1884.9510437011729
 30
0.0
 11
902.3387417027551
 21
1884.9510437011729
 31
0.0
  0
INSERT
  5
83EA
  8
3
 62
     0
  2
_OPEN
 10
306.33874170275561
 20
1884.9510437011729
 30
0.0
 41
24.0
 42
24.0
 43
24.0
 50
180.0
  0
INSERT
  5
83EB
  8
3
 62
     0
  2
_OPEN
 10
926.3387417027551
 20
1884.9510437011729
 30
0.0
 41
24.0
 42
24.0
 43
24.0
  0
TEXT
  8
3
  40
36
  5
8433
  62
0
  72
0
  71
0
 10
522.120
 20
1851.23
 30
0.000000
  1
620
  0
POINT
  5
83ED
  8
DEFPOINTS
 62
     0
 10
306.33874170275561
 20
1989.545992531667
 30
0.0
  0
POINT
  5
83EE
  8
DEFPOINTS
 62
     0
 10
926.3387417027551
 20
1989.545992531667
 30
0.0
  0
POINT
  5
83EF
  8
DEFPOINTS
 62
     0
 10
926.3387417027551
 20
1884.9510437011729
 30
0.0
  0
ENDBLK
  5
82DF
  8
0
  0
BLOCK
  8
0
  2
*D14
 70
     1
 10
0.0
 20
0.0
 30
0.0
  3
*D14
  1

  0
LINE
  5
83F0
  8
3
 62
     0
 10
300.33874170275561
 20
2369.5459925316668
 30
0.0
 11
228.2979610828537
 21
2369.5459925316668
 31
0.0
  0
LINE
  5
83F1
  8
3
 62
     0
 10
300.33874170275561
 20
1989.545992531667
 30
0.0
 11
228.29796108285359
 21
1989.545992531667
 31
0.0
  0
LINE
  5
83F2
  8
3
 62
     0
 10
240.2979610828537
 20
2345.5459925316668
 30
0.0
 11
240.29796108285359
 21
2013.545992531667
 31
0.0
  0
INSERT
  5
83F3
  8
3
 62
     0
  2
_OPEN
 10
240.2979610828537
 20
2369.5459925316668
 30
0.0
 41
24.0
 42
24.0
 43
24.0
 50
90.0
  0
INSERT
  5
83F4
  8
3
 62
     0
  2
_OPEN
 10
240.29796108285359
 20
1989.545992531667
 30
0.0
 41
24.0
 42
24.0
 43
24.0
 50
270.0
  0
TEXT
  8
3
  40
36
  5
8434
  62
0
  72
0
  71
0
 10
138.298
 20
2103.16
 30
0.000000
  1
380
  0
POINT
  5
83F6
  8
DEFPOINTS
 62
     0
 10
306.33874170275561
 20
2369.5459925316668
 30
0.0
  0
POINT
  5
83F7
  8
DEFPOINTS
 62
     0
 10
306.33874170275561
 20
1989.545992531667
 30
0.0
  0
POINT
  5
83F8
  8
DEFPOINTS
 62
     0
 10
240.29796108285359
 20
1989.545992531667
 30
0.0
  0
ENDBLK
  5
82EC
  8
0
  0
BLOCK
  8
0
  2
*D15
 70
     1
 10
0.0
 20
0.0
 30
0.0
  3
*D15
  1

  0
LINE
  5
83F9
  8
3
 62
     0
 10
306.33874170275521
 20
876.31901390311248
 30
0.0
 11
306.33874170275521
 21
784.68580139983976
 31
0.0
  0
LINE
  5
83FA
  8
3
 62
     0
 10
751.33874170275487
 20
876.3190139031127
 30
0.0
 11
751.33874170275487
 21
784.68580139983976
 31
0.0
  0
LINE
  5
83FB
  8
3
 62
     0
 10
330.33874170275521
 20
796.68580139983987
 30
0.0
 11
727.33874170275476
 21
796.68580139983987
 31
0.0
  0
INSERT
  5
83FC
  8
3
 62
     0
  2
_OPEN
 10
306.33874170275521
 20
796.68580139983987
 30
0.0
 41
24.0
 42
24.0
 43
24.0
 50
180.0
  0
INSERT
  5
83FD
  8
3
 62
     0
  2
_OPEN
 10
751.33874170275487
 20
796.68580139983987
 30
0.0
 41
24.0
 42
24.0
 43
24.0
  0
TEXT
  8
3
  40
36
  5
8435
  62
0
  72
0
  71
0
 10
456.839
 20
762.966
 30
0.000000
  1
445
  0
POINT
  5
83FF
  8
DEFPOINTS
 62
     0
 10
306.33874170275521
 20
882.31901390311259
 30
0.0
  0
POINT
  5
8400
  8
DEFPOINTS
 62
     0
 10
751.33874170275487
 20
882.31901390311259
 30
0.0
  0
POINT
  5
8401
  8
DEFPOINTS
 62
     0
 10
751.33874170275487
 20
796.68580139983987
 30
0.0
  0
ENDBLK
  5
831E
  8
0
  0
BLOCK
  8
0
  2
*D16
 70
     1
 10
0.0
 20
0.0
 30
0.0
  3
*D16
  1

  0
LINE
  5
8402
  8
3
 62
     0
 10
751.33874170275487
 20
876.3190139031127
 30
0.0
 11
751.33874170275487
 21
784.68580139983976
 31
0.0
  0
LINE
  5
8403
  8
3
 62
     0
 10
926.3387417027551
 20
876.31901390311225
 30
0.0
 11
926.3387417027551
 21
784.68580139983976
 31
0.0
  0
LINE
  5
8404
  8
3
 62
     0
 10
775.33874170275476
 20
796.68580139983987
 30
0.0
 11
902.3387417027551
 21
796.68580139983987
 31
0.0
  0
INSERT
  5
8405
  8
3
 62
     0
  2
_OPEN
 10
751.33874170275487
 20
796.68580139983987
 30
0.0
 41
24.0
 42
24.0
 43
24.0
 50
180.0
  0
INSERT
  5
8406
  8
3
 62
     0
  2
_OPEN
 10
926.3387417027551
 20
796.68580139983987
 30
0.0
 41
24.0
 42
24.0
 43
24.0
  0
TEXT
  8
3
  40
36
  5
8436
  62
0
  72
0
  71
0
 10
766.839
 20
762.966
 30
0.000000
  1
175
  0
POINT
  5
8408
  8
DEFPOINTS
 62
     0
 10
751.33874170275487
 20
882.31901390311259
 30
0.0
  0
POINT
  5
8409
  8
DEFPOINTS
 62
     0
 10
926.3387417027551
 20
882.31901390311214
 30
0.0
  0
POINT
  5
840A
  8
DEFPOINTS
 62
     0
 10
926.3387417027551
 20
796.68580139983987
 30
0.0
  0
ENDBLK
  5
832B
  8
0
  0
BLOCK
  8
0
  2
*D17
 70
     1
 10
0.0
 20
0.0
 30
0.0
  3
*D17
  1

  0
LINE
  5
840B
  8
3
 62
     0
 10
1650.1786052943
 20
876.40510779037152
 30
0.0
 11
1650.1786052943
 21
784.68580139983976
 31
0.0
  0
LINE
  5
840C
  8
3
 62
     0
 10
2030.1786052943
 20
876.40510779037186
 30
0.0
 11
2030.1786052943
 21
784.68580139983976
 31
0.0
  0
LINE
  5
840D
  8
3
 62
     0
 10
1674.1786052943
 20
796.68580139983987
 30
0.0
 11
2006.1786052943
 21
796.68580139983987
 31
0.0
  0
INSERT
  5
840E
  8
3
 62
     0
  2
_OPEN
 10
1650.1786052943
 20
796.68580139983987
 30
0.0
 41
24.0
 42
24.0
 43
24.0
 50
180.0
  0
INSERT
  5
840F
  8
3
 62
     0
  2
_OPEN
 10
2030.1786052943
 20
796.68580139983987
 30
0.0
 41
24.0
 42
24.0
 43
24.0
  0
TEXT
  8
3
  40
36
  5
8437
  62
0
  72
0
  71
0
 10
1768.18
 20
762.966
 30
0.000000
  1
380
  0
POINT
  5
8411
  8
DEFPOINTS
 62
     0
 10
1650.1786052943
 20
882.40510779037163
 30
0.0
  0
POINT
  5
8412
  8
DEFPOINTS
 62
     0
 10
2030.1786052943
 20
882.40510779037174
 30
0.0
  0
POINT
  5
8413
  8
DEFPOINTS
 62
     0
 10
2030.1786052943
 20
796.68580139983987
 30
0.0
  0
ENDBLK
  5
8338
  8
0
  0
BLOCK
  8
0
  2
*D18
 70
     1
 10
0.0
 20
0.0
 30
0.0
  3
*D18
  1

  0
LINE
  5
8414
  8
3
 62
     0
 10
2030.1786052943
 20
876.40510779037186
 30
0.0
 11
2030.1786052943
 21
784.68580139983976
 31
0.0
  0
LINE
  5
8415
  8
3
 62
     0
 10
2070.1786052943012
 20
876.40510779037186
 30
0.0
 11
2070.1786052943012
 21
784.68580139983976
 31
0.0
  0
LINE
  5
8416
  8
3
 62
     0
 10
2006.1786052943
 20
796.68580139983987
 30
0.0
 11
1982.1786052943
 21
796.68580139983987
 31
0.0
  0
LINE
  5
8417
  8
3
 62
     0
 10
2094.1786052943012
 20
796.68580139983987
 30
0.0
 11
2200.4643195800149
 21
796.68580139983987
 31
0.0
  0
LINE
  5
8418
  8
3
 62
     0
 10
2030.1786052943
 20
796.68580139983987
 30
0.0
 11
2070.1786052943012
 21
796.68580139983987
 31
0.0
  0
INSERT
  5
8419
  8
3
 62
     0
  2
_OPEN
 10
2030.1786052943
 20
796.68580139983987
 30
0.0
 41
24.0
 42
24.0
 43
24.0
  0
INSERT
  5
841A
  8
3
 62
     0
  2
_OPEN
 10
2070.1786052943012
 20
796.68580139983987
 30
0.0
 41
24.0
 42
24.0
 43
24.0
 50
180.0
  0
TEXT
  8
3
  40
36
  5
8438
  62
0
  72
0
  71
0
 10
2087.32
 20
762.966
 30
0.000000
  1
40
  0
POINT
  5
841C
  8
DEFPOINTS
 62
     0
 10
2030.1786052943
 20
882.40510779037174
 30
0.0
  0
POINT
  5
841D
  8
DEFPOINTS
 62
     0
 10
2070.1786052943012
 20
882.40510779037186
 30
0.0
  0
POINT
  5
841E
  8
DEFPOINTS
 62
     0
 10
2070.1786052943012
 20
796.68580139983987
 30
0.0
  0
ENDBLK
  5
8347
  8
0
  0
BLOCK
  8
0
  2
*D19
 70
     1
 10
0.0
 20
0.0
 30
0.0
  3
*D19
  1

  0
LINE
  5
841F
  8
3
 62
     0
 10
932.33874170275521
 20
922.31901390311214
 30
0.0
 11
1145.8072016911131
 21
922.31901390311214
 31
0.0
  0
LINE
  5
8420
  8
3
 62
     0
 10
932.33874170275521
 20
882.31901390311259
 30
0.0
 11
1145.8072016911131
 21
882.31901390311259
 31
0.0
  0
LINE
  5
8421
  8
3
 62
     0
 10
1133.8072016911131
 20
946.31901390311214
 30
0.0
 11
1133.8072016911131
 21
970.31901390311214
 31
0.0
  0
LINE
  5
8422
  8
3
 62
     0
 10
1133.8072016911131
 20
858.31901390311259
 30
0.0
 11
1133.8072016911131
 21
752.03329961739826
 31
0.0
  0
LINE
  5
8423
  8
3
 62
     0
 10
1133.8072016911131
 20
922.31901390311214
 30
0.0
 11
1133.8072016911131
 21
882.31901390311259
 31
0.0
  0
INSERT
  5
8424
  8
3
 62
     0
  2
_DOT
 10
1133.8072016911131
 20
922.31901390311214
 30
0.0
 41
24.0
 42
24.0
 43
24.0
 50
270.0
  0
INSERT
  5
8425
  8
3
 62
     0
  2
_OPEN
 10
1133.8072016911131
 20
882.31901390311259
 30
0.0
 41
24.0
 42
24.0
 43
24.0
 50
90.0
  0
TEXT
  8
3
  40
36
  5
8439
  62
0
  72
0
  71
0
 10
1031.81
 20
729.456
 30
0.000000
  1
40
  0
POINT
  5
8427
  8
DEFPOINTS
 62
     0
 10
926.3387417027551
 20
922.31901390311214
 30
0.0
  0
POINT
  5
8428
  8
DEFPOINTS
 62
     0
 10
926.3387417027551
 20
882.31901390311259
 30
0.0
  0
POINT
  5
8429
  8
DEFPOINTS
 62
     0
 10
1133.8072016911131
 20
882.31901390311259
 30
0.0
  0
ENDBLK
  5
8364
  8
0
  0
BLOCK
  8
0
  2
*D20
 70
     1
 10
0.0
 20
0.0
 30
0.0
  3
*D20
  1

  0
LINE
  5
8368
  8
0
  6
BYBLOCK
 62
     0
 10
932.33874170275521
 20
922.31901390311214
 30
0.0
 11
1145.8072016911131
 21
922.31901390311214
 31
0.0
  0
LINE
  5
8369
  8
0
  6
BYBLOCK
 62
     0
 10
932.33874170275521
 20
944.31901390311248
 30
0.0
 11
1145.8072016911131
 21
944.31901390311248
 31
0.0
  0
LINE
  5
836A
  8
0
  6
BYBLOCK
 62
     0
 10
1133.8072016911131
 20
898.31901390311214
 30
0.0
 11
1133.8072016911131
 21
874.31901390311214
 31
0.0
  0
LINE
  5
836B
  8
0
  6
BYBLOCK
 62
     0
 10
1133.8072016911131
 20
968.31901390311248
 30
0.0
 11
1133.8072016911131
 21
992.31901390311259
 31
0.0
  0
TEXT
  5
836C
  8
3
 62
     0
 10
1203.2357731196851
 20
881.03329961739814
 30
0.0
 40
36.0
  1
(22)
 50
90.0
  0
LINE
  5
836D
  8
0
  6
BYBLOCK
 62
     0
 10
1133.8072016911131
 20
922.31901390311214
 30
0.0
 11
1133.8072016911131
 21
944.31901390311248
 31
0.0
  0
INSERT
  5
836E
  8
0
  6
BYBLOCK
 62
     0
  2
_DOT
 10
1133.8072016911131
 20
922.31901390311214
 30
0.0
 41
24.0
 42
24.0
 43
24.0
 50
90.0
  0
INSERT
  5
836F
  8
0
  6
BYBLOCK
 62
     0
  2
_OPEN
 10
1133.8072016911131
 20
944.31901390311248
 30
0.0
 41
24.0
 42
24.0
 43
24.0
 50
270.0
  0
POINT
  5
8370
  8
DEFPOINTS
  6
BYBLOCK
 62
     0
 10
926.3387417027551
 20
922.31901390311214
 30
0.0
  0
POINT
  5
8371
  8
DEFPOINTS
  6
BYBLOCK
 62
     0
 10
926.3387417027551
 20
944.31901390311248
 30
0.0
  0
POINT
  5
8372
  8
DEFPOINTS
  6
BYBLOCK
 62
     0
 10
1133.8072016911131
 20
944.31901390311248
 30
0.0
  0
ENDBLK
  5
8373
  8
0
  0
BLOCK
  8
0
  2
*D21
 70
     1
 10
0.0
 20
0.0
 30
0.0
  3
*D21
  1

  0
LINE
  5
8377
  8
0
  6
BYBLOCK
 62
     0
 10
747.37233700244042
 20
1352.3156543731441
 30
0.0
 11
1278.90269837798
 21
1352.3156543731441
 31
0.0
  0
LINE
  5
8378
  8
0
  6
BYBLOCK
 62
     0
 10
932.33874170275521
 20
882.31901390311259
 30
0.0
 11
1278.90269837798
 21
882.31901390311259
 31
0.0
  0
LINE
  5
8379
  8
0
  6
BYBLOCK
 62
     0
 10
1266.90269837798
 20
1328.3156543731441
 30
0.0
 11
1266.90269837798
 21
906.31901390311259
 31
0.0
  0
INSERT
  5
837A
  8
0
  6
BYBLOCK
 62
     0
  2
_OPEN
 10
1266.90269837798
 20
1352.3156543731441
 30
0.0
 41
24.0
 42
24.0
 43
24.0
 50
90.0
  0
INSERT
  5
837B
  8
0
  6
BYBLOCK
 62
     0
  2
_OPEN
 10
1266.90269837798
 20
882.31901390311259
 30
0.0
 41
24.0
 42
24.0
 43
24.0
 50
270.0
  0
TEXT
  5
837C
  8
3
 62
     0
 10
1239.4741269494091
 20
1047.8887627095571
 30
0.0
 40
36.0
  1
(470)
 50
90.0
  0
POINT
  5
837D
  8
DEFPOINTS
  6
BYBLOCK
 62
     0
 10
741.37233700244042
 20
1352.3156543731441
 30
0.0
  0
POINT
  5
837E
  8
DEFPOINTS
  6
BYBLOCK
 62
     0
 10
926.3387417027551
 20
882.31901390311259
 30
0.0
  0
POINT
  5
837F
  8
DEFPOINTS
  6
BYBLOCK
 62
     0
 10
1266.90269837798
 20
882.31901390311259
 30
0.0
  0
ENDBLK
  5
8380
  8
0
  0
ENDSEC
  0
SECTION
  2
ENTITIES
  0
LINE
  5
7C07
  8
2
 10
751.3387417027551
 20
1379.144972564316
 30
0.0
 11
751.33874170275487
 21
882.31901390311259
 31
0.0
  0
LINE
  5
7C09
  8
1
 10
306.33874170275521
 20
984.31901390311259
 30
0.0
 11
926.3387417027551
 21
984.31901390311202
 31
0.0
  0
LINE
  5
7C0B
  8
1
 10
306.33874170275521
 20
984.31901390311259
 30
0.0
 11
306.33874170275521
 21
944.31901390311248
 31
0.0
  0
LINE
  5
7C0C
  8
2
 10
936.70314382692595
 20
1204.3190139031119
 30
0.0
 11
568.48696562572138
 21
1204.3190139031119
 31
0.0
  0
LINE
  5
7C0E
  8
1
 10
926.3387417027551
 20
984.31901390311202
 30
0.0
 11
926.3387417027551
 21
944.31901390311225
 31
0.0
  0
LINE
  5
7C0F
  8
2
 10
2070.1786052942998
 20
1400.325610313376
 30
0.0
 11
2070.1786052942998
 21
882.40510779037174
 31
0.0
  0
LINE
  5
7C10
  8
2
 10
1614.3863801928369
 20
1204.4051077903709
 30
0.0
 11
2177.6463108868802
 21
1204.4051077903709
 31
0.0
  0
LINE
  5
7C11
  8
1
 10
346.33874170275561
 20
2369.5459925316668
 30
0.0
 11
346.33874170275539
 21
2291.7459925316662
 31
0.0
  0
LINE
  5
7C12
  8
1
 10
306.33874170275561
 20
2369.5459925316668
 30
0.0
 11
306.33874170275561
 21
1989.545992531667
 31
0.0
  0
LINE
  5
7C15
  8
1
 10
926.3387417027551
 20
1989.545992531667
 30
0.0
 11
306.33874170275561
 21
1989.545992531667
 31
0.0
  0
LINE
  5
7C16
  8
2
 10
421.33874170275521
 20
2322.2369730888831
 30
0.0
 11
421.33874170275521
 21
1984.1525466600699
 31
0.0
  0
LINE
  5
7C21
  8
1
 10
581.33874170275533
 20
2369.5459925316668
 30
0.0
 11
306.33874170275561
 21
2369.5459925316668
 31
0.0
  0
LINE
  5
7C22
  8
1
 10
886.33874170275419
 20
1989.545992531667
 30
0.0
 11
926.3387417027551
 21
1989.545992531667
 31
0.0
  0
CIRCLE
  5
7C28
  8
1
 10
751.3387417027551
 20
1074.319013903113
 30
0.0
 40
60.0
  0
LINE
  5
7C29
  8
1
 10
1637.1786052942989
 20
1284.4110728764899
 30
0.0
 11
1637.1786052942989
 21
984.40510779037152
 31
0.0
  0
LINE
  5
7C2A
  8
1
 10
1712.1786052942989
 20
1284.4110728764899
 30
0.0
 11
1712.1786052942989
 21
1243.27643849678
 31
0.0
  0
LINE
  5
7C2B
  8
1
 10
801.4870751686849
 20
1284.2749842873729
 30
0.0
 11
801.4870751686849
 21
984.31901390311202
 31
0.0
  0
LINE
  5
7C2C
  8
1
 10
321.4870751686849
 20
1284.2749842873729
 30
0.0
 11
321.4870751686849
 21
984.31901390311259
 31
0.0
  0
ARC
  5
7C2D
  8
1
 10
740.33874170275556
 20
1193.3190139031119
 30
0.0
 40
159.0
 50
135.72417828846969
 51
176.03297223795579
  0
LINE
  5
7C2E
  8
1
 10
851.3387417027551
 20
1164.6190139031121
 30
0.0
 11
851.3387417027551
 21
984.31901390311305
 31
0.0
  0
LINE
  5
7C2F
  8
1
 10
651.3387417027551
 20
1164.6190139031121
 30
0.0
 11
651.3387417027551
 21
984.31901390311305
 31
0.0
  0
ARC
  5
7C30
  8
1
 10
765.33874170275556
 20
1190.3190139031119
 30
0.0
 40
184.0
 50
175.63632120210451
 51
269.66598835283378
  0
LINE
  5
7C31
  8
1
 10
1967.8786052943001
 20
1270.4051077903709
 30
0.0
 11
1967.8786052943001
 21
1020.4051077903709
 31
0.0
  0
LINE
  5
7C33
  8
1
 10
1995.1786052942989
 20
1205.4051077903709
 30
0.0
 11
1995.1786052942989
 21
1005.4051077903709
 31
0.0
  0
LINE
  5
7C34
  8
1
 10
2145.1786052942998
 20
1181.4051077903709
 30
0.0
 11
2145.1786052942998
 21
1005.4051077903709
 31
0.0
  0
LINE
  5
7C36
  8
1
 10
1716.8786052943001
 20
984.4051077903714
 30
0.0
 11
1716.8786052943001
 21
1094.4051077903709
 31
0.0
  0
LINE
  5
7C37
  8
1
 10
1650.1786052943
 20
984.40510779037152
 30
0.0
 11
2030.1786052943
 21
984.40510779037186
 31
0.0
  0
LINE
  5
7C38
  8
1
 10
1650.1786052943
 20
944.40510779037174
 30
0.0
 11
2030.1786052943
 21
944.40510779037186
 31
0.0
  0
LINE
  5
7C39
  8
1
 10
1987.8786052943001
 20
985.40510779037129
 30
0.0
 11
1987.8786052943001
 21
984.40510779037186
 31
0.0
  0
LINE
  5
7C3A
  8
1
 10
1972.8786052943001
 20
1020.4051077903709
 30
0.0
 11
1967.8786052943001
 21
1020.4051077903709
 31
0.0
  0
LINE
  5
7C3B
  8
1
 10
764.26610082938316
 20
1006.322140447184
 30
0.0
 11
936.33874170275556
 21
1005.319013903112
 31
0.0
  0
ARC
  5
7C3C
  8
1
 10
742.33874170275556
 20
1213.3190139031119
 30
0.0
 40
139.0
 50
359.36404010198049
 51
90.398355084357334
  0
LINE
  5
7C3D
  8
1
 10
321.4870751686849
 20
1284.2749842873729
 30
0.0
 11
801.4870751686849
 21
1284.2749842873729
 31
0.0
  0
LINE
  5
7C3F
  8
2
 10
316.87354170275512
 20
1094.3190139031119
 30
0.0
 11
527.44154170275476
 21
1094.3190139031119
 31
0.0
  0
LINE
  5
7C41
  8
1
 10
826.3387417027551
 20
1167.8190139031119
 30
0.0
 11
826.3387417027551
 21
1171.019013903112
 31
0.0
  0
LINE
  5
7C42
  8
1
 10
676.3387417027551
 20
1171.019013903112
 30
0.0
 11
676.3387417027551
 21
1167.8190139031119
 31
0.0
  0
LINE
  5
7C43
  8
1
 10
843.83874170275521
 20
1270.319013903113
 30
0.0
 11
843.83874170275521
 21
1167.8190139031119
 31
0.0
  0
LINE
  5
7C44
  8
1
 10
849.83874170275533
 20
1270.319013903113
 30
0.0
 11
849.83874170275533
 21
1167.8190139031119
 31
0.0
  0
LINE
  5
7C45
  8
1
 10
658.83874170275521
 20
1270.319013903113
 30
0.0
 11
658.83874170275521
 21
1167.8190139031119
 31
0.0
  0
LINE
  5
7C46
  8
1
 10
652.83874170275521
 20
1270.319013903113
 30
0.0
 11
652.83874170275521
 21
1167.8190139031119
 31
0.0
  0
ARC
  5
7C47
  8
1
 10
740.33874170275556
 20
1193.3190139031119
 30
0.0
 40
159.0
 50
89.627540468594958
 51
135.72417828846969
  0
LINE
  5
7C48
  8
1
 10
646.33874170275521
 20
1167.8190139031119
 30
0.0
 11
856.33874170275521
 21
1167.8190139031119
 31
0.0
  0
LINE
  5
7C49
  8
1
 10
646.33874170275521
 20
1164.6190139031121
 30
0.0
 11
856.33874170275521
 21
1164.6190139031121
 31
0.0
  0
LINE
  5
7C4A
  8
1
 10
646.33874170275521
 20
1167.819013903113
 30
0.0
 11
646.33874170275521
 21
1164.619013903113
 31
0.0
  0
LINE
  5
7C4B
  8
1
 10
856.33874170275521
 20
1167.819013903113
 30
0.0
 11
856.33874170275521
 21
1164.619013903113
 31
0.0
  0
LINE
  5
7C4C
  8
1
 10
826.3387417027551
 20
1171.019013903112
 30
0.0
 11
676.3387417027551
 21
1171.019013903112
 31
0.0
  0
LINE
  5
7C4D
  8
1
 10
652.83874170275521
 20
1270.319013903113
 30
0.0
 11
658.83874170275521
 21
1270.319013903113
 31
0.0
  0
LINE
  5
7C4E
  8
1
 10
843.83874170275521
 20
1270.3190139031119
 30
0.0
 11
849.83874170275533
 21
1270.319013903113
 31
0.0
  0
LINE
  5
7C4F
  8
1
 10
916.33874170275612
 20
985.31867405559103
 30
0.0
 11
916.33874170275567
 21
1227.3190139031119
 31
0.0
  0
LINE
  5
7C50
  8
1
 10
936.33874170275624
 20
985.31867405559103
 30
0.0
 11
936.33874170275556
 21
1215.3190139031119
 31
0.0
  0
LINE
  5
7C51
  8
1
 10
881.23789424223003
 20
1205.3190139031119
 30
0.0
 11
936.33874170275556
 21
1205.3190139031119
 31
0.0
  0
ARC
  5
7C52
  8
1
 10
757.33874170275556
 20
1210.3190139031119
 30
0.0
 40
124.0
 50
357.6890597908976
 51
0.6733278193890098
  0
LINE
  5
7C53
  8
1
 10
916.33874170275567
 20
1207.3190139031119
 30
0.0
 11
916.33874170275567
 21
1208.3190139031119
 31
0.0
  0
LINE
  5
7C54
  8
1
 10
936.33874170275556
 20
1227.3190139031119
 30
0.0
 11
936.33874170275556
 21
1207.3190139031119
 31
0.0
  0
LINE
  5
7C55
  8
1
 10
916.33874170275567
 20
1227.3190139031119
 30
0.0
 11
936.33874170275556
 21
1227.3190139031119
 31
0.0
  0
LINE
  5
7C56
  8
1
 10
2145.1786052942989
 20
1352.4051077903709
 30
0.0
 11
2145.1786052942998
 21
1225.4051077903709
 31
0.0
  0
LINE
  5
7C57
  8
1
 10
1995.1786052943
 20
1352.4051077903709
 30
0.0
 11
1995.1786052943
 21
1225.4051077903709
 31
0.0
  0
LINE
  5
7C58
  8
1
 10
2168.1786052942998
 20
1314.4051077903709
 30
0.0
 11
2168.1786052942998
 21
1094.4051077903709
 31
0.0
  0
LINE
  5
7C5B
  8
1
 10
1712.1786052942989
 20
1167.9051077903709
 30
0.0
 11
1734.3786052942989
 21
1167.9051077903709
 31
0.0
  0
LINE
  5
7C5D
  8
1
 10
1698.3786052943001
 20
1254.4051077903709
 30
0.0
 11
1698.3786052943001
 21
1159.9551077903709
 31
0.0
  0
LINE
  5
7C5E
  8
1
 10
1660.3786052943001
 20
1254.4051077903709
 30
0.0
 11
1660.3786052942989
 21
1159.9551077903709
 31
0.0
  0
LINE
  5
7C61
  8
1
 10
1660.3786052942989
 20
1159.9551077903709
 30
0.0
 11
1660.3786052942989
 21
1044.4051077903709
 31
0.0
  0
LINE
  5
7C62
  8
1
 10
1698.3786052943001
 20
1159.9551077903709
 30
0.0
 11
1698.3786052943001
 21
1044.4051077903709
 31
0.0
  0
LINE
  5
7C66
  8
1
 10
1637.1786052942989
 20
1284.4110728764899
 30
0.0
 11
1712.1786052942989
 21
1284.4110728764899
 31
0.0
  0
LINE
  5
7C67
  8
1
 10
1698.3786052943001
 20
1194.9051077903709
 30
0.0
 11
1708.3786052943001
 21
1194.9051077903709
 31
0.0
  0
LINE
  5
7C68
  8
1
 10
1708.3786052943001
 20
1194.4051077903709
 30
0.0
 11
1735.0786052942999
 21
1194.4051077903709
 31
0.0
  0
LINE
  5
7C69
  8
1
 10
1967.8786052943001
 20
1194.4051077903709
 30
0.0
 11
1708.3786052943001
 21
1194.4051077903709
 31
0.0
  0
LINE
  5
7C6A
  8
1
 10
1698.3786052943001
 20
1213.9051077903709
 30
0.0
 11
1708.3786052943001
 21
1213.9051077903709
 31
0.0
  0
LINE
  5
7C6C
  8
1
 10
2167.1786052942989
 20
1094.4051077903709
 30
0.0
 11
2168.1786052942998
 21
1094.4051077903709
 31
0.0
  0
LINE
  5
7C6D
  8
1
 10
2168.1786052942998
 20
1094.4051077903709
 30
0.0
 11
2168.1786052942998
 21
1093.4051077903709
 31
0.0
  0
ARC
  5
7C6E
  8
1
 10
2166.1786052942989
 20
1093.4051077903709
 30
0.0
 40
2.0
 50
299.99999999999972
 51
0.0
  0
LINE
  5
7C71
  8
1
 10
1967.8786052943001
 20
1270.4051077903709
 30
0.0
 11
1995.1786052943
 21
1270.4051077903709
 31
0.0
  0
LINE
  5
7C72
  8
1
 10
2145.178605294293
 20
1205.4051077903709
 30
0.0
 11
2145.1786052942998
 21
1181.4051077903709
 31
0.0
  0
LINE
  5
7C74
  8
1
 10
2166.1786052942989
 20
1317.4051077903709
 30
0.0
 11
2165.1786052942998
 21
1317.4051077903709
 31
0.0
  0
ARC
  5
7C75
  8
1
 10
2166.1786052942989
 20
1315.4051077903709
 30
0.0
 40
2.0
 50
0.0
 51
90.0
  0
LINE
  5
7C76
  8
1
 10
2168.1786052942998
 20
1314.4051077903709
 30
0.0
 11
2168.1786052942998
 21
1315.4051077903709
 31
0.0
  0
LINE
  5
7C77
  8
1
 10
2165.1786052942998
 20
1314.4051077903709
 30
0.0
 11
2168.1786052942998
 21
1314.4051077903709
 31
0.0
  0
LINE
  5
7C79
  8
1
 10
926.3387417027551
 20
944.31901390311248
 30
0.0
 11
306.33874170275521
 21
944.31901390311248
 31
0.0
  0
DIMENSION
  5
7C7A
  8
3
  2
*D1
 10
999.08554890149605
 20
1005.319013903112
 30
0.0
 11
969.08554890149605
 21
1105.3190139031119
 31
0.0
 70
     0
 13
936.33874170275556
 23
1205.3190139031119
 33
0.0
 14
936.33874170275556
 24
1005.319013903112
 34
0.0
 50
270.0
1001
ACAD
1000
DSTYLE
1002
{
1070
   287
1070
     3
1070
    40
1040
12.0
1070
   143
1040
0.039
1070
   172
1070
     1
1070
   271
1070
     0
1070
   279
1070
     0
1070
   288
1070
     1
1002
}
  0
DIMENSION
  5
7C7B
  8
3
  2
*D2
 10
1061.7823206106989
 20
1005.319013903112
 30
0.0
 11
1031.7823206106989
 21
1104.8190139031119
 31
0.0
 70
     0
 13
936.70314382692595
 23
1204.3190139031119
 33
0.0
 14
936.33874170275556
 24
1005.319013903112
 34
0.0
 50
270.0
1001
ACAD
1000
DSTYLE
1002
{
1070
   287
1070
     3
1070
    40
1040
12.0
1070
   143
1040
0.039
1070
   172
1070
     1
1070
   271
1070
     0
1070
   279
1070
     0
1070
   288
1070
     1
1002
}
  0
LINE
  5
7C7E
  8
1
 10
2030.1786052943
 20
944.40510779037186
 30
0.0
 11
2030.178605294301
 21
984.40510779037186
 31
0.0
  0
LINE
  5
7C7F
  8
1
 10
1650.1786052943
 20
944.40510779037174
 30
0.0
 11
1650.1786052943
 21
984.4051077903714
 31
0.0
  0
LINE
  5
7C80
  8
1
 10
1967.8786052943001
 20
1214.4051077903709
 30
0.0
 11
1708.3786052943001
 21
1214.4051077903709
 31
0.0
  0
LINE
  5
7C81
  8
1
 10
1708.3786052943001
 20
1214.4051077903709
 30
0.0
 11
1708.3786052943001
 21
1213.9051077903709
 31
0.0
  0
LINE
  5
7C82
  8
1
 10
1708.3786052943001
 20
1194.9051077903709
 30
0.0
 11
1708.3786052943001
 21
1194.4051077903709
 31
0.0
  0
LINE
  5
7C83
  8
1
 10
1712.1786052942989
 20
984.40510779037152
 30
0.0
 11
1637.1786052942989
 21
984.40510779037152
 31
0.0
  0
LINE
  5
7C85
  8
2
 10
959.9026265375204
 20
2409.5459925316668
 30
0.0
 11
561.49531471252305
 21
2409.5459925316668
 31
0.0
  0
LINE
  5
7C86
  8
1
 10
916.33874170275533
 20
2484.5459925316659
 30
0.0
 11
751.3387417027551
 21
2484.5459925316659
 31
0.0
  0
LINE
  5
7C87
  8
1
 10
916.33874170275533
 20
2334.5459925316659
 30
0.0
 11
751.3387417027551
 21
2334.5459925316668
 31
0.0
  0
LINE
  5
7C88
  8
1
 10
926.3387417027551
 20
2314.5459925316659
 30
0.0
 11
926.3387417027551
 21
1989.545992531667
 31
0.0
  0
LINE
  5
7C89
  8
1
 10
886.33874170275556
 20
2334.5459925316668
 30
0.0
 11
886.3387417027551
 21
1989.545992531667
 31
0.0
  0
LINE
  5
7C8A
  8
2
 10
751.3387417027551
 20
1987.2413369652149
 30
0.0
 11
751.3387417027551
 21
2517.0136981242458
 31
0.0
  0
LINE
  5
7C8B
  8
1
 10
831.34470678887385
 20
1976.5459925316659
 30
0.0
 11
831.34470678887385
 21
2051.5459925316659
 31
0.0
  0
LINE
  5
7C8C
  8
1
 10
831.34470678887385
 20
1976.5459925316659
 30
0.0
 11
321.4870751686849
 21
1976.5459925316659
 31
0.0
  0
LINE
  5
7C8D
  8
1
 10
706.88874170275528
 20
1999.7459925316659
 30
0.0
 11
371.33874170275521
 21
1999.7459925316639
 31
0.0
  0
LINE
  5
7C8E
  8
1
 10
706.88874170275528
 20
2037.7459925316671
 30
0.0
 11
371.33874170275521
 21
2037.7459925316671
 31
0.0
  0
LINE
  5
7C8F
  8
1
 10
831.34470678887385
 20
2051.5459925316659
 30
0.0
 11
321.4870751686849
 21
2051.5459925316659
 31
0.0
  0
LINE
  5
7C91
  8
1
 10
741.33874170275544
 20
2334.5459925316668
 30
0.0
 11
741.33874170275521
 21
2047.7459925316671
 31
0.0
  0
LINE
  5
7C92
  8
1
 10
761.33874170275487
 20
2334.5459925316659
 30
0.0
 11
761.33874170275521
 21
2047.7459925316671
 31
0.0
  0
LINE
  5
7C93
  8
1
 10
801.3387417027551
 20
1999.7459925316671
 30
0.0
 11
706.88874170275528
 21
1999.7459925316659
 31
0.0
  0
LINE
  5
7C94
  8
1
 10
801.3387417027551
 20
2037.7459925316659
 30
0.0
 11
706.88874170275528
 21
2037.7459925316671
 31
0.0
  0
LINE
  5
7C95
  8
1
 10
714.83874170275521
 20
2051.5459925316668
 30
0.0
 11
807.83874170275533
 21
2051.5459925316668
 31
0.0
  0
LINE
  5
7C97
  8
1
 10
760.83874170275521
 20
2037.7459925316671
 30
0.0
 11
760.83874170275521
 21
2047.7459925316671
 31
0.0
  0
LINE
  5
7C98
  8
1
 10
741.83874170275521
 20
2037.7459925316671
 30
0.0
 11
741.83874170275521
 21
2047.7459925316671
 31
0.0
  0
LINE
  5
7C9A
  8
1
 10
321.4870751686849
 20
2051.5459925316659
 30
0.0
 11
321.4870751686849
 21
1976.5459925316659
 31
0.0
  0
LINE
  5
7C9C
  8
1
 10
346.3387417027559
 20
2073.7459925316648
 30
0.0
 11
346.33874170275561
 21
1989.545992531667
 31
0.0
  0
LINE
  5
7C9D
  8
1
 10
851.3387417027551
 20
2056.623596619304
 30
0.0
 11
851.3387417027551
 21
2334.5459925316668
 31
0.0
  0
LINE
  5
7C9E
  8
1
 10
651.3387417027551
 20
2056.623596619304
 30
0.0
 11
651.33874170275544
 21
2334.5459925316668
 31
0.0
  0
LINE
  5
7C9F
  8
1
 10
851.3387417027551
 20
2056.623596619304
 30
0.0
 11
761.33874170275521
 21
2056.623596619304
 31
0.0
  0
LINE
  5
7CA1
  8
1
 10
741.33874170275612
 20
2056.623596619304
 30
0.0
 11
651.3387417027551
 21
2056.623596619304
 31
0.0
  0
DIMENSION
  5
7CA2
  8
3
  2
*D3
 10
2070.1786052942998
 20
1486.6647229407631
 30
0.0
 11
2105.942944431974
 21
1513.649229356841
 31
0.0
 70
   128
  1
79
 13
2147.1786052942998
 23
1334.7810285178809
 33
0.0
 14
2070.1786052942998
 24
1449.107821285676
 34
0.0
1001
ACAD
1000
DSTYLE
1002
{
1070
   288
1070
     1
1070
   172
1070
     1
1070
    40
1040
12.0
1070
   271
1070
     0
1070
   143
1040
0.039
1002
}
  0
DIMENSION
  5
7CA3
  8
3
  2
*D4
 10
1637.1786052942989
 20
1486.6647229407631
 30
0.0
 11
1853.6786052943
 21
1546.6647229407631
 31
0.0
 70
     0
  1
MAX\P520
 13
2070.1786052942998
 23
1449.107821285676
 33
0.0
 14
1637.1786052942989
 24
1284.4110728764899
 34
0.0
1001
ACAD
1000
DSTYLE
1002
{
1070
   287
1070
     3
1070
    40
1040
12.0
1070
   143
1040
0.039
1070
   172
1070
     1
1070
   271
1070
     0
1070
   279
1070
     0
1070
   288
1070
     1
1002
}
  0
DIMENSION
  5
7CA4
  8
3
  2
*D5
 10
2145.1786052942989
 20
1396.2554273911269
 30
0.0
 11
2070.1786052942989
 21
1425.759014819349
 31
0.0
 70
   128
 13
1995.1786052943
 23
1349.2688249964999
 33
0.0
 14
2145.1786052942989
 24
1349.2688301336441
 34
0.0
1001
ACAD
1000
DSTYLE
1002
{
1070
   288
1070
     1
1070
   172
1070
     1
1070
    40
1040
12.0
1070
   271
1070
     0
1070
   143
1040
0.039
1002
}
  0
DIMENSION
  5
7CA5
  8
3
  2
*D6
 10
2249.1956451581391
 20
1094.4051077903709
 30
0.0
 11
2219.1956451581382
 21
1204.4051077903709
 31
0.0
 70
     0
 13
2168.1786052942998
 23
1314.4051077903709
 33
0.0
 14
2168.1786052942998
 24
1094.4051077903709
 34
0.0
 50
90.0
1001
ACAD
1000
DSTYLE
1002
{
1070
   287
1070
     3
1070
     3
1000
φ<>
1070
    40
1040
12.0
1070
   143
1040
0.039
1070
   172
1070
     1
1070
   271
1070
     0
1070
   279
1070
     0
1070
   288
1070
     1
1002
}
  0
LINE
  5
7CAA
  8
1
 10
2148.1786052942989
 20
1334.4051077903709
 30
0.0
 11
2148.1786052942989
 21
1225.4051077903709
 31
0.0
  0
LINE
  5
7CAB
  8
1
 10
2151.1786052942989
 20
1321.4051077903709
 30
0.0
 11
2151.1786052942989
 21
1332.4051077903709
 31
0.0
  0
LINE
  5
7CAC
  8
1
 10
2145.1786052942989
 20
1334.4051077903709
 30
0.0
 11
2148.1786052943012
 21
1334.4051077903709
 31
0.0
  0
LINE
  5
7CAD
  8
1
 10
2149.1786052942998
 20
1334.4051077903709
 30
0.0
 11
2148.1786052942989
 21
1334.4051077903709
 31
0.0
  0
ARC
  5
7CAE
  8
1
 10
2149.1786052942998
 20
1332.4051077903709
 30
0.0
 40
2.0
 50
0.0
 51
90.0
  0
LINE
  5
7CAF
  8
1
 10
2166.1786052942989
 20
1317.4051077903709
 30
0.0
 11
2155.1786052942989
 21
1317.4051077903709
 31
0.0
  0
LINE
  5
7CB0
  8
1
 10
2148.1786052942989
 20
1314.4051077903709
 30
0.0
 11
2168.1786052942998
 21
1314.4051077903709
 31
0.0
  0
ARC
  5
7CB1
  8
1
 10
2155.1786052942989
 20
1321.4051077903709
 30
0.0
 40
4.0
 50
180.0
 51
270.0
  0
ARC
  5
7CB2
  8
1
 10
2166.1786052942989
 20
1315.4051077903709
 30
0.0
 40
2.0
 50
0.0
 51
90.0
  0
LINE
  5
7CB3
  8
1
 10
2168.1786052942998
 20
1314.4051077903709
 30
0.0
 11
2168.1786052942998
 21
1315.4051077903709
 31
0.0
  0
LINE
  5
7CB4
  8
1
 10
752.33874170275521
 20
2484.5459925316659
 30
0.0
 11
581.33874170275544
 21
2484.5459925316668
 31
0.0
  0
LINE
  5
7CB5
  8
1
 10
752.33874170275521
 20
2334.5459925316659
 30
0.0
 11
581.33874170275544
 21
2334.5459925316668
 31
0.0
  0
DIMENSION
  5
7CB6
  8
3
  2
*D7
 10
1134.7084732972189
 20
1204.3190139031119
 30
0.0
 11
1103.444739550685
 21
1278.3190139031119
 31
0.0
 70
   128
 13
740.33874170275556
 23
1352.3190139031119
 33
0.0
 14
936.70314382692595
 24
1204.3190139031119
 34
0.0
 50
270.0
1001
ACAD
1000
DSTYLE
1002
{
1070
   288
1070
     1
1070
   172
1070
     1
1070
    40
1040
12.0
1070
   271
1070
     0
1070
   143
1040
0.039
1002
}
  0
DIMENSION
  5
7CB7
  8
3
  2
*D8
 10
1134.7084732972189
 20
944.31901390311248
 30
0.0
 11
1104.708473297218
 21
1074.3190139031119
 31
0.0
 70
     0
 13
936.70314382692595
 23
1204.3190139031119
 33
0.0
 14
926.3387417027551
 24
944.31901390311248
 34
0.0
 50
270.0
1001
ACAD
1000
DSTYLE
1002
{
1070
   287
1070
     3
1070
    40
1040
12.0
1070
   143
1040
0.039
1070
   172
1070
     1
1070
   271
1070
     0
1070
   279
1070
     0
1070
   288
1070
     1
1002
}
  0
DIMENSION
  5
7CBA
  8
3
  2
*D9
 10
751.3387417027551
 20
1417.172414038592
 30
0.0
 11
843.83874170275544
 21
1417.172414038592
 31
0.0
 70
   128
 13
936.33874170275556
 23
1227.3190139031119
 33
0.0
 14
751.3387417027551
 24
1379.144972564316
 34
0.0
1001
ACAD
1000
DSTYLE
1002
{
1070
   287
1070
     3
1070
    40
1040
12.0
1070
   143
1040
0.039
1070
   172
1070
     1
1070
   271
1070
     0
1070
   279
1070
     0
1070
   288
1070
     1
1002
}
  0
DIMENSION
  5
7CBB
  8
3
  2
*D10
 10
581.33874170275567
 20
1417.172414038592
 30
0.0
 11
666.33874170275544
 21
1447.172414038592
 31
0.0
 70
     0
 13
751.3387417027551
 23
1379.144972564316
 33
0.0
 14
581.33874170275567
 24
1190.3190139031119
 34
0.0
1001
ACAD
1000
DSTYLE
1002
{
1070
   287
1070
     3
1070
    40
1040
12.0
1070
   143
1040
0.039
1070
   172
1070
     1
1070
   271
1070
     0
1070
   279
1070
     0
1070
   288
1070
     1
1002
}
  0
LINE
  5
7CBC
  8
1
 10
936.33874170275624
 20
985.31867405559103
 30
0.0
 11
916.33874170275612
 21
985.31867405559103
 31
0.0
  0
LINE
  5
7CBD
  8
1
 10
1995.1786052942989
 20
1005.4051077903709
 30
0.0
 11
2145.1786052942998
 21
1005.4051077903709
 31
0.0
  0
LINE
  5
7CBE
  8
1
 10
1995.1786052943
 20
1352.4051077903709
 30
0.0
 11
2145.1786052942989
 21
1352.4051077903709
 31
0.0
  0
LINE
  5
7CBF
  8
1
 10
2167.1786052942989
 20
1225.4051077903709
 30
0.0
 11
2167.1786052942989
 21
985.40510779037129
 31
0.0
  0
LINE
  5
7CC0
  8
1
 10
1972.8786052943001
 20
985.40510779037129
 30
0.0
 11
2167.1786052942989
 21
985.40510779037129
 31
0.0
  0
LINE
  5
7CC1
  8
1
 10
1995.1786052942989
 20
1205.4051077903709
 30
0.0
 11
2145.178605294293
 21
1205.4051077903709
 31
0.0
  0
LINE
  5
7CC2
  8
1
 10
2145.1786052942998
 20
1205.4051077903709
 30
0.0
 11
1995.1786052942989
 21
1005.4051077903709
 31
0.0
  0
LINE
  5
7CC3
  8
1
 10
1995.1786052943
 20
1205.4051077903709
 30
0.0
 11
2145.1786052942998
 21
1005.4051077903709
 31
0.0
  0
LINE
  5
7CC4
  8
1
 10
936.33874170275624
 20
2314.5459925316659
 30
0.0
 11
936.33874170275556
 21
2504.5459925316659
 31
0.0
  0
LINE
  5
7CC5
  8
1
 10
581.33874170275544
 20
2334.5459925316668
 30
0.0
 11
581.33874170275521
 21
2484.5459925316668
 31
0.0
  0
LINE
  5
7CC6
  8
1
 10
916.33874170275533
 20
2314.5459925316659
 30
0.0
 11
916.33874170275533
 21
2504.5459925316659
 31
0.0
  0
LINE
  5
7CC7
  8
1
 10
936.33874170275624
 20
2504.5459925316659
 30
0.0
 11
916.33874170275533
 21
2504.5459925316659
 31
0.0
  0
LINE
  5
7CC8
  8
1
 10
936.33874170275624
 20
2314.5459925316659
 30
0.0
 11
916.33874170275533
 21
2314.5459925316659
 31
0.0
  0
LINE
  5
7CC9
  8
2
 10
1806.094954817464
 20
1094.4051077903709
 30
0.0
 11
1615.885828611159
 21
1094.4051077903709
 31
0.0
  0
LINE
  5
7CCA
  8
1
 10
1952.3786052942989
 20
1169.2050957903709
 30
0.0
 11
1734.3786052942989
 21
1169.2050957903709
 31
0.0
  0
ARC
  5
7CCB
  8
1
 10
421.33874170275521
 20
1094.3190139031119
 30
0.0
 40
85.0
 50
295.8755339999999
 51
180.0
  0
LINE
  5
7CCC
  8
2
 10
421.33874170275521
 20
1190.606665441444
 30
0.0
 11
421.33874170275521
 21
939.3800818392541
 31
0.0
  0
ARC
  5
7CCD
  8
1
 10
421.33874170275521
 20
1094.3190139031119
 30
0.0
 40
85.0
 50
295.8755339999999
 51
180.0
  0
LINE
  5
7CCE
  8
1
 10
1952.3786052942989
 20
1169.2050957903709
 30
0.0
 11
1952.3786052942989
 21
1167.9051077903709
 31
0.0
  0
LINE
  5
7CCF
  8
1
 10
528.83874170275521
 20
984.31901390311202
 30
0.0
 11
313.83874170275521
 21
984.31901390311259
 31
0.0
  0
LINE
  5
7CD0
  8
1
 10
523.83874170275556
 20
1014.319013903112
 30
0.0
 11
318.83874170275561
 21
1014.319013903112
 31
0.0
  0
LINE
  5
7CD1
  8
1
 10
503.11333926851921
 20
1014.319013903112
 30
0.0
 11
483.66190970275511
 21
1036.5005099031121
 31
0.0
  0
LINE
  5
7CD2
  8
1
 10
523.83874170275521
 20
1014.319013903112
 30
0.0
 11
528.83874170275521
 21
984.31901390311202
 31
0.0
  0
LINE
  5
7CD3
  8
1
 10
498.83874170275521
 20
1014.319013903112
 30
0.0
 11
463.8387417027551
 21
1014.319013903112
 31
0.0
  0
LINE
  5
7CD4
  8
1
 10
332.87215870275531
 20
1094.7225779031121
 30
0.0
 11
336.36841170275511
 21
1093.785890903112
 31
0.0
  0
ARC
  5
7CD5
  8
1
 10
421.33874170275521
 20
1094.3190139031119
 30
0.0
 40
85.000007999999994
 50
180.0
 51
244.08227400000001
  0
LINE
  5
7CD6
  8
1
 10
339.56423302816108
 20
1014.319013903112
 30
0.0
 11
359.01743370275511
 21
1036.5026519031121
 31
0.0
  0
LINE
  5
7CD7
  8
1
 10
458.43424070275518
 20
1017.868085903112
 30
0.0
 11
384.1869327027552
 21
1017.868085903112
 31
0.0
  0
LINE
  5
7CD8
  8
1
 10
343.83874170275521
 20
1014.319013903112
 30
0.0
 11
378.83874170275521
 21
1014.319013903112
 31
0.0
  0
LINE
  5
7CD9
  8
1
 10
318.83874170275561
 20
1014.319013903112
 30
0.0
 11
313.83874170275561
 21
984.31901390311259
 31
0.0
  0
LINE
  5
7CDA
  8
1
 10
1734.378605294298
 20
1167.90510779037
 30
0.0
 11
1734.3786052942989
 21
1169.2050957903709
 31
0.0
  0
LINE
  5
7CDB
  8
1
 10
1716.878605294301
 20
1103.9051077903709
 30
0.0
 11
1698.3786052943001
 21
1103.9051077903709
 31
0.0
  0
LINE
  5
7CDC
  8
1
 10
1698.3786052943001
 20
1084.9051077903709
 30
0.0
 11
1716.8786052942989
 21
1084.9051077903709
 31
0.0
  0
LINE
  5
7CDD
  8
1
 10
343.33874170275521
 20
2073.7459925316648
 30
0.0
 11
496.13872970275492
 21
2073.7459925316648
 31
0.0
  0
LINE
  5
7CDE
  8
1
 10
496.13872970275492
 20
2291.7459925316648
 30
0.0
 11
343.33874170275521
 21
2291.7459925316648
 31
0.0
  0
LINE
  5
7CDF
  8
1
 10
343.33874170275521
 20
2073.7459925316648
 30
0.0
 11
343.33874170275521
 21
2291.7459925316648
 31
0.0
  0
LINE
  5
7CE0
  8
1
 10
454.83874170275521
 20
2063.7459925316662
 30
0.0
 11
454.83874170275521
 21
2073.7459925316648
 31
0.0
  0
LINE
  5
7CE1
  8
1
 10
387.83874170275521
 20
2073.7459925316648
 30
0.0
 11
387.83874170275521
 21
2063.7459925316662
 31
0.0
  0
LINE
  5
7CE2
  8
1
 10
410.83874170275521
 20
2058.7459925316648
 30
0.0
 11
431.83874170275521
 21
2058.7459925316648
 31
0.0
  0
LINE
  5
7CE3
  8
1
 10
387.83874170275521
 20
2063.7459925316662
 30
0.0
 11
454.83874170275521
 21
2063.7459925316662
 31
0.0
  0
LINE
  5
7CE4
  8
1
 10
411.83874170275521
 20
2037.7459925316671
 30
0.0
 11
411.83874170275521
 21
2058.7459925316648
 31
0.0
  0
LINE
  5
7CE5
  8
1
 10
410.83874170275521
 20
2058.7459925316648
 30
0.0
 11
410.83874170275521
 21
2063.7459925316662
 31
0.0
  0
LINE
  5
7CE6
  8
1
 10
430.83874170275521
 20
2058.7459925316648
 30
0.0
 11
430.83874170275521
 21
2037.7459925316671
 31
0.0
  0
LINE
  5
7CE7
  8
1
 10
431.83874170275521
 20
2058.7459925316648
 30
0.0
 11
431.83874170275521
 21
2063.7459925316662
 31
0.0
  0
LINE
  5
7CE8
  8
1
 10
382.65453770275502
 20
2073.7459925316648
 30
0.0
 11
391.65453770275502
 21
2073.7459925316648
 31
0.0
  0
LINE
  5
7CE9
  8
1
 10
393.58880270275489
 20
2073.7459925316648
 30
0.0
 11
381.32486870275528
 21
2073.7459925316648
 31
0.0
  0
LINE
  5
7CEA
  8
1
 10
391.40374470275492
 20
2073.7459925316648
 30
0.0
 11
382.77373970275488
 21
2073.7459925316648
 31
0.0
  0
LINE
  5
7CEB
  8
1
 10
496.13872970275492
 20
2291.7459925316648
 30
0.0
 11
496.13872970275492
 21
2073.7459925316648
 31
0.0
  0
ARC
  5
7CEC
  8
1
 10
489.91303670275551
 20
2072.7459925316662
 30
0.0
 40
2.0
 50
11.13904000000004
 51
29.999999999999979
  0
LINE
  5
7CED
  8
1
 10
485.40453770275502
 20
2073.7459925316648
 30
0.0
 11
494.40453770275502
 21
2073.7459925316648
 31
0.0
  0
LINE
  5
7CEE
  8
1
 10
494.15374470275492
 20
2073.7459925316648
 30
0.0
 11
485.52373970275488
 21
2073.7459925316648
 31
0.0
  0
LINE
  5
7CEF
  8
1
 10
1734.3786052942989
 20
1167.90510779037
 30
0.0
 11
1967.8786052943001
 21
1167.9051077903709
 31
0.0
  0
LINE
  5
7CF0
  8
1
 10
1716.878605294301
 20
1094.4051077903709
 30
0.0
 11
1716.8786052943001
 21
1167.9051077903709
 31
0.0
  0
LINE
  5
7CF1
  8
1
 10
1972.8786052943001
 20
1225.4051077903709
 30
0.0
 11
2167.1786052942998
 21
1225.4051077903709
 31
0.0
  0
LINE
  5
7CF2
  8
1
 10
1972.8786052943001
 20
1225.4051077903709
 30
0.0
 11
1972.8786052943001
 21
985.40510779037129
 31
0.0
  0
DIMENSION
  5
7CF9
  8
3
  2
*D11
 10
306.33874170275521
 20
1503.5605349500961
 30
0.0
 11
621.33874170275544
 21
1533.5605349500961
 31
0.0
 70
     0
 13
936.33874170275556
 23
1227.3190139031119
 33
0.0
 14
306.33874170275521
 24
984.31901390311259
 34
0.0
1001
ACAD
1000
DSTYLE
1002
{
1070
   287
1070
     3
1070
    40
1040
12.0
1070
   143
1040
0.039
1070
   172
1070
     1
1070
   271
1070
     0
1070
   279
1070
     0
1070
   288
1070
     1
1002
}
  0
LINE
  5
7EF0
  8
4
 10
2220.0
 20
600.0
 30
0.0
 11
2220.0
 21
360.0
 31
0.0
  0
LINE
  5
7EF1
  8
4
 10
1380.0
 20
600.0
 30
0.0
 11
1380.0
 21
360.0
 31
0.0
  0
LINE
  5
7EF2
  8
4
 10
780.0
 20
600.0
 30
0.0
 11
780.0
 21
360.0
 31
0.0
  0
LINE
  5
7EF5
  8
4
 10
780.0
 20
360.0
 30
0.0
 11
2220.0
 21
360.0
 31
0.0
  0
LINE
  5
7EF6
  8
4
 10
780.0
 20
480.0
 30
0.0
 11
2220.0
 21
480.0
 31
0.0
  0
TEXT
  5
7EF7
  8
4
 10
826.20249701628188
 20
517.85163103993546
 30
0.0
 40
60.0
  1
機器名称
  0
TEXT
  5
7EF8
  8
4
 10
823.509727229757
 20
385.97418807841308
 30
0.0
 40
60.0
  1
機器型番
  0
TEXT
  5
7EF9
  8
4
 10
1413.2144945851969
 20
507.08612274908222
 30
0.0
 40
60.0
  1
ミツヤ多翼送風機
  0
TEXT
  5
7EFA
  8
4
 10
1423.9853947025761
 20
380.59150113593199
 30
0.0
 40
60.0
  1
MF#1 1/4-1
  0
TEXT
  5
7EFC
  8
4
 10
903.88358137757666
 20
2860.1146095990189
 30
0.0
 40
64.799999999999997
  1
床置防振ベット
  0
TEXT
  5
7EFD
  8
4
 10
379.40111199533561
 20
3040.6571714391571
 30
0.0
 40
86.400000000000006
  1
遠心式片吸込片持多翼ファン
  0
LINE
  5
7EFE
  8
4
 10
300.0
 20
2963.2905051177659
 30
0.0
 11
2220.0
 21
2963.2905051177659
 31
0.0
  0
LINE
  5
7EFF
  8
4
 10
300.0
 20
3203.290505117765
 30
0.0
 11
2220.0
 21
3203.290505117765
 31
0.0
  0
LINE
  5
7F00
  8
4
 10
780.0
 20
600.0
 30
0.0
 11
2220.0
 21
600.0
 31
0.0
  0
LINE
  5
7F01
  8
4
 10
300.0
 20
3203.290505117765
 30
0.0
 11
300.0
 21
2963.2905051177659
 31
0.0
  0
TEXT
  5
7F02
  8
4
 10
380.85298268633409
 20
2858.7833730556122
 30
0.0
 40
64.799999999999997
  1
左回転右横向
  0
TEXT
  5
7F03
  8
4
 10
1762.763471099147
 20
3247.2732977943701
 30
0.0
 40
67.200000000000003
  1
No.
  0
TEXT
  5
7F04
  8
4
 10
1573.555275120015
 20
2860.1146095990189
 30
0.0
 40
64.799999999999997
  1
縮尺：1/12
  0
LINE
  5
7F05
  8
4
 10
2220.0
 20
3203.290505117765
 30
0.0
 11
2220.0
 21
2963.2905051177659
 31
0.0
  0
LINE
  5
7F06
  8
4
 10
2520.0
 20
3540.0
 30
0.0
 11
2520.0
 21
3540.0
 31
0.0
  0
LINE
  5
7F07
  8
4
 10
1728.740906831837
 20
3217.5162997504808
 30
0.0
 11
1728.740906831837
 21
3343.9827138597029
 31
0.0
  0
LINE
  5
7F08
  8
4
 10
1728.740906831837
 20
3343.9827138597029
 30
0.0
 11
2220.0
 21
3343.9827138597029
 31
0.0
  0
LINE
  5
7F09
  8
4
 10
2220.0
 20
3343.9827138597029
 30
0.0
 11
2220.0
 21
3217.5162997504808
 31
0.0
  0
LINE
  5
7F0A
  8
4
 10
2220.0
 20
3217.5162997504808
 30
0.0
 11
1728.740906831837
 21
3217.5162997504808
 31
0.0
  0
LINE
  5
7F0B
  8
4
 10
0.0
 20
0.0
 30
0.0
 11
0.0
 21
3540.0
 31
0.0
  0
LINE
  5
7F0C
  8
4
 10
0.0
 20
3540.0
 30
0.0
 11
2520.0
 21
3540.0
 31
0.0
  0
LINE
  5
7F0D
  8
4
 10
2520.0
 20
3540.0
 30
0.0
 11
2520.0
 21
0.0
 31
0.0
  0
LINE
  5
7F0E
  8
4
 10
2520.0
 20
0.0
 30
0.0
 11
0.0
 21
0.0
 31
0.0
  0
CIRCLE
  5
822F
  8
1
 10
751.33874170275499
 20
1204.3190139031119
 30
0.0
 40
50.0
  0
CIRCLE
  5
8230
  8
1
 10
421.33874170275521
 20
1094.3190139031119
 30
0.0
 40
50.0
  0
LINE
  5
8231
  8
1
 10
735.52735340191305
 20
1251.7531788056381
 30
0.0
 11
405.52735340191327
 21
1141.7531788056381
 31
0.0
  0
LINE
  5
8232
  8
1
 10
767.15013000359704
 20
1156.884849000586
 30
0.0
 11
437.1501300035971
 21
1046.884849000586
 31
0.0
  0
LINE
  5
8233
  8
1
 10
1660.3786052943001
 20
1254.4051077903709
 30
0.0
 11
1698.3786052943001
 21
1254.4051077903709
 31
0.0
  0
LINE
  5
8234
  8
1
 10
1660.3786052942989
 20
1154.4051077903709
 30
0.0
 11
1698.3786052943001
 21
1154.4051077903709
 31
0.0
  0
LINE
  5
8235
  8
1
 10
1698.3786052943001
 20
1144.4051077903709
 30
0.0
 11
1660.3786052943001
 21
1144.4051077903709
 31
0.0
  0
LINE
  5
8236
  8
1
 10
1698.3786052943001
 20
1044.4051077903709
 30
0.0
 11
1660.378605294298
 21
1044.4051077903709
 31
0.0
  0
LINE
  5
8237
  8
1
 10
471.33874170275521
 20
2037.7459925316671
 30
0.0
 11
471.33874170275521
 21
1999.7459925316639
 31
0.0
  0
LINE
  5
8238
  8
1
 10
371.33874170275521
 20
2037.7459925316671
 30
0.0
 11
371.3387417027551
 21
1999.7459925316639
 31
0.0
  0
LINE
  5
8239
  8
1
 10
801.3387417027551
 20
1999.7459925316659
 30
0.0
 11
801.33874170275499
 21
2037.7459925316659
 31
0.0
  0
LINE
  5
823A
  8
1
 10
701.33874170275533
 20
1999.7459925316659
 30
0.0
 11
701.3387417027551
 21
2037.7459925316671
 31
0.0
  0
LINE
  5
824B
  8
1
 10
1712.1786052942989
 20
1023.390523814356
 30
0.0
 11
1712.1786052942989
 21
984.40510779037152
 31
0.0
  0
LINE
  5
82CF
  8
1
 10
886.3387417027551
 20
2029.545992531667
 30
0.0
 11
346.33874170275573
 21
2029.545992531667
 31
0.0
  0
LINE
  5
82D0
  8
1
 10
886.33874170275556
 20
2329.5459925316668
 30
0.0
 11
851.3387417027551
 21
2329.5459925316668
 31
0.0
  0
LINE
  5
82D1
  8
1
 10
651.33874170275544
 20
2329.5459925316668
 30
0.0
 11
346.3387417027555
 21
2329.5459925316668
 31
0.0
  0
DIMENSION
  5
82E0
  8
3
  2
*D13
 10
926.3387417027551
 20
1884.9510437011729
 30
0.0
 11
594.12010192520393
 21
1884.9510437011729
 31
0.0
 70
   128
 13
306.33874170275561
 23
1989.545992531667
 33
0.0
 14
926.3387417027551
 24
1989.545992531667
 34
0.0
1001
ACAD
1000
DSTYLE
1002
{
1070
   287
1070
     3
1070
    40
1040
12.0
1070
   143
1040
0.039
1070
   172
1070
     1
1070
   271
1070
     0
1070
   279
1070
     0
1070
   288
1070
     1
1002
}
  0
DIMENSION
  5
82ED
  8
3
  2
*D14
 10
240.29796108285359
 20
1989.545992531667
 30
0.0
 11
240.29796108285331
 21
2166.8801513286489
 31
0.0
 70
   128
 13
306.33874170275561
 23
2369.5459925316668
 33
0.0
 14
306.33874170275561
 24
1989.545992531667
 34
0.0
 50
90.0
1001
ACAD
1000
DSTYLE
1002
{
1070
   287
1070
     3
1070
    40
1040
12.0
1070
   143
1040
0.039
1070
   172
1070
     1
1070
   271
1070
     0
1070
   279
1070
     0
1070
   288
1070
     1
1002
}
  0
DIMENSION
  5
831F
  8
3
  2
*D15
 10
751.33874170275487
 20
796.68580139983987
 30
0.0
 11
528.83874170275487
 21
826.68580139983976
 31
0.0
 70
     0
 13
306.33874170275521
 23
882.31901390311259
 33
0.0
 14
751.33874170275487
 24
882.31901390311259
 34
0.0
1001
ACAD
1000
DSTYLE
1002
{
1070
   287
1070
     3
1070
    40
1040
12.0
1070
   143
1040
0.039
1070
   172
1070
     1
1070
   271
1070
     0
1070
   279
1070
     0
1002
}
  0
DIMENSION
  5
832C
  8
3
  2
*D16
 10
926.3387417027551
 20
796.68580139983987
 30
0.0
 11
838.83874170275499
 21
826.68580139983976
 31
0.0
 70
     0
 13
751.33874170275487
 23
882.31901390311259
 33
0.0
 14
926.3387417027551
 24
882.31901390311214
 34
0.0
1001
ACAD
1000
DSTYLE
1002
{
1070
   287
1070
     3
1070
    40
1040
12.0
1070
   143
1040
0.039
1070
   172
1070
     1
1070
   271
1070
     0
1070
   279
1070
     0
1002
}
  0
DIMENSION
  5
8339
  8
3
  2
*D17
 10
2030.1786052943
 20
796.68580139983987
 30
0.0
 11
1840.1786052943
 21
826.68580139983976
 31
0.0
 70
     0
 13
1650.1786052943
 23
882.40510779037163
 33
0.0
 14
2030.1786052943
 24
882.40510779037174
 34
0.0
1001
ACAD
1000
DSTYLE
1002
{
1070
   287
1070
     3
1070
    40
1040
12.0
1070
   143
1040
0.039
1070
   172
1070
     1
1070
   271
1070
     0
1070
   279
1070
     0
1002
}
  0
DIMENSION
  5
8348
  8
3
  2
*D18
 10
2070.1786052943012
 20
796.68580139983987
 30
0.0
 11
2159.3214624371581
 21
826.68580139983976
 31
0.0
 70
     0
 13
2030.1786052943
 23
882.40510779037174
 33
0.0
 14
2070.1786052943012
 24
882.40510779037186
 34
0.0
1001
ACAD
1000
DSTYLE
1002
{
1070
   287
1070
     3
1070
    40
1040
12.0
1070
   143
1040
0.039
1070
   172
1070
     1
1070
   271
1070
     0
1070
   279
1070
     0
1002
}
  0
LINE
  5
834E
  8
1
 10
1650.1786052943
 20
882.40510779037163
 30
0.0
 11
2030.1786052943
 21
882.40510779037174
 31
0.0
  0
LINE
  5
834F
  8
1
 10
2030.1786052943
 20
882.40510779037174
 30
0.0
 11
2030.178605294301
 21
922.40510779037174
 31
0.0
  0
LINE
  5
8350
  8
1
 10
1650.1786052943
 20
922.40510779037163
 30
0.0
 11
2030.1786052943
 21
922.40510779037174
 31
0.0
  0
LINE
  5
8351
  8
1
 10
1650.1786052943
 20
882.40510779037163
 30
0.0
 11
1650.1786052943
 21
922.4051077903714
 31
0.0
  0
LINE
  5
8352
  8
1
 10
926.3387417027551
 20
922.31901390311214
 30
0.0
 11
926.3387417027551
 21
882.31901390311214
 31
0.0
  0
LINE
  5
8353
  8
1
 10
926.3387417027551
 20
882.31901390311259
 30
0.0
 11
306.33874170275521
 21
882.31901390311259
 31
0.0
  0
LINE
  5
8354
  8
1
 10
306.33874170275521
 20
922.31901390311259
 30
0.0
 11
926.3387417027551
 21
922.31901390311214
 31
0.0
  0
LINE
  5
8355
  8
1
 10
306.33874170275521
 20
922.31901390311259
 30
0.0
 11
306.33874170275521
 21
882.31901390311259
 31
0.0
  0
DIMENSION
  5
8365
  8
3
  2
*D19
 10
1133.8072016911131
 20
882.31901390311259
 30
0.0
 11
1103.8072016911131
 21
793.17615676025548
 31
0.0
 70
     0
 13
926.3387417027551
 23
922.31901390311214
 33
0.0
 14
926.3387417027551
 24
882.31901390311259
 34
0.0
 50
90.0
1001
ACAD
1000
DSTYLE
1002
{
1070
   287
1070
     3
1070
    40
1040
12.0
1070
   143
1040
0.039
1070
   172
1070
     1
1070
   271
1070
     0
1070
   279
1070
     0
1070
     6
1000
DOT
1002
}
  0
DIMENSION
  5
8374
  8
3
  2
*D20
 10
1133.8072016911131
 20
944.31901390311248
 30
0.0
 11
1191.2357731196851
 21
933.31901390311236
 31
0.0
 70
     0
 13
926.3387417027551
 23
922.31901390311214
 33
0.0
 14
926.3387417027551
 24
944.31901390311248
 34
0.0
 50
90.0
1001
ACAD
1000
DSTYLE
1002
{
1070
   172
1070
     1
1070
    40
1040
12.0
1070
     3
1000
(<>)
1070
   271
1070
     0
1070
     6
1000
_DOT
1070
   143
1040
0.039
1002
}
  0
DIMENSION
  5
8381
  8
3
  2
*D21
 10
1266.90269837798
 20
882.31901390311259
 30
0.0
 11
1227.4741269494091
 21
1117.317334138128
 31
0.0
 70
     0
 13
741.37233700244042
 23
1352.3156543731441
 33
0.0
 14
926.3387417027551
 24
882.31901390311259
 34
0.0
 50
90.0
1001
ACAD
1000
DSTYLE
1002
{
1070
   172
1070
     1
1070
    40
1040
12.0
1070
     3
1000
(<>)
1070
   271
1070
     0
1070
   143
1040
0.039
1002
}
  0
ENDSEC
  0
EOF
