  0
SECTION
  2
HEADER
  9
$ACADVER
  1
AC1009
  9
$INSBASE
 10
0.0
 20
0.0
 30
0.0
  9
$EXTMIN
 10
0.0
 20
0.0
 30
0.0
  9
$EXTMAX
 10
2520.0
 20
3540.0
 30
0.0
  9
$LIMMIN
 10
0.0
 20
0.0
  9
$LIMMAX
 10
297.0
 20
210.0
  9
$ORTHOMODE
 70
     0
  9
$REGENMODE
 70
     1
  9
$FILLMODE
 70
     0
  9
$QTEXTMODE
 70
     0
  9
$MIRRTEXT
 70
     1
  9
$DRAGMODE
 70
     2
  9
$LTSCALE
 40
100.0
  9
$OSMODE
 70
    37
  9
$ATTMODE
 70
     1
  9
$TEXTSIZE
 40
180.0
  9
$TRACEWID
 40
0.05
  9
$TEXTSTYLE
  7
STANDARD
  9
$CLAYER
  8
3
  9
$CELTYPE
  6
BYLAYER
  9
$CECOLOR
 62
   256
  9
$DIMSCALE
 40
12.0
  9
$DIMASZ
 40
2.0
  9
$DIMEXO
 40
0.5
  9
$DIMDLI
 40
10.0
  9
$DIMRND
 40
0.0
  9
$DIMDLE
 40
0.0
  9
$DIMEXE
 40
1.0
  9
$DIMTP
 40
1.0
  9
$DIMTM
 40
1.0
  9
$DIMTXT
 40
3.0
  9
$DIMCEN
 40
0.0
  9
$DIMTSZ
 40
0.0
  9
$DIMTOL
 70
     0
  9
$DIMLIM
 70
     0
  9
$DIMTIH
 70
     0
  9
$DIMTOH
 70
     0
  9
$DIMSE1
 70
     0
  9
$DIMSE2
 70
     0
  9
$DIMTAD
 70
     1
  9
$DIMZIN
 70
     8
  9
$DIMBLK
  1

  9
$DIMASO
 70
     1
  9
$DIMSHO
 70
     1
  9
$DIMPOST
  1

  9
$DIMAPOST
  1

  9
$DIMALT
 70
     0
  9
$DIMALTD
 70
     2
  9
$DIMALTF
 40
0.039
  9
$DIMLFAC
 40
1.0
  9
$DIMTOFL
 70
     1
  9
$DIMTVP
 40
0.0
  9
$DIMTIX
 70
     0
  9
$DIMSOXD
 70
     0
  9
$DIMSAH
 70
     1
  9
$DIMBLK1
  1
OPEN
  9
$DIMBLK2
  1
OPEN
  9
$DIMSTYLE
  2
IGA
  9
$DIMCLRD
 70
     0
  9
$DIMCLRE
 70
     0
  9
$DIMCLRT
 70
     0
  9
$DIMTFAC
 40
10.0
  9
$DIMGAP
 40
1.0
  9
$LUNITS
 70
     2
  9
$LUPREC
 70
     3
  9
$SKETCHINC
 40
0.1
  9
$FILLETRAD
 40
50.0
  9
$AUNITS
 70
     0
  9
$AUPREC
 70
     0
  9
$MENU
  1
acad
  9
$ELEVATION
 40
0.0
  9
$PELEVATION
 40
0.0
  9
$THICKNESS
 40
0.0
  9
$LIMCHECK
 70
     0
  9
$BLIPMODE
 70
     0
  9
$CHAMFERA
 40
0.5
  9
$CHAMFERB
 40
0.5
  9
$SKPOLY
 70
     0
  9
$TDCREATE
 40
2451936.434461921
  9
$TDUPDATE
 40
2454953.750482488
  9
$TDINDWG
 40
0.0238797222
  9
$TDUSRTIMER
 40
0.0238797222
  9
$USRTIMER
 70
     1
  9
$ANGBASE
 50
0.0
  9
$ANGDIR
 70
     0
  9
$PDMODE
 70
     0
  9
$PDSIZE
 40
0.0
  9
$PLINEWID
 40
0.0
  9
$COORDS
 70
     1
  9
$SPLFRAME
 70
     0
  9
$SPLINETYPE
 70
     6
  9
$SPLINESEGS
 70
     8
  9
$ATTDIA
 70
     0
  9
$ATTREQ
 70
     1
  9
$HANDLING
 70
 10241
  9
$HANDSEED
  5
8366
  9
$SURFTAB1
 70
     6
  9
$SURFTAB2
 70
     6
  9
$SURFTYPE
 70
     6
  9
$SURFU
 70
     6
  9
$SURFV
 70
     6
  9
$UCSNAME
  2

  9
$UCSORG
 10
0.0
 20
0.0
 30
0.0
  9
$UCSXDIR
 10
1.0
 20
0.0
 30
0.0
  9
$UCSYDIR
 10
0.0
 20
1.0
 30
0.0
  9
$PUCSNAME
  2

  9
$PUCSORG
 10
0.0
 20
0.0
 30
0.0
  9
$PUCSXDIR
 10
1.0
 20
0.0
 30
0.0
  9
$PUCSYDIR
 10
0.0
 20
1.0
 30
0.0
  9
$USERI1
 70
     0
  9
$USERI2
 70
     0
  9
$USERI3
 70
     0
  9
$USERI4
 70
     0
  9
$USERI5
 70
     0
  9
$USERR1
 40
0.0
  9
$USERR2
 40
0.0
  9
$USERR3
 40
0.0
  9
$USERR4
 40
0.0
  9
$USERR5
 40
0.0
  9
$WORLDVIEW
 70
     1
  9
$SHADEDGE
 70
     3
  9
$SHADEDIF
 70
    70
  9
$TILEMODE
 70
     1
  9
$MAXACTVP
 70
    16
  9
$PLIMCHECK
 70
     0
  9
$PEXTMIN
 10
1.0000000000000000E+020
 20
1.0000000000000000E+020
 30
1.0000000000000000E+020
  9
$PEXTMAX
 10
-1.0000000000000000E+020
 20
-1.0000000000000000E+020
 30
-1.0000000000000000E+020
  9
$PLIMMIN
 10
0.0
 20
0.0
  9
$PLIMMAX
 10
12.0
 20
9.0
  9
$UNITMODE
 70
     0
  9
$VISRETAIN
 70
     0
  9
$PLINEGEN
 70
     0
  9
$PSLTSCALE
 70
     1
  0
ENDSEC
  0
SECTION
  2
TABLES
  0
TABLE
  2
VPORT
 70
     2
  0
VPORT
  2
*ACTIVE
 70
     0
 10
0.0
 20
0.0
 11
1.0
 21
1.0
 12
4243.9319506216398
 22
1770.000008242205
 13
0.0
 23
0.0
 14
10.0
 24
10.0
 15
10.0
 25
10.0
 16
0.0
 26
0.0
 36
1.0
 17
0.0
 27
0.0
 37
0.0
 40
3567.1378596203222
 41
3.1666666666666661
 42
50.0
 43
0.0
 44
0.0
 50
0.0
 51
0.0
 71
     0
 72
   100
 73
     1
 74
     0
 75
     0
 76
     0
 77
     0
 78
     0
  0
ENDTAB
  0
TABLE
  2
LTYPE
 70
     2
  0
LTYPE
  2
CONTINUOUS
 70
     0
  3
Solid line
 72
    65
 73
     0
 40
0.0
  0
LTYPE
  2
CENTER
 70
     0
  3
____ _ ____ _ ____ _ ____ _ ____ _ ____ _ ____ 
 72
    65
 73
     4
 40
2.0
 49
1.25
 49
-0.25
 49
0.25
 49
-0.25
  0
ENDTAB
  0
TABLE
  2
LAYER
 70
     6
  0
LAYER
  2
0
 70
     0
 62
     7
  6
CONTINUOUS
  0
LAYER
  2
3
 70
     0
 62
     2
  6
CONTINUOUS
  0
LAYER
  2
2
 70
     0
 62
     3
  6
CENTER
  0
LAYER
  2
1
 70
     0
 62
     4
  6
CONTINUOUS
  0
LAYER
  2
4
 70
     0
 62
     7
  6
CONTINUOUS
  0
LAYER
  2
DEFPOINTS
 70
     0
 62
     7
  6
CONTINUOUS
  0
ENDTAB
  0
TABLE
  2
STYLE
 70
     1
  0
STYLE
  2
STANDARD
 70
     0
 40
0.0
 41
1.0
 50
0.0
 71
     0
 42
180.0
  3
simplex.shx
  4
extfont.shx
  0
ENDTAB
  0
TABLE
  2
VIEW
 70
     0
  0
ENDTAB
  0
TABLE
  2
UCS
 70
     0
  0
ENDTAB
  0
TABLE
  2
APPID
 70
     1
  0
APPID
  2
ACAD
 70
     0
  0
ENDTAB
  0
TABLE
  2
DIMSTYLE
 70
     1
  0
DIMSTYLE
  2
IGA
 70
     0
  3

  4

  5

  6
OPEN
  7
OPEN
 40
2.0
 41
2.0
 42
0.5
 43
10.0
 44
1.0
 45
0.0
 46
0.0
 47
1.0
 48
1.0
140
3.0
141
0.0
142
0.0
143
0.03937
144
1.0
145
0.0
146
10.0
147
1.0
 71
     0
 72
     0
 73
     0
 74
     0
 75
     0
 76
     0
 77
     1
 78
     8
170
     0
171
     2
172
     0
173
     1
174
     0
175
     0
176
     0
177
     0
178
     0
  0
ENDTAB
  0
ENDSEC
  0
SECTION
  2
BLOCKS
  0
BLOCK
  8
0
  2
$MODEL_SPACE
 70
     0
 10
0.0
 20
0.0
 30
0.0
  3
$MODEL_SPACE
  1

  0
ENDBLK
  5
1B
  8
0
  0
BLOCK
 67
     1
  8
0
  2
$PAPER_SPACE
 70
     0
 10
0.0
 20
0.0
 30
0.0
  3
$PAPER_SPACE
  1

  0
ENDBLK
  5
18
 67
     1
  8
0
  0
BLOCK
  8
0
  2
_OPEN
 70
     0
 10
0.0
 20
0.0
 30
0.0
  3
_OPEN
  1

  0
LINE
  5
79FD
  8
0
  6
BYBLOCK
 62
     0
 10
-1.0
 20
0.1666666666666666
 30
0.0
 11
0.0
 21
0.0
 31
0.0
  0
LINE
  5
79FE
  8
0
  6
BYBLOCK
 62
     0
 10
0.0
 20
0.0
 30
0.0
 11
-1.0
 21
-0.1666666666666666
 31
0.0
  0
LINE
  5
79FF
  8
0
  6
BYBLOCK
 62
     0
 10
0.0
 20
0.0
 30
0.0
 11
-1.0
 21
0.0
 31
0.0
  0
ENDBLK
  5
7A01
  8
0
  0
BLOCK
  8
0
  2
*D1
 70
     1
 10
0.0
 20
0.0
 30
0.0
  3
*D1
  1

  0
LINE
  5
82CA
  8
3
 62
     0
 10
497.96043309054897
 20
1233.2744673477509
 30
0.0
 11
445.50220320115977
 21
1233.2744673477509
 31
0.0
  0
LINE
  5
82CB
  8
3
 62
     0
 10
497.96043309054897
 20
1033.2744673477509
 30
0.0
 11
445.50220320115972
 21
1033.2744673477509
 31
0.0
  0
LINE
  5
82CC
  8
3
 62
     0
 10
457.50220320115977
 20
1209.2744673477509
 30
0.0
 11
457.50220320115972
 21
1057.2744673477509
 31
0.0
  0
INSERT
  5
82CD
  8
3
 62
     0
  2
_OPEN
 10
457.50220320115977
 20
1233.2744673477509
 30
0.0
 41
24.0
 42
24.0
 43
24.0
 50
90.0
  0
INSERT
  5
82CE
  8
3
 62
     0
  2
_OPEN
 10
457.50220320115972
 20
1033.2744673477509
 30
0.0
 41
24.0
 42
24.0
 43
24.0
 50
270.0
  0
TEXT
  8
3
  40
36
  5
8356
  62
0
  72
0
  71
0
 10
355.502
 20
1069.55
 30
0.000000
  1
200
  0
POINT
  5
82D0
  8
DEFPOINTS
 62
     0
 10
503.96043309054897
 20
1233.2744673477509
 30
0.0
  0
POINT
  5
82D1
  8
DEFPOINTS
 62
     0
 10
503.96043309054897
 20
1033.2744673477509
 30
0.0
  0
POINT
  5
82D2
  8
DEFPOINTS
 62
     0
 10
457.50220320115972
 20
1033.2744673477509
 30
0.0
  0
ENDBLK
  5
7FCF
  8
0
  0
BLOCK
  8
0
  2
*D2
 70
     1
 10
0.0
 20
0.0
 30
0.0
  3
*D2
  1

  0
LINE
  5
82D3
  8
3
 62
     0
 10
497.59603096637869
 20
1232.2744673477509
 30
0.0
 11
387.43632204130108
 21
1232.2744673477509
 31
0.0
  0
LINE
  5
82D4
  8
3
 62
     0
 10
497.96043309054897
 20
1033.2744673477509
 30
0.0
 11
387.43632204130103
 21
1033.2744673477509
 31
0.0
  0
LINE
  5
82D5
  8
3
 62
     0
 10
399.43632204130108
 20
1208.2744673477509
 30
0.0
 11
399.43632204130103
 21
1057.2744673477509
 31
0.0
  0
INSERT
  5
82D6
  8
3
 62
     0
  2
_OPEN
 10
399.43632204130108
 20
1232.2744673477509
 30
0.0
 41
24.0
 42
24.0
 43
24.0
 50
90.0
  0
INSERT
  5
82D7
  8
3
 62
     0
  2
_OPEN
 10
399.43632204130103
 20
1033.2744673477509
 30
0.0
 41
24.0
 42
24.0
 43
24.0
 50
270.0
  0
TEXT
  8
3
  40
36
  5
8357
  62
0
  72
0
  71
0
 10
297.436
 20
1069.05
 30
0.000000
  1
199
  0
POINT
  5
82D9
  8
DEFPOINTS
 62
     0
 10
503.59603096637869
 20
1232.2744673477509
 30
0.0
  0
POINT
  5
82DA
  8
DEFPOINTS
 62
     0
 10
503.96043309054897
 20
1033.2744673477509
 30
0.0
  0
POINT
  5
82DB
  8
DEFPOINTS
 62
     0
 10
399.43632204130103
 20
1033.2744673477509
 30
0.0
  0
ENDBLK
  5
8235
  8
0
  0
BLOCK
  8
0
  2
*D3
 70
     1
 10
0.0
 20
0.0
 30
0.0
  3
*D3
  1

  0
LINE
  5
8066
  8
0
  6
BYBLOCK
 62
     0
 10
2133.1894255110992
 20
1383.2242835782829
 30
0.0
 11
2133.1894255110992
 21
1511.307957059832
 31
0.0
  0
LINE
  5
8067
  8
0
  6
BYBLOCK
 62
     0
 10
2056.1894255111001
 20
1467.751055404746
 30
0.0
 11
2056.1894255111001
 21
1511.307957059832
 31
0.0
  0
LINE
  5
8068
  8
0
  6
BYBLOCK
 62
     0
 10
2109.1894255110992
 20
1499.307957059832
 30
0.0
 11
2080.1894255111001
 21
1499.307957059832
 31
0.0
  0
TEXT
  5
8069
  8
3
 62
     0
 10
2066.2290643805759
 20
1510.6174968078269
 30
0.0
 40
36.0
  1
79
  0
INSERT
  5
806A
  8
0
  6
BYBLOCK
 62
     0
  2
_OPEN
 10
2133.1894255110992
 20
1499.307957059832
 30
0.0
 41
24.0
 42
24.0
 43
24.0
  0
INSERT
  5
806B
  8
0
  6
BYBLOCK
 62
     0
  2
_OPEN
 10
2056.1894255111001
 20
1499.307957059832
 30
0.0
 41
24.0
 42
24.0
 43
24.0
 50
180.0
  0
POINT
  5
806C
  8
DEFPOINTS
  6
BYBLOCK
 62
     0
 10
2133.1894255110992
 20
1377.2242835782829
 30
0.0
  0
POINT
  5
806D
  8
DEFPOINTS
  6
BYBLOCK
 62
     0
 10
2056.1894255111001
 20
1461.751055404746
 30
0.0
  0
POINT
  5
806E
  8
DEFPOINTS
  6
BYBLOCK
 62
     0
 10
2056.1894255111001
 20
1499.307957059832
 30
0.0
  0
ENDBLK
  5
806F
  8
0
  0
BLOCK
  8
0
  2
*D4
 70
     1
 10
0.0
 20
0.0
 30
0.0
  3
*D4
  1

  0
LINE
  5
82DC
  8
3
 62
     0
 10
2056.1894255111001
 20
1467.751055404746
 30
0.0
 11
2056.1894255111001
 21
1511.307957059832
 31
0.0
  0
LINE
  5
82DD
  8
3
 62
     0
 10
1623.189425511099
 20
1318.366526321129
 30
0.0
 11
1623.189425511099
 21
1511.307957059832
 31
0.0
  0
LINE
  5
82DE
  8
3
 62
     0
 10
2032.1894255110999
 20
1499.307957059832
 30
0.0
 11
1647.189425511099
 21
1499.307957059832
 31
0.0
  0
INSERT
  5
82DF
  8
3
 62
     0
  2
_OPEN
 10
2056.1894255111001
 20
1499.307957059832
 30
0.0
 41
24.0
 42
24.0
 43
24.0
  0
INSERT
  5
82E0
  8
3
 62
     0
  2
_OPEN
 10
1623.189425511099
 20
1499.307957059832
 30
0.0
 41
24.0
 42
24.0
 43
24.0
 50
180.0
  0
TEXT
  8
3
  40
36
  5
8358
  62
0
  72
0
  71
0
 10
1767.69
 20
1495.59
 30
0.000000
  1
MAX
  0
TEXT
  8
3
  40
36
  5
8359
  62
0
  72
0
  71
0
 10
1767.69
 20
1448.79
 30
0.000000
  1
520
  0
POINT
  5
82E2
  8
DEFPOINTS
 62
     0
 10
2056.1894255111001
 20
1461.751055404746
 30
0.0
  0
POINT
  5
82E3
  8
DEFPOINTS
 62
     0
 10
1623.189425511099
 20
1312.366526321129
 30
0.0
  0
POINT
  5
82E4
  8
DEFPOINTS
 62
     0
 10
1623.189425511099
 20
1499.307957059832
 30
0.0
  0
ENDBLK
  5
80CE
  8
0
  0
BLOCK
  8
0
  2
*D5
 70
     1
 10
0.0
 20
0.0
 30
0.0
  3
*D5
  1

  0
LINE
  5
8050
  8
0
  6
BYBLOCK
 62
     0
 10
1981.189425511099
 20
1383.2242784411389
 30
0.0
 11
1981.189425511099
 21
1430.040346676846
 31
0.0
  0
LINE
  5
8051
  8
0
  6
BYBLOCK
 62
     0
 10
2131.1894255110979
 20
1383.2242835782829
 30
0.0
 11
2131.1894255110979
 21
1430.040346676846
 31
0.0
  0
LINE
  5
8052
  8
0
  6
BYBLOCK
 62
     0
 10
2005.189425511099
 20
1418.040346676846
 30
0.0
 11
2107.1894255110979
 21
1418.040346676846
 31
0.0
  0
TEXT
  5
8053
  8
3
 62
     0
 10
2013.3322826539561
 20
1427.7004119052201
 30
0.0
 40
36.0
  1
150
  0
INSERT
  5
8054
  8
0
  6
BYBLOCK
 62
     0
  2
_OPEN
 10
1981.189425511099
 20
1418.040346676846
 30
0.0
 41
24.0
 42
24.0
 43
24.0
 50
180.0
  0
INSERT
  5
8055
  8
0
  6
BYBLOCK
 62
     0
  2
_OPEN
 10
2131.1894255110979
 20
1418.040346676846
 30
0.0
 41
24.0
 42
24.0
 43
24.0
  0
POINT
  5
8056
  8
DEFPOINTS
  6
BYBLOCK
 62
     0
 10
1981.189425511099
 20
1377.2242784411389
 30
0.0
  0
POINT
  5
8057
  8
DEFPOINTS
  6
BYBLOCK
 62
     0
 10
2131.1894255110979
 20
1377.2242835782829
 30
0.0
  0
POINT
  5
8058
  8
DEFPOINTS
  6
BYBLOCK
 62
     0
 10
2131.1894255110979
 20
1418.040346676846
 30
0.0
  0
ENDBLK
  5
8059
  8
0
  0
BLOCK
  8
0
  2
*D6
 70
     1
 10
0.0
 20
0.0
 30
0.0
  3
*D6
  1

  0
LINE
  5
82E5
  8
3
 62
     0
 10
2160.1894255110992
 20
1342.36056123501
 30
0.0
 11
2247.206465374938
 21
1342.36056123501
 31
0.0
  0
LINE
  5
82E6
  8
3
 62
     0
 10
2160.1894255110992
 20
1122.36056123501
 30
0.0
 11
2247.206465374938
 21
1122.36056123501
 31
0.0
  0
LINE
  5
82E7
  8
3
 62
     0
 10
2235.206465374938
 20
1318.36056123501
 30
0.0
 11
2235.206465374938
 21
1146.36056123501
 31
0.0
  0
INSERT
  5
82E8
  8
3
 62
     0
  2
_OPEN
 10
2235.206465374938
 20
1342.36056123501
 30
0.0
 41
24.0
 42
24.0
 43
24.0
 50
90.0
  0
INSERT
  5
82E9
  8
3
 62
     0
  2
_OPEN
 10
2235.206465374938
 20
1122.36056123501
 30
0.0
 41
24.0
 42
24.0
 43
24.0
 50
270.0
  0
TEXT
  8
3
  40
36
  5
835A
  62
0
  72
0
  71
0
 10
2133.21
 20
1168.64
 30
0.000000
  1
φ220
  0
POINT
  5
82EB
  8
DEFPOINTS
 62
     0
 10
2154.1894255110992
 20
1342.36056123501
 30
0.0
  0
POINT
  5
82EC
  8
DEFPOINTS
 62
     0
 10
2154.1894255110992
 20
1122.36056123501
 30
0.0
  0
POINT
  5
82ED
  8
DEFPOINTS
 62
     0
 10
2235.206465374938
 20
1122.36056123501
 30
0.0
  0
ENDBLK
  5
80D9
  8
0
  0
BLOCK
  8
0
  2
*D7
 70
     1
 10
0.0
 20
0.0
 30
0.0
  3
*D7
  1

  0
LINE
  5
8221
  8
0
  6
BYBLOCK
 62
     0
 10
693.96043309054903
 20
1380.2744673477509
 30
0.0
 11
328.47182322238672
 21
1380.2744673477509
 31
0.0
  0
LINE
  5
8222
  8
0
  6
BYBLOCK
 62
     0
 10
497.59603096637869
 20
1232.2744673477509
 30
0.0
 11
328.47182322238672
 21
1232.2744673477509
 31
0.0
  0
LINE
  5
8223
  8
0
  6
BYBLOCK
 62
     0
 10
340.47182322238672
 20
1356.2744673477509
 30
0.0
 11
340.47182322238672
 21
1256.2744673477509
 31
0.0
  0
TEXT
  5
8224
  8
3
 62
     0
 10
327.87312912693778
 20
1263.4173244906081
 30
0.0
 40
36.0
  1
148
 50
90.0
  0
INSERT
  5
8225
  8
0
  6
BYBLOCK
 62
     0
  2
_OPEN
 10
340.47182322238672
 20
1380.2744673477509
 30
0.0
 41
24.0
 42
24.0
 43
24.0
 50
90.0
  0
INSERT
  5
8226
  8
0
  6
BYBLOCK
 62
     0
  2
_OPEN
 10
340.47182322238672
 20
1232.2744673477509
 30
0.0
 41
24.0
 42
24.0
 43
24.0
 50
270.0
  0
POINT
  5
8227
  8
DEFPOINTS
  6
BYBLOCK
 62
     0
 10
699.96043309054903
 20
1380.2744673477509
 30
0.0
  0
POINT
  5
8228
  8
DEFPOINTS
  6
BYBLOCK
 62
     0
 10
503.59603096637869
 20
1232.2744673477509
 30
0.0
  0
POINT
  5
8229
  8
DEFPOINTS
  6
BYBLOCK
 62
     0
 10
340.47182322238672
 20
1232.2744673477509
 30
0.0
  0
ENDBLK
  5
822A
  8
0
  0
BLOCK
  8
0
  2
*D8
 70
     1
 10
0.0
 20
0.0
 30
0.0
  3
*D8
  1

  0
LINE
  5
82EE
  8
3
 62
     0
 10
497.59603096637869
 20
1232.2744673477509
 30
0.0
 11
328.47182322238677
 21
1232.2744673477509
 31
0.0
  0
LINE
  5
82EF
  8
3
 62
     0
 10
507.96043309054937
 20
972.2744673477514
 30
0.0
 11
328.47182322238672
 21
972.2744673477514
 31
0.0
  0
LINE
  5
82F0
  8
3
 62
     0
 10
340.47182322238677
 20
1208.2744673477509
 30
0.0
 11
340.47182322238672
 21
996.2744673477514
 31
0.0
  0
INSERT
  5
82F1
  8
3
 62
     0
  2
_OPEN
 10
340.47182322238677
 20
1232.2744673477509
 30
0.0
 41
24.0
 42
24.0
 43
24.0
 50
90.0
  0
INSERT
  5
82F2
  8
3
 62
     0
  2
_OPEN
 10
340.47182322238672
 20
972.2744673477514
 30
0.0
 41
24.0
 42
24.0
 43
24.0
 50
270.0
  0
TEXT
  8
3
  40
36
  5
835B
  62
0
  72
0
  71
0
 10
238.472
 20
1038.55
 30
0.000000
  1
260
  0
POINT
  5
82F4
  8
DEFPOINTS
 62
     0
 10
503.59603096637869
 20
1232.2744673477509
 30
0.0
  0
POINT
  5
82F5
  8
DEFPOINTS
 62
     0
 10
513.96043309054949
 20
972.2744673477514
 30
0.0
  0
POINT
  5
82F6
  8
DEFPOINTS
 62
     0
 10
340.47182322238672
 20
972.2744673477514
 30
0.0
  0
ENDBLK
  5
821F
  8
0
  0
BLOCK
  8
0
  2
*D9
 70
     1
 10
0.0
 20
0.0
 30
0.0
  3
*D9
  1

  0
LINE
  5
82F7
  8
3
 62
     0
 10
503.96043309054897
 20
1261.2744673477509
 30
0.0
 11
503.96043309054897
 21
1463.8404681668369
 31
0.0
  0
LINE
  5
82F8
  8
3
 62
     0
 10
688.96043309054949
 20
1419.8130266925609
 30
0.0
 11
688.96043309054949
 21
1463.8404681668369
 31
0.0
  0
LINE
  5
82F9
  8
3
 62
     0
 10
527.96043309054903
 20
1451.8404681668369
 30
0.0
 11
664.96043309054949
 21
1451.8404681668369
 31
0.0
  0
INSERT
  5
82FA
  8
3
 62
     0
  2
_OPEN
 10
503.96043309054897
 20
1451.8404681668369
 30
0.0
 41
24.0
 42
24.0
 43
24.0
 50
180.0
  0
INSERT
  5
82FB
  8
3
 62
     0
  2
_OPEN
 10
688.96043309054949
 20
1451.8404681668369
 30
0.0
 41
24.0
 42
24.0
 43
24.0
  0
TEXT
  8
3
  40
36
  5
835C
  62
0
  72
0
  71
0
 10
524.460
 20
1418.12
 30
0.000000
  1
185
  0
POINT
  5
82FD
  8
DEFPOINTS
 62
     0
 10
503.96043309054897
 20
1255.2744673477509
 30
0.0
  0
POINT
  5
82FE
  8
DEFPOINTS
 62
     0
 10
688.96043309054949
 20
1413.8130266925609
 30
0.0
  0
POINT
  5
82FF
  8
DEFPOINTS
 62
     0
 10
688.96043309054949
 20
1451.8404681668369
 30
0.0
  0
ENDBLK
  5
8103
  8
0
  0
BLOCK
  8
0
  2
*D10
 70
     1
 10
0.0
 20
0.0
 30
0.0
  3
*D10
  1

  0
LINE
  5
8300
  8
3
 62
     0
 10
688.96043309054949
 20
1419.8130266925609
 30
0.0
 11
688.96043309054949
 21
1463.8404681668369
 31
0.0
  0
LINE
  5
8301
  8
3
 62
     0
 10
858.96043309054915
 20
1224.2744673477509
 30
0.0
 11
858.96043309054915
 21
1463.8404681668369
 31
0.0
  0
LINE
  5
8302
  8
3
 62
     0
 10
712.96043309054937
 20
1451.8404681668369
 30
0.0
 11
834.96043309054903
 21
1451.8404681668369
 31
0.0
  0
INSERT
  5
8303
  8
3
 62
     0
  2
_OPEN
 10
688.96043309054949
 20
1451.8404681668369
 30
0.0
 41
24.0
 42
24.0
 43
24.0
 50
180.0
  0
INSERT
  5
8304
  8
3
 62
     0
  2
_OPEN
 10
858.96043309054915
 20
1451.8404681668369
 30
0.0
 41
24.0
 42
24.0
 43
24.0
  0
TEXT
  8
3
  40
36
  5
835D
  62
0
  72
0
  71
0
 10
701.960
 20
1418.12
 30
0.000000
  1
170
  0
POINT
  5
8306
  8
DEFPOINTS
 62
     0
 10
688.96043309054949
 20
1413.8130266925609
 30
0.0
  0
POINT
  5
8307
  8
DEFPOINTS
 62
     0
 10
858.96043309054915
 20
1218.2744673477509
 30
0.0
  0
POINT
  5
8308
  8
DEFPOINTS
 62
     0
 10
858.96043309054915
 20
1451.8404681668369
 30
0.0
  0
ENDBLK
  5
810E
  8
0
  0
BLOCK
  8
0
  2
_DOT
 70
     0
 10
0.0
 20
0.0
 30
0.0
  3
_DOT
  1

  0
LINE
  5
80DE
  8
0
  6
BYBLOCK
 62
     0
 10
0.0
 20
0.0
 30
0.0
 11
-1.0
 21
-0.0000000000000284
 31
0.0
  0
POLYLINE
  5
80DF
  8
0
  6
BYBLOCK
 62
     0
 66
     1
 10
0.0
 20
0.0
 30
0.0
 70
     1
 40
0.1666666666666666
 41
0.1666666666666666
  0
VERTEX
  5
8309
  8
0
  6
BYBLOCK
 62
     0
 10
-0.0833333333333286
 20
-0.0000000000000284
 30
0.0
 42
1.0
  0
VERTEX
  5
830A
  8
0
  6
BYBLOCK
 62
     0
 10
0.0833333333333286
 20
-0.0000000000000284
 30
0.0
 42
1.0
  0
SEQEND
  5
830B
  8
0
  6
BYBLOCK
 62
     0
  0
ENDBLK
  5
809A
  8
0
  0
BLOCK
  8
0
  2
*D12
 70
     1
 10
0.0
 20
0.0
 30
0.0
  3
*D12
  1

  0
LINE
  5
830C
  8
3
 62
     0
 10
503.96043309054897
 20
1261.2744673477509
 30
0.0
 11
503.96043309054897
 21
1547.012009060021
 31
0.0
  0
LINE
  5
830D
  8
3
 62
     0
 10
1133.960433090549
 20
1018.2744673477511
 30
0.0
 11
1133.960433090549
 21
1547.012009060021
 31
0.0
  0
LINE
  5
830E
  8
3
 62
     0
 10
527.96043309054903
 20
1535.012009060021
 30
0.0
 11
1109.960433090549
 21
1535.012009060021
 31
0.0
  0
INSERT
  5
830F
  8
3
 62
     0
  2
_OPEN
 10
503.96043309054897
 20
1535.012009060021
 30
0.0
 41
24.0
 42
24.0
 43
24.0
 50
180.0
  0
INSERT
  5
8310
  8
3
 62
     0
  2
_OPEN
 10
1133.960433090549
 20
1535.012009060021
 30
0.0
 41
24.0
 42
24.0
 43
24.0
  0
TEXT
  8
3
  40
36
  5
835E
  62
0
  72
0
  71
0
 10
707.256
 20
1501.29
 30
0.000000
  1
630
  0
POINT
  5
8312
  8
DEFPOINTS
 62
     0
 10
503.96043309054897
 20
1255.2744673477509
 30
0.0
  0
POINT
  5
8313
  8
DEFPOINTS
 62
     0
 10
1133.960433090549
 20
1012.2744673477511
 30
0.0
  0
POINT
  5
8314
  8
DEFPOINTS
 62
     0
 10
1133.960433090549
 20
1535.012009060021
 30
0.0
  0
ENDBLK
  5
812E
  8
0
  0
BLOCK
  8
0
  2
*D13
 70
     1
 10
0.0
 20
0.0
 30
0.0
  3
*D13
  1

  0
LINE
  5
8315
  8
3
 62
     0
 10
513.96043309054971
 20
1899.679632197752
 30
0.0
 11
513.96043309054971
 21
1789.1264446417499
 31
0.0
  0
LINE
  5
8316
  8
3
 62
     0
 10
1133.960433090549
 20
1899.679632197752
 30
0.0
 11
1133.960433090549
 21
1789.1264446417499
 31
0.0
  0
LINE
  5
8317
  8
3
 62
     0
 10
537.96043309054971
 20
1801.1264446417499
 30
0.0
 11
1109.960433090549
 21
1801.1264446417499
 31
0.0
  0
INSERT
  5
8318
  8
3
 62
     0
  2
_OPEN
 10
513.96043309054971
 20
1801.1264446417499
 30
0.0
 41
24.0
 42
24.0
 43
24.0
 50
180.0
  0
INSERT
  5
8319
  8
3
 62
     0
  2
_OPEN
 10
1133.960433090549
 20
1801.1264446417499
 30
0.0
 41
24.0
 42
24.0
 43
24.0
  0
TEXT
  8
3
  40
36
  5
835F
  62
0
  72
0
  71
0
 10
736.230
 20
1767.41
 30
0.000000
  1
620
  0
POINT
  5
831B
  8
DEFPOINTS
 62
     0
 10
513.96043309054971
 20
1905.679632197752
 30
0.0
  0
POINT
  5
831C
  8
DEFPOINTS
 62
     0
 10
1133.960433090549
 20
1905.679632197752
 30
0.0
  0
POINT
  5
831D
  8
DEFPOINTS
 62
     0
 10
1133.960433090549
 20
1801.1264446417499
 30
0.0
  0
ENDBLK
  5
81C0
  8
0
  0
BLOCK
  8
0
  2
*D14
 70
     1
 10
0.0
 20
0.0
 30
0.0
  3
*D14
  1

  0
LINE
  5
831E
  8
3
 62
     0
 10
1139.960433090549
 20
2285.6796321977522
 30
0.0
 11
1243.4450315967749
 21
2285.6796321977522
 31
0.0
  0
LINE
  5
831F
  8
3
 62
     0
 10
1139.960433090549
 20
1905.679632197752
 30
0.0
 11
1243.4450315967749
 21
1905.679632197752
 31
0.0
  0
LINE
  5
8320
  8
3
 62
     0
 10
1231.4450315967749
 20
2261.6796321977522
 30
0.0
 11
1231.4450315967749
 21
1929.679632197752
 31
0.0
  0
INSERT
  5
8321
  8
3
 62
     0
  2
_OPEN
 10
1231.4450315967749
 20
2285.6796321977522
 30
0.0
 41
24.0
 42
24.0
 43
24.0
 50
90.0
  0
INSERT
  5
8322
  8
3
 62
     0
  2
_OPEN
 10
1231.4450315967749
 20
1905.679632197752
 30
0.0
 41
24.0
 42
24.0
 43
24.0
 50
270.0
  0
TEXT
  8
3
  40
36
  5
8360
  62
0
  72
0
  71
0
 10
1129.45
 20
2017.73
 30
0.000000
  1
380
  0
POINT
  5
8324
  8
DEFPOINTS
 62
     0
 10
1133.960433090549
 20
2285.6796321977522
 30
0.0
  0
POINT
  5
8325
  8
DEFPOINTS
 62
     0
 10
1133.960433090549
 20
1905.679632197752
 30
0.0
  0
POINT
  5
8326
  8
DEFPOINTS
 62
     0
 10
1231.4450315967749
 20
1905.679632197752
 30
0.0
  0
ENDBLK
  5
81CD
  8
0
  0
BLOCK
  8
0
  2
*D15
 70
     1
 10
0.0
 20
0.0
 30
0.0
  3
*D15
  1

  0
LINE
  5
8327
  8
3
 62
     0
 10
513.96043309054949
 20
966.27446734775128
 30
0.0
 11
513.96043309054949
 21
881.82879837833025
 31
0.0
  0
LINE
  5
8328
  8
3
 62
     0
 10
688.96043309054994
 20
966.27446734775128
 30
0.0
 11
688.96043309054994
 21
881.82879837833025
 31
0.0
  0
LINE
  5
8329
  8
3
 62
     0
 10
537.96043309054937
 20
893.82879837833025
 30
0.0
 11
664.96043309054994
 21
893.82879837833025
 31
0.0
  0
INSERT
  5
832A
  8
3
 62
     0
  2
_OPEN
 10
513.96043309054949
 20
893.82879837833025
 30
0.0
 41
24.0
 42
24.0
 43
24.0
 50
180.0
  0
INSERT
  5
832B
  8
3
 62
     0
  2
_OPEN
 10
688.96043309054994
 20
893.82879837833025
 30
0.0
 41
24.0
 42
24.0
 43
24.0
  0
TEXT
  8
3
  40
36
  5
8361
  62
0
  72
0
  71
0
 10
529.460
 20
860.109
 30
0.000000
  1
175
  0
POINT
  5
832D
  8
DEFPOINTS
 62
     0
 10
513.96043309054949
 20
972.2744673477514
 30
0.0
  0
POINT
  5
832E
  8
DEFPOINTS
 62
     0
 10
688.96043309054994
 20
972.2744673477514
 30
0.0
  0
POINT
  5
832F
  8
DEFPOINTS
 62
     0
 10
688.96043309054994
 20
893.82879837833025
 30
0.0
  0
ENDBLK
  5
8273
  8
0
  0
BLOCK
  8
0
  2
*D16
 70
     1
 10
0.0
 20
0.0
 30
0.0
  3
*D16
  1

  0
LINE
  5
8330
  8
3
 62
     0
 10
688.96043309054994
 20
966.27446734775128
 30
0.0
 11
688.96043309054994
 21
881.82879837833025
 31
0.0
  0
LINE
  5
8331
  8
3
 62
     0
 10
1133.960433090549
 20
966.27446734775128
 30
0.0
 11
1133.960433090549
 21
881.82879837833025
 31
0.0
  0
LINE
  5
8332
  8
3
 62
     0
 10
712.96043309054994
 20
893.82879837833025
 30
0.0
 11
1109.960433090549
 21
893.82879837833025
 31
0.0
  0
INSERT
  5
8333
  8
3
 62
     0
  2
_OPEN
 10
688.96043309054994
 20
893.82879837833025
 30
0.0
 41
24.0
 42
24.0
 43
24.0
 50
180.0
  0
INSERT
  5
8334
  8
3
 62
     0
  2
_OPEN
 10
1133.960433090549
 20
893.82879837833025
 30
0.0
 41
24.0
 42
24.0
 43
24.0
  0
TEXT
  8
3
  40
36
  5
8362
  62
0
  72
0
  71
0
 10
839.460
 20
860.109
 30
0.000000
  1
445
  0
POINT
  5
8336
  8
DEFPOINTS
 62
     0
 10
688.96043309054994
 20
972.2744673477514
 30
0.0
  0
POINT
  5
8337
  8
DEFPOINTS
 62
     0
 10
1133.960433090549
 20
972.2744673477514
 30
0.0
  0
POINT
  5
8338
  8
DEFPOINTS
 62
     0
 10
1133.960433090549
 20
893.82879837833025
 30
0.0
  0
ENDBLK
  5
8280
  8
0
  0
BLOCK
  8
0
  2
*D17
 70
     1
 10
0.0
 20
0.0
 30
0.0
  3
*D17
  1

  0
LINE
  5
8339
  8
3
 62
     0
 10
1636.1894255110999
 20
966.36056123501055
 30
0.0
 11
1636.1894255110999
 21
881.82879837833025
 31
0.0
  0
LINE
  5
833A
  8
3
 62
     0
 10
2016.1894255110999
 20
966.36056123501066
 30
0.0
 11
2016.1894255110999
 21
881.82879837833025
 31
0.0
  0
LINE
  5
833B
  8
3
 62
     0
 10
1660.1894255110999
 20
893.82879837833025
 30
0.0
 11
1992.1894255110999
 21
893.82879837833025
 31
0.0
  0
INSERT
  5
833C
  8
3
 62
     0
  2
_OPEN
 10
1636.1894255110999
 20
893.82879837833025
 30
0.0
 41
24.0
 42
24.0
 43
24.0
 50
180.0
  0
INSERT
  5
833D
  8
3
 62
     0
  2
_OPEN
 10
2016.1894255110999
 20
893.82879837833025
 30
0.0
 41
24.0
 42
24.0
 43
24.0
  0
TEXT
  8
3
  40
36
  5
8363
  62
0
  72
0
  71
0
 10
1754.19
 20
860.109
 30
0.000000
  1
380
  0
POINT
  5
833F
  8
DEFPOINTS
 62
     0
 10
1636.1894255110999
 20
972.36056123501044
 30
0.0
  0
POINT
  5
8340
  8
DEFPOINTS
 62
     0
 10
2016.1894255110999
 20
972.36056123501066
 30
0.0
  0
POINT
  5
8341
  8
DEFPOINTS
 62
     0
 10
2016.1894255110999
 20
893.82879837833025
 30
0.0
  0
ENDBLK
  5
828D
  8
0
  0
BLOCK
  8
0
  2
*D18
 70
     1
 10
0.0
 20
0.0
 30
0.0
  3
*D18
  1

  0
LINE
  5
8342
  8
3
 62
     0
 10
2016.1894255110999
 20
966.36056123501066
 30
0.0
 11
2016.1894255110999
 21
881.82879837833025
 31
0.0
  0
LINE
  5
8343
  8
3
 62
     0
 10
2056.1894255111001
 20
966.36056123501066
 30
0.0
 11
2056.1894255111001
 21
881.82879837833025
 31
0.0
  0
LINE
  5
8344
  8
3
 62
     0
 10
1992.1894255110999
 20
893.82879837833025
 30
0.0
 11
1968.1894255110999
 21
893.82879837833025
 31
0.0
  0
LINE
  5
8345
  8
3
 62
     0
 10
2080.1894255111001
 20
893.82879837833025
 30
0.0
 11
2186.4751397968139
 21
893.82879837833025
 31
0.0
  0
LINE
  5
8346
  8
3
 62
     0
 10
2016.1894255110999
 20
893.82879837833025
 30
0.0
 11
2056.1894255111001
 21
893.82879837833025
 31
0.0
  0
INSERT
  5
8347
  8
3
 62
     0
  2
_OPEN
 10
2016.1894255110999
 20
893.82879837833025
 30
0.0
 41
24.0
 42
24.0
 43
24.0
  0
INSERT
  5
8348
  8
3
 62
     0
  2
_OPEN
 10
2056.1894255111001
 20
893.82879837833025
 30
0.0
 41
24.0
 42
24.0
 43
24.0
 50
180.0
  0
TEXT
  8
3
  40
36
  5
8364
  62
0
  72
0
  71
0
 10
2073.33
 20
860.109
 30
0.000000
  1
40
  0
POINT
  5
834A
  8
DEFPOINTS
 62
     0
 10
2016.1894255110999
 20
972.36056123501066
 30
0.0
  0
POINT
  5
834B
  8
DEFPOINTS
 62
     0
 10
2056.1894255111001
 20
972.36056123501066
 30
0.0
  0
POINT
  5
834C
  8
DEFPOINTS
 62
     0
 10
2056.1894255111001
 20
893.82879837833025
 30
0.0
  0
ENDBLK
  5
829C
  8
0
  0
BLOCK
  8
0
  2
*D19
 70
     1
 10
0.0
 20
0.0
 30
0.0
  3
*D19
  1

  0
LINE
  5
834D
  8
3
 62
     0
 10
687.96043309054903
 20
1380.2744673477509
 30
0.0
 11
242.30224210888451
 21
1380.2744673477509
 31
0.0
  0
LINE
  5
834E
  8
3
 62
     0
 10
507.96043309054937
 20
972.2744673477514
 30
0.0
 11
242.3022421088844
 21
972.27446734775162
 31
0.0
  0
LINE
  5
834F
  8
3
 62
     0
 10
254.30224210888451
 20
1356.2744673477509
 30
0.0
 11
254.3022421088844
 21
996.2744673477514
 31
0.0
  0
INSERT
  5
8350
  8
3
 62
     0
  2
_OPEN
 10
254.30224210888451
 20
1380.2744673477509
 30
0.0
 41
24.0
 42
24.0
 43
24.0
 50
90.0
  0
INSERT
  5
8351
  8
3
 62
     0
  2
_OPEN
 10
254.3022421088844
 20
972.27446734775162
 30
0.0
 41
24.0
 42
24.0
 43
24.0
 50
270.0
  0
TEXT
  8
3
  40
36
  5
8365
  62
0
  72
0
  71
0
 10
152.302
 20
1112.55
 30
0.000000
  1
408
  0
POINT
  5
8353
  8
DEFPOINTS
 62
     0
 10
693.96043309054903
 20
1380.2744673477509
 30
0.0
  0
POINT
  5
8354
  8
DEFPOINTS
 62
     0
 10
513.96043309054949
 20
972.2744673477514
 30
0.0
  0
POINT
  5
8355
  8
DEFPOINTS
 62
     0
 10
254.3022421088844
 20
972.27446734775162
 30
0.0
  0
ENDBLK
  5
82A9
  8
0
  0
ENDSEC
  0
SECTION
  2
ENTITIES
  0
LINE
  5
7C08
  8
2
 10
688.96043309054949
 20
1413.8130266925609
 30
0.0
 11
688.96043309054994
 21
972.2744673477514
 31
0.0
  0
LINE
  5
7C0A
  8
1
 10
1133.960433090549
 20
1012.2744673477511
 30
0.0
 11
513.96043309054949
 21
1012.2744673477511
 31
0.0
  0
LINE
  5
7C0C
  8
1
 10
1133.960433090549
 20
1012.2744673477511
 30
0.0
 11
1133.960433090549
 21
972.2744673477514
 31
0.0
  0
LINE
  5
7C0D
  8
2
 10
503.59603096637869
 20
1232.2744673477509
 30
0.0
 11
871.81220916758321
 21
1232.2744673477509
 31
0.0
  0
LINE
  5
7C0F
  8
1
 10
513.96043309054949
 20
1012.2744673477511
 30
0.0
 11
513.96043309054949
 21
972.27446734775083
 31
0.0
  0
LINE
  5
7C10
  8
2
 10
2056.1894255111001
 20
1422.1105295990949
 30
0.0
 11
2056.1894255111001
 21
972.36056123501066
 31
0.0
  0
LINE
  5
7C11
  8
2
 10
1600.3972004096361
 20
1232.36056123501
 30
0.0
 11
2163.6571311036791
 21
1232.36056123501
 31
0.0
  0
LINE
  5
7C12
  8
1
 10
1093.960433090549
 20
2285.6796321977522
 30
0.0
 11
1093.960433090549
 21
2207.8796321977511
 31
0.0
  0
LINE
  5
7C13
  8
1
 10
1133.960433090549
 20
2285.6796321977522
 30
0.0
 11
1133.960433090549
 21
1905.679632197752
 31
0.0
  0
LINE
  5
7C17
  8
2
 10
1018.960433090549
 20
2238.3706127549681
 30
0.0
 11
1018.960433090549
 21
1903.5535091884669
 31
0.0
  0
LINE
  5
7C18
  8
1
 10
858.96043309054937
 20
2285.6796321977522
 30
0.0
 11
1133.960433090549
 21
2285.6796321977522
 31
0.0
  0
LINE
  5
7C21
  8
1
 10
1133.960433090549
 20
1905.679632197752
 30
0.0
 11
513.9604330905496
 21
1905.679632197752
 31
0.0
  0
LINE
  5
7C28
  8
1
 10
1093.960433090549
 20
1905.679632197752
 30
0.0
 11
1133.960433090549
 21
1905.679632197752
 31
0.0
  0
CIRCLE
  5
7C29
  8
1
 10
688.96043309054949
 20
1102.2744673477509
 30
0.0
 40
60.0
  0
LINE
  5
7C2A
  8
1
 10
1623.189425511099
 20
1312.366526321129
 30
0.0
 11
1623.189425511099
 21
1012.36056123501
 31
0.0
  0
LINE
  5
7C2B
  8
1
 10
1698.189425511099
 20
1312.366526321129
 30
0.0
 11
1698.189425511099
 21
1275.0507918615881
 31
0.0
  0
LINE
  5
7C2C
  8
1
 10
638.8120996246198
 20
1312.230437732012
 30
0.0
 11
638.8120996246198
 21
1012.2744673477511
 31
0.0
  0
LINE
  5
7C2D
  8
1
 10
1118.8120996246189
 20
1312.230437732012
 30
0.0
 11
1118.8120996246189
 21
1012.2744673477511
 31
0.0
  0
ARC
  5
7C2E
  8
1
 10
699.96043309054903
 20
1221.2744673477509
 30
0.0
 40
159.0
 50
3.9670277620441121
 51
44.27582171153022
  0
LINE
  5
7C2F
  8
1
 10
588.96043309054949
 20
1192.5744673477509
 30
0.0
 11
588.96043309054949
 21
1012.2744673477511
 31
0.0
  0
LINE
  5
7C30
  8
1
 10
788.96043309054949
 20
1192.5744673477509
 30
0.0
 11
788.96043309054949
 21
1012.2744673477511
 31
0.0
  0
ARC
  5
7C31
  8
1
 10
674.96043309054903
 20
1218.2744673477509
 30
0.0
 40
184.0
 50
270.33401164716611
 51
4.3636787978954583
  0
LINE
  5
7C32
  8
1
 10
1953.8894255110999
 20
1298.36056123501
 30
0.0
 11
1953.8894255110999
 21
1048.36056123501
 31
0.0
  0
LINE
  5
7C34
  8
1
 10
1981.189425511099
 20
1232.36056123501
 30
0.0
 11
1981.1894255110981
 21
1033.36056123501
 31
0.0
  0
LINE
  5
7C35
  8
1
 10
2131.1894255110992
 20
1209.36056123501
 30
0.0
 11
2131.1894255110992
 21
1033.36056123501
 31
0.0
  0
LINE
  5
7C37
  8
1
 10
1702.8894255110999
 20
1012.36056123501
 30
0.0
 11
1702.8894255110999
 21
1112.86056123501
 31
0.0
  0
LINE
  5
7C38
  8
1
 10
1636.1894255110999
 20
1012.36056123501
 30
0.0
 11
2016.1894255110999
 21
1012.36056123501
 31
0.0
  0
LINE
  5
7C39
  8
1
 10
1636.1894255110999
 20
972.36056123501044
 30
0.0
 11
2016.1894255110999
 21
972.36056123501066
 31
0.0
  0
LINE
  5
7C3A
  8
1
 10
1973.889425511099
 20
1048.36056123501
 30
0.0
 11
1973.889425511099
 21
1012.36056123501
 31
0.0
  0
LINE
  5
7C3B
  8
1
 10
1981.1894255110981
 20
1048.36056123501
 30
0.0
 11
1953.8894255110999
 21
1048.36056123501
 31
0.0
  0
LINE
  5
7C3C
  8
1
 10
676.03307396392142
 20
1034.277593891823
 30
0.0
 11
503.96043309054897
 21
1033.2744673477509
 31
0.0
  0
ARC
  5
7C3D
  8
1
 10
697.96043309054903
 20
1241.2744673477509
 30
0.0
 40
139.0
 50
89.601644915642666
 51
180.63595989801931
  0
LINE
  5
7C3E
  8
1
 10
1118.8120996246189
 20
1312.230437732012
 30
0.0
 11
638.8120996246198
 21
1312.2304377320111
 31
0.0
  0
LINE
  5
7C40
  8
2
 10
1123.4256330905489
 20
1122.2744673477509
 30
0.0
 11
912.85763309054994
 21
1122.2744673477509
 31
0.0
  0
LINE
  5
7C42
  8
1
 10
613.96043309054949
 20
1195.7744673477509
 30
0.0
 11
613.96043309054949
 21
1198.974467347751
 31
0.0
  0
LINE
  5
7C43
  8
1
 10
763.96043309054949
 20
1198.974467347751
 30
0.0
 11
763.96043309054949
 21
1195.7744673477509
 31
0.0
  0
LINE
  5
7C44
  8
1
 10
596.46043309054937
 20
1298.2744673477509
 30
0.0
 11
596.46043309054937
 21
1195.7744673477509
 31
0.0
  0
LINE
  5
7C45
  8
1
 10
590.46043309054937
 20
1298.2744673477509
 30
0.0
 11
590.46043309054937
 21
1195.7744673477509
 31
0.0
  0
LINE
  5
7C46
  8
1
 10
781.46043309054949
 20
1298.2744673477509
 30
0.0
 11
781.46043309054949
 21
1195.7744673477509
 31
0.0
  0
LINE
  5
7C47
  8
1
 10
787.46043309054937
 20
1298.2744673477509
 30
0.0
 11
787.46043309054937
 21
1195.7744673477509
 31
0.0
  0
ARC
  5
7C48
  8
1
 10
699.96043309054903
 20
1221.2744673477509
 30
0.0
 40
159.0
 50
44.27582171153022
 51
90.372459531405028
  0
LINE
  5
7C49
  8
1
 10
793.96043309054949
 20
1195.7744673477509
 30
0.0
 11
583.96043309054937
 21
1195.7744673477509
 31
0.0
  0
LINE
  5
7C4A
  8
1
 10
793.96043309054949
 20
1192.5744673477509
 30
0.0
 11
583.96043309054937
 21
1192.5744673477509
 31
0.0
  0
LINE
  5
7C4B
  8
1
 10
793.96043309054949
 20
1195.7744673477509
 30
0.0
 11
793.96043309054949
 21
1192.5744673477509
 31
0.0
  0
LINE
  5
7C4C
  8
1
 10
583.96043309054937
 20
1195.7744673477509
 30
0.0
 11
583.96043309054937
 21
1192.5744673477509
 31
0.0
  0
LINE
  5
7C4D
  8
1
 10
613.96043309054949
 20
1198.974467347751
 30
0.0
 11
763.96043309054949
 21
1198.974467347751
 31
0.0
  0
LINE
  5
7C4E
  8
1
 10
787.46043309054937
 20
1298.2744673477509
 30
0.0
 11
781.46043309054949
 21
1298.2744673477509
 31
0.0
  0
LINE
  5
7C4F
  8
1
 10
596.46043309054937
 20
1298.2744673477509
 30
0.0
 11
590.46043309054937
 21
1298.2744673477509
 31
0.0
  0
LINE
  5
7C50
  8
1
 10
523.96043309054858
 20
1013.274127500229
 30
0.0
 11
523.96043309054903
 21
1255.2744673477509
 31
0.0
  0
LINE
  5
7C51
  8
1
 10
503.96043309054852
 20
1013.274127500229
 30
0.0
 11
503.96043309054897
 21
1243.2744673477509
 31
0.0
  0
LINE
  5
7C52
  8
1
 10
559.06128055107445
 20
1233.2744673477509
 30
0.0
 11
503.96043309054897
 21
1233.2744673477509
 31
0.0
  0
ARC
  5
7C53
  8
1
 10
682.96043309054903
 20
1238.2744673477509
 30
0.0
 40
124.0
 50
179.3266721806109
 51
182.3109402091024
  0
LINE
  5
7C54
  8
1
 10
523.96043309054903
 20
1235.2744673477509
 30
0.0
 11
523.96043309054903
 21
1236.2744673477509
 31
0.0
  0
LINE
  5
7C55
  8
1
 10
503.96043309054897
 20
1255.2744673477509
 30
0.0
 11
503.96043309054897
 21
1235.2744673477509
 31
0.0
  0
LINE
  5
7C56
  8
1
 10
523.96043309054903
 20
1255.2744673477509
 30
0.0
 11
503.96043309054897
 21
1255.2744673477509
 31
0.0
  0
LINE
  5
7C57
  8
1
 10
2131.1894255110979
 20
1380.36056123501
 30
0.0
 11
2131.1894255110992
 21
1231.36056123501
 31
0.0
  0
LINE
  5
7C58
  8
1
 10
1981.1894255110999
 20
1380.36056123501
 30
0.0
 11
1981.189425511099
 21
1231.36056123501
 31
0.0
  0
LINE
  5
7C59
  8
1
 10
2154.1894255110992
 20
1342.36056123501
 30
0.0
 11
2154.1894255110992
 21
1122.36056123501
 31
0.0
  0
LINE
  5
7C5C
  8
1
 10
1698.189425511099
 20
1195.86056123501
 30
0.0
 11
1720.3894255110979
 21
1195.86056123501
 31
0.0
  0
LINE
  5
7C5E
  8
1
 10
1684.3894255110999
 20
1282.36056123501
 30
0.0
 11
1684.3894255110999
 21
1187.9105612350099
 31
0.0
  0
LINE
  5
7C5F
  8
1
 10
1646.3894255110999
 20
1282.36056123501
 30
0.0
 11
1646.389425511099
 21
1187.9105612350099
 31
0.0
  0
LINE
  5
7C62
  8
1
 10
1646.389425511099
 20
1187.9105612350099
 30
0.0
 11
1646.3894255110979
 21
1072.36056123501
 31
0.0
  0
LINE
  5
7C63
  8
1
 10
1684.3894255110999
 20
1187.9105612350099
 30
0.0
 11
1684.389425511099
 21
1072.36056123501
 31
0.0
  0
LINE
  5
7C67
  8
1
 10
1623.189425511099
 20
1312.366526321129
 30
0.0
 11
1698.189425511099
 21
1312.366526321129
 31
0.0
  0
LINE
  5
7C68
  8
1
 10
1684.3894255110999
 20
1222.86056123501
 30
0.0
 11
1694.3894255110999
 21
1222.86056123501
 31
0.0
  0
LINE
  5
7C69
  8
1
 10
1694.3894255110999
 20
1222.36056123501
 30
0.0
 11
1721.0894255110991
 21
1222.36056123501
 31
0.0
  0
LINE
  5
7C6A
  8
1
 10
1953.8894255110999
 20
1222.36056123501
 30
0.0
 11
1694.3894255110999
 21
1222.36056123501
 31
0.0
  0
LINE
  5
7C6B
  8
1
 10
1684.3894255110999
 20
1241.86056123501
 30
0.0
 11
1694.3894255110999
 21
1241.86056123501
 31
0.0
  0
LINE
  5
7C6D
  8
1
 10
2134.1894255110992
 20
1122.36056123501
 30
0.0
 11
2154.1894255110992
 21
1122.36056123501
 31
0.0
  0
LINE
  5
7C6E
  8
1
 10
2154.1894255110992
 20
1122.36056123501
 30
0.0
 11
2154.1894255110992
 21
1121.36056123501
 31
0.0
  0
ARC
  5
7C6F
  8
1
 10
2152.1894255110992
 20
1121.36056123501
 30
0.0
 40
2.0
 50
270.0
 51
0.0
  0
LINE
  5
7C70
  8
1
 10
2152.1894255110992
 20
1119.36056123501
 30
0.0
 11
2141.1894255110992
 21
1119.36056123501
 31
0.0
  0
ARC
  5
7C71
  8
1
 10
2141.1894255110992
 20
1115.36056123501
 30
0.0
 40
4.0
 50
90.0
 51
180.0
  0
LINE
  5
7C72
  8
1
 10
2137.1894255110992
 20
1115.36056123501
 30
0.0
 11
2137.1894255110992
 21
1104.36056123501
 31
0.0
  0
ARC
  5
7C73
  8
1
 10
2135.1894255110992
 20
1104.36056123501
 30
0.0
 40
2.0
 50
270.0
 51
0.0
  0
LINE
  5
7C74
  8
1
 10
2135.1894255110992
 20
1102.36056123501
 30
0.0
 11
2134.1894255110992
 21
1102.36056123501
 31
0.0
  0
LINE
  5
7C75
  8
1
 10
2134.1894255110992
 20
1102.36056123501
 30
0.0
 11
2134.1894255110992
 21
1342.36056123501
 31
0.0
  0
LINE
  5
7C76
  8
1
 10
2131.1894255110992
 20
1102.36056123501
 30
0.0
 11
2134.1894255111001
 21
1102.36056123501
 31
0.0
  0
LINE
  5
7C79
  8
1
 10
1953.8894255110999
 20
1298.36056123501
 30
0.0
 11
1978.8894255110979
 21
1298.36056123501
 31
0.0
  0
LINE
  5
7C7A
  8
1
 10
2131.1894255110928
 20
1232.36056123501
 30
0.0
 11
2131.1894255110992
 21
1209.36056123501
 31
0.0
  0
LINE
  5
7C7B
  8
1
 10
2133.1894255110992
 20
1231.36056123501
 30
0.0
 11
2133.1894255110992
 21
1232.36056123501
 31
0.0
  0
LINE
  5
7C7C
  8
1
 10
2152.1894255110992
 20
1345.36056123501
 30
0.0
 11
2151.1894255110992
 21
1345.36056123501
 31
0.0
  0
ARC
  5
7C7D
  8
1
 10
2152.1894255110992
 20
1343.36056123501
 30
0.0
 40
2.0
 50
0.0
 51
90.0
  0
LINE
  5
7C7E
  8
1
 10
2154.1894255110992
 20
1342.36056123501
 30
0.0
 11
2154.1894255110992
 21
1343.36056123501
 31
0.0
  0
LINE
  5
7C7F
  8
1
 10
2151.1894255111001
 20
1342.36056123501
 30
0.0
 11
2154.1894255110992
 21
1342.36056123501
 31
0.0
  0
LINE
  5
7C81
  8
1
 10
513.96043309054949
 20
972.2744673477514
 30
0.0
 11
1133.960433090549
 21
972.2744673477514
 31
0.0
  0
DIMENSION
  5
7C82
  8
3
  2
*D1
 10
457.50220320115972
 20
1033.2744673477509
 30
0.0
 11
427.50220320115949
 21
1133.2744673477509
 31
0.0
 70
     0
 13
503.96043309054897
 23
1233.2744673477509
 33
0.0
 14
503.96043309054897
 24
1033.2744673477509
 34
0.0
 50
90.0
1001
ACAD
1000
DSTYLE
1002
{
1070
   287
1070
     3
1070
    40
1040
12.0
1070
   143
1040
0.039
1070
   172
1070
     1
1070
   271
1070
     0
1070
   279
1070
     0
1070
   288
1070
     1
1002
}
  0
DIMENSION
  5
7C83
  8
3
  2
*D2
 10
399.43632204130103
 20
1033.2744673477509
 30
0.0
 11
369.43632204130091
 21
1132.7744673477509
 31
0.0
 70
     0
 13
503.59603096637869
 23
1232.2744673477509
 33
0.0
 14
503.96043309054897
 24
1033.2744673477509
 34
0.0
 50
90.0
1001
ACAD
1000
DSTYLE
1002
{
1070
   287
1070
     3
1070
    40
1040
12.0
1070
   143
1040
0.039
1070
   172
1070
     1
1070
   271
1070
     0
1070
   279
1070
     0
1070
   288
1070
     1
1002
}
  0
LINE
  5
7C86
  8
1
 10
2016.1894255110999
 20
972.36056123501066
 30
0.0
 11
2016.1894255110999
 21
1012.36056123501
 31
0.0
  0
LINE
  5
7C87
  8
1
 10
1636.1894255110999
 20
972.36056123501044
 30
0.0
 11
1636.1894255110999
 21
1012.36056123501
 31
0.0
  0
LINE
  5
7C88
  8
1
 10
1953.8894255110999
 20
1242.36056123501
 30
0.0
 11
1694.3894255110999
 21
1242.36056123501
 31
0.0
  0
LINE
  5
7C89
  8
1
 10
1694.3894255110999
 20
1242.36056123501
 30
0.0
 11
1694.3894255110999
 21
1241.86056123501
 31
0.0
  0
LINE
  5
7C8A
  8
1
 10
1694.3894255110999
 20
1222.86056123501
 30
0.0
 11
1694.3894255110999
 21
1222.36056123501
 31
0.0
  0
LINE
  5
7C8B
  8
1
 10
1698.189425511099
 20
1012.36056123501
 30
0.0
 11
1623.189425511099
 21
1012.36056123501
 31
0.0
  0
LINE
  5
7C8D
  8
2
 10
480.39654825578413
 20
2325.6796321977522
 30
0.0
 11
878.80386008078165
 21
2325.6796321977522
 31
0.0
  0
LINE
  5
7C8E
  8
1
 10
523.96043309054915
 20
2400.6796321977522
 30
0.0
 11
688.96043309054949
 21
2400.6796321977522
 31
0.0
  0
LINE
  5
7C8F
  8
1
 10
523.96043309054915
 20
2250.6796321977522
 30
0.0
 11
688.96043309054949
 21
2250.6796321977531
 31
0.0
  0
LINE
  5
7C90
  8
1
 10
513.96043309054971
 20
2230.6796321977522
 30
0.0
 11
513.9604330905496
 21
1905.679632197752
 31
0.0
  0
LINE
  5
7C91
  8
1
 10
553.96043309054903
 20
2250.6796321977531
 30
0.0
 11
553.9604330905496
 21
1905.679632197752
 31
0.0
  0
LINE
  5
7C92
  8
2
 10
688.96043309054949
 20
1903.5535091884669
 30
0.0
 11
688.96043309054949
 21
2433.1473377903321
 31
0.0
  0
LINE
  5
7C93
  8
1
 10
608.95446800443085
 20
1892.6796321977511
 30
0.0
 11
608.95446800443085
 21
1967.6796321977511
 31
0.0
  0
LINE
  5
7C94
  8
1
 10
608.95446800443085
 20
1892.6796321977511
 30
0.0
 11
1118.8120996246189
 21
1892.6796321977511
 31
0.0
  0
LINE
  5
7C95
  8
1
 10
733.4104330905493
 20
1915.8796321977511
 30
0.0
 11
1068.960433090549
 21
1915.8796321977491
 31
0.0
  0
LINE
  5
7C96
  8
1
 10
733.4104330905493
 20
1953.879632197752
 30
0.0
 11
1068.960433090549
 21
1953.879632197752
 31
0.0
  0
LINE
  5
7C97
  8
1
 10
608.95446800443085
 20
1967.6796321977511
 30
0.0
 11
1118.8120996246189
 21
1967.6796321977511
 31
0.0
  0
LINE
  5
7C99
  8
1
 10
698.96043309054926
 20
2250.6796321977531
 30
0.0
 11
698.96043309054937
 21
1963.879632197752
 31
0.0
  0
LINE
  5
7C9A
  8
1
 10
678.96043309054971
 20
2250.6796321977522
 30
0.0
 11
678.96043309054937
 21
1963.879632197752
 31
0.0
  0
LINE
  5
7C9B
  8
1
 10
638.96043309054949
 20
1915.879632197752
 30
0.0
 11
733.4104330905493
 21
1915.8796321977511
 31
0.0
  0
LINE
  5
7C9C
  8
1
 10
638.96043309054949
 20
1953.879632197752
 30
0.0
 11
733.4104330905493
 21
1953.879632197752
 31
0.0
  0
LINE
  5
7C9D
  8
1
 10
725.46043309054937
 20
1967.679632197752
 30
0.0
 11
632.46043309054937
 21
1967.679632197752
 31
0.0
  0
LINE
  5
7C9F
  8
1
 10
679.46043309054937
 20
1953.879632197752
 30
0.0
 11
679.46043309054937
 21
1963.879632197752
 31
0.0
  0
LINE
  5
7CA0
  8
1
 10
698.46043309054949
 20
1953.879632197752
 30
0.0
 11
698.46043309054949
 21
1963.879632197752
 31
0.0
  0
LINE
  5
7CA2
  8
1
 10
1118.8120996246189
 20
1967.6796321977511
 30
0.0
 11
1118.8120996246189
 21
1892.6796321977511
 31
0.0
  0
LINE
  5
7CA4
  8
1
 10
1093.960433090549
 20
1989.8796321977511
 30
0.0
 11
1093.960433090549
 21
1905.679632197752
 31
0.0
  0
LINE
  5
7CA5
  8
1
 10
588.96043309054949
 20
1972.75723628539
 30
0.0
 11
588.96043309054949
 21
2250.6796321977531
 31
0.0
  0
LINE
  5
7CA6
  8
1
 10
788.96043309054949
 20
1972.75723628539
 30
0.0
 11
788.96043309054915
 21
2250.6796321977531
 31
0.0
  0
LINE
  5
7CA7
  8
1
 10
588.96043309054949
 20
1972.7572362853889
 30
0.0
 11
678.96043309054937
 21
1972.75723628539
 31
0.0
  0
LINE
  5
7CA9
  8
1
 10
698.96043309054858
 20
1972.75723628539
 30
0.0
 11
788.96043309054949
 21
1972.7572362853889
 31
0.0
  0
DIMENSION
  5
7CAA
  8
3
  2
*D3
 10
2056.1894255111001
 20
1499.307957059832
 30
0.0
 11
2094.514778666291
 21
1528.6174968078269
 31
0.0
 70
   128
  1
79
 13
2133.1894255110992
 23
1377.2242835782829
 33
0.0
 14
2056.1894255111001
 24
1461.751055404746
 34
0.0
1001
ACAD
1000
DSTYLE
1002
{
1070
   288
1070
     1
1070
   172
1070
     1
1070
    40
1040
12.0
1070
   271
1070
     0
1070
   143
1040
0.039
1002
}
  0
DIMENSION
  5
7CAB
  8
3
  2
*D4
 10
1623.189425511099
 20
1499.307957059832
 30
0.0
 11
1839.689425511099
 21
1559.307957059832
 31
0.0
 70
     0
  1
MAX\P520
 13
2056.1894255111001
 23
1461.751055404746
 33
0.0
 14
1623.189425511099
 24
1312.366526321129
 34
0.0
1001
ACAD
1000
DSTYLE
1002
{
1070
   287
1070
     3
1070
    40
1040
12.0
1070
   143
1040
0.039
1070
   172
1070
     1
1070
   271
1070
     0
1070
   279
1070
     0
1070
   288
1070
     1
1002
}
  0
DIMENSION
  5
7CAC
  8
3
  2
*D5
 10
2131.1894255110979
 20
1418.040346676846
 30
0.0
 11
2056.1894255110992
 21
1445.7004119052201
 31
0.0
 70
   128
 13
1981.189425511099
 23
1377.2242784411389
 33
0.0
 14
2131.1894255110979
 24
1377.2242835782829
 34
0.0
1001
ACAD
1000
DSTYLE
1002
{
1070
   288
1070
     1
1070
   172
1070
     1
1070
    40
1040
12.0
1070
   271
1070
     0
1070
   143
1040
0.039
1002
}
  0
DIMENSION
  5
7CAD
  8
3
  2
*D6
 10
2235.206465374938
 20
1122.36056123501
 30
0.0
 11
2205.206465374938
 21
1232.36056123501
 31
0.0
 70
     0
 13
2154.1894255110992
 23
1342.36056123501
 33
0.0
 14
2154.1894255110992
 24
1122.36056123501
 34
0.0
 50
90.0
1001
ACAD
1000
DSTYLE
1002
{
1070
   287
1070
     3
1070
     3
1000
φ<>
1070
    40
1040
12.0
1070
   143
1040
0.039
1070
   172
1070
     1
1070
   271
1070
     0
1070
   279
1070
     0
1070
   288
1070
     1
1002
}
  0
LINE
  5
7CB2
  8
1
 10
2134.1894255110992
 20
1362.36056123501
 30
0.0
 11
2134.1894255110992
 21
1342.36056123501
 31
0.0
  0
LINE
  5
7CB3
  8
1
 10
2137.1894255110992
 20
1349.36056123501
 30
0.0
 11
2137.1894255110992
 21
1360.36056123501
 31
0.0
  0
LINE
  5
7CB4
  8
1
 10
2131.1894255110979
 20
1362.36056123501
 30
0.0
 11
2134.1894255111001
 21
1362.36056123501
 31
0.0
  0
LINE
  5
7CB5
  8
1
 10
2135.1894255110992
 20
1362.36056123501
 30
0.0
 11
2134.1894255110992
 21
1362.36056123501
 31
0.0
  0
ARC
  5
7CB6
  8
1
 10
2135.1894255110992
 20
1360.36056123501
 30
0.0
 40
2.0
 50
0.0
 51
90.0
  0
LINE
  5
7CB7
  8
1
 10
2152.1894255110992
 20
1345.36056123501
 30
0.0
 11
2141.1894255110992
 21
1345.36056123501
 31
0.0
  0
LINE
  5
7CB8
  8
1
 10
2134.1894255110992
 20
1342.36056123501
 30
0.0
 11
2154.1894255110992
 21
1342.36056123501
 31
0.0
  0
ARC
  5
7CB9
  8
1
 10
2141.1894255110992
 20
1349.36056123501
 30
0.0
 40
4.0
 50
180.0
 51
270.0
  0
ARC
  5
7CBA
  8
1
 10
2152.1894255110992
 20
1343.36056123501
 30
0.0
 40
2.0
 50
0.0
 51
90.0
  0
LINE
  5
7CBB
  8
1
 10
2154.1894255110992
 20
1342.36056123501
 30
0.0
 11
2154.1894255110992
 21
1343.36056123501
 31
0.0
  0
LINE
  5
7CBC
  8
1
 10
687.96043309054937
 20
2400.6796321977522
 30
0.0
 11
858.96043309054915
 21
2400.6796321977531
 31
0.0
  0
LINE
  5
7CBD
  8
1
 10
687.96043309054937
 20
2250.6796321977522
 30
0.0
 11
858.96043309054915
 21
2250.6796321977531
 31
0.0
  0
DIMENSION
  5
7CBE
  8
3
  2
*D7
 10
340.47182322238672
 20
1232.2744673477509
 30
0.0
 11
309.87312912693773
 21
1306.2744673477509
 31
0.0
 70
   128
 13
699.96043309054903
 23
1380.2744673477509
 33
0.0
 14
503.59603096637869
 24
1232.2744673477509
 34
0.0
 50
90.0
1001
ACAD
1000
DSTYLE
1002
{
1070
   288
1070
     1
1070
   172
1070
     1
1070
    40
1040
12.0
1070
   271
1070
     0
1070
   143
1040
0.039
1002
}
  0
DIMENSION
  5
7CBF
  8
3
  2
*D8
 10
340.47182322238672
 20
972.2744673477514
 30
0.0
 11
310.4718232223866
 21
1102.2744673477509
 31
0.0
 70
     0
 13
503.59603096637869
 23
1232.2744673477509
 33
0.0
 14
513.96043309054949
 24
972.2744673477514
 34
0.0
 50
90.0
1001
ACAD
1000
DSTYLE
1002
{
1070
   287
1070
     3
1070
    40
1040
12.0
1070
   143
1040
0.039
1070
   172
1070
     1
1070
   271
1070
     0
1070
   279
1070
     0
1070
   288
1070
     1
1002
}
  0
DIMENSION
  5
7CC2
  8
3
  2
*D9
 10
688.96043309054949
 20
1451.8404681668369
 30
0.0
 11
596.46043309054915
 21
1451.8404681668369
 31
0.0
 70
   128
 13
503.96043309054897
 23
1255.2744673477509
 33
0.0
 14
688.96043309054949
 24
1413.8130266925609
 34
0.0
1001
ACAD
1000
DSTYLE
1002
{
1070
   287
1070
     3
1070
    40
1040
12.0
1070
   143
1040
0.039
1070
   172
1070
     1
1070
   271
1070
     0
1070
   279
1070
     0
1070
   288
1070
     1
1002
}
  0
DIMENSION
  5
7CC3
  8
3
  2
*D10
 10
858.96043309054915
 20
1451.8404681668369
 30
0.0
 11
773.96043309054926
 21
1481.8404681668369
 31
0.0
 70
     0
 13
688.96043309054949
 23
1413.8130266925609
 33
0.0
 14
858.96043309054915
 24
1218.2744673477509
 34
0.0
1001
ACAD
1000
DSTYLE
1002
{
1070
   287
1070
     3
1070
    40
1040
12.0
1070
   143
1040
0.039
1070
   172
1070
     1
1070
   271
1070
     0
1070
   279
1070
     0
1070
   288
1070
     1
1002
}
  0
LINE
  5
7CC4
  8
1
 10
503.96043309054852
 20
1013.274127500229
 30
0.0
 11
523.96043309054858
 21
1013.274127500229
 31
0.0
  0
LINE
  5
7CC5
  8
1
 10
1981.1894255110981
 20
1033.36056123501
 30
0.0
 11
2131.1894255110992
 21
1033.36056123501
 31
0.0
  0
LINE
  5
7CC6
  8
1
 10
1981.189425511099
 20
1380.36056123501
 30
0.0
 11
2131.1894255110969
 21
1380.36056123501
 31
0.0
  0
LINE
  5
7CC7
  8
1
 10
2153.1894255110992
 20
1119.6285104274409
 30
0.0
 11
2153.1894255110992
 21
1013.36056123501
 31
0.0
  0
LINE
  5
7CC8
  8
1
 10
1973.889425511099
 20
1013.36056123501
 30
0.0
 11
2153.1894255110992
 21
1013.36056123501
 31
0.0
  0
LINE
  5
7CC9
  8
1
 10
1981.1894255110981
 20
1233.36056123501
 30
0.0
 11
2133.1894255110992
 21
1233.36056123501
 31
0.0
  0
LINE
  5
7CCA
  8
1
 10
2131.1894255110992
 20
1233.36056123501
 30
0.0
 11
1981.1894255110981
 21
1033.36056123501
 31
0.0
  0
LINE
  5
7CCB
  8
1
 10
1981.189425511099
 20
1233.36056123501
 30
0.0
 11
2131.1894255110992
 21
1033.36056123501
 31
0.0
  0
LINE
  5
7CCC
  8
1
 10
503.9604330905488
 20
2230.6796321977522
 30
0.0
 11
503.96043309054897
 21
2420.6796321977508
 31
0.0
  0
LINE
  5
7CCD
  8
1
 10
858.96043309054915
 20
2250.6796321977531
 30
0.0
 11
858.96043309054937
 21
2400.6796321977531
 31
0.0
  0
LINE
  5
7CCE
  8
1
 10
523.96043309054915
 20
2230.6796321977522
 30
0.0
 11
523.96043309054915
 21
2420.6796321977508
 31
0.0
  0
LINE
  5
7CCF
  8
1
 10
503.9604330905488
 20
2420.6796321977508
 30
0.0
 11
523.96043309054915
 21
2420.6796321977508
 31
0.0
  0
LINE
  5
7CD0
  8
1
 10
503.9604330905488
 20
2230.6796321977522
 30
0.0
 11
523.96043309054915
 21
2230.6796321977522
 31
0.0
  0
LINE
  5
7CD1
  8
2
 10
1907.915303947083
 20
1122.36056123501
 30
0.0
 11
1597.3422325391921
 21
1122.36056123501
 31
0.0
  0
LINE
  5
7CD2
  8
1
 10
1938.3894255110979
 20
1197.16054923501
 30
0.0
 11
1720.3894255110979
 21
1197.16054923501
 31
0.0
  0
LINE
  5
7CD3
  8
1
 10
1720.3894255110979
 20
1044.36056123501
 30
0.0
 11
1938.3894255110979
 21
1044.36056123501
 31
0.0
  0
ARC
  5
7CD4
  8
1
 10
1018.960433090549
 20
1122.2744673477509
 30
0.0
 40
85.0
 50
0.0
 51
244.12446600000001
  0
LINE
  5
7CD5
  8
2
 10
1018.960433090549
 20
1218.562118886083
 30
0.0
 11
1018.960433090549
 21
967.33553528389302
 31
0.0
  0
ARC
  5
7CD6
  8
1
 10
1018.960433090549
 20
1122.2744673477509
 30
0.0
 40
85.0
 50
0.0
 51
244.12446600000001
  0
LINE
  5
7CD7
  8
1
 10
1938.3894255110979
 20
1197.16054923501
 30
0.0
 11
1938.3894255110979
 21
1044.36056123501
 31
0.0
  0
LINE
  5
7CD8
  8
1
 10
911.46043309054937
 20
1012.2744673477511
 30
0.0
 11
1126.460433090549
 21
1012.2744673477511
 31
0.0
  0
LINE
  5
7CD9
  8
1
 10
916.46043309054903
 20
1042.2744673477509
 30
0.0
 11
1121.460433090549
 21
1042.2744673477509
 31
0.0
  0
LINE
  5
7CDA
  8
1
 10
937.18583552478549
 20
1042.2744673477509
 30
0.0
 11
956.63726509054959
 21
1064.4559633477511
 31
0.0
  0
LINE
  5
7CDB
  8
1
 10
916.46043309054949
 20
1042.2744673477509
 30
0.0
 11
911.46043309054937
 21
1012.2744673477511
 31
0.0
  0
LINE
  5
7CDC
  8
1
 10
941.46043309054949
 20
1042.2744673477509
 30
0.0
 11
976.46043309054949
 21
1042.2744673477509
 31
0.0
  0
LINE
  5
7CDD
  8
1
 10
1107.4270160905489
 20
1122.6780313477509
 30
0.0
 11
1103.9307630905489
 21
1121.741344347751
 31
0.0
  0
ARC
  5
7CDE
  8
1
 10
1018.960433090549
 20
1122.2744673477509
 30
0.0
 40
85.000007999999994
 50
295.9177259999999
 51
0.0
  0
LINE
  5
7CDF
  8
1
 10
1100.734941765143
 20
1042.2744673477509
 30
0.0
 11
1081.2817410905491
 21
1064.4581053477509
 31
0.0
  0
LINE
  5
7CE0
  8
1
 10
981.86493409054935
 20
1045.823539347751
 30
0.0
 11
1056.112242090549
 21
1045.823539347751
 31
0.0
  0
LINE
  5
7CE1
  8
1
 10
1096.460433090549
 20
1042.2744673477509
 30
0.0
 11
1061.460433090549
 21
1042.2744673477509
 31
0.0
  0
LINE
  5
7CE2
  8
1
 10
1121.460433090549
 20
1042.2744673477509
 30
0.0
 11
1126.4604330905479
 21
1012.2744673477511
 31
0.0
  0
LINE
  5
7CE3
  8
1
 10
1710.3894255110979
 20
1088.86056123501
 30
0.0
 11
1710.3894255110979
 21
1155.86056123501
 31
0.0
  0
LINE
  5
7CE4
  8
1
 10
1720.3894255110979
 20
1044.36056123501
 30
0.0
 11
1720.3894255110979
 21
1197.16054923501
 31
0.0
  0
LINE
  5
7CE5
  8
1
 10
1865.3894255110979
 20
1044.36056123501
 30
0.0
 11
1865.3894255110979
 21
1012.36056123501
 31
0.0
  0
LINE
  5
7CE6
  8
1
 10
1745.3894255110979
 20
1044.36056123501
 30
0.0
 11
1745.3894255110979
 21
1012.36056123501
 31
0.0
  0
LINE
  5
7CE7
  8
1
 10
1705.3894255110979
 20
1132.86056123501
 30
0.0
 11
1710.3894255110979
 21
1132.86056123501
 31
0.0
  0
LINE
  5
7CE8
  8
1
 10
1705.3894255110979
 20
1111.86056123501
 30
0.0
 11
1710.3894255110979
 21
1111.86056123501
 31
0.0
  0
LINE
  5
7CE9
  8
1
 10
1720.3894255110979
 20
1088.86056123501
 30
0.0
 11
1710.3894255110979
 21
1088.86056123501
 31
0.0
  0
LINE
  5
7CEA
  8
1
 10
1720.3894255110979
 20
1092.4255642350099
 30
0.0
 11
1720.3894255110979
 21
1083.7955592350099
 31
0.0
  0
LINE
  5
7CEB
  8
1
 10
1720.3894255110979
 20
1094.6106222350099
 30
0.0
 11
1720.3894255110979
 21
1082.3466882350101
 31
0.0
  0
LINE
  5
7CEC
  8
1
 10
1720.3894255110979
 20
1083.6763572350101
 30
0.0
 11
1720.3894255110979
 21
1092.6763572350101
 31
0.0
  0
LINE
  5
7CED
  8
1
 10
1705.3894255110979
 20
1131.86056123501
 30
0.0
 11
1684.3894255110999
 21
1131.86056123501
 31
0.0
  0
LINE
  5
7CEE
  8
1
 10
1684.3894255110999
 20
1112.86056123501
 30
0.0
 11
1705.3894255110979
 21
1112.86056123501
 31
0.0
  0
LINE
  5
7CEF
  8
1
 10
1705.3894255110979
 20
1111.86056123501
 30
0.0
 11
1705.3894255110979
 21
1132.86056123501
 31
0.0
  0
LINE
  5
7CF0
  8
1
 10
1710.3894255110979
 20
1155.86056123501
 30
0.0
 11
1720.3894255110979
 21
1155.86056123501
 31
0.0
  0
LINE
  5
7CF1
  8
1
 10
1720.3894255110979
 20
1195.1755642350099
 30
0.0
 11
1720.3894255110979
 21
1186.5455592350099
 31
0.0
  0
LINE
  5
7CF2
  8
1
 10
1720.3894255110979
 20
1186.4263572350101
 30
0.0
 11
1720.3894255110979
 21
1195.4263572350101
 31
0.0
  0
LINE
  5
7CF3
  8
1
 10
1096.960433090549
 20
1989.8796321977511
 30
0.0
 11
944.16044509054973
 21
1989.8796321977511
 31
0.0
  0
LINE
  5
7CF4
  8
1
 10
944.16044509054973
 20
2207.8796321977511
 30
0.0
 11
1096.960433090549
 21
2207.8796321977511
 31
0.0
  0
LINE
  5
7CF5
  8
1
 10
1096.960433090549
 20
1989.87963219775
 30
0.0
 11
1096.960433090549
 21
2207.8796321977511
 31
0.0
  0
LINE
  5
7CF6
  8
1
 10
985.46043309054949
 20
1979.8796321977511
 30
0.0
 11
985.46043309054949
 21
1989.8796321977511
 31
0.0
  0
LINE
  5
7CF7
  8
1
 10
1052.460433090549
 20
1989.8796321977511
 30
0.0
 11
1052.460433090549
 21
1979.8796321977511
 31
0.0
  0
LINE
  5
7CF8
  8
1
 10
1029.460433090549
 20
1974.8796321977511
 30
0.0
 11
1008.460433090549
 21
1974.8796321977511
 31
0.0
  0
LINE
  5
7CF9
  8
1
 10
1052.460433090549
 20
1979.8796321977511
 30
0.0
 11
985.46043309054949
 21
1979.8796321977511
 31
0.0
  0
LINE
  5
7CFA
  8
1
 10
1028.460433090549
 20
1953.879632197752
 30
0.0
 11
1028.460433090549
 21
1974.8796321977511
 31
0.0
  0
LINE
  5
7CFB
  8
1
 10
1029.460433090549
 20
1974.8796321977511
 30
0.0
 11
1029.460433090549
 21
1979.8796321977511
 31
0.0
  0
LINE
  5
7CFC
  8
1
 10
1009.460433090549
 20
1974.8796321977511
 30
0.0
 11
1009.460433090549
 21
1953.879632197752
 31
0.0
  0
LINE
  5
7CFD
  8
1
 10
1008.460433090549
 20
1974.8796321977511
 30
0.0
 11
1008.460433090549
 21
1979.8796321977511
 31
0.0
  0
LINE
  5
7CFE
  8
1
 10
1057.6446370905489
 20
1989.8796321977511
 30
0.0
 11
1048.6446370905489
 21
1989.8796321977511
 31
0.0
  0
LINE
  5
7CFF
  8
1
 10
1046.7103720905491
 20
1989.8796321977511
 30
0.0
 11
1058.9743060905489
 21
1989.8796321977511
 31
0.0
  0
LINE
  5
7D00
  8
1
 10
1048.8954300905491
 20
1989.8796321977511
 30
0.0
 11
1057.5254350905491
 21
1989.8796321977511
 31
0.0
  0
LINE
  5
7D01
  8
1
 10
944.16044509054973
 20
2207.8796321977511
 30
0.0
 11
944.16044509054973
 21
1989.8796321977511
 31
0.0
  0
ARC
  5
7D02
  8
1
 10
950.38613809054903
 20
1988.8796321977511
 30
0.0
 40
2.0
 50
150.0
 51
168.86095999999989
  0
LINE
  5
7D03
  8
1
 10
954.89463709054951
 20
1989.8796321977511
 30
0.0
 11
945.89463709054951
 21
1989.8796321977511
 31
0.0
  0
LINE
  5
7D04
  8
1
 10
946.14543009054967
 20
1989.8796321977511
 30
0.0
 11
954.77543509054965
 21
1989.8796321977511
 31
0.0
  0
LINE
  5
7D05
  8
1
 10
1938.3894255110979
 20
1195.86056123501
 30
0.0
 11
1953.8894255110999
 21
1195.86056123501
 31
0.0
  0
LINE
  5
7D06
  8
1
 10
1702.8894255110999
 20
1131.86056123501
 30
0.0
 11
1702.8894255110999
 21
1195.86056123501
 31
0.0
  0
LINE
  5
7EE7
  8
4
 10
2220.0
 20
600.0
 30
0.0
 11
2220.0
 21
360.0
 31
0.0
  0
LINE
  5
7EE8
  8
4
 10
1380.0
 20
600.0
 30
0.0
 11
1380.0
 21
360.0
 31
0.0
  0
LINE
  5
7EE9
  8
4
 10
780.0
 20
600.0
 30
0.0
 11
780.0
 21
360.0
 31
0.0
  0
LINE
  5
7EEC
  8
4
 10
780.0
 20
360.0
 30
0.0
 11
2220.0
 21
360.0
 31
0.0
  0
LINE
  5
7EED
  8
4
 10
780.0
 20
480.0
 30
0.0
 11
2220.0
 21
480.0
 31
0.0
  0
TEXT
  5
7EEE
  8
4
 10
826.20249701628188
 20
517.85163103993546
 30
0.0
 40
60.0
  1
機器名称
  0
TEXT
  5
7EEF
  8
4
 10
823.509727229757
 20
385.97418807841308
 30
0.0
 40
60.0
  1
機器型番
  0
TEXT
  5
7EF0
  8
4
 10
1413.2144945851969
 20
507.08612274908222
 30
0.0
 40
60.0
  1
ミツヤ多翼送風機
  0
TEXT
  5
7EF1
  8
4
 10
1423.9853947025761
 20
380.59150113593199
 30
0.0
 40
60.0
  1
MF#1 1/4-1
  0
TEXT
  5
7EF3
  8
4
 10
882.89981877884566
 20
2860.1146095990189
 30
0.0
 40
64.799999999999997
  1
床置ベット
  0
TEXT
  5
7EF4
  8
4
 10
379.40111199533561
 20
3040.6571714391571
 30
0.0
 40
86.400000000000006
  1
遠心式片吸込片持多翼ファン
  0
LINE
  5
7EF5
  8
4
 10
300.0
 20
2963.2905051177659
 30
0.0
 11
2220.0
 21
2963.2905051177659
 31
0.0
  0
LINE
  5
7EF6
  8
4
 10
300.0
 20
3203.290505117765
 30
0.0
 11
2220.0
 21
3203.290505117765
 31
0.0
  0
LINE
  5
7EF7
  8
4
 10
780.0
 20
600.0
 30
0.0
 11
2220.0
 21
600.0
 31
0.0
  0
LINE
  5
7EF8
  8
4
 10
300.0
 20
3203.290505117765
 30
0.0
 11
300.0
 21
2963.2905051177659
 31
0.0
  0
TEXT
  5
7EF9
  8
4
 10
359.86922008760303
 20
2858.7833730556122
 30
0.0
 40
64.799999999999997
  1
右回転左横向
  0
TEXT
  5
7EFA
  8
4
 10
1762.763471099147
 20
3247.2732977943701
 30
0.0
 40
67.200000000000003
  1
No.
  0
TEXT
  5
7EFB
  8
4
 10
1573.555275120015
 20
2860.1146095990189
 30
0.0
 40
64.799999999999997
  1
縮尺：1/12
  0
LINE
  5
7EFC
  8
4
 10
2220.0
 20
3203.290505117765
 30
0.0
 11
2220.0
 21
2963.2905051177659
 31
0.0
  0
LINE
  5
7EFD
  8
4
 10
2520.0
 20
3540.0
 30
0.0
 11
2520.0
 21
3540.0
 31
0.0
  0
LINE
  5
7EFE
  8
4
 10
1728.740906831837
 20
3217.5162997504808
 30
0.0
 11
1728.740906831837
 21
3343.9827138597029
 31
0.0
  0
LINE
  5
7EFF
  8
4
 10
1728.740906831837
 20
3343.9827138597029
 30
0.0
 11
2220.0
 21
3343.9827138597029
 31
0.0
  0
LINE
  5
7F00
  8
4
 10
2220.0
 20
3343.9827138597029
 30
0.0
 11
2220.0
 21
3217.5162997504808
 31
0.0
  0
LINE
  5
7F01
  8
4
 10
2220.0
 20
3217.5162997504808
 30
0.0
 11
1728.740906831837
 21
3217.5162997504808
 31
0.0
  0
LINE
  5
7F02
  8
4
 10
0.0
 20
0.0
 30
0.0
 11
0.0
 21
3540.0
 31
0.0
  0
LINE
  5
7F03
  8
4
 10
0.0
 20
3540.0
 30
0.0
 11
2520.0
 21
3540.0
 31
0.0
  0
LINE
  5
7F04
  8
4
 10
2520.0
 20
3540.0
 30
0.0
 11
2520.0
 21
0.0
 31
0.0
  0
LINE
  5
7F05
  8
4
 10
2520.0
 20
0.0
 30
0.0
 11
0.0
 21
0.0
 31
0.0
  0
CIRCLE
  5
810F
  8
1
 10
688.96043309054971
 20
1232.2744673477509
 30
0.0
 40
50.0
  0
CIRCLE
  5
8110
  8
1
 10
1018.960433090549
 20
1122.2744673477509
 30
0.0
 40
50.0
  0
LINE
  5
8111
  8
1
 10
704.77182139139165
 20
1279.7086322502771
 30
0.0
 11
1034.7718213913911
 21
1169.7086322502771
 31
0.0
  0
LINE
  5
8112
  8
1
 10
673.14904478970766
 20
1184.840302445225
 30
0.0
 11
1003.149044789707
 21
1074.840302445225
 31
0.0
  0
LINE
  5
8113
  8
1
 10
1646.3894255110999
 20
1282.36056123501
 30
0.0
 11
1684.3894255110999
 21
1282.36056123501
 31
0.0
  0
LINE
  5
8114
  8
1
 10
1646.389425511099
 20
1182.36056123501
 30
0.0
 11
1684.3894255110999
 21
1182.36056123501
 31
0.0
  0
LINE
  5
8115
  8
1
 10
1684.389425511099
 20
1172.36056123501
 30
0.0
 11
1646.389425511099
 21
1172.36056123501
 31
0.0
  0
LINE
  5
8116
  8
1
 10
1684.3894255110999
 20
1072.36056123501
 30
0.0
 11
1646.3894255110979
 21
1072.36056123501
 31
0.0
  0
DIMENSION
  5
8123
  8
3
  2
*D12
 10
1133.960433090549
 20
1535.012009060021
 30
0.0
 11
779.25604298190217
 21
1535.012009060021
 31
0.0
 70
   128
 13
503.96043309054897
 23
1255.2744673477509
 33
0.0
 14
1133.960433090549
 24
1012.2744673477511
 34
0.0
1001
ACAD
1000
DSTYLE
1002
{
1070
   287
1070
     3
1070
    40
1040
12.0
1070
   143
1040
0.039
1070
   172
1070
     1
1070
   271
1070
     0
1070
   279
1070
     0
1070
   288
1070
     1
1002
}
  0
LINE
  5
8130
  8
1
 10
738.9604330905496
 20
1915.8796321977511
 30
0.0
 11
738.96043309054949
 21
1953.879632197752
 31
0.0
  0
LINE
  5
8131
  8
1
 10
638.96043309054949
 20
1915.879632197752
 30
0.0
 11
638.96043309054926
 21
1953.879632197752
 31
0.0
  0
LINE
  5
8132
  8
1
 10
1068.960433090549
 20
1953.879632197752
 30
0.0
 11
1068.960433090549
 21
1915.8796321977491
 31
0.0
  0
LINE
  5
8133
  8
1
 10
968.96043309054949
 20
1953.879632197752
 30
0.0
 11
968.96043309054949
 21
1915.87963219775
 31
0.0
  0
LINE
  5
8138
  8
1
 10
1698.189425511099
 20
1042.5131453185691
 30
0.0
 11
1698.189425511099
 21
1012.36056123501
 31
0.0
  0
LINE
  5
81A5
  8
1
 10
553.96043309054892
 20
2245.6796321977522
 30
0.0
 11
1093.960433090549
 21
2245.6796321977522
 31
0.0
  0
LINE
  5
81A6
  8
1
 10
1093.960433090549
 20
1945.679632197752
 30
0.0
 11
553.9604330905496
 21
1945.679632197752
 31
0.0
  0
DIMENSION
  5
81C1
  8
3
  2
*D13
 10
1133.960433090549
 20
1801.1264446417499
 30
0.0
 11
808.22975741118887
 21
1801.1264446417499
 31
0.0
 70
   128
 13
513.96043309054971
 23
1905.679632197752
 33
0.0
 14
1133.960433090549
 24
1905.679632197752
 34
0.0
1001
ACAD
1000
DSTYLE
1002
{
1070
   287
1070
     3
1070
    40
1040
12.0
1070
   143
1040
0.039
1070
   172
1070
     1
1070
   271
1070
     0
1070
   279
1070
     0
1070
   288
1070
     1
1002
}
  0
DIMENSION
  5
81CE
  8
3
  2
*D14
 10
1231.4450315967749
 20
1905.679632197752
 30
0.0
 11
1231.4450315967749
 21
2081.4533642754031
 31
0.0
 70
   128
 13
1133.960433090549
 23
2285.6796321977522
 33
0.0
 14
1133.960433090549
 24
1905.679632197752
 34
0.0
 50
90.0
1001
ACAD
1000
DSTYLE
1002
{
1070
   287
1070
     3
1070
    40
1040
12.0
1070
   143
1040
0.039
1070
   172
1070
     1
1070
   271
1070
     0
1070
   279
1070
     0
1070
   288
1070
     1
1002
}
  0
DIMENSION
  5
8274
  8
3
  2
*D15
 10
688.96043309054994
 20
893.82879837833025
 30
0.0
 11
601.46043309054971
 21
923.82879837833025
 31
0.0
 70
     0
 13
513.96043309054949
 23
972.2744673477514
 33
0.0
 14
688.96043309054994
 24
972.2744673477514
 34
0.0
1001
ACAD
1000
DSTYLE
1002
{
1070
   287
1070
     3
1070
    40
1040
12.0
1070
   143
1040
0.039
1070
   172
1070
     1
1070
   271
1070
     0
1070
   279
1070
     0
1002
}
  0
DIMENSION
  5
8281
  8
3
  2
*D16
 10
1133.960433090549
 20
893.82879837833025
 30
0.0
 11
911.4604330905496
 21
923.82879837833025
 31
0.0
 70
     0
 13
688.96043309054994
 23
972.2744673477514
 33
0.0
 14
1133.960433090549
 24
972.2744673477514
 34
0.0
1001
ACAD
1000
DSTYLE
1002
{
1070
   287
1070
     3
1070
    40
1040
12.0
1070
   143
1040
0.039
1070
   172
1070
     1
1070
   271
1070
     0
1070
   279
1070
     0
1002
}
  0
DIMENSION
  5
828E
  8
3
  2
*D17
 10
2016.1894255110999
 20
893.82879837833025
 30
0.0
 11
1826.1894255110999
 21
923.82879837833025
 31
0.0
 70
     0
 13
1636.1894255110999
 23
972.36056123501044
 33
0.0
 14
2016.1894255110999
 24
972.36056123501066
 34
0.0
1001
ACAD
1000
DSTYLE
1002
{
1070
   287
1070
     3
1070
    40
1040
12.0
1070
   143
1040
0.039
1070
   172
1070
     1
1070
   271
1070
     0
1070
   279
1070
     0
1002
}
  0
DIMENSION
  5
829D
  8
3
  2
*D18
 10
2056.1894255111001
 20
893.82879837833025
 30
0.0
 11
2145.332282653957
 21
923.82879837833025
 31
0.0
 70
     0
 13
2016.1894255110999
 23
972.36056123501066
 33
0.0
 14
2056.1894255111001
 24
972.36056123501066
 34
0.0
1001
ACAD
1000
DSTYLE
1002
{
1070
   287
1070
     3
1070
    40
1040
12.0
1070
   143
1040
0.039
1070
   172
1070
     1
1070
   271
1070
     0
1070
   279
1070
     0
1002
}
  0
DIMENSION
  5
82AA
  8
3
  2
*D19
 10
254.3022421088844
 20
972.27446734775162
 30
0.0
 11
224.30224210888429
 21
1176.2744673477509
 31
0.0
 70
     0
 13
693.96043309054903
 23
1380.2744673477509
 33
0.0
 14
513.96043309054949
 24
972.2744673477514
 34
0.0
 50
90.0
1001
ACAD
1000
DSTYLE
1002
{
1070
   287
1070
     3
1070
    40
1040
12.0
1070
   143
1040
0.039
1070
   172
1070
     1
1070
   271
1070
     0
1070
   279
1070
     0
1002
}
  0
ENDSEC
  0
EOF
