  0
SECTION
  2
HEADER
  9
$ACADVER
  1
AC1009
  9
$INSBASE
 10
0.0
 20
0.0
 30
0.0
  9
$EXTMIN
 10
0.0
 20
0.0
 30
0.0
  9
$EXTMAX
 10
2520.0
 20
3540.0
 30
0.0
  9
$LIMMIN
 10
0.0
 20
0.0
  9
$LIMMAX
 10
297.0
 20
210.0
  9
$ORTHOMODE
 70
     0
  9
$REGENMODE
 70
     1
  9
$FILLMODE
 70
     0
  9
$QTEXTMODE
 70
     0
  9
$MIRRTEXT
 70
     1
  9
$DRAGMODE
 70
     2
  9
$LTSCALE
 40
100.0
  9
$OSMODE
 70
    37
  9
$ATTMODE
 70
     1
  9
$TEXTSIZE
 40
180.0
  9
$TRACEWID
 40
0.05
  9
$TEXTSTYLE
  7
STANDARD
  9
$CLAYER
  8
3
  9
$CELTYPE
  6
BYLAYER
  9
$CECOLOR
 62
   256
  9
$DIMSCALE
 40
12.0
  9
$DIMASZ
 40
2.0
  9
$DIMEXO
 40
0.5
  9
$DIMDLI
 40
10.0
  9
$DIMRND
 40
0.0
  9
$DIMDLE
 40
0.0
  9
$DIMEXE
 40
1.0
  9
$DIMTP
 40
1.0
  9
$DIMTM
 40
1.0
  9
$DIMTXT
 40
3.0
  9
$DIMCEN
 40
0.0
  9
$DIMTSZ
 40
0.0
  9
$DIMTOL
 70
     0
  9
$DIMLIM
 70
     0
  9
$DIMTIH
 70
     0
  9
$DIMTOH
 70
     0
  9
$DIMSE1
 70
     0
  9
$DIMSE2
 70
     0
  9
$DIMTAD
 70
     1
  9
$DIMZIN
 70
     8
  9
$DIMBLK
  1

  9
$DIMASO
 70
     1
  9
$DIMSHO
 70
     1
  9
$DIMPOST
  1

  9
$DIMAPOST
  1

  9
$DIMALT
 70
     0
  9
$DIMALTD
 70
     2
  9
$DIMALTF
 40
0.039
  9
$DIMLFAC
 40
1.0
  9
$DIMTOFL
 70
     1
  9
$DIMTVP
 40
0.0
  9
$DIMTIX
 70
     0
  9
$DIMSOXD
 70
     0
  9
$DIMSAH
 70
     1
  9
$DIMBLK1
  1
OPEN
  9
$DIMBLK2
  1
OPEN
  9
$DIMSTYLE
  2
IGA
  9
$DIMCLRD
 70
     0
  9
$DIMCLRE
 70
     0
  9
$DIMCLRT
 70
     0
  9
$DIMTFAC
 40
10.0
  9
$DIMGAP
 40
1.0
  9
$LUNITS
 70
     2
  9
$LUPREC
 70
     3
  9
$SKETCHINC
 40
0.1
  9
$FILLETRAD
 40
50.0
  9
$AUNITS
 70
     0
  9
$AUPREC
 70
     0
  9
$MENU
  1
acad
  9
$ELEVATION
 40
0.0
  9
$PELEVATION
 40
0.0
  9
$THICKNESS
 40
0.0
  9
$LIMCHECK
 70
     0
  9
$BLIPMODE
 70
     0
  9
$CHAMFERA
 40
0.5
  9
$CHAMFERB
 40
0.5
  9
$SKPOLY
 70
     0
  9
$TDCREATE
 40
2451936.4411934032
  9
$TDUPDATE
 40
2454953.750223333
  9
$TDINDWG
 40
0.0612878704
  9
$TDUSRTIMER
 40
0.0612878704
  9
$USRTIMER
 70
     1
  9
$ANGBASE
 50
0.0
  9
$ANGDIR
 70
     0
  9
$PDMODE
 70
     0
  9
$PDSIZE
 40
0.0
  9
$PLINEWID
 40
0.0
  9
$COORDS
 70
     1
  9
$SPLFRAME
 70
     0
  9
$SPLINETYPE
 70
     6
  9
$SPLINESEGS
 70
     8
  9
$ATTDIA
 70
     0
  9
$ATTREQ
 70
     1
  9
$HANDLING
 70
 10241
  9
$HANDSEED
  5
834A
  9
$SURFTAB1
 70
     6
  9
$SURFTAB2
 70
     6
  9
$SURFTYPE
 70
     6
  9
$SURFU
 70
     6
  9
$SURFV
 70
     6
  9
$UCSNAME
  2

  9
$UCSORG
 10
0.0
 20
0.0
 30
0.0
  9
$UCSXDIR
 10
1.0
 20
0.0
 30
0.0
  9
$UCSYDIR
 10
0.0
 20
1.0
 30
0.0
  9
$PUCSNAME
  2

  9
$PUCSORG
 10
0.0
 20
0.0
 30
0.0
  9
$PUCSXDIR
 10
1.0
 20
0.0
 30
0.0
  9
$PUCSYDIR
 10
0.0
 20
1.0
 30
0.0
  9
$USERI1
 70
     0
  9
$USERI2
 70
     0
  9
$USERI3
 70
     0
  9
$USERI4
 70
     0
  9
$USERI5
 70
     0
  9
$USERR1
 40
0.0
  9
$USERR2
 40
0.0
  9
$USERR3
 40
0.0
  9
$USERR4
 40
0.0
  9
$USERR5
 40
0.0
  9
$WORLDVIEW
 70
     1
  9
$SHADEDGE
 70
     3
  9
$SHADEDIF
 70
    70
  9
$TILEMODE
 70
     1
  9
$MAXACTVP
 70
    16
  9
$PLIMCHECK
 70
     0
  9
$PEXTMIN
 10
1.0000000000000000E+020
 20
1.0000000000000000E+020
 30
1.0000000000000000E+020
  9
$PEXTMAX
 10
-1.0000000000000000E+020
 20
-1.0000000000000000E+020
 30
-1.0000000000000000E+020
  9
$PLIMMIN
 10
0.0
 20
0.0
  9
$PLIMMAX
 10
12.0
 20
9.0
  9
$UNITMODE
 70
     0
  9
$VISRETAIN
 70
     0
  9
$PLINEGEN
 70
     0
  9
$PSLTSCALE
 70
     1
  0
ENDSEC
  0
SECTION
  2
TABLES
  0
TABLE
  2
VPORT
 70
     2
  0
VPORT
  2
*ACTIVE
 70
     0
 10
0.0
 20
0.0
 11
1.0
 21
1.0
 12
4243.9319506216398
 22
1770.000008242205
 13
0.0
 23
0.0
 14
10.0
 24
10.0
 15
10.0
 25
10.0
 16
0.0
 26
0.0
 36
1.0
 17
0.0
 27
0.0
 37
0.0
 40
3567.1378596203222
 41
3.1666666666666661
 42
50.0
 43
0.0
 44
0.0
 50
0.0
 51
0.0
 71
     0
 72
   100
 73
     1
 74
     0
 75
     0
 76
     0
 77
     0
 78
     0
  0
ENDTAB
  0
TABLE
  2
LTYPE
 70
     2
  0
LTYPE
  2
CONTINUOUS
 70
     0
  3
Solid line
 72
    65
 73
     0
 40
0.0
  0
LTYPE
  2
CENTER
 70
     0
  3
____ _ ____ _ ____ _ ____ _ ____ _ ____ _ ____ 
 72
    65
 73
     4
 40
2.0
 49
1.25
 49
-0.25
 49
0.25
 49
-0.25
  0
ENDTAB
  0
TABLE
  2
LAYER
 70
     6
  0
LAYER
  2
0
 70
     0
 62
     7
  6
CONTINUOUS
  0
LAYER
  2
3
 70
     0
 62
     2
  6
CONTINUOUS
  0
LAYER
  2
2
 70
     0
 62
     3
  6
CENTER
  0
LAYER
  2
1
 70
     0
 62
     4
  6
CONTINUOUS
  0
LAYER
  2
4
 70
     0
 62
     7
  6
CONTINUOUS
  0
LAYER
  2
DEFPOINTS
 70
     0
 62
     7
  6
CONTINUOUS
  0
ENDTAB
  0
TABLE
  2
STYLE
 70
     1
  0
STYLE
  2
STANDARD
 70
     0
 40
0.0
 41
1.0
 50
0.0
 71
     0
 42
180.0
  3
simplex.shx
  4
extfont.shx
  0
ENDTAB
  0
TABLE
  2
VIEW
 70
     0
  0
ENDTAB
  0
TABLE
  2
UCS
 70
     0
  0
ENDTAB
  0
TABLE
  2
APPID
 70
     1
  0
APPID
  2
ACAD
 70
     0
  0
ENDTAB
  0
TABLE
  2
DIMSTYLE
 70
     1
  0
DIMSTYLE
  2
IGA
 70
     0
  3

  4

  5

  6
OPEN
  7
OPEN
 40
2.0
 41
2.0
 42
0.5
 43
10.0
 44
1.0
 45
0.0
 46
0.0
 47
1.0
 48
1.0
140
3.0
141
0.0
142
0.0
143
0.03937
144
1.0
145
0.0
146
10.0
147
1.0
 71
     0
 72
     0
 73
     0
 74
     0
 75
     0
 76
     0
 77
     1
 78
     8
170
     0
171
     2
172
     0
173
     1
174
     0
175
     0
176
     0
177
     0
178
     0
  0
ENDTAB
  0
ENDSEC
  0
SECTION
  2
BLOCKS
  0
BLOCK
  8
0
  2
$MODEL_SPACE
 70
     0
 10
0.0
 20
0.0
 30
0.0
  3
$MODEL_SPACE
  1

  0
ENDBLK
  5
1B
  8
0
  0
BLOCK
 67
     1
  8
0
  2
$PAPER_SPACE
 70
     0
 10
0.0
 20
0.0
 30
0.0
  3
$PAPER_SPACE
  1

  0
ENDBLK
  5
18
 67
     1
  8
0
  0
BLOCK
  8
0
  2
_OPEN
 70
     0
 10
0.0
 20
0.0
 30
0.0
  3
_OPEN
  1

  0
LINE
  5
79FD
  8
0
  6
BYBLOCK
 62
     0
 10
-1.0
 20
0.1666666666666666
 30
0.0
 11
0.0
 21
0.0
 31
0.0
  0
LINE
  5
79FE
  8
0
  6
BYBLOCK
 62
     0
 10
0.0
 20
0.0
 30
0.0
 11
-1.0
 21
-0.1666666666666666
 31
0.0
  0
LINE
  5
79FF
  8
0
  6
BYBLOCK
 62
     0
 10
0.0
 20
0.0
 30
0.0
 11
-1.0
 21
0.0
 31
0.0
  0
ENDBLK
  5
7A01
  8
0
  0
BLOCK
  8
0
  2
_DOT
 70
     0
 10
0.0
 20
0.0
 30
0.0
  3
_DOT
  1

  0
LINE
  5
8130
  8
0
  6
BYBLOCK
 62
     0
 10
0.0
 20
0.0
 30
0.0
 11
-1.0
 21
-0.0000000000000284
 31
0.0
  0
POLYLINE
  5
8131
  8
0
  6
BYBLOCK
 62
     0
 66
     1
 10
0.0
 20
0.0
 30
0.0
 70
     1
 40
0.1666666666666666
 41
0.1666666666666666
  0
VERTEX
  5
82F6
  8
0
  6
BYBLOCK
 62
     0
 10
-0.0833333333333286
 20
-0.0000000000000284
 30
0.0
 42
1.0
  0
VERTEX
  5
82F7
  8
0
  6
BYBLOCK
 62
     0
 10
0.0833333333333286
 20
-0.0000000000000284
 30
0.0
 42
1.0
  0
SEQEND
  5
82F8
  8
0
  6
BYBLOCK
 62
     0
  0
ENDBLK
  5
7A09
  8
0
  0
BLOCK
  8
0
  2
*D2
 70
     1
 10
0.0
 20
0.0
 30
0.0
  3
*D2
  1

  0
LINE
  5
82AE
  8
3
 62
     0
 10
608.66296649943342
 20
1189.3412954470789
 30
0.0
 11
556.20473661004405
 21
1189.3412954470789
 31
0.0
  0
LINE
  5
82AF
  8
3
 62
     0
 10
608.66296649943342
 20
1389.3412954470789
 30
0.0
 11
556.20473661004416
 21
1389.3412954470789
 31
0.0
  0
LINE
  5
82B0
  8
3
 62
     0
 10
568.20473661004405
 20
1213.3412954470789
 30
0.0
 11
568.20473661004405
 21
1365.3412954470789
 31
0.0
  0
INSERT
  5
82B1
  8
3
 62
     0
  2
_OPEN
 10
568.20473661004405
 20
1189.3412954470789
 30
0.0
 41
24.0
 42
24.0
 43
24.0
 50
270.0
  0
INSERT
  5
82B2
  8
3
 62
     0
  2
_OPEN
 10
568.20473661004405
 20
1389.3412954470789
 30
0.0
 41
24.0
 42
24.0
 43
24.0
 50
90.0
  0
TEXT
  8
3
  40
36
  5
833A
  62
0
  72
0
  71
0
 10
466.205
 20
1225.62
 30
0.000000
  1
200
  0
POINT
  5
82B4
  8
DEFPOINTS
 62
     0
 10
614.66296649943342
 20
1189.3412954470789
 30
0.0
  0
POINT
  5
82B5
  8
DEFPOINTS
 62
     0
 10
614.66296649943342
 20
1389.3412954470789
 30
0.0
  0
POINT
  5
82B6
  8
DEFPOINTS
 62
     0
 10
568.20473661004405
 20
1389.3412954470789
 30
0.0
  0
ENDBLK
  5
7FD5
  8
0
  0
BLOCK
  8
0
  2
*D3
 70
     1
 10
0.0
 20
0.0
 30
0.0
  3
*D3
  1

  0
LINE
  5
82B7
  8
3
 62
     0
 10
608.29856437526314
 20
1190.341295447078
 30
0.0
 11
493.09490634119447
 21
1190.3412954470789
 31
0.0
  0
LINE
  5
82B8
  8
3
 62
     0
 10
608.66296649943342
 20
1389.3412954470789
 30
0.0
 11
493.09490634119447
 21
1389.3412954470789
 31
0.0
  0
LINE
  5
82B9
  8
3
 62
     0
 10
505.09490634119447
 20
1214.3412954470789
 30
0.0
 11
505.09490634119447
 21
1365.3412954470789
 31
0.0
  0
INSERT
  5
82BA
  8
3
 62
     0
  2
_OPEN
 10
505.09490634119447
 20
1190.3412954470789
 30
0.0
 41
24.0
 42
24.0
 43
24.0
 50
270.0
  0
INSERT
  5
82BB
  8
3
 62
     0
  2
_OPEN
 10
505.09490634119447
 20
1389.3412954470789
 30
0.0
 41
24.0
 42
24.0
 43
24.0
 50
90.0
  0
TEXT
  8
3
  40
36
  5
833B
  62
0
  72
0
  71
0
 10
403.095
 20
1226.12
 30
0.000000
  1
199
  0
POINT
  5
82BD
  8
DEFPOINTS
 62
     0
 10
614.29856437526314
 20
1190.341295447078
 30
0.0
  0
POINT
  5
82BE
  8
DEFPOINTS
 62
     0
 10
614.66296649943342
 20
1389.3412954470789
 30
0.0
  0
POINT
  5
82BF
  8
DEFPOINTS
 62
     0
 10
505.09490634119447
 20
1389.3412954470789
 30
0.0
  0
ENDBLK
  5
804B
  8
0
  0
BLOCK
  8
0
  2
*D4
 70
     1
 10
0.0
 20
0.0
 30
0.0
  3
*D4
  1

  0
LINE
  5
82C0
  8
3
 62
     0
 10
608.29856437526314
 20
1190.341295447078
 30
0.0
 11
493.09490634119447
 21
1190.3412954470789
 31
0.0
  0
LINE
  5
82C1
  8
3
 62
     0
 10
618.66296649943376
 20
930.34129544707912
 30
0.0
 11
493.09490634119447
 21
930.34129544707912
 31
0.0
  0
LINE
  5
82C2
  8
3
 62
     0
 10
505.09490634119447
 20
1166.3412954470789
 30
0.0
 11
505.09490634119447
 21
954.34129544707923
 31
0.0
  0
INSERT
  5
82C3
  8
3
 62
     0
  2
_OPEN
 10
505.09490634119447
 20
1190.3412954470789
 30
0.0
 41
24.0
 42
24.0
 43
24.0
 50
90.0
  0
INSERT
  5
82C4
  8
3
 62
     0
  2
_OPEN
 10
505.09490634119447
 20
930.34129544707912
 30
0.0
 41
24.0
 42
24.0
 43
24.0
 50
270.0
  0
TEXT
  8
3
  40
36
  5
833C
  62
0
  72
0
  71
0
 10
403.095
 20
996.621
 30
0.000000
  1
260
  0
POINT
  5
82C6
  8
DEFPOINTS
 62
     0
 10
614.29856437526314
 20
1190.341295447078
 30
0.0
  0
POINT
  5
82C7
  8
DEFPOINTS
 62
     0
 10
624.66296649943388
 20
930.34129544707912
 30
0.0
  0
POINT
  5
82C8
  8
DEFPOINTS
 62
     0
 10
505.09490634119447
 20
930.34129544707912
 30
0.0
  0
ENDBLK
  5
8056
  8
0
  0
BLOCK
  8
0
  2
*D5
 70
     1
 10
0.0
 20
0.0
 30
0.0
  3
*D5
  1

  0
LINE
  5
82C9
  8
3
 62
     0
 10
614.66296649943286
 20
1417.341261462904
 30
0.0
 11
614.66296649943286
 21
1487.583231839219
 31
0.0
  0
LINE
  5
82CA
  8
3
 62
     0
 10
799.66296649943342
 20
1434.531969785605
 30
0.0
 11
799.66296649943342
 21
1487.583231839219
 31
0.0
  0
LINE
  5
82CB
  8
3
 62
     0
 10
638.66296649943286
 20
1475.5832318392199
 30
0.0
 11
775.66296649943342
 21
1475.5832318392199
 31
0.0
  0
INSERT
  5
82CC
  8
3
 62
     0
  2
_OPEN
 10
614.66296649943286
 20
1475.5832318392199
 30
0.0
 41
24.0
 42
24.0
 43
24.0
 50
180.0
  0
INSERT
  5
82CD
  8
3
 62
     0
  2
_OPEN
 10
799.66296649943342
 20
1475.5832318392199
 30
0.0
 41
24.0
 42
24.0
 43
24.0
  0
TEXT
  8
3
  40
36
  5
833D
  62
0
  72
0
  71
0
 10
635.163
 20
1441.86
 30
0.000000
  1
185
  0
POINT
  5
82CF
  8
DEFPOINTS
 62
     0
 10
614.66296649943286
 20
1411.341261462904
 30
0.0
  0
POINT
  5
82D0
  8
DEFPOINTS
 62
     0
 10
799.66296649943342
 20
1428.531969785605
 30
0.0
  0
POINT
  5
82D1
  8
DEFPOINTS
 62
     0
 10
799.66296649943342
 20
1475.5832318392199
 30
0.0
  0
ENDBLK
  5
7F9A
  8
0
  0
BLOCK
  8
0
  2
*D6
 70
     1
 10
0.0
 20
0.0
 30
0.0
  3
*D6
  1

  0
LINE
  5
82D2
  8
3
 62
     0
 10
614.66296649943286
 20
1422.341261462904
 30
0.0
 11
614.66296649943286
 21
1565.9223233897919
 31
0.0
  0
LINE
  5
82D3
  8
3
 62
     0
 10
1244.662966499433
 20
976.34129544707912
 30
0.0
 11
1244.662966499433
 21
1565.9223233897919
 31
0.0
  0
LINE
  5
82D4
  8
3
 62
     0
 10
638.66296649943286
 20
1553.9223233897919
 30
0.0
 11
1220.662966499433
 21
1553.9223233897919
 31
0.0
  0
INSERT
  5
82D5
  8
3
 62
     0
  2
_OPEN
 10
614.66296649943286
 20
1553.9223233897919
 30
0.0
 41
24.0
 42
24.0
 43
24.0
 50
180.0
  0
INSERT
  5
82D6
  8
3
 62
     0
  2
_OPEN
 10
1244.662966499433
 20
1553.9223233897919
 30
0.0
 41
24.0
 42
24.0
 43
24.0
  0
TEXT
  8
3
  40
36
  5
833E
  62
0
  72
0
  71
0
 10
857.663
 20
1520.20
 30
0.000000
  1
630
  0
POINT
  5
82D8
  8
DEFPOINTS
 62
     0
 10
614.66296649943286
 20
1416.341261462904
 30
0.0
  0
POINT
  5
82D9
  8
DEFPOINTS
 62
     0
 10
1244.662966499433
 20
970.34129544707901
 30
0.0
  0
POINT
  5
82DA
  8
DEFPOINTS
 62
     0
 10
1244.662966499433
 20
1553.9223233897919
 30
0.0
  0
ENDBLK
  5
7F8F
  8
0
  0
BLOCK
  8
0
  2
*D7
 70
     1
 10
0.0
 20
0.0
 30
0.0
  3
*D7
  1

  0
LINE
  5
82DB
  8
3
 62
     0
 10
799.66296649943342
 20
1434.531969785605
 30
0.0
 11
799.66296649943342
 21
1487.583231839219
 31
0.0
  0
LINE
  5
82DC
  8
3
 62
     0
 10
969.66296649943342
 20
1210.3412954470789
 30
0.0
 11
969.66296649943342
 21
1487.583231839219
 31
0.0
  0
LINE
  5
82DD
  8
3
 62
     0
 10
823.66296649943342
 20
1475.5832318392199
 30
0.0
 11
945.66296649943342
 21
1475.5832318392199
 31
0.0
  0
INSERT
  5
82DE
  8
3
 62
     0
  2
_OPEN
 10
799.66296649943342
 20
1475.5832318392199
 30
0.0
 41
24.0
 42
24.0
 43
24.0
 50
180.0
  0
INSERT
  5
82DF
  8
3
 62
     0
  2
_OPEN
 10
969.66296649943342
 20
1475.5832318392199
 30
0.0
 41
24.0
 42
24.0
 43
24.0
  0
TEXT
  8
3
  40
36
  5
833F
  62
0
  72
0
  71
0
 10
812.663
 20
1441.86
 30
0.000000
  1
170
  0
POINT
  5
82E1
  8
DEFPOINTS
 62
     0
 10
799.66296649943342
 20
1428.531969785605
 30
0.0
  0
POINT
  5
82E2
  8
DEFPOINTS
 62
     0
 10
969.66296649943342
 20
1204.3412954470789
 30
0.0
  0
POINT
  5
82E3
  8
DEFPOINTS
 62
     0
 10
969.66296649943342
 20
1475.5832318392199
 30
0.0
  0
ENDBLK
  5
7F84
  8
0
  0
BLOCK
  8
0
  2
*D8
 70
     1
 10
0.0
 20
0.0
 30
0.0
  3
*D8
  1

  0
LINE
  5
80B3
  8
0
  6
BYBLOCK
 62
     0
 10
2176.1569648607051
 20
1326.427389334337
 30
0.0
 11
2176.1569648607051
 21
1534.3980148372109
 31
0.0
  0
LINE
  5
80B4
  8
0
  6
BYBLOCK
 62
     0
 10
2098.1569648607051
 20
1497.0329983481431
 30
0.0
 11
2098.1569648607051
 21
1534.3980148372109
 31
0.0
  0
LINE
  5
80B5
  8
0
  6
BYBLOCK
 62
     0
 10
2152.1569648607051
 20
1522.3980148372109
 30
0.0
 11
2122.1569648607051
 21
1522.3980148372109
 31
0.0
  0
TEXT
  5
80B6
  8
3
 62
     0
 10
2108.8712505749909
 20
1552.3980148372109
 30
0.0
 40
36.0
  1
79
  0
INSERT
  5
80B7
  8
0
  6
BYBLOCK
 62
     0
  2
_OPEN
 10
2176.1569648607051
 20
1522.3980148372109
 30
0.0
 41
24.0
 42
24.0
 43
24.0
  0
INSERT
  5
80B8
  8
0
  6
BYBLOCK
 62
     0
  2
_OPEN
 10
2098.1569648607051
 20
1522.3980148372109
 30
0.0
 41
24.0
 42
24.0
 43
24.0
 50
180.0
  0
POINT
  5
80B9
  8
DEFPOINTS
  6
BYBLOCK
 62
     0
 10
2176.1569648607051
 20
1320.4273893343379
 30
0.0
  0
POINT
  5
80BA
  8
DEFPOINTS
  6
BYBLOCK
 62
     0
 10
2098.1569648607051
 20
1491.0329983481431
 30
0.0
  0
POINT
  5
80BB
  8
DEFPOINTS
  6
BYBLOCK
 62
     0
 10
2098.1569648607051
 20
1522.3980148372109
 30
0.0
  0
ENDBLK
  5
80BC
  8
0
  0
BLOCK
  8
0
  2
*D9
 70
     1
 10
0.0
 20
0.0
 30
0.0
  3
*D9
  1

  0
LINE
  5
82E4
  8
3
 62
     0
 10
2098.1569648607051
 20
1497.0329983481431
 30
0.0
 11
2098.1569648607051
 21
1534.3980148372109
 31
0.0
  0
LINE
  5
82E5
  8
3
 62
     0
 10
1665.156964860704
 20
1276.433354420456
 30
0.0
 11
1665.156964860704
 21
1534.3980148372109
 31
0.0
  0
LINE
  5
82E6
  8
3
 62
     0
 10
2074.1569648607051
 20
1522.3980148372109
 30
0.0
 11
1689.156964860704
 21
1522.3980148372109
 31
0.0
  0
INSERT
  5
82E7
  8
3
 62
     0
  2
_OPEN
 10
2098.1569648607051
 20
1522.3980148372109
 30
0.0
 41
24.0
 42
24.0
 43
24.0
  0
INSERT
  5
82E8
  8
3
 62
     0
  2
_OPEN
 10
1665.156964860704
 20
1522.3980148372109
 30
0.0
 41
24.0
 42
24.0
 43
24.0
 50
180.0
  0
TEXT
  8
3
  40
36
  5
8340
  62
0
  72
0
  71
0
 10
1809.66
 20
1518.68
 30
0.000000
  1
MAX
  0
TEXT
  8
3
  40
36
  5
8341
  62
0
  72
0
  71
0
 10
1809.66
 20
1471.88
 30
0.000000
  1
520
  0
POINT
  5
82EA
  8
DEFPOINTS
 62
     0
 10
2098.1569648607051
 20
1491.0329983481431
 30
0.0
  0
POINT
  5
82EB
  8
DEFPOINTS
 62
     0
 10
1665.156964860704
 20
1270.433354420456
 30
0.0
  0
POINT
  5
82EC
  8
DEFPOINTS
 62
     0
 10
1665.156964860704
 20
1522.3980148372109
 30
0.0
  0
ENDBLK
  5
8120
  8
0
  0
BLOCK
  8
0
  2
*D10
 70
     1
 10
0.0
 20
0.0
 30
0.0
  3
*D10
  1

  0
LINE
  5
80A8
  8
0
  6
BYBLOCK
 62
     0
 10
2023.156964860704
 20
1395.4273893343379
 30
0.0
 11
2023.156964860704
 21
1459.3222896202431
 31
0.0
  0
LINE
  5
80A9
  8
0
  6
BYBLOCK
 62
     0
 10
2173.1569648607042
 20
1395.4273893343379
 30
0.0
 11
2173.1569648607042
 21
1459.3222896202431
 31
0.0
  0
LINE
  5
80AA
  8
0
  6
BYBLOCK
 62
     0
 10
2047.156964860704
 20
1447.322289620244
 30
0.0
 11
2149.1569648607042
 21
1447.322289620244
 31
0.0
  0
TEXT
  5
80AB
  8
3
 62
     0
 10
2055.2998220035611
 20
1455.2706564442019
 30
0.0
 40
36.0
  1
150
  0
INSERT
  5
80AC
  8
0
  6
BYBLOCK
 62
     0
  2
_OPEN
 10
2023.156964860704
 20
1447.322289620244
 30
0.0
 41
24.0
 42
24.0
 43
24.0
 50
180.0
  0
INSERT
  5
80AD
  8
0
  6
BYBLOCK
 62
     0
  2
_OPEN
 10
2173.1569648607042
 20
1447.322289620244
 30
0.0
 41
24.0
 42
24.0
 43
24.0
  0
POINT
  5
80AE
  8
DEFPOINTS
  6
BYBLOCK
 62
     0
 10
2023.156964860704
 20
1389.4273893343379
 30
0.0
  0
POINT
  5
80AF
  8
DEFPOINTS
  6
BYBLOCK
 62
     0
 10
2173.1569648607042
 20
1389.4273893343379
 30
0.0
  0
POINT
  5
80B0
  8
DEFPOINTS
  6
BYBLOCK
 62
     0
 10
2173.1569648607042
 20
1447.322289620244
 30
0.0
  0
ENDBLK
  5
80B1
  8
0
  0
BLOCK
  8
0
  2
*D11
 70
     1
 10
0.0
 20
0.0
 30
0.0
  3
*D11
  1

  0
LINE
  5
82ED
  8
3
 62
     0
 10
2202.1569648607051
 20
1300.4273893343379
 30
0.0
 11
2289.174004724543
 21
1300.4273893343379
 31
0.0
  0
LINE
  5
82EE
  8
3
 62
     0
 10
2202.1569648607051
 20
1080.4273893343379
 30
0.0
 11
2289.174004724543
 21
1080.4273893343379
 31
0.0
  0
LINE
  5
82EF
  8
3
 62
     0
 10
2277.1740047245439
 20
1276.4273893343379
 30
0.0
 11
2277.1740047245439
 21
1104.4273893343379
 31
0.0
  0
INSERT
  5
82F0
  8
3
 62
     0
  2
_OPEN
 10
2277.1740047245439
 20
1300.4273893343379
 30
0.0
 41
24.0
 42
24.0
 43
24.0
 50
90.0
  0
INSERT
  5
82F1
  8
3
 62
     0
  2
_OPEN
 10
2277.1740047245439
 20
1080.4273893343379
 30
0.0
 41
24.0
 42
24.0
 43
24.0
 50
270.0
  0
TEXT
  8
3
  40
36
  5
8342
  62
0
  72
0
  71
0
 10
2175.17
 20
1126.71
 30
0.000000
  1
φ220
  0
POINT
  5
82F3
  8
DEFPOINTS
 62
     0
 10
2196.1569648607042
 20
1300.4273893343379
 30
0.0
  0
POINT
  5
82F4
  8
DEFPOINTS
 62
     0
 10
2196.1569648607042
 20
1080.4273893343379
 30
0.0
  0
POINT
  5
82F5
  8
DEFPOINTS
 62
     0
 10
2277.1740047245439
 20
1080.4273893343379
 30
0.0
  0
ENDBLK
  5
812B
  8
0
  0
BLOCK
  8
0
  2
*D12
 70
     1
 10
0.0
 20
0.0
 30
0.0
  3
*D12
  1

  0
LINE
  5
82F9
  8
3
 62
     0
 10
1250.662966499433
 20
2341.5905473533139
 30
0.0
 11
1354.6387166867789
 21
2341.5905473533139
 31
0.0
  0
LINE
  5
82FA
  8
3
 62
     0
 10
1250.662966499433
 20
1961.5905473533171
 30
0.0
 11
1354.6387166867789
 21
1961.5905473533171
 31
0.0
  0
LINE
  5
82FB
  8
3
 62
     0
 10
1342.6387166867789
 20
2317.590547353313
 30
0.0
 11
1342.6387166867789
 21
1985.5905473533171
 31
0.0
  0
INSERT
  5
82FC
  8
3
 62
     0
  2
_OPEN
 10
1342.6387166867789
 20
2341.5905473533139
 30
0.0
 41
24.0
 42
24.0
 43
24.0
 50
90.0
  0
INSERT
  5
82FD
  8
3
 62
     0
  2
_OPEN
 10
1342.6387166867789
 20
1961.5905473533171
 30
0.0
 41
24.0
 42
24.0
 43
24.0
 50
270.0
  0
TEXT
  8
3
  40
36
  5
8343
  62
0
  72
0
  71
0
 10
1240.64
 20
2082.59
 30
0.000000
  1
380
  0
POINT
  5
82FF
  8
DEFPOINTS
 62
     0
 10
1244.662966499433
 20
2341.5905473533139
 30
0.0
  0
POINT
  5
8300
  8
DEFPOINTS
 62
     0
 10
1244.662966499433
 20
1961.5905473533171
 30
0.0
  0
POINT
  5
8301
  8
DEFPOINTS
 62
     0
 10
1342.6387166867789
 20
1961.5905473533171
 30
0.0
  0
ENDBLK
  5
8200
  8
0
  0
BLOCK
  8
0
  2
*D13
 70
     1
 10
0.0
 20
0.0
 30
0.0
  3
*D13
  1

  0
LINE
  5
8302
  8
3
 62
     0
 10
624.66296649943388
 20
1955.5905473533139
 30
0.0
 11
624.66296649943388
 21
1835.7768560119121
 31
0.0
  0
LINE
  5
8303
  8
3
 62
     0
 10
1244.662966499433
 20
1955.5905473533171
 30
0.0
 11
1244.662966499433
 21
1835.7768560119121
 31
0.0
  0
LINE
  5
8304
  8
3
 62
     0
 10
648.66296649943388
 20
1847.7768560119121
 30
0.0
 11
1220.662966499433
 21
1847.7768560119121
 31
0.0
  0
INSERT
  5
8305
  8
3
 62
     0
  2
_OPEN
 10
624.66296649943388
 20
1847.7768560119121
 30
0.0
 41
24.0
 42
24.0
 43
24.0
 50
180.0
  0
INSERT
  5
8306
  8
3
 62
     0
  2
_OPEN
 10
1244.662966499433
 20
1847.7768560119121
 30
0.0
 41
24.0
 42
24.0
 43
24.0
  0
TEXT
  8
3
  40
36
  5
8344
  62
0
  72
0
  71
0
 10
837.765
 20
1814.06
 30
0.000000
  1
620
  0
POINT
  5
8308
  8
DEFPOINTS
 62
     0
 10
624.66296649943388
 20
1961.590547353313
 30
0.0
  0
POINT
  5
8309
  8
DEFPOINTS
 62
     0
 10
1244.662966499433
 20
1961.5905473533171
 30
0.0
  0
POINT
  5
830A
  8
DEFPOINTS
 62
     0
 10
1244.662966499433
 20
1847.7768560119121
 30
0.0
  0
ENDBLK
  5
820C
  8
0
  0
BLOCK
  8
0
  2
*D14
 70
     1
 10
0.0
 20
0.0
 30
0.0
  3
*D14
  1

  0
LINE
  5
830B
  8
3
 62
     0
 10
624.66296649943388
 20
924.34129544707855
 30
0.0
 11
624.66296649943388
 21
836.82053333016574
 31
0.0
  0
LINE
  5
830C
  8
3
 62
     0
 10
799.66296649943342
 20
924.34129544707935
 30
0.0
 11
799.66296649943342
 21
836.82053333016574
 31
0.0
  0
LINE
  5
830D
  8
3
 62
     0
 10
648.66296649943388
 20
848.82053333016574
 30
0.0
 11
775.66296649943342
 21
848.82053333016574
 31
0.0
  0
INSERT
  5
830E
  8
3
 62
     0
  2
_OPEN
 10
624.66296649943388
 20
848.82053333016574
 30
0.0
 41
24.0
 42
24.0
 43
24.0
 50
180.0
  0
INSERT
  5
830F
  8
3
 62
     0
  2
_OPEN
 10
799.66296649943342
 20
848.82053333016574
 30
0.0
 41
24.0
 42
24.0
 43
24.0
  0
TEXT
  8
3
  40
36
  5
8345
  62
0
  72
0
  71
0
 10
640.163
 20
815.101
 30
0.000000
  1
175
  0
POINT
  5
8311
  8
DEFPOINTS
 62
     0
 10
624.66296649943388
 20
930.34129544707855
 30
0.0
  0
POINT
  5
8312
  8
DEFPOINTS
 62
     0
 10
799.66296649943342
 20
930.34129544707912
 30
0.0
  0
POINT
  5
8313
  8
DEFPOINTS
 62
     0
 10
799.66296649943342
 20
848.82053333016574
 30
0.0
  0
ENDBLK
  5
824B
  8
0
  0
BLOCK
  8
0
  2
*D15
 70
     1
 10
0.0
 20
0.0
 30
0.0
  3
*D15
  1

  0
LINE
  5
8314
  8
3
 62
     0
 10
799.66296649943342
 20
924.34129544707935
 30
0.0
 11
799.66296649943342
 21
836.82053333016574
 31
0.0
  0
LINE
  5
8315
  8
3
 62
     0
 10
1244.662966499433
 20
924.34129544707912
 30
0.0
 11
1244.662966499433
 21
836.82053333016574
 31
0.0
  0
LINE
  5
8316
  8
3
 62
     0
 10
823.66296649943342
 20
848.82053333016574
 30
0.0
 11
1220.662966499433
 21
848.82053333016574
 31
0.0
  0
INSERT
  5
8317
  8
3
 62
     0
  2
_OPEN
 10
799.66296649943342
 20
848.82053333016574
 30
0.0
 41
24.0
 42
24.0
 43
24.0
 50
180.0
  0
INSERT
  5
8318
  8
3
 62
     0
  2
_OPEN
 10
1244.662966499433
 20
848.82053333016574
 30
0.0
 41
24.0
 42
24.0
 43
24.0
  0
TEXT
  8
3
  40
36
  5
8346
  62
0
  72
0
  71
0
 10
950.163
 20
815.101
 30
0.000000
  1
445
  0
POINT
  5
831A
  8
DEFPOINTS
 62
     0
 10
799.66296649943342
 20
930.34129544707912
 30
0.0
  0
POINT
  5
831B
  8
DEFPOINTS
 62
     0
 10
1244.662966499433
 20
930.34129544707912
 30
0.0
  0
POINT
  5
831C
  8
DEFPOINTS
 62
     0
 10
1244.662966499433
 20
848.82053333016574
 30
0.0
  0
ENDBLK
  5
8258
  8
0
  0
BLOCK
  8
0
  2
*D16
 70
     1
 10
0.0
 20
0.0
 30
0.0
  3
*D16
  1

  0
LINE
  5
831D
  8
3
 62
     0
 10
1678.1569648607051
 20
924.42738933433805
 30
0.0
 11
1678.1569648607051
 21
836.82053333016574
 31
0.0
  0
LINE
  5
831E
  8
3
 62
     0
 10
2058.1569648607051
 20
924.42738933433839
 30
0.0
 11
2058.1569648607051
 21
836.82053333016574
 31
0.0
  0
LINE
  5
831F
  8
3
 62
     0
 10
1702.1569648607051
 20
848.82053333016574
 30
0.0
 11
2034.1569648607051
 21
848.82053333016574
 31
0.0
  0
INSERT
  5
8320
  8
3
 62
     0
  2
_OPEN
 10
1678.1569648607051
 20
848.82053333016574
 30
0.0
 41
24.0
 42
24.0
 43
24.0
 50
180.0
  0
INSERT
  5
8321
  8
3
 62
     0
  2
_OPEN
 10
2058.1569648607051
 20
848.82053333016574
 30
0.0
 41
24.0
 42
24.0
 43
24.0
  0
TEXT
  8
3
  40
36
  5
8347
  62
0
  72
0
  71
0
 10
1796.16
 20
815.101
 30
0.000000
  1
380
  0
POINT
  5
8323
  8
DEFPOINTS
 62
     0
 10
1678.1569648607051
 20
930.42738933433805
 30
0.0
  0
POINT
  5
8324
  8
DEFPOINTS
 62
     0
 10
2058.1569648607051
 20
930.42738933433827
 30
0.0
  0
POINT
  5
8325
  8
DEFPOINTS
 62
     0
 10
2058.1569648607051
 20
848.82053333016574
 30
0.0
  0
ENDBLK
  5
8272
  8
0
  0
BLOCK
  8
0
  2
*D17
 70
     1
 10
0.0
 20
0.0
 30
0.0
  3
*D17
  1

  0
LINE
  5
8326
  8
3
 62
     0
 10
2058.1569648607051
 20
924.42738933433839
 30
0.0
 11
2058.1569648607051
 21
836.82053333016574
 31
0.0
  0
LINE
  5
8327
  8
3
 62
     0
 10
2098.1569648607051
 20
924.42738933433827
 30
0.0
 11
2098.1569648607051
 21
836.82053333016574
 31
0.0
  0
LINE
  5
8328
  8
3
 62
     0
 10
2034.1569648607051
 20
848.82053333016574
 30
0.0
 11
2010.1569648607051
 21
848.82053333016574
 31
0.0
  0
LINE
  5
8329
  8
3
 62
     0
 10
2122.1569648607051
 20
848.82053333016574
 30
0.0
 11
2228.4426791464189
 21
848.82053333016574
 31
0.0
  0
LINE
  5
832A
  8
3
 62
     0
 10
2058.1569648607051
 20
848.82053333016574
 30
0.0
 11
2098.1569648607051
 21
848.82053333016574
 31
0.0
  0
INSERT
  5
832B
  8
3
 62
     0
  2
_OPEN
 10
2058.1569648607051
 20
848.82053333016574
 30
0.0
 41
24.0
 42
24.0
 43
24.0
  0
INSERT
  5
832C
  8
3
 62
     0
  2
_OPEN
 10
2098.1569648607051
 20
848.82053333016574
 30
0.0
 41
24.0
 42
24.0
 43
24.0
 50
180.0
  0
TEXT
  8
3
  40
36
  5
8348
  62
0
  72
0
  71
0
 10
2115.30
 20
815.101
 30
0.000000
  1
40
  0
POINT
  5
832E
  8
DEFPOINTS
 62
     0
 10
2058.1569648607051
 20
930.42738933433827
 30
0.0
  0
POINT
  5
832F
  8
DEFPOINTS
 62
     0
 10
2098.1569648607051
 20
930.42738933433827
 30
0.0
  0
POINT
  5
8330
  8
DEFPOINTS
 62
     0
 10
2098.1569648607051
 20
848.82053333016574
 30
0.0
  0
ENDBLK
  5
8281
  8
0
  0
BLOCK
  8
0
  2
*D18
 70
     1
 10
0.0
 20
0.0
 30
0.0
  3
*D18
  1

  0
LINE
  5
8331
  8
3
 62
     0
 10
608.66296649943297
 20
1411.341261462904
 30
0.0
 11
411.8027689276206
 21
1411.341261462904
 31
0.0
  0
LINE
  5
8332
  8
3
 62
     0
 10
618.66296649943376
 20
930.34129544707912
 30
0.0
 11
411.80276892762038
 21
930.34129544707912
 31
0.0
  0
LINE
  5
8333
  8
3
 62
     0
 10
423.80276892762049
 20
1387.341261462904
 30
0.0
 11
423.80276892762038
 21
954.34129544707923
 31
0.0
  0
INSERT
  5
8334
  8
3
 62
     0
  2
_OPEN
 10
423.8027689276206
 20
1411.341261462904
 30
0.0
 41
24.0
 42
24.0
 43
24.0
 50
90.0
  0
INSERT
  5
8335
  8
3
 62
     0
  2
_OPEN
 10
423.80276892762038
 20
930.34129544707912
 30
0.0
 41
24.0
 42
24.0
 43
24.0
 50
270.0
  0
TEXT
  8
3
  40
36
  5
8349
  62
0
  72
0
  71
0
 10
321.803
 20
1107.12
 30
0.000000
  1
481
  0
POINT
  5
8337
  8
DEFPOINTS
 62
     0
 10
614.66296649943286
 20
1411.341261462904
 30
0.0
  0
POINT
  5
8338
  8
DEFPOINTS
 62
     0
 10
624.66296649943388
 20
930.34129544707912
 30
0.0
  0
POINT
  5
8339
  8
DEFPOINTS
 62
     0
 10
423.80276892762038
 20
930.34129544707912
 30
0.0
  0
ENDBLK
  5
828E
  8
0
  0
ENDSEC
  0
SECTION
  2
ENTITIES
  0
LINE
  5
7C12
  8
2
 10
799.66296649943342
 20
1428.531969785605
 30
0.0
 11
799.66296649943342
 21
930.34129544707912
 31
0.0
  0
LINE
  5
7C14
  8
1
 10
1244.662966499433
 20
970.34129544707901
 30
0.0
 11
624.66296649943388
 21
970.34129544707855
 31
0.0
  0
LINE
  5
7C16
  8
1
 10
1244.662966499433
 20
970.34129544707901
 30
0.0
 11
1244.662966499433
 21
930.34129544707912
 31
0.0
  0
LINE
  5
7C17
  8
2
 10
614.29856437526314
 20
1190.3412954470789
 30
0.0
 11
982.5147425764676
 21
1190.3412954470789
 31
0.0
  0
LINE
  5
7C19
  8
1
 10
624.66296649943388
 20
970.34129544707855
 30
0.0
 11
624.66296649943388
 21
930.34129544707855
 31
0.0
  0
LINE
  5
7C1A
  8
2
 10
2098.1569648607051
 20
1451.392472542492
 30
0.0
 11
2098.1569648607051
 21
930.42738933433827
 31
0.0
  0
LINE
  5
7C1B
  8
2
 10
1642.364739759242
 20
1190.427389334337
 30
0.0
 11
2205.624670453285
 21
1190.427389334337
 31
0.0
  0
LINE
  5
7C1C
  8
1
 10
1204.662966499433
 20
2341.5905473533139
 30
0.0
 11
1204.662966499433
 21
2263.7905473533119
 31
0.0
  0
LINE
  5
7C1D
  8
1
 10
1244.662966499433
 20
2341.5905473533139
 30
0.0
 11
1244.662966499433
 21
1961.590547353313
 31
0.0
  0
LINE
  5
7C20
  8
1
 10
624.66296649943388
 20
1961.590547353313
 30
0.0
 11
1244.662966499433
 21
1961.5905473533171
 31
0.0
  0
LINE
  5
7C2B
  8
1
 10
969.66296649943342
 20
2341.590547353313
 30
0.0
 11
1244.662966499433
 21
2341.5905473533139
 31
0.0
  0
LINE
  5
7C2C
  8
1
 10
664.66296649943433
 20
1961.590547353313
 30
0.0
 11
624.66296649943388
 21
1961.590547353313
 31
0.0
  0
CIRCLE
  5
7C32
  8
1
 10
799.66296649943388
 20
1060.3412954470789
 30
0.0
 40
60.0
  0
LINE
  5
7C33
  8
1
 10
1665.156964860704
 20
1270.433354420456
 30
0.0
 11
1665.156964860704
 21
970.42738933433816
 31
0.0
  0
LINE
  5
7C34
  8
1
 10
1740.156964860704
 20
1270.433354420456
 30
0.0
 11
1740.156964860704
 21
1230.542147241149
 31
0.0
  0
LINE
  5
7C35
  8
1
 10
749.5146330335042
 20
1270.2972658313399
 30
0.0
 11
749.51463303350374
 21
970.34129544707855
 31
0.0
  0
LINE
  5
7C36
  8
1
 10
1229.514633033504
 20
1270.2972658313399
 30
0.0
 11
1229.514633033504
 21
970.34129544707901
 31
0.0
  0
ARC
  5
7C37
  8
1
 10
810.66296649943354
 20
1201.3412954470789
 30
0.0
 40
159.0
 50
315.72417828846972
 51
356.03297223795579
  0
LINE
  5
7C38
  8
1
 10
699.66296649943388
 20
1150.6412954470791
 30
0.0
 11
699.66296649943388
 21
970.34129544707946
 31
0.0
  0
LINE
  5
7C39
  8
1
 10
899.66296649943388
 20
1150.6412954470791
 30
0.0
 11
899.66296649943388
 21
970.34129544707946
 31
0.0
  0
ARC
  5
7C3A
  8
1
 10
785.66296649943342
 20
1204.3412954470789
 30
0.0
 40
184.0
 50
355.63632120210451
 51
89.665988352833878
  0
LINE
  5
7C3B
  8
1
 10
1995.8569648607049
 20
1256.4273893343379
 30
0.0
 11
1995.8569648607049
 21
1006.427389334338
 31
0.0
  0
LINE
  5
7C3D
  8
1
 10
2023.1569648607051
 20
1189.427389334337
 30
0.0
 11
2023.156964860704
 21
1006.427389334338
 31
0.0
  0
LINE
  5
7C3E
  8
1
 10
2173.1569648607042
 20
1190.427389334337
 30
0.0
 11
2173.1569648607042
 21
1042.3412954470789
 31
0.0
  0
LINE
  5
7C40
  8
1
 10
1744.8569648607049
 20
970.42738933433805
 30
0.0
 11
1744.8569648607049
 21
1070.8412954470789
 31
0.0
  0
LINE
  5
7C41
  8
1
 10
1678.1569648607051
 20
970.42738933433816
 30
0.0
 11
2058.1569648607051
 21
970.42738933433827
 31
0.0
  0
LINE
  5
7C42
  8
1
 10
1678.1569648607051
 20
930.42738933433805
 30
0.0
 11
2058.1569648607051
 21
930.42738933433827
 31
0.0
  0
LINE
  5
7C43
  8
1
 10
2015.8569648607049
 20
1006.427389334338
 30
0.0
 11
2015.8569648607049
 21
970.42738933433827
 31
0.0
  0
LINE
  5
7C44
  8
1
 10
2023.156964860704
 20
1006.427389334338
 30
0.0
 11
1995.8569648607049
 21
1006.427389334338
 31
0.0
  0
LINE
  5
7C45
  8
1
 10
786.73560737280604
 20
1388.338168903007
 30
0.0
 11
614.66296649943342
 21
1389.3412954470789
 31
0.0
  0
ARC
  5
7C46
  8
1
 10
808.66296649943331
 20
1181.3412954470789
 30
0.0
 40
139.0
 50
179.36404010198061
 51
270.39835508435732
  0
LINE
  5
7C47
  8
1
 10
1229.514633033504
 20
1270.2972658313399
 30
0.0
 11
749.5146330335042
 21
1270.297265831339
 31
0.0
  0
LINE
  5
7C4A
  8
1
 10
724.66296649943388
 20
1153.8412954470789
 30
0.0
 11
724.66296649943388
 21
1157.0412954470789
 31
0.0
  0
LINE
  5
7C4B
  8
1
 10
874.66296649943388
 20
1157.0412954470789
 30
0.0
 11
874.66296649943388
 21
1153.8412954470789
 31
0.0
  0
LINE
  5
7C4C
  8
1
 10
707.16296649943388
 20
1256.3412954470789
 30
0.0
 11
707.16296649943388
 21
1153.8412954470789
 31
0.0
  0
LINE
  5
7C4D
  8
1
 10
701.16296649943376
 20
1256.3412954470789
 30
0.0
 11
701.16296649943376
 21
1153.8412954470789
 31
0.0
  0
LINE
  5
7C4E
  8
1
 10
892.16296649943388
 20
1256.3412954470789
 30
0.0
 11
892.16296649943388
 21
1153.8412954470789
 31
0.0
  0
LINE
  5
7C4F
  8
1
 10
898.16296649943376
 20
1256.3412954470789
 30
0.0
 11
898.16296649943376
 21
1153.8412954470789
 31
0.0
  0
ARC
  5
7C50
  8
1
 10
810.66296649943354
 20
1201.3412954470789
 30
0.0
 40
159.0
 50
269.62754046859487
 51
315.72417828846972
  0
LINE
  5
7C52
  8
1
 10
904.66296649943388
 20
1153.8412954470789
 30
0.0
 11
694.66296649943388
 21
1153.8412954470789
 31
0.0
  0
LINE
  5
7C53
  8
1
 10
904.66296649943388
 20
1150.6412954470791
 30
0.0
 11
694.66296649943388
 21
1150.6412954470791
 31
0.0
  0
LINE
  5
7C54
  8
1
 10
904.66296649943388
 20
1153.8412954470789
 30
0.0
 11
904.66296649943388
 21
1150.6412954470791
 31
0.0
  0
LINE
  5
7C55
  8
1
 10
694.66296649943388
 20
1153.8412954470789
 30
0.0
 11
694.66296649943388
 21
1150.6412954470791
 31
0.0
  0
LINE
  5
7C56
  8
1
 10
724.66296649943388
 20
1157.0412954470789
 30
0.0
 11
874.66296649943388
 21
1157.0412954470789
 31
0.0
  0
LINE
  5
7C57
  8
1
 10
898.16296649943376
 20
1256.3412954470789
 30
0.0
 11
892.16296649943388
 21
1256.3412954470789
 31
0.0
  0
LINE
  5
7C58
  8
1
 10
707.16296649943388
 20
1256.3412954470789
 30
0.0
 11
701.16296649943376
 21
1256.3412954470789
 31
0.0
  0
LINE
  5
7C59
  8
1
 10
634.66296649943286
 20
1411.341261462904
 30
0.0
 11
634.66296649943342
 21
1167.341295447078
 31
0.0
  0
LINE
  5
7C5A
  8
1
 10
614.66296649943286
 20
1411.341261462904
 30
0.0
 11
614.66296649943342
 21
1179.3412954470789
 31
0.0
  0
LINE
  5
7C5B
  8
1
 10
669.76381395995895
 20
1189.3412954470789
 30
0.0
 11
614.66296649943342
 21
1189.3412954470789
 31
0.0
  0
ARC
  5
7C5C
  8
1
 10
793.66296649943342
 20
1184.3412954470789
 30
0.0
 40
124.0
 50
177.68905979089749
 51
180.67332781938899
  0
LINE
  5
7C5D
  8
1
 10
634.66296649943342
 20
1187.3412954470789
 30
0.0
 11
634.66296649943342
 21
1186.3412954470789
 31
0.0
  0
LINE
  5
7C5E
  8
1
 10
614.66296649943342
 20
1167.3412954470789
 30
0.0
 11
614.66296649943342
 21
1187.3412954470789
 31
0.0
  0
LINE
  5
7C5F
  8
1
 10
634.66296649943342
 20
1167.3412954470789
 30
0.0
 11
614.66296649943342
 21
1167.3412954470789
 31
0.0
  0
LINE
  5
7C60
  8
1
 10
2173.1569648607042
 20
1389.4273893343379
 30
0.0
 11
2173.1569648607042
 21
1189.4273893343379
 31
0.0
  0
LINE
  5
7C61
  8
1
 10
2023.156964860704
 20
1389.4273893343379
 30
0.0
 11
2023.156964860704
 21
1189.4273893343379
 31
0.0
  0
LINE
  5
7C62
  8
1
 10
2196.1569648607042
 20
1300.4273893343379
 30
0.0
 11
2196.1569648607042
 21
1080.4273893343379
 31
0.0
  0
LINE
  5
7C65
  8
1
 10
1740.156964860704
 20
1153.9273893343379
 30
0.0
 11
1762.356964860704
 21
1153.9273893343379
 31
0.0
  0
LINE
  5
7C67
  8
1
 10
1726.3569648607049
 20
1240.4273893343379
 30
0.0
 11
1726.3569648607049
 21
1145.9773893343381
 31
0.0
  0
LINE
  5
7C68
  8
1
 10
1688.3569648607049
 20
1240.4273893343379
 30
0.0
 11
1688.356964860704
 21
1145.9773893343381
 31
0.0
  0
LINE
  5
7C6B
  8
1
 10
1688.356964860704
 20
1145.9773893343381
 30
0.0
 11
1688.3569648607031
 21
1030.3412954470789
 31
0.0
  0
LINE
  5
7C6C
  8
1
 10
1726.3569648607049
 20
1145.9773893343381
 30
0.0
 11
1726.3569648607049
 21
1030.3412954470789
 31
0.0
  0
LINE
  5
7C70
  8
1
 10
1665.156964860704
 20
1270.433354420456
 30
0.0
 11
1740.156964860704
 21
1270.433354420456
 31
0.0
  0
LINE
  5
7C71
  8
1
 10
1726.3569648607049
 20
1180.927389334337
 30
0.0
 11
1736.3569648607049
 21
1180.927389334337
 31
0.0
  0
LINE
  5
7C72
  8
1
 10
1736.3569648607049
 20
1180.427389334337
 30
0.0
 11
1763.056964860705
 21
1180.427389334337
 31
0.0
  0
LINE
  5
7C73
  8
1
 10
1995.8569648607049
 20
1180.427389334337
 30
0.0
 11
1736.3569648607049
 21
1180.427389334337
 31
0.0
  0
LINE
  5
7C74
  8
1
 10
1726.3569648607049
 20
1199.9273893343379
 30
0.0
 11
1736.3569648607049
 21
1199.9273893343379
 31
0.0
  0
LINE
  5
7C76
  8
1
 10
2176.1569648607042
 20
1080.4273893343379
 30
0.0
 11
2196.1569648607042
 21
1080.4273893343379
 31
0.0
  0
LINE
  5
7C77
  8
1
 10
2196.1569648607042
 20
1080.4273893343379
 30
0.0
 11
2196.1569648607042
 21
1079.4273893343379
 31
0.0
  0
ARC
  5
7C78
  8
1
 10
2194.1569648607042
 20
1079.4273893343379
 30
0.0
 40
2.0
 50
270.0
 51
0.0
  0
LINE
  5
7C79
  8
1
 10
2194.1569648607042
 20
1077.4273893343379
 30
0.0
 11
2183.1569648607042
 21
1077.4273893343379
 31
0.0
  0
ARC
  5
7C7A
  8
1
 10
2183.1569648607042
 20
1073.4273893343379
 30
0.0
 40
4.0
 50
90.0
 51
180.0
  0
LINE
  5
7C7B
  8
1
 10
2179.1569648607042
 20
1073.4273893343379
 30
0.0
 11
2179.1569648607042
 21
1062.4273893343379
 31
0.0
  0
ARC
  5
7C7C
  8
1
 10
2177.1569648607042
 20
1062.4273893343379
 30
0.0
 40
2.0
 50
270.0
 51
0.0
  0
LINE
  5
7C7D
  8
1
 10
2177.1569648607042
 20
1060.427389334337
 30
0.0
 11
2176.1569648607042
 21
1060.427389334337
 31
0.0
  0
LINE
  5
7C7E
  8
1
 10
2176.1569648607042
 20
1060.427389334337
 30
0.0
 11
2176.1569648607042
 21
1300.4273893343379
 31
0.0
  0
LINE
  5
7C7F
  8
1
 10
2173.1569648607042
 20
1060.427389334337
 30
0.0
 11
2176.1569648607051
 21
1060.427389334337
 31
0.0
  0
LINE
  5
7C82
  8
1
 10
1995.8569648607049
 20
1256.4273893343379
 30
0.0
 11
2023.156964860704
 21
1256.4273893343379
 31
0.0
  0
LINE
  5
7C83
  8
1
 10
2173.1569648607042
 20
1169.427389334337
 30
0.0
 11
2173.1569648607042
 21
1167.427389334337
 31
0.0
  0
LINE
  5
7C84
  8
1
 10
2175.1569648607051
 20
1189.4273893343379
 30
0.0
 11
2175.1569648607042
 21
1190.427389334337
 31
0.0
  0
LINE
  5
7C87
  8
1
 10
2194.1569648607042
 20
1303.4273893343379
 30
0.0
 11
2193.1569648607042
 21
1303.4273893343379
 31
0.0
  0
ARC
  5
7C88
  8
1
 10
2194.1569648607042
 20
1301.427389334337
 30
0.0
 40
2.0
 50
0.0
 51
90.0
  0
LINE
  5
7C89
  8
1
 10
2196.1569648607042
 20
1300.4273893343379
 30
0.0
 11
2196.1569648607042
 21
1301.427389334337
 31
0.0
  0
LINE
  5
7C8A
  8
1
 10
2193.1569648607051
 20
1300.4273893343379
 30
0.0
 11
2196.1569648607042
 21
1300.4273893343379
 31
0.0
  0
LINE
  5
7C8C
  8
1
 10
624.66296649943388
 20
930.34129544707912
 30
0.0
 11
1244.662966499433
 21
930.34129544707912
 31
0.0
  0
LINE
  5
7C8D
  8
1
 10
614.66296649943286
 20
1411.341261462904
 30
0.0
 11
634.66296649943286
 21
1411.341261462904
 31
0.0
  0
DIMENSION
  5
7C8E
  8
3
  2
*D2
 10
568.20473661004405
 20
1389.3412954470789
 30
0.0
 11
538.20473661004394
 21
1289.3412954470789
 31
0.0
 70
     0
 13
614.66296649943342
 23
1189.3412954470789
 33
0.0
 14
614.66296649943342
 24
1389.3412954470789
 34
0.0
 50
90.0
1001
ACAD
1000
DSTYLE
1002
{
1070
   287
1070
     3
1070
    40
1040
12.0
1070
   143
1040
0.039
1070
   172
1070
     1
1070
   271
1070
     0
1070
   279
1070
     0
1070
   288
1070
     1
1002
}
  0
DIMENSION
  5
7C8F
  8
3
  2
*D3
 10
505.09490634119447
 20
1389.3412954470789
 30
0.0
 11
475.09490634119419
 21
1289.8412954470789
 31
0.0
 70
     0
 13
614.29856437526314
 23
1190.341295447078
 33
0.0
 14
614.66296649943342
 24
1389.3412954470789
 34
0.0
 50
90.0
1001
ACAD
1000
DSTYLE
1002
{
1070
   287
1070
     3
1070
    40
1040
12.0
1070
   143
1040
0.039
1070
   172
1070
     1
1070
   271
1070
     0
1070
   279
1070
     0
1070
   288
1070
     1
1002
}
  0
DIMENSION
  5
7C92
  8
3
  2
*D4
 10
505.09490634119447
 20
930.34129544707912
 30
0.0
 11
475.0949063411943
 21
1060.3412954470789
 31
0.0
 70
     0
 13
614.29856437526314
 23
1190.341295447078
 33
0.0
 14
624.66296649943388
 24
930.34129544707912
 34
0.0
 50
270.0
1001
ACAD
1000
DSTYLE
1002
{
1070
   287
1070
     3
1070
    40
1040
12.0
1070
   143
1040
0.039
1070
   172
1070
     1
1070
   271
1070
     0
1070
   279
1070
     0
1070
   288
1070
     1
1002
}
  0
DIMENSION
  5
7C95
  8
3
  2
*D5
 10
799.66296649943342
 20
1475.5832318392199
 30
0.0
 11
707.1629664994332
 21
1505.5832318392199
 31
0.0
 70
     0
 13
614.66296649943286
 23
1411.341261462904
 33
0.0
 14
799.66296649943342
 24
1428.531969785605
 34
0.0
1001
ACAD
1000
DSTYLE
1002
{
1070
   287
1070
     3
1070
    40
1040
12.0
1070
   143
1040
0.039
1070
   172
1070
     1
1070
   271
1070
     0
1070
   279
1070
     0
1070
   288
1070
     1
1002
}
  0
LINE
  5
7C96
  8
1
 10
2058.1569648607051
 20
930.42738933433827
 30
0.0
 11
2058.156964860706
 21
970.42738933433827
 31
0.0
  0
LINE
  5
7C97
  8
1
 10
1678.1569648607051
 20
930.42738933433805
 30
0.0
 11
1678.1569648607051
 21
970.42738933433805
 31
0.0
  0
LINE
  5
7C98
  8
1
 10
2023.156964860704
 20
1389.4273893343379
 30
0.0
 11
2173.1569648607042
 21
1389.427389334337
 31
0.0
  0
LINE
  5
7C99
  8
1
 10
2020.856964860704
 20
1189.4273893343379
 30
0.0
 11
2175.1569648607051
 21
1189.4273893343379
 31
0.0
  0
LINE
  5
7C9A
  8
1
 10
2023.156964860704
 20
1042.3412954470789
 30
0.0
 11
2173.1569648607042
 21
1042.3412954470789
 31
0.0
  0
LINE
  5
7C9B
  8
1
 10
1995.8569648607049
 20
1200.427389334337
 30
0.0
 11
1736.3569648607049
 21
1200.4273893343379
 31
0.0
  0
LINE
  5
7C9C
  8
1
 10
1736.3569648607049
 20
1200.4273893343379
 30
0.0
 11
1736.3569648607049
 21
1199.9273893343379
 31
0.0
  0
LINE
  5
7C9D
  8
1
 10
1736.3569648607049
 20
1180.927389334337
 30
0.0
 11
1736.3569648607049
 21
1180.427389334337
 31
0.0
  0
LINE
  5
7C9E
  8
1
 10
1740.156964860704
 20
970.42738933433816
 30
0.0
 11
1665.156964860704
 21
970.42738933433816
 31
0.0
  0
LINE
  5
7C9F
  8
1
 10
2003.156964860704
 20
1409.4273893343379
 30
0.0
 11
2193.1569648607051
 21
1409.4273893343379
 31
0.0
  0
LINE
  5
7CA0
  8
1
 10
2003.156964860704
 20
1409.4273893343379
 30
0.0
 11
2003.156964860704
 21
1256.4273893343379
 31
0.0
  0
LINE
  5
7CA1
  8
1
 10
2193.1569648607051
 20
1409.4273893343379
 30
0.0
 11
2193.1569648607051
 21
1303.4273893343379
 31
0.0
  0
LINE
  5
7CA3
  8
2
 10
1658.5317199598701
 20
1080.3412954470789
 30
0.0
 11
2008.130660763796
 21
1080.3412954470789
 31
0.0
  0
DIMENSION
  5
7CA4
  8
3
  2
*D6
 10
1244.662966499433
 20
1553.9223233897919
 30
0.0
 11
929.6629664994332
 21
1583.9223233897919
 31
0.0
 70
     0
 13
614.66296649943286
 23
1416.341261462904
 33
0.0
 14
1244.662966499433
 24
970.34129544707901
 34
0.0
1001
ACAD
1000
DSTYLE
1002
{
1070
   287
1070
     3
1070
    40
1040
12.0
1070
   143
1040
0.039
1070
   172
1070
     1
1070
   271
1070
     0
1070
   279
1070
     0
1070
   288
1070
     1
1002
}
  0
LINE
  5
7CA5
  8
1
 10
614.66296649943376
 20
2476.590547353313
 30
0.0
 11
614.66296649943342
 21
2286.5905473533139
 31
0.0
  0
DIMENSION
  5
7CA6
  8
3
  2
*D7
 10
969.66296649943342
 20
1475.5832318392199
 30
0.0
 11
884.66296649943354
 21
1505.5832318392199
 31
0.0
 70
     0
 13
799.66296649943342
 23
1428.531969785605
 33
0.0
 14
969.66296649943342
 24
1204.3412954470789
 34
0.0
1001
ACAD
1000
DSTYLE
1002
{
1070
   287
1070
     3
1070
    40
1040
12.0
1070
   143
1040
0.039
1070
   172
1070
     1
1070
   271
1070
     0
1070
   279
1070
     0
1070
   288
1070
     1
1002
}
  0
LINE
  5
7CA7
  8
1
 10
969.66296649943342
 20
2456.5905473533139
 30
0.0
 11
969.66296649943342
 21
2306.5905473533139
 31
0.0
  0
LINE
  5
7CA8
  8
2
 10
591.09908166466857
 20
2381.590547353313
 30
0.0
 11
1047.083088716045
 21
2381.590547353313
 31
0.0
  0
LINE
  5
7CA9
  8
1
 10
634.66296649943342
 20
2456.590547353313
 30
0.0
 11
969.66296649943342
 21
2456.5905473533139
 31
0.0
  0
LINE
  5
7CAA
  8
1
 10
634.66296649943342
 20
2306.5905473533139
 30
0.0
 11
969.66296649943342
 21
2306.5905473533139
 31
0.0
  0
LINE
  5
7CAB
  8
1
 10
614.66296649943376
 20
2476.590547353313
 30
0.0
 11
634.66296649943342
 21
2476.5905473533139
 31
0.0
  0
LINE
  5
7CAC
  8
1
 10
614.66296649943376
 20
2286.5905473533139
 30
0.0
 11
634.66296649943342
 21
2286.5905473533139
 31
0.0
  0
LINE
  5
7CAD
  8
1
 10
634.66296649943376
 20
2476.590547353313
 30
0.0
 11
634.66296649943342
 21
2286.5905473533139
 31
0.0
  0
LINE
  5
7CAE
  8
1
 10
624.66296649943388
 20
2286.5905473533139
 30
0.0
 11
624.66296649943388
 21
1961.590547353313
 31
0.0
  0
LINE
  5
7CAF
  8
1
 10
664.66296649943342
 20
2306.5905473533139
 30
0.0
 11
664.66296649943433
 21
1961.590547353313
 31
0.0
  0
LINE
  5
7CB0
  8
2
 10
799.66296649943342
 20
1963.5131587260521
 30
0.0
 11
799.66296649943342
 21
2489.0582529458929
 31
0.0
  0
LINE
  5
7CB1
  8
1
 10
719.6570014133149
 20
1948.590547353313
 30
0.0
 11
719.6570014133149
 21
2023.5905473533121
 31
0.0
  0
LINE
  5
7CB2
  8
1
 10
719.6570014133149
 20
1948.590547353313
 30
0.0
 11
1229.5146330335031
 21
1948.590547353313
 31
0.0
  0
LINE
  5
7CB3
  8
1
 10
844.11296649943313
 20
1971.7905473533131
 30
0.0
 11
1179.6629664994341
 21
1971.7905473533101
 31
0.0
  0
LINE
  5
7CB4
  8
1
 10
844.11296649943313
 20
2009.7905473533131
 30
0.0
 11
1179.6629664994341
 21
2009.7905473533131
 31
0.0
  0
LINE
  5
7CB5
  8
1
 10
719.6570014133149
 20
2023.5905473533121
 30
0.0
 11
1229.514633033504
 21
2023.5905473533121
 31
0.0
  0
LINE
  5
7CB7
  8
1
 10
809.66296649943354
 20
2306.5905473533139
 30
0.0
 11
809.66296649943354
 21
2019.7905473533131
 31
0.0
  0
LINE
  5
7CB8
  8
1
 10
789.66296649943342
 20
2306.5905473533139
 30
0.0
 11
789.66296649943342
 21
2019.7905473533131
 31
0.0
  0
LINE
  5
7CB9
  8
1
 10
749.66296649943342
 20
1971.790547353314
 30
0.0
 11
844.11296649943313
 21
1971.7905473533131
 31
0.0
  0
LINE
  5
7CBA
  8
1
 10
749.66296649943342
 20
2009.7905473533131
 30
0.0
 11
844.11296649943313
 21
2009.7905473533131
 31
0.0
  0
LINE
  5
7CBB
  8
1
 10
836.16296649943342
 20
2023.5905473533139
 30
0.0
 11
743.16296649943342
 21
2023.5905473533139
 31
0.0
  0
LINE
  5
7CBD
  8
1
 10
790.16296649943342
 20
2009.7905473533131
 30
0.0
 11
790.16296649943342
 21
2019.7905473533131
 31
0.0
  0
LINE
  5
7CBE
  8
1
 10
809.16296649943342
 20
2009.7905473533131
 30
0.0
 11
809.16296649943342
 21
2019.7905473533131
 31
0.0
  0
LINE
  5
7CC0
  8
1
 10
1229.514633033504
 20
2023.5905473533121
 30
0.0
 11
1229.5146330335031
 21
1948.590547353313
 31
0.0
  0
LINE
  5
7CC2
  8
1
 10
1204.662966499433
 20
2045.7905473533119
 30
0.0
 11
1204.662966499433
 21
1961.590547353313
 31
0.0
  0
LINE
  5
7CC3
  8
1
 10
699.66296649943342
 20
2028.6681514409511
 30
0.0
 11
699.66296649943342
 21
2306.5905473533139
 31
0.0
  0
LINE
  5
7CC4
  8
1
 10
899.66296649943422
 20
2028.6681514409511
 30
0.0
 11
899.66296649943422
 21
2306.5905473533139
 31
0.0
  0
LINE
  5
7CC5
  8
1
 10
699.66296649943388
 20
2028.6681514409499
 30
0.0
 11
789.66296649943342
 21
2028.6681514409511
 31
0.0
  0
LINE
  5
7CC7
  8
1
 10
809.66296649943354
 20
2028.6681514409511
 30
0.0
 11
899.66296649943331
 21
2028.6681514409499
 31
0.0
  0
DIMENSION
  5
7CC8
  8
3
  2
*D8
 10
2098.1569648607051
 20
1522.3980148372109
 30
0.0
 11
2137.1569648607051
 21
1570.3980148372109
 31
0.0
 70
     0
  1
79
 13
2176.1569648607051
 23
1320.4273893343379
 33
0.0
 14
2098.1569648607051
 24
1491.0329983481431
 34
0.0
1001
ACAD
1000
DSTYLE
1002
{
1070
   288
1070
     1
1070
   172
1070
     1
1070
    40
1040
12.0
1070
   271
1070
     0
1070
   143
1040
0.039
1002
}
  0
DIMENSION
  5
7CC9
  8
3
  2
*D9
 10
1665.156964860704
 20
1522.3980148372109
 30
0.0
 11
1881.6569648607051
 21
1582.3980148372109
 31
0.0
 70
     0
  1
MAX\P520
 13
2098.1569648607051
 23
1491.0329983481431
 33
0.0
 14
1665.156964860704
 24
1270.433354420456
 34
0.0
1001
ACAD
1000
DSTYLE
1002
{
1070
   287
1070
     3
1070
    40
1040
12.0
1070
   143
1040
0.039
1070
   172
1070
     1
1070
   271
1070
     0
1070
   279
1070
     0
1070
   288
1070
     1
1002
}
  0
DIMENSION
  5
7CCA
  8
3
  2
*D10
 10
2173.1569648607042
 20
1447.322289620244
 30
0.0
 11
2098.1569648607042
 21
1473.2706564442019
 31
0.0
 70
   128
 13
2023.156964860704
 23
1389.4273893343379
 33
0.0
 14
2173.1569648607042
 24
1389.4273893343379
 34
0.0
1001
ACAD
1000
DSTYLE
1002
{
1070
   288
1070
     1
1070
   172
1070
     1
1070
    40
1040
12.0
1070
   271
1070
     0
1070
   143
1040
0.039
1002
}
  0
DIMENSION
  5
7CCB
  8
3
  2
*D11
 10
2277.1740047245439
 20
1080.4273893343379
 30
0.0
 11
2247.174004724543
 21
1190.4273893343379
 31
0.0
 70
     0
 13
2196.1569648607042
 23
1300.4273893343379
 33
0.0
 14
2196.1569648607042
 24
1080.4273893343379
 34
0.0
 50
90.0
1001
ACAD
1000
DSTYLE
1002
{
1070
   287
1070
     3
1070
     3
1000
φ<>
1070
    40
1040
12.0
1070
   143
1040
0.039
1070
   172
1070
     1
1070
   271
1070
     0
1070
   279
1070
     0
1070
   288
1070
     1
1002
}
  0
LINE
  5
7CD0
  8
1
 10
2023.156964860704
 20
1389.4273893343379
 30
0.0
 11
2173.1569648607042
 21
1189.4273893343379
 31
0.0
  0
LINE
  5
7CD1
  8
1
 10
2023.156964860704
 20
1189.4273893343379
 30
0.0
 11
2173.1569648607042
 21
1389.4273893343379
 31
0.0
  0
LINE
  5
7CD2
  8
1
 10
1980.356964860704
 20
1155.1412834470791
 30
0.0
 11
1980.356964860704
 21
1002.341295447079
 31
0.0
  0
LINE
  5
7CD3
  8
1
 10
1762.356964860704
 20
1002.341295447078
 30
0.0
 11
1762.356964860704
 21
1155.141283447078
 31
0.0
  0
LINE
  5
7CD4
  8
1
 10
1752.356964860704
 20
1046.8412954470789
 30
0.0
 11
1752.356964860704
 21
1113.8412954470789
 31
0.0
  0
LINE
  5
7CD5
  8
1
 10
1762.3569648607031
 20
1002.341295447079
 30
0.0
 11
1980.356964860704
 21
1002.341295447079
 31
0.0
  0
LINE
  5
7CD6
  8
1
 10
1907.356964860704
 20
1002.341295447079
 30
0.0
 11
1907.356964860704
 21
970.42738933433816
 31
0.0
  0
LINE
  5
7CD7
  8
1
 10
1787.356964860704
 20
1002.341295447079
 30
0.0
 11
1787.356964860704
 21
970.42738933433816
 31
0.0
  0
LINE
  5
7CD8
  8
1
 10
1762.356964860704
 20
1041.657091447079
 30
0.0
 11
1762.356964860704
 21
1050.657091447079
 31
0.0
  0
LINE
  5
7CD9
  8
1
 10
1762.356964860704
 20
1052.5913564470791
 30
0.0
 11
1762.356964860704
 21
1040.327422447079
 31
0.0
  0
LINE
  5
7CDA
  8
1
 10
1762.356964860704
 20
1050.4062984470791
 30
0.0
 11
1762.356964860704
 21
1041.7762934470791
 31
0.0
  0
LINE
  5
7CDB
  8
1
 10
1762.356964860704
 20
1046.8412954470789
 30
0.0
 11
1752.356964860704
 21
1046.8412954470789
 31
0.0
  0
LINE
  5
7CDC
  8
1
 10
1980.356964860704
 20
1155.1412834470791
 30
0.0
 11
1762.356964860704
 21
1155.141283447078
 31
0.0
  0
LINE
  5
7CDD
  8
1
 10
1726.3569648607049
 20
1070.8412954470789
 30
0.0
 11
1747.356964860704
 21
1070.8412954470789
 31
0.0
  0
LINE
  5
7CDE
  8
1
 10
1747.356964860704
 20
1089.8412954470789
 30
0.0
 11
1726.3569648607049
 21
1089.8412954470789
 31
0.0
  0
LINE
  5
7CDF
  8
1
 10
1747.356964860704
 20
1069.8412954470789
 30
0.0
 11
1747.356964860704
 21
1090.8412954470789
 31
0.0
  0
LINE
  5
7CE0
  8
1
 10
1747.356964860704
 20
1069.8412954470789
 30
0.0
 11
1752.356964860704
 21
1069.8412954470789
 31
0.0
  0
LINE
  5
7CE1
  8
1
 10
1747.356964860704
 20
1090.8412954470789
 30
0.0
 11
1752.356964860704
 21
1090.8412954470789
 31
0.0
  0
LINE
  5
7CE2
  8
1
 10
1752.356964860704
 20
1113.8412954470789
 30
0.0
 11
1762.356964860704
 21
1113.8412954470789
 31
0.0
  0
LINE
  5
7CE3
  8
1
 10
1762.356964860704
 20
1144.407091447079
 30
0.0
 11
1762.356964860704
 21
1153.407091447079
 31
0.0
  0
LINE
  5
7CE4
  8
1
 10
1762.356964860704
 20
1153.1562984470791
 30
0.0
 11
1762.356964860704
 21
1144.5262934470791
 31
0.0
  0
ARC
  5
7CE5
  8
1
 10
1129.662966499433
 20
1080.3412954470789
 30
0.0
 40
85.0
 50
295.8755339999999
 51
180.0
  0
LINE
  5
7CE6
  8
2
 10
1129.662966499433
 20
1176.6289469854109
 30
0.0
 11
1129.662966499433
 21
925.40236338322075
 31
0.0
  0
ARC
  5
7CE7
  8
1
 10
1129.662966499433
 20
1080.3412954470789
 30
0.0
 40
85.0
 50
295.8755339999999
 51
180.0
  0
LINE
  5
7CE8
  8
1
 10
1237.162966499433
 20
970.34129544707855
 30
0.0
 11
1022.162966499433
 21
970.34129544707901
 31
0.0
  0
LINE
  5
7CE9
  8
1
 10
1232.1629664994341
 20
1000.341295447079
 30
0.0
 11
1027.1629664994341
 21
1000.341295447079
 31
0.0
  0
LINE
  5
7CEA
  8
2
 10
1216.453707499433
 20
1080.3412954470789
 30
0.0
 11
1036.1070894994341
 21
1080.3412954470789
 31
0.0
  0
LINE
  5
7CEB
  8
1
 10
1211.437564065197
 20
1000.341295447079
 30
0.0
 11
1191.9861344994331
 21
1022.522791447078
 31
0.0
  0
LINE
  5
7CEC
  8
1
 10
1232.1629664994341
 20
1000.341295447079
 30
0.0
 11
1237.162966499433
 21
970.34129544707855
 31
0.0
  0
LINE
  5
7CED
  8
1
 10
1207.162966499433
 20
1000.341295447079
 30
0.0
 11
1172.162966499433
 21
1000.341295447079
 31
0.0
  0
ARC
  5
7CEE
  8
1
 10
1129.662966499433
 20
1080.3412954470789
 30
0.0
 40
85.000007999999994
 50
180.0
 51
244.08227400000001
  0
LINE
  5
7CEF
  8
1
 10
1047.888457824839
 20
1000.341295447079
 30
0.0
 11
1067.3416584994329
 21
1022.524933447079
 31
0.0
  0
LINE
  5
7CF0
  8
1
 10
1166.7584654994339
 20
1003.890367447079
 30
0.0
 11
1092.511157499433
 21
1003.890367447079
 31
0.0
  0
LINE
  5
7CF1
  8
1
 10
1052.1629664994341
 20
1000.341295447079
 30
0.0
 11
1087.1629664994341
 21
1000.341295447079
 31
0.0
  0
LINE
  5
7CF2
  8
1
 10
1027.1629664994341
 20
1000.341295447079
 30
0.0
 11
1022.162966499434
 21
970.34129544707901
 31
0.0
  0
LINE
  5
7CF3
  8
1
 10
1054.8629784994339
 20
2263.7905473533119
 30
0.0
 11
1054.8629784994339
 21
2045.7905473533119
 31
0.0
  0
LINE
  5
7CF4
  8
1
 10
1207.6629664994341
 20
2045.7905473533119
 30
0.0
 11
1207.6629664994341
 21
2263.7905473533119
 31
0.0
  0
LINE
  5
7CF5
  8
2
 10
1129.662966499433
 20
2269.4641923533118
 30
0.0
 11
1129.662966499433
 21
1962.498065268152
 31
0.0
  0
LINE
  5
7CF6
  8
1
 10
1054.8629784994339
 20
2263.7905473533119
 30
0.0
 11
1207.6629664994341
 21
2263.7905473533119
 31
0.0
  0
LINE
  5
7CF7
  8
1
 10
1163.162966499433
 20
2035.7905473533119
 30
0.0
 11
1096.162966499433
 21
2035.7905473533119
 31
0.0
  0
LINE
  5
7CF8
  8
1
 10
1207.6629664994341
 20
2045.7905473533119
 30
0.0
 11
1054.8629784994339
 21
2045.7905473533119
 31
0.0
  0
LINE
  5
7CF9
  8
1
 10
1119.1629664994341
 20
2030.7905473533119
 30
0.0
 11
1119.1629664994341
 21
2035.7905473533119
 31
0.0
  0
LINE
  5
7CFA
  8
1
 10
1140.162966499433
 20
2030.7905473533119
 30
0.0
 11
1140.162966499433
 21
2035.7905473533119
 31
0.0
  0
LINE
  5
7CFB
  8
1
 10
1163.162966499433
 20
2045.7905473533119
 30
0.0
 11
1163.162966499433
 21
2035.7905473533119
 31
0.0
  0
LINE
  5
7CFC
  8
1
 10
1159.5979634994339
 20
2045.7905473533119
 30
0.0
 11
1168.2279684994339
 21
2045.7905473533119
 31
0.0
  0
LINE
  5
7CFD
  8
1
 10
1157.4129054994339
 20
2045.7905473533119
 30
0.0
 11
1169.6768394994331
 21
2045.7905473533119
 31
0.0
  0
LINE
  5
7CFE
  8
1
 10
1168.347170499434
 20
2045.7905473533119
 30
0.0
 11
1159.347170499434
 21
2045.7905473533119
 31
0.0
  0
LINE
  5
7CFF
  8
1
 10
1120.162966499433
 20
2030.7905473533119
 30
0.0
 11
1120.162966499433
 21
2023.5905473533121
 31
0.0
  0
LINE
  5
7D00
  8
1
 10
1139.162966499433
 20
2023.5905473533121
 30
0.0
 11
1139.162966499433
 21
2030.7905473533119
 31
0.0
  0
LINE
  5
7D01
  8
1
 10
1140.162966499433
 20
2030.7905473533119
 30
0.0
 11
1119.1629664994341
 21
2030.7905473533119
 31
0.0
  0
LINE
  5
7D02
  8
1
 10
1096.162966499433
 20
2035.7905473533119
 30
0.0
 11
1096.162966499433
 21
2045.7905473533119
 31
0.0
  0
LINE
  5
7D03
  8
1
 10
1056.8479634994339
 20
2045.7905473533119
 30
0.0
 11
1065.4779684994339
 21
2045.7905473533119
 31
0.0
  0
LINE
  5
7D04
  8
1
 10
1065.597170499434
 20
2045.7905473533119
 30
0.0
 11
1056.5971704994331
 21
2045.7905473533119
 31
0.0
  0
ARC
  5
7D05
  8
1
 10
1061.0886714994331
 20
2044.7905473533119
 30
0.0
 40
2.0
 50
150.0
 51
168.86095999999989
  0
LINE
  5
7D06
  8
1
 10
1744.8569648607049
 20
1089.8412954470789
 30
0.0
 11
1744.8569648607049
 21
1153.9273893343379
 31
0.0
  0
LINE
  5
7D07
  8
1
 10
1980.356964860704
 20
1153.9273893343379
 30
0.0
 11
1995.8569648607049
 21
1153.9273893343379
 31
0.0
  0
LINE
  5
7D08
  8
1
 10
2176.1569648607042
 20
1320.4273893343379
 30
0.0
 11
2176.1569648607042
 21
1300.4273893343379
 31
0.0
  0
LINE
  5
7D09
  8
1
 10
2179.1569648607042
 20
1307.427389334337
 30
0.0
 11
2179.1569648607042
 21
1318.427389334337
 31
0.0
  0
LINE
  5
7D0A
  8
1
 10
2173.1569648607042
 20
1320.427389334337
 30
0.0
 11
2176.1569648607051
 21
1320.4273893343379
 31
0.0
  0
LINE
  5
7D0B
  8
1
 10
2177.1569648607042
 20
1320.4273893343379
 30
0.0
 11
2176.1569648607042
 21
1320.4273893343379
 31
0.0
  0
ARC
  5
7D0C
  8
1
 10
2177.1569648607042
 20
1318.427389334337
 30
0.0
 40
2.0
 50
0.0
 51
90.0
  0
LINE
  5
7D0D
  8
1
 10
2194.1569648607042
 20
1303.4273893343379
 30
0.0
 11
2183.1569648607042
 21
1303.4273893343379
 31
0.0
  0
LINE
  5
7D0E
  8
1
 10
2176.1569648607042
 20
1300.4273893343379
 30
0.0
 11
2196.1569648607042
 21
1300.4273893343379
 31
0.0
  0
ARC
  5
7D0F
  8
1
 10
2183.1569648607042
 20
1307.427389334337
 30
0.0
 40
4.0
 50
180.0
 51
270.0
  0
LINE
  5
7D10
  8
1
 10
2196.1569648607042
 20
1300.4273893343379
 30
0.0
 11
2196.1569648607042
 21
1301.427389334337
 31
0.0
  0
LINE
  5
7EF5
  8
4
 10
2220.0
 20
600.0
 30
0.0
 11
2220.0
 21
360.0
 31
0.0
  0
LINE
  5
7EF6
  8
4
 10
1380.0
 20
600.0
 30
0.0
 11
1380.0
 21
360.0
 31
0.0
  0
LINE
  5
7EF7
  8
4
 10
780.0
 20
600.0
 30
0.0
 11
780.0
 21
360.0
 31
0.0
  0
LINE
  5
7EFA
  8
4
 10
780.0
 20
360.0
 30
0.0
 11
2220.0
 21
360.0
 31
0.0
  0
LINE
  5
7EFB
  8
4
 10
780.0
 20
480.0
 30
0.0
 11
2220.0
 21
480.0
 31
0.0
  0
TEXT
  5
7EFC
  8
4
 10
826.20249701628188
 20
517.85163103993546
 30
0.0
 40
60.0
  1
機器名称
  0
TEXT
  5
7EFD
  8
4
 10
823.509727229757
 20
385.97418807841308
 30
0.0
 40
60.0
  1
機器型番
  0
TEXT
  5
7EFE
  8
4
 10
1413.2144945851969
 20
507.08612274908222
 30
0.0
 40
60.0
  1
ミツヤ多翼送風機
  0
TEXT
  5
7EFF
  8
4
 10
1423.9853947025761
 20
380.59150113593199
 30
0.0
 40
60.0
  1
MF#1 1/4-1
  0
TEXT
  5
7F01
  8
4
 10
896.88898440990658
 20
2860.1146095990189
 30
0.0
 40
64.799999999999997
  1
床置ベット
  0
TEXT
  5
7F02
  8
4
 10
379.40111199533561
 20
3040.6571714391571
 30
0.0
 40
86.400000000000006
  1
遠心式片吸込片持多翼ファン
  0
LINE
  5
7F03
  8
4
 10
300.0
 20
2963.2905051177659
 30
0.0
 11
2220.0
 21
2963.2905051177659
 31
0.0
  0
LINE
  5
7F04
  8
4
 10
300.0
 20
3203.290505117765
 30
0.0
 11
2220.0
 21
3203.290505117765
 31
0.0
  0
LINE
  5
7F05
  8
4
 10
780.0
 20
600.0
 30
0.0
 11
2220.0
 21
600.0
 31
0.0
  0
LINE
  5
7F06
  8
4
 10
300.0
 20
3203.290505117765
 30
0.0
 11
300.0
 21
2963.2905051177659
 31
0.0
  0
TEXT
  5
7F07
  8
4
 10
373.85838571866401
 20
2858.7833730556122
 30
0.0
 40
64.799999999999997
  1
左回転左横向
  0
TEXT
  5
7F08
  8
4
 10
1762.763471099147
 20
3247.2732977943701
 30
0.0
 40
67.200000000000003
  1
No.
  0
TEXT
  5
7F09
  8
4
 10
1573.555275120015
 20
2860.1146095990189
 30
0.0
 40
64.799999999999997
  1
縮尺：1/12
  0
LINE
  5
7F0A
  8
4
 10
2220.0
 20
3203.290505117765
 30
0.0
 11
2220.0
 21
2963.2905051177659
 31
0.0
  0
LINE
  5
7F0B
  8
4
 10
2520.0
 20
3540.0
 30
0.0
 11
2520.0
 21
3540.0
 31
0.0
  0
LINE
  5
7F0C
  8
4
 10
1728.740906831837
 20
3217.5162997504808
 30
0.0
 11
1728.740906831837
 21
3343.9827138597029
 31
0.0
  0
LINE
  5
7F0D
  8
4
 10
1728.740906831837
 20
3343.9827138597029
 30
0.0
 11
2220.0
 21
3343.9827138597029
 31
0.0
  0
LINE
  5
7F0E
  8
4
 10
2220.0
 20
3343.9827138597029
 30
0.0
 11
2220.0
 21
3217.5162997504808
 31
0.0
  0
LINE
  5
7F0F
  8
4
 10
2220.0
 20
3217.5162997504808
 30
0.0
 11
1728.740906831837
 21
3217.5162997504808
 31
0.0
  0
LINE
  5
7F10
  8
4
 10
0.0
 20
0.0
 30
0.0
 11
0.0
 21
3540.0
 31
0.0
  0
LINE
  5
7F11
  8
4
 10
0.0
 20
3540.0
 30
0.0
 11
2520.0
 21
3540.0
 31
0.0
  0
LINE
  5
7F12
  8
4
 10
2520.0
 20
3540.0
 30
0.0
 11
2520.0
 21
0.0
 31
0.0
  0
LINE
  5
7F13
  8
4
 10
2520.0
 20
0.0
 30
0.0
 11
0.0
 21
0.0
 31
0.0
  0
CIRCLE
  5
8135
  8
1
 10
799.66296649943342
 20
1190.3412954470789
 30
0.0
 40
50.0
  0
CIRCLE
  5
8136
  8
1
 10
1129.662966499433
 20
1080.3412954470789
 30
0.0
 40
50.0
  0
LINE
  5
8137
  8
1
 10
815.47435480027525
 20
1237.7754603496039
 30
0.0
 11
1145.474354800275
 21
1127.7754603496039
 31
0.0
  0
LINE
  5
8138
  8
1
 10
783.85157819859148
 20
1142.907130544553
 30
0.0
 11
1113.8515781985921
 21
1032.907130544553
 31
0.0
  0
LINE
  5
8139
  8
1
 10
1688.3569648607049
 20
1240.4273893343379
 30
0.0
 11
1726.3569648607049
 21
1240.4273893343379
 31
0.0
  0
LINE
  5
813A
  8
1
 10
1688.356964860704
 20
1140.427389334337
 30
0.0
 11
1726.3569648607049
 21
1140.427389334337
 31
0.0
  0
LINE
  5
813B
  8
1
 10
1688.356964860704
 20
1130.3412954470789
 30
0.0
 11
1726.3569648607049
 21
1130.3412954470789
 31
0.0
  0
LINE
  5
813C
  8
1
 10
1688.3569648607031
 20
1030.3412954470789
 30
0.0
 11
1726.3569648607049
 21
1030.3412954470789
 31
0.0
  0
LINE
  5
813D
  8
1
 10
849.66296649943354
 20
1971.7905473533131
 30
0.0
 11
849.66296649943354
 21
2009.7905473533131
 31
0.0
  0
LINE
  5
813E
  8
1
 10
749.6629664994332
 20
1971.790547353314
 30
0.0
 11
749.6629664994332
 21
2009.7905473533131
 31
0.0
  0
LINE
  5
813F
  8
1
 10
1179.6629664994341
 20
2009.7905473533131
 30
0.0
 11
1179.6629664994341
 21
1971.7905473533101
 31
0.0
  0
LINE
  5
8140
  8
1
 10
1079.662966499433
 20
2009.7905473533131
 30
0.0
 11
1079.662966499433
 21
1971.790547353311
 31
0.0
  0
LINE
  5
8146
  8
1
 10
1740.156964860704
 20
1004.078703442658
 30
0.0
 11
1740.156964860704
 21
970.42738933433816
 31
0.0
  0
LINE
  5
81E6
  8
1
 10
664.66296649943422
 20
2001.5905473533139
 30
0.0
 11
1204.662966499433
 21
2001.5905473533171
 31
0.0
  0
LINE
  5
81E7
  8
1
 10
664.66296649943342
 20
2301.5905473533121
 30
0.0
 11
699.66296649943354
 21
2301.5905473533121
 31
0.0
  0
LINE
  5
81E8
  8
1
 10
899.66296649943422
 20
2301.590547353313
 30
0.0
 11
1204.662966499433
 21
2301.590547353313
 31
0.0
  0
DIMENSION
  5
81F5
  8
3
  2
*D12
 10
1342.6387166867789
 20
1961.5905473533171
 30
0.0
 11
1342.6387166867789
 21
2146.3072726447181
 31
0.0
 70
   128
 13
1244.662966499433
 23
2341.5905473533139
 33
0.0
 14
1244.662966499433
 24
1961.5905473533171
 34
0.0
 50
90.0
1001
ACAD
1000
DSTYLE
1002
{
1070
   287
1070
     3
1070
    40
1040
12.0
1070
   143
1040
0.039
1070
   172
1070
     1
1070
   271
1070
     0
1070
   279
1070
     0
1070
   288
1070
     1
1002
}
  0
DIMENSION
  5
820D
  8
3
  2
*D13
 10
1244.662966499433
 20
1847.7768560119121
 30
0.0
 11
909.76499604864875
 21
1847.7768560119121
 31
0.0
 70
   128
 13
624.66296649943388
 23
1961.590547353313
 33
0.0
 14
1244.662966499433
 24
1961.5905473533171
 34
0.0
1001
ACAD
1000
DSTYLE
1002
{
1070
   287
1070
     3
1070
    40
1040
12.0
1070
   143
1040
0.039
1070
   172
1070
     1
1070
   271
1070
     0
1070
   279
1070
     0
1070
   288
1070
     1
1002
}
  0
DIMENSION
  5
824C
  8
3
  2
*D14
 10
799.66296649943342
 20
848.82053333016574
 30
0.0
 11
712.16296649943365
 21
878.82053333016574
 31
0.0
 70
     0
 13
624.66296649943388
 23
930.34129544707855
 33
0.0
 14
799.66296649943342
 24
930.34129544707912
 34
0.0
1001
ACAD
1000
DSTYLE
1002
{
1070
   287
1070
     3
1070
    40
1040
12.0
1070
   143
1040
0.039
1070
   172
1070
     1
1070
   271
1070
     0
1070
   279
1070
     0
1002
}
  0
DIMENSION
  5
8259
  8
3
  2
*D15
 10
1244.662966499433
 20
848.82053333016574
 30
0.0
 11
1022.162966499433
 21
878.82053333016574
 31
0.0
 70
     0
 13
799.66296649943342
 23
930.34129544707912
 33
0.0
 14
1244.662966499433
 24
930.34129544707912
 34
0.0
1001
ACAD
1000
DSTYLE
1002
{
1070
   287
1070
     3
1070
    40
1040
12.0
1070
   143
1040
0.039
1070
   172
1070
     1
1070
   271
1070
     0
1070
   279
1070
     0
1002
}
  0
DIMENSION
  5
8273
  8
3
  2
*D16
 10
2058.1569648607051
 20
848.82053333016574
 30
0.0
 11
1868.1569648607051
 21
878.82053333016574
 31
0.0
 70
     0
 13
1678.1569648607051
 23
930.42738933433805
 33
0.0
 14
2058.1569648607051
 24
930.42738933433827
 34
0.0
1001
ACAD
1000
DSTYLE
1002
{
1070
   287
1070
     3
1070
    40
1040
12.0
1070
   143
1040
0.039
1070
   172
1070
     1
1070
   271
1070
     0
1070
   279
1070
     0
1002
}
  0
DIMENSION
  5
8282
  8
3
  2
*D17
 10
2098.1569648607051
 20
848.82053333016574
 30
0.0
 11
2187.299822003562
 21
878.82053333016574
 31
0.0
 70
     0
 13
2058.1569648607051
 23
930.42738933433827
 33
0.0
 14
2098.1569648607051
 24
930.42738933433827
 34
0.0
1001
ACAD
1000
DSTYLE
1002
{
1070
   287
1070
     3
1070
    40
1040
12.0
1070
   143
1040
0.039
1070
   172
1070
     1
1070
   271
1070
     0
1070
   279
1070
     0
1002
}
  0
DIMENSION
  5
828F
  8
3
  2
*D18
 10
423.80276892762038
 20
930.34129544707912
 30
0.0
 11
393.80276892762032
 21
1170.841278454991
 31
0.0
 70
     0
 13
614.66296649943286
 23
1411.341261462904
 33
0.0
 14
624.66296649943388
 24
930.34129544707912
 34
0.0
 50
90.0
1001
ACAD
1000
DSTYLE
1002
{
1070
   287
1070
     3
1070
    40
1040
12.0
1070
   143
1040
0.039
1070
   172
1070
     1
1070
   271
1070
     0
1070
   279
1070
     0
1002
}
  0
ENDSEC
  0
EOF
