  0
SECTION
  2
HEADER
  9
$ACADVER
  1
AC1009
  9
$INSBASE
 10
0.0
 20
0.0
 30
0.0
  9
$EXTMIN
 10
4130.9309986409498
 20
7555.2190595897273
 30
0.0
  9
$EXTMAX
 10
6230.9309986409498
 20
10505.219059589719
 30
0.0
  9
$LIMMIN
 10
0.0
 20
0.0
  9
$LIMMAX
 10
297.0
 20
210.0
  9
$ORTHOMODE
 70
     1
  9
$REGENMODE
 70
     1
  9
$FILLMODE
 70
     1
  9
$QTEXTMODE
 70
     0
  9
$MIRRTEXT
 70
     0
  9
$DRAGMODE
 70
     2
  9
$LTSCALE
 40
50.0
  9
$OSMODE
 70
   545
  9
$ATTMODE
 70
     1
  9
$TEXTSIZE
 40
3.5
  9
$TRACEWID
 40
0.05
  9
$TEXTSTYLE
  7
STANDARD
  9
$CLAYER
  8
SP
  9
$CELTYPE
  6
BYLAYER
  9
$CECOLOR
 62
   256
  9
$DIMSCALE
 40
10.0
  9
$DIMASZ
 40
2.5
  9
$DIMEXO
 40
1.0
  9
$DIMDLI
 40
7.0
  9
$DIMRND
 40
0.0
  9
$DIMDLE
 40
0.0
  9
$DIMEXE
 40
1.0
  9
$DIMTP
 40
0.0
  9
$DIMTM
 40
0.0
  9
$DIMTXT
 40
3.0
  9
$DIMCEN
 40
0.0
  9
$DIMTSZ
 40
0.0
  9
$DIMTOL
 70
     0
  9
$DIMLIM
 70
     0
  9
$DIMTIH
 70
     0
  9
$DIMTOH
 70
     0
  9
$DIMSE1
 70
     0
  9
$DIMSE2
 70
     0
  9
$DIMTAD
 70
     1
  9
$DIMZIN
 70
     8
  9
$DIMBLK
  1

  9
$DIMASO
 70
     1
  9
$DIMSHO
 70
     1
  9
$DIMPOST
  1

  9
$DIMAPOST
  1

  9
$DIMALT
 70
     0
  9
$DIMALTD
 70
     2
  9
$DIMALTF
 40
0.03937
  9
$DIMLFAC
 40
1.0
  9
$DIMTOFL
 70
     1
  9
$DIMTVP
 40
0.0
  9
$DIMTIX
 70
     0
  9
$DIMSOXD
 70
     0
  9
$DIMSAH
 70
     1
  9
$DIMBLK1
  1
OPEN
  9
$DIMBLK2
  1
OPEN
  9
$DIMSTYLE
  2
GOD
  9
$DIMCLRD
 70
   256
  9
$DIMCLRE
 70
   256
  9
$DIMCLRT
 70
   256
  9
$DIMTFAC
 40
1.0
  9
$DIMGAP
 40
1.0
  9
$LUNITS
 70
     2
  9
$LUPREC
 70
     3
  9
$SKETCHINC
 40
0.1
  9
$FILLETRAD
 40
1.0
  9
$AUNITS
 70
     0
  9
$AUPREC
 70
     2
  9
$MENU
  1
acad
  9
$ELEVATION
 40
0.0
  9
$PELEVATION
 40
0.0
  9
$THICKNESS
 40
0.0
  9
$LIMCHECK
 70
     0
  9
$BLIPMODE
 70
     0
  9
$CHAMFERA
 40
0.0
  9
$CHAMFERB
 40
0.0
  9
$SKPOLY
 70
     0
  9
$TDCREATE
 40
2454894.5465396061
  9
$TDUPDATE
 40
2455012.4084543171
  9
$TDINDWG
 40
0.3784999306
  9
$TDUSRTIMER
 40
0.3784999306
  9
$USRTIMER
 70
     1
  9
$ANGBASE
 50
0.0
  9
$ANGDIR
 70
     0
  9
$PDMODE
 70
     0
  9
$PDSIZE
 40
1.0
  9
$PLINEWID
 40
0.0
  9
$COORDS
 70
     2
  9
$SPLFRAME
 70
     0
  9
$SPLINETYPE
 70
     6
  9
$SPLINESEGS
 70
     8
  9
$ATTDIA
 70
     0
  9
$ATTREQ
 70
     1
  9
$HANDLING
 70
 22529
  9
$HANDSEED
  5
A543
  9
$SURFTAB1
 70
     6
  9
$SURFTAB2
 70
     6
  9
$SURFTYPE
 70
     6
  9
$SURFU
 70
     6
  9
$SURFV
 70
     6
  9
$UCSNAME
  2

  9
$UCSORG
 10
0.0
 20
0.0
 30
0.0
  9
$UCSXDIR
 10
1.0
 20
0.0
 30
0.0
  9
$UCSYDIR
 10
0.0
 20
1.0
 30
0.0
  9
$PUCSNAME
  2

  9
$PUCSORG
 10
0.0
 20
0.0
 30
0.0
  9
$PUCSXDIR
 10
1.0
 20
0.0
 30
0.0
  9
$PUCSYDIR
 10
0.0
 20
1.0
 30
0.0
  9
$USERI1
 70
     0
  9
$USERI2
 70
     0
  9
$USERI3
 70
     0
  9
$USERI4
 70
     0
  9
$USERI5
 70
     0
  9
$USERR1
 40
0.0
  9
$USERR2
 40
0.0
  9
$USERR3
 40
0.0
  9
$USERR4
 40
0.0
  9
$USERR5
 40
0.0
  9
$WORLDVIEW
 70
     1
  9
$SHADEDGE
 70
     3
  9
$SHADEDIF
 70
    70
  9
$TILEMODE
 70
     1
  9
$MAXACTVP
 70
    16
  9
$PLIMCHECK
 70
     0
  9
$PEXTMIN
 10
1.0000000000000000E+020
 20
1.0000000000000000E+020
 30
1.0000000000000000E+020
  9
$PEXTMAX
 10
-1.0000000000000000E+020
 20
-1.0000000000000000E+020
 30
-1.0000000000000000E+020
  9
$PLIMMIN
 10
0.0
 20
0.0
  9
$PLIMMAX
 10
12.0
 20
9.0
  9
$UNITMODE
 70
     0
  9
$VISRETAIN
 70
     0
  9
$PLINEGEN
 70
     0
  9
$PSLTSCALE
 70
     0
  0
ENDSEC
  0
SECTION
  2
TABLES
  0
TABLE
  2
VPORT
 70
     2
  0
VPORT
  2
*ACTIVE
 70
     0
 10
0.0
 20
0.0
 11
1.0
 21
1.0
 12
5181.0016482131014
 22
9030.0065181736736
 13
0.0
 23
0.0
 14
5.0
 24
5.0
 15
0.0
 25
0.0
 16
0.0
 26
0.0
 36
1.0
 17
0.0
 27
0.0
 37
0.0
 40
2975.1566567398718
 41
1.6307901907356941
 42
50.0
 43
0.0
 44
0.0
 50
0.0
 51
0.0
 71
     0
 72
   100
 73
     1
 74
     0
 75
     0
 76
     0
 77
     0
 78
     0
  0
ENDTAB
  0
TABLE
  2
LTYPE
 70
     4
  0
LTYPE
  2
CONTINUOUS
 70
     0
  3
Solid line
 72
    65
 73
     0
 40
0.0
  0
LTYPE
  2
CENTER
 70
     0
  3
____ _ ____ _ ____ _ ____ _ ____ _ ____ _ ____ 
 72
    65
 73
     4
 40
2.0
 49
1.25
 49
-0.25
 49
0.25
 49
-0.25
  0
LTYPE
  2
HIDDEN
 70
     0
  3
__ __ __ __ __ __ __ __ __ __ __ __ __ __ __ __
 72
    65
 73
     2
 40
0.375
 49
0.25
 49
-0.125
  0
LTYPE
  2
PHANTOM
 70
     0
  3
______  __  __  ______  __  __  ______  __  __ 
 72
    65
 73
     6
 40
2.5
 49
1.25
 49
-0.25
 49
0.25
 49
-0.25
 49
0.25
 49
-0.25
  0
ENDTAB
  0
TABLE
  2
LAYER
 70
     9
  0
LAYER
  2
0
 70
     0
 62
     7
  6
CONTINUOUS
  0
LAYER
  2
CT
 70
     0
 62
     3
  6
CENTER
  0
LAYER
  2
FUTO
 70
     0
 62
     4
  6
CONTINUOUS
  0
LAYER
  2
HOSO
 70
     0
 62
     7
  6
CONTINUOUS
  0
LAYER
  2
KL
 70
     0
 62
     7
  6
HIDDEN
  0
LAYER
  2
SL
 70
     0
 62
     1
  6
PHANTOM
  0
LAYER
  2
SP
 70
     0
 62
     2
  6
CONTINUOUS
  0
LAYER
  2
DEFPOINTS
 70
     0
 62
     7
  6
CONTINUOUS
  0
LAYER
  2
4
 70
     0
 62
     7
  6
CONTINUOUS
  0
ENDTAB
  0
TABLE
  2
STYLE
 70
     1
  0
STYLE
  2
STANDARD
 70
     0
 40
0.0
 41
1.0
 50
15.0
 71
     0
 42
3.5
  3
C:\Program Files\AutoCAD LT\simplex.shx
  4
C:\Program Files\AutoCAD LT\extfont.shx
  0
ENDTAB
  0
TABLE
  2
VIEW
 70
     0
  0
ENDTAB
  0
TABLE
  2
UCS
 70
     0
  0
ENDTAB
  0
TABLE
  2
APPID
 70
     1
  0
APPID
  2
ACAD
 70
     0
  0
ENDTAB
  0
TABLE
  2
DIMSTYLE
 70
     3
  0
DIMSTYLE
  2
STANDARD
 70
     0
  3

  4

  5

  6

  7

 40
1.0
 41
0.18
 42
0.0625
 43
0.38
 44
0.18
 45
0.0
 46
0.0
 47
0.0
 48
0.0
140
0.18
141
0.09
142
0.0
143
25.399999999999999
144
1.0
145
0.0
146
1.0
147
0.09
 71
     0
 72
     0
 73
     1
 74
     1
 75
     0
 76
     0
 77
     0
 78
     0
170
     0
171
     2
172
     0
173
     0
174
     0
175
     0
176
     0
177
     0
178
     0
  0
DIMSTYLE
  2
GOD
 70
     0
  3

  4

  5

  6
OPEN
  7
OPEN
 40
10.0
 41
2.5
 42
1.0
 43
7.0
 44
1.0
 45
0.0
 46
0.0
 47
0.0
 48
0.0
140
3.0
141
0.0
142
0.0
143
0.03937
144
1.0
145
0.0
146
1.0
147
1.0
 71
     0
 72
     0
 73
     0
 74
     0
 75
     0
 76
     0
 77
     1
 78
     8
170
     0
171
     2
172
     1
173
     1
174
     0
175
     0
176
   256
177
   256
178
   256
  0
DIMSTYLE
  2
IGA
 70
     0
  3

  4

  5

  6

  7

 40
1.0
 41
3.0
 42
0.5
 43
10.0
 44
1.0
 45
0.0
 46
0.0
 47
1.0
 48
1.0
140
3.0
141
0.0
142
0.0
143
0.039
144
1.0
145
0.0
146
10.0
147
1.0
 71
     0
 72
     0
 73
     0
 74
     0
 75
     0
 76
     0
 77
     1
 78
     8
170
     0
171
     2
172
     1
173
     1
174
     0
175
     0
176
     0
177
     0
178
     0
  0
ENDTAB
  0
ENDSEC
  0
SECTION
  2
BLOCKS
  0
BLOCK
  8
0
  2
$MODEL_SPACE
 70
     0
 10
0.0
 20
0.0
 30
0.0
  3
$MODEL_SPACE
  1

  0
ENDBLK
  5
1B
  8
0
  0
BLOCK
 67
     1
  8
0
  2
$PAPER_SPACE
 70
     0
 10
0.0
 20
0.0
 30
0.0
  3
$PAPER_SPACE
  1

  0
ENDBLK
  5
18
 67
     1
  8
0
  0
BLOCK
  8
0
  2
_OPEN
 70
     0
 10
0.0
 20
0.0
 30
0.0
  3
_OPEN
  1

  0
LINE
  5
1E81
  8
0
  6
BYBLOCK
 62
     0
 10
-1.0
 20
0.1666666666666666
 30
0.0
 11
0.0
 21
0.0
 31
0.0
  0
LINE
  5
1E82
  8
0
  6
BYBLOCK
 62
     0
 10
0.0
 20
0.0
 30
0.0
 11
-1.0
 21
-0.1666666666666666
 31
0.0
  0
LINE
  5
1E83
  8
0
  6
BYBLOCK
 62
     0
 10
0.0
 20
0.0
 30
0.0
 11
-1.0
 21
0.0
 31
0.0
  0
ENDBLK
  5
1E84
  8
0
  0
BLOCK
  8
0
  2
*D1
 70
     1
 10
0.0
 20
0.0
 30
0.0
  3
*D1
  1

  0
LINE
  5
9C5E
  8
SP
 10
5005.4848749286693
 20
8573.6761894656483
 30
0.0
 11
5075.4848749286693
 21
8573.6761894656483
 31
0.0
  0
LINE
  5
9C5F
  8
SP
 10
5029.7240601748372
 20
8733.6761894656483
 30
0.0
 11
5075.4848749286693
 21
8733.6761894656483
 31
0.0
  0
LINE
  5
9C60
  8
SP
 10
5065.4848749286684
 20
8598.6761894656465
 30
0.0
 11
5065.4848749286684
 21
8708.6761894656483
 31
0.0
  0
INSERT
  5
9C61
  8
SP
  2
_OPEN
 10
5065.4848749286684
 20
8573.6761894656483
 30
0.0
 41
25.0
 42
25.0
 43
25.0
 50
270.0
  0
INSERT
  5
9C62
  8
SP
  2
_OPEN
 10
5065.4848749286684
 20
8733.6761894656483
 30
0.0
 41
25.0
 42
25.0
 43
25.0
 50
90.0
  0
TEXT
  5
9C63
  8
SP
 10
5055.4848749286684
 20
8612.1688519351774
 30
0.0
 40
30.0
  1
160
 50
90.0
 51
15.0
  0
POINT
  5
9C64
  8
DEFPOINTS
 62
     0
 10
4995.4848749286684
 20
8573.6761894656483
 30
0.0
  0
POINT
  5
9C65
  8
DEFPOINTS
 62
     0
 10
5019.7240601748372
 20
8733.6761894656483
 30
0.0
  0
POINT
  5
9C66
  8
DEFPOINTS
 62
     0
 10
5065.4848749286684
 20
8733.6761894656483
 30
0.0
  0
ENDBLK
  5
630E
  8
0
  0
BLOCK
  8
0
  2
*D2
 70
     1
 10
0.0
 20
0.0
 30
0.0
  3
*D2
  1

  0
LINE
  5
9C67
  8
SP
 10
5015.4848749286684
 20
8533.6761894656502
 30
0.0
 11
5145.4848749286684
 21
8533.6761894656502
 31
0.0
  0
LINE
  5
9C68
  8
SP
 10
5029.7240601748372
 20
8733.6761894656483
 30
0.0
 11
5145.4848749286684
 21
8733.6761894656483
 31
0.0
  0
LINE
  5
9C69
  8
SP
 10
5135.4848749286693
 20
8558.6761894656483
 30
0.0
 11
5135.4848749286693
 21
8708.6761894656483
 31
0.0
  0
INSERT
  5
9C6A
  8
SP
  2
_OPEN
 10
5135.4848749286693
 20
8533.6761894656502
 30
0.0
 41
25.0
 42
25.0
 43
25.0
 50
270.0
  0
INSERT
  5
9C6B
  8
SP
  2
_OPEN
 10
5135.4848749286693
 20
8733.6761894656483
 30
0.0
 41
25.0
 42
25.0
 43
25.0
 50
90.0
  0
TEXT
  5
9C6C
  8
SP
 10
5125.4848749286684
 20
8592.5653778432716
 30
0.0
 40
30.0
  1
200
 50
90.0
 51
15.0
  0
POINT
  5
9C6D
  8
DEFPOINTS
 62
     0
 10
5005.4848749286684
 20
8533.6761894656502
 30
0.0
  0
POINT
  5
9C6E
  8
DEFPOINTS
 62
     0
 10
5019.7240601748372
 20
8733.6761894656483
 30
0.0
  0
POINT
  5
9C6F
  8
DEFPOINTS
 62
     0
 10
5135.4848749286693
 20
8733.6761894656483
 30
0.0
  0
ENDBLK
  5
631A
  8
0
  0
BLOCK
  8
0
  2
*D3
 70
     1
 10
0.0
 20
0.0
 30
0.0
  3
*D3
  1

  0
LINE
  5
9C8D
  8
SP
 10
5029.7240601748372
 20
8733.6761894656483
 30
0.0
 11
5145.4848749286684
 21
8733.6761894656483
 31
0.0
  0
LINE
  5
9C8E
  8
SP
 10
4866.4848749286684
 20
8845.6761894656465
 30
0.0
 11
5145.4848749286684
 21
8845.6761894656465
 31
0.0
  0
LINE
  5
9C8F
  8
SP
 10
5135.4848749286693
 20
8758.6761894656483
 30
0.0
 11
5135.4848749286693
 21
8820.6761894656483
 31
0.0
  0
INSERT
  5
9C90
  8
SP
  2
_OPEN
 10
5135.4848749286693
 20
8733.6761894656483
 30
0.0
 41
25.0
 42
25.0
 43
25.0
 50
270.0
  0
INSERT
  5
9C91
  8
SP
  2
_OPEN
 10
5135.4848749286693
 20
8845.6761894656465
 30
0.0
 41
25.0
 42
25.0
 43
25.0
 50
90.0
  0
TEXT
  5
9C92
  8
SP
 10
5125.4848749286684
 20
8751.0259947923223
 30
0.0
 40
30.0
  1
112
 50
90.0
 51
15.0
  0
POINT
  5
9C93
  8
DEFPOINTS
 62
     0
 10
5019.7240601748372
 20
8733.6761894656483
 30
0.0
  0
POINT
  5
9C94
  8
DEFPOINTS
 62
     0
 10
4856.4848749286684
 20
8845.6761894656465
 30
0.0
  0
POINT
  5
9C95
  8
DEFPOINTS
 62
     0
 10
5135.4848749286693
 20
8845.6761894656465
 30
0.0
  0
ENDBLK
  5
6326
  8
0
  0
BLOCK
  8
0
  2
*D4
 70
     1
 10
0.0
 20
0.0
 30
0.0
  3
*D4
  1

  0
LINE
  5
9C96
  8
SP
 10
4865.4848749286684
 20
8889.0312571593149
 30
0.0
 11
4865.4848749286684
 21
8936.894402278811
 31
0.0
  0
LINE
  5
9C97
  8
SP
 10
4731.4885860285876
 20
8731.7207226647351
 30
0.0
 11
4731.4885860285876
 21
8936.894402278811
 31
0.0
  0
LINE
  5
9C98
  8
SP
 10
4840.4848749286693
 20
8926.8944022788091
 30
0.0
 11
4756.4885860285867
 21
8926.8944022788091
 31
0.0
  0
INSERT
  5
9C99
  8
SP
  2
_OPEN
 10
4865.4848749286684
 20
8926.8944022788091
 30
0.0
 41
25.0
 42
25.0
 43
25.0
  0
INSERT
  5
9C9A
  8
SP
  2
_OPEN
 10
4731.4885860285876
 20
8926.8944022788091
 30
0.0
 41
25.0
 42
25.0
 43
25.0
 50
180.0
  0
TEXT
  5
9C9B
  8
SP
 10
4757.4647443226659
 20
8936.894402278811
 30
0.0
 40
30.0
  1
134
 51
15.0
  0
POINT
  5
9C9C
  8
DEFPOINTS
 62
     0
 10
4865.4848749286684
 20
8879.0312571593149
 30
0.0
  0
POINT
  5
9C9D
  8
DEFPOINTS
 62
     0
 10
4731.4885860285876
 20
8721.7207226647333
 30
0.0
  0
POINT
  5
9C9E
  8
DEFPOINTS
 62
     0
 10
4731.4885860285876
 20
8926.8944022788091
 30
0.0
  0
ENDBLK
  5
6504
  8
0
  0
BLOCK
  8
0
  2
*D5
 70
     1
 10
0.0
 20
0.0
 30
0.0
  3
*D5
  1

  0
LINE
  5
9C84
  8
SP
 10
4865.4848749286684
 20
8889.0312571593149
 30
0.0
 11
4865.4848749286684
 21
8936.894402278811
 31
0.0
  0
LINE
  5
9C85
  8
SP
 10
4995.4848749286684
 20
8765.6761894656483
 30
0.0
 11
4995.4848749286684
 21
8936.894402278811
 31
0.0
  0
LINE
  5
9C86
  8
SP
 10
4890.4848749286684
 20
8926.8944022788091
 30
0.0
 11
4970.4848749286684
 21
8926.8944022788091
 31
0.0
  0
INSERT
  5
9C87
  8
SP
  2
_OPEN
 10
4865.4848749286684
 20
8926.8944022788091
 30
0.0
 41
25.0
 42
25.0
 43
25.0
 50
180.0
  0
INSERT
  5
9C88
  8
SP
  2
_OPEN
 10
4995.4848749286684
 20
8926.8944022788091
 30
0.0
 41
25.0
 42
25.0
 43
25.0
  0
TEXT
  5
9C89
  8
SP
 10
4888.9775373981984
 20
8936.894402278811
 30
0.0
 40
30.0
  1
130
 51
15.0
  0
POINT
  5
9C8A
  8
DEFPOINTS
 62
     0
 10
4865.4848749286684
 20
8879.0312571593149
 30
0.0
  0
POINT
  5
9C8B
  8
DEFPOINTS
 62
     0
 10
4995.4848749286684
 20
8755.6761894656483
 30
0.0
  0
POINT
  5
9C8C
  8
DEFPOINTS
 62
     0
 10
4995.4848749286684
 20
8926.8944022788091
 30
0.0
  0
ENDBLK
  5
6513
  8
0
  0
BLOCK
  8
0
  2
*D6
 70
     1
 10
0.0
 20
0.0
 30
0.0
  3
*D6
  1

  0
LINE
  5
9CA8
  8
SP
 10
5625.1259294595684
 20
8983.6761894656483
 30
0.0
 11
5625.1259294595684
 21
9007.0761894656498
 31
0.0
  0
LINE
  5
9CA9
  8
SP
 10
5364.1791504785133
 20
8800.2404605374286
 30
0.0
 11
5364.1791504785133
 21
9007.0761894656498
 31
0.0
  0
LINE
  5
9CAA
  8
SP
 10
5600.1259294595693
 20
8997.0761894656498
 30
0.0
 11
5389.1791504785133
 21
8997.0761894656498
 31
0.0
  0
INSERT
  5
9CAB
  8
SP
  2
_OPEN
 10
5625.1259294595684
 20
8997.0761894656498
 30
0.0
 41
25.0
 42
25.0
 43
25.0
  0
INSERT
  5
9CAC
  8
SP
  2
_OPEN
 10
5364.1791504785133
 20
8997.0761894656498
 30
0.0
 41
25.0
 42
25.0
 43
25.0
 50
180.0
  0
TEXT
  5
9CAD
  8
SP
 10
5427.7428382286407
 20
9007.0761894656498
 30
0.0
 40
30.0
  1
（330）
 51
15.0
  0
POINT
  5
9CAE
  8
DEFPOINTS
 62
     0
 10
5625.1259294595684
 20
8973.6761894656465
 30
0.0
  0
POINT
  5
9CAF
  8
DEFPOINTS
 62
     0
 10
5364.1791504785133
 20
8790.2404605374286
 30
0.0
  0
POINT
  5
9CB0
  8
DEFPOINTS
 62
     0
 10
5364.1791504785133
 20
8997.0761894656498
 30
0.0
  0
ENDBLK
  5
6FAB
  8
0
  0
BLOCK
  8
0
  2
*D7
 70
     1
 10
0.0
 20
0.0
 30
0.0
  3
*D7
  1

  0
LINE
  5
9C70
  8
SP
 10
5625.1259294595684
 20
8983.6761894656483
 30
0.0
 11
5625.1259294595684
 21
9007.0761894656498
 31
0.0
  0
LINE
  5
9C71
  8
SP
 10
5688.1259294595693
 20
8841.6761894656483
 30
0.0
 11
5688.1259294595693
 21
9007.0761894656498
 31
0.0
  0
LINE
  5
9C72
  8
SP
 10
5600.1259294595693
 20
8997.0761894656498
 30
0.0
 11
5575.1259294595684
 21
8997.0761894656498
 31
0.0
  0
LINE
  5
9C73
  8
SP
 10
5713.1259294595684
 20
8997.0761894656498
 30
0.0
 11
5810.7303372649403
 21
8997.0761894656498
 31
0.0
  0
LINE
  5
9C74
  8
SP
 10
5625.1259294595684
 20
8997.0761894656498
 30
0.0
 11
5688.1259294595693
 21
8997.0761894656498
 31
0.0
  0
INSERT
  5
9C75
  8
SP
  2
_OPEN
 10
5625.1259294595684
 20
8997.0761894656498
 30
0.0
 41
25.0
 42
25.0
 43
25.0
  0
INSERT
  5
9C76
  8
SP
  2
_OPEN
 10
5688.1259294595693
 20
8997.0761894656498
 30
0.0
 41
25.0
 42
25.0
 43
25.0
 50
180.0
  0
TEXT
  5
9C77
  8
SP
 10
5745.5490043491491
 20
9007.0761894656498
 30
0.0
 40
30.0
  1
63
 51
15.0
  0
POINT
  5
9C78
  8
DEFPOINTS
 62
     0
 10
5625.1259294595684
 20
8973.6761894656465
 30
0.0
  0
POINT
  5
9C79
  8
DEFPOINTS
 62
     0
 10
5688.1259294595693
 20
8831.6761894656483
 30
0.0
  0
POINT
  5
9C7A
  8
DEFPOINTS
 62
     0
 10
5688.1259294595693
 20
8997.0761894656498
 30
0.0
  0
ENDBLK
  5
6FB9
  8
0
  0
BLOCK
  8
0
  2
*D8
 70
     1
 10
0.0
 20
0.0
 30
0.0
  3
*D8
  1

  0
LINE
  5
A43A
  8
SP
 10
5698.1259294595693
 20
8813.6761894656483
 30
0.0
 11
5787.5341128271848
 21
8813.6761894656483
 31
0.0
  0
LINE
  5
A43B
  8
SP
 10
5698.1259294595693
 20
8653.6761894656465
 30
0.0
 11
5787.5341128271848
 21
8653.6761894656465
 31
0.0
  0
LINE
  5
A43C
  8
SP
 10
5777.5341128271857
 20
8788.6761894656483
 30
0.0
 11
5777.5341128271857
 21
8678.6761894656465
 31
0.0
  0
INSERT
  5
A43D
  8
SP
  2
_OPEN
 10
5777.5341128271857
 20
8813.6761894656483
 30
0.0
 41
25.0
 42
25.0
 43
25.0
 50
90.0
  0
INSERT
  5
A43E
  8
SP
  2
_OPEN
 10
5777.5341128271857
 20
8653.6761894656465
 30
0.0
 41
25.0
 42
25.0
 43
25.0
 50
270.0
  0
TEXT
  5
A43F
  8
SP
 10
5767.5341128271848
 20
8681.7622666625721
 30
0.0
 40
30.0
  1
φ160
 50
90.0
 51
15.0
  0
POINT
  5
A440
  8
DEFPOINTS
 62
     0
 10
5688.1259294595702
 20
8813.6761894656483
 30
0.0
  0
POINT
  5
A441
  8
DEFPOINTS
 62
     0
 10
5688.1259294595702
 20
8653.6761894656465
 30
0.0
  0
POINT
  5
A442
  8
DEFPOINTS
 62
     0
 10
5777.5341128271857
 20
8653.6761894656465
 30
0.0
  0
ENDBLK
  5
6FE9
  8
0
  0
BLOCK
  8
0
  2
*D9
 70
     1
 10
0.0
 20
0.0
 30
0.0
  3
*D9
  1

  0
LINE
  5
9CBA
  8
SP
 10
5569.1259294595684
 20
8857.6761894656483
 30
0.0
 11
5569.1259294595684
 21
8937.0761894656498
 31
0.0
  0
LINE
  5
9CBB
  8
SP
 10
5681.1259294595657
 20
8857.6761894656483
 30
0.0
 11
5681.1259294595657
 21
8937.0761894656498
 31
0.0
  0
LINE
  5
9CBC
  8
SP
 10
5594.1259294595684
 20
8927.0761894656498
 30
0.0
 11
5656.1259294595657
 21
8927.0761894656498
 31
0.0
  0
INSERT
  5
9CBD
  8
SP
  2
_OPEN
 10
5569.1259294595684
 20
8927.0761894656498
 30
0.0
 41
25.0
 42
25.0
 43
25.0
 50
180.0
  0
INSERT
  5
9CBE
  8
SP
  2
_OPEN
 10
5681.1259294595657
 20
8927.0761894656498
 30
0.0
 41
25.0
 42
25.0
 43
25.0
  0
TEXT
  5
9CBF
  8
SP
 10
5586.4757347862396
 20
8937.0761894656498
 30
0.0
 40
30.0
  1
112
 51
15.0
  0
POINT
  5
9CC0
  8
DEFPOINTS
 62
     0
 10
5569.1259294595684
 20
8847.6761894656502
 30
0.0
  0
POINT
  5
9CC1
  8
DEFPOINTS
 62
     0
 10
5681.1259294595657
 20
8847.6761894656502
 30
0.0
  0
POINT
  5
9CC2
  8
DEFPOINTS
 62
     0
 10
5681.1259294595657
 20
8927.0761894656498
 30
0.0
  0
ENDBLK
  5
6FF5
  8
0
  0
BLOCK
  8
0
  2
*D10
 70
     1
 10
0.0
 20
0.0
 30
0.0
  3
*D10
  1

  0
LINE
  5
9C7B
  8
SP
 10
5015.4848749286684
 20
9531.5412464435994
 30
0.0
 11
5075.4848749286693
 21
9531.5412464435994
 31
0.0
  0
LINE
  5
9C7C
  8
SP
 10
5015.4848749286684
 20
9361.5412464436013
 30
0.0
 11
5075.4848749286693
 21
9361.5412464436013
 31
0.0
  0
LINE
  5
9C7D
  8
SP
 10
5065.4848749286693
 20
9506.5412464436013
 30
0.0
 11
5065.4848749286693
 21
9386.5412464436013
 31
0.0
  0
INSERT
  5
9C7E
  8
SP
  2
_OPEN
 10
5065.4848749286693
 20
9531.5412464435994
 30
0.0
 41
25.0
 42
25.0
 43
25.0
 50
90.0
  0
INSERT
  5
9C7F
  8
SP
  2
_OPEN
 10
5065.4848749286693
 20
9361.5412464436013
 30
0.0
 41
25.0
 42
25.0
 43
25.0
 50
270.0
  0
TEXT
  5
9C80
  8
SP
 10
5055.4848749286684
 20
9405.0339089131321
 30
0.0
 40
30.0
  1
170
 50
90.0
 51
15.0
  0
POINT
  5
9C81
  8
DEFPOINTS
 62
     0
 10
5005.4848749286684
 20
9531.5412464435994
 30
0.0
  0
POINT
  5
9C82
  8
DEFPOINTS
 62
     0
 10
5005.4848749286684
 20
9361.5412464436013
 30
0.0
  0
POINT
  5
9C83
  8
DEFPOINTS
 62
     0
 10
5065.4848749286693
 20
9361.5412464436013
 30
0.0
  0
ENDBLK
  5
8A78
  8
0
  0
BLOCK
  8
0
  2
*D11
 70
     1
 10
0.0
 20
0.0
 30
0.0
  3
*D11
  1

  0
LINE
  5
9CC3
  8
SP
 10
5015.4848749286684
 20
9531.5412464435994
 30
0.0
 11
5075.4848749286693
 21
9531.5412464435994
 31
0.0
  0
LINE
  5
9CC4
  8
SP
 10
5030.7749955564968
 20
9594.5412464436013
 30
0.0
 11
5075.4848749286693
 21
9594.5412464436013
 31
0.0
  0
LINE
  5
9CC5
  8
SP
 10
5065.4848749286693
 20
9506.5412464436013
 30
0.0
 11
5065.4848749286693
 21
9481.5412464436013
 31
0.0
  0
LINE
  5
9CC6
  8
SP
 10
5065.4848749286693
 20
9619.5412464436031
 30
0.0
 11
5065.4848749286693
 21
9717.1456542489723
 31
0.0
  0
LINE
  5
9CC7
  8
SP
 10
5065.4848749286693
 20
9531.5412464435994
 30
0.0
 11
5065.4848749286693
 21
9594.5412464436013
 31
0.0
  0
INSERT
  5
9CC8
  8
SP
  2
_OPEN
 10
5065.4848749286693
 20
9531.5412464435994
 30
0.0
 41
25.0
 42
25.0
 43
25.0
 50
90.0
  0
INSERT
  5
9CC9
  8
SP
  2
_OPEN
 10
5065.4848749286693
 20
9594.5412464436013
 30
0.0
 41
25.0
 42
25.0
 43
25.0
 50
270.0
  0
TEXT
  5
9CCA
  8
SP
 10
5055.4848749286684
 20
9651.9643213331856
 30
0.0
 40
30.0
  1
63
 50
90.0
 51
15.0
  0
POINT
  5
9CCB
  8
DEFPOINTS
 62
     0
 10
5005.4848749286684
 20
9531.5412464435994
 30
0.0
  0
POINT
  5
9CCC
  8
DEFPOINTS
 62
     0
 10
5020.7749955564968
 20
9594.5412464436013
 30
0.0
  0
POINT
  5
9CCD
  8
DEFPOINTS
 62
     0
 10
5065.4848749286693
 20
9594.5412464436013
 30
0.0
  0
ENDBLK
  5
8A87
  8
0
  0
BLOCK
  8
0
  2
*D12
 70
     1
 10
0.0
 20
0.0
 30
0.0
  3
*D12
  1

  0
LINE
  5
9C9F
  8
SP
 10
4725.4848749286684
 20
9351.5412464435994
 30
0.0
 11
4725.4848749286684
 21
9243.5944674621296
 31
0.0
  0
LINE
  5
9CA0
  8
SP
 10
5005.4848749286684
 20
9351.5412464435994
 30
0.0
 11
5005.4848749286684
 21
9243.5944674621296
 31
0.0
  0
LINE
  5
9CA1
  8
SP
 10
4750.4848749286693
 20
9253.5944674621278
 30
0.0
 11
4980.4848749286666
 21
9253.5944674621278
 31
0.0
  0
INSERT
  5
9CA2
  8
SP
  2
_OPEN
 10
4725.4848749286684
 20
9253.5944674621278
 30
0.0
 41
25.0
 42
25.0
 43
25.0
 50
180.0
  0
INSERT
  5
9CA3
  8
SP
  2
_OPEN
 10
5005.4848749286684
 20
9253.5944674621278
 30
0.0
 41
25.0
 42
25.0
 43
25.0
  0
TEXT
  5
9CA4
  8
SP
 10
4824.3740633062898
 20
9263.5944674621278
 30
0.0
 40
30.0
  1
280
 51
15.0
  0
POINT
  5
9CA5
  8
DEFPOINTS
 62
     0
 10
4725.4848749286684
 20
9361.5412464436013
 30
0.0
  0
POINT
  5
9CA6
  8
DEFPOINTS
 62
     0
 10
5005.4848749286684
 20
9361.5412464436013
 30
0.0
  0
POINT
  5
9CA7
  8
DEFPOINTS
 62
     0
 10
5005.4848749286684
 20
9253.5944674621278
 30
0.0
  0
ENDBLK
  5
8ACA
  8
0
  0
BLOCK
  8
0
  2
_DOT
 70
     0
 10
0.0
 20
0.0
 30
0.0
  3
_DOT
  1

  0
LINE
  5
9B41
  8
0
  6
BYBLOCK
 62
     0
 10
0.0
 20
0.0
 30
0.0
 11
-1.0
 21
-0.0000000000000284
 31
0.0
  0
POLYLINE
  5
9B42
  8
0
  6
BYBLOCK
 62
     0
 66
     1
 10
0.0
 20
0.0
 30
0.0
 70
     1
 40
0.1666666666666666
 41
0.1666666666666666
  0
VERTEX
  5
A538
  8
0
  6
BYBLOCK
 62
     0
 10
-0.0833333333333286
 20
-0.0000000000000284
 30
0.0
 42
1.0
  0
VERTEX
  5
A539
  8
0
  6
BYBLOCK
 62
     0
 10
0.0833333333333286
 20
-0.0000000000000284
 30
0.0
 42
1.0
  0
SEQEND
  5
A53A
  8
0
  6
BYBLOCK
 62
     0
  0
ENDBLK
  5
9B29
  8
0
  0
BLOCK
  8
0
  2
_NONE
 70
     0
 10
0.0
 20
0.0
 30
0.0
  3
_NONE
  1

  0
ENDBLK
  5
9B45
  8
0
  0
BLOCK
  8
0
  2
*D15
 70
     1
 10
0.0
 20
0.0
 30
0.0
  3
*D15
  1

  0
LINE
  5
A4C1
  8
SP
 10
4865.4848749286693
 20
8387.476525147631
 30
0.0
 11
4865.4848749286693
 21
8323.6761894656483
 31
0.0
  0
LINE
  5
A4C2
  8
SP
 10
5005.4848749286693
 20
8393.6761894656483
 30
0.0
 11
5005.4848749286693
 21
8323.6761894656483
 31
0.0
  0
LINE
  5
A4C3
  8
SP
 10
4890.4848749286693
 20
8333.6761894656483
 30
0.0
 11
4980.4848749286684
 21
8333.6761894656483
 31
0.0
  0
INSERT
  5
A4C4
  8
SP
  2
_OPEN
 10
4865.4848749286693
 20
8333.6761894656483
 30
0.0
 41
25.0
 42
25.0
 43
25.0
 50
180.0
  0
INSERT
  5
A4C5
  8
SP
  2
_OPEN
 10
5005.4848749286693
 20
8333.6761894656483
 30
0.0
 41
25.0
 42
25.0
 43
25.0
  0
TEXT
  5
A4C6
  8
SP
 10
4893.9775373981993
 20
8343.6761894656483
 30
0.0
 40
30.0
  1
140
 51
15.0
  0
POINT
  5
A4C7
  8
DEFPOINTS
 62
     0
 10
4865.4848749286693
 20
8397.476525147631
 30
0.0
  0
POINT
  5
A4C8
  8
DEFPOINTS
 62
     0
 10
5005.4848749286693
 20
8403.6761894656502
 30
0.0
  0
POINT
  5
A4C9
  8
DEFPOINTS
 62
     0
 10
5005.4848749286693
 20
8333.6761894656483
 30
0.0
  0
ENDBLK
  5
A1FA
  8
0
  0
BLOCK
  8
0
  2
*D16
 70
     1
 10
0.0
 20
0.0
 30
0.0
  3
*D16
  1

  0
LINE
  5
A4B8
  8
SP
 10
5005.4848749286693
 20
8393.6761894656483
 30
0.0
 11
5005.4848749286693
 21
8253.6761894656502
 31
0.0
  0
LINE
  5
A4B9
  8
SP
 10
4725.4848749286703
 20
8393.6761894656483
 30
0.0
 11
4725.4848749286703
 21
8253.6761894656502
 31
0.0
  0
LINE
  5
A4BA
  8
SP
 10
4980.4848749286684
 20
8263.6761894656502
 30
0.0
 11
4750.4848749286703
 21
8263.6761894656502
 31
0.0
  0
INSERT
  5
A4BB
  8
SP
  2
_OPEN
 10
5005.4848749286693
 20
8263.6761894656502
 30
0.0
 41
25.0
 42
25.0
 43
25.0
  0
INSERT
  5
A4BC
  8
SP
  2
_OPEN
 10
4725.4848749286703
 20
8263.6761894656502
 30
0.0
 41
25.0
 42
25.0
 43
25.0
 50
180.0
  0
TEXT
  5
A4BD
  8
SP
 10
4824.3740633062916
 20
8273.676189465652
 30
0.0
 40
30.0
  1
280
 51
15.0
  0
POINT
  5
A4BE
  8
DEFPOINTS
 62
     0
 10
5005.4848749286693
 20
8403.6761894656502
 30
0.0
  0
POINT
  5
A4BF
  8
DEFPOINTS
 62
     0
 10
4725.4848749286703
 20
8403.6761894656502
 30
0.0
  0
POINT
  5
A4C0
  8
DEFPOINTS
 62
     0
 10
4725.4848749286703
 20
8263.6761894656502
 30
0.0
  0
ENDBLK
  5
A206
  8
0
  0
BLOCK
  8
0
  2
*D17
 70
     1
 10
0.0
 20
0.0
 30
0.0
  3
*D17
  1

  0
LINE
  5
A4AF
  8
SP
 10
4865.4848749286693
 20
8387.476525147631
 30
0.0
 11
4865.4848749286693
 21
8323.6761894656483
 31
0.0
  0
LINE
  5
A4B0
  8
SP
 10
4725.4848749286648
 20
8393.6761894656483
 30
0.0
 11
4725.4848749286648
 21
8323.6761894656483
 31
0.0
  0
LINE
  5
A4B1
  8
SP
 10
4840.4848749286693
 20
8333.6761894656483
 30
0.0
 11
4750.4848749286648
 21
8333.6761894656483
 31
0.0
  0
INSERT
  5
A4B2
  8
SP
  2
_OPEN
 10
4865.4848749286693
 20
8333.6761894656483
 30
0.0
 41
25.0
 42
25.0
 43
25.0
  0
INSERT
  5
A4B3
  8
SP
  2
_OPEN
 10
4725.4848749286648
 20
8333.6761894656483
 30
0.0
 41
25.0
 42
25.0
 43
25.0
 50
180.0
  0
TEXT
  5
A4B4
  8
SP
 10
4753.9775373981956
 20
8343.6761894656483
 30
0.0
 40
30.0
  1
140
 51
15.0
  0
POINT
  5
A4B5
  8
DEFPOINTS
 62
     0
 10
4865.4848749286693
 20
8397.476525147631
 30
0.0
  0
POINT
  5
A4B6
  8
DEFPOINTS
 62
     0
 10
4725.4848749286648
 20
8403.6761894656502
 30
0.0
  0
POINT
  5
A4B7
  8
DEFPOINTS
 62
     0
 10
4725.4848749286648
 20
8333.6761894656483
 30
0.0
  0
ENDBLK
  5
A212
  8
0
  0
BLOCK
  8
0
  2
*D18
 70
     1
 10
0.0
 20
0.0
 30
0.0
  3
*D18
  1

  0
LINE
  5
A4DE
  8
SP
 10
5562.1259294595684
 20
8393.6761894656483
 30
0.0
 11
5562.1259294595684
 21
8323.6761894656483
 31
0.0
  0
LINE
  5
A4DF
  8
SP
 10
5392.1259294595684
 20
8393.6761894656483
 30
0.0
 11
5392.1259294595684
 21
8323.6761894656483
 31
0.0
  0
LINE
  5
A4E0
  8
SP
 10
5537.1259294595693
 20
8333.6761894656483
 30
0.0
 11
5417.1259294595693
 21
8333.6761894656483
 31
0.0
  0
INSERT
  5
A4E1
  8
SP
  2
_OPEN
 10
5562.1259294595684
 20
8333.6761894656483
 30
0.0
 41
25.0
 42
25.0
 43
25.0
  0
INSERT
  5
A4E2
  8
SP
  2
_OPEN
 10
5392.1259294595684
 20
8333.6761894656483
 30
0.0
 41
25.0
 42
25.0
 43
25.0
 50
180.0
  0
TEXT
  5
A4E3
  8
SP
 10
5435.6185919290992
 20
8343.6761894656483
 30
0.0
 40
30.0
  1
170
 51
15.0
  0
POINT
  5
A4E4
  8
DEFPOINTS
 62
     0
 10
5562.1259294595684
 20
8403.6761894656465
 30
0.0
  0
POINT
  5
A4E5
  8
DEFPOINTS
 62
     0
 10
5392.1259294595684
 20
8403.6761894656465
 30
0.0
  0
POINT
  5
A4E6
  8
DEFPOINTS
 62
     0
 10
5392.1259294595684
 20
8333.6761894656483
 30
0.0
  0
ENDBLK
  5
A21E
  8
0
  0
BLOCK
  8
0
  2
*D19
 70
     1
 10
0.0
 20
0.0
 30
0.0
  3
*D19
  1

  0
LINE
  5
A4CA
  8
SP
 10
5562.1259294595684
 20
8393.6761894656483
 30
0.0
 11
5562.1259294595684
 21
8323.6761894656483
 31
0.0
  0
LINE
  5
A4CB
  8
SP
 10
5625.1259294595684
 20
8532.0878311137112
 30
0.0
 11
5625.1259294595684
 21
8323.6761894656483
 31
0.0
  0
LINE
  5
A4CC
  8
SP
 10
5537.1259294595693
 20
8333.6761894656483
 30
0.0
 11
5512.1259294595693
 21
8333.6761894656483
 31
0.0
  0
LINE
  5
A4CD
  8
SP
 10
5650.1259294595684
 20
8333.6761894656483
 30
0.0
 11
5747.7303372649403
 21
8333.6761894656483
 31
0.0
  0
LINE
  5
A4CE
  8
SP
 10
5562.1259294595684
 20
8333.6761894656483
 30
0.0
 11
5625.1259294595684
 21
8333.6761894656483
 31
0.0
  0
INSERT
  5
A4CF
  8
SP
  2
_OPEN
 10
5562.1259294595684
 20
8333.6761894656483
 30
0.0
 41
25.0
 42
25.0
 43
25.0
  0
INSERT
  5
A4D0
  8
SP
  2
_OPEN
 10
5625.1259294595684
 20
8333.6761894656483
 30
0.0
 41
25.0
 42
25.0
 43
25.0
 50
180.0
  0
TEXT
  5
A4D1
  8
SP
 10
5682.5490043491491
 20
8343.6761894656483
 30
0.0
 40
30.0
  1
63
 51
15.0
  0
POINT
  5
A4D2
  8
DEFPOINTS
 62
     0
 10
5562.1259294595684
 20
8403.6761894656465
 30
0.0
  0
POINT
  5
A4D3
  8
DEFPOINTS
 62
     0
 10
5625.1259294595684
 20
8542.0878311137112
 30
0.0
  0
POINT
  5
A4D4
  8
DEFPOINTS
 62
     0
 10
5625.1259294595684
 20
8333.6761894656483
 30
0.0
  0
ENDBLK
  5
A22C
  8
0
  0
BLOCK
  8
0
  2
*D20
 70
     1
 10
0.0
 20
0.0
 30
0.0
  3
*D20
  1

  0
LINE
  5
A4D5
  8
SP
 10
5392.1259294595684
 20
8393.6761894656483
 30
0.0
 11
5392.1259294595684
 21
8253.6761894656502
 31
0.0
  0
LINE
  5
A4D6
  8
SP
 10
5625.1259294595684
 20
8532.0878311137112
 30
0.0
 11
5625.1259294595684
 21
8253.6761894656502
 31
0.0
  0
LINE
  5
A4D7
  8
SP
 10
5417.1259294595693
 20
8263.6761894656502
 30
0.0
 11
5600.1259294595693
 21
8263.6761894656502
 31
0.0
  0
INSERT
  5
A4D8
  8
SP
  2
_OPEN
 10
5392.1259294595684
 20
8263.6761894656502
 30
0.0
 41
25.0
 42
25.0
 43
25.0
 50
180.0
  0
INSERT
  5
A4D9
  8
SP
  2
_OPEN
 10
5625.1259294595684
 20
8263.6761894656502
 30
0.0
 41
25.0
 42
25.0
 43
25.0
  0
TEXT
  5
A4DA
  8
SP
 10
5466.7495487159576
 20
8273.676189465652
 30
0.0
 40
30.0
  1
233
 51
15.0
  0
POINT
  5
A4DB
  8
DEFPOINTS
 62
     0
 10
5392.1259294595684
 20
8403.6761894656465
 30
0.0
  0
POINT
  5
A4DC
  8
DEFPOINTS
 62
     0
 10
5625.1259294595684
 20
8542.0878311137112
 30
0.0
  0
POINT
  5
A4DD
  8
DEFPOINTS
 62
     0
 10
5625.1259294595684
 20
8263.6761894656502
 30
0.0
  0
ENDBLK
  5
A238
  8
0
  0
BLOCK
  8
0
  2
*D21
 70
     1
 10
0.0
 20
0.0
 30
0.0
  3
*D21
  1

  0
LINE
  5
A4A4
  8
SP
 10
5015.4848749286703
 20
8463.6761894656483
 30
0.0
 11
5145.4848749286684
 21
8463.6761894656483
 31
0.0
  0
LINE
  5
A4A5
  8
SP
 10
5015.4848749286684
 20
8403.6761894656502
 30
0.0
 11
5145.4848749286684
 21
8403.6761894656502
 31
0.0
  0
LINE
  5
A4A6
  8
SP
 10
5135.4848749286693
 20
8488.6761894656502
 30
0.0
 11
5135.4848749286693
 21
8513.6761894656502
 31
0.0
  0
LINE
  5
A4A7
  8
SP
 10
5135.4848749286693
 20
8378.6761894656502
 30
0.0
 11
5135.4848749286693
 21
8282.6029199027416
 31
0.0
  0
LINE
  5
A4A8
  8
SP
 10
5135.4848749286693
 20
8463.6761894656483
 30
0.0
 11
5135.4848749286693
 21
8403.6761894656502
 31
0.0
  0
INSERT
  5
A4A9
  8
SP
  2
_DOT
 10
5135.4848749286693
 20
8463.6761894656483
 30
0.0
 41
25.0
 42
25.0
 43
25.0
 50
270.0
  0
INSERT
  5
A4AA
  8
SP
  2
_OPEN
 10
5135.4848749286693
 20
8403.6761894656502
 30
0.0
 41
25.0
 42
25.0
 43
25.0
 50
90.0
  0
TEXT
  5
A4AB
  8
SP
 10
5125.4848749286684
 20
8290.0259947923241
 30
0.0
 40
30.0
  1
60
 50
90.0
 51
15.0
  0
POINT
  5
A4AC
  8
DEFPOINTS
 62
     0
 10
5005.4848749286703
 20
8463.6761894656483
 30
0.0
  0
POINT
  5
A4AD
  8
DEFPOINTS
 62
     0
 10
5005.4848749286693
 20
8403.6761894656502
 30
0.0
  0
POINT
  5
A4AE
  8
DEFPOINTS
 62
     0
 10
5135.4848749286693
 20
8403.6761894656502
 30
0.0
  0
ENDBLK
  5
A321
  8
0
  0
BLOCK
  8
0
  2
*D22
 70
     1
 10
0.0
 20
0.0
 30
0.0
  3
*D22
  1

  0
LINE
  5
A53B
  8
SP
 10
5015.4848749286684
 20
8533.6761894656502
 30
0.0
 11
5145.4848749286684
 21
8533.6761894656502
 31
0.0
  0
LINE
  5
A53C
  8
SP
 10
5015.4848749286684
 20
8463.6761894656483
 30
0.0
 11
5145.4848749286684
 21
8463.6761894656483
 31
0.0
  0
LINE
  5
A53D
  8
SP
 10
5135.4848749286693
 20
8533.6761894656502
 30
0.0
 11
5135.4848749286693
 21
8463.6761894656483
 31
0.0
  0
TEXT
  8
0
  40
30
  5
A542
  72
0
  71
0
 10
5119.61
 20
8427.68
 30
0.000000
  1
（70）
  0
POINT
  5
A53F
  8
DEFPOINTS
 62
     0
 10
5005.4848749286693
 20
8533.6761894656502
 30
0.0
  0
POINT
  5
A540
  8
DEFPOINTS
 62
     0
 10
5005.4848749286693
 20
8463.6761894656483
 30
0.0
  0
POINT
  5
A541
  8
DEFPOINTS
 62
     0
 10
5135.4848749286693
 20
8463.6761894656483
 30
0.0
  0
ENDBLK
  5
A330
  8
0
  0
ENDSEC
  0
SECTION
  2
ENTITIES
  0
DIMENSION
  5
626D
  8
SP
  2
*D3
 10
5135.4848749286693
 20
8845.6761894656465
 30
0.0
 11
5110.4848749286666
 21
8789.6761894656502
 31
0.0
 70
     0
 13
5019.7240601748372
 23
8733.6761894656483
 33
0.0
 14
4856.4848749286684
 24
8845.6761894656465
 34
0.0
 50
90.0
  0
DIMENSION
  5
626E
  8
SP
  2
*D2
 10
5135.4848749286693
 20
8733.6761894656483
 30
0.0
 11
5110.4848749286666
 21
8633.6761894656502
 31
0.0
 70
     0
 13
5005.4848749286684
 23
8533.6761894656502
 33
0.0
 14
5019.7240601748372
 24
8733.6761894656483
 34
0.0
 50
90.0
  0
DIMENSION
  5
626F
  8
SP
  2
*D1
 10
5065.4848749286684
 20
8733.6761894656483
 30
0.0
 11
5040.4848749286684
 21
8653.6761894656502
 31
0.0
 70
     0
 13
4995.4848749286684
 23
8573.6761894656483
 33
0.0
 14
5019.7240601748372
 24
8733.6761894656483
 34
0.0
 50
90.0
  0
LINE
  5
6271
  8
CT
 10
5019.7240601748381
 20
8733.6761894656483
 30
0.0
 11
4708.6236593037383
 21
8733.6761894656483
 31
0.0
  0
ARC
  5
6272
  8
FUTO
 10
4878.4848749286693
 20
8720.6761894656465
 30
0.0
 40
159.0
 50
179.59287178573129
 51
227.2153050893574
  0
ARC
  5
6273
  8
FUTO
 10
4854.4848749286693
 20
8722.6761894656502
 30
0.0
 40
123.0
 50
89.513522413759844
 51
180.44507939625589
  0
ARC
  5
6274
  8
FUTO
 10
4854.4848749286693
 20
8722.6761894656502
 30
0.0
 40
135.0
 50
89.513522413759844
 51
180.44507939625589
  0
ARC
  5
6275
  8
FUTO
 10
4856.4848749286684
 20
8742.6761894656465
 30
0.0
 40
103.0
 50
4.2656089156663128
 51
90.531614762259764
  0
ARC
  5
6276
  8
FUTO
 10
4856.4848749286684
 20
8742.6761894656465
 30
0.0
 40
115.0
 50
4.2656089156663128
 51
90.531614762259764
  0
ARC
  5
6277
  8
FUTO
 10
4878.4848749286693
 20
8720.6761894656465
 30
0.0
 40
147.0
 50
222.71864451436309
 51
270.0
  0
ARC
  5
6278
  8
FUTO
 10
4878.4848749286693
 20
8720.6761894656465
 30
0.0
 40
159.0
 50
227.2153050893574
 51
270.0
  0
LINE
  5
627A
  8
FUTO
 10
4894.4830749286684
 20
8672.6761894656483
 30
0.0
 11
4836.5841749286692
 21
8672.6761894656483
 31
0.0
  0
LINE
  5
627B
  8
FUTO
 10
4830.4848749286684
 20
8838.6761894656483
 30
0.0
 11
4900.4848749286684
 21
8838.6761894656483
 31
0.0
  0
LINE
  5
627C
  8
FUTO
 10
4925.4848749286693
 20
8652.2761894656469
 30
0.0
 11
4805.4848749286684
 21
8652.2761894656487
 31
0.0
  0
LINE
  5
627D
  8
FUTO
 10
4760.2848749286668
 20
8670.6761894656483
 30
0.0
 11
4970.6848749286683
 21
8670.6761894656483
 31
0.0
  0
CIRCLE
  5
627E
  8
CT
 10
4865.4848749286684
 20
8733.6761894656483
 30
0.0
 40
90.0
  0
ARC
  5
627F
  8
FUTO
 10
4865.4865397388958
 20
8729.9893426686776
 30
0.0
 40
64.186846818564248
 50
296.75862459227397
 51
243.2931196750653
  0
LINE
  5
6280
  8
CT
 10
4903.3705347328123
 20
8825.1402631842666
 30
0.0
 11
4896.4822329502413
 21
8808.5104315990648
 31
0.0
  0
LINE
  5
6281
  8
FUTO
 10
4975.4848749286684
 20
8763.6761894656483
 30
0.0
 11
4900.4848749286684
 21
8838.6761894656483
 31
0.0
  0
LINE
  5
6282
  8
FUTO
 10
4995.4848749286684
 20
8573.6761894656483
 30
0.0
 11
4878.4848749286693
 21
8573.6761894656483
 31
0.0
  0
LINE
  5
6283
  8
FUTO
 10
4980.4848749286684
 20
8561.6761894656483
 30
0.0
 11
4878.4848749286693
 21
8561.6761894656483
 31
0.0
  0
LINE
  5
6284
  8
CT
 10
4956.9489486472839
 20
8771.5618492697922
 30
0.0
 11
4940.3191170620812
 21
8764.6735474872203
 31
0.0
  0
LINE
  5
6285
  8
CT
 10
4956.9489486472839
 20
8695.7905296615063
 30
0.0
 11
4940.3191170620812
 21
8702.6788314440782
 31
0.0
  0
LINE
  5
6286
  8
FUTO
 10
4959.2609194969127
 20
8670.6761894656483
 30
0.0
 11
4925.4848749286693
 21
8652.2761894656487
 31
0.0
  0
LINE
  5
6287
  8
FUTO
 10
4980.4848749286684
 20
8587.6761894656483
 30
0.0
 11
4980.4848749286684
 21
8719.6761894656502
 31
0.0
  0
LINE
  5
6288
  8
FUTO
 10
4994.4848749286684
 20
8570.6761894656483
 30
0.0
 11
4994.4848749286684
 21
8755.6761894656483
 31
0.0
  0
LINE
  5
6289
  8
FUTO
 10
4995.4848749286684
 20
8551.6761894656483
 30
0.0
 11
4995.4848749286684
 21
8755.6761894656483
 31
0.0
  0
LINE
  5
628A
  8
FUTO
 10
4973.8848749286681
 20
8584.8761894656491
 30
0.0
 11
4973.8848749286681
 21
8668.4761894656476
 31
0.0
  0
LINE
  5
628B
  8
FUTO
 10
4975.4848749286684
 20
8536.213904973738
 30
0.0
 11
4975.4848749286684
 21
8763.6761894656483
 31
0.0
  0
LINE
  5
628C
  8
FUTO
 10
4972.2848749286677
 20
8583.8761894656473
 30
0.0
 11
4972.2848749286677
 21
8667.4761894656494
 31
0.0
  0
LINE
  5
628D
  8
FUTO
 10
4973.8848749286681
 20
8536.6761894656502
 30
0.0
 11
4973.8848749286681
 21
8765.2761894656505
 31
0.0
  0
LINE
  5
628E
  8
CT
 10
5002.6697205071023
 20
8561.6761894656483
 30
0.0
 11
4986.1085611398375
 21
8561.6761894656483
 31
0.0
  0
LINE
  5
628F
  8
FUTO
 10
4976.4848749286693
 20
8535.2761894656487
 30
0.0
 11
5005.4848749286693
 21
8535.2761894656487
 31
0.0
  0
LINE
  5
6290
  8
FUTO
 10
4977.084874928667
 20
8533.6761894656502
 30
0.0
 11
5005.4848749286693
 21
8533.6761894656502
 31
0.0
  0
LINE
  5
6291
  8
FUTO
 10
5005.4848749286693
 20
8533.6761894656502
 30
0.0
 11
5005.4848749286693
 21
8535.2761894656487
 31
0.0
  0
LINE
  5
6292
  8
CT
 10
4992.4848749286693
 20
8452.1791146752366
 30
0.0
 11
4992.4848749286693
 21
8542.7003335502086
 31
0.0
  0
ARC
  5
6293
  8
FUTO
 10
4977.084874928667
 20
8536.8761894656491
 30
0.0
 40
3.2000000000000002
 50
180.0
 51
270.0
  0
ARC
  5
6294
  8
FUTO
 10
4976.4848749286693
 20
8536.2761894656487
 30
0.0
 40
1.0
 50
180.0
 51
270.0
  0
ARC
  5
6295
  8
FUTO
 10
4973.8848749286681
 20
8533.6761894656502
 30
0.0
 40
3.0
 50
0.0000000000000139
 51
0.1194908935784662
  0
LINE
  5
6296
  8
CT
 10
4964.6506623098358
 20
8598.8761894656491
 30
0.0
 11
4984.1248639203959
 21
8598.8761894656491
 31
0.0
  0
LINE
  5
6297
  8
FUTO
 10
4995.4848749286684
 20
8551.6761894656483
 30
0.0
 11
4994.4848749286684
 21
8551.6761894656483
 31
0.0
  0
ARC
  5
6298
  8
FUTO
 10
4992.4848749286693
 20
8570.6761894656483
 30
0.0
 40
2.0
 50
0.0
 51
89.999999999999986
  0
ARC
  5
6299
  8
FUTO
 10
4990.6564478039218
 20
8574.6761894656483
 30
0.0
 40
2.0
 50
270.0
 51
44.99999999999087
  0
LINE
  5
629A
  8
FUTO
 10
4992.0706613662951
 20
8576.0904030280217
 30
0.0
 11
4980.4848749286684
 21
8587.6761894656483
 31
0.0
  0
LINE
  5
629B
  8
FUTO
 10
4992.4848749286693
 20
8572.6761894656483
 30
0.0
 11
4980.4848749286684
 21
8572.6761894656483
 31
0.0
  0
LINE
  5
629C
  8
FUTO
 10
4980.4848749286684
 20
8561.6761894656483
 30
0.0
 11
4980.4848749286684
 21
8573.6761894656483
 31
0.0
  0
LINE
  5
629D
  8
FUTO
 10
4994.4848749286684
 20
8551.6761894656483
 30
0.0
 11
4994.4848749286684
 21
8570.6761894656483
 31
0.0
  0
LINE
  5
629E
  8
FUTO
 10
4973.8848749286662
 20
8583.8761894656473
 30
0.0
 11
4972.2848749286677
 21
8583.8761894656473
 31
0.0
  0
LINE
  5
629F
  8
CT
 10
5002.6697205071023
 20
8745.6761894656483
 30
0.0
 11
4984.8011016370692
 21
8745.6761894656483
 31
0.0
  0
LINE
  5
62A0
  8
CT
 10
4964.6506623098358
 20
8653.8761894656473
 30
0.0
 11
4984.1248639203959
 21
8653.8761894656473
 31
0.0
  0
ARC
  5
62A1
  8
FUTO
 10
4970.6848749286683
 20
8667.4761894656494
 30
0.0
 40
1.6000000000000001
 50
0.0000000000000139
 51
90.000000000000028
  0
ARC
  5
62A2
  8
FUTO
 10
4970.6848749286683
 20
8667.4761894656494
 30
0.0
 40
3.2000000000000002
 50
0.0000000000000139
 51
90.000000000000028
  0
LINE
  5
62A3
  8
FUTO
 10
4956.3238721431544
 20
8669.0761894656498
 30
0.0
 11
4970.6848749286683
 21
8669.0761894656498
 31
0.0
  0
ARC
  5
62A4
  8
FUTO
 10
4977.1496999606552
 20
8751.6761894656483
 30
0.0
 40
18.0
 50
264.69311266367538
 51
270.0
  0
ARC
  5
62A5
  8
FUTO
 10
4970.4848749286684
 20
8737.1303960086734
 30
0.0
 40
10.0
 50
0.0
 51
60.000000000002743
  0
LINE
  5
62A6
  8
FUTO
 10
4992.0706613662951
 20
8731.2619759032787
 30
0.0
 11
4980.4848749286684
 21
8719.6761894656502
 31
0.0
  0
ARC
  5
62A7
  8
FUTO
 10
4992.4848749286693
 20
8736.6761894656483
 30
0.0
 40
2.0
 50
270.0
 51
0.0
  0
ARC
  5
62A8
  8
FUTO
 10
4990.6564478039218
 20
8732.6761894656538
 30
0.0
 40
2.0
 50
315.00000000000909
 51
89.999999999999986
  0
LINE
  5
62A9
  8
FUTO
 10
4980.4848749286684
 20
8733.6761894656483
 30
0.0
 11
4980.4848749286684
 21
8737.1303960086734
 31
0.0
  0
LINE
  5
62AA
  8
FUTO
 10
4992.4848749286693
 20
8734.6761894656483
 30
0.0
 11
4980.4848749286684
 21
8734.6761894656483
 31
0.0
  0
LINE
  5
62AB
  8
FUTO
 10
4995.4848749286684
 20
8755.6761894656483
 30
0.0
 11
4994.4848749286684
 21
8755.6761894656483
 31
0.0
  0
ARC
  5
62AC
  8
FUTO
 10
4970.4848749286684
 20
8737.1303960086734
 30
0.0
 40
10.0
 50
60.000000000002743
 51
65.382936044514224
  0
ARC
  5
62AD
  8
FUTO
 10
4977.1496999606552
 20
8751.6761894656483
 30
0.0
 40
18.0
 50
184.26560891566621
 51
264.69311266367538
  0
ARC
  5
62AE
  8
FUTO
 10
4977.1496999606552
 20
8751.6761894656483
 30
0.0
 40
6.0
 50
184.26560891566621
 51
245.38293604451971
  0
LINE
  5
62AF
  8
FUTO
 10
4929.4848749286684
 20
8672.9761894656476
 30
0.0
 11
4900.6209749286681
 21
8672.9761894656476
 31
0.0
  0
LINE
  5
62B0
  8
FUTO
 10
4899.4848749286693
 20
8670.6761894656483
 30
0.0
 11
4929.4848749286684
 21
8670.6761894656483
 31
0.0
  0
CIRCLE
  5
62B1
  8
FUTO
 10
4948.634032854683
 20
8699.2346805527923
 30
0.0
 40
4.0
  0
LINE
  5
62B2
  8
FUTO
 10
4929.4848749286684
 20
8672.9761894656476
 30
0.0
 11
4929.4848749286684
 21
8670.6761894656483
 31
0.0
  0
LINE
  5
62B3
  8
FUTO
 10
4915.0697749286683
 20
8687.3912894656496
 30
0.0
 11
4929.4848749286684
 21
8672.9761894656476
 31
0.0
  0
CIRCLE
  5
62B4
  8
FUTO
 10
4948.634032854683
 20
8768.1176983785081
 30
0.0
 40
4.0
  0
LINE
  5
62B5
  8
FUTO
 10
4899.4848749286693
 20
8671.2323894656474
 30
0.0
 11
4899.4848749286693
 21
8670.6761894656483
 31
0.0
  0
ARC
  5
62B6
  8
FUTO
 10
4900.3322749286672
 20
8677.1759894656498
 30
0.0
 40
5.9997999999999987
 50
220.71839999999469
 51
261.88309999999711
  0
LINE
  5
62B7
  8
CT
 10
4903.3705347328123
 20
8642.2121157470319
 30
0.0
 11
4896.4822329502422
 21
8658.8419473322356
 31
0.0
  0
CIRCLE
  5
62B8
  8
FUTO
 10
4899.9263838415272
 20
8650.5270315396356
 30
0.0
 40
4.0
  0
ARC
  5
62B9
  8
FUTO
 10
4900.6210749286693
 20
8676.6762894656495
 30
0.0
 40
3.7000999999999991
 50
218.82630000000199
 51
274.60909999999433
  0
CIRCLE
  5
62BA
  8
FUTO
 10
4899.9263838415272
 20
8816.8253473916666
 30
0.0
 40
4.0
  0
LINE
  5
62BB
  8
CT
 10
4865.4848749286684
 20
8879.0312571593149
 30
0.0
 11
4865.4848749286684
 21
8397.476525147631
 31
0.0
  0
LINE
  5
62BC
  8
CT
 10
4827.5992151245218
 20
8825.1402631842648
 30
0.0
 11
4834.4875169070947
 21
8808.5104315990648
 31
0.0
  0
LINE
  5
62BD
  8
FUTO
 10
4755.4848749286684
 20
8763.6761894656483
 30
0.0
 11
4830.4848749286684
 21
8838.6761894656483
 31
0.0
  0
LINE
  5
62BF
  8
FUTO
 10
4771.7088303604214
 20
8670.6761894656483
 30
0.0
 11
4805.4848749286684
 21
8652.2761894656487
 31
0.0
  0
ARC
  5
62C0
  8
FUTO
 10
4830.4641749286684
 20
8677.1760894656509
 30
0.0
 40
5.9999000000000002
 50
279.6292000000023
 51
320.9463999999993
  0
LINE
  5
62C1
  8
CT
 10
4827.5992151245246
 20
8642.2121157470319
 30
0.0
 11
4834.4875169070956
 21
8658.8419473322356
 31
0.0
  0
CIRCLE
  5
62C2
  8
FUTO
 10
4831.0433660158096
 20
8650.5270315396356
 30
0.0
 40
4.0
  0
ARC
  5
62C3
  8
FUTO
 10
4830.4062749286677
 20
8676.2763894656473
 30
0.0
 40
3.3001999999999989
 50
270.00130000000058
 51
326.01850000000201
  0
LINE
  5
62C4
  8
FUTO
 10
4830.6722749286682
 20
8672.9761894656476
 30
0.0
 11
4801.7485749286679
 21
8672.9761894656476
 31
0.0
  0
LINE
  5
62C5
  8
FUTO
 10
4831.4848749286684
 20
8670.6761894656483
 30
0.0
 11
4801.4848749286684
 21
8670.6761894656483
 31
0.0
  0
LINE
  5
62C6
  8
FUTO
 10
4816.1389749286682
 20
8687.6302894656474
 30
0.0
 11
4801.4848749286684
 21
8672.9761894656476
 31
0.0
  0
LINE
  5
62C7
  8
FUTO
 10
4831.4848749286684
 20
8671.2520894656482
 30
0.0
 11
4831.4848749286684
 21
8670.6761894656483
 31
0.0
  0
LINE
  5
62C8
  8
FUTO
 10
4801.4848749286684
 20
8672.9761894656476
 30
0.0
 11
4801.4848749286684
 21
8670.6761894656483
 31
0.0
  0
ARC
  5
62C9
  8
FUTO
 10
4878.4848749286693
 20
8720.6761894656465
 30
0.0
 40
147.0
 50
179.59287178573129
 51
222.71864451436309
  0
LINE
  5
62CA
  8
FUTO
 10
4755.4848749286684
 20
8536.2761894656487
 30
0.0
 11
4755.4848749286684
 21
8763.6761894656483
 31
0.0
  0
LINE
  5
62CB
  8
FUTO
 10
4758.6848749286692
 20
8583.8761894656473
 30
0.0
 11
4758.6848749286692
 21
8667.4761894656494
 31
0.0
  0
LINE
  5
62CC
  8
FUTO
 10
4757.0848749286679
 20
8583.8761894656473
 30
0.0
 11
4757.0848749286679
 21
8667.4761894656494
 31
0.0
  0
LINE
  5
62CD
  8
FUTO
 10
4757.0848749286679
 20
8536.8761894656491
 30
0.0
 11
4757.0848749286679
 21
8765.2761894656505
 31
0.0
  0
LINE
  5
62CE
  8
CT
 10
4747.1764330100777
 20
8598.8761894656491
 30
0.0
 11
4766.650634620637
 21
8598.8761894656491
 31
0.0
  0
LINE
  5
62CF
  8
FUTO
 10
4753.8848749286681
 20
8533.6761894656502
 30
0.0
 11
4725.4848749286684
 21
8533.6761894656502
 31
0.0
  0
LINE
  5
62D0
  8
FUTO
 10
4754.4848749286684
 20
8535.2761894656487
 30
0.0
 11
4725.4848749286684
 21
8535.2761894656487
 31
0.0
  0
ARC
  5
62D1
  8
FUTO
 10
4754.4848749286684
 20
8536.2761894656487
 30
0.0
 40
1.0
 50
270.0
 51
0.0000000000000139
  0
ARC
  5
62D2
  8
FUTO
 10
4753.8848749286681
 20
8536.8761894656491
 30
0.0
 40
3.2000000000000002
 50
270.0
 51
0.0000000000000139
  0
LINE
  5
62D3
  8
FUTO
 10
4757.0848749286679
 20
8583.8761894656473
 30
0.0
 11
4758.6848749286692
 21
8583.8761894656473
 31
0.0
  0
LINE
  5
62D4
  8
CT
 10
4738.4848749286684
 20
8452.1791146752366
 30
0.0
 11
4738.4848749286684
 21
8542.7003335502086
 31
0.0
  0
LINE
  5
62D5
  8
FUTO
 10
4725.4848749286684
 20
8533.6761894656502
 30
0.0
 11
4725.4848749286684
 21
8535.2761894656487
 31
0.0
  0
LINE
  5
62D6
  8
CT
 10
4747.1764330100777
 20
8653.8761894656473
 30
0.0
 11
4766.650634620637
 21
8653.8761894656473
 31
0.0
  0
LINE
  5
62D7
  8
FUTO
 10
4760.2848749286668
 20
8669.0761894656498
 30
0.0
 11
4774.6458777141834
 21
8669.0761894656462
 31
0.0
  0
CIRCLE
  5
62D8
  8
FUTO
 10
4782.3357170026511
 20
8699.2346805527886
 30
0.0
 40
4.0
  0
LINE
  5
62D9
  8
CT
 10
4774.0208012100502
 20
8695.7905296615063
 30
0.0
 11
4790.6506327952538
 21
8702.6788314440764
 31
0.0
  0
ARC
  5
62DA
  8
FUTO
 10
4760.2848749286668
 20
8667.4761894656494
 30
0.0
 40
1.6000000000000001
 50
90.000000000000028
 51
180.0
  0
ARC
  5
62DB
  8
FUTO
 10
4760.2848749286668
 20
8667.4761894656494
 30
0.0
 40
3.2000000000000002
 50
90.000000000000028
 51
180.0
  0
LINE
  5
62DC
  8
CT
 10
4774.0208012100502
 20
8771.5618492697922
 30
0.0
 11
4790.6506327952538
 21
8764.6735474872203
 31
0.0
  0
CIRCLE
  5
62DD
  8
FUTO
 10
4782.3357170026511
 20
8768.1176983785081
 30
0.0
 40
4.0
  0
CIRCLE
  5
62DE
  8
FUTO
 10
4831.0433660158078
 20
8816.8253473916648
 30
0.0
 40
4.0
  0
DIMENSION
  5
64F8
  8
SP
  2
*D4
 10
4731.4885860285876
 20
8926.8944022788091
 30
0.0
 11
4798.4867304786276
 21
8951.8944022788091
 31
0.0
 70
     0
 13
4865.4848749286684
 23
8879.0312571593149
 33
0.0
 14
4731.4885860285876
 24
8721.7207226647333
 34
0.0
  0
DIMENSION
  5
6505
  8
SP
  2
*D5
 10
4995.4848749286684
 20
8926.8944022788091
 30
0.0
 11
4930.4848749286684
 21
8951.8944022788091
 31
0.0
 70
     0
 13
4865.4848749286684
 23
8879.0312571593149
 33
0.0
 14
4995.4848749286684
 24
8755.6761894656483
 34
0.0
  0
LINE
  5
6E96
  8
CT
 10
5020.7749955564968
 20
9594.5412464436013
 30
0.0
 11
4663.9990164055416
 21
9594.5412464436013
 31
0.0
  0
LINE
  5
6E99
  8
FUTO
 10
4725.2620687587651
 20
9650.2831962449382
 30
0.0
 11
4994.4848749286684
 21
9650.2831962449382
 31
0.0
  0
LINE
  5
6E9A
  8
FUTO
 10
4725.1545712855068
 20
9650.8831962449403
 30
0.0
 11
4994.4848749286666
 21
9650.8831962449403
 31
0.0
  0
LINE
  5
6E9B
  8
FUTO
 10
4728.0889480871137
 20
9537.6831962449396
 30
0.0
 11
4994.4848749286666
 21
9537.6831962449396
 31
0.0
  0
LINE
  5
6E9C
  8
FUTO
 10
4728.0889480871137
 20
9538.2831962449382
 30
0.0
 11
4994.4848749286666
 21
9538.2831962449382
 31
0.0
  0
LINE
  5
6E9F
  8
FUTO
 10
4720.0889480871147
 20
9546.2831962449382
 30
0.0
 11
4720.0889480871147
 21
9642.7992966422607
 31
0.0
  0
LINE
  5
6EA0
  8
FUTO
 10
4719.4889480871152
 20
9546.2831962449382
 30
0.0
 11
4719.4889480871152
 21
9642.7992966422607
 31
0.0
  0
ARC
  5
6EAD
  8
FUTO
 10
4728.0889480871137
 20
9546.2831962449382
 30
0.0
 40
8.5999999999999996
 50
180.0
 51
270.0
  0
ARC
  5
6EAE
  8
FUTO
 10
4728.0889480871137
 20
9546.2831962449382
 30
0.0
 40
8.0
 50
180.0
 51
270.0
  0
ARC
  5
6EC0
  8
FUTO
 10
4728.0889480871137
 20
9642.7992966422607
 30
0.0
 40
8.5999999999999996
 50
109.950404009807
 51
180.0
  0
ARC
  5
6EC1
  8
FUTO
 10
4728.0889480871137
 20
9642.7992966422607
 30
0.0
 40
8.0
 50
110.69296086014189
 51
180.0
  0
LINE
  5
6EC5
  8
CT
 10
4865.4848749286684
 20
9706.5326023159396
 30
0.0
 11
4865.4848749286684
 21
9306.3458193096176
 31
0.0
  0
LINE
  5
6EC6
  8
FUTO
 10
4995.4848749286666
 20
9671.5412464436013
 30
0.0
 11
4995.4848749286666
 21
9517.5412464436013
 31
0.0
  0
LINE
  5
6EC7
  8
FUTO
 10
4994.4848749286666
 20
9671.5412464436013
 30
0.0
 11
4994.4848749286666
 21
9517.5412464436013
 31
0.0
  0
LINE
  5
6EC8
  8
FUTO
 10
4980.4848749286657
 20
9552.1270328812316
 30
0.0
 11
4980.4848749286657
 21
9636.955460005971
 31
0.0
  0
LINE
  5
6EDD
  8
FUTO
 10
4992.0706613662951
 20
9540.5412464435994
 30
0.0
 11
4980.4848749286657
 21
9552.1270328812279
 31
0.0
  0
LINE
  5
6EE2
  8
FUTO
 10
4995.4848749286666
 20
9517.5412464436013
 30
0.0
 11
4994.4848749286666
 21
9517.5412464436013
 31
0.0
  0
LINE
  5
6EE3
  8
CT
 10
4999.9884288360436
 20
9527.5412464436013
 30
0.0
 11
4989.9813210212887
 21
9527.5412464436013
 31
0.0
  0
LINE
  5
6EE4
  8
FUTO
 10
4992.0706613662951
 20
9540.5412464435994
 30
0.0
 11
4992.0706613662951
 21
9538.5412464436013
 31
0.0
  0
LINE
  5
6EE8
  8
FUTO
 10
4992.0706613662951
 20
9648.5412464436013
 30
0.0
 11
4980.4848749286657
 21
9636.955460005971
 31
0.0
  0
LINE
  5
6EE9
  8
FUTO
 10
4995.4848749286666
 20
9671.5412464436013
 30
0.0
 11
4994.4848749286666
 21
9671.5412464436013
 31
0.0
  0
LINE
  5
6EEA
  8
CT
 10
4999.9884288360436
 20
9661.5412464436031
 30
0.0
 11
4989.9813210212887
 21
9661.5412464435994
 31
0.0
  0
LINE
  5
6EEB
  8
FUTO
 10
4992.0706613662951
 20
9648.5412464436013
 30
0.0
 11
4992.0706613662951
 21
9650.5412464436013
 31
0.0
  0
DIMENSION
  5
6EEF
  8
SP
  2
*D6
 10
5364.1791504785133
 20
8997.0761894656498
 30
0.0
 11
5494.6525399690408
 21
9022.0761894656498
 31
0.0
 70
     0
  1
（330）
 13
5625.1259294595684
 23
8973.6761894656465
 33
0.0
 14
5364.1791504785133
 24
8790.2404605374286
 34
0.0
  0
DIMENSION
  5
6EF0
  8
SP
  2
*D7
 10
5688.1259294595693
 20
8997.0761894656498
 30
0.0
 11
5774.4281333622539
 21
9022.0761894656498
 31
0.0
 70
     0
 13
5625.1259294595684
 23
8973.6761894656465
 33
0.0
 14
5688.1259294595693
 24
8831.6761894656483
 34
0.0
  0
ARC
  5
6EF1
  8
FUTO
 10
5568.1259294595693
 20
8735.6761894656483
 30
0.0
 40
20.0
 50
90.0
 51
180.0
  0
ARC
  5
6EF2
  8
FUTO
 10
5568.1259294595693
 20
8571.6761894656483
 30
0.0
 40
20.0
 50
180.0
 51
270.0
  0
LINE
  5
6EF3
  8
FUTO
 10
5502.1259294595702
 20
8706.8761894656491
 30
0.0
 11
5560.5259294595671
 21
8765.2761894656505
 31
0.0
  0
LINE
  5
6EF8
  8
CT
 10
5332.7365080439777
 20
8733.6761894656483
 30
0.0
 11
5719.236241998442
 21
8733.6761894656483
 31
0.0
  0
LINE
  5
6F0A
  8
FUTO
 10
5392.1259294595693
 20
8535.2761894656487
 30
0.0
 11
5502.1259294595702
 21
8706.8761894656491
 31
0.0
  0
LINE
  5
6F0B
  8
FUTO
 10
5389.32592945957
 20
8669.0761894656498
 30
0.0
 11
5477.895160228798
 21
8669.0761894656462
 31
0.0
  0
LINE
  5
6F0C
  8
FUTO
 10
5389.32592945957
 20
8670.6761894656483
 30
0.0
 11
5478.9208012544414
 21
8670.6761894656483
 31
0.0
  0
LINE
  5
6F0D
  8
FUTO
 10
5432.9272157176083
 20
8598.9261960281892
 30
0.0
 11
5394.7119689132851
 21
8669.0761894656498
 31
0.0
  0
ARC
  5
6F13
  8
FUTO
 10
5389.32592945957
 20
8667.4761894656494
 30
0.0
 40
3.2000000000000002
 50
90.0
 51
180.0
  0
ARC
  5
6F14
  8
FUTO
 10
5389.32592945957
 20
8667.4761894656494
 30
0.0
 40
1.6000000000000001
 50
90.0
 51
180.0
  0
LINE
  5
6F15
  8
FUTO
 10
5387.7259294595679
 20
8652.2761894656487
 30
0.0
 11
5387.7259294595679
 21
8667.4761894656494
 31
0.0
  0
LINE
  5
6F16
  8
FUTO
 10
5386.1259294595702
 20
8652.2761894656487
 30
0.0
 11
5386.1259294595702
 21
8667.4761894656494
 31
0.0
  0
LINE
  5
6F17
  8
FUTO
 10
5386.1259294595702
 20
8652.2761894656487
 30
0.0
 11
5387.7259294595679
 21
8652.2761894656487
 31
0.0
  0
LINE
  5
6F22
  8
FUTO
 10
5548.1259294595693
 20
8735.6761894656483
 30
0.0
 11
5548.1259294595693
 21
8571.6761894656483
 31
0.0
  0
LINE
  5
6F2E
  8
CT
 10
5625.1259294595693
 20
8542.0878311137112
 30
0.0
 11
5625.1259294595693
 21
8898.0429096712269
 31
0.0
  0
DIMENSION
  5
6F31
  8
SP
  2
*D8
 10
5777.5341128271857
 20
8653.6761894656465
 30
0.0
 11
5752.5341128271839
 21
8733.6761894656502
 31
0.0
 70
     0
 13
5688.1259294595702
 23
8813.6761894656483
 33
0.0
 14
5688.1259294595702
 24
8653.6761894656465
 34
0.0
 50
90.0
1001
ACAD
1000
DSTYLE
1002
{
1070
     3
1000
φ<>
1002
}
  0
LINE
  5
6F32
  8
FUTO
 10
5562.1259294595693
 20
8838.6761894656483
 30
0.0
 11
5562.1259294595693
 21
8754.7549734939876
 31
0.0
  0
LINE
  5
6F33
  8
FUTO
 10
5560.5259294595671
 20
8838.6761894656483
 30
0.0
 11
5560.5259294595671
 21
8754.1759191934034
 31
0.0
  0
LINE
  5
6F34
  8
FUTO
 10
5568.525929459568
 20
8606.6761894656483
 30
0.0
 11
5568.525929459568
 21
8847.6761894656502
 31
0.0
  0
LINE
  5
6F35
  8
FUTO
 10
5681.7259294595679
 20
8603.7418126640441
 30
0.0
 11
5681.7259294595679
 21
8847.6761894656502
 31
0.0
  0
LINE
  5
6F36
  8
FUTO
 10
5681.1259294595693
 20
8603.8493101373006
 30
0.0
 11
5681.1259294595693
 21
8847.6761894656502
 31
0.0
  0
LINE
  5
6F37
  8
FUTO
 10
5569.1259294595702
 20
8606.6761894656483
 30
0.0
 11
5569.1259294595702
 21
8847.6761894656502
 31
0.0
  0
LINE
  5
6F38
  8
FUTO
 10
5568.525929459568
 20
8733.6761894656483
 30
0.0
 11
5568.525929459568
 21
8847.6761894656502
 31
0.0
  0
LINE
  5
6F39
  8
FUTO
 10
5688.1259294595702
 20
8831.6761894656483
 30
0.0
 11
5688.1259294595702
 21
8713.2886948957093
 31
0.0
  0
LINE
  5
6F3A
  8
FUTO
 10
5568.1259294595693
 20
8551.6761894656483
 30
0.0
 11
5682.1259294595693
 21
8551.6761894656483
 31
0.0
  0
LINE
  5
6F3B
  8
FUTO
 10
5568.1259294595693
 20
8755.6761894656483
 30
0.0
 11
5682.1259294595693
 21
8755.6761894656483
 31
0.0
  0
LINE
  5
6F3C
  8
HOSO
 10
5571.0548616477017
 20
8732.7472572775132
 30
0.0
 11
5679.1969972714323
 21
8574.6051216537835
 31
0.0
  0
LINE
  5
6F3D
  8
HOSO
 10
5679.1969972714323
 20
8732.7472572775132
 30
0.0
 11
5571.0548616477017
 21
8574.6051216537835
 31
0.0
  0
LINE
  5
6F3E
  8
FUTO
 10
5578.1259294595693
 20
8571.6761894656483
 30
0.0
 11
5672.1259294595702
 21
8571.6761894656483
 31
0.0
  0
LINE
  5
6F3F
  8
FUTO
 10
5578.1259294595693
 20
8735.6761894656483
 30
0.0
 11
5672.1259294595702
 21
8735.6761894656483
 31
0.0
  0
LINE
  5
6F40
  8
FUTO
 10
5568.1259294595693
 20
8725.6761894656502
 30
0.0
 11
5568.1259294595693
 21
8581.6761894656483
 31
0.0
  0
LINE
  5
6F41
  8
FUTO
 10
5568.525929459568
 20
8578.8761894656491
 30
0.0
 11
5568.525929459568
 21
8728.4761894656494
 31
0.0
  0
LINE
  5
6F42
  8
FUTO
 10
5569.1259294595702
 20
8577.3172905221072
 30
0.0
 11
5569.1259294595702
 21
8730.0350884091895
 31
0.0
  0
LINE
  5
6F43
  8
FUTO
 10
5562.1259294595693
 20
8754.7549734939876
 30
0.0
 11
5562.1259294595693
 21
8634.3352785927054
 31
0.0
  0
LINE
  5
6F44
  8
CT
 10
5577.7446047551102
 20
8561.6761894656502
 30
0.0
 11
5592.5072541640257
 21
8561.6761894656502
 31
0.0
  0
ARC
  5
6F45
  8
FUTO
 10
5578.1259294595693
 20
8581.6761894656483
 30
0.0
 40
10.0
 50
180.0
 51
270.0
  0
LINE
  5
6F46
  8
FUTO
 10
5560.5259294595671
 20
8553.1764597378933
 30
0.0
 11
5560.5259294595671
 21
8533.6761894656502
 31
0.0
  0
LINE
  5
6F47
  8
FUTO
 10
5562.1259294595693
 20
8552.5974054373091
 30
0.0
 11
5562.1259294595693
 21
8533.6761894656502
 31
0.0
  0
LINE
  5
6F48
  8
CT
 10
5585.1259294595693
 20
8569.0575141701065
 30
0.0
 11
5585.1259294595693
 21
8554.294864761192
 31
0.0
  0
CIRCLE
  5
6F49
  8
FUTO
 10
5585.1259294595693
 20
8561.6761894656483
 30
0.0
 40
4.0
  0
LINE
  5
6F4A
  8
CT
 10
5572.8525926725451
 20
8643.6761894656483
 30
0.0
 11
5558.3472054648591
 21
8643.6761894656483
 31
0.0
  0
LINE
  5
6F4B
  8
CT
 10
5550.7446047551093
 20
8603.6761894656483
 30
0.0
 11
5565.5072541640257
 21
8603.6761894656483
 31
0.0
  0
LINE
  5
6F4C
  8
CT
 10
5558.1259294595702
 20
8611.0575141701065
 30
0.0
 11
5558.1259294595702
 21
8596.294864761192
 31
0.0
  0
CIRCLE
  5
6F4D
  8
FUTO
 10
5558.1259294595702
 20
8603.6761894656483
 30
0.0
 40
4.0
  0
LINE
  5
6F4E
  8
FUTO
 10
5568.5259294595689
 20
8633.6761894656483
 30
0.0
 11
5563.6098290622467
 21
8633.6761894656483
 31
0.0
  0
ARC
  5
6F4F
  8
FUTO
 10
5563.6098290622467
 20
8635.6761894656483
 30
0.0
 40
2.0
 50
222.1022253431089
 51
270.0
  0
LINE
  5
6F50
  8
CT
 10
5577.7446047551102
 20
8745.6761894656483
 30
0.0
 11
5592.5072541640257
 21
8745.6761894656483
 31
0.0
  0
LINE
  5
6F51
  8
CT
 10
5558.1259294595702
 20
8711.0575141701047
 30
0.0
 11
5558.1259294595702
 21
8696.294864761192
 31
0.0
  0
CIRCLE
  5
6F52
  8
FUTO
 10
5558.1259294595702
 20
8703.6761894656483
 30
0.0
 40
4.0
  0
LINE
  5
6F53
  8
CT
 10
5550.7446047551093
 20
8703.6761894656483
 30
0.0
 11
5565.5072541640257
 21
8703.6761894656483
 31
0.0
  0
ARC
  5
6F54
  8
FUTO
 10
5578.1259294595693
 20
8725.6761894656502
 30
0.0
 40
10.0
 50
90.0
 51
180.0
  0
POINT
  5
6F55
  8
DEFPOINTS
 10
5568.1259294595693
 20
8755.6761894656483
 30
0.0
  0
CIRCLE
  5
6F56
  8
FUTO
 10
5585.1259294595693
 20
8745.6761894656483
 30
0.0
 40
4.0
  0
LINE
  5
6F57
  8
CT
 10
5585.1259294595693
 20
8738.294864761192
 30
0.0
 11
5585.1259294595693
 21
8753.0575141701065
 31
0.0
  0
LINE
  5
6F58
  8
FUTO
 10
5682.1259294595693
 20
8725.6761894656502
 30
0.0
 11
5682.1259294595693
 21
8581.6761894656483
 31
0.0
  0
LINE
  5
6F59
  8
FUTO
 10
5702.1259294595693
 20
8735.6761894656483
 30
0.0
 11
5702.1259294595693
 21
8571.6761894656483
 31
0.0
  0
LINE
  5
6F5A
  8
FUTO
 10
5681.1259294595693
 20
8577.3172905221072
 30
0.0
 11
5681.1259294595693
 21
8730.0350884091895
 31
0.0
  0
LINE
  5
6F5B
  8
FUTO
 10
5681.7259294595679
 20
8578.8761894656491
 30
0.0
 11
5681.7259294595679
 21
8728.4761894656494
 31
0.0
  0
LINE
  5
6F5C
  8
FUTO
 10
5688.1259294595702
 20
8713.2886948957093
 30
0.0
 11
5688.1259294595702
 21
8634.3352785927054
 31
0.0
  0
LINE
  5
6F5D
  8
FUTO
 10
5682.1259294595693
 20
8633.6761894656483
 30
0.0
 11
5682.1259294595693
 21
8725.6761894656502
 31
0.0
  0
LINE
  5
6F5E
  8
CT
 10
5672.5072541640257
 20
8561.6761894656502
 30
0.0
 11
5657.7446047551093
 21
8561.6761894656502
 31
0.0
  0
ARC
  5
6F5F
  8
FUTO
 10
5672.1259294595702
 20
8581.6761894656483
 30
0.0
 40
10.0
 50
270.0
 51
0.0
  0
CIRCLE
  5
6F60
  8
FUTO
 10
5665.1259294595702
 20
8561.6761894656483
 30
0.0
 40
4.0
  0
LINE
  5
6F61
  8
CT
 10
5665.1259294595702
 20
8569.0575141701065
 30
0.0
 11
5665.1259294595702
 21
8554.294864761192
 31
0.0
  0
ARC
  5
6F62
  8
FUTO
 10
5682.1259294595693
 20
8571.6761894656483
 30
0.0
 40
20.0
 50
270.0
 51
0.0
  0
CIRCLE
  5
6F63
  8
FUTO
 10
5692.1259294595666
 20
8603.6761894656483
 30
0.0
 40
4.0
  0
LINE
  5
6F64
  8
CT
 10
5699.5072541640247
 20
8603.6761894656483
 30
0.0
 11
5684.7446047551102
 21
8603.6761894656483
 31
0.0
  0
LINE
  5
6F65
  8
CT
 10
5692.1259294595666
 20
8611.0575141701065
 30
0.0
 11
5692.1259294595666
 21
8596.294864761192
 31
0.0
  0
ARC
  5
6F66
  8
FUTO
 10
5686.6420298568919
 20
8635.6761894656483
 30
0.0
 40
2.0
 50
270.0
 51
317.8977746568911
  0
LINE
  5
6F67
  8
FUTO
 10
5681.7259294595679
 20
8633.6761894656483
 30
0.0
 11
5686.6420298568919
 21
8633.6761894656483
 31
0.0
  0
LINE
  5
6F68
  8
CT
 10
5677.3992662465926
 20
8643.6761894656483
 30
0.0
 11
5691.9046534542758
 21
8643.6761894656483
 31
0.0
  0
LINE
  5
6F69
  8
CT
 10
5672.5072541640257
 20
8745.6761894656483
 30
0.0
 11
5657.7446047551093
 21
8745.6761894656483
 31
0.0
  0
ARC
  5
6F6A
  8
FUTO
 10
5672.1259294595702
 20
8725.6761894656502
 30
0.0
 40
10.0
 50
0.0
 51
90.0
  0
LINE
  5
6F6B
  8
CT
 10
5665.1259294595702
 20
8738.294864761192
 30
0.0
 11
5665.1259294595702
 21
8753.0575141701065
 31
0.0
  0
CIRCLE
  5
6F6C
  8
FUTO
 10
5665.1259294595702
 20
8745.6761894656483
 30
0.0
 40
4.0
  0
LINE
  5
6F6D
  8
CT
 10
5692.1259294595666
 20
8711.0575141701047
 30
0.0
 11
5692.1259294595666
 21
8696.294864761192
 31
0.0
  0
CIRCLE
  5
6F6E
  8
FUTO
 10
5692.1259294595666
 20
8703.6761894656483
 30
0.0
 40
4.0
  0
LINE
  5
6F6F
  8
CT
 10
5699.5072541640247
 20
8703.6761894656483
 30
0.0
 11
5684.7446047551102
 21
8703.6761894656483
 31
0.0
  0
LINE
  5
6F70
  8
CT
 10
5681.1259294595693
 20
8653.6761894656465
 30
0.0
 11
5681.7259294595679
 21
8653.6761894656465
 31
0.0
  0
LINE
  5
6F71
  8
CT
 10
5681.1259294595693
 20
8653.6761894656465
 30
0.0
 11
5681.7259294595679
 21
8653.6761894656465
 31
0.0
  0
LINE
  5
6F72
  8
CT
 10
5681.1259294595693
 20
8653.6761894656465
 30
0.0
 11
5681.7259294595679
 21
8653.6761894656465
 31
0.0
  0
ARC
  5
6F73
  8
FUTO
 10
5682.1259294595693
 20
8735.6761894656483
 30
0.0
 40
20.0
 50
0.0
 51
90.0
  0
POINT
  5
6F74
  8
DEFPOINTS
 10
5682.1259294595693
 20
8755.6761894656483
 30
0.0
  0
LINE
  5
6F75
  8
FUTO
 10
5578.5259294595671
 20
8857.6761894656483
 30
0.0
 11
5671.7259294595679
 21
8857.6761894656483
 31
0.0
  0
LINE
  5
6F76
  8
FUTO
 10
5578.5259294595671
 20
8857.0761894656498
 30
0.0
 11
5671.7259294595679
 21
8857.0761894656498
 31
0.0
  0
DIMENSION
  5
6F77
  8
SP
  2
*D9
 10
5681.1259294595657
 20
8927.0761894656498
 30
0.0
 11
5625.1259294595666
 21
8952.0761894656498
 31
0.0
 70
     0
 13
5569.1259294595684
 23
8847.6761894656502
 33
0.0
 14
5681.1259294595657
 24
8847.6761894656502
 34
0.0
  0
LINE
  5
6F78
  8
CT
 10
5572.8525926725451
 20
8823.6761894656483
 30
0.0
 11
5558.3472054648591
 21
8823.6761894656483
 31
0.0
  0
ARC
  5
6F79
  8
FUTO
 10
5578.5259294595671
 20
8847.6761894656502
 30
0.0
 40
10.0
 50
90.0
 51
180.0
  0
ARC
  5
6F7A
  8
FUTO
 10
5578.5259294595671
 20
8847.6761894656502
 30
0.0
 40
9.4000000000000004
 50
90.0
 51
180.0
  0
ARC
  5
6F7B
  8
FUTO
 10
5564.1259294595693
 20
8831.6761894656483
 30
0.0
 40
2.0
 50
90.0
 51
180.0
  0
LINE
  5
6F7C
  8
FUTO
 10
5560.5259294595671
 20
8838.6761894656483
 30
0.0
 11
5562.1259294595693
 21
8838.6761894656483
 31
0.0
  0
LINE
  5
6F7D
  8
FUTO
 10
5568.5259294595689
 20
8833.6761894656483
 30
0.0
 11
5564.1259294595693
 21
8833.6761894656483
 31
0.0
  0
POINT
  5
6F7E
  8
FUTO
 10
5562.1259294595693
 20
8831.6761894656483
 30
0.0
  0
POINT
  5
6F7F
  8
FUTO
 10
5562.1259294595693
 20
8831.6761894656483
 30
0.0
  0
ARC
  5
6F80
  8
FUTO
 10
5671.7259294595679
 20
8847.6761894656502
 30
0.0
 40
10.0
 50
0.0
 51
90.0
  0
ARC
  5
6F81
  8
FUTO
 10
5671.7259294595679
 20
8847.6761894656502
 30
0.0
 40
9.4000000000000004
 50
0.0
 51
90.0
  0
LINE
  5
6F82
  8
CT
 10
5681.1259294595693
 20
8813.6761894656483
 30
0.0
 11
5681.7259294595679
 21
8813.6761894656483
 31
0.0
  0
POINT
  5
6F83
  8
FUTO
 10
5688.1259294595702
 20
8831.6761894656483
 30
0.0
  0
POINT
  5
6F84
  8
FUTO
 10
5688.1259294595702
 20
8831.6761894656483
 30
0.0
  0
ARC
  5
6F85
  8
FUTO
 10
5686.1259294595702
 20
8831.6761894656483
 30
0.0
 40
2.0
 50
0.0
 51
90.0
  0
LINE
  5
6F86
  8
FUTO
 10
5681.7259294595679
 20
8833.6761894656483
 30
0.0
 11
5686.1259294595702
 21
8833.6761894656483
 31
0.0
  0
LINE
  5
6F87
  8
CT
 10
5677.3992662465926
 20
8823.6761894656483
 30
0.0
 11
5691.9046534542758
 21
8823.6761894656483
 31
0.0
  0
LINE
  5
8528
  8
FUTO
 10
5534.4791504780951
 20
8790.7761894656487
 30
0.0
 11
5416.1791504780958
 21
8790.7761894656487
 31
0.0
  0
LINE
  5
8529
  8
FUTO
 10
5416.1791504780958
 20
8673.1761894656483
 30
0.0
 11
5416.1791504780958
 21
8794.1761894656483
 31
0.0
  0
LINE
  5
852A
  8
FUTO
 10
5416.1791504780958
 20
8794.1761894656483
 30
0.0
 11
5395.1791504780958
 21
8794.1761894656483
 31
0.0
  0
LINE
  5
852B
  8
FUTO
 10
5394.1791504780958
 20
8793.1761894656483
 30
0.0
 11
5365.1126504780959
 21
8791.2383894656487
 31
0.0
  0
ARC
  5
852C
  8
FUTO
 10
5365.1792504780951
 20
8790.2404894656484
 30
0.0
 40
1.0000999999999991
 50
93.821000000000112
 51
180.00165729919101
  0
ARC
  5
852D
  8
FUTO
 10
5395.1792504780951
 20
8793.1761894656483
 30
0.0
 40
1.0000999999999991
 50
90.003499999989657
 51
180.0
  0
LINE
  5
852E
  8
CT
 10
5473.1259294595702
 20
8666.4715762572214
 30
0.0
 11
5473.1259294595702
 21
8800.8808026740753
 31
0.0
  0
LINE
  5
852F
  8
FUTO
 10
5532.1791504780958
 20
8790.7761894656487
 30
0.0
 11
5532.1791504780958
 21
8736.9294104841756
 31
0.0
  0
LINE
  5
8530
  8
FUTO
 10
5537.9835504780967
 20
8771.9427894656474
 30
0.0
 11
5534.5102504780962
 21
8785.5544894656487
 31
0.0
  0
ARC
  5
8531
  8
FUTO
 10
5535.4740504780966
 20
8785.8011894656483
 30
0.0
 40
0.9948999999999999
 50
179.9684000000118
 51
194.35770000002071
  0
LINE
  5
8532
  8
FUTO
 10
5534.4791504780951
 20
8790.7761894656487
 30
0.0
 11
5534.4791504780951
 21
8739.2294104841767
 31
0.0
  0
ARC
  5
8533
  8
FUTO
 10
5531.881550478096
 20
8770.3853894656495
 30
0.0
 40
6.2976000000000001
 50
359.9977999999864
 51
14.31809999999064
  0
ARC
  5
8534
  8
FUTO
 10
5536.4789504780956
 20
8743.2293894656486
 30
0.0
 40
4.7001999999999988
 50
27.48769440413944
 51
44.998400000004331
  0
LINE
  5
8535
  8
FUTO
 10
5539.8025504780962
 20
8746.5527894656461
 30
0.0
 11
5538.4720504780962
 21
8747.8832894656462
 31
0.0
  0
ARC
  5
8536
  8
FUTO
 10
5539.1788504780961
 20
8748.5902894656483
 30
0.0
 40
0.9996999999999999
 50
179.99650000001029
 51
225.009899999982
  0
LINE
  5
8537
  8
FUTO
 10
5538.1791504780958
 20
8770.385089465648
 30
0.0
 11
5538.1791504780958
 21
8742.9294104841756
 31
0.0
  0
ARC
  5
8538
  8
FUTO
 10
5459.4298504780963
 20
8685.5363894656475
 30
0.0
 40
7.9999000000000002
 50
90.0
 51
166.00459999998009
  0
ARC
  5
8539
  8
FUTO
 10
5445.0107504780954
 20
8692.4708894656487
 30
0.0
 40
8.0
 50
270.0
 51
334.31589999996578
  0
LINE
  5
853A
  8
FUTO
 10
5451.6673504780947
 20
8687.4710894656491
 30
0.0
 11
5448.7460504780956
 21
8675.7506894656472
 31
0.0
  0
LINE
  5
853B
  8
FUTO
 10
5486.9284504780962
 20
8693.5362894656464
 30
0.0
 11
5459.4298504780963
 21
8693.5362894656464
 31
0.0
  0
LINE
  5
853C
  8
FUTO
 10
5450.204350478095
 20
8673.4761894656476
 30
0.0
 11
5480.7156730493116
 21
8673.4761894656476
 31
0.0
  0
ARC
  5
853D
  8
FUTO
 10
5445.8350504780956
 20
8676.4761894656476
 30
0.0
 40
3.0
 50
270.0
 51
346.00480000002779
  0
ARC
  5
853E
  8
FUTO
 10
5445.835250478096
 20
8676.4760894656501
 30
0.0
 40
5.2999000000000001
 50
269.99930000003371
 51
326.34980000003259
  0
LINE
  5
853F
  8
FUTO
 10
5423.1791504780949
 20
8671.1761894656483
 30
0.0
 11
5445.835250478096
 21
8671.1761894656483
 31
0.0
  0
LINE
  5
8540
  8
FUTO
 10
5423.1791504780949
 20
8673.4761894656476
 30
0.0
 11
5445.8350504780956
 21
8673.4761894656476
 31
0.0
  0
ARC
  5
8541
  8
FUTO
 10
5431.1791504780949
 20
8676.4708894656487
 30
0.0
 40
8.0
 50
90.0
 51
180.0
  0
LINE
  5
8542
  8
FUTO
 10
5423.1791504780949
 20
8671.1761894656483
 30
0.0
 11
5423.1791504780949
 21
8676.4708894656487
 31
0.0
  0
LINE
  5
8543
  8
FUTO
 10
5423.1791504780949
 20
8677.576189465648
 30
0.0
 11
5416.1791504780958
 21
8677.576189465648
 31
0.0
  0
LINE
  5
8544
  8
CT
 10
5433.1791504780958
 20
8679.4076394656477
 30
0.0
 11
5433.1791504780958
 21
8667.5447394656476
 31
0.0
  0
LINE
  5
8545
  8
FUTO
 10
5445.0107504780954
 20
8684.4708894656487
 30
0.0
 11
5431.1791504780949
 21
8684.4708894656487
 31
0.0
  0
ARC
  5
8546
  8
FUTO
 10
5486.9283504780951
 20
8685.5362894656482
 30
0.0
 40
8.0000999999999998
 50
48.14606457539147
 51
89.999599999959742
  0
LINE
  5
8547
  8
FUTO
 10
5364.1791504780958
 20
8790.2404894656484
 30
0.0
 11
5364.1791504780958
 21
8677.1117894656509
 31
0.0
  0
LINE
  5
8548
  8
FUTO
 10
5394.1791504780958
 20
8793.1761894656483
 30
0.0
 11
5394.1791504780958
 21
8674.1761894656483
 31
0.0
  0
LINE
  5
8549
  8
FUTO
 10
5394.1791504780958
 20
8674.1761894656483
 30
0.0
 11
5365.1126504780959
 21
8676.113989465648
 31
0.0
  0
ARC
  5
854A
  8
FUTO
 10
5365.1792504780951
 20
8677.1118894656465
 30
0.0
 40
1.0000999999999991
 50
180.0069999999923
 51
266.17899999999992
  0
ARC
  5
854B
  8
FUTO
 10
5395.1792504780951
 20
8674.1761894656483
 30
0.0
 40
1.0000999999999991
 50
180.0
 51
269.99649999995819
  0
LINE
  5
854C
  8
FUTO
 10
5416.1791504780958
 20
8673.1761894656483
 30
0.0
 11
5395.1791504780958
 21
8673.1761894656483
 31
0.0
  0
LINE
  5
891C
  8
FUTO
 10
4932.9848749286684
 20
9385.5944674621296
 30
0.0
 11
4797.9848749286684
 21
9385.5944674621278
 31
0.0
  0
LINE
  5
891D
  8
FUTO
 10
4798.9848749286684
 20
9363.5944674621278
 30
0.0
 11
4931.9848749286684
 21
9363.5944674621278
 31
0.0
  0
LINE
  5
891E
  8
CT
 10
4937.8283730532712
 20
9442.5412464436013
 30
0.0
 11
4790.7088730532696
 21
9442.5412464436013
 31
0.0
  0
LINE
  5
891F
  8
FUTO
 10
4809.2018343134878
 20
9333.5944674621278
 30
0.0
 11
4921.7679155438491
 21
9333.5944674621278
 31
0.0
  0
LINE
  5
8920
  8
FUTO
 10
4922.0848749286679
 20
9506.0803602373853
 30
0.0
 11
4808.884874928669
 21
9506.0803602373853
 31
0.0
  0
LINE
  5
8921
  8
FUTO
 10
4922.0848749286679
 20
9508.3803602373846
 30
0.0
 11
4808.884874928669
 21
9508.3803602373846
 31
0.0
  0
LINE
  5
8922
  8
FUTO
 10
4903.2514749286674
 20
9511.8847602373862
 30
0.0
 11
4916.8631749286687
 21
9508.4114602373847
 31
0.0
  0
LINE
  5
8923
  8
FUTO
 10
4808.884874928669
 20
9508.3803602373846
 30
0.0
 11
4808.884874928669
 21
9385.5944674621278
 31
0.0
  0
LINE
  5
8924
  8
FUTO
 10
4802.3820504107789
 20
9363.5944674621278
 30
0.0
 11
4808.2212535086192
 21
9334.3983519728754
 31
0.0
  0
LINE
  5
8925
  8
FUTO
 10
4797.9848749286684
 20
9385.5944674621278
 30
0.0
 11
4797.9848749286684
 21
9364.5944674621278
 31
0.0
  0
ARC
  5
8926
  8
FUTO
 10
4798.9848749286684
 20
9364.5944674621278
 30
0.0
 40
1.0
 50
180.0
 51
270.0
  0
ARC
  5
8927
  8
FUTO
 10
4809.2018343134878
 20
9334.5944674621278
 30
0.0
 40
1.0
 50
191.3098947346725
 51
270.0
  0
LINE
  5
8928
  8
FUTO
 10
4901.6937749286681
 20
9512.0803602373853
 30
0.0
 11
4829.2218749286703
 21
9512.0803602373853
 31
0.0
  0
LINE
  5
8929
  8
FUTO
 10
4827.767974928669
 20
9511.9103602373852
 30
0.0
 11
4812.9986749286691
 21
9508.4073602373865
 31
0.0
  0
LINE
  5
892A
  8
FUTO
 10
4808.884874928669
 20
9508.4241602373877
 30
0.0
 11
4808.884874928669
 21
9497.0036602373857
 31
0.0
  0
ARC
  5
892B
  8
FUTO
 10
4812.7678749286679
 20
9509.3815602373834
 30
0.0
 40
1.0012000000000001
 50
270.00349999998957
 51
283.32969999999011
  0
ARC
  5
892C
  8
FUTO
 10
4829.2218749286703
 20
9505.7801602373856
 30
0.0
 40
6.3002000000000002
 50
89.999399999991695
 51
103.341999999972
  0
LINE
  5
892D
  8
FUTO
 10
4856.4317749286674
 20
9515.0803602373853
 30
0.0
 11
4874.5380749286678
 21
9515.0803602373853
 31
0.0
  0
ARC
  5
892E
  8
FUTO
 10
4851.0707749286676
 20
9513.0800602373856
 30
0.0
 40
0.9996999999999999
 50
269.99649999995819
 51
315.009899999982
  0
LINE
  5
892F
  8
FUTO
 10
4853.1082749286679
 20
9513.7037602373875
 30
0.0
 11
4851.7777749286688
 21
9512.3732602373875
 31
0.0
  0
ARC
  5
8930
  8
FUTO
 10
4856.4318749286676
 20
9510.3800602373867
 30
0.0
 40
4.7003000000000004
 50
90.001499999994792
 51
134.9984000000043
  0
LINE
  5
8931
  8
FUTO
 10
4857.9848749286666
 20
9529.3412464436005
 30
0.0
 11
4857.9848749286684
 21
9515.0803602373853
 31
0.0
  0
LINE
  5
8932
  8
FUTO
 10
4877.861474928668
 20
9513.7037602373875
 30
0.0
 11
4879.1919749286681
 21
9512.3732602373875
 31
0.0
  0
ARC
  5
8933
  8
FUTO
 10
4879.8989749286684
 20
9513.0800602373856
 30
0.0
 40
0.9996999999999999
 50
224.99010000001789
 51
270.00349999998957
  0
ARC
  5
8934
  8
FUTO
 10
4874.5380749286678
 20
9510.3801602373878
 30
0.0
 40
4.7001999999999988
 50
45.001599999995662
 51
90.0
  0
LINE
  5
8935
  8
FUTO
 10
4872.9848749286648
 20
9529.3412464436005
 30
0.0
 11
4872.9848749286684
 21
9515.0803602373853
 31
0.0
  0
ARC
  5
8936
  8
FUTO
 10
4901.6940749286696
 20
9505.7827602373854
 30
0.0
 40
6.2976000000000001
 50
75.681899999958873
 51
90.002199999961405
  0
LINE
  5
8937
  8
FUTO
 10
4922.0848749286679
 20
9508.3803602373846
 30
0.0
 11
4922.0848749286679
 21
9385.5944674621296
 31
0.0
  0
LINE
  5
8938
  8
FUTO
 10
4928.587699446558
 20
9363.5944674621296
 30
0.0
 11
4922.748496348715
 21
9334.3983519728754
 31
0.0
  0
ARC
  5
8939
  8
FUTO
 10
4931.9848749286684
 20
9364.5944674621278
 30
0.0
 40
1.0
 50
270.0
 51
0.0
  0
LINE
  5
893A
  8
FUTO
 10
4932.9848749286684
 20
9385.5944674621278
 30
0.0
 11
4932.9848749286684
 21
9364.5944674621278
 31
0.0
  0
ARC
  5
893B
  8
FUTO
 10
4921.7679155438491
 20
9334.5944674621278
 30
0.0
 40
1.0
 50
270.0
 51
348.69010526532742
  0
ARC
  5
893C
  8
FUTO
 10
4917.1098749286693
 20
9509.3752602373861
 30
0.0
 40
0.9948999999999999
 50
255.6422999999792
 51
270.03159999998809
  0
LINE
  5
893D
  8
FUTO
 10
4975.4848749286684
 20
9355.5412464436013
 30
0.0
 11
4926.9770607594928
 21
9355.5412464436013
 31
0.0
  0
LINE
  5
893E
  8
CT
 10
4982.4848749286693
 20
9381.5412464436013
 30
0.0
 11
5002.4848749286693
 21
9381.5412464436013
 31
0.0
  0
CIRCLE
  5
893F
  8
FUTO
 10
4992.4848749286693
 20
9381.5412464436013
 30
0.0
 40
6.0
  0
LINE
  5
8940
  8
FUTO
 10
4975.4848749286684
 20
9361.5412464436013
 30
0.0
 11
5005.4848749286693
 21
9361.5412464436013
 31
0.0
  0
LINE
  5
8941
  8
CT
 10
4992.4848749286693
 20
9391.5412464436013
 30
0.0
 11
4992.4848749286693
 21
9371.5412464436013
 31
0.0
  0
LINE
  5
8942
  8
FUTO
 10
5005.4848749286693
 20
9531.5412464435994
 30
0.0
 11
5005.4848749286693
 21
9361.5412464436013
 31
0.0
  0
LINE
  5
8943
  8
FUTO
 10
4975.4848749286684
 20
9355.5412464436013
 30
0.0
 11
4975.4848749286684
 21
9531.5412464435994
 31
0.0
  0
LINE
  5
8944
  8
FUTO
 10
4975.4848749286684
 20
9530.9412464436009
 30
0.0
 11
4755.4848749286684
 21
9530.9412464436009
 31
0.0
  0
LINE
  5
8945
  8
FUTO
 10
4975.4848749286684
 20
9529.3412464436005
 30
0.0
 11
4755.4848749286684
 21
9529.3412464436005
 31
0.0
  0
ARC
  5
8946
  8
FUTO
 10
4963.4848749286684
 20
9532.9412464436009
 30
0.0
 40
2.0
 50
270.0
 51
0.0
  0
LINE
  5
8947
  8
CT
 10
4955.4848749286684
 20
9524.3575731466008
 30
0.0
 11
4955.4848749286684
 21
9535.3305936665893
 31
0.0
  0
LINE
  5
8948
  8
FUTO
 10
4965.4848749286693
 20
9532.9412464436009
 30
0.0
 11
4965.4848749286693
 21
9537.9412464436009
 31
0.0
  0
ARC
  5
8949
  8
FUTO
 10
4767.4848749286684
 20
9532.9412464436009
 30
0.0
 40
2.0
 50
180.0
 51
270.0
  0
LINE
  5
894A
  8
FUTO
 10
4765.4848749286684
 20
9532.9412464436009
 30
0.0
 11
4765.4848749286684
 21
9537.9412464436009
 31
0.0
  0
LINE
  5
894B
  8
CT
 10
4775.4848749286684
 20
9524.3575731466008
 30
0.0
 11
4775.4848749286684
 21
9535.3305936665893
 31
0.0
  0
LINE
  5
894C
  8
FUTO
 10
4755.4848749286684
 20
9355.5412464436013
 30
0.0
 11
4755.4848749286684
 21
9531.5412464435994
 31
0.0
  0
LINE
  5
894D
  8
FUTO
 10
4725.4848749286684
 20
9531.5412464435994
 30
0.0
 11
4725.4848749286684
 21
9361.5412464436013
 31
0.0
  0
LINE
  5
894E
  8
FUTO
 10
4755.4848749286684
 20
9361.5412464436013
 30
0.0
 11
4725.4848749286684
 21
9361.5412464436013
 31
0.0
  0
LINE
  5
894F
  8
CT
 10
4738.4848749286684
 20
9391.5412464436013
 30
0.0
 11
4738.4848749286684
 21
9371.5412464436013
 31
0.0
  0
CIRCLE
  5
8950
  8
FUTO
 10
4738.4848749286684
 20
9381.5412464436013
 30
0.0
 40
6.0
  0
LINE
  5
8951
  8
CT
 10
4748.4848749286684
 20
9381.5412464436013
 30
0.0
 11
4728.4848749286684
 21
9381.5412464436013
 31
0.0
  0
LINE
  5
8952
  8
FUTO
 10
4725.4848749286684
 20
9531.5412464435994
 30
0.0
 11
4755.4848749286684
 21
9531.5412464435994
 31
0.0
  0
LINE
  5
8953
  8
CT
 10
4738.4848749286684
 20
9521.5412464436013
 30
0.0
 11
4738.4848749286684
 21
9501.5412464436013
 31
0.0
  0
LINE
  5
8954
  8
CT
 10
4748.4848749286684
 20
9511.5412464436013
 30
0.0
 11
4728.4848749286684
 21
9511.5412464436013
 31
0.0
  0
CIRCLE
  5
8955
  8
FUTO
 10
4738.4848749286684
 20
9511.5412464436013
 30
0.0
 40
6.0
  0
LINE
  5
8956
  8
FUTO
 10
4755.4848749286684
 20
9530.9412464436009
 30
0.0
 11
4755.4848749286684
 21
9529.3412464436005
 31
0.0
  0
LINE
  5
8957
  8
FUTO
 10
4803.992689097844
 20
9355.5412464436013
 30
0.0
 11
4755.4848749286684
 21
9355.5412464436013
 31
0.0
  0
CIRCLE
  5
8958
  8
FUTO
 10
4992.4848749286693
 20
9511.5412464436013
 30
0.0
 40
6.0
  0
LINE
  5
8959
  8
CT
 10
4982.4848749286693
 20
9511.5412464436013
 30
0.0
 11
5002.4848749286693
 21
9511.5412464436013
 31
0.0
  0
LINE
  5
895A
  8
CT
 10
4992.4848749286693
 20
9521.5412464436013
 30
0.0
 11
4992.4848749286693
 21
9501.5412464436013
 31
0.0
  0
LINE
  5
895B
  8
FUTO
 10
5005.4848749286693
 20
9531.5412464435994
 30
0.0
 11
4975.4848749286684
 21
9531.5412464435994
 31
0.0
  0
DIMENSION
  5
8A6C
  8
SP
  2
*D10
 10
5065.4848749286693
 20
9361.5412464436013
 30
0.0
 11
5040.4848749286693
 21
9446.5412464436031
 31
0.0
 70
     0
 13
5005.4848749286684
 23
9531.5412464435994
 33
0.0
 14
5005.4848749286684
 24
9361.5412464436013
 34
0.0
 50
90.0
  0
DIMENSION
  5
8A79
  8
SP
  2
*D11
 10
5065.4848749286693
 20
9594.5412464436013
 30
0.0
 11
5040.4848749286693
 21
9680.8434503462886
 31
0.0
 70
     0
 13
5005.4848749286684
 23
9531.5412464435994
 33
0.0
 14
5020.7749955564968
 24
9594.5412464436013
 34
0.0
 50
90.0
  0
DIMENSION
  5
8ABE
  8
SP
  2
*D12
 10
5005.4848749286684
 20
9253.5944674621278
 30
0.0
 11
4865.4848749286684
 21
9278.5944674621278
 31
0.0
 70
     0
 13
4725.4848749286684
 23
9361.5412464436013
 33
0.0
 14
5005.4848749286684
 24
9361.5412464436013
 34
0.0
  0
LINE
  5
8AFF
  8
FUTO
 10
5560.5259294595671
 20
8535.2761894656469
 30
0.0
 11
5392.1259294595693
 21
8535.2761894656469
 31
0.0
  0
LINE
  5
8B00
  8
FUTO
 10
5562.1259294595693
 20
8533.6761894656465
 30
0.0
 11
5392.1259294595693
 21
8533.6761894656502
 31
0.0
  0
LINE
  5
8B01
  8
FUTO
 10
5392.1259294595693
 20
8535.2761894656469
 30
0.0
 11
5392.1259294595693
 21
8533.6761894656502
 31
0.0
  0
LINE
  5
8D03
  8
4
 10
6230.9309986409498
 20
10505.219059589719
 30
0.0
 11
6230.9309986409498
 21
7555.2190595897273
 31
0.0
  0
LINE
  5
8D04
  8
4
 10
4130.9309986409498
 20
7555.2190595897273
 30
0.0
 11
4130.9309986409498
 21
10505.219059589719
 31
0.0
  0
LINE
  5
8D06
  8
4
 10
4580.9309986409498
 20
8055.2190595897273
 30
0.0
 11
5780.9309986409498
 21
8055.2190595897273
 31
0.0
  0
LINE
  5
8D07
  8
4
 10
4580.9309986409498
 20
7955.2190595897273
 30
0.0
 11
5780.9309986409498
 21
7955.2190595897273
 31
0.0
  0
LINE
  5
8D08
  8
4
 10
4580.9309986409498
 20
7855.2190595897273
 30
0.0
 11
5780.9309986409498
 21
7855.2190595897273
 31
0.0
  0
TEXT
  5
8D0A
  8
4
 10
5108.6097441286147
 20
7977.790828547295
 30
0.0
 40
50.0
  1
ミツヤ多翼送風機
  0
LINE
  5
8D0B
  8
4
 10
6230.9309986409498
 20
7555.2190595897273
 30
0.0
 11
4130.9309986409498
 21
7555.2190595897273
 31
0.0
  0
TEXT
  5
8D0D
  8
4
 10
4617.1891046657474
 20
7876.8642163217382
 30
0.0
 40
50.0
  1
機器型番
  0
TEXT
  5
8D0E
  8
4
 10
4619.4330794878506
 20
7986.7620854563402
 30
0.0
 40
50.0
  1
機器名称
  0
LINE
  5
8D0F
  8
4
 10
4580.9309986409498
 20
8055.2190595897273
 30
0.0
 11
4580.9309986409498
 21
7855.2190595897246
 31
0.0
  0
TEXT
  5
8D10
  8
4
 10
5117.5854942264314
 20
7872.3786438696698
 30
0.0
 40
50.0
  1
MF＃1-7
  0
LINE
  5
8D11
  8
4
 10
5080.9309986409498
 20
8055.2190595897273
 30
0.0
 11
5080.9309986409498
 21
7855.2190595897246
 31
0.0
  0
LINE
  5
8D12
  8
4
 10
5780.9309986409498
 20
8055.2190595897273
 30
0.0
 11
5780.9309986409498
 21
7855.2190595897246
 31
0.0
  0
LINE
  5
8D13
  8
4
 10
4380.9309986409498
 20
10224.627813854529
 30
0.0
 11
5980.9309986409498
 21
10224.627813854529
 31
0.0
  0
LINE
  5
8D14
  8
4
 10
4380.9309986409498
 20
10024.627813854529
 30
0.0
 11
5980.9309986409498
 21
10024.627813854529
 31
0.0
  0
TEXT
  5
8D15
  8
4
 10
4618.9939025858093
 20
10089.100035789021
 30
0.0
 40
72.0
  1
遠心式片吸込直動形多翼ファン
  0
LINE
  5
8D16
  8
4
 10
4130.9309986409498
 20
10505.219059589719
 30
0.0
 11
6230.9309986409498
 21
10505.219059589719
 31
0.0
  0
LINE
  5
8D17
  8
4
 10
4380.9309986409498
 20
10224.627813854529
 30
0.0
 11
4380.9309986409498
 21
10024.627813854529
 31
0.0
  0
TEXT
  5
8D18
  8
4
 10
4423.0938202614634
 20
9937.5385371360699
 30
0.0
 40
53.999999999999993
  1
左回転右横向
  0
LINE
  5
8D1A
  8
4
 10
5980.9309986409498
 20
10224.627813854529
 30
0.0
 11
5980.9309986409498
 21
10024.627813854529
 31
0.0
  0
TEXT
  5
8D1B
  8
4
 10
5557.5037485348421
 20
9938.6479009222421
 30
0.0
 40
53.999999999999993
  1
縮尺：1/10
  0
LINE
  5
8D1C
  8
4
 10
5980.9309986409498
 20
10236.48264271512
 30
0.0
 11
5571.5484210008144
 21
10236.48264271512
 31
0.0
  0
LINE
  5
8D1D
  8
4
 10
5571.5484210008144
 20
10341.87132113947
 30
0.0
 11
5980.9309986409498
 21
10341.87132113947
 31
0.0
  0
TEXT
  5
8D1E
  8
4
 10
5599.9005578902397
 20
10261.28014108503
 30
0.0
 40
56.000000000000007
  1
No.
  0
LINE
  5
8D1F
  8
4
 10
5571.5484210008144
 20
10236.48264271512
 30
0.0
 11
5571.5484210008144
 21
10341.87132113947
 31
0.0
  0
LINE
  5
8D20
  8
4
 10
5980.9309986409498
 20
10341.87132113947
 30
0.0
 11
5980.9309986409498
 21
10236.48264271512
 31
0.0
  0
LINE
  5
8D21
  8
4
 10
6230.9309986409498
 20
10505.219059589719
 30
0.0
 11
6230.9309986409498
 21
10505.219059589719
 31
0.0
  0
LINE
  5
A1C8
  8
FUTO
 10
4752.2848749286723
 20
8463.6761894656483
 30
0.0
 11
4978.6848749286664
 21
8463.6761894656483
 31
0.0
  0
LINE
  5
A1C9
  8
FUTO
 10
4755.4848749286712
 20
8433.6761894656502
 30
0.0
 11
4975.4848749286666
 21
8433.6761894656502
 31
0.0
  0
LINE
  5
A1CA
  8
FUTO
 10
4755.4786188132057
 20
8460.6761894656483
 30
0.0
 11
4975.4911310441321
 21
8460.6761894656483
 31
0.0
  0
DIMENSION
  5
A1CB
  8
SP
  2
*D16
 10
4725.4848749286703
 20
8263.6761894656502
 30
0.0
 11
4865.4848749286693
 21
8288.6761894656502
 31
0.0
 70
     0
 13
5005.4848749286693
 23
8403.6761894656502
 33
0.0
 14
4725.4848749286703
 24
8403.6761894656502
 34
0.0
 50
180.0
  0
DIMENSION
  5
A1CC
  8
SP
  2
*D15
 10
5005.4848749286693
 20
8333.6761894656483
 30
0.0
 11
4935.4848749286684
 21
8358.6761894656483
 31
0.0
 70
     0
 13
4865.4848749286693
 23
8397.476525147631
 33
0.0
 14
5005.4848749286693
 24
8403.6761894656502
 34
0.0
 50
180.0
  0
DIMENSION
  5
A1CD
  8
SP
  2
*D17
 10
4725.4848749286648
 20
8333.6761894656483
 30
0.0
 11
4795.4848749286666
 21
8358.6761894656483
 31
0.0
 70
     0
 13
4865.4848749286693
 23
8397.476525147631
 33
0.0
 14
4725.4848749286648
 24
8403.6761894656502
 34
0.0
 50
180.0
  0
LINE
  5
A1CE
  8
FUTO
 10
4755.4848749286712
 20
8460.4761894656494
 30
0.0
 11
4755.4848749286703
 21
8406.8761894656473
 31
0.0
  0
LINE
  5
A1CF
  8
FUTO
 10
4753.1848749286701
 20
8460.3761894656473
 30
0.0
 11
4753.1848749286701
 21
8406.9761894656476
 31
0.0
  0
ARC
  5
A1D0
  8
FUTO
 10
4752.2848749286704
 20
8406.8761894656473
 30
0.0
 40
3.2000000000000002
 50
269.99999999999648
 51
359.99999999999909
  0
ARC
  5
A1D1
  8
FUTO
 10
4752.2848749286723
 20
8460.4761894656494
 30
0.0
 40
3.2000000000000002
 50
359.99999999999898
 51
89.999999999996504
  0
ARC
  5
A1D2
  8
FUTO
 10
4752.184874928671
 20
8460.3761894656473
 30
0.0
 40
1.0
 50
359.99999999999909
 51
89.999999999996334
  0
ARC
  5
A1D3
  8
FUTO
 10
4752.1848749286701
 20
8406.9761894656476
 30
0.0
 40
1.0
 50
269.99999999999631
 51
359.99999999999898
  0
LINE
  5
A1D4
  8
FUTO
 10
4725.4848749286703
 20
8463.6761894656483
 30
0.0
 11
4725.4848749286703
 21
8461.3761894656527
 31
0.0
  0
LINE
  5
A1D5
  8
FUTO
 10
4725.4848749286703
 20
8405.9761894656494
 30
0.0
 11
4725.4848749286703
 21
8403.6761894656502
 31
0.0
  0
LINE
  5
A1D6
  8
FUTO
 10
4752.2848749286723
 20
8463.6761894656483
 30
0.0
 11
4725.4848749286684
 21
8463.6761894656483
 31
0.0
  0
LINE
  5
A1D7
  8
FUTO
 10
4752.2848749286704
 20
8403.6761894656465
 30
0.0
 11
4725.4848749286648
 21
8403.6761894656502
 31
0.0
  0
LINE
  5
A1D8
  8
FUTO
 10
4752.1848749286701
 20
8405.9761894656476
 30
0.0
 11
4725.4848749286648
 21
8405.9761894656494
 31
0.0
  0
LINE
  5
A1D9
  8
FUTO
 10
4752.184874928671
 20
8461.3761894656491
 30
0.0
 11
4725.4848749286684
 21
8461.3761894656509
 31
0.0
  0
LINE
  5
A1DA
  8
FUTO
 10
4978.7848749286677
 20
8461.3761894656491
 30
0.0
 11
5005.4848749286703
 21
8461.3761894656509
 31
0.0
  0
LINE
  5
A1DB
  8
FUTO
 10
4978.7848749286686
 20
8405.9761894656476
 30
0.0
 11
5005.4848749286739
 21
8405.9761894656494
 31
0.0
  0
LINE
  5
A1DC
  8
FUTO
 10
4978.6848749286683
 20
8403.6761894656465
 30
0.0
 11
5005.4848749286739
 21
8403.6761894656502
 31
0.0
  0
LINE
  5
A1DD
  8
FUTO
 10
4978.6848749286664
 20
8463.6761894656483
 30
0.0
 11
5005.4848749286703
 21
8463.6761894656483
 31
0.0
  0
ARC
  5
A1DE
  8
FUTO
 10
4978.7848749286686
 20
8406.9761894656476
 30
0.0
 40
1.0
 50
180.00000000000091
 51
270.00000000000358
  0
ARC
  5
A1DF
  8
FUTO
 10
4978.7848749286677
 20
8460.3761894656473
 30
0.0
 40
1.0
 50
90.000000000003652
 51
180.0000000000008
  0
ARC
  5
A1E0
  8
FUTO
 10
4978.6848749286664
 20
8460.4761894656494
 30
0.0
 40
3.2000000000000002
 50
90.000000000003453
 51
180.00000000000091
  0
ARC
  5
A1E1
  8
FUTO
 10
4978.6848749286683
 20
8406.8761894656473
 30
0.0
 40
3.2000000000000002
 50
180.0000000000008
 51
270.00000000000341
  0
LINE
  5
A1E2
  8
FUTO
 10
4977.7848749286668
 20
8460.3761894656473
 30
0.0
 11
4977.7848749286686
 21
8406.9761894656476
 31
0.0
  0
LINE
  5
A1E3
  8
FUTO
 10
4975.4848749286666
 20
8460.4761894656494
 30
0.0
 11
4975.4848749286684
 21
8406.8761894656473
 31
0.0
  0
LINE
  5
A1E4
  8
FUTO
 10
5005.4848749286693
 20
8405.9761894656494
 30
0.0
 11
5005.4848749286693
 21
8403.6761894656502
 31
0.0
  0
LINE
  5
A1E5
  8
FUTO
 10
5005.4848749286693
 20
8463.6761894656483
 30
0.0
 11
5005.4848749286693
 21
8461.3761894656527
 31
0.0
  0
LINE
  5
A1E6
  8
FUTO
 10
5562.1259294595684
 20
8463.6761894656483
 30
0.0
 11
5392.1259294595684
 21
8463.6761894656483
 31
0.0
  0
LINE
  5
A1E7
  8
FUTO
 10
5562.1259294595684
 20
8403.6761894656465
 30
0.0
 11
5392.1259294595684
 21
8403.6761894656465
 31
0.0
  0
DIMENSION
  5
A1E8
  8
SP
  2
*D18
 10
5392.1259294595684
 20
8333.6761894656483
 30
0.0
 11
5477.1259294595684
 21
8358.6761894656483
 31
0.0
 70
     0
 13
5562.1259294595684
 23
8403.6761894656465
 33
0.0
 14
5392.1259294595684
 24
8403.6761894656465
 34
0.0
  0
LINE
  5
A1E9
  8
FUTO
 10
5562.1259294595684
 20
8461.3761894656491
 30
0.0
 11
5392.1259294595684
 21
8461.3761894656491
 31
0.0
  0
LINE
  5
A1EA
  8
FUTO
 10
5562.1259294595684
 20
8405.9761894656476
 30
0.0
 11
5392.1259294595684
 21
8405.9761894656476
 31
0.0
  0
LINE
  5
A1EB
  8
FUTO
 10
5392.1259294595684
 20
8463.6761894656483
 30
0.0
 11
5392.1259294595684
 21
8403.6761894656465
 31
0.0
  0
LINE
  5
A1EC
  8
FUTO
 10
5562.1259294595684
 20
8463.6761894656483
 30
0.0
 11
5562.1259294595684
 21
8403.6761894656465
 31
0.0
  0
DIMENSION
  5
A1ED
  8
SP
  2
*D20
 10
5625.1259294595684
 20
8263.6761894656502
 30
0.0
 11
5508.6259294595693
 21
8288.6761894656502
 31
0.0
 70
     0
 13
5392.1259294595684
 23
8403.6761894656465
 33
0.0
 14
5625.1259294595684
 24
8542.0878311137112
 34
0.0
  0
DIMENSION
  5
A1EE
  8
SP
  2
*D19
 10
5625.1259294595684
 20
8333.6761894656483
 30
0.0
 11
5711.4281333622539
 21
8358.6761894656483
 31
0.0
 70
     0
 13
5562.1259294595684
 23
8403.6761894656465
 33
0.0
 14
5625.1259294595684
 24
8542.0878311137112
 34
0.0
  0
DIMENSION
  5
A313
  8
SP
  2
*D21
 10
5135.4848749286693
 20
8403.6761894656502
 30
0.0
 11
5110.4848749286666
 21
8318.1395546841995
 31
0.0
 70
     0
 13
5005.4848749286703
 23
8463.6761894656483
 33
0.0
 14
5005.4848749286693
 24
8403.6761894656502
 34
0.0
 50
90.0
1001
ACAD
1000
DSTYLE
1002
{
1070
     6
1000
DOT
1002
}
  0
DIMENSION
  5
A322
  8
SP
  2
*D22
 10
5135.4848749286693
 20
8463.6761894656483
 30
0.0
 11
5179.6083297436116
 21
8480.7767676542953
 31
0.0
 70
   128
 13
5005.4848749286693
 23
8533.6761894656502
 33
0.0
 14
5005.4848749286693
 24
8463.6761894656483
 34
0.0
 50
90.0
1001
ACAD
1000
DSTYLE
1002
{
1070
   287
1070
     5
1070
   287
1070
     5
1070
     3
1000
（<>）
1070
   279
1070
     2
1070
   289
1070
     3
1070
     6
1000
NONE
1070
     7
1000
NONE
1002
}
  0
TEXT
  5
A3BA
  8
4
 10
4939.5760057186017
 20
9936.0858066657147
 30
0.0
 40
53.999999999999993
  1
床置防振ベッド型
  0
LINE
  5
A41F
  8
FUTO
 10
5681.1259294595693
 20
8813.6761894656483
 30
0.0
 11
5681.7259294595679
 21
8813.6761894656483
 31
0.0
  0
LINE
  5
A420
  8
FUTO
 10
5681.1259294595693
 20
8813.6761894656483
 30
0.0
 11
5681.7259294595679
 21
8813.6761894656483
 31
0.0
  0
LINE
  5
A421
  8
FUTO
 10
5681.7259294595697
 20
8813.6761894656483
 30
0.0
 11
5688.1259294595702
 21
8813.6761894656483
 31
0.0
  0
LINE
  5
A422
  8
FUTO
 10
5681.1259294595693
 20
8813.6761894656483
 30
0.0
 11
5681.7259294595679
 21
8813.6761894656483
 31
0.0
  0
LINE
  5
A423
  8
FUTO
 10
5681.7259294595697
 20
8653.6761894656465
 30
0.0
 11
5688.1259294595702
 21
8653.6761894656465
 31
0.0
  0
LINE
  5
A424
  8
FUTO
 10
5681.1259294595693
 20
8653.6761894656465
 30
0.0
 11
5681.7259294595679
 21
8653.6761894656465
 31
0.0
  0
LINE
  5
A425
  8
FUTO
 10
5681.1259294595693
 20
8653.6761894656465
 30
0.0
 11
5681.7259294595679
 21
8653.6761894656465
 31
0.0
  0
ENDSEC
  0
EOF
