  0
SECTION
  2
HEADER
  9
$ACADVER
  1
AC1009
  9
$INSBASE
 10
0.0
 20
0.0
 30
0.0
  9
$EXTMIN
 10
4130.9309986409498
 20
7555.2190595897273
 30
0.0
  9
$EXTMAX
 10
6230.9309986409498
 20
10505.219059589719
 30
0.0
  9
$LIMMIN
 10
0.0
 20
0.0
  9
$LIMMAX
 10
297.0
 20
210.0
  9
$ORTHOMODE
 70
     0
  9
$REGENMODE
 70
     1
  9
$FILLMODE
 70
     1
  9
$QTEXTMODE
 70
     0
  9
$MIRRTEXT
 70
     0
  9
$DRAGMODE
 70
     2
  9
$LTSCALE
 40
25.0
  9
$OSMODE
 70
   545
  9
$ATTMODE
 70
     1
  9
$TEXTSIZE
 40
3.5
  9
$TRACEWID
 40
0.05
  9
$TEXTSTYLE
  7
STANDARD
  9
$CLAYER
  8
SP
  9
$CELTYPE
  6
BYLAYER
  9
$CECOLOR
 62
   256
  9
$DIMSCALE
 40
10.0
  9
$DIMASZ
 40
2.5
  9
$DIMEXO
 40
1.0
  9
$DIMDLI
 40
7.0
  9
$DIMRND
 40
0.0
  9
$DIMDLE
 40
0.0
  9
$DIMEXE
 40
1.0
  9
$DIMTP
 40
0.0
  9
$DIMTM
 40
0.0
  9
$DIMTXT
 40
3.0
  9
$DIMCEN
 40
0.0
  9
$DIMTSZ
 40
0.0
  9
$DIMTOL
 70
     0
  9
$DIMLIM
 70
     0
  9
$DIMTIH
 70
     0
  9
$DIMTOH
 70
     0
  9
$DIMSE1
 70
     0
  9
$DIMSE2
 70
     0
  9
$DIMTAD
 70
     1
  9
$DIMZIN
 70
     8
  9
$DIMBLK
  1

  9
$DIMASO
 70
     1
  9
$DIMSHO
 70
     1
  9
$DIMPOST
  1

  9
$DIMAPOST
  1

  9
$DIMALT
 70
     0
  9
$DIMALTD
 70
     2
  9
$DIMALTF
 40
0.03937
  9
$DIMLFAC
 40
1.0
  9
$DIMTOFL
 70
     1
  9
$DIMTVP
 40
0.0
  9
$DIMTIX
 70
     0
  9
$DIMSOXD
 70
     0
  9
$DIMSAH
 70
     1
  9
$DIMBLK1
  1
OPEN
  9
$DIMBLK2
  1
OPEN
  9
$DIMSTYLE
  2
GOD
  9
$DIMCLRD
 70
   256
  9
$DIMCLRE
 70
   256
  9
$DIMCLRT
 70
   256
  9
$DIMTFAC
 40
1.0
  9
$DIMGAP
 40
1.0
  9
$LUNITS
 70
     2
  9
$LUPREC
 70
     3
  9
$SKETCHINC
 40
0.1
  9
$FILLETRAD
 40
1.0
  9
$AUNITS
 70
     0
  9
$AUPREC
 70
     2
  9
$MENU
  1
acad
  9
$ELEVATION
 40
0.0
  9
$PELEVATION
 40
0.0
  9
$THICKNESS
 40
0.0
  9
$LIMCHECK
 70
     0
  9
$BLIPMODE
 70
     0
  9
$CHAMFERA
 40
0.0
  9
$CHAMFERB
 40
0.0
  9
$SKPOLY
 70
     0
  9
$TDCREATE
 40
2454894.5465396061
  9
$TDUPDATE
 40
2455012.4083953579
  9
$TDINDWG
 40
0.3748264236
  9
$TDUSRTIMER
 40
0.3748264236
  9
$USRTIMER
 70
     1
  9
$ANGBASE
 50
0.0
  9
$ANGDIR
 70
     0
  9
$PDMODE
 70
     0
  9
$PDSIZE
 40
1.0
  9
$PLINEWID
 40
0.0
  9
$COORDS
 70
     2
  9
$SPLFRAME
 70
     0
  9
$SPLINETYPE
 70
     6
  9
$SPLINESEGS
 70
     8
  9
$ATTDIA
 70
     0
  9
$ATTREQ
 70
     1
  9
$HANDLING
 70
 22529
  9
$HANDSEED
  5
AAD3
  9
$SURFTAB1
 70
     6
  9
$SURFTAB2
 70
     6
  9
$SURFTYPE
 70
     6
  9
$SURFU
 70
     6
  9
$SURFV
 70
     6
  9
$UCSNAME
  2

  9
$UCSORG
 10
0.0
 20
0.0
 30
0.0
  9
$UCSXDIR
 10
1.0
 20
0.0
 30
0.0
  9
$UCSYDIR
 10
0.0
 20
1.0
 30
0.0
  9
$PUCSNAME
  2

  9
$PUCSORG
 10
0.0
 20
0.0
 30
0.0
  9
$PUCSXDIR
 10
1.0
 20
0.0
 30
0.0
  9
$PUCSYDIR
 10
0.0
 20
1.0
 30
0.0
  9
$USERI1
 70
     0
  9
$USERI2
 70
     0
  9
$USERI3
 70
     0
  9
$USERI4
 70
     0
  9
$USERI5
 70
     0
  9
$USERR1
 40
0.0
  9
$USERR2
 40
0.0
  9
$USERR3
 40
0.0
  9
$USERR4
 40
0.0
  9
$USERR5
 40
0.0
  9
$WORLDVIEW
 70
     1
  9
$SHADEDGE
 70
     3
  9
$SHADEDIF
 70
    70
  9
$TILEMODE
 70
     1
  9
$MAXACTVP
 70
    16
  9
$PLIMCHECK
 70
     0
  9
$PEXTMIN
 10
1.0000000000000000E+020
 20
1.0000000000000000E+020
 30
1.0000000000000000E+020
  9
$PEXTMAX
 10
-1.0000000000000000E+020
 20
-1.0000000000000000E+020
 30
-1.0000000000000000E+020
  9
$PLIMMIN
 10
0.0
 20
0.0
  9
$PLIMMAX
 10
12.0
 20
9.0
  9
$UNITMODE
 70
     0
  9
$VISRETAIN
 70
     0
  9
$PLINEGEN
 70
     0
  9
$PSLTSCALE
 70
     0
  0
ENDSEC
  0
SECTION
  2
TABLES
  0
TABLE
  2
VPORT
 70
     2
  0
VPORT
  2
*ACTIVE
 70
     0
 10
0.0
 20
0.0
 11
1.0
 21
1.0
 12
5181.0016482131014
 22
9030.0065181736736
 13
0.0
 23
0.0
 14
5.0
 24
5.0
 15
0.0
 25
0.0
 16
0.0
 26
0.0
 36
1.0
 17
0.0
 27
0.0
 37
0.0
 40
2975.1566567398718
 41
1.6307901907356941
 42
50.0
 43
0.0
 44
0.0
 50
0.0
 51
0.0
 71
     0
 72
   100
 73
     1
 74
     0
 75
     0
 76
     0
 77
     0
 78
     0
  0
ENDTAB
  0
TABLE
  2
LTYPE
 70
     4
  0
LTYPE
  2
CONTINUOUS
 70
     0
  3
Solid line
 72
    65
 73
     0
 40
0.0
  0
LTYPE
  2
CENTER
 70
     0
  3
____ _ ____ _ ____ _ ____ _ ____ _ ____ _ ____ 
 72
    65
 73
     4
 40
2.0
 49
1.25
 49
-0.25
 49
0.25
 49
-0.25
  0
LTYPE
  2
HIDDEN
 70
     0
  3
__ __ __ __ __ __ __ __ __ __ __ __ __ __ __ __
 72
    65
 73
     2
 40
0.375
 49
0.25
 49
-0.125
  0
LTYPE
  2
PHANTOM
 70
     0
  3
______  __  __  ______  __  __  ______  __  __ 
 72
    65
 73
     6
 40
2.5
 49
1.25
 49
-0.25
 49
0.25
 49
-0.25
 49
0.25
 49
-0.25
  0
ENDTAB
  0
TABLE
  2
LAYER
 70
     9
  0
LAYER
  2
0
 70
     0
 62
     7
  6
CONTINUOUS
  0
LAYER
  2
CT
 70
     0
 62
     3
  6
CENTER
  0
LAYER
  2
FUTO
 70
     0
 62
     4
  6
CONTINUOUS
  0
LAYER
  2
HOSO
 70
     0
 62
     7
  6
CONTINUOUS
  0
LAYER
  2
KL
 70
     0
 62
     7
  6
HIDDEN
  0
LAYER
  2
SL
 70
     0
 62
     1
  6
PHANTOM
  0
LAYER
  2
SP
 70
     0
 62
     2
  6
CONTINUOUS
  0
LAYER
  2
DEFPOINTS
 70
     0
 62
     7
  6
CONTINUOUS
  0
LAYER
  2
4
 70
     0
 62
     7
  6
CONTINUOUS
  0
ENDTAB
  0
TABLE
  2
STYLE
 70
     1
  0
STYLE
  2
STANDARD
 70
     0
 40
0.0
 41
1.0
 50
15.0
 71
     0
 42
3.5
  3
C:\Program Files\AutoCAD LT\simplex.shx
  4
C:\Program Files\AutoCAD LT\extfont.shx
  0
ENDTAB
  0
TABLE
  2
VIEW
 70
     0
  0
ENDTAB
  0
TABLE
  2
UCS
 70
     0
  0
ENDTAB
  0
TABLE
  2
APPID
 70
     1
  0
APPID
  2
ACAD
 70
     0
  0
ENDTAB
  0
TABLE
  2
DIMSTYLE
 70
     3
  0
DIMSTYLE
  2
STANDARD
 70
     0
  3

  4

  5

  6

  7

 40
1.0
 41
0.18
 42
0.0625
 43
0.38
 44
0.18
 45
0.0
 46
0.0
 47
0.0
 48
0.0
140
0.18
141
0.09
142
0.0
143
25.399999999999999
144
1.0
145
0.0
146
1.0
147
0.09
 71
     0
 72
     0
 73
     1
 74
     1
 75
     0
 76
     0
 77
     0
 78
     0
170
     0
171
     2
172
     0
173
     0
174
     0
175
     0
176
     0
177
     0
178
     0
  0
DIMSTYLE
  2
GOD
 70
     0
  3

  4

  5

  6
OPEN
  7
OPEN
 40
10.0
 41
2.5
 42
1.0
 43
7.0
 44
1.0
 45
0.0
 46
0.0
 47
0.0
 48
0.0
140
3.0
141
0.0
142
0.0
143
0.03937
144
1.0
145
0.0
146
1.0
147
1.0
 71
     0
 72
     0
 73
     0
 74
     0
 75
     0
 76
     0
 77
     1
 78
     8
170
     0
171
     2
172
     1
173
     1
174
     0
175
     0
176
   256
177
   256
178
   256
  0
DIMSTYLE
  2
IGA
 70
     0
  3

  4

  5

  6

  7

 40
1.0
 41
3.0
 42
0.5
 43
10.0
 44
1.0
 45
0.0
 46
0.0
 47
1.0
 48
1.0
140
3.0
141
0.0
142
0.0
143
0.039
144
1.0
145
0.0
146
10.0
147
1.0
 71
     0
 72
     0
 73
     0
 74
     0
 75
     0
 76
     0
 77
     1
 78
     8
170
     0
171
     2
172
     1
173
     1
174
     0
175
     0
176
     0
177
     0
178
     0
  0
ENDTAB
  0
ENDSEC
  0
SECTION
  2
BLOCKS
  0
BLOCK
  8
0
  2
$MODEL_SPACE
 70
     0
 10
0.0
 20
0.0
 30
0.0
  3
$MODEL_SPACE
  1

  0
ENDBLK
  5
1B
  8
0
  0
BLOCK
 67
     1
  8
0
  2
$PAPER_SPACE
 70
     0
 10
0.0
 20
0.0
 30
0.0
  3
$PAPER_SPACE
  1

  0
ENDBLK
  5
18
 67
     1
  8
0
  0
BLOCK
  8
0
  2
_OPEN
 70
     0
 10
0.0
 20
0.0
 30
0.0
  3
_OPEN
  1

  0
LINE
  5
1E81
  8
0
  6
BYBLOCK
 62
     0
 10
-1.0
 20
0.1666666666666666
 30
0.0
 11
0.0
 21
0.0
 31
0.0
  0
LINE
  5
1E82
  8
0
  6
BYBLOCK
 62
     0
 10
0.0
 20
0.0
 30
0.0
 11
-1.0
 21
-0.1666666666666666
 31
0.0
  0
LINE
  5
1E83
  8
0
  6
BYBLOCK
 62
     0
 10
0.0
 20
0.0
 30
0.0
 11
-1.0
 21
0.0
 31
0.0
  0
ENDBLK
  5
1E84
  8
0
  0
BLOCK
  8
0
  2
_DOT
 70
     0
 10
0.0
 20
0.0
 30
0.0
  3
_DOT
  1

  0
LINE
  5
9B41
  8
0
  6
BYBLOCK
 62
     0
 10
0.0
 20
0.0
 30
0.0
 11
-1.0
 21
-0.0000000000000284
 31
0.0
  0
POLYLINE
  5
9B42
  8
0
  6
BYBLOCK
 62
     0
 66
     1
 10
0.0
 20
0.0
 30
0.0
 70
     1
 40
0.1666666666666666
 41
0.1666666666666666
  0
VERTEX
  5
AAC8
  8
0
  6
BYBLOCK
 62
     0
 10
-0.0833333333333286
 20
-0.0000000000000284
 30
0.0
 42
1.0
  0
VERTEX
  5
AAC9
  8
0
  6
BYBLOCK
 62
     0
 10
0.0833333333333286
 20
-0.0000000000000284
 30
0.0
 42
1.0
  0
SEQEND
  5
AACA
  8
0
  6
BYBLOCK
 62
     0
  0
ENDBLK
  5
9B29
  8
0
  0
BLOCK
  8
0
  2
_NONE
 70
     0
 10
0.0
 20
0.0
 30
0.0
  3
_NONE
  1

  0
ENDBLK
  5
9B45
  8
0
  0
BLOCK
  8
0
  2
*D43
 70
     1
 10
0.0
 20
0.0
 30
0.0
  3
*D43
  1

  0
LINE
  5
A9C9
  8
SP
 10
5007.6905464520123
 20
8415.6918264264023
 30
0.0
 11
5007.6905464520123
 21
8275.6918264264041
 31
0.0
  0
LINE
  5
A9CA
  8
SP
 10
4727.6905464520141
 20
8415.6918264264023
 30
0.0
 11
4727.6905464520141
 21
8275.6918264264041
 31
0.0
  0
LINE
  5
A9CB
  8
SP
 10
4982.6905464520123
 20
8285.6918264264041
 30
0.0
 11
4752.6905464520141
 21
8285.6918264264041
 31
0.0
  0
INSERT
  5
A9CC
  8
SP
  2
_OPEN
 10
5007.6905464520123
 20
8285.6918264264041
 30
0.0
 41
25.0
 42
25.0
 43
25.0
  0
INSERT
  5
A9CD
  8
SP
  2
_OPEN
 10
4727.6905464520141
 20
8285.6918264264041
 30
0.0
 41
25.0
 42
25.0
 43
25.0
 50
180.0
  0
TEXT
  5
A9CE
  8
SP
 10
4826.5797348296346
 20
8295.6918264264041
 30
0.0
 40
30.0
  1
280
 51
15.0
  0
POINT
  5
A9CF
  8
DEFPOINTS
 62
     0
 10
5007.6905464520123
 20
8425.6918264264059
 30
0.0
  0
POINT
  5
A9D0
  8
DEFPOINTS
 62
     0
 10
4727.6905464520141
 20
8425.6918264264059
 30
0.0
  0
POINT
  5
A9D1
  8
DEFPOINTS
 62
     0
 10
4727.6905464520141
 20
8285.6918264264041
 30
0.0
  0
ENDBLK
  5
A81B
  8
0
  0
BLOCK
  8
0
  2
*D44
 70
     1
 10
0.0
 20
0.0
 30
0.0
  3
*D44
  1

  0
LINE
  5
A9F6
  8
SP
 10
4867.6905464520132
 20
8409.4921621083849
 30
0.0
 11
4867.6905464520132
 21
8345.6918264264004
 31
0.0
  0
LINE
  5
A9F7
  8
SP
 10
4727.6905464520078
 20
8415.6918264264023
 30
0.0
 11
4727.6905464520078
 21
8345.6918264264004
 31
0.0
  0
LINE
  5
A9F8
  8
SP
 10
4842.6905464520132
 20
8355.6918264264023
 30
0.0
 11
4752.6905464520087
 21
8355.6918264264023
 31
0.0
  0
INSERT
  5
A9F9
  8
SP
  2
_OPEN
 10
4867.6905464520132
 20
8355.6918264264023
 30
0.0
 41
25.0
 42
25.0
 43
25.0
  0
INSERT
  5
A9FA
  8
SP
  2
_OPEN
 10
4727.6905464520078
 20
8355.6918264264023
 30
0.0
 41
25.0
 42
25.0
 43
25.0
 50
180.0
  0
TEXT
  5
A9FB
  8
SP
 10
4756.1832089215413
 20
8365.6918264264023
 30
0.0
 40
30.0
  1
140
 51
15.0
  0
POINT
  5
A9FC
  8
DEFPOINTS
 62
     0
 10
4867.6905464520132
 20
8419.4921621083849
 30
0.0
  0
POINT
  5
A9FD
  8
DEFPOINTS
 62
     0
 10
4727.6905464520078
 20
8425.6918264264059
 30
0.0
  0
POINT
  5
A9FE
  8
DEFPOINTS
 62
     0
 10
4727.6905464520078
 20
8355.6918264264023
 30
0.0
  0
ENDBLK
  5
A827
  8
0
  0
BLOCK
  8
0
  2
*D45
 70
     1
 10
0.0
 20
0.0
 30
0.0
  3
*D45
  1

  0
LINE
  5
A9C0
  8
SP
 10
4727.6905464520132
 20
9325.5568834043552
 30
0.0
 11
4727.6905464520132
 21
9217.6101044228817
 31
0.0
  0
LINE
  5
A9C1
  8
SP
 10
5007.6905464520123
 20
9325.5568834043552
 30
0.0
 11
5007.6905464520123
 21
9217.6101044228817
 31
0.0
  0
LINE
  5
A9C2
  8
SP
 10
4752.6905464520132
 20
9227.6101044228835
 30
0.0
 11
4982.6905464520123
 21
9227.6101044228835
 31
0.0
  0
INSERT
  5
A9C3
  8
SP
  2
_OPEN
 10
4727.6905464520132
 20
9227.6101044228835
 30
0.0
 41
25.0
 42
25.0
 43
25.0
 50
180.0
  0
INSERT
  5
A9C4
  8
SP
  2
_OPEN
 10
5007.6905464520123
 20
9227.6101044228835
 30
0.0
 41
25.0
 42
25.0
 43
25.0
  0
TEXT
  5
A9C5
  8
SP
 10
4826.5797348296346
 20
9237.6101044228817
 30
0.0
 40
30.0
  1
280
 51
15.0
  0
POINT
  5
A9C6
  8
DEFPOINTS
 62
     0
 10
4727.6905464520132
 20
9335.5568834043552
 30
0.0
  0
POINT
  5
A9C7
  8
DEFPOINTS
 62
     0
 10
5007.6905464520123
 20
9335.5568834043552
 30
0.0
  0
POINT
  5
A9C8
  8
DEFPOINTS
 62
     0
 10
5007.6905464520123
 20
9227.6101044228835
 30
0.0
  0
ENDBLK
  5
A833
  8
0
  0
BLOCK
  8
0
  2
*D46
 70
     1
 10
0.0
 20
0.0
 30
0.0
  3
*D46
  1

  0
LINE
  5
AA1A
  8
SP
 10
4867.6905464520132
 20
8863.0468941200688
 30
0.0
 11
4867.6905464520132
 21
8910.9100392395649
 31
0.0
  0
LINE
  5
AA1B
  8
SP
 10
4737.6905464520141
 20
8739.6918264264023
 30
0.0
 11
4737.6905464520141
 21
8910.9100392395649
 31
0.0
  0
LINE
  5
AA1C
  8
SP
 10
4842.6905464520132
 20
8900.9100392395649
 30
0.0
 11
4762.6905464520132
 21
8900.9100392395649
 31
0.0
  0
INSERT
  5
AA1D
  8
SP
  2
_OPEN
 10
4867.6905464520132
 20
8900.9100392395649
 30
0.0
 41
25.0
 42
25.0
 43
25.0
  0
INSERT
  5
AA1E
  8
SP
  2
_OPEN
 10
4737.6905464520141
 20
8900.9100392395649
 30
0.0
 41
25.0
 42
25.0
 43
25.0
 50
180.0
  0
TEXT
  5
AA1F
  8
SP
 10
4761.1832089215432
 20
8910.9100392395649
 30
0.0
 40
30.0
  1
130
 51
15.0
  0
POINT
  5
AA20
  8
DEFPOINTS
 62
     0
 10
4867.6905464520132
 20
8853.0468941200688
 30
0.0
  0
POINT
  5
AA21
  8
DEFPOINTS
 62
     0
 10
4737.6905464520141
 20
8729.6918264264004
 30
0.0
  0
POINT
  5
AA22
  8
DEFPOINTS
 62
     0
 10
4737.6905464520141
 20
8900.9100392395649
 30
0.0
  0
ENDBLK
  5
A83F
  8
0
  0
BLOCK
  8
0
  2
*D47
 70
     1
 10
0.0
 20
0.0
 30
0.0
  3
*D47
  1

  0
LINE
  5
AA08
  8
SP
 10
4703.4513612058454
 20
8707.6918264264023
 30
0.0
 11
4587.6905464520132
 21
8707.6918264264023
 31
0.0
  0
LINE
  5
AA09
  8
SP
 10
4866.6905464520123
 20
8819.6918264264023
 30
0.0
 11
4587.6905464520132
 21
8819.6918264264023
 31
0.0
  0
LINE
  5
AA0A
  8
SP
 10
4597.6905464520132
 20
8732.6918264264004
 30
0.0
 11
4597.6905464520132
 21
8794.6918264264023
 31
0.0
  0
INSERT
  5
AA0B
  8
SP
  2
_OPEN
 10
4597.6905464520132
 20
8707.6918264264023
 30
0.0
 41
25.0
 42
25.0
 43
25.0
 50
270.0
  0
INSERT
  5
AA0C
  8
SP
  2
_OPEN
 10
4597.6905464520132
 20
8819.6918264264023
 30
0.0
 41
25.0
 42
25.0
 43
25.0
 50
90.0
  0
TEXT
  5
AA0D
  8
SP
 10
4587.6905464520114
 20
8725.0416317530762
 30
0.0
 40
30.0
  1
112
 50
90.0
 51
15.0
  0
POINT
  5
AA0E
  8
DEFPOINTS
 62
     0
 10
4713.4513612058436
 20
8707.6918264264023
 30
0.0
  0
POINT
  5
AA0F
  8
DEFPOINTS
 62
     0
 10
4876.6905464520123
 20
8819.6918264264023
 30
0.0
  0
POINT
  5
AA10
  8
DEFPOINTS
 62
     0
 10
4597.6905464520132
 20
8819.6918264264023
 30
0.0
  0
ENDBLK
  5
A84B
  8
0
  0
BLOCK
  8
0
  2
*D48
 70
     1
 10
0.0
 20
0.0
 30
0.0
  3
*D48
  1

  0
LINE
  5
AACB
  8
SP
 10
4717.6905464520141
 20
8507.6918264264023
 30
0.0
 11
4587.6905464520132
 21
8507.6918264264023
 31
0.0
  0
LINE
  5
AACC
  8
SP
 10
4717.6905464520123
 20
8485.6918264264023
 30
0.0
 11
4587.6905464520132
 21
8485.6918264264023
 31
0.0
  0
LINE
  5
AACD
  8
SP
 10
4597.6905464520132
 20
8507.6918264264023
 30
0.0
 11
4597.6905464520132
 21
8485.6918264264023
 31
0.0
  0
TEXT
  8
0
  40
30
  5
AAD2
  72
0
  71
0
 10
4502.37
 20
8435.49
 30
0.000000
  1
（22）
  0
POINT
  5
AACF
  8
DEFPOINTS
 62
     0
 10
4727.6905464520141
 20
8507.6918264264023
 30
0.0
  0
POINT
  5
AAD0
  8
DEFPOINTS
 62
     0
 10
4727.6905464520123
 20
8485.6918264264023
 30
0.0
  0
POINT
  5
AAD1
  8
DEFPOINTS
 62
     0
 10
4597.6905464520132
 20
8485.6918264264023
 30
0.0
  0
ENDBLK
  5
A855
  8
0
  0
BLOCK
  8
0
  2
*D49
 70
     1
 10
0.0
 20
0.0
 30
0.0
  3
*D49
  1

  0
LINE
  5
AAB6
  8
SP
 10
4717.6905464520123
 20
8485.6918264264023
 30
0.0
 11
4587.6905464520132
 21
8485.6918264264023
 31
0.0
  0
LINE
  5
AAB7
  8
SP
 10
4717.6905464520141
 20
8425.6918264264059
 30
0.0
 11
4587.6905464520132
 21
8425.6918264264059
 31
0.0
  0
LINE
  5
AAB8
  8
SP
 10
4597.6905464520132
 20
8510.6918264264041
 30
0.0
 11
4597.6905464520132
 21
8535.6918264264041
 31
0.0
  0
LINE
  5
AAB9
  8
SP
 10
4597.6905464520132
 20
8400.6918264264041
 30
0.0
 11
4597.6905464520132
 21
8304.6185568634955
 31
0.0
  0
LINE
  5
AABA
  8
SP
 10
4597.6905464520132
 20
8485.6918264264023
 30
0.0
 11
4597.6905464520132
 21
8425.6918264264059
 31
0.0
  0
INSERT
  5
AABB
  8
SP
  2
_DOT
 10
4597.6905464520132
 20
8485.6918264264023
 30
0.0
 41
25.0
 42
25.0
 43
25.0
 50
270.0
  0
INSERT
  5
AABC
  8
SP
  2
_OPEN
 10
4597.6905464520132
 20
8425.6918264264059
 30
0.0
 41
25.0
 42
25.0
 43
25.0
 50
90.0
  0
TEXT
  5
AABD
  8
SP
 10
4587.6905464520114
 20
8312.041631753078
 30
0.0
 40
30.0
  1
60
 50
90.0
 51
15.0
  0
POINT
  5
AABE
  8
DEFPOINTS
 62
     0
 10
4727.6905464520123
 20
8485.6918264264023
 30
0.0
  0
POINT
  5
AABF
  8
DEFPOINTS
 62
     0
 10
4727.6905464520141
 20
8425.6918264264059
 30
0.0
  0
POINT
  5
AAC0
  8
DEFPOINTS
 62
     0
 10
4597.6905464520132
 20
8425.6918264264059
 30
0.0
  0
ENDBLK
  5
A863
  8
0
  0
BLOCK
  8
0
  2
*D50
 70
     1
 10
0.0
 20
0.0
 30
0.0
  3
*D50
  1

  0
LINE
  5
A9FF
  8
SP
 10
4717.6905464520132
 20
8507.6918264264023
 30
0.0
 11
4587.6905464520132
 21
8507.6918264264023
 31
0.0
  0
LINE
  5
AA00
  8
SP
 10
4703.4513612058454
 20
8707.6918264264023
 30
0.0
 11
4587.6905464520132
 21
8707.6918264264023
 31
0.0
  0
LINE
  5
AA01
  8
SP
 10
4597.6905464520132
 20
8532.6918264264023
 30
0.0
 11
4597.6905464520132
 21
8682.6918264264023
 31
0.0
  0
INSERT
  5
AA02
  8
SP
  2
_OPEN
 10
4597.6905464520132
 20
8507.6918264264023
 30
0.0
 41
25.0
 42
25.0
 43
25.0
 50
270.0
  0
INSERT
  5
AA03
  8
SP
  2
_OPEN
 10
4597.6905464520132
 20
8707.6918264264023
 30
0.0
 41
25.0
 42
25.0
 43
25.0
 50
90.0
  0
TEXT
  5
AA04
  8
SP
 10
4587.6905464520114
 20
8566.5810148040255
 30
0.0
 40
30.0
  1
200
 50
90.0
 51
15.0
  0
POINT
  5
AA05
  8
DEFPOINTS
 62
     0
 10
4727.6905464520132
 20
8507.6918264264023
 30
0.0
  0
POINT
  5
AA06
  8
DEFPOINTS
 62
     0
 10
4713.4513612058436
 20
8707.6918264264023
 30
0.0
  0
POINT
  5
AA07
  8
DEFPOINTS
 62
     0
 10
4597.6905464520132
 20
8707.6918264264023
 30
0.0
  0
ENDBLK
  5
A86F
  8
0
  0
BLOCK
  8
0
  2
*D51
 70
     1
 10
0.0
 20
0.0
 30
0.0
  3
*D51
  1

  0
LINE
  5
AA11
  8
SP
 10
4727.6905464520132
 20
8547.6918264264023
 30
0.0
 11
4657.6905464520132
 21
8547.6918264264023
 31
0.0
  0
LINE
  5
AA12
  8
SP
 10
4703.4513612058454
 20
8707.6918264264023
 30
0.0
 11
4657.6905464520132
 21
8707.6918264264023
 31
0.0
  0
LINE
  5
AA13
  8
SP
 10
4667.6905464520132
 20
8572.6918264264023
 30
0.0
 11
4667.6905464520132
 21
8682.6918264264023
 31
0.0
  0
INSERT
  5
AA14
  8
SP
  2
_OPEN
 10
4667.6905464520132
 20
8547.6918264264023
 30
0.0
 41
25.0
 42
25.0
 43
25.0
 50
270.0
  0
INSERT
  5
AA15
  8
SP
  2
_OPEN
 10
4667.6905464520132
 20
8707.6918264264023
 30
0.0
 41
25.0
 42
25.0
 43
25.0
 50
90.0
  0
TEXT
  5
AA16
  8
SP
 10
4657.6905464520123
 20
8586.1844888959331
 30
0.0
 40
30.0
  1
160
 50
90.0
 51
15.0
  0
POINT
  5
AA17
  8
DEFPOINTS
 62
     0
 10
4737.6905464520141
 20
8547.6918264264023
 30
0.0
  0
POINT
  5
AA18
  8
DEFPOINTS
 62
     0
 10
4713.4513612058436
 20
8707.6918264264023
 30
0.0
  0
POINT
  5
AA19
  8
DEFPOINTS
 62
     0
 10
4667.6905464520132
 20
8707.6918264264023
 30
0.0
  0
ENDBLK
  5
A87B
  8
0
  0
BLOCK
  8
0
  2
*D52
 70
     1
 10
0.0
 20
0.0
 30
0.0
  3
*D52
  1

  0
LINE
  5
AA2E
  8
SP
 10
5394.3316009829123
 20
8415.6918264264004
 30
0.0
 11
5394.3316009829123
 21
8275.6918264264041
 31
0.0
  0
LINE
  5
AA2F
  8
SP
 10
5627.3316009829132
 20
8506.1034680744651
 30
0.0
 11
5627.3316009829132
 21
8275.6918264264041
 31
0.0
  0
LINE
  5
AA30
  8
SP
 10
5419.3316009829123
 20
8285.6918264264041
 30
0.0
 11
5602.3316009829123
 21
8285.6918264264041
 31
0.0
  0
INSERT
  5
AA31
  8
SP
  2
_OPEN
 10
5394.3316009829123
 20
8285.6918264264041
 30
0.0
 41
25.0
 42
25.0
 43
25.0
 50
180.0
  0
INSERT
  5
AA32
  8
SP
  2
_OPEN
 10
5627.3316009829132
 20
8285.6918264264041
 30
0.0
 41
25.0
 42
25.0
 43
25.0
  0
TEXT
  5
AA33
  8
SP
 10
5468.9552202393024
 20
8295.6918264264041
 30
0.0
 40
30.0
  1
233
 51
15.0
  0
POINT
  5
AA34
  8
DEFPOINTS
 62
     0
 10
5394.3316009829123
 20
8425.6918264264023
 30
0.0
  0
POINT
  5
AA35
  8
DEFPOINTS
 62
     0
 10
5627.3316009829132
 20
8516.1034680744651
 30
0.0
  0
POINT
  5
AA36
  8
DEFPOINTS
 62
     0
 10
5627.3316009829132
 20
8285.6918264264041
 30
0.0
  0
ENDBLK
  5
A887
  8
0
  0
BLOCK
  8
0
  2
*D53
 70
     1
 10
0.0
 20
0.0
 30
0.0
  3
*D53
  1

  0
LINE
  5
AA23
  8
SP
 10
5564.3316009829123
 20
8415.6918264264004
 30
0.0
 11
5564.3316009829123
 21
8345.6918264264004
 31
0.0
  0
LINE
  5
AA24
  8
SP
 10
5627.3316009829132
 20
8506.1034680744651
 30
0.0
 11
5627.3316009829132
 21
8345.6918264264004
 31
0.0
  0
LINE
  5
AA25
  8
SP
 10
5539.3316009829123
 20
8355.6918264264023
 30
0.0
 11
5514.3316009829123
 21
8355.6918264264023
 31
0.0
  0
LINE
  5
AA26
  8
SP
 10
5652.3316009829123
 20
8355.6918264264023
 30
0.0
 11
5749.9360087882842
 21
8355.6918264264023
 31
0.0
  0
LINE
  5
AA27
  8
SP
 10
5564.3316009829123
 20
8355.6918264264023
 30
0.0
 11
5627.3316009829132
 21
8355.6918264264023
 31
0.0
  0
INSERT
  5
AA28
  8
SP
  2
_OPEN
 10
5564.3316009829123
 20
8355.6918264264023
 30
0.0
 41
25.0
 42
25.0
 43
25.0
  0
INSERT
  5
AA29
  8
SP
  2
_OPEN
 10
5627.3316009829132
 20
8355.6918264264023
 30
0.0
 41
25.0
 42
25.0
 43
25.0
 50
180.0
  0
TEXT
  5
AA2A
  8
SP
 10
5684.754675872493
 20
8365.6918264264023
 30
0.0
 40
30.0
  1
63
 51
15.0
  0
POINT
  5
AA2B
  8
DEFPOINTS
 62
     0
 10
5564.3316009829123
 20
8425.6918264264023
 30
0.0
  0
POINT
  5
AA2C
  8
DEFPOINTS
 62
     0
 10
5627.3316009829132
 20
8516.1034680744651
 30
0.0
  0
POINT
  5
AA2D
  8
DEFPOINTS
 62
     0
 10
5627.3316009829132
 20
8355.6918264264023
 30
0.0
  0
ENDBLK
  5
A895
  8
0
  0
BLOCK
  8
0
  2
*D54
 70
     1
 10
0.0
 20
0.0
 30
0.0
  3
*D54
  1

  0
LINE
  5
A9DB
  8
SP
 10
4867.6905464520132
 20
8409.4921621083849
 30
0.0
 11
4867.6905464520132
 21
8345.6918264264004
 31
0.0
  0
LINE
  5
A9DC
  8
SP
 10
5007.6905464520123
 20
8415.6918264264023
 30
0.0
 11
5007.6905464520123
 21
8345.6918264264004
 31
0.0
  0
LINE
  5
A9DD
  8
SP
 10
4892.6905464520132
 20
8355.6918264264023
 30
0.0
 11
4982.6905464520123
 21
8355.6918264264023
 31
0.0
  0
INSERT
  5
A9DE
  8
SP
  2
_OPEN
 10
4867.6905464520132
 20
8355.6918264264023
 30
0.0
 41
25.0
 42
25.0
 43
25.0
 50
180.0
  0
INSERT
  5
A9DF
  8
SP
  2
_OPEN
 10
5007.6905464520123
 20
8355.6918264264023
 30
0.0
 41
25.0
 42
25.0
 43
25.0
  0
TEXT
  5
A9E0
  8
SP
 10
4896.1832089215432
 20
8365.6918264264023
 30
0.0
 40
30.0
  1
140
 51
15.0
  0
POINT
  5
A9E1
  8
DEFPOINTS
 62
     0
 10
4867.6905464520132
 20
8419.4921621083849
 30
0.0
  0
POINT
  5
A9E2
  8
DEFPOINTS
 62
     0
 10
5007.6905464520123
 20
8425.6918264264059
 30
0.0
  0
POINT
  5
A9E3
  8
DEFPOINTS
 62
     0
 10
5007.6905464520123
 20
8355.6918264264023
 30
0.0
  0
ENDBLK
  5
A8A1
  8
0
  0
BLOCK
  8
0
  2
*D55
 70
     1
 10
0.0
 20
0.0
 30
0.0
  3
*D55
  1

  0
LINE
  5
AA37
  8
SP
 10
5564.3316009829123
 20
8415.6918264264004
 30
0.0
 11
5564.3316009829123
 21
8345.6918264264004
 31
0.0
  0
LINE
  5
AA38
  8
SP
 10
5394.3316009829123
 20
8415.6918264264004
 30
0.0
 11
5394.3316009829123
 21
8345.6918264264004
 31
0.0
  0
LINE
  5
AA39
  8
SP
 10
5539.3316009829123
 20
8355.6918264264023
 30
0.0
 11
5419.3316009829123
 21
8355.6918264264023
 31
0.0
  0
INSERT
  5
AA3A
  8
SP
  2
_OPEN
 10
5564.3316009829123
 20
8355.6918264264023
 30
0.0
 41
25.0
 42
25.0
 43
25.0
  0
INSERT
  5
AA3B
  8
SP
  2
_OPEN
 10
5394.3316009829123
 20
8355.6918264264023
 30
0.0
 41
25.0
 42
25.0
 43
25.0
 50
180.0
  0
TEXT
  5
AA3C
  8
SP
 10
5437.8242634524422
 20
8365.6918264264023
 30
0.0
 40
30.0
  1
170
 51
15.0
  0
POINT
  5
AA3D
  8
DEFPOINTS
 62
     0
 10
5564.3316009829123
 20
8425.6918264264023
 30
0.0
  0
POINT
  5
AA3E
  8
DEFPOINTS
 62
     0
 10
5394.3316009829123
 20
8425.6918264264023
 30
0.0
  0
POINT
  5
AA3F
  8
DEFPOINTS
 62
     0
 10
5394.3316009829123
 20
8355.6918264264023
 30
0.0
  0
ENDBLK
  5
A8AD
  8
0
  0
BLOCK
  8
0
  2
*D56
 70
     1
 10
0.0
 20
0.0
 30
0.0
  3
*D56
  1

  0
LINE
  5
AA52
  8
SP
 10
5017.6905464520123
 20
9505.5568834043552
 30
0.0
 11
5107.8192408913992
 21
9505.5568834043552
 31
0.0
  0
LINE
  5
AA53
  8
SP
 10
5043.4334757135757
 20
9568.5568834043552
 30
0.0
 11
5107.8192408913992
 21
9568.5568834043552
 31
0.0
  0
LINE
  5
AA54
  8
SP
 10
5097.8192408913992
 20
9480.5568834043552
 30
0.0
 11
5097.8192408913992
 21
9455.5568834043552
 31
0.0
  0
LINE
  5
AA55
  8
SP
 10
5097.8192408913992
 20
9593.5568834043552
 30
0.0
 11
5097.8192408913992
 21
9691.1612912097262
 31
0.0
  0
LINE
  5
AA56
  8
SP
 10
5097.8192408913992
 20
9505.5568834043552
 30
0.0
 11
5097.8192408913992
 21
9568.5568834043552
 31
0.0
  0
INSERT
  5
AA57
  8
SP
  2
_OPEN
 10
5097.8192408913992
 20
9505.5568834043552
 30
0.0
 41
25.0
 42
25.0
 43
25.0
 50
90.0
  0
INSERT
  5
AA58
  8
SP
  2
_OPEN
 10
5097.8192408913992
 20
9568.5568834043552
 30
0.0
 41
25.0
 42
25.0
 43
25.0
 50
270.0
  0
TEXT
  5
AA59
  8
SP
 10
5087.8192408913983
 20
9625.9799582939395
 30
0.0
 40
30.0
  1
63
 50
90.0
 51
15.0
  0
POINT
  5
AA5A
  8
DEFPOINTS
 62
     0
 10
5007.6905464520123
 20
9505.5568834043552
 30
0.0
  0
POINT
  5
AA5B
  8
DEFPOINTS
 62
     0
 10
5033.4334757135748
 20
9568.5568834043552
 30
0.0
  0
POINT
  5
AA5C
  8
DEFPOINTS
 62
     0
 10
5097.8192408913992
 20
9568.5568834043552
 30
0.0
  0
ENDBLK
  5
A8BB
  8
0
  0
BLOCK
  8
0
  2
*D57
 70
     1
 10
0.0
 20
0.0
 30
0.0
  3
*D57
  1

  0
LINE
  5
AA49
  8
SP
 10
5017.6905464520123
 20
9335.5568834043552
 30
0.0
 11
5107.8192408913992
 21
9335.5568834043552
 31
0.0
  0
LINE
  5
AA4A
  8
SP
 10
5017.6905464520123
 20
9505.5568834043552
 30
0.0
 11
5107.8192408913992
 21
9505.5568834043552
 31
0.0
  0
LINE
  5
AA4B
  8
SP
 10
5097.8192408913992
 20
9360.5568834043534
 30
0.0
 11
5097.8192408913992
 21
9480.5568834043552
 31
0.0
  0
INSERT
  5
AA4C
  8
SP
  2
_OPEN
 10
5097.8192408913992
 20
9335.5568834043552
 30
0.0
 41
25.0
 42
25.0
 43
25.0
 50
270.0
  0
INSERT
  5
AA4D
  8
SP
  2
_OPEN
 10
5097.8192408913992
 20
9505.5568834043552
 30
0.0
 41
25.0
 42
25.0
 43
25.0
 50
90.0
  0
TEXT
  5
AA4E
  8
SP
 10
5087.8192408913983
 20
9379.049545873886
 30
0.0
 40
30.0
  1
170
 50
90.0
 51
15.0
  0
POINT
  5
AA4F
  8
DEFPOINTS
 62
     0
 10
5007.6905464520123
 20
9335.5568834043552
 30
0.0
  0
POINT
  5
AA50
  8
DEFPOINTS
 62
     0
 10
5007.6905464520123
 20
9505.5568834043552
 30
0.0
  0
POINT
  5
AA51
  8
DEFPOINTS
 62
     0
 10
5097.8192408913992
 20
9505.5568834043552
 30
0.0
  0
ENDBLK
  5
A8C7
  8
0
  0
BLOCK
  8
0
  2
*D58
 70
     1
 10
0.0
 20
0.0
 30
0.0
  3
*D58
  1

  0
LINE
  5
A9D2
  8
SP
 10
4867.6905464520132
 20
8863.0468941200688
 30
0.0
 11
4867.6905464520132
 21
8910.9100392395649
 31
0.0
  0
LINE
  5
A9D3
  8
SP
 10
5001.686835352094
 20
8705.736359625429
 30
0.0
 11
5001.686835352094
 21
8910.9100392395649
 31
0.0
  0
LINE
  5
A9D4
  8
SP
 10
4892.6905464520132
 20
8900.9100392395649
 30
0.0
 11
4976.686835352094
 21
8900.9100392395649
 31
0.0
  0
INSERT
  5
A9D5
  8
SP
  2
_OPEN
 10
4867.6905464520132
 20
8900.9100392395649
 30
0.0
 41
25.0
 42
25.0
 43
25.0
 50
180.0
  0
INSERT
  5
A9D6
  8
SP
  2
_OPEN
 10
5001.686835352094
 20
8900.9100392395649
 30
0.0
 41
25.0
 42
25.0
 43
25.0
  0
TEXT
  5
A9D7
  8
SP
 10
4893.6667047460924
 20
8910.9100392395649
 30
0.0
 40
30.0
  1
134
 51
15.0
  0
POINT
  5
A9D8
  8
DEFPOINTS
 62
     0
 10
4867.6905464520132
 20
8853.0468941200688
 30
0.0
  0
POINT
  5
A9D9
  8
DEFPOINTS
 62
     0
 10
5001.686835352094
 20
8695.7363596254309
 30
0.0
  0
POINT
  5
A9DA
  8
DEFPOINTS
 62
     0
 10
5001.686835352094
 20
8900.9100392395649
 30
0.0
  0
ENDBLK
  5
A8D3
  8
0
  0
BLOCK
  8
0
  2
*D59
 70
     1
 10
0.0
 20
0.0
 30
0.0
  3
*D59
  1

  0
LINE
  5
AA66
  8
SP
 10
5627.3316009829132
 20
8957.6918264264023
 30
0.0
 11
5627.3316009829132
 21
8981.0918264264019
 31
0.0
  0
LINE
  5
AA67
  8
SP
 10
5690.3316009829132
 20
8815.6918264264023
 30
0.0
 11
5690.3316009829132
 21
8981.0918264264019
 31
0.0
  0
LINE
  5
AA68
  8
SP
 10
5602.3316009829132
 20
8971.0918264264019
 30
0.0
 11
5577.3316009829132
 21
8971.0918264264019
 31
0.0
  0
LINE
  5
AA69
  8
SP
 10
5715.3316009829141
 20
8971.0918264264019
 30
0.0
 11
5812.9360087882851
 21
8971.0918264264019
 31
0.0
  0
LINE
  5
AA6A
  8
SP
 10
5627.3316009829132
 20
8971.0918264264019
 30
0.0
 11
5690.3316009829132
 21
8971.0918264264019
 31
0.0
  0
INSERT
  5
AA6B
  8
SP
  2
_OPEN
 10
5627.3316009829132
 20
8971.0918264264019
 30
0.0
 41
25.0
 42
25.0
 43
25.0
  0
INSERT
  5
AA6C
  8
SP
  2
_OPEN
 10
5690.3316009829132
 20
8971.0918264264019
 30
0.0
 41
25.0
 42
25.0
 43
25.0
 50
180.0
  0
TEXT
  5
AA6D
  8
SP
 10
5747.7546758724939
 20
8981.0918264264019
 30
0.0
 40
30.0
  1
63
 51
15.0
  0
POINT
  5
AA6E
  8
DEFPOINTS
 62
     0
 10
5627.3316009829132
 20
8947.6918264264023
 30
0.0
  0
POINT
  5
AA6F
  8
DEFPOINTS
 62
     0
 10
5690.3316009829132
 20
8805.6918264264023
 30
0.0
  0
POINT
  5
AA70
  8
DEFPOINTS
 62
     0
 10
5690.3316009829132
 20
8971.0918264264019
 30
0.0
  0
ENDBLK
  5
A8E1
  8
0
  0
BLOCK
  8
0
  2
*D60
 70
     1
 10
0.0
 20
0.0
 30
0.0
  3
*D60
  1

  0
LINE
  5
AA40
  8
SP
 10
5627.3316009829132
 20
8957.6918264264023
 30
0.0
 11
5627.3316009829132
 21
8981.0918264264019
 31
0.0
  0
LINE
  5
AA41
  8
SP
 10
5366.3848220014397
 20
8774.2561264264023
 30
0.0
 11
5366.3848220014397
 21
8981.0918264264019
 31
0.0
  0
LINE
  5
AA42
  8
SP
 10
5602.3316009829132
 20
8971.0918264264019
 30
0.0
 11
5391.3848220014397
 21
8971.0918264264019
 31
0.0
  0
INSERT
  5
AA43
  8
SP
  2
_OPEN
 10
5627.3316009829132
 20
8971.0918264264019
 30
0.0
 41
25.0
 42
25.0
 43
25.0
  0
INSERT
  5
AA44
  8
SP
  2
_OPEN
 10
5366.3848220014397
 20
8971.0918264264019
 30
0.0
 41
25.0
 42
25.0
 43
25.0
 50
180.0
  0
TEXT
  5
AA45
  8
SP
 10
5429.9485097517772
 20
8981.0918264264019
 30
0.0
 40
30.0
  1
（330）
 51
15.0
  0
POINT
  5
AA46
  8
DEFPOINTS
 62
     0
 10
5627.3316009829132
 20
8947.6918264264023
 30
0.0
  0
POINT
  5
AA47
  8
DEFPOINTS
 62
     0
 10
5366.3848220014397
 20
8764.2561264264004
 30
0.0
  0
POINT
  5
AA48
  8
DEFPOINTS
 62
     0
 10
5366.3848220014397
 20
8971.0918264264019
 30
0.0
  0
ENDBLK
  5
A8ED
  8
0
  0
BLOCK
  8
0
  2
*D61
 70
     1
 10
0.0
 20
0.0
 30
0.0
  3
*D61
  1

  0
LINE
  5
AA5D
  8
SP
 10
5571.3316009829132
 20
8831.6918264264023
 30
0.0
 11
5571.3316009829132
 21
8911.0918264264019
 31
0.0
  0
LINE
  5
AA5E
  8
SP
 10
5683.3316009829114
 20
8831.6918264264023
 30
0.0
 11
5683.3316009829114
 21
8911.0918264264019
 31
0.0
  0
LINE
  5
AA5F
  8
SP
 10
5596.3316009829141
 20
8901.0918264264019
 30
0.0
 11
5658.3316009829114
 21
8901.0918264264019
 31
0.0
  0
INSERT
  5
AA60
  8
SP
  2
_OPEN
 10
5571.3316009829132
 20
8901.0918264264019
 30
0.0
 41
25.0
 42
25.0
 43
25.0
 50
180.0
  0
INSERT
  5
AA61
  8
SP
  2
_OPEN
 10
5683.3316009829114
 20
8901.0918264264019
 30
0.0
 41
25.0
 42
25.0
 43
25.0
  0
TEXT
  5
AA62
  8
SP
 10
5588.6814063095862
 20
8911.0918264264019
 30
0.0
 40
30.0
  1
112
 51
15.0
  0
POINT
  5
AA63
  8
DEFPOINTS
 62
     0
 10
5571.3316009829132
 20
8821.6918264264023
 30
0.0
  0
POINT
  5
AA64
  8
DEFPOINTS
 62
     0
 10
5683.3316009829114
 20
8821.6918264264023
 30
0.0
  0
POINT
  5
AA65
  8
DEFPOINTS
 62
     0
 10
5683.3316009829114
 20
8901.0918264264019
 30
0.0
  0
ENDBLK
  5
A8F9
  8
0
  0
BLOCK
  8
0
  2
*D62
 70
     1
 10
0.0
 20
0.0
 30
0.0
  3
*D62
  1

  0
LINE
  5
AA71
  8
SP
 10
5700.3316009829132
 20
8787.6918264264004
 30
0.0
 11
5783.442895596505
 21
8787.6918264264004
 31
0.0
  0
LINE
  5
AA72
  8
SP
 10
5700.3316009829123
 20
8627.6918264264023
 30
0.0
 11
5783.442895596505
 21
8627.6918264264023
 31
0.0
  0
LINE
  5
AA73
  8
SP
 10
5773.442895596505
 20
8762.6918264264023
 30
0.0
 11
5773.442895596505
 21
8652.6918264264023
 31
0.0
  0
INSERT
  5
AA74
  8
SP
  2
_OPEN
 10
5773.442895596505
 20
8787.6918264264004
 30
0.0
 41
25.0
 42
25.0
 43
25.0
 50
90.0
  0
INSERT
  5
AA75
  8
SP
  2
_OPEN
 10
5773.442895596505
 20
8627.6918264264023
 30
0.0
 41
25.0
 42
25.0
 43
25.0
 50
270.0
  0
TEXT
  5
AA76
  8
SP
 10
5763.4428955965041
 20
8655.7779036233242
 30
0.0
 40
30.0
  1
φ160
 50
90.0
 51
15.0
  0
POINT
  5
AA77
  8
DEFPOINTS
 62
     0
 10
5690.3316009829132
 20
8787.6918264264004
 30
0.0
  0
POINT
  5
AA78
  8
DEFPOINTS
 62
     0
 10
5690.3316009829123
 20
8627.6918264264023
 30
0.0
  0
POINT
  5
AA79
  8
DEFPOINTS
 62
     0
 10
5773.442895596505
 20
8627.6918264264023
 30
0.0
  0
ENDBLK
  5
A905
  8
0
  0
ENDSEC
  0
SECTION
  2
ENTITIES
  0
LINE
  5
8D03
  8
4
 10
6230.9309986409498
 20
10505.219059589719
 30
0.0
 11
6230.9309986409498
 21
7555.2190595897273
 31
0.0
  0
LINE
  5
8D04
  8
4
 10
4130.9309986409498
 20
7555.2190595897273
 30
0.0
 11
4130.9309986409498
 21
10505.219059589719
 31
0.0
  0
LINE
  5
8D06
  8
4
 10
4580.9309986409498
 20
8055.2190595897273
 30
0.0
 11
5780.9309986409498
 21
8055.2190595897273
 31
0.0
  0
LINE
  5
8D07
  8
4
 10
4580.9309986409498
 20
7955.2190595897273
 30
0.0
 11
5780.9309986409498
 21
7955.2190595897273
 31
0.0
  0
LINE
  5
8D08
  8
4
 10
4580.9309986409498
 20
7855.2190595897273
 30
0.0
 11
5780.9309986409498
 21
7855.2190595897273
 31
0.0
  0
TEXT
  5
8D0A
  8
4
 10
5108.6097441286147
 20
7977.790828547295
 30
0.0
 40
50.0
  1
ミツヤ多翼送風機
  0
LINE
  5
8D0B
  8
4
 10
6230.9309986409498
 20
7555.2190595897273
 30
0.0
 11
4130.9309986409498
 21
7555.2190595897273
 31
0.0
  0
TEXT
  5
8D0D
  8
4
 10
4617.1891046657474
 20
7876.8642163217382
 30
0.0
 40
50.0
  1
機器型番
  0
TEXT
  5
8D0E
  8
4
 10
4619.4330794878506
 20
7986.7620854563402
 30
0.0
 40
50.0
  1
機器名称
  0
LINE
  5
8D0F
  8
4
 10
4580.9309986409498
 20
8055.2190595897273
 30
0.0
 11
4580.9309986409498
 21
7855.2190595897246
 31
0.0
  0
TEXT
  5
8D10
  8
4
 10
5117.5854942264314
 20
7872.3786438696698
 30
0.0
 40
50.0
  1
MF＃1-7
  0
LINE
  5
8D11
  8
4
 10
5080.9309986409498
 20
8055.2190595897273
 30
0.0
 11
5080.9309986409498
 21
7855.2190595897246
 31
0.0
  0
LINE
  5
8D12
  8
4
 10
5780.9309986409498
 20
8055.2190595897273
 30
0.0
 11
5780.9309986409498
 21
7855.2190595897246
 31
0.0
  0
LINE
  5
8D13
  8
4
 10
4380.9309986409498
 20
10224.627813854529
 30
0.0
 11
5980.9309986409498
 21
10224.627813854529
 31
0.0
  0
LINE
  5
8D14
  8
4
 10
4380.9309986409498
 20
10024.627813854529
 30
0.0
 11
5980.9309986409498
 21
10024.627813854529
 31
0.0
  0
TEXT
  5
8D15
  8
4
 10
4618.9939025858093
 20
10089.100035789021
 30
0.0
 40
72.0
  1
遠心式片吸込直動形多翼ファン
  0
LINE
  5
8D16
  8
4
 10
4130.9309986409498
 20
10505.219059589719
 30
0.0
 11
6230.9309986409498
 21
10505.219059589719
 31
0.0
  0
LINE
  5
8D17
  8
4
 10
4380.9309986409498
 20
10224.627813854529
 30
0.0
 11
4380.9309986409498
 21
10024.627813854529
 31
0.0
  0
TEXT
  5
8D18
  8
4
 10
4423.0938202614634
 20
9937.5385371360699
 30
0.0
 40
53.999999999999993
  1
右回転左横向
  0
LINE
  5
8D1A
  8
4
 10
5980.9309986409498
 20
10224.627813854529
 30
0.0
 11
5980.9309986409498
 21
10024.627813854529
 31
0.0
  0
TEXT
  5
8D1B
  8
4
 10
5557.5037485348421
 20
9938.6479009222421
 30
0.0
 40
53.999999999999993
  1
縮尺：1/10
  0
LINE
  5
8D1C
  8
4
 10
5980.9309986409498
 20
10236.48264271512
 30
0.0
 11
5571.5484210008144
 21
10236.48264271512
 31
0.0
  0
LINE
  5
8D1D
  8
4
 10
5571.5484210008144
 20
10341.87132113947
 30
0.0
 11
5980.9309986409498
 21
10341.87132113947
 31
0.0
  0
TEXT
  5
8D1E
  8
4
 10
5599.9005578902397
 20
10261.28014108503
 30
0.0
 40
56.000000000000007
  1
No.
  0
LINE
  5
8D1F
  8
4
 10
5571.5484210008144
 20
10236.48264271512
 30
0.0
 11
5571.5484210008144
 21
10341.87132113947
 31
0.0
  0
LINE
  5
8D20
  8
4
 10
5980.9309986409498
 20
10341.87132113947
 30
0.0
 11
5980.9309986409498
 21
10236.48264271512
 31
0.0
  0
LINE
  5
8D21
  8
4
 10
6230.9309986409498
 20
10505.219059589719
 30
0.0
 11
6230.9309986409498
 21
10505.219059589719
 31
0.0
  0
TEXT
  5
A3BA
  8
4
 10
4939.5760057186017
 20
9936.0858066657147
 30
0.0
 40
53.999999999999993
  1
床置防振ベッド型
  0
LINE
  5
A6A3
  8
FUTO
 10
4754.4905464520161
 20
8485.6918264264023
 30
0.0
 11
4980.8905464520103
 21
8485.6918264264023
 31
0.0
  0
LINE
  5
A6A4
  8
FUTO
 10
4757.690546452016
 20
8455.6918264264041
 30
0.0
 11
4977.6905464520114
 21
8455.6918264264041
 31
0.0
  0
LINE
  5
A6A5
  8
FUTO
 10
4757.6842903365496
 20
8482.6918264264023
 30
0.0
 11
4977.696802567476
 21
8482.6918264264023
 31
0.0
  0
DIMENSION
  5
A6A6
  8
SP
  2
*D43
 10
4727.6905464520141
 20
8285.6918264264041
 30
0.0
 11
4867.6905464520132
 21
8310.6918264264041
 31
0.0
 70
     0
 13
5007.6905464520123
 23
8425.6918264264059
 33
0.0
 14
4727.6905464520141
 24
8425.6918264264059
 34
0.0
 50
180.0
  0
DIMENSION
  5
A6A7
  8
SP
  2
*D44
 10
4727.6905464520078
 20
8355.6918264264023
 30
0.0
 11
4797.6905464520114
 21
8380.6918264264023
 31
0.0
 70
     0
 13
4867.6905464520132
 23
8419.4921621083849
 33
0.0
 14
4727.6905464520078
 24
8425.6918264264059
 34
0.0
 50
180.0
  0
DIMENSION
  5
A6A8
  8
SP
  2
*D45
 10
5007.6905464520123
 20
9227.6101044228835
 30
0.0
 11
4867.6905464520132
 21
9252.6101044228835
 31
0.0
 70
     0
 13
4727.6905464520132
 23
9335.5568834043552
 33
0.0
 14
5007.6905464520123
 24
9335.5568834043552
 34
0.0
  0
LINE
  5
A6A9
  8
FUTO
 10
4806.1983606211888
 20
9329.5568834043552
 30
0.0
 11
4757.6905464520132
 21
9329.5568834043552
 31
0.0
  0
LINE
  5
A6AA
  8
FUTO
 10
4977.6905464520132
 20
9503.3568834043563
 30
0.0
 11
4757.6905464520141
 21
9503.3568834043563
 31
0.0
  0
LINE
  5
A6AB
  8
FUTO
 10
4977.6905464520132
 20
9504.9568834043548
 30
0.0
 11
4757.6905464520132
 21
9504.9568834043566
 31
0.0
  0
LINE
  5
A6AC
  8
CT
 10
4940.034044576616
 20
9416.5568834043552
 30
0.0
 11
4792.9145445766153
 21
9416.5568834043552
 31
0.0
  0
LINE
  5
A6AD
  8
CT
 10
5033.4334757135748
 20
9568.5568834043552
 30
0.0
 11
4701.9476171904507
 21
9568.5568834043552
 31
0.0
  0
LINE
  5
A6AE
  8
FUTO
 10
5007.9133526219148
 20
9624.2988332056921
 30
0.0
 11
4738.6905464520132
 21
9624.2988332056921
 31
0.0
  0
LINE
  5
A6AF
  8
FUTO
 10
5008.020850095173
 20
9624.8988332056924
 30
0.0
 11
4738.6905464520141
 21
9624.8988332056924
 31
0.0
  0
LINE
  5
A6B0
  8
FUTO
 10
5005.086473293567
 20
9511.6988332056935
 30
0.0
 11
4738.6905464520141
 21
9511.6988332056935
 31
0.0
  0
LINE
  5
A6B1
  8
FUTO
 10
5005.086473293567
 20
9512.2988332056921
 30
0.0
 11
4738.6905464520141
 21
9512.2988332056921
 31
0.0
  0
DIMENSION
  5
A6B2
  8
SP
  2
*D46
 10
4737.6905464520141
 20
8900.9100392395649
 30
0.0
 11
4802.6905464520132
 21
8925.9100392395667
 31
0.0
 70
     0
 13
4867.6905464520132
 23
8853.0468941200688
 33
0.0
 14
4737.6905464520141
 24
8729.6918264264004
 34
0.0
  0
DIMENSION
  5
A6B3
  8
SP
  2
*D47
 10
4597.6905464520132
 20
8819.6918264264023
 30
0.0
 11
4572.6905464520123
 21
8763.6918264264041
 31
0.0
 70
     0
 13
4713.4513612058436
 23
8707.6918264264023
 33
0.0
 14
4876.6905464520123
 24
8819.6918264264023
 34
0.0
 50
90.0
  0
LINE
  5
A6B4
  8
FUTO
 10
4752.6905464520132
 20
8535.6918264264023
 30
0.0
 11
4854.6905464520141
 21
8535.6918264264023
 31
0.0
  0
LINE
  5
A6B5
  8
FUTO
 10
4737.6905464520141
 20
8547.6918264264023
 30
0.0
 11
4854.6905464520141
 21
8547.6918264264023
 31
0.0
  0
LINE
  5
A6B6
  8
FUTO
 10
4773.914501883768
 20
8644.6918264264023
 30
0.0
 11
4807.6905464520132
 21
8626.2918264264026
 31
0.0
  0
LINE
  5
A6B7
  8
FUTO
 10
4757.6905464520141
 20
8737.6918264264023
 30
0.0
 11
4832.6905464520132
 21
8812.6918264264023
 31
0.0
  0
LINE
  5
A6B8
  8
FUTO
 10
4972.890546452013
 20
8644.6918264264023
 30
0.0
 11
4762.4905464520134
 21
8644.6918264264023
 31
0.0
  0
CIRCLE
  5
A6B9
  8
CT
 10
4867.6905464520132
 20
8707.6918264264023
 30
0.0
 40
90.0
  0
ARC
  5
A6BA
  8
FUTO
 10
4876.6905464520123
 20
8716.6918264264023
 30
0.0
 40
115.0
 50
89.468385237766483
 51
175.73439108430571
  0
ARC
  5
A6BB
  8
FUTO
 10
4876.6905464520123
 20
8716.6918264264023
 30
0.0
 40
103.0
 50
89.468385237766483
 51
175.73439108430571
  0
LINE
  5
A6BC
  8
CT
 10
4713.4513612058436
 20
8707.6918264264023
 30
0.0
 11
5024.5517620769424
 21
8707.6918264264023
 31
0.0
  0
DIMENSION
  5
A6BD
  8
SP
  2
*D48
 10
4597.6905464520132
 20
8485.6918264264023
 30
0.0
 11
4562.369791749762
 21
8488.5871358296172
 31
0.0
 70
   128
 13
4727.6905464520141
 23
8507.6918264264023
 33
0.0
 14
4727.6905464520123
 24
8485.6918264264023
 34
0.0
 50
90.0
1001
ACAD
1000
DSTYLE
1002
{
1070
   287
1070
     5
1070
     3
1000
（<>）
1070
   279
1070
     2
1070
   289
1070
     3
1070
     6
1000
NONE
1070
     7
1000
NONE
1002
}
  0
DIMENSION
  5
A6BE
  8
SP
  2
*D49
 10
4597.6905464520132
 20
8425.6918264264059
 30
0.0
 11
4572.6905464520123
 21
8340.1551916449516
 31
0.0
 70
     0
 13
4727.6905464520123
 23
8485.6918264264023
 33
0.0
 14
4727.6905464520141
 24
8425.6918264264059
 34
0.0
 50
90.0
1001
ACAD
1000
DSTYLE
1002
{
1070
     6
1000
DOT
1002
}
  0
DIMENSION
  5
A6BF
  8
SP
  2
*D50
 10
4597.6905464520132
 20
8707.6918264264023
 30
0.0
 11
4572.6905464520123
 21
8607.6918264264023
 31
0.0
 70
     0
 13
4727.6905464520132
 23
8507.6918264264023
 33
0.0
 14
4713.4513612058436
 24
8707.6918264264023
 34
0.0
 50
90.0
  0
LINE
  5
A6C0
  8
CT
 10
4740.6905464520141
 20
8474.1947516359887
 30
0.0
 11
4740.6905464520141
 21
8516.7159705109625
 31
0.0
  0
ARC
  5
A6C1
  8
FUTO
 10
4756.0905464520129
 20
8510.891826426403
 30
0.0
 40
3.2000000000000002
 50
270.0
 51
0.0
  0
ARC
  5
A6C2
  8
FUTO
 10
4756.6905464520141
 20
8510.2918264264026
 30
0.0
 40
1.0
 50
270.0
 51
0.0
  0
LINE
  5
A6C3
  8
FUTO
 10
4754.4905464520161
 20
8485.6918264264023
 30
0.0
 11
4727.6905464520123
 21
8485.6918264264023
 31
0.0
  0
LINE
  5
A6C4
  8
FUTO
 10
4754.4905464520134
 20
8425.6918264264023
 30
0.0
 11
4727.6905464520078
 21
8425.6918264264059
 31
0.0
  0
LINE
  5
A6C5
  8
FUTO
 10
4754.390546452014
 20
8427.9918264264015
 30
0.0
 11
4727.6905464520078
 21
8427.9918264264052
 31
0.0
  0
LINE
  5
A6C6
  8
FUTO
 10
4754.3905464520149
 20
8483.391826426403
 30
0.0
 11
4727.6905464520123
 21
8483.3918264264048
 31
0.0
  0
LINE
  5
A6C7
  8
FUTO
 10
4756.6905464520141
 20
8509.2918264264026
 30
0.0
 11
4727.6905464520141
 21
8509.2918264264026
 31
0.0
  0
LINE
  5
A6C8
  8
FUTO
 10
4756.0905464520129
 20
8507.6918264264023
 30
0.0
 11
4727.6905464520141
 21
8507.6918264264023
 31
0.0
  0
LINE
  5
A6C9
  8
FUTO
 10
4727.6905464520141
 20
8485.6918264264023
 30
0.0
 11
4727.6905464520141
 21
8483.3918264264066
 31
0.0
  0
LINE
  5
A6CA
  8
FUTO
 10
4727.6905464520141
 20
8427.9918264264052
 30
0.0
 11
4727.6905464520141
 21
8425.6918264264059
 31
0.0
  0
LINE
  5
A6CB
  8
FUTO
 10
4727.6905464520141
 20
8507.6918264264023
 30
0.0
 11
4727.6905464520141
 21
8509.2918264264026
 31
0.0
  0
LINE
  5
A6CC
  8
FUTO
 10
4757.690546452016
 20
8482.4918264264033
 30
0.0
 11
4757.6905464520141
 21
8428.891826426403
 31
0.0
  0
LINE
  5
A6CD
  8
FUTO
 10
4755.3905464520149
 20
8482.3918264264048
 30
0.0
 11
4755.390546452014
 21
8428.9918264264015
 31
0.0
  0
ARC
  5
A6CE
  8
FUTO
 10
4754.4905464520134
 20
8428.891826426403
 30
0.0
 40
3.2000000000000002
 50
270.0
 51
0.0
  0
ARC
  5
A6CF
  8
FUTO
 10
4754.4905464520161
 20
8482.4918264264033
 30
0.0
 40
3.2000000000000002
 50
0.0
 51
90.0
  0
ARC
  5
A6D0
  8
FUTO
 10
4754.3905464520149
 20
8482.3918264264048
 30
0.0
 40
1.0
 50
0.0
 51
90.0
  0
ARC
  5
A6D1
  8
FUTO
 10
4754.390546452014
 20
8428.9918264264015
 30
0.0
 40
1.0
 50
270.0
 51
0.0
  0
ARC
  5
A6D2
  8
FUTO
 10
4759.2905464520127
 20
8507.6918264264023
 30
0.0
 40
3.0
 50
179.88050910641491
 51
180.0
  0
LINE
  5
A6D3
  8
FUTO
 10
4757.6905464520132
 20
9329.5568834043552
 30
0.0
 11
4757.6905464520132
 21
9505.5568834043552
 31
0.0
  0
DIMENSION
  5
A6D4
  8
SP
  2
*D51
 10
4667.6905464520132
 20
8707.6918264264023
 30
0.0
 11
4642.6905464520123
 21
8627.6918264264059
 31
0.0
 70
     0
 13
4737.6905464520141
 23
8547.6918264264023
 33
0.0
 14
4713.4513612058436
 24
8707.6918264264023
 34
0.0
 50
90.0
  0
LINE
  5
A6D5
  8
CT
 10
4730.5057008735803
 20
8535.6918264264023
 30
0.0
 11
4747.066860240845
 21
8535.6918264264023
 31
0.0
  0
LINE
  5
A6D6
  8
CT
 10
4730.5057008735803
 20
8719.6918264264023
 30
0.0
 11
4748.3743197436124
 21
8719.6918264264023
 31
0.0
  0
ARC
  5
A6D7
  8
FUTO
 10
4756.0257214200255
 20
8725.6918264264041
 30
0.0
 40
18.0
 50
275.30688733629478
 51
355.7343910843058
  0
ARC
  5
A6D8
  8
FUTO
 10
4762.6905464520123
 20
8711.1460329694291
 30
0.0
 40
10.0
 50
120.0000000000103
 51
180.0
  0
LINE
  5
A6D9
  8
FUTO
 10
4737.6905464520141
 20
8525.6918264264023
 30
0.0
 11
4737.6905464520141
 21
8729.6918264264004
 31
0.0
  0
LINE
  5
A6DA
  8
FUTO
 10
4738.6905464520132
 20
8544.6918264264023
 30
0.0
 11
4738.6905464520132
 21
8729.6918264264004
 31
0.0
  0
LINE
  5
A6DB
  8
FUTO
 10
4757.6905464520141
 20
8510.2295419344919
 30
0.0
 11
4757.6905464520141
 21
8737.6918264264023
 31
0.0
  0
LINE
  5
A6DC
  8
FUTO
 10
4759.2905464520127
 20
8510.6918264264023
 30
0.0
 11
4759.2905464520127
 21
8739.2918264264026
 31
0.0
  0
LINE
  5
A6DD
  8
FUTO
 10
4776.8515492375282
 20
8643.0918264264037
 30
0.0
 11
4762.4905464520134
 21
8643.0918264264037
 31
0.0
  0
LINE
  5
A6DE
  8
CT
 10
4768.5247590708468
 20
8572.8918264264048
 30
0.0
 11
4749.0505574602867
 21
8572.8918264264048
 31
0.0
  0
LINE
  5
A6DF
  8
CT
 10
4768.5247590708468
 20
8627.8918264264048
 30
0.0
 11
4749.0505574602867
 21
8627.8918264264048
 31
0.0
  0
LINE
  5
A6E0
  8
FUTO
 10
4738.6905464520132
 20
8525.6918264264023
 30
0.0
 11
4738.6905464520132
 21
8544.6918264264023
 31
0.0
  0
LINE
  5
A6E1
  8
FUTO
 10
4737.6905464520141
 20
8525.6918264264023
 30
0.0
 11
4738.6905464520132
 21
8525.6918264264023
 31
0.0
  0
LINE
  5
A6E2
  8
FUTO
 10
4740.6905464520141
 20
8546.6918264264023
 30
0.0
 11
4752.6905464520132
 21
8546.6918264264023
 31
0.0
  0
LINE
  5
A6E3
  8
FUTO
 10
4741.1047600143856
 20
8550.1060399887756
 30
0.0
 11
4752.6905464520132
 21
8561.6918264264023
 31
0.0
  0
LINE
  5
A6E4
  8
FUTO
 10
4752.6905464520132
 20
8535.6918264264023
 30
0.0
 11
4752.6905464520132
 21
8547.6918264264023
 31
0.0
  0
ARC
  5
A6E5
  8
FUTO
 10
4742.518973576759
 20
8548.6918264264023
 30
0.0
 40
2.0
 50
135.0
 51
270.0
  0
ARC
  5
A6E6
  8
FUTO
 10
4740.6905464520123
 20
8544.6918264264023
 30
0.0
 40
2.0
 50
90.0
 51
180.0
  0
LINE
  5
A6E7
  8
FUTO
 10
4741.1047600143856
 20
8705.2776128640326
 30
0.0
 11
4752.6905464520132
 21
8693.6918264264023
 31
0.0
  0
LINE
  5
A6E8
  8
FUTO
 10
4740.6905464520141
 20
8708.6918264264023
 30
0.0
 11
4752.6905464520132
 21
8708.6918264264023
 31
0.0
  0
LINE
  5
A6E9
  8
FUTO
 10
4752.6905464520132
 20
8707.6918264264023
 30
0.0
 11
4752.6905464520132
 21
8711.1460329694291
 31
0.0
  0
ARC
  5
A6EA
  8
FUTO
 10
4742.518973576759
 20
8706.6918264264059
 30
0.0
 40
2.0
 50
90.0
 51
225.0
  0
ARC
  5
A6EB
  8
FUTO
 10
4740.6905464520123
 20
8710.6918264264023
 30
0.0
 40
2.0
 50
180.0
 51
270.0
  0
ARC
  5
A6EC
  8
FUTO
 10
4756.0257214200255
 20
8725.6918264264041
 30
0.0
 40
18.0
 50
270.0
 51
275.30688733629478
  0
LINE
  5
A6ED
  8
FUTO
 10
4752.6905464520132
 20
8561.6918264264023
 30
0.0
 11
4752.6905464520132
 21
8693.6918264264023
 31
0.0
  0
LINE
  5
A6EE
  8
FUTO
 10
4759.2905464520127
 20
8558.891826426403
 30
0.0
 11
4759.2905464520127
 21
8642.4918264264015
 31
0.0
  0
ARC
  5
A6EF
  8
FUTO
 10
4762.4905464520134
 20
8641.4918264264015
 30
0.0
 40
1.6000000000000001
 50
90.0
 51
180.0
  0
ARC
  5
A6F0
  8
FUTO
 10
4762.4905464520134
 20
8641.4918264264015
 30
0.0
 40
3.2000000000000002
 50
90.0
 51
180.0
  0
LINE
  5
A6F1
  8
FUTO
 10
4759.2905464520136
 20
8557.8918264264048
 30
0.0
 11
4760.890546452014
 21
8557.8918264264048
 31
0.0
  0
LINE
  5
A6F2
  8
FUTO
 10
4760.890546452014
 20
8557.8918264264048
 30
0.0
 11
4760.890546452014
 21
8641.4918264264015
 31
0.0
  0
CIRCLE
  5
A6F3
  8
FUTO
 10
4784.5413885259968
 20
8673.2503175135462
 30
0.0
 40
4.0
  0
LINE
  5
A6F4
  8
CT
 10
4776.226472733395
 20
8669.8061666222602
 30
0.0
 11
4792.8563043186005
 21
8676.6944684048322
 31
0.0
  0
LINE
  5
A6F5
  8
FUTO
 10
4737.6905464520141
 20
8729.6918264264004
 30
0.0
 11
4738.6905464520132
 21
8729.6918264264004
 31
0.0
  0
ARC
  5
A6F6
  8
FUTO
 10
4756.0257214200255
 20
8725.6918264264041
 30
0.0
 40
6.0
 50
294.61706395546952
 51
355.7343910843058
  0
ARC
  5
A6F7
  8
FUTO
 10
4762.6905464520123
 20
8711.1460329694291
 30
0.0
 40
10.0
 50
114.6170639554695
 51
120.0000000000103
  0
LINE
  5
A6F8
  8
CT
 10
4776.226472733395
 20
8745.5774862305461
 30
0.0
 11
4792.8563043186005
 21
8738.6891844479742
 31
0.0
  0
CIRCLE
  5
A6F9
  8
FUTO
 10
4784.5413885259968
 20
8742.133335339262
 30
0.0
 40
4.0
  0
LINE
  5
A6FA
  8
CT
 10
4750.6905464520132
 20
9485.5568834043534
 30
0.0
 11
4730.6905464520141
 21
9485.5568834043534
 31
0.0
  0
LINE
  5
A6FB
  8
FUTO
 10
4727.6905464520132
 20
9505.5568834043552
 30
0.0
 11
4757.6905464520132
 21
9505.5568834043552
 31
0.0
  0
LINE
  5
A6FC
  8
CT
 10
4750.6905464520132
 20
9355.5568834043552
 30
0.0
 11
4730.6905464520141
 21
9355.5568834043552
 31
0.0
  0
LINE
  5
A6FD
  8
FUTO
 10
4757.6905464520132
 20
9335.5568834043552
 30
0.0
 11
4727.6905464520132
 21
9335.5568834043552
 31
0.0
  0
LINE
  5
A6FE
  8
FUTO
 10
4727.6905464520132
 20
9505.5568834043552
 30
0.0
 11
4727.6905464520132
 21
9335.5568834043552
 31
0.0
  0
LINE
  5
A6FF
  8
FUTO
 10
4752.6905464520141
 20
9526.1426698419855
 30
0.0
 11
4752.6905464520141
 21
9610.9710969667249
 31
0.0
  0
LINE
  5
A700
  8
FUTO
 10
4737.6905464520141
 20
9645.5568834043552
 30
0.0
 11
4737.6905464520141
 21
9491.5568834043552
 31
0.0
  0
LINE
  5
A701
  8
FUTO
 10
4738.6905464520141
 20
9645.5568834043534
 30
0.0
 11
4738.6905464520141
 21
9491.5568834043552
 31
0.0
  0
LINE
  5
A702
  8
FUTO
 10
4757.6905464520132
 20
9504.9568834043548
 30
0.0
 11
4757.6905464520132
 21
9503.3568834043563
 31
0.0
  0
CIRCLE
  5
A703
  8
FUTO
 10
4740.6905464520141
 20
9485.5568834043534
 30
0.0
 40
6.0
  0
LINE
  5
A704
  8
CT
 10
4740.6905464520141
 20
9495.5568834043534
 30
0.0
 11
4740.6905464520141
 21
9475.5568834043552
 31
0.0
  0
CIRCLE
  5
A705
  8
FUTO
 10
4740.6905464520141
 20
9355.5568834043552
 30
0.0
 40
6.0
  0
LINE
  5
A706
  8
CT
 10
4740.6905464520141
 20
9365.5568834043552
 30
0.0
 11
4740.6905464520141
 21
9345.5568834043534
 31
0.0
  0
LINE
  5
A707
  8
FUTO
 10
4737.6905464520141
 20
9491.5568834043552
 30
0.0
 11
4738.6905464520141
 21
9491.5568834043552
 31
0.0
  0
LINE
  5
A708
  8
CT
 10
4733.1869925446363
 20
9501.5568834043534
 30
0.0
 11
4743.1941003593911
 21
9501.5568834043534
 31
0.0
  0
LINE
  5
A709
  8
FUTO
 10
4741.1047600143856
 20
9514.5568834043534
 30
0.0
 11
4741.1047600143856
 21
9512.5568834043552
 31
0.0
  0
LINE
  5
A70A
  8
FUTO
 10
4741.1047600143856
 20
9514.5568834043534
 30
0.0
 11
4752.6905464520141
 21
9526.1426698419837
 31
0.0
  0
LINE
  5
A70B
  8
CT
 10
4777.6905464520132
 20
9498.3732101073529
 30
0.0
 11
4777.6905464520132
 21
9509.3462306273432
 31
0.0
  0
LINE
  5
A70C
  8
FUTO
 10
4767.6905464520132
 20
9506.9568834043548
 30
0.0
 11
4767.6905464520132
 21
9511.9568834043548
 31
0.0
  0
ARC
  5
A70D
  8
FUTO
 10
4769.6905464520141
 20
9506.9568834043548
 30
0.0
 40
2.0
 50
180.0
 51
270.0
  0
LINE
  5
A70E
  8
FUTO
 10
4737.6905464520141
 20
9645.5568834043552
 30
0.0
 11
4738.6905464520141
 21
9645.5568834043534
 31
0.0
  0
LINE
  5
A70F
  8
CT
 10
4733.1869925446363
 20
9635.5568834043552
 30
0.0
 11
4743.1941003593911
 21
9635.5568834043552
 31
0.0
  0
LINE
  5
A710
  8
FUTO
 10
4741.1047600143856
 20
9622.556883404357
 30
0.0
 11
4741.1047600143856
 21
9624.5568834043552
 31
0.0
  0
LINE
  5
A711
  8
FUTO
 10
4741.1047600143856
 20
9622.556883404357
 30
0.0
 11
4752.6905464520141
 21
9610.9710969667249
 31
0.0
  0
DIMENSION
  5
A712
  8
SP
  2
*D52
 10
5627.3316009829132
 20
8285.6918264264041
 30
0.0
 11
5510.8316009829123
 21
8310.6918264264041
 31
0.0
 70
     0
 13
5394.3316009829123
 23
8425.6918264264023
 33
0.0
 14
5627.3316009829132
 24
8516.1034680744651
 34
0.0
  0
DIMENSION
  5
A713
  8
SP
  2
*D53
 10
5627.3316009829132
 20
8355.6918264264023
 30
0.0
 11
5713.6338048855969
 21
8380.6918264264023
 31
0.0
 70
     0
 13
5564.3316009829123
 23
8425.6918264264023
 33
0.0
 14
5627.3316009829132
 24
8516.1034680744651
 34
0.0
  0
LINE
  5
A714
  8
FUTO
 10
5564.3316009829141
 20
8812.6918264264023
 30
0.0
 11
5564.3316009829141
 21
8507.6918264264023
 31
0.0
  0
LINE
  5
A715
  8
FUTO
 10
5562.7316009829128
 20
8812.6918264264023
 30
0.0
 11
5562.7316009829128
 21
8507.6918264264023
 31
0.0
  0
LINE
  5
A716
  8
FUTO
 10
5394.3316009829132
 20
8509.2918264264026
 30
0.0
 11
5504.3316009829132
 21
8680.891826426403
 31
0.0
  0
LINE
  5
A717
  8
CT
 10
4994.6905464520132
 20
8474.1947516359887
 30
0.0
 11
4994.6905464520132
 21
8516.7159705109625
 31
0.0
  0
ARC
  5
A718
  8
FUTO
 10
4978.6905464520132
 20
8510.2918264264026
 30
0.0
 40
1.0
 50
180.0
 51
270.0
  0
ARC
  5
A719
  8
FUTO
 10
4979.2905464520127
 20
8510.891826426403
 30
0.0
 40
3.2000000000000002
 50
180.0
 51
270.0
  0
LINE
  5
A71A
  8
CT
 10
4867.6905464520132
 20
8853.0468941200688
 30
0.0
 11
4867.6905464520132
 21
8419.4921621083849
 31
0.0
  0
DIMENSION
  5
A71B
  8
SP
  2
*D54
 10
5007.6905464520123
 20
8355.6918264264023
 30
0.0
 11
4937.6905464520141
 21
8380.6918264264023
 31
0.0
 70
     0
 13
4867.6905464520132
 23
8419.4921621083849
 33
0.0
 14
5007.6905464520123
 24
8425.6918264264059
 34
0.0
 50
180.0
  0
LINE
  5
A71C
  8
FUTO
 10
4980.9905464520107
 20
8483.391826426403
 30
0.0
 11
5007.6905464520141
 21
8483.3918264264048
 31
0.0
  0
LINE
  5
A71D
  8
FUTO
 10
4980.9905464520116
 20
8427.9918264264015
 30
0.0
 11
5007.6905464520178
 21
8427.9918264264052
 31
0.0
  0
LINE
  5
A71E
  8
FUTO
 10
4980.890546452013
 20
8425.6918264264023
 30
0.0
 11
5007.6905464520178
 21
8425.6918264264059
 31
0.0
  0
LINE
  5
A71F
  8
FUTO
 10
4980.8905464520103
 20
8485.6918264264023
 30
0.0
 11
5007.6905464520141
 21
8485.6918264264023
 31
0.0
  0
LINE
  5
A720
  8
FUTO
 10
4979.2905464520127
 20
8507.6918264264023
 30
0.0
 11
5007.6905464520132
 21
8507.6918264264023
 31
0.0
  0
LINE
  5
A721
  8
FUTO
 10
4978.6905464520132
 20
8509.2918264264026
 30
0.0
 11
5007.6905464520132
 21
8509.2918264264026
 31
0.0
  0
ARC
  5
A722
  8
FUTO
 10
4980.9905464520116
 20
8428.9918264264015
 30
0.0
 40
1.0
 50
180.0
 51
270.0
  0
ARC
  5
A723
  8
FUTO
 10
4980.9905464520107
 20
8482.3918264264048
 30
0.0
 40
1.0
 50
90.0
 51
180.0
  0
ARC
  5
A724
  8
FUTO
 10
4980.8905464520103
 20
8482.4918264264033
 30
0.0
 40
3.2000000000000002
 50
90.0
 51
180.0
  0
ARC
  5
A725
  8
FUTO
 10
4980.890546452013
 20
8428.891826426403
 30
0.0
 40
3.2000000000000002
 50
180.0
 51
270.0
  0
LINE
  5
A726
  8
FUTO
 10
4979.9905464520107
 20
8482.3918264264048
 30
0.0
 11
4979.9905464520116
 21
8428.9918264264015
 31
0.0
  0
LINE
  5
A727
  8
FUTO
 10
4977.6905464520096
 20
8482.4918264264033
 30
0.0
 11
4977.6905464520132
 21
8428.891826426403
 31
0.0
  0
LINE
  5
A728
  8
FUTO
 10
5007.6905464520123
 20
8427.9918264264052
 30
0.0
 11
5007.6905464520123
 21
8425.6918264264059
 31
0.0
  0
LINE
  5
A729
  8
FUTO
 10
5007.6905464520123
 20
8485.6918264264023
 30
0.0
 11
5007.6905464520123
 21
8483.3918264264066
 31
0.0
  0
LINE
  5
A72A
  8
FUTO
 10
5007.6905464520132
 20
8507.6918264264023
 30
0.0
 11
5007.6905464520132
 21
8509.2918264264026
 31
0.0
  0
LINE
  5
A72B
  8
FUTO
 10
5564.3316009829123
 20
8485.6918264264023
 30
0.0
 11
5394.3316009829123
 21
8485.6918264264023
 31
0.0
  0
LINE
  5
A72C
  8
FUTO
 10
5564.3316009829123
 20
8425.6918264264023
 30
0.0
 11
5394.3316009829123
 21
8425.6918264264023
 31
0.0
  0
DIMENSION
  5
A72D
  8
SP
  2
*D55
 10
5394.3316009829123
 20
8355.6918264264023
 30
0.0
 11
5479.3316009829132
 21
8380.6918264264023
 31
0.0
 70
     0
 13
5564.3316009829123
 23
8425.6918264264023
 33
0.0
 14
5394.3316009829123
 24
8425.6918264264023
 34
0.0
  0
LINE
  5
A72E
  8
FUTO
 10
5564.3316009829123
 20
8483.391826426403
 30
0.0
 11
5394.3316009829123
 21
8483.391826426403
 31
0.0
  0
LINE
  5
A72F
  8
FUTO
 10
5564.3316009829123
 20
8427.9918264264015
 30
0.0
 11
5394.3316009829123
 21
8427.9918264264015
 31
0.0
  0
LINE
  5
A730
  8
FUTO
 10
5562.7316009829128
 20
8509.2918264264026
 30
0.0
 11
5394.3316009829132
 21
8509.2918264264026
 31
0.0
  0
LINE
  5
A731
  8
FUTO
 10
5564.3316009829141
 20
8507.6918264264023
 30
0.0
 11
5394.3316009829132
 21
8507.6918264264023
 31
0.0
  0
LINE
  5
A732
  8
FUTO
 10
5394.3316009829123
 20
8485.6918264264023
 30
0.0
 11
5394.3316009829123
 21
8425.6918264264023
 31
0.0
  0
LINE
  5
A733
  8
FUTO
 10
5394.3316009829132
 20
8509.2918264264026
 30
0.0
 11
5394.3316009829132
 21
8507.6918264264023
 31
0.0
  0
LINE
  5
A734
  8
FUTO
 10
5564.3316009829123
 20
8485.6918264264023
 30
0.0
 11
5564.3316009829123
 21
8425.6918264264023
 31
0.0
  0
LINE
  5
A735
  8
CT
 10
5322.1364612480893
 20
8707.6918264264023
 30
0.0
 11
5721.1024686801566
 21
8707.6918264264023
 31
0.0
  0
DIMENSION
  5
A736
  8
SP
  2
*D56
 10
5097.8192408913992
 20
9568.5568834043552
 30
0.0
 11
5072.8192408913983
 21
9654.8590873070425
 31
0.0
 70
     0
 13
5007.6905464520123
 23
9505.5568834043552
 33
0.0
 14
5033.4334757135748
 24
9568.5568834043552
 34
0.0
 50
90.0
  0
DIMENSION
  5
A737
  8
SP
  2
*D57
 10
5097.8192408913992
 20
9505.5568834043552
 30
0.0
 11
5072.8192408913983
 21
9420.556883404357
 31
0.0
 70
     0
 13
5007.6905464520123
 23
9335.5568834043552
 33
0.0
 14
5007.6905464520123
 24
9505.5568834043552
 34
0.0
 50
90.0
  0
LINE
  5
A738
  8
FUTO
 10
4977.6905464520132
 20
9329.5568834043552
 30
0.0
 11
4977.6905464520132
 21
9505.5568834043552
 31
0.0
  0
LINE
  5
A739
  8
FUTO
 10
4930.7933709699018
 20
9337.6101044228835
 30
0.0
 11
4924.9541678720607
 21
9308.4139889336293
 31
0.0
  0
LINE
  5
A73A
  8
FUTO
 10
4804.5877219341246
 20
9337.6101044228817
 30
0.0
 11
4810.4269250319649
 21
9308.4139889336293
 31
0.0
  0
LINE
  5
A73B
  8
CT
 10
4867.6905464520132
 20
9680.5482392766935
 30
0.0
 11
4867.6905464520132
 21
9280.3614562703715
 31
0.0
  0
LINE
  5
A73C
  8
FUTO
 10
4977.6905464520132
 20
9329.5568834043552
 30
0.0
 11
4929.1827322828367
 21
9329.5568834043552
 31
0.0
  0
DIMENSION
  5
A73D
  8
SP
  2
*D58
 10
5001.686835352094
 20
8900.9100392395649
 30
0.0
 11
4934.6886909020541
 21
8925.9100392395667
 31
0.0
 70
     0
 13
4867.6905464520132
 23
8853.0468941200688
 33
0.0
 14
5001.686835352094
 24
8695.7363596254309
 34
0.0
  0
LINE
  5
A73E
  8
FUTO
 10
4902.5031464520134
 20
8646.9918264264015
 30
0.0
 11
4931.4268464520137
 21
8646.9918264264015
 31
0.0
  0
LINE
  5
A73F
  8
FUTO
 10
4901.6905464520132
 20
8644.6918264264023
 30
0.0
 11
4931.6905464520132
 21
8644.6918264264023
 31
0.0
  0
LINE
  5
A740
  8
FUTO
 10
4917.0364464520126
 20
8661.6459264263995
 30
0.0
 11
4931.6905464520132
 21
8646.9918264264015
 31
0.0
  0
LINE
  5
A741
  8
FUTO
 10
4961.4665910202593
 20
8644.6918264264023
 30
0.0
 11
4927.6905464520132
 21
8626.2918264264026
 31
0.0
  0
LINE
  5
A742
  8
FUTO
 10
4977.6905464520132
 20
8737.6918264264023
 30
0.0
 11
4902.6905464520141
 21
8812.6918264264023
 31
0.0
  0
ARC
  5
A743
  8
FUTO
 10
4878.6905464520132
 20
8696.6918264264023
 30
0.0
 40
123.0
 50
359.55492060378288
 51
90.486477586266361
  0
ARC
  5
A744
  8
FUTO
 10
4867.6888816417859
 20
8704.0049796294297
 30
0.0
 40
64.186846818565911
 50
296.7068803249503
 51
243.24137540772219
  0
ARC
  5
A745
  8
FUTO
 10
4854.6905464520123
 20
8694.6918264264023
 30
0.0
 40
159.0
 50
270.0
 51
312.78469491066022
  0
ARC
  5
A746
  8
FUTO
 10
4854.6905464520123
 20
8694.6918264264023
 30
0.0
 40
147.0
 50
270.0
 51
317.28135548562869
  0
ARC
  5
A747
  8
FUTO
 10
4878.6905464520132
 20
8696.6918264264023
 30
0.0
 40
135.0
 50
359.55492060378288
 51
90.486477586266361
  0
LINE
  5
A748
  8
FUTO
 10
4838.6923464520132
 20
8646.6918264264023
 30
0.0
 11
4896.5912464520143
 21
8646.6918264264023
 31
0.0
  0
LINE
  5
A749
  8
FUTO
 10
4902.6905464520141
 20
8812.6918264264023
 30
0.0
 11
4832.6905464520132
 21
8812.6918264264023
 31
0.0
  0
LINE
  5
A74A
  8
FUTO
 10
4807.690546452015
 20
8626.2918264264008
 30
0.0
 11
4927.6905464520132
 21
8626.2918264264026
 31
0.0
  0
LINE
  5
A74B
  8
CT
 10
4829.8048866478694
 20
8616.2277527077858
 30
0.0
 11
4836.6931884304413
 21
8632.8575842929895
 31
0.0
  0
CIRCLE
  5
A74C
  8
FUTO
 10
4833.2490375391562
 20
8624.5426685003877
 30
0.0
 40
4.0
  0
LINE
  5
A74D
  8
FUTO
 10
4803.6905464520132
 20
8646.9918264264015
 30
0.0
 11
4832.5544464520144
 21
8646.9918264264015
 31
0.0
  0
LINE
  5
A74E
  8
FUTO
 10
4833.6905464520141
 20
8644.6918264264023
 30
0.0
 11
4803.6905464520132
 21
8644.6918264264023
 31
0.0
  0
LINE
  5
A74F
  8
FUTO
 10
4803.6905464520132
 20
8646.9918264264015
 30
0.0
 11
4803.6905464520132
 21
8644.6918264264023
 31
0.0
  0
LINE
  5
A750
  8
FUTO
 10
4818.1056464520134
 20
8661.4069264264035
 30
0.0
 11
4803.6905464520132
 21
8646.9918264264015
 31
0.0
  0
LINE
  5
A751
  8
FUTO
 10
4833.6905464520141
 20
8645.2480264264013
 30
0.0
 11
4833.6905464520141
 21
8644.6918264264023
 31
0.0
  0
ARC
  5
A752
  8
FUTO
 10
4832.8431464520127
 20
8651.1916264264037
 30
0.0
 40
5.9997999999999987
 50
278.11689999996281
 51
319.28160000002993
  0
ARC
  5
A753
  8
FUTO
 10
4832.5543464520133
 20
8650.6919264264034
 30
0.0
 40
3.7000999999999991
 50
265.39090000000749
 51
321.17369999993792
  0
CIRCLE
  5
A754
  8
FUTO
 10
4833.2490375391562
 20
8790.8409843524205
 30
0.0
 40
4.0
  0
LINE
  5
A755
  8
CT
 10
4829.8048866478694
 20
8799.1559001450223
 30
0.0
 11
4836.6931884304413
 21
8782.5260685598168
 31
0.0
  0
LINE
  5
A756
  8
FUTO
 10
4901.6905464520132
 20
8645.2677264264021
 30
0.0
 11
4901.6905464520132
 21
8644.6918264264023
 31
0.0
  0
ARC
  5
A757
  8
FUTO
 10
4902.7112464520142
 20
8651.1917264264011
 30
0.0
 40
5.9999000000000002
 50
219.0535999999457
 51
260.37079999996371
  0
LINE
  5
A758
  8
CT
 10
4905.5762062561562
 20
8616.2277527077858
 30
0.0
 11
4898.6879044735851
 21
8632.8575842929895
 31
0.0
  0
CIRCLE
  5
A759
  8
FUTO
 10
4902.1320553648711
 20
8624.5426685003877
 30
0.0
 40
4.0
  0
ARC
  5
A75A
  8
FUTO
 10
4902.769146452013
 20
8650.2920264264048
 30
0.0
 40
3.3001999999999989
 50
213.98149999995471
 51
269.99869999997321
  0
CIRCLE
  5
A75B
  8
FUTO
 10
4902.132055364872
 20
8790.8409843524187
 30
0.0
 40
4.0
  0
LINE
  5
A75C
  8
CT
 10
4905.576206256158
 20
8799.1559001450187
 30
0.0
 11
4898.6879044735861
 21
8782.5260685598168
 31
0.0
  0
LINE
  5
A75D
  8
FUTO
 10
4811.4075058368317
 20
9307.6101044228835
 30
0.0
 11
4923.973587067193
 21
9307.6101044228835
 31
0.0
  0
ARC
  5
A75E
  8
FUTO
 10
4811.4075058368317
 20
9308.6101044228799
 30
0.0
 40
1.0
 50
191.3098947347236
 51
270.0
  0
ARC
  5
A75F
  8
FUTO
 10
4923.973587067193
 20
9308.6101044228799
 30
0.0
 40
1.0
 50
270.0
 51
348.69010526527632
  0
ARC
  5
A760
  8
FUTO
 10
4854.6905464520123
 20
8694.6918264264023
 30
0.0
 40
159.0
 50
312.78469491066022
 51
0.4071282142816717
  0
ARC
  5
A761
  8
FUTO
 10
4854.6905464520123
 20
8694.6918264264023
 30
0.0
 40
147.0
 50
317.28135548562869
 51
0.4071282142816717
  0
LINE
  5
A762
  8
FUTO
 10
4977.6905464520132
 20
8510.2918264264026
 30
0.0
 11
4977.6905464520132
 21
8737.6918264264023
 31
0.0
  0
LINE
  5
A763
  8
FUTO
 10
4976.0905464520129
 20
8510.891826426403
 30
0.0
 11
4976.0905464520129
 21
8739.2918264264026
 31
0.0
  0
LINE
  5
A764
  8
FUTO
 10
4972.890546452013
 20
8643.0918264264037
 30
0.0
 11
4958.5295436664983
 21
8643.0918264264019
 31
0.0
  0
CIRCLE
  5
A765
  8
FUTO
 10
4950.8397043780287
 20
8673.2503175135444
 30
0.0
 40
4.0
  0
LINE
  5
A766
  8
CT
 10
4959.1546201706306
 20
8669.8061666222584
 30
0.0
 11
4942.5247885854269
 21
8676.6944684048303
 31
0.0
  0
LINE
  5
A767
  8
FUTO
 10
4931.6905464520132
 20
8646.9918264264015
 30
0.0
 11
4931.6905464520132
 21
8644.6918264264023
 31
0.0
  0
ARC
  5
A768
  8
FUTO
 10
4972.890546452013
 20
8641.4918264264015
 30
0.0
 40
1.6000000000000001
 50
0.0
 51
90.0
  0
ARC
  5
A769
  8
FUTO
 10
4972.890546452013
 20
8641.4918264264015
 30
0.0
 40
3.2000000000000002
 50
0.0
 51
90.0
  0
LINE
  5
A76A
  8
CT
 10
4985.9989883706048
 20
8572.8918264264048
 30
0.0
 11
4966.5247867600447
 21
8572.8918264264048
 31
0.0
  0
LINE
  5
A76B
  8
CT
 10
4985.9989883706048
 20
8627.8918264264048
 30
0.0
 11
4966.5247867600447
 21
8627.8918264264048
 31
0.0
  0
LINE
  5
A76C
  8
FUTO
 10
4976.0905464520129
 20
8557.8918264264048
 30
0.0
 11
4974.4905464520134
 21
8557.8918264264048
 31
0.0
  0
LINE
  5
A76D
  8
FUTO
 10
4974.4905464520134
 20
8557.8918264264048
 30
0.0
 11
4974.4905464520134
 21
8641.4918264264015
 31
0.0
  0
LINE
  5
A76E
  8
FUTO
 10
4976.0905464520129
 20
8557.8918264264048
 30
0.0
 11
4976.0905464520129
 21
8641.4918264264015
 31
0.0
  0
LINE
  5
A76F
  8
CT
 10
4959.1546201706306
 20
8745.5774862305461
 30
0.0
 11
4942.5247885854269
 21
8738.6891844479742
 31
0.0
  0
CIRCLE
  5
A770
  8
FUTO
 10
4950.8397043780287
 20
8742.133335339262
 30
0.0
 40
4.0
  0
LINE
  5
A771
  8
FUTO
 10
4801.1905464520132
 20
9337.6101044228817
 30
0.0
 11
4934.1905464520132
 21
9337.6101044228817
 31
0.0
  0
LINE
  5
A772
  8
FUTO
 10
4935.1905464520132
 20
9359.6101044228817
 30
0.0
 11
4800.1905464520141
 21
9359.6101044228817
 31
0.0
  0
LINE
  5
A773
  8
FUTO
 10
4858.6374464520131
 20
9489.0959971981392
 30
0.0
 11
4876.7437464520144
 21
9489.0959971981392
 31
0.0
  0
LINE
  5
A774
  8
FUTO
 10
4903.8994464520129
 20
9486.0959971981392
 30
0.0
 11
4831.4275464520133
 21
9486.0959971981392
 31
0.0
  0
LINE
  5
A775
  8
FUTO
 10
4924.2905464520127
 20
9482.3959971981367
 30
0.0
 11
4811.0905464520129
 21
9482.3959971981367
 31
0.0
  0
LINE
  5
A776
  8
FUTO
 10
4924.2905464520127
 20
9480.0959971981392
 30
0.0
 11
4811.0905464520129
 21
9480.0959971981392
 31
0.0
  0
ARC
  5
A777
  8
FUTO
 10
4831.4275464520133
 20
9479.7957971981414
 30
0.0
 40
6.3002000000000002
 50
89.999399999991695
 51
103.3420000000347
  0
ARC
  5
A778
  8
FUTO
 10
4814.9735464520127
 20
9483.3971971981391
 30
0.0
 40
1.0012000000000001
 50
270.00349999998957
 51
283.32969999997812
  0
LINE
  5
A779
  8
FUTO
 10
4811.0905464520129
 20
9482.4397971981398
 30
0.0
 11
4811.0905464520129
 21
9471.0192971981396
 31
0.0
  0
LINE
  5
A77A
  8
FUTO
 10
4829.9736464520129
 20
9485.9259971981428
 30
0.0
 11
4815.2043464520129
 21
9482.4229971981404
 31
0.0
  0
ARC
  5
A77B
  8
FUTO
 10
4801.1905464520132
 20
9338.6101044228817
 30
0.0
 40
1.0
 50
180.0
 51
270.0
  0
LINE
  5
A77C
  8
FUTO
 10
4800.1905464520141
 20
9359.6101044228817
 30
0.0
 11
4800.1905464520141
 21
9338.6101044228817
 31
0.0
  0
LINE
  5
A77D
  8
FUTO
 10
4811.0905464520129
 20
9482.3959971981367
 30
0.0
 11
4811.0905464520138
 21
9359.6101044228817
 31
0.0
  0
LINE
  5
A77E
  8
FUTO
 10
4860.1905464520114
 20
9503.3568834043563
 30
0.0
 11
4860.1905464520132
 21
9489.0959971981392
 31
0.0
  0
ARC
  5
A77F
  8
FUTO
 10
4858.6375464520133
 20
9484.3956971981388
 30
0.0
 40
4.7003000000000004
 50
90.001499999994792
 51
134.9984000000043
  0
LINE
  5
A780
  8
FUTO
 10
4855.3139464520127
 20
9487.7193971981396
 30
0.0
 11
4853.9834464520136
 21
9486.3888971981396
 31
0.0
  0
ARC
  5
A781
  8
FUTO
 10
4853.2764464520142
 20
9487.0956971981414
 30
0.0
 40
0.9996999999999999
 50
269.99649999995819
 51
315.00990000001889
  0
LINE
  5
A782
  8
FUTO
 10
4875.1905464520096
 20
9503.3568834043563
 30
0.0
 11
4875.1905464520141
 21
9489.0959971981392
 31
0.0
  0
ARC
  5
A783
  8
FUTO
 10
4876.7437464520144
 20
9484.3957971981381
 30
0.0
 40
4.7001999999999988
 50
45.001599999995662
 51
90.0
  0
ARC
  5
A784
  8
FUTO
 10
4882.1046464520132
 20
9487.0956971981414
 30
0.0
 40
0.9996999999999999
 50
224.99009999998111
 51
270.00349999998957
  0
LINE
  5
A785
  8
FUTO
 10
4880.0671464520128
 20
9487.7193971981396
 30
0.0
 11
4881.3976464520129
 21
9486.3888971981396
 31
0.0
  0
ARC
  5
A786
  8
FUTO
 10
4919.3155464520132
 20
9483.3908971981382
 30
0.0
 40
0.9948999999999999
 50
255.64230000004261
 51
270.03159999998809
  0
LINE
  5
A787
  8
FUTO
 10
4924.2905464520127
 20
9482.3959971981367
 30
0.0
 11
4924.2905464520127
 21
9359.6101044228817
 31
0.0
  0
ARC
  5
A788
  8
FUTO
 10
4903.8997464520126
 20
9479.7983971981394
 30
0.0
 40
6.2976000000000001
 50
75.681900000022239
 51
90.002199999961405
  0
LINE
  5
A789
  8
FUTO
 10
4905.4571464520131
 20
9485.9003971981401
 30
0.0
 11
4919.0688464520126
 21
9482.4270971981387
 31
0.0
  0
LINE
  5
A78A
  8
FUTO
 10
5007.6905464520123
 20
9505.5568834043552
 30
0.0
 11
4977.6905464520132
 21
9505.5568834043552
 31
0.0
  0
LINE
  5
A78B
  8
CT
 10
4984.6905464520132
 20
9485.5568834043534
 30
0.0
 11
5004.6905464520123
 21
9485.5568834043534
 31
0.0
  0
CIRCLE
  5
A78C
  8
FUTO
 10
4994.6905464520132
 20
9485.5568834043534
 30
0.0
 40
6.0
  0
LINE
  5
A78D
  8
FUTO
 10
4977.6905464520132
 20
9335.5568834043552
 30
0.0
 11
5007.6905464520123
 21
9335.5568834043552
 31
0.0
  0
CIRCLE
  5
A78E
  8
FUTO
 10
4994.6905464520132
 20
9355.5568834043552
 30
0.0
 40
6.0
  0
LINE
  5
A78F
  8
CT
 10
4984.6905464520132
 20
9355.5568834043552
 30
0.0
 11
5004.6905464520123
 21
9355.5568834043552
 31
0.0
  0
LINE
  5
A790
  8
CT
 10
4957.6905464520132
 20
9498.3732101073529
 30
0.0
 11
4957.6905464520132
 21
9509.3462306273432
 31
0.0
  0
LINE
  5
A791
  8
FUTO
 10
4935.1905464520132
 20
9359.6101044228817
 30
0.0
 11
4935.1905464520132
 21
9338.6101044228817
 31
0.0
  0
ARC
  5
A792
  8
FUTO
 10
4934.1905464520132
 20
9338.6101044228817
 30
0.0
 40
1.0
 50
270.0
 51
0.0
  0
LINE
  5
A793
  8
CT
 10
4994.6905464520132
 20
9495.5568834043534
 30
0.0
 11
4994.6905464520132
 21
9475.5568834043552
 31
0.0
  0
LINE
  5
A794
  8
FUTO
 10
4967.6905464520132
 20
9506.9568834043548
 30
0.0
 11
4967.6905464520132
 21
9511.9568834043548
 31
0.0
  0
ARC
  5
A795
  8
FUTO
 10
4965.6905464520132
 20
9506.9568834043548
 30
0.0
 40
2.0
 50
270.0
 51
0.0
  0
LINE
  5
A796
  8
CT
 10
4994.6905464520132
 20
9365.5568834043552
 30
0.0
 11
4994.6905464520132
 21
9345.5568834043534
 31
0.0
  0
LINE
  5
A797
  8
FUTO
 10
5013.0864732935652
 20
9520.2988332056902
 30
0.0
 11
5013.0864732935652
 21
9616.8149336030165
 31
0.0
  0
LINE
  5
A798
  8
FUTO
 10
5013.6864732935646
 20
9520.2988332056902
 30
0.0
 11
5013.6864732935646
 21
9616.8149336030165
 31
0.0
  0
LINE
  5
A799
  8
FUTO
 10
5007.6905464520123
 20
9505.5568834043552
 30
0.0
 11
5007.6905464520123
 21
9335.5568834043552
 31
0.0
  0
ARC
  5
A79A
  8
FUTO
 10
5005.086473293567
 20
9520.2988332056902
 30
0.0
 40
8.5999999999999996
 50
270.0
 51
0.0
  0
ARC
  5
A79B
  8
FUTO
 10
5005.086473293567
 20
9520.2988332056902
 30
0.0
 40
8.0
 50
270.0
 51
0.0
  0
ARC
  5
A79C
  8
FUTO
 10
5005.086473293567
 20
9616.8149336030165
 30
0.0
 40
8.5999999999999996
 50
0.0
 51
70.049595990150678
  0
ARC
  5
A79D
  8
FUTO
 10
5005.086473293567
 20
9616.8149336030165
 30
0.0
 40
8.0
 50
0.0
 51
69.307039139876423
  0
LINE
  5
A79E
  8
FUTO
 10
5580.7316009829128
 20
8831.6918264264023
 30
0.0
 11
5673.9316009829108
 21
8831.6918264264023
 31
0.0
  0
LINE
  5
A79F
  8
FUTO
 10
5580.7316009829128
 20
8831.0918264264019
 30
0.0
 11
5673.9316009829108
 21
8831.0918264264019
 31
0.0
  0
DIMENSION
  5
A7A0
  8
SP
  2
*D59
 10
5690.3316009829132
 20
8971.0918264264019
 30
0.0
 11
5776.6338048855978
 21
8996.0918264264019
 31
0.0
 70
     0
 13
5627.3316009829132
 23
8947.6918264264023
 33
0.0
 14
5690.3316009829132
 24
8805.6918264264023
 34
0.0
  0
LINE
  5
A7A1
  8
FUTO
 10
5579.3316009829132
 20
8572.6918264264023
 30
0.0
 11
5675.8477013802349
 21
8572.6918264264023
 31
0.0
  0
LINE
  5
A7A2
  8
FUTO
 10
5579.3316009829132
 20
8572.0918264264037
 30
0.0
 11
5675.8477013802349
 21
8572.0918264264037
 31
0.0
  0
LINE
  5
A7A3
  8
FUTO
 10
5580.3316009829132
 20
8546.6918264264023
 30
0.0
 11
5674.3316009829132
 21
8546.6918264264023
 31
0.0
  0
LINE
  5
A7A4
  8
FUTO
 10
5684.3316009829132
 20
8525.6918264264023
 30
0.0
 11
5570.3316009829132
 21
8525.6918264264023
 31
0.0
  0
DIMENSION
  5
A7A5
  8
SP
  2
*D60
 10
5366.3848220014397
 20
8971.0918264264019
 30
0.0
 11
5496.8582114921774
 21
8996.0918264264019
 31
0.0
 70
     0
  1
（330）
 13
5627.3316009829132
 23
8947.6918264264023
 33
0.0
 14
5366.3848220014397
 24
8764.2561264264004
 34
0.0
  0
DIMENSION
  5
A7A6
  8
SP
  2
*D61
 10
5683.3316009829114
 20
8901.0918264264019
 30
0.0
 11
5627.3316009829132
 21
8926.0918264264019
 31
0.0
 70
     0
 13
5571.3316009829132
 23
8821.6918264264023
 33
0.0
 14
5683.3316009829114
 24
8821.6918264264023
 34
0.0
  0
LINE
  5
A7A7
  8
FUTO
 10
5452.4100220014398
 20
8647.4918264264015
 30
0.0
 11
5482.9213445726546
 21
8647.4918264264015
 31
0.0
  0
LINE
  5
A7A8
  8
FUTO
 10
5489.1341220014401
 20
8667.5519264264021
 30
0.0
 11
5461.6355220014402
 21
8667.5519264264021
 31
0.0
  0
LINE
  5
A7A9
  8
FUTO
 10
5536.684822001439
 20
8764.7918264264008
 30
0.0
 11
5418.3848220014388
 21
8764.7918264264008
 31
0.0
  0
LINE
  5
A7AA
  8
FUTO
 10
5391.531600982913
 20
8644.6918264264023
 30
0.0
 11
5481.1264727777843
 21
8644.6918264264023
 31
0.0
  0
LINE
  5
A7AB
  8
FUTO
 10
5391.531600982913
 20
8643.0918264264019
 30
0.0
 11
5480.1008317521419
 21
8643.0918264264019
 31
0.0
  0
LINE
  5
A7AC
  8
FUTO
 10
5396.3848220014397
 20
8648.1918264264023
 30
0.0
 11
5367.3183220014407
 21
8650.1296264264038
 31
0.0
  0
LINE
  5
A7AD
  8
FUTO
 10
5396.3848220014397
 20
8767.1918264264023
 30
0.0
 11
5367.3183220014407
 21
8765.2540264264026
 31
0.0
  0
LINE
  5
A7AE
  8
FUTO
 10
5366.3848220014397
 20
8764.2561264264004
 30
0.0
 11
5366.3848220014397
 21
8651.1274264264048
 31
0.0
  0
ARC
  5
A7AF
  8
FUTO
 10
5367.384922001439
 20
8651.1275264264023
 30
0.0
 40
1.0000999999999991
 50
180.0069999999923
 51
266.17899999999992
  0
LINE
  5
A7B0
  8
FUTO
 10
5389.9316009829126
 20
8626.2918264264026
 30
0.0
 11
5389.9316009829126
 21
8641.4918264264015
 31
0.0
  0
LINE
  5
A7B1
  8
FUTO
 10
5388.3316009829132
 20
8626.2918264264026
 30
0.0
 11
5388.3316009829132
 21
8641.4918264264015
 31
0.0
  0
LINE
  5
A7B2
  8
FUTO
 10
5388.3316009829132
 20
8626.2918264264026
 30
0.0
 11
5389.9316009829126
 21
8626.2918264264026
 31
0.0
  0
ARC
  5
A7B3
  8
FUTO
 10
5391.531600982913
 20
8641.4918264264015
 30
0.0
 40
3.2000000000000002
 50
90.0
 51
180.0
  0
ARC
  5
A7B4
  8
FUTO
 10
5391.531600982913
 20
8641.4918264264015
 30
0.0
 40
1.6000000000000001
 50
90.0
 51
180.0
  0
ARC
  5
A7B5
  8
FUTO
 10
5367.384922001439
 20
8764.2561264264004
 30
0.0
 40
1.0000999999999991
 50
93.821000000000112
 51
180.00165729919101
  0
LINE
  5
A7B6
  8
FUTO
 10
5396.3848220014397
 20
8767.1918264264023
 30
0.0
 11
5396.3848220014397
 21
8648.1918264264023
 31
0.0
  0
LINE
  5
A7B7
  8
FUTO
 10
5418.3848220014388
 20
8647.1918264264023
 30
0.0
 11
5418.3848220014388
 21
8768.1918264264023
 31
0.0
  0
ARC
  5
A7B8
  8
FUTO
 10
5433.3848220014388
 20
8650.4865264264026
 30
0.0
 40
8.0
 50
90.0
 51
180.0
  0
LINE
  5
A7B9
  8
FUTO
 10
5425.3848220014397
 20
8647.4918264264015
 30
0.0
 11
5448.0407220014404
 21
8647.4918264264015
 31
0.0
  0
LINE
  5
A7BA
  8
FUTO
 10
5425.3848220014397
 20
8645.1918264264023
 30
0.0
 11
5448.0409220014399
 21
8645.1918264264023
 31
0.0
  0
LINE
  5
A7BB
  8
FUTO
 10
5435.1328872409513
 20
8572.9418329889431
 30
0.0
 11
5396.9176404366308
 21
8643.0918264264019
 31
0.0
  0
LINE
  5
A7BC
  8
FUTO
 10
5418.3848220014388
 20
8647.1918264264023
 30
0.0
 11
5397.3848220014388
 21
8647.1918264264023
 31
0.0
  0
ARC
  5
A7BD
  8
FUTO
 10
5397.384922001439
 20
8648.1918264264023
 30
0.0
 40
1.0000999999999991
 50
180.0
 51
269.99649999995819
  0
LINE
  5
A7BE
  8
FUTO
 10
5425.3848220014397
 20
8651.5918264264019
 30
0.0
 11
5418.3848220014388
 21
8651.5918264264019
 31
0.0
  0
LINE
  5
A7BF
  8
FUTO
 10
5425.3848220014397
 20
8645.1918264264023
 30
0.0
 11
5425.3848220014397
 21
8650.4865264264026
 31
0.0
  0
LINE
  5
A7C0
  8
FUTO
 10
5447.2164220014392
 20
8658.4865264264026
 30
0.0
 11
5433.3848220014388
 21
8658.4865264264026
 31
0.0
  0
LINE
  5
A7C1
  8
CT
 10
5435.3848220014397
 20
8653.4232764264016
 30
0.0
 11
5435.3848220014397
 21
8641.5603764264033
 31
0.0
  0
ARC
  5
A7C2
  8
FUTO
 10
5448.0409220014399
 20
8650.4917264264022
 30
0.0
 40
5.2999000000000001
 50
269.99930000003371
 51
326.34980000003259
  0
ARC
  5
A7C3
  8
FUTO
 10
5448.0407220014404
 20
8650.4918264264015
 30
0.0
 40
3.0
 50
270.0
 51
346.00480000007838
  0
LINE
  5
A7C4
  8
FUTO
 10
5453.8730220014386
 20
8661.486726426403
 30
0.0
 11
5450.9517220014386
 21
8649.7663264263992
 31
0.0
  0
ARC
  5
A7C5
  8
FUTO
 10
5447.2164220014392
 20
8666.4865264264008
 30
0.0
 40
8.0
 50
270.0
 51
334.31589999996578
  0
ARC
  5
A7C6
  8
FUTO
 10
5461.6355220014402
 20
8659.5520264264014
 30
0.0
 40
7.9999000000000002
 50
90.0
 51
166.00459999998009
  0
ARC
  5
A7C7
  8
FUTO
 10
5397.384922001439
 20
8767.1918264264023
 30
0.0
 40
1.0000999999999991
 50
90.003499999989657
 51
180.0
  0
LINE
  5
A7C8
  8
FUTO
 10
5418.3848220014388
 20
8768.1918264264023
 30
0.0
 11
5397.3848220014388
 21
8768.1918264264023
 31
0.0
  0
LINE
  5
A7C9
  8
FUTO
 10
5504.3316009829132
 20
8680.891826426403
 30
0.0
 11
5562.7316009829128
 21
8739.2918264264008
 31
0.0
  0
LINE
  5
A7CA
  8
CT
 10
5475.3316009829132
 20
8640.4872132179753
 30
0.0
 11
5475.3316009829132
 21
8774.8964396348292
 31
0.0
  0
ARC
  5
A7CB
  8
FUTO
 10
5489.1340220014399
 20
8659.5519264264021
 30
0.0
 40
8.0000999999999998
 50
48.146064575317872
 51
89.999599999959742
  0
LINE
  5
A7CC
  8
FUTO
 10
5536.684822001439
 20
8764.7918264264008
 30
0.0
 11
5536.6848220014408
 21
8713.2450474449288
 31
0.0
  0
LINE
  5
A7CD
  8
FUTO
 10
5534.3848220014397
 20
8764.7918264264008
 30
0.0
 11
5534.3848220014397
 21
8710.9450474449295
 31
0.0
  0
LINE
  5
A7CE
  8
FUTO
 10
5570.7316009829128
 20
8707.6918264264023
 30
0.0
 11
5570.7316009829119
 21
8821.6918264264023
 31
0.0
  0
LINE
  5
A7CF
  8
FUTO
 10
5571.3316009829123
 20
8580.6918264264023
 30
0.0
 11
5571.3316009829132
 21
8821.6918264264023
 31
0.0
  0
LINE
  5
A7D0
  8
FUTO
 10
5570.7316009829128
 20
8580.6918264264023
 30
0.0
 11
5570.7316009829128
 21
8821.6918264264023
 31
0.0
  0
LINE
  5
A7D1
  8
CT
 10
5575.0582641958881
 20
8617.6918264264004
 30
0.0
 11
5560.5528769882048
 21
8617.6918264264004
 31
0.0
  0
LINE
  5
A7D2
  8
FUTO
 10
5570.7316009829128
 20
8607.6918264264004
 30
0.0
 11
5565.8155005855906
 21
8607.6918264264004
 31
0.0
  0
ARC
  5
A7D3
  8
FUTO
 10
5565.8155005855906
 20
8609.6918264264023
 30
0.0
 40
2.0
 50
222.10222534312629
 51
270.0
  0
LINE
  5
A7D4
  8
FUTO
 10
5564.3316009829141
 20
8687.3043318564651
 30
0.0
 11
5564.3316009829141
 21
8608.3509155534593
 31
0.0
  0
ARC
  5
A7D5
  8
FUTO
 10
5570.3316009829132
 20
8545.6918264264023
 30
0.0
 40
20.0
 50
252.5423968762791
 51
270.0
  0
LINE
  5
A7D6
  8
FUTO
 10
5570.3316009829132
 20
8556.6918264264004
 30
0.0
 11
5570.3316009829132
 21
8607.6918264264004
 31
0.0
  0
ARC
  5
A7D7
  8
FUTO
 10
5579.3316009829132
 20
8580.6918264264023
 30
0.0
 40
8.0
 50
180.0
 51
270.0
  0
ARC
  5
A7D8
  8
FUTO
 10
5579.3316009829132
 20
8580.6918264264023
 30
0.0
 40
8.5999999999999996
 50
180.0
 51
270.0
  0
ARC
  5
A7D9
  8
FUTO
 10
5580.3316009829132
 20
8556.6918264264004
 30
0.0
 40
10.0
 50
180.0
 51
270.0
  0
LINE
  5
A7DA
  8
CT
 10
5575.0582641958881
 20
8797.6918264264023
 30
0.0
 11
5560.5528769882048
 21
8797.6918264264023
 31
0.0
  0
LINE
  5
A7DB
  8
FUTO
 10
5540.3848220014388
 20
8744.4007264264019
 30
0.0
 11
5540.3848220014388
 21
8716.9450474449277
 31
0.0
  0
ARC
  5
A7DC
  8
FUTO
 10
5541.38452200144
 20
8722.6059264264004
 30
0.0
 40
0.9996999999999999
 50
179.99649999995819
 51
225.00990000005569
  0
LINE
  5
A7DD
  8
FUTO
 10
5542.0082220014401
 20
8720.5684264264019
 30
0.0
 11
5540.6777220014401
 21
8721.8989264264037
 31
0.0
  0
ARC
  5
A7DE
  8
FUTO
 10
5538.6846220014404
 20
8717.2450264264025
 30
0.0
 40
4.7001999999999988
 50
27.48769440413944
 51
44.998399999930633
  0
ARC
  5
A7DF
  8
FUTO
 10
5534.0872220014389
 20
8744.4010264264034
 30
0.0
 40
6.2976000000000001
 50
359.9977999999864
 51
14.31809999999064
  0
ARC
  5
A7E0
  8
FUTO
 10
5537.6797220014396
 20
8759.8168264264004
 30
0.0
 40
0.9948999999999999
 50
179.9684000000118
 51
194.35770000002071
  0
LINE
  5
A7E1
  8
FUTO
 10
5540.1892220014406
 20
8745.9584264264013
 30
0.0
 11
5536.7159220014391
 21
8759.5701264264007
 31
0.0
  0
LINE
  5
A7E2
  8
FUTO
 10
5570.7316009829128
 20
8807.6918264264023
 30
0.0
 11
5566.3316009829132
 21
8807.6918264264023
 31
0.0
  0
POINT
  5
A7E3
  8
FUTO
 10
5564.3316009829141
 20
8805.6918264264023
 30
0.0
  0
POINT
  5
A7E4
  8
FUTO
 10
5564.3316009829141
 20
8805.6918264264023
 30
0.0
  0
ARC
  5
A7E5
  8
FUTO
 10
5566.3316009829132
 20
8805.6918264264023
 30
0.0
 40
2.0
 50
90.0
 51
180.0
  0
LINE
  5
A7E6
  8
FUTO
 10
5562.7316009829128
 20
8812.6918264264023
 30
0.0
 11
5564.3316009829141
 21
8812.6918264264023
 31
0.0
  0
POINT
  5
A7E7
  8
DEFPOINTS
 10
5570.3316009829132
 20
8729.6918264264004
 30
0.0
  0
ARC
  5
A7E8
  8
FUTO
 10
5580.7316009829128
 20
8821.6918264264023
 30
0.0
 40
10.0
 50
90.0
 51
180.0
  0
ARC
  5
A7E9
  8
FUTO
 10
5580.7316009829128
 20
8821.6918264264023
 30
0.0
 40
9.4000000000000004
 50
90.0
 51
180.0
  0
DIMENSION
  5
A7EA
  8
SP
  2
*D62
 10
5773.442895596505
 20
8627.6918264264023
 30
0.0
 11
5748.4428955965041
 21
8707.6918264264023
 31
0.0
 70
     0
 13
5690.3316009829132
 23
8787.6918264264004
 33
0.0
 14
5690.3316009829123
 24
8627.6918264264023
 34
0.0
 50
90.0
1001
ACAD
1000
DSTYLE
1002
{
1070
     3
1000
φ<>
1002
}
  0
LINE
  5
A7EB
  8
CT
 10
5627.3316009829132
 20
8516.1034680744651
 30
0.0
 11
5627.3316009829132
 21
8898.3576717999185
 31
0.0
  0
ARC
  5
A7EC
  8
FUTO
 10
5627.3316009829132
 20
8562.891826426403
 30
0.0
 40
1.1999999999999991
 50
180.0
 51
0.0
  0
LINE
  5
A7ED
  8
FUTO
 10
5626.1316009829116
 20
8569.6918264264023
 30
0.0
 11
5626.1316009829116
 21
8562.891826426403
 31
0.0
  0
ARC
  5
A7EE
  8
FUTO
 10
5623.1316009829134
 20
8569.6918264264023
 30
0.0
 40
3.0
 50
0.0
 51
53.130102354218522
  0
LINE
  5
A7EF
  8
FUTO
 10
5628.531600982913
 20
8569.6918264264023
 30
0.0
 11
5628.531600982913
 21
8562.891826426403
 31
0.0
  0
ARC
  5
A7F0
  8
FUTO
 10
5631.531600982913
 20
8569.6918264264023
 30
0.0
 40
3.0
 50
126.86989764578141
 51
180.0
  0
ARC
  5
A7F1
  8
FUTO
 10
5684.3316009829132
 20
8709.6918264264023
 30
0.0
 40
20.0
 50
0.0
 51
72.54239687627917
  0
LINE
  5
A7F2
  8
FUTO
 10
5690.3316009829132
 20
8805.6918264264023
 30
0.0
 11
5690.3316009829132
 21
8687.3043318564651
 31
0.0
  0
LINE
  5
A7F3
  8
FUTO
 10
5683.9316009829117
 20
8577.7574496247962
 30
0.0
 11
5683.9316009829117
 21
8821.6918264264023
 31
0.0
  0
LINE
  5
A7F4
  8
FUTO
 10
5683.3316009829141
 20
8577.8649470980527
 30
0.0
 11
5683.3316009829141
 21
8821.6918264264023
 31
0.0
  0
LINE
  5
A7F5
  8
CT
 10
5679.6049377699374
 20
8617.6918264264004
 30
0.0
 11
5694.1103249776206
 21
8617.6918264264004
 31
0.0
  0
ARC
  5
A7F6
  8
FUTO
 10
5684.3316009829132
 20
8545.6918264264023
 30
0.0
 40
20.0
 50
270.0
 51
0.0
  0
LINE
  5
A7F7
  8
FUTO
 10
5683.3316009829141
 20
8627.6918264264023
 30
0.0
 11
5683.9316009829117
 21
8627.6918264264023
 31
0.0
  0
LINE
  5
A7F8
  8
FUTO
 10
5683.3316009829141
 20
8627.6918264264023
 30
0.0
 11
5683.9316009829117
 21
8627.6918264264023
 31
0.0
  0
LINE
  5
A7F9
  8
FUTO
 10
5683.9316009829154
 20
8627.6918264264023
 30
0.0
 11
5690.3316009829132
 21
8627.6918264264023
 31
0.0
  0
ARC
  5
A7FA
  8
FUTO
 10
5688.8477013802358
 20
8609.6918264264023
 30
0.0
 40
2.0
 50
270.0
 51
317.89777465687348
  0
LINE
  5
A7FB
  8
FUTO
 10
5683.9316009829117
 20
8607.6918264264004
 30
0.0
 11
5688.8477013802358
 21
8607.6918264264004
 31
0.0
  0
LINE
  5
A7FC
  8
CT
 10
5683.3316009829141
 20
8627.6918264264023
 30
0.0
 11
5683.9316009829117
 21
8627.6918264264023
 31
0.0
  0
LINE
  5
A7FD
  8
CT
 10
5683.3316009829141
 20
8627.6918264264023
 30
0.0
 11
5683.9316009829117
 21
8627.6918264264023
 31
0.0
  0
LINE
  5
A7FE
  8
FUTO
 10
5690.3316009829132
 20
8687.3043318564651
 30
0.0
 11
5690.3316009829123
 21
8608.3509155534593
 31
0.0
  0
ARC
  5
A7FF
  8
FUTO
 10
5675.8477013802349
 20
8580.6918264264023
 30
0.0
 40
8.0
 50
270.0
 51
339.30703913985798
  0
ARC
  5
A800
  8
FUTO
 10
5675.8477013802349
 20
8580.6918264264023
 30
0.0
 40
8.5999999999999996
 50
270.0
 51
340.04959599016848
  0
ARC
  5
A801
  8
FUTO
 10
5674.3316009829132
 20
8556.6918264264004
 30
0.0
 40
10.0
 50
270.0
 51
0.0
  0
LINE
  5
A802
  8
FUTO
 10
5684.3316009829132
 20
8556.6918264264004
 30
0.0
 11
5684.3316009829132
 21
8607.6918264264004
 31
0.0
  0
LINE
  5
A803
  8
FUTO
 10
5704.3316009829132
 20
8545.6918264264023
 30
0.0
 11
5704.3316009829132
 21
8709.6918264264023
 31
0.0
  0
LINE
  5
A804
  8
CT
 10
5679.6049377699374
 20
8797.6918264264023
 30
0.0
 11
5694.1103249776206
 21
8797.6918264264023
 31
0.0
  0
LINE
  5
A805
  8
FUTO
 10
5683.3316009829141
 20
8787.6918264264004
 30
0.0
 11
5683.9316009829117
 21
8787.6918264264004
 31
0.0
  0
LINE
  5
A806
  8
FUTO
 10
5683.9316009829154
 20
8787.6918264264004
 30
0.0
 11
5690.3316009829132
 21
8787.6918264264004
 31
0.0
  0
LINE
  5
A807
  8
FUTO
 10
5683.3316009829141
 20
8787.6918264264004
 30
0.0
 11
5683.9316009829117
 21
8787.6918264264004
 31
0.0
  0
LINE
  5
A808
  8
FUTO
 10
5683.3316009829141
 20
8787.6918264264004
 30
0.0
 11
5683.9316009829117
 21
8787.6918264264004
 31
0.0
  0
POINT
  5
A809
  8
FUTO
 10
5690.3316009829132
 20
8805.6918264264023
 30
0.0
  0
POINT
  5
A80A
  8
FUTO
 10
5690.3316009829132
 20
8805.6918264264023
 30
0.0
  0
ARC
  5
A80B
  8
FUTO
 10
5688.3316009829132
 20
8805.6918264264023
 30
0.0
 40
2.0
 50
0.0
 51
90.0
  0
LINE
  5
A80C
  8
FUTO
 10
5683.9316009829117
 20
8807.6918264264023
 30
0.0
 11
5688.3316009829132
 21
8807.6918264264023
 31
0.0
  0
LINE
  5
A80D
  8
CT
 10
5683.3316009829141
 20
8787.6918264264004
 30
0.0
 11
5683.9316009829117
 21
8787.6918264264004
 31
0.0
  0
ARC
  5
A80E
  8
FUTO
 10
5673.9316009829108
 20
8821.6918264264023
 30
0.0
 40
10.0
 50
0.0
 51
90.0
  0
ARC
  5
A80F
  8
FUTO
 10
5673.9316009829108
 20
8821.6918264264023
 30
0.0
 40
9.4000000000000004
 50
0.0
 51
90.0
  0
ENDSEC
  0
EOF
