  0
SECTION
  2
HEADER
  9
$ACADVER
  1
AC1009
  9
$INSBASE
 10
0.0
 20
0.0
 30
0.0
  9
$EXTMIN
 10
-5503.1349900969471
 20
7555.2190595897273
 30
0.0
  9
$EXTMAX
 10
-3403.1349900969471
 20
10505.219059589719
 30
0.0
  9
$LIMMIN
 10
0.0
 20
0.0
  9
$LIMMAX
 10
297.0
 20
210.0
  9
$ORTHOMODE
 70
     0
  9
$REGENMODE
 70
     1
  9
$FILLMODE
 70
     1
  9
$QTEXTMODE
 70
     0
  9
$MIRRTEXT
 70
     0
  9
$DRAGMODE
 70
     2
  9
$LTSCALE
 40
25.0
  9
$OSMODE
 70
   545
  9
$ATTMODE
 70
     1
  9
$TEXTSIZE
 40
3.5
  9
$TRACEWID
 40
0.05
  9
$TEXTSTYLE
  7
STANDARD
  9
$CLAYER
  8
SP
  9
$CELTYPE
  6
BYLAYER
  9
$CECOLOR
 62
   256
  9
$DIMSCALE
 40
10.0
  9
$DIMASZ
 40
2.5
  9
$DIMEXO
 40
1.0
  9
$DIMDLI
 40
7.0
  9
$DIMRND
 40
0.0
  9
$DIMDLE
 40
0.0
  9
$DIMEXE
 40
1.0
  9
$DIMTP
 40
0.0
  9
$DIMTM
 40
0.0
  9
$DIMTXT
 40
3.0
  9
$DIMCEN
 40
0.0
  9
$DIMTSZ
 40
0.0
  9
$DIMTOL
 70
     0
  9
$DIMLIM
 70
     0
  9
$DIMTIH
 70
     0
  9
$DIMTOH
 70
     0
  9
$DIMSE1
 70
     0
  9
$DIMSE2
 70
     0
  9
$DIMTAD
 70
     1
  9
$DIMZIN
 70
     8
  9
$DIMBLK
  1

  9
$DIMASO
 70
     1
  9
$DIMSHO
 70
     1
  9
$DIMPOST
  1

  9
$DIMAPOST
  1

  9
$DIMALT
 70
     0
  9
$DIMALTD
 70
     2
  9
$DIMALTF
 40
0.03937
  9
$DIMLFAC
 40
1.0
  9
$DIMTOFL
 70
     1
  9
$DIMTVP
 40
0.0
  9
$DIMTIX
 70
     0
  9
$DIMSOXD
 70
     0
  9
$DIMSAH
 70
     1
  9
$DIMBLK1
  1
OPEN
  9
$DIMBLK2
  1
OPEN
  9
$DIMSTYLE
  2
GOD
  9
$DIMCLRD
 70
   256
  9
$DIMCLRE
 70
   256
  9
$DIMCLRT
 70
   256
  9
$DIMTFAC
 40
1.0
  9
$DIMGAP
 40
1.0
  9
$LUNITS
 70
     2
  9
$LUPREC
 70
     3
  9
$SKETCHINC
 40
0.1
  9
$FILLETRAD
 40
1.0
  9
$AUNITS
 70
     0
  9
$AUPREC
 70
     2
  9
$MENU
  1
acad
  9
$ELEVATION
 40
0.0
  9
$PELEVATION
 40
0.0
  9
$THICKNESS
 40
0.0
  9
$LIMCHECK
 70
     0
  9
$BLIPMODE
 70
     0
  9
$CHAMFERA
 40
0.0
  9
$CHAMFERB
 40
0.0
  9
$SKPOLY
 70
     0
  9
$TDCREATE
 40
2454894.5465396061
  9
$TDUPDATE
 40
2454953.8310476271
  9
$TDINDWG
 40
0.3746828009
  9
$TDUSRTIMER
 40
0.3746828009
  9
$USRTIMER
 70
     1
  9
$ANGBASE
 50
0.0
  9
$ANGDIR
 70
     0
  9
$PDMODE
 70
     0
  9
$PDSIZE
 40
1.0
  9
$PLINEWID
 40
0.0
  9
$COORDS
 70
     2
  9
$SPLFRAME
 70
     0
  9
$SPLINETYPE
 70
     6
  9
$SPLINESEGS
 70
     8
  9
$ATTDIA
 70
     0
  9
$ATTREQ
 70
     1
  9
$HANDLING
 70
 22529
  9
$HANDSEED
  5
A40D
  9
$SURFTAB1
 70
     6
  9
$SURFTAB2
 70
     6
  9
$SURFTYPE
 70
     6
  9
$SURFU
 70
     6
  9
$SURFV
 70
     6
  9
$UCSNAME
  2

  9
$UCSORG
 10
0.0
 20
0.0
 30
0.0
  9
$UCSXDIR
 10
1.0
 20
0.0
 30
0.0
  9
$UCSYDIR
 10
0.0
 20
1.0
 30
0.0
  9
$PUCSNAME
  2

  9
$PUCSORG
 10
0.0
 20
0.0
 30
0.0
  9
$PUCSXDIR
 10
1.0
 20
0.0
 30
0.0
  9
$PUCSYDIR
 10
0.0
 20
1.0
 30
0.0
  9
$USERI1
 70
     0
  9
$USERI2
 70
     0
  9
$USERI3
 70
     0
  9
$USERI4
 70
     0
  9
$USERI5
 70
     0
  9
$USERR1
 40
0.0
  9
$USERR2
 40
0.0
  9
$USERR3
 40
0.0
  9
$USERR4
 40
0.0
  9
$USERR5
 40
0.0
  9
$WORLDVIEW
 70
     1
  9
$SHADEDGE
 70
     3
  9
$SHADEDIF
 70
    70
  9
$TILEMODE
 70
     1
  9
$MAXACTVP
 70
    16
  9
$PLIMCHECK
 70
     0
  9
$PEXTMIN
 10
1.0000000000000000E+020
 20
1.0000000000000000E+020
 30
1.0000000000000000E+020
  9
$PEXTMAX
 10
-1.0000000000000000E+020
 20
-1.0000000000000000E+020
 30
-1.0000000000000000E+020
  9
$PLIMMIN
 10
0.0
 20
0.0
  9
$PLIMMAX
 10
12.0
 20
9.0
  9
$UNITMODE
 70
     0
  9
$VISRETAIN
 70
     0
  9
$PLINEGEN
 70
     0
  9
$PSLTSCALE
 70
     0
  0
ENDSEC
  0
SECTION
  2
TABLES
  0
TABLE
  2
VPORT
 70
     2
  0
VPORT
  2
*ACTIVE
 70
     0
 10
0.0
 20
0.0
 11
1.0
 21
1.0
 12
-4266.0987804091756
 22
9030.1443513929516
 13
0.0
 23
0.0
 14
5.0
 24
5.0
 15
0.0
 25
0.0
 16
0.0
 26
0.0
 36
1.0
 17
0.0
 27
0.0
 37
0.0
 40
2975.2645683530059
 41
1.6307901907356941
 42
50.0
 43
0.0
 44
0.0
 50
0.0
 51
0.0
 71
     0
 72
   100
 73
     1
 74
     0
 75
     0
 76
     0
 77
     0
 78
     0
  0
ENDTAB
  0
TABLE
  2
LTYPE
 70
     4
  0
LTYPE
  2
CONTINUOUS
 70
     0
  3
Solid line
 72
    65
 73
     0
 40
0.0
  0
LTYPE
  2
CENTER
 70
     0
  3
____ _ ____ _ ____ _ ____ _ ____ _ ____ _ ____ 
 72
    65
 73
     4
 40
2.0
 49
1.25
 49
-0.25
 49
0.25
 49
-0.25
  0
LTYPE
  2
HIDDEN
 70
     0
  3
__ __ __ __ __ __ __ __ __ __ __ __ __ __ __ __
 72
    65
 73
     2
 40
0.375
 49
0.25
 49
-0.125
  0
LTYPE
  2
PHANTOM
 70
     0
  3
______  __  __  ______  __  __  ______  __  __ 
 72
    65
 73
     6
 40
2.5
 49
1.25
 49
-0.25
 49
0.25
 49
-0.25
 49
0.25
 49
-0.25
  0
ENDTAB
  0
TABLE
  2
LAYER
 70
     9
  0
LAYER
  2
0
 70
     0
 62
     7
  6
CONTINUOUS
  0
LAYER
  2
CT
 70
     0
 62
     3
  6
CENTER
  0
LAYER
  2
FUTO
 70
     0
 62
     4
  6
CONTINUOUS
  0
LAYER
  2
HOSO
 70
     0
 62
     7
  6
CONTINUOUS
  0
LAYER
  2
KL
 70
     0
 62
     7
  6
HIDDEN
  0
LAYER
  2
SL
 70
     0
 62
     1
  6
PHANTOM
  0
LAYER
  2
SP
 70
     0
 62
     2
  6
CONTINUOUS
  0
LAYER
  2
DEFPOINTS
 70
     0
 62
     7
  6
CONTINUOUS
  0
LAYER
  2
4
 70
     0
 62
     7
  6
CONTINUOUS
  0
ENDTAB
  0
TABLE
  2
STYLE
 70
     1
  0
STYLE
  2
STANDARD
 70
     0
 40
0.0
 41
1.0
 50
15.0
 71
     0
 42
3.5
  3
C:\Program Files\AutoCAD LT\simplex.shx
  4
C:\Program Files\AutoCAD LT\extfont.shx
  0
ENDTAB
  0
TABLE
  2
VIEW
 70
     0
  0
ENDTAB
  0
TABLE
  2
UCS
 70
     0
  0
ENDTAB
  0
TABLE
  2
APPID
 70
     1
  0
APPID
  2
ACAD
 70
     0
  0
ENDTAB
  0
TABLE
  2
DIMSTYLE
 70
     3
  0
DIMSTYLE
  2
STANDARD
 70
     0
  3

  4

  5

  6

  7

 40
1.0
 41
0.18
 42
0.0625
 43
0.38
 44
0.18
 45
0.0
 46
0.0
 47
0.0
 48
0.0
140
0.18
141
0.09
142
0.0
143
25.399999999999999
144
1.0
145
0.0
146
1.0
147
0.09
 71
     0
 72
     0
 73
     1
 74
     1
 75
     0
 76
     0
 77
     0
 78
     0
170
     0
171
     2
172
     0
173
     0
174
     0
175
     0
176
     0
177
     0
178
     0
  0
DIMSTYLE
  2
GOD
 70
     0
  3

  4

  5

  6
OPEN
  7
OPEN
 40
10.0
 41
2.5
 42
1.0
 43
7.0
 44
1.0
 45
0.0
 46
0.0
 47
0.0
 48
0.0
140
3.0
141
0.0
142
0.0
143
0.03937
144
1.0
145
0.0
146
1.0
147
1.0
 71
     0
 72
     0
 73
     0
 74
     0
 75
     0
 76
     0
 77
     1
 78
     8
170
     0
171
     2
172
     1
173
     1
174
     0
175
     0
176
   256
177
   256
178
   256
  0
DIMSTYLE
  2
IGA
 70
     0
  3

  4

  5

  6

  7

 40
1.0
 41
3.0
 42
0.5
 43
10.0
 44
1.0
 45
0.0
 46
0.0
 47
1.0
 48
1.0
140
3.0
141
0.0
142
0.0
143
0.039
144
1.0
145
0.0
146
10.0
147
1.0
 71
     0
 72
     0
 73
     0
 74
     0
 75
     0
 76
     0
 77
     1
 78
     8
170
     0
171
     2
172
     1
173
     1
174
     0
175
     0
176
     0
177
     0
178
     0
  0
ENDTAB
  0
ENDSEC
  0
SECTION
  2
BLOCKS
  0
BLOCK
  8
0
  2
$MODEL_SPACE
 70
     0
 10
0.0
 20
0.0
 30
0.0
  3
$MODEL_SPACE
  1

  0
ENDBLK
  5
1B
  8
0
  0
BLOCK
 67
     1
  8
0
  2
$PAPER_SPACE
 70
     0
 10
0.0
 20
0.0
 30
0.0
  3
$PAPER_SPACE
  1

  0
ENDBLK
  5
18
 67
     1
  8
0
  0
BLOCK
  8
0
  2
_OPEN
 70
     0
 10
0.0
 20
0.0
 30
0.0
  3
_OPEN
  1

  0
LINE
  5
1E81
  8
0
  6
BYBLOCK
 62
     0
 10
-1.0
 20
0.1666666666666666
 30
0.0
 11
0.0
 21
0.0
 31
0.0
  0
LINE
  5
1E82
  8
0
  6
BYBLOCK
 62
     0
 10
0.0
 20
0.0
 30
0.0
 11
-1.0
 21
-0.1666666666666666
 31
0.0
  0
LINE
  5
1E83
  8
0
  6
BYBLOCK
 62
     0
 10
0.0
 20
0.0
 30
0.0
 11
-1.0
 21
0.0
 31
0.0
  0
ENDBLK
  5
1E84
  8
0
  0
BLOCK
  8
0
  2
*D1
 70
     1
 10
0.0
 20
0.0
 30
0.0
  3
*D1
  1

  0
LINE
  5
9D47
  8
SP
 10
-4641.8372944800294
 20
8533.6761894656502
 30
0.0
 11
-4571.8372944800294
 21
8533.6761894656502
 31
0.0
  0
LINE
  5
9D48
  8
SP
 10
-4635.9916620436052
 20
8733.6761894656483
 30
0.0
 11
-4571.8372944800294
 21
8733.6761894656483
 31
0.0
  0
LINE
  5
9D49
  8
SP
 10
-4581.8372944800276
 20
8558.6761894656483
 30
0.0
 11
-4581.8372944800276
 21
8708.6761894656483
 31
0.0
  0
INSERT
  5
9D4A
  8
SP
  2
_OPEN
 10
-4581.8372944800276
 20
8533.6761894656502
 30
0.0
 41
25.0
 42
25.0
 43
25.0
 50
270.0
  0
INSERT
  5
9D4B
  8
SP
  2
_OPEN
 10
-4581.8372944800276
 20
8733.6761894656483
 30
0.0
 41
25.0
 42
25.0
 43
25.0
 50
90.0
  0
TEXT
  5
9D4C
  8
SP
 10
-4591.8372944800294
 20
8592.5653778432679
 30
0.0
 40
30.0
  1
200
 50
90.0
 51
15.0
  0
POINT
  5
9D4D
  8
DEFPOINTS
 62
     0
 10
-4651.8372944800276
 20
8533.6761894656502
 30
0.0
  0
POINT
  5
9D4E
  8
DEFPOINTS
 62
     0
 10
-4645.9916620436052
 20
8733.6761894656483
 30
0.0
  0
POINT
  5
9D4F
  8
DEFPOINTS
 62
     0
 10
-4581.8372944800276
 20
8733.6761894656483
 30
0.0
  0
ENDBLK
  5
5C2E
  8
0
  0
BLOCK
  8
0
  2
*D2
 70
     1
 10
0.0
 20
0.0
 30
0.0
  3
*D2
  1

  0
LINE
  5
9D62
  8
SP
 10
-4635.9916620436052
 20
8733.6761894656483
 30
0.0
 11
-4571.8372944800294
 21
8733.6761894656483
 31
0.0
  0
LINE
  5
9D63
  8
SP
 10
-4759.8372944800276
 20
8863.6761894656483
 30
0.0
 11
-4571.8372944800294
 21
8863.6761894656483
 31
0.0
  0
LINE
  5
9D64
  8
SP
 10
-4581.8372944800276
 20
8758.6761894656483
 30
0.0
 11
-4581.8372944800276
 21
8838.6761894656483
 31
0.0
  0
INSERT
  5
9D65
  8
SP
  2
_OPEN
 10
-4581.8372944800276
 20
8733.6761894656483
 30
0.0
 41
25.0
 42
25.0
 43
25.0
 50
270.0
  0
INSERT
  5
9D66
  8
SP
  2
_OPEN
 10
-4581.8372944800276
 20
8863.6761894656483
 30
0.0
 41
25.0
 42
25.0
 43
25.0
 50
90.0
  0
TEXT
  5
9D67
  8
SP
 10
-4591.8372944800294
 20
8757.1688519351737
 30
0.0
 40
30.0
  1
130
 50
90.0
 51
15.0
  0
POINT
  5
9D68
  8
DEFPOINTS
 62
     0
 10
-4645.9916620436052
 20
8733.6761894656483
 30
0.0
  0
POINT
  5
9D69
  8
DEFPOINTS
 62
     0
 10
-4769.8372944800276
 20
8863.6761894656483
 30
0.0
  0
POINT
  5
9D6A
  8
DEFPOINTS
 62
     0
 10
-4581.8372944800276
 20
8863.6761894656483
 30
0.0
  0
ENDBLK
  5
5C3B
  8
0
  0
BLOCK
  8
0
  2
*D3
 70
     1
 10
0.0
 20
0.0
 30
0.0
  3
*D3
  1

  0
LINE
  5
9D6B
  8
SP
 10
-4951.8372944800294
 20
8873.6761894656483
 30
0.0
 11
-4951.8372944800294
 21
8943.6761894656483
 31
0.0
  0
LINE
  5
9D6C
  8
SP
 10
-4791.8372944800276
 20
8896.1327277346227
 30
0.0
 11
-4791.8372944800276
 21
8943.6761894656483
 31
0.0
  0
LINE
  5
9D6D
  8
SP
 10
-4926.8372944800276
 20
8933.6761894656483
 30
0.0
 11
-4816.8372944800294
 21
8933.6761894656483
 31
0.0
  0
INSERT
  5
9D6E
  8
SP
  2
_OPEN
 10
-4951.8372944800294
 20
8933.6761894656483
 30
0.0
 41
25.0
 42
25.0
 43
25.0
 50
180.0
  0
INSERT
  5
9D6F
  8
SP
  2
_OPEN
 10
-4791.8372944800276
 20
8933.6761894656483
 30
0.0
 41
25.0
 42
25.0
 43
25.0
  0
TEXT
  5
9D70
  8
SP
 10
-4913.3446320104986
 20
8943.6761894656483
 30
0.0
 40
30.0
  1
160
 51
15.0
  0
POINT
  5
9D71
  8
DEFPOINTS
 62
     0
 10
-4951.8372944800294
 20
8863.6761894656483
 30
0.0
  0
POINT
  5
9D72
  8
DEFPOINTS
 62
     0
 10
-4791.8372944800276
 20
8886.1327277346245
 30
0.0
  0
POINT
  5
9D73
  8
DEFPOINTS
 62
     0
 10
-4791.8372944800276
 20
8933.6761894656483
 30
0.0
  0
ENDBLK
  5
6425
  8
0
  0
BLOCK
  8
0
  2
*D4
 70
     1
 10
0.0
 20
0.0
 30
0.0
  3
*D4
  1

  0
LINE
  5
9D74
  8
SP
 10
-4791.8372944800276
 20
8896.1327277346227
 30
0.0
 11
-4791.8372944800276
 21
8943.6761894656483
 31
0.0
  0
LINE
  5
9D75
  8
SP
 10
-4679.8372944800276
 20
8734.6761894656483
 30
0.0
 11
-4679.8372944800276
 21
8943.6761894656483
 31
0.0
  0
LINE
  5
9D76
  8
SP
 10
-4766.8372944800294
 20
8933.6761894656483
 30
0.0
 11
-4704.8372944800276
 21
8933.6761894656483
 31
0.0
  0
INSERT
  5
9D77
  8
SP
  2
_OPEN
 10
-4791.8372944800276
 20
8933.6761894656483
 30
0.0
 41
25.0
 42
25.0
 43
25.0
 50
180.0
  0
INSERT
  5
9D78
  8
SP
  2
_OPEN
 10
-4679.8372944800276
 20
8933.6761894656483
 30
0.0
 41
25.0
 42
25.0
 43
25.0
  0
TEXT
  5
9D79
  8
SP
 10
-4774.4874891533555
 20
8943.6761894656483
 30
0.0
 40
30.0
  1
112
 51
15.0
  0
POINT
  5
9D7A
  8
DEFPOINTS
 62
     0
 10
-4791.8372944800276
 20
8886.1327277346245
 30
0.0
  0
POINT
  5
9D7B
  8
DEFPOINTS
 62
     0
 10
-4679.8372944800276
 20
8724.6761894656483
 30
0.0
  0
POINT
  5
9D7C
  8
DEFPOINTS
 62
     0
 10
-4679.8372944800276
 20
8933.6761894656483
 30
0.0
  0
ENDBLK
  5
6432
  8
0
  0
BLOCK
  8
0
  2
*D5
 70
     1
 10
0.0
 20
0.0
 30
0.0
  3
*D5
  1

  0
LINE
  5
9D50
  8
SP
 10
-4032.196239949129
 20
8983.6761894656483
 30
0.0
 11
-4032.196239949129
 21
9013.6761894656483
 31
0.0
  0
LINE
  5
9D51
  8
SP
 10
-4293.1430189301827
 20
8800.2404605374286
 30
0.0
 11
-4293.1430189301827
 21
9013.6761894656483
 31
0.0
  0
LINE
  5
9D52
  8
SP
 10
-4057.1962399491299
 20
9003.6761894656483
 30
0.0
 11
-4268.1430189301827
 21
9003.6761894656483
 31
0.0
  0
INSERT
  5
9D53
  8
SP
  2
_OPEN
 10
-4032.196239949129
 20
9003.6761894656483
 30
0.0
 41
25.0
 42
25.0
 43
25.0
  0
INSERT
  5
9D54
  8
SP
  2
_OPEN
 10
-4293.1430189301827
 20
9003.6761894656483
 30
0.0
 41
25.0
 42
25.0
 43
25.0
 50
180.0
  0
TEXT
  5
9D55
  8
SP
 10
-4229.5793311800571
 20
9013.6761894656483
 30
0.0
 40
30.0
  1
（330）
 51
15.0
  0
POINT
  5
9D56
  8
DEFPOINTS
 62
     0
 10
-4032.196239949129
 20
8973.6761894656465
 30
0.0
  0
POINT
  5
9D57
  8
DEFPOINTS
 62
     0
 10
-4293.1430189301827
 20
8790.2404605374286
 30
0.0
  0
POINT
  5
9D58
  8
DEFPOINTS
 62
     0
 10
-4293.1430189301827
 20
9003.6761894656483
 30
0.0
  0
ENDBLK
  5
6C64
  8
0
  0
BLOCK
  8
0
  2
*D6
 70
     1
 10
0.0
 20
0.0
 30
0.0
  3
*D6
  1

  0
LINE
  5
A3DB
  8
SP
 10
-3959.196239949129
 20
8813.6761894656483
 30
0.0
 11
-3892.7739171133221
 21
8813.6761894656483
 31
0.0
  0
LINE
  5
A3DC
  8
SP
 10
-3959.196239949129
 20
8653.6761894656465
 30
0.0
 11
-3892.7739171133221
 21
8653.6761894656465
 31
0.0
  0
LINE
  5
A3DD
  8
SP
 10
-3902.7739171133221
 20
8788.6761894656483
 30
0.0
 11
-3902.7739171133221
 21
8678.6761894656465
 31
0.0
  0
INSERT
  5
A3DE
  8
SP
  2
_OPEN
 10
-3902.7739171133221
 20
8813.6761894656483
 30
0.0
 41
25.0
 42
25.0
 43
25.0
 50
90.0
  0
INSERT
  5
A3DF
  8
SP
  2
_OPEN
 10
-3902.7739171133221
 20
8653.6761894656465
 30
0.0
 41
25.0
 42
25.0
 43
25.0
 50
270.0
  0
TEXT
  5
A3E0
  8
SP
 10
-3912.7739171133239
 20
8681.7622666625684
 30
0.0
 40
30.0
  1
φ160
 50
90.0
 51
15.0
  0
POINT
  5
A3E1
  8
DEFPOINTS
 62
     0
 10
-3969.196239949129
 20
8813.6761894656483
 30
0.0
  0
POINT
  5
A3E2
  8
DEFPOINTS
 62
     0
 10
-3969.196239949129
 20
8653.6761894656465
 30
0.0
  0
POINT
  5
A3E3
  8
DEFPOINTS
 62
     0
 10
-3902.7739171133221
 20
8653.6761894656465
 30
0.0
  0
ENDBLK
  5
6C94
  8
0
  0
BLOCK
  8
0
  2
*D7
 70
     1
 10
0.0
 20
0.0
 30
0.0
  3
*D7
  1

  0
LINE
  5
9D91
  8
SP
 10
-4032.196239949129
 20
8983.6761894656483
 30
0.0
 11
-4032.196239949129
 21
9013.6761894656483
 31
0.0
  0
LINE
  5
9D92
  8
SP
 10
-3969.196239949129
 20
8841.6761894656483
 30
0.0
 11
-3969.196239949129
 21
9013.6761894656483
 31
0.0
  0
LINE
  5
9D93
  8
SP
 10
-4057.1962399491299
 20
9003.6761894656483
 30
0.0
 11
-4082.196239949129
 21
9003.6761894656483
 31
0.0
  0
LINE
  5
9D94
  8
SP
 10
-3944.1962399491281
 20
9003.6761894656483
 30
0.0
 11
-3846.5918321437571
 21
9003.6761894656483
 31
0.0
  0
LINE
  5
9D95
  8
SP
 10
-4032.196239949129
 20
9003.6761894656483
 30
0.0
 11
-3969.196239949129
 21
9003.6761894656483
 31
0.0
  0
INSERT
  5
9D96
  8
SP
  2
_OPEN
 10
-4032.196239949129
 20
9003.6761894656483
 30
0.0
 41
25.0
 42
25.0
 43
25.0
  0
INSERT
  5
9D97
  8
SP
  2
_OPEN
 10
-3969.196239949129
 20
9003.6761894656483
 30
0.0
 41
25.0
 42
25.0
 43
25.0
 50
180.0
  0
TEXT
  5
9D98
  8
SP
 10
-3911.7731650595479
 20
9013.6761894656483
 30
0.0
 40
30.0
  1
63
 51
15.0
  0
POINT
  5
9D99
  8
DEFPOINTS
 62
     0
 10
-4032.196239949129
 20
8973.6761894656465
 30
0.0
  0
POINT
  5
9D9A
  8
DEFPOINTS
 62
     0
 10
-3969.196239949129
 20
8831.6761894656483
 30
0.0
  0
POINT
  5
9D9B
  8
DEFPOINTS
 62
     0
 10
-3969.196239949129
 20
9003.6761894656483
 30
0.0
  0
ENDBLK
  5
6CA2
  8
0
  0
BLOCK
  8
0
  2
*D8
 70
     1
 10
0.0
 20
0.0
 30
0.0
  3
*D8
  1

  0
LINE
  5
9DA5
  8
SP
 10
-4088.196239949129
 20
8873.6761894656483
 30
0.0
 11
-4088.196239949129
 21
8943.6761894656483
 31
0.0
  0
LINE
  5
9DA6
  8
SP
 10
-3976.1962399491281
 20
8873.6761894656483
 30
0.0
 11
-3976.1962399491281
 21
8943.6761894656483
 31
0.0
  0
LINE
  5
9DA7
  8
SP
 10
-4063.196239949129
 20
8933.6761894656483
 30
0.0
 11
-4001.196239949129
 21
8933.6761894656483
 31
0.0
  0
INSERT
  5
9DA8
  8
SP
  2
_OPEN
 10
-4088.196239949129
 20
8933.6761894656483
 30
0.0
 41
25.0
 42
25.0
 43
25.0
 50
180.0
  0
INSERT
  5
9DA9
  8
SP
  2
_OPEN
 10
-3976.1962399491281
 20
8933.6761894656483
 30
0.0
 41
25.0
 42
25.0
 43
25.0
  0
TEXT
  5
9DAA
  8
SP
 10
-4070.8464346224559
 20
8943.6761894656483
 30
0.0
 40
30.0
  1
112
 51
15.0
  0
POINT
  5
9DAB
  8
DEFPOINTS
 62
     0
 10
-4088.196239949129
 20
8863.6761894656483
 30
0.0
  0
POINT
  5
9DAC
  8
DEFPOINTS
 62
     0
 10
-3976.1962399491281
 20
8863.6761894656483
 30
0.0
  0
POINT
  5
9DAD
  8
DEFPOINTS
 62
     0
 10
-3976.1962399491281
 20
8933.6761894656483
 30
0.0
  0
ENDBLK
  5
6CAE
  8
0
  0
BLOCK
  8
0
  2
*D9
 70
     1
 10
0.0
 20
0.0
 30
0.0
  3
*D9
  1

  0
LINE
  5
9D59
  8
SP
 10
-4641.8372944800294
 20
9531.5412464435994
 30
0.0
 11
-4541.8583004818838
 21
9531.5412464435994
 31
0.0
  0
LINE
  5
9D5A
  8
SP
 10
-4641.8372944800294
 20
9361.5412464436013
 30
0.0
 11
-4541.8583004818838
 21
9361.5412464436013
 31
0.0
  0
LINE
  5
9D5B
  8
SP
 10
-4551.8583004818838
 20
9506.5412464436013
 30
0.0
 11
-4551.8583004818838
 21
9386.5412464436013
 31
0.0
  0
INSERT
  5
9D5C
  8
SP
  2
_OPEN
 10
-4551.8583004818838
 20
9531.5412464435994
 30
0.0
 41
25.0
 42
25.0
 43
25.0
 50
90.0
  0
INSERT
  5
9D5D
  8
SP
  2
_OPEN
 10
-4551.8583004818838
 20
9361.5412464436013
 30
0.0
 41
25.0
 42
25.0
 43
25.0
 50
270.0
  0
TEXT
  5
9D5E
  8
SP
 10
-4561.8583004818838
 20
9405.0339089131285
 30
0.0
 40
30.0
  1
170
 50
90.0
 51
15.0
  0
POINT
  5
9D5F
  8
DEFPOINTS
 62
     0
 10
-4651.8372944800276
 20
9531.5412464435994
 30
0.0
  0
POINT
  5
9D60
  8
DEFPOINTS
 62
     0
 10
-4651.8372944800276
 20
9361.5412464436013
 30
0.0
  0
POINT
  5
9D61
  8
DEFPOINTS
 62
     0
 10
-4551.8583004818838
 20
9361.5412464436013
 30
0.0
  0
ENDBLK
  5
8A16
  8
0
  0
BLOCK
  8
0
  2
*D10
 70
     1
 10
0.0
 20
0.0
 30
0.0
  3
*D10
  1

  0
LINE
  5
9D86
  8
SP
 10
-4641.8372944800294
 20
9531.5412464435994
 30
0.0
 11
-4541.8583004818838
 21
9531.5412464435994
 31
0.0
  0
LINE
  5
9D87
  8
SP
 10
-4630.728180517126
 20
9594.5412464436013
 30
0.0
 11
-4541.8583004818838
 21
9594.5412464436013
 31
0.0
  0
LINE
  5
9D88
  8
SP
 10
-4551.8583004818838
 20
9506.5412464436013
 30
0.0
 11
-4551.8583004818838
 21
9481.5412464436013
 31
0.0
  0
LINE
  5
9D89
  8
SP
 10
-4551.8583004818838
 20
9619.5412464436013
 30
0.0
 11
-4551.8583004818838
 21
9717.1456542489705
 31
0.0
  0
LINE
  5
9D8A
  8
SP
 10
-4551.8583004818838
 20
9531.5412464435994
 30
0.0
 11
-4551.8583004818838
 21
9594.5412464436013
 31
0.0
  0
INSERT
  5
9D8B
  8
SP
  2
_OPEN
 10
-4551.8583004818838
 20
9531.5412464435994
 30
0.0
 41
25.0
 42
25.0
 43
25.0
 50
90.0
  0
INSERT
  5
9D8C
  8
SP
  2
_OPEN
 10
-4551.8583004818838
 20
9594.5412464436013
 30
0.0
 41
25.0
 42
25.0
 43
25.0
 50
270.0
  0
TEXT
  5
9D8D
  8
SP
 10
-4561.8583004818838
 20
9651.9643213331801
 30
0.0
 40
30.0
  1
63
 50
90.0
 51
15.0
  0
POINT
  5
9D8E
  8
DEFPOINTS
 62
     0
 10
-4651.8372944800276
 20
9531.5412464435994
 30
0.0
  0
POINT
  5
9D8F
  8
DEFPOINTS
 62
     0
 10
-4640.7281805171269
 20
9594.5412464436013
 30
0.0
  0
POINT
  5
9D90
  8
DEFPOINTS
 62
     0
 10
-4551.8583004818838
 20
9594.5412464436013
 30
0.0
  0
ENDBLK
  5
8A25
  8
0
  0
BLOCK
  8
0
  2
*D11
 70
     1
 10
0.0
 20
0.0
 30
0.0
  3
*D11
  1

  0
LINE
  5
9D7D
  8
SP
 10
-4931.8372944800294
 20
9351.5412464435994
 30
0.0
 11
-4931.8372944800294
 21
9243.5944674621296
 31
0.0
  0
LINE
  5
9D7E
  8
SP
 10
-4651.8372944800276
 20
9351.5412464435994
 30
0.0
 11
-4651.8372944800276
 21
9243.5944674621296
 31
0.0
  0
LINE
  5
9D7F
  8
SP
 10
-4906.8372944800294
 20
9253.5944674621278
 30
0.0
 11
-4676.8372944800276
 21
9253.5944674621278
 31
0.0
  0
INSERT
  5
9D80
  8
SP
  2
_OPEN
 10
-4931.8372944800294
 20
9253.5944674621278
 30
0.0
 41
25.0
 42
25.0
 43
25.0
 50
180.0
  0
INSERT
  5
9D81
  8
SP
  2
_OPEN
 10
-4651.8372944800276
 20
9253.5944674621278
 30
0.0
 41
25.0
 42
25.0
 43
25.0
  0
TEXT
  5
9D82
  8
SP
 10
-4832.9481061024062
 20
9263.5944674621278
 30
0.0
 40
30.0
  1
280
 51
15.0
  0
POINT
  5
9D83
  8
DEFPOINTS
 62
     0
 10
-4931.8372944800294
 20
9361.5412464436013
 30
0.0
  0
POINT
  5
9D84
  8
DEFPOINTS
 62
     0
 10
-4651.8372944800276
 20
9361.5412464436013
 30
0.0
  0
POINT
  5
9D85
  8
DEFPOINTS
 62
     0
 10
-4651.8372944800276
 20
9253.5944674621278
 30
0.0
  0
ENDBLK
  5
8AB0
  8
0
  0
BLOCK
  8
0
  2
_DOT
 70
     0
 10
0.0
 20
0.0
 30
0.0
  3
_DOT
  1

  0
LINE
  5
9B41
  8
0
  6
BYBLOCK
 62
     0
 10
0.0
 20
0.0
 30
0.0
 11
-1.0
 21
-0.0000000000000284
 31
0.0
  0
POLYLINE
  5
9B42
  8
0
  6
BYBLOCK
 62
     0
 66
     1
 10
0.0
 20
0.0
 30
0.0
 70
     1
 40
0.1666666666666666
 41
0.1666666666666666
  0
VERTEX
  5
A3F6
  8
0
  6
BYBLOCK
 62
     0
 10
-0.0833333333333286
 20
-0.0000000000000284
 30
0.0
 42
1.0
  0
VERTEX
  5
A3F7
  8
0
  6
BYBLOCK
 62
     0
 10
0.0833333333333286
 20
-0.0000000000000284
 30
0.0
 42
1.0
  0
SEQEND
  5
A3F8
  8
0
  6
BYBLOCK
 62
     0
  0
ENDBLK
  5
9B29
  8
0
  0
BLOCK
  8
0
  2
_NONE
 70
     0
 10
0.0
 20
0.0
 30
0.0
  3
_NONE
  1

  0
ENDBLK
  5
9B45
  8
0
  0
BLOCK
  8
0
  2
*D14
 70
     1
 10
0.0
 20
0.0
 30
0.0
  3
*D14
  1

  0
LINE
  5
9FB8
  8
SP
 10
-4265.1962399491294
 20
8441.6761894656483
 30
0.0
 11
-4265.1962399491294
 21
8301.6761894656502
 31
0.0
  0
LINE
  5
9FB9
  8
SP
 10
-4032.196239949129
 20
8532.0878311137112
 30
0.0
 11
-4032.196239949129
 21
8301.6761894656502
 31
0.0
  0
LINE
  5
9FBA
  8
SP
 10
-4240.1962399491294
 20
8311.6761894656502
 30
0.0
 11
-4057.1962399491299
 21
8311.6761894656502
 31
0.0
  0
INSERT
  5
9FBB
  8
SP
  2
_OPEN
 10
-4265.1962399491294
 20
8311.6761894656502
 30
0.0
 41
25.0
 42
25.0
 43
25.0
 50
180.0
  0
INSERT
  5
9FBC
  8
SP
  2
_OPEN
 10
-4032.196239949129
 20
8311.6761894656502
 30
0.0
 41
25.0
 42
25.0
 43
25.0
  0
TEXT
  5
9FBD
  8
SP
 10
-4190.5726206927393
 20
8321.6761894656502
 30
0.0
 40
30.0
  1
233
 51
15.0
  0
POINT
  5
9FBE
  8
DEFPOINTS
 62
     0
 10
-4265.1962399491294
 20
8451.6761894656483
 30
0.0
  0
POINT
  5
9FBF
  8
DEFPOINTS
 62
     0
 10
-4032.196239949129
 20
8542.0878311137112
 30
0.0
  0
POINT
  5
9FC0
  8
DEFPOINTS
 62
     0
 10
-4032.196239949129
 20
8311.6761894656502
 30
0.0
  0
ENDBLK
  5
9EF3
  8
0
  0
BLOCK
  8
0
  2
*D15
 70
     1
 10
0.0
 20
0.0
 30
0.0
  3
*D15
  1

  0
LINE
  5
9F3B
  8
SP
 10
-4095.196239949129
 20
8441.6761894656483
 30
0.0
 11
-4095.196239949129
 21
8371.6761894656483
 31
0.0
  0
LINE
  5
9F3C
  8
SP
 10
-4265.1962399491294
 20
8441.6761894656483
 30
0.0
 11
-4265.1962399491294
 21
8371.6761894656483
 31
0.0
  0
LINE
  5
9F3D
  8
SP
 10
-4120.1962399491294
 20
8381.6761894656483
 30
0.0
 11
-4240.1962399491294
 21
8381.6761894656483
 31
0.0
  0
INSERT
  5
9F3E
  8
SP
  2
_OPEN
 10
-4095.196239949129
 20
8381.6761894656483
 30
0.0
 41
25.0
 42
25.0
 43
25.0
  0
INSERT
  5
9F3F
  8
SP
  2
_OPEN
 10
-4265.1962399491294
 20
8381.6761894656483
 30
0.0
 41
25.0
 42
25.0
 43
25.0
 50
180.0
  0
TEXT
  5
9F40
  8
SP
 10
-4221.7035774795986
 20
8391.6761894656483
 30
0.0
 40
30.0
  1
170
 51
15.0
  0
POINT
  5
9F41
  8
DEFPOINTS
 62
     0
 10
-4095.196239949129
 20
8451.6761894656483
 30
0.0
  0
POINT
  5
9F42
  8
DEFPOINTS
 62
     0
 10
-4265.1962399491294
 20
8451.6761894656483
 30
0.0
  0
POINT
  5
9F43
  8
DEFPOINTS
 62
     0
 10
-4265.1962399491294
 20
8381.6761894656483
 30
0.0
  0
ENDBLK
  5
9EFF
  8
0
  0
BLOCK
  8
0
  2
*D16
 70
     1
 10
0.0
 20
0.0
 30
0.0
  3
*D16
  1

  0
LINE
  5
9FC1
  8
SP
 10
-4095.196239949129
 20
8441.6761894656483
 30
0.0
 11
-4095.196239949129
 21
8371.6761894656483
 31
0.0
  0
LINE
  5
9FC2
  8
SP
 10
-4032.196239949129
 20
8532.0878311137112
 30
0.0
 11
-4032.196239949129
 21
8371.6761894656483
 31
0.0
  0
LINE
  5
9FC3
  8
SP
 10
-4120.1962399491294
 20
8381.6761894656483
 30
0.0
 11
-4145.1962399491294
 21
8381.6761894656483
 31
0.0
  0
LINE
  5
9FC4
  8
SP
 10
-4007.1962399491299
 20
8381.6761894656483
 30
0.0
 11
-3909.5918321437571
 21
8381.6761894656483
 31
0.0
  0
LINE
  5
9FC5
  8
SP
 10
-4095.196239949129
 20
8381.6761894656483
 30
0.0
 11
-4032.196239949129
 21
8381.6761894656483
 31
0.0
  0
INSERT
  5
9FC6
  8
SP
  2
_OPEN
 10
-4095.196239949129
 20
8381.6761894656483
 30
0.0
 41
25.0
 42
25.0
 43
25.0
  0
INSERT
  5
9FC7
  8
SP
  2
_OPEN
 10
-4032.196239949129
 20
8381.6761894656483
 30
0.0
 41
25.0
 42
25.0
 43
25.0
 50
180.0
  0
TEXT
  5
9FC8
  8
SP
 10
-3974.7731650595479
 20
8391.6761894656483
 30
0.0
 40
30.0
  1
63
 51
15.0
  0
POINT
  5
9FC9
  8
DEFPOINTS
 62
     0
 10
-4095.196239949129
 20
8451.6761894656483
 30
0.0
  0
POINT
  5
9FCA
  8
DEFPOINTS
 62
     0
 10
-4032.196239949129
 20
8542.0878311137112
 30
0.0
  0
POINT
  5
9FCB
  8
DEFPOINTS
 62
     0
 10
-4032.196239949129
 20
8381.6761894656483
 30
0.0
  0
ENDBLK
  5
9F0D
  8
0
  0
BLOCK
  8
0
  2
*D17
 70
     1
 10
0.0
 20
0.0
 30
0.0
  3
*D17
  1

  0
LINE
  5
9FAF
  8
SP
 10
-4791.8372944800276
 20
8435.476525147631
 30
0.0
 11
-4791.8372944800276
 21
8371.6761894656483
 31
0.0
  0
LINE
  5
9FB0
  8
SP
 10
-4931.8372944800331
 20
8441.6761894656502
 30
0.0
 11
-4931.8372944800331
 21
8371.6761894656483
 31
0.0
  0
LINE
  5
9FB1
  8
SP
 10
-4816.8372944800294
 20
8381.6761894656483
 30
0.0
 11
-4906.8372944800331
 21
8381.6761894656483
 31
0.0
  0
INSERT
  5
9FB2
  8
SP
  2
_OPEN
 10
-4791.8372944800276
 20
8381.6761894656483
 30
0.0
 41
25.0
 42
25.0
 43
25.0
  0
INSERT
  5
9FB3
  8
SP
  2
_OPEN
 10
-4931.8372944800331
 20
8381.6761894656483
 30
0.0
 41
25.0
 42
25.0
 43
25.0
 50
180.0
  0
TEXT
  5
9FB4
  8
SP
 10
-4903.3446320105013
 20
8391.6761894656483
 30
0.0
 40
30.0
  1
140
 51
15.0
  0
POINT
  5
9FB5
  8
DEFPOINTS
 62
     0
 10
-4791.8372944800276
 20
8445.476525147631
 30
0.0
  0
POINT
  5
9FB6
  8
DEFPOINTS
 62
     0
 10
-4931.8372944800331
 20
8451.6761894656483
 30
0.0
  0
POINT
  5
9FB7
  8
DEFPOINTS
 62
     0
 10
-4931.8372944800331
 20
8381.6761894656483
 30
0.0
  0
ENDBLK
  5
9F19
  8
0
  0
BLOCK
  8
0
  2
*D18
 70
     1
 10
0.0
 20
0.0
 30
0.0
  3
*D18
  1

  0
LINE
  5
9F58
  8
SP
 10
-4651.8372944800303
 20
8441.6761894656502
 30
0.0
 11
-4651.8372944800303
 21
8301.6761894656502
 31
0.0
  0
LINE
  5
9F59
  8
SP
 10
-4931.8372944800267
 20
8441.6761894656502
 30
0.0
 11
-4931.8372944800267
 21
8301.6761894656502
 31
0.0
  0
LINE
  5
9F5A
  8
SP
 10
-4676.8372944800294
 20
8311.6761894656502
 30
0.0
 11
-4906.8372944800267
 21
8311.6761894656502
 31
0.0
  0
INSERT
  5
9F5B
  8
SP
  2
_OPEN
 10
-4651.8372944800303
 20
8311.6761894656502
 30
0.0
 41
25.0
 42
25.0
 43
25.0
  0
INSERT
  5
9F5C
  8
SP
  2
_OPEN
 10
-4931.8372944800267
 20
8311.6761894656502
 30
0.0
 41
25.0
 42
25.0
 43
25.0
 50
180.0
  0
TEXT
  5
9F5D
  8
SP
 10
-4832.9481061024062
 20
8321.6761894656502
 30
0.0
 40
30.0
  1
280
 51
15.0
  0
POINT
  5
9F5E
  8
DEFPOINTS
 62
     0
 10
-4651.8372944800303
 20
8451.6761894656483
 30
0.0
  0
POINT
  5
9F5F
  8
DEFPOINTS
 62
     0
 10
-4931.8372944800267
 20
8451.6761894656483
 30
0.0
  0
POINT
  5
9F60
  8
DEFPOINTS
 62
     0
 10
-4931.8372944800267
 20
8311.6761894656502
 30
0.0
  0
ENDBLK
  5
9F25
  8
0
  0
BLOCK
  8
0
  2
*D19
 70
     1
 10
0.0
 20
0.0
 30
0.0
  3
*D19
  1

  0
LINE
  5
9FA6
  8
SP
 10
-4791.8372944800276
 20
8435.476525147631
 30
0.0
 11
-4791.8372944800276
 21
8371.6761894656483
 31
0.0
  0
LINE
  5
9FA7
  8
SP
 10
-4651.8372944800303
 20
8441.6761894656502
 30
0.0
 11
-4651.8372944800303
 21
8371.6761894656483
 31
0.0
  0
LINE
  5
9FA8
  8
SP
 10
-4766.8372944800294
 20
8381.6761894656483
 30
0.0
 11
-4676.8372944800294
 21
8381.6761894656483
 31
0.0
  0
INSERT
  5
9FA9
  8
SP
  2
_OPEN
 10
-4791.8372944800276
 20
8381.6761894656483
 30
0.0
 41
25.0
 42
25.0
 43
25.0
 50
180.0
  0
INSERT
  5
9FAA
  8
SP
  2
_OPEN
 10
-4651.8372944800303
 20
8381.6761894656483
 30
0.0
 41
25.0
 42
25.0
 43
25.0
  0
TEXT
  5
9FAB
  8
SP
 10
-4763.3446320104986
 20
8391.6761894656483
 30
0.0
 40
30.0
  1
140
 51
15.0
  0
POINT
  5
9FAC
  8
DEFPOINTS
 62
     0
 10
-4791.8372944800276
 20
8445.476525147631
 30
0.0
  0
POINT
  5
9FAD
  8
DEFPOINTS
 62
     0
 10
-4651.8372944800303
 20
8451.6761894656483
 30
0.0
  0
POINT
  5
9FAE
  8
DEFPOINTS
 62
     0
 10
-4651.8372944800303
 20
8381.6761894656483
 30
0.0
  0
ENDBLK
  5
9F31
  8
0
  0
BLOCK
  8
0
  2
*D20
 70
     1
 10
0.0
 20
0.0
 30
0.0
  3
*D20
  1

  0
LINE
  5
A3F9
  8
SP
 10
-4641.8372944800267
 20
8511.6761894656502
 30
0.0
 11
-4571.8372944800294
 21
8511.6761894656502
 31
0.0
  0
LINE
  5
A3FA
  8
SP
 10
-4641.837294480024
 20
8451.6761894656483
 30
0.0
 11
-4571.8372944800294
 21
8451.6761894656483
 31
0.0
  0
LINE
  5
A3FB
  8
SP
 10
-4581.8372944800276
 20
8536.6761894656502
 30
0.0
 11
-4581.8372944800276
 21
8561.6761894656502
 31
0.0
  0
LINE
  5
A3FC
  8
SP
 10
-4581.8372944800276
 20
8426.6761894656502
 30
0.0
 11
-4581.8372944800276
 21
8330.6029199027435
 31
0.0
  0
LINE
  5
A3FD
  8
SP
 10
-4581.8372944800276
 20
8511.6761894656502
 30
0.0
 11
-4581.8372944800276
 21
8451.6761894656483
 31
0.0
  0
INSERT
  5
A3FE
  8
SP
  2
_DOT
 10
-4581.8372944800276
 20
8511.6761894656502
 30
0.0
 41
25.0
 42
25.0
 43
25.0
 50
270.0
  0
INSERT
  5
A3FF
  8
SP
  2
_OPEN
 10
-4581.8372944800276
 20
8451.6761894656483
 30
0.0
 41
25.0
 42
25.0
 43
25.0
 50
90.0
  0
TEXT
  8
0
  40
30
  5
A40B
  72
0
  71
0
 10
-4666.84
 20
8313.04
 30
0.000000
  1
60
  0
POINT
  5
A401
  8
DEFPOINTS
 62
     0
 10
-4651.8372944800267
 20
8511.6761894656502
 30
0.0
  0
POINT
  5
A402
  8
DEFPOINTS
 62
     0
 10
-4651.837294480023
 20
8451.6761894656483
 30
0.0
  0
POINT
  5
A403
  8
DEFPOINTS
 62
     0
 10
-4581.8372944800276
 20
8451.6761894656483
 30
0.0
  0
ENDBLK
  5
A27F
  8
0
  0
BLOCK
  8
0
  2
*D21
 70
     1
 10
0.0
 20
0.0
 30
0.0
  3
*D21
  1

  0
LINE
  5
A404
  8
SP
 10
-4641.8372944800294
 20
8533.6761894656502
 30
0.0
 11
-4571.8372944800294
 21
8533.6761894656502
 31
0.0
  0
LINE
  5
A405
  8
SP
 10
-4641.8372944800294
 20
8511.6761894656502
 30
0.0
 11
-4571.8372944800294
 21
8511.6761894656502
 31
0.0
  0
LINE
  5
A406
  8
SP
 10
-4581.8372944800276
 20
8533.6761894656502
 30
0.0
 11
-4581.8372944800276
 21
8511.6761894656502
 31
0.0
  0
TEXT
  8
0
  40
30
  5
A40C
  72
0
  71
0
 10
-4606.34
 20
8469.58
 30
0.000000
  1
（22）
  0
POINT
  5
A408
  8
DEFPOINTS
 62
     0
 10
-4651.8372944800276
 20
8533.6761894656502
 30
0.0
  0
POINT
  5
A409
  8
DEFPOINTS
 62
     0
 10
-4651.8372944800303
 20
8511.6761894656502
 30
0.0
  0
POINT
  5
A40A
  8
DEFPOINTS
 62
     0
 10
-4581.8372944800276
 20
8511.6761894656502
 30
0.0
  0
ENDBLK
  5
A28E
  8
0
  0
ENDSEC
  0
SECTION
  2
ENTITIES
  0
LINE
  5
5633
  8
FUTO
 10
-4757.0246944800283
 20
8672.9761894656476
 30
0.0
 11
-4728.100994480028
 21
8672.9761894656476
 31
0.0
  0
LINE
  5
5634
  8
FUTO
 10
-4681.8372944800276
 20
8763.6761894656483
 30
0.0
 11
-4756.8372944800276
 21
8838.6761894656483
 31
0.0
  0
LINE
  5
5635
  8
CT
 10
-4974.9354423350524
 20
8733.6761894656483
 30
0.0
 11
-4645.9916620436052
 21
8733.6761894656483
 31
0.0
  0
LINE
  5
5636
  8
FUTO
 10
-4951.8372944800294
 20
8863.6761894656483
 30
0.0
 11
-4951.8372944800294
 21
8746.6761894656483
 31
0.0
  0
LINE
  5
5637
  8
FUTO
 10
-4963.8372944800294
 20
8848.6761894656465
 30
0.0
 11
-4963.8372944800294
 21
8746.6761894656483
 31
0.0
  0
LINE
  5
5638
  8
FUTO
 10
-4757.8372944800294
 20
8670.6761894656483
 30
0.0
 11
-4727.8372944800276
 21
8670.6761894656483
 31
0.0
  0
LINE
  5
5639
  8
FUTO
 10
-4851.8372944800267
 20
8652.2761894656469
 30
0.0
 11
-4731.8372944800294
 21
8652.2761894656487
 31
0.0
  0
LINE
  5
563E
  8
FUTO
 10
-4686.6372944800278
 20
8670.6761894656483
 30
0.0
 11
-4897.0372944800283
 21
8670.6761894656483
 31
0.0
  0
CIRCLE
  5
5640
  8
CT
 10
-4791.8372944800276
 20
8733.6761894656483
 30
0.0
 40
90.0
  0
ARC
  5
5641
  8
FUTO
 10
-4791.8389592902568
 20
8729.9893426686776
 30
0.0
 40
64.186846818565883
 50
296.70688032493513
 51
243.24137540772611
  0
ARC
  5
5642
  8
FUTO
 10
-4782.8372944800276
 20
8724.6761894656483
 30
0.0
 40
103.0
 50
359.46838523774011
 51
85.734391084333666
  0
ARC
  5
5643
  8
FUTO
 10
-4782.8372944800276
 20
8724.6761894656483
 30
0.0
 40
115.0
 50
359.46838523774011
 51
85.734391084333666
  0
LINE
  5
5644
  8
CT
 10
-4791.8372944800276
 20
8886.1327277346245
 30
0.0
 11
-4791.8372944800276
 21
8445.476525147631
 31
0.0
  0
LINE
  5
5645
  8
FUTO
 10
-4900.2372944800281
 20
8536.6761894656502
 30
0.0
 11
-4900.2372944800281
 21
8765.2761894656505
 31
0.0
  0
LINE
  5
5646
  8
FUTO
 10
-4901.8372944800276
 20
8536.213904973738
 30
0.0
 11
-4901.8372944800276
 21
8763.6761894656483
 31
0.0
  0
LINE
  5
5647
  8
FUTO
 10
-4903.437294480028
 20
8533.6761894656502
 30
0.0
 11
-4931.8372944800267
 21
8533.6761894656502
 31
0.0
  0
LINE
  5
5648
  8
FUTO
 10
-4902.8372944800294
 20
8535.2761894656487
 30
0.0
 11
-4931.8372944800267
 21
8535.2761894656487
 31
0.0
  0
LINE
  5
564B
  8
CT
 10
-4918.8372944800276
 20
8520.7003335502086
 30
0.0
 11
-4918.8372944800276
 21
8542.7003335502086
 31
0.0
  0
LINE
  5
564C
  8
FUTO
 10
-4931.8372944800294
 20
8533.6761894656502
 30
0.0
 11
-4931.8372944800267
 21
8535.2761894656487
 31
0.0
  0
ARC
  5
564D
  8
FUTO
 10
-4900.2372944800281
 20
8533.6761894656502
 30
0.0
 40
3.0
 50
179.8805091064215
 51
179.99999999999989
  0
ARC
  5
564E
  8
FUTO
 10
-4902.8372944800294
 20
8536.2761894656487
 30
0.0
 40
1.0
 50
270.0
 51
359.99999999999989
  0
ARC
  5
564F
  8
FUTO
 10
-4903.437294480028
 20
8536.8761894656491
 30
0.0
 40
3.2000000000000002
 50
270.0
 51
359.99999999999989
  0
ARC
  5
5651
  8
FUTO
 10
-4804.8372944800276
 20
8746.6761894656483
 30
0.0
 40
147.0
 50
227.28135548563679
 51
270.4071282142686
  0
ARC
  5
5652
  8
FUTO
 10
-4804.8372944800276
 20
8746.6761894656483
 30
0.0
 40
159.0
 50
222.78469491064249
 51
270.4071282142686
  0
LINE
  5
5653
  8
CT
 10
-4891.0030818611949
 20
8653.8761894656473
 30
0.0
 11
-4910.4772834717551
 21
8653.8761894656473
 31
0.0
  0
LINE
  5
5654
  8
CT
 10
-4891.0030818611949
 20
8598.8761894656491
 30
0.0
 11
-4910.4772834717551
 21
8598.8761894656491
 31
0.0
  0
ARC
  5
5655
  8
FUTO
 10
-4802.8372944800294
 20
8722.6761894656502
 30
0.0
 40
135.0
 50
269.55492060374399
 51
0.4864775862401415
  0
ARC
  5
5656
  8
FUTO
 10
-4802.8372944800294
 20
8722.6761894656502
 30
0.0
 40
123.0
 50
269.55492060374399
 51
0.4864775862401415
  0
LINE
  5
5657
  8
FUTO
 10
-4901.8372944800276
 20
8763.6761894656483
 30
0.0
 11
-4826.8372944800294
 21
8838.6761894656483
 31
0.0
  0
ARC
  5
5658
  8
FUTO
 10
-4826.9734944800293
 20
8676.6762894656495
 30
0.0
 40
3.7000999999999991
 50
265.39090000000562
 51
321.17369999999789
  0
LINE
  5
5659
  8
FUTO
 10
-4825.8372944800276
 20
8670.6761894656483
 30
0.0
 11
-4855.8372944800276
 21
8670.6761894656483
 31
0.0
  0
LINE
  5
565A
  8
CT
 10
-4829.7229542841724
 20
8642.2121157470319
 30
0.0
 11
-4822.8346525016013
 21
8658.8419473322356
 31
0.0
  0
CIRCLE
  5
565B
  8
FUTO
 10
-4826.2788033928864
 20
8650.5270315396356
 30
0.0
 40
4.0
  0
LINE
  5
565C
  8
FUTO
 10
-4855.8372944800276
 20
8672.9761894656476
 30
0.0
 11
-4855.8372944800276
 21
8670.6761894656483
 31
0.0
  0
LINE
  5
565D
  8
FUTO
 10
-4885.6133390482737
 20
8670.6761894656483
 30
0.0
 11
-4851.8372944800276
 21
8652.2761894656487
 31
0.0
  0
LINE
  5
565E
  8
FUTO
 10
-4900.2372944800281
 20
8584.8761894656491
 30
0.0
 11
-4900.2372944800281
 21
8668.4761894656476
 31
0.0
  0
LINE
  5
565F
  8
FUTO
 10
-4898.6372944800278
 20
8583.8761894656473
 30
0.0
 11
-4898.6372944800278
 21
8667.4761894656494
 31
0.0
  0
LINE
  5
5660
  8
FUTO
 10
-4900.2372944800281
 20
8583.8761894656473
 30
0.0
 11
-4898.6372944800278
 21
8583.8761894656473
 31
0.0
  0
LINE
  5
5661
  8
FUTO
 10
-4882.6762916945127
 20
8669.0761894656498
 30
0.0
 11
-4897.0372944800283
 21
8669.0761894656498
 31
0.0
  0
ARC
  5
5662
  8
FUTO
 10
-4897.0372944800283
 20
8667.4761894656494
 30
0.0
 40
1.6000000000000001
 50
89.999999999999986
 51
179.99999999999989
  0
ARC
  5
5663
  8
FUTO
 10
-4897.0372944800283
 20
8667.4761894656494
 30
0.0
 40
3.2000000000000002
 50
89.999999999999986
 51
179.99999999999989
  0
LINE
  5
5664
  8
CT
 10
-4883.3013681986458
 20
8771.5618492697922
 30
0.0
 11
-4866.6715366134422
 21
8764.6735474872203
 31
0.0
  0
LINE
  5
5665
  8
CT
 10
-4883.3013681986458
 20
8695.7905296615063
 30
0.0
 11
-4866.6715366134422
 21
8702.6788314440782
 31
0.0
  0
CIRCLE
  5
5666
  8
FUTO
 10
-4874.986452406044
 20
8699.2346805527923
 30
0.0
 40
4.0
  0
CIRCLE
  5
5667
  8
FUTO
 10
-4874.986452406044
 20
8768.1176983785081
 30
0.0
 40
4.0
  0
LINE
  5
5668
  8
FUTO
 10
-4855.8372944800276
 20
8672.9761894656476
 30
0.0
 11
-4826.9733944800282
 21
8672.9761894656476
 31
0.0
  0
LINE
  5
5669
  8
FUTO
 10
-4841.4221944800283
 20
8687.3912894656496
 30
0.0
 11
-4855.8372944800276
 21
8672.9761894656476
 31
0.0
  0
ARC
  5
566A
  8
FUTO
 10
-4826.6846944800291
 20
8677.1759894656498
 30
0.0
 40
5.9997999999999987
 50
278.11690000000289
 51
319.2816000000052
  0
ARC
  5
566B
  8
FUTO
 10
-4756.8165944800276
 20
8677.1760894656509
 30
0.0
 40
5.9999000000000002
 50
219.05360000000061
 51
260.37079999999759
  0
LINE
  5
566C
  8
FUTO
 10
-4825.8372944800276
 20
8671.2323894656474
 30
0.0
 11
-4825.8372944800276
 21
8670.6761894656483
 31
0.0
  0
LINE
  5
566D
  8
CT
 10
-4753.9516346758837
 20
8642.2121157470319
 30
0.0
 11
-4760.8399364584557
 21
8658.8419473322356
 31
0.0
  0
CIRCLE
  5
566E
  8
FUTO
 10
-4757.3957855671706
 20
8650.5270315396356
 30
0.0
 40
4.0
  0
LINE
  5
566F
  8
FUTO
 10
-4757.8372944800294
 20
8671.2520894656482
 30
0.0
 11
-4757.8372944800294
 21
8670.6761894656483
 31
0.0
  0
LINE
  5
5670
  8
FUTO
 10
-4820.8354944800294
 20
8672.6761894656483
 30
0.0
 11
-4762.9365944800284
 21
8672.6761894656483
 31
0.0
  0
ARC
  5
5671
  8
FUTO
 10
-4756.7586944800287
 20
8676.2763894656473
 30
0.0
 40
3.3001999999999989
 50
213.98149999999779
 51
269.9986999999993
  0
CIRCLE
  5
5672
  8
FUTO
 10
-4826.2788033928864
 20
8816.8253473916666
 30
0.0
 40
4.0
  0
LINE
  5
5673
  8
FUTO
 10
-4756.8372944800276
 20
8838.6761894656483
 30
0.0
 11
-4826.8372944800294
 21
8838.6761894656483
 31
0.0
  0
ARC
  5
5674
  8
FUTO
 10
-4804.8372944800276
 20
8746.6761894656483
 30
0.0
 40
159.0
 50
180.0
 51
222.78469491064249
  0
ARC
  5
5675
  8
FUTO
 10
-4804.8372944800276
 20
8746.6761894656483
 30
0.0
 40
147.0
 50
180.0
 51
227.28135548563679
  0
LINE
  5
5676
  8
CT
 10
-4829.7229542841724
 20
8825.1402631842666
 30
0.0
 11
-4822.8346525016013
 21
8808.5104315990648
 31
0.0
  0
CIRCLE
  5
5677
  8
FUTO
 10
-4757.3957855671706
 20
8816.8253473916648
 30
0.0
 40
4.0
  0
LINE
  5
5678
  8
CT
 10
-4753.9516346758837
 20
8825.1402631842648
 30
0.0
 11
-4760.8399364584548
 21
8808.5104315990648
 31
0.0
  0
LINE
  5
5679
  8
FUTO
 10
-4683.437294480028
 20
8536.8761894656491
 30
0.0
 11
-4683.437294480028
 21
8765.2761894656505
 31
0.0
  0
LINE
  5
567A
  8
FUTO
 10
-4681.8372944800276
 20
8536.2761894656487
 30
0.0
 11
-4681.8372944800276
 21
8763.6761894656483
 31
0.0
  0
LINE
  5
567D
  8
FUTO
 10
-4680.8372944800276
 20
8535.2761894656487
 30
0.0
 11
-4651.8372944800276
 21
8535.2761894656487
 31
0.0
  0
LINE
  5
567E
  8
FUTO
 10
-4680.2372944800281
 20
8533.6761894656502
 30
0.0
 11
-4651.8372944800276
 21
8533.6761894656502
 31
0.0
  0
LINE
  5
567F
  8
CT
 10
-4664.8372944800294
 20
8520.7003335502086
 30
0.0
 11
-4664.8372944800294
 21
8542.7003335502086
 31
0.0
  0
ARC
  5
5680
  8
FUTO
 10
-4680.2372944800281
 20
8536.8761894656491
 30
0.0
 40
3.2000000000000002
 50
179.99999999999989
 51
270.0
  0
ARC
  5
5682
  8
FUTO
 10
-4680.8372944800276
 20
8536.2761894656487
 30
0.0
 40
1.0
 50
179.99999999999989
 51
270.0
  0
LINE
  5
5683
  8
FUTO
 10
-4651.8372944800276
 20
8533.6761894656502
 30
0.0
 11
-4651.8372944800276
 21
8535.2761894656487
 31
0.0
  0
LINE
  5
5686
  8
FUTO
 10
-4937.8372944800276
 20
8848.6761894656465
 30
0.0
 11
-4805.8372944800276
 21
8848.6761894656465
 31
0.0
  0
LINE
  5
5687
  8
FUTO
 10
-4973.8372944800294
 20
8863.6761894656483
 30
0.0
 11
-4769.8372944800276
 21
8863.6761894656483
 31
0.0
  0
LINE
  5
5688
  8
FUTO
 10
-4954.8372944800294
 20
8862.6761894656483
 30
0.0
 11
-4769.8372944800276
 21
8862.6761894656483
 31
0.0
  0
LINE
  5
5689
  8
FUTO
 10
-4769.8372944800276
 20
8863.6761894656483
 30
0.0
 11
-4769.8372944800276
 21
8862.6761894656483
 31
0.0
  0
LINE
  5
568A
  8
CT
 10
-4779.8372944800276
 20
8870.8610350440813
 30
0.0
 11
-4779.8372944800276
 21
8852.9924161740491
 31
0.0
  0
LINE
  5
568B
  8
FUTO
 10
-4727.8372944800276
 20
8672.9761894656476
 30
0.0
 11
-4727.8372944800276
 21
8670.6761894656483
 31
0.0
  0
LINE
  5
568C
  8
FUTO
 10
-4698.0612499117833
 20
8670.6761894656483
 30
0.0
 11
-4731.8372944800294
 21
8652.2761894656487
 31
0.0
  0
LINE
  5
568D
  8
FUTO
 10
-4685.0372944800283
 20
8583.8761894656473
 30
0.0
 11
-4685.0372944800292
 21
8667.4761894656494
 31
0.0
  0
LINE
  5
568E
  8
FUTO
 10
-4683.437294480028
 20
8583.8761894656473
 30
0.0
 11
-4683.437294480028
 21
8667.4761894656494
 31
0.0
  0
LINE
  5
568F
  8
CT
 10
-4673.5288525614369
 20
8598.8761894656491
 30
0.0
 11
-4693.0030541719971
 21
8598.8761894656491
 31
0.0
  0
LINE
  5
5690
  8
FUTO
 10
-4683.437294480028
 20
8583.8761894656473
 30
0.0
 11
-4685.0372944800283
 21
8583.8761894656473
 31
0.0
  0
LINE
  5
5691
  8
CT
 10
-4673.5288525614369
 20
8653.8761894656473
 30
0.0
 11
-4693.0030541719971
 21
8653.8761894656473
 31
0.0
  0
ARC
  5
5692
  8
FUTO
 10
-4686.6372944800278
 20
8667.4761894656494
 30
0.0
 40
1.6000000000000001
 50
359.99999999999989
 51
89.999999999999986
  0
LINE
  5
5693
  8
FUTO
 10
-4686.6372944800278
 20
8669.0761894656498
 30
0.0
 11
-4700.9982972655444
 21
8669.0761894656462
 31
0.0
  0
ARC
  5
5694
  8
FUTO
 10
-4686.6372944800278
 20
8667.4761894656494
 30
0.0
 40
3.2000000000000002
 50
359.99999999999989
 51
89.999999999999986
  0
LINE
  5
5695
  8
CT
 10
-4700.3732207614112
 20
8771.5618492697922
 30
0.0
 11
-4717.0030523466139
 21
8764.6735474872203
 31
0.0
  0
LINE
  5
5696
  8
CT
 10
-4700.3732207614112
 20
8695.7905296615063
 30
0.0
 11
-4717.0030523466139
 21
8702.6788314440764
 31
0.0
  0
LINE
  5
5697
  8
FUTO
 10
-4742.4913944800282
 20
8687.6302894656474
 30
0.0
 11
-4727.8372944800276
 21
8672.9761894656476
 31
0.0
  0
CIRCLE
  5
5698
  8
FUTO
 10
-4708.6881365540121
 20
8699.2346805527886
 30
0.0
 40
4.0
  0
CIRCLE
  5
5699
  8
FUTO
 10
-4708.6881365540121
 20
8768.1176983785081
 30
0.0
 40
4.0
  0
ARC
  5
569A
  8
FUTO
 10
-4773.8372944800276
 20
8845.3410144976351
 30
0.0
 40
18.0
 50
185.30688733632439
 51
265.73439108433371
  0
ARC
  5
569B
  8
FUTO
 10
-4788.3830879370034
 20
8838.6761894656483
 30
0.0
 40
10.0
 50
29.999999999997261
 51
90.0
  0
ARC
  5
569C
  8
FUTO
 10
-4788.3830879370034
 20
8838.6761894656483
 30
0.0
 40
10.0
 50
24.617063955485818
 51
29.999999999997261
  0
ARC
  5
569D
  8
FUTO
 10
-4773.8372944800276
 20
8845.3410144976351
 30
0.0
 40
6.0
 50
204.61706395548029
 51
265.73439108433371
  0
ARC
  5
569E
  8
FUTO
 10
-4788.8372944800276
 20
8860.6761894656483
 30
0.0
 40
2.0
 50
90.0
 51
180.0
  0
LINE
  5
569F
  8
FUTO
 10
-4791.8372944800276
 20
8848.6761894656465
 30
0.0
 11
-4788.3830879370034
 21
8848.6761894656465
 31
0.0
  0
ARC
  5
56A0
  8
FUTO
 10
-4773.8372944800276
 20
8845.3410144976351
 30
0.0
 40
18.0
 50
180.0
 51
185.30688733632439
  0
LINE
  5
56A1
  8
FUTO
 10
-4790.8372944800276
 20
8860.6761894656483
 30
0.0
 11
-4790.8372944800276
 21
8848.6761894656465
 31
0.0
  0
ARC
  5
56A2
  8
FUTO
 10
-4792.8372944800249
 20
8858.8477623409017
 30
0.0
 40
2.0
 50
0.0
 51
134.99999999999071
  0
LINE
  5
56A3
  8
FUTO
 10
-4794.2515080423982
 20
8860.261975903275
 30
0.0
 11
-4805.8372944800276
 21
8848.6761894656465
 31
0.0
  0
LINE
  5
56A4
  8
FUTO
 10
-4973.8372944800294
 20
8863.6761894656483
 30
0.0
 11
-4973.8372944800294
 21
8862.6761894656483
 31
0.0
  0
LINE
  5
56A5
  8
CT
 10
-4963.8372944800294
 20
8870.8610350440813
 30
0.0
 11
-4963.8372944800294
 21
8854.2998756768175
 31
0.0
  0
LINE
  5
56A6
  8
FUTO
 10
-4973.8372944800294
 20
8862.6761894656483
 30
0.0
 11
-4954.8372944800294
 21
8862.6761894656483
 31
0.0
  0
LINE
  5
56A7
  8
FUTO
 10
-4963.8372944800294
 20
8848.6761894656465
 30
0.0
 11
-4951.8372944800294
 21
8848.6761894656465
 31
0.0
  0
ARC
  5
56A8
  8
FUTO
 10
-4954.8372944800294
 20
8860.6761894656483
 30
0.0
 40
2.0
 50
0.0
 51
90.0
  0
LINE
  5
56A9
  8
FUTO
 10
-4952.8372944800294
 20
8860.6761894656483
 30
0.0
 11
-4952.8372944800294
 21
8848.6761894656465
 31
0.0
  0
ARC
  5
56AA
  8
FUTO
 10
-4950.8372944800276
 20
8858.8477623409017
 30
0.0
 40
2.0
 50
45.000000000009187
 51
180.0
  0
LINE
  5
56AB
  8
FUTO
 10
-4949.4230809176552
 20
8860.261975903275
 30
0.0
 11
-4937.8372944800276
 21
8848.6761894656465
 31
0.0
  0
DIMENSION
  5
5C22
  8
SP
  2
*D1
 10
-4581.8372944800276
 20
8733.6761894656483
 30
0.0
 11
-4606.8372944800294
 21
8633.6761894656465
 31
0.0
 70
     0
 13
-4651.8372944800276
 23
8533.6761894656502
 33
0.0
 14
-4645.9916620436052
 24
8733.6761894656483
 34
0.0
 50
90.0
  0
DIMENSION
  5
5C2F
  8
SP
  2
*D2
 10
-4581.8372944800276
 20
8863.6761894656483
 30
0.0
 11
-4606.8372944800294
 21
8798.6761894656465
 31
0.0
 70
     0
 13
-4645.9916620436052
 23
8733.6761894656483
 33
0.0
 14
-4769.8372944800276
 24
8863.6761894656483
 34
0.0
 50
90.0
  0
DIMENSION
  5
6419
  8
SP
  2
*D3
 10
-4791.8372944800276
 20
8933.6761894656483
 30
0.0
 11
-4871.8372944800294
 21
8958.6761894656483
 31
0.0
 70
     0
 13
-4951.8372944800294
 23
8863.6761894656483
 33
0.0
 14
-4791.8372944800276
 24
8886.1327277346245
 34
0.0
  0
DIMENSION
  5
6426
  8
SP
  2
*D4
 10
-4679.8372944800276
 20
8933.6761894656483
 30
0.0
 11
-4735.8372944800276
 21
8958.6761894656483
 31
0.0
 70
     0
 13
-4791.8372944800276
 23
8886.1327277346245
 33
0.0
 14
-4679.8372944800276
 24
8724.6761894656483
 34
0.0
  0
DIMENSION
  5
6B5F
  8
SP
  2
*D5
 10
-4293.1430189301827
 20
9003.6761894656483
 30
0.0
 11
-4162.669629439657
 21
9028.6761894656465
 31
0.0
 70
     0
  1
（330）
 13
-4032.196239949129
 23
8973.6761894656465
 33
0.0
 14
-4293.1430189301827
 24
8790.2404605374286
 34
0.0
  0
LINE
  5
6B60
  8
CT
 10
-4084.4695767361532
 20
8823.6761894656483
 30
0.0
 11
-4098.9749639438369
 21
8823.6761894656483
 31
0.0
  0
ARC
  5
6B61
  8
FUTO
 10
-4093.196239949129
 20
8831.6761894656483
 30
0.0
 40
2.0
 50
90.0
 51
180.0
  0
LINE
  5
6B62
  8
FUTO
 10
-4109.1962399491294
 20
8863.6761894656483
 30
0.0
 11
-3955.1962399491281
 21
8863.6761894656483
 31
0.0
  0
LINE
  5
6B63
  8
FUTO
 10
-4109.1962399491294
 20
8862.6761894656483
 30
0.0
 11
-3955.1962399491281
 21
8862.6761894656483
 31
0.0
  0
LINE
  5
6B64
  8
CT
 10
-4084.4695767361532
 20
8643.6761894656483
 30
0.0
 11
-4098.9749639438369
 21
8643.6761894656483
 31
0.0
  0
ARC
  5
6B65
  8
FUTO
 10
-4093.712340346452
 20
8635.6761894656483
 30
0.0
 40
2.0
 50
222.1022253431089
 51
270.0
  0
LINE
  5
6B6B
  8
FUTO
 10
-4095.196239949129
 20
8838.6761894656483
 30
0.0
 11
-4095.196239949129
 21
8533.6761894656502
 31
0.0
  0
LINE
  5
6B6C
  8
FUTO
 10
-4096.7962399491289
 20
8838.6761894656483
 30
0.0
 11
-4096.7962399491289
 21
8533.6761894656502
 31
0.0
  0
LINE
  5
6B6D
  8
FUTO
 10
-4265.1962399491294
 20
8535.2761894656469
 30
0.0
 11
-4155.1962399491304
 21
8706.8761894656491
 31
0.0
  0
LINE
  5
6B6F
  8
FUTO
 10
-4095.1962399491281
 20
8533.6761894656465
 30
0.0
 11
-4265.1962399491294
 21
8533.6761894656502
 31
0.0
  0
LINE
  5
6B70
  8
FUTO
 10
-4096.7962399491289
 20
8535.2761894656469
 30
0.0
 11
-4265.1962399491294
 21
8535.2761894656469
 31
0.0
  0
LINE
  5
6B72
  8
FUTO
 10
-4265.1962399491294
 20
8533.6761894656502
 30
0.0
 11
-4265.1962399491294
 21
8535.2761894656469
 31
0.0
  0
LINE
  5
6B75
  8
FUTO
 10
-4267.9962399491287
 20
8670.6761894656483
 30
0.0
 11
-4178.4013681542574
 21
8670.6761894656483
 31
0.0
  0
LINE
  5
6B76
  8
FUTO
 10
-4267.9962399491287
 20
8669.0761894656462
 30
0.0
 11
-4179.427009179899
 21
8669.0761894656462
 31
0.0
  0
LINE
  5
6B77
  8
FUTO
 10
-4224.3949536910886
 20
8598.9261960281892
 30
0.0
 11
-4262.6102004954109
 21
8669.0761894656462
 31
0.0
  0
ARC
  5
6B7C
  8
FUTO
 10
-4267.9962399491287
 20
8667.4761894656494
 30
0.0
 40
3.2000000000000002
 50
90.0
 51
180.0
  0
ARC
  5
6B7D
  8
FUTO
 10
-4267.9962399491287
 20
8667.4761894656494
 30
0.0
 40
1.6000000000000001
 50
90.0
 51
180.0
  0
LINE
  5
6B7E
  8
FUTO
 10
-4269.5962399491291
 20
8652.2761894656487
 30
0.0
 11
-4269.5962399491291
 21
8667.4761894656494
 31
0.0
  0
LINE
  5
6B7F
  8
FUTO
 10
-4271.1962399491294
 20
8652.2761894656487
 30
0.0
 11
-4271.1962399491294
 21
8667.4761894656494
 31
0.0
  0
LINE
  5
6B80
  8
FUTO
 10
-4271.1962399491276
 20
8652.2761894656487
 30
0.0
 11
-4269.5962399491291
 21
8652.2761894656487
 31
0.0
  0
LINE
  5
6B96
  8
FUTO
 10
-4095.196239949129
 20
8713.2886948957093
 30
0.0
 11
-4095.1962399491281
 21
8634.3352785927054
 31
0.0
  0
LINE
  5
6B98
  8
FUTO
 10
-4155.1962399491304
 20
8706.8761894656491
 30
0.0
 11
-4096.7962399491289
 21
8765.2761894656469
 31
0.0
  0
LINE
  5
6BA2
  8
FUTO
 10
-4109.1962399491294
 20
8862.6761894656483
 30
0.0
 11
-4109.1962399491294
 21
8863.6761894656483
 31
0.0
  0
POINT
  5
6BA3
  8
FUTO
 10
-4095.196239949129
 20
8831.6761894656483
 30
0.0
  0
POINT
  5
6BA4
  8
FUTO
 10
-4095.196239949129
 20
8831.6761894656483
 30
0.0
  0
LINE
  5
6BA5
  8
FUTO
 10
-4096.7962399491289
 20
8838.6761894656483
 30
0.0
 11
-4095.196239949129
 21
8838.6761894656483
 31
0.0
  0
LINE
  5
6BA6
  8
CT
 10
-4099.1962399491294
 20
8855.3347615312232
 30
0.0
 11
-4099.1962399491294
 21
8870.0176174000717
 31
0.0
  0
LINE
  5
6BA7
  8
FUTO
 10
-4033.3962399491302
 20
8595.6761894656465
 30
0.0
 11
-4033.3962399491302
 21
8588.8761894656491
 31
0.0
  0
LINE
  5
6BA8
  8
FUTO
 10
-4030.9962399491292
 20
8595.6761894656465
 30
0.0
 11
-4030.9962399491292
 21
8588.8761894656491
 31
0.0
  0
LINE
  5
6BA9
  8
CT
 10
-4032.196239949129
 20
8542.0878311137112
 30
0.0
 11
-4032.196239949129
 21
8924.3420348391664
 31
0.0
  0
ARC
  5
6BAC
  8
FUTO
 10
-4032.196239949129
 20
8588.8761894656491
 30
0.0
 40
1.1999999999999991
 50
180.0
 51
0.0
  0
DIMENSION
  5
6BAE
  8
SP
  2
*D6
 10
-3902.7739171133221
 20
8653.6761894656465
 30
0.0
 11
-3927.7739171133239
 21
8733.6761894656483
 31
0.0
 70
     0
 13
-3969.196239949129
 23
8813.6761894656483
 33
0.0
 14
-3969.196239949129
 24
8653.6761894656465
 34
0.0
 50
90.0
1001
ACAD
1000
DSTYLE
1002
{
1070
     3
1000
φ<>
1002
}
  0
DIMENSION
  5
6BAF
  8
SP
  2
*D7
 10
-3969.196239949129
 20
9003.6761894656483
 30
0.0
 11
-3882.8940360464421
 21
9028.6761894656465
 31
0.0
 70
     0
 13
-4032.196239949129
 23
8973.6761894656465
 33
0.0
 14
-3969.196239949129
 24
8831.6761894656483
 34
0.0
  0
LINE
  5
6BB0
  8
FUTO
 10
-3969.196239949129
 20
8831.6761894656483
 30
0.0
 11
-3969.196239949129
 21
8713.2886948957093
 31
0.0
  0
LINE
  5
6BB1
  8
FUTO
 10
-4088.7962399491298
 20
8733.6761894656483
 30
0.0
 11
-4088.7962399491298
 21
8863.6761894656483
 31
0.0
  0
LINE
  5
6BB2
  8
FUTO
 10
-4088.196239949129
 20
8606.6761894656483
 30
0.0
 11
-4088.196239949129
 21
8863.6761894656483
 31
0.0
  0
LINE
  5
6BB3
  8
FUTO
 10
-4088.7962399491298
 20
8606.6761894656483
 30
0.0
 11
-4088.7962399491298
 21
8863.6761894656483
 31
0.0
  0
LINE
  5
6BB4
  8
FUTO
 10
-3975.5962399491291
 20
8603.7418126640423
 30
0.0
 11
-3975.59623994913
 21
8863.6761894656483
 31
0.0
  0
LINE
  5
6BB5
  8
FUTO
 10
-3976.1962399491281
 20
8603.8493101372987
 30
0.0
 11
-3976.1962399491281
 21
8863.6761894656483
 31
0.0
  0
LINE
  5
6BB6
  8
FUTO
 10
-4080.196239949129
 20
8598.6761894656465
 30
0.0
 11
-3983.680139551806
 21
8598.6761894656465
 31
0.0
  0
LINE
  5
6BB7
  8
FUTO
 10
-4080.196239949129
 20
8598.0761894656498
 30
0.0
 11
-3983.680139551806
 21
8598.0761894656498
 31
0.0
  0
LINE
  5
6BB8
  8
FUTO
 10
-4088.796239949128
 20
8633.6761894656483
 30
0.0
 11
-4093.712340346452
 21
8633.6761894656483
 31
0.0
  0
ARC
  5
6BB9
  8
FUTO
 10
-4080.196239949129
 20
8606.6761894656483
 30
0.0
 40
8.0
 50
180.0
 51
270.0
  0
ARC
  5
6BBA
  8
FUTO
 10
-4080.196239949129
 20
8606.6761894656483
 30
0.0
 40
8.5999999999999996
 50
180.0
 51
270.0
  0
ARC
  5
6BBB
  8
FUTO
 10
-4036.3962399491288
 20
8595.6761894656465
 30
0.0
 40
3.0
 50
0.0
 51
53.130102354166411
  0
ARC
  5
6BBC
  8
FUTO
 10
-4027.9962399491278
 20
8595.6761894656465
 30
0.0
 40
3.0
 50
126.8698976458336
 51
180.0
  0
LINE
  5
6BBD
  8
FUTO
 10
-3969.196239949129
 20
8713.2886948957093
 30
0.0
 11
-3969.196239949129
 21
8634.3352785927054
 31
0.0
  0
LINE
  5
6BBE
  8
CT
 10
-3979.9229031621039
 20
8643.6761894656483
 30
0.0
 11
-3965.4175159544202
 21
8643.6761894656483
 31
0.0
  0
LINE
  5
6BBF
  8
FUTO
 10
-3975.5962399491291
 20
8633.6761894656483
 30
0.0
 11
-3970.680139551806
 21
8633.6761894656483
 31
0.0
  0
ARC
  5
6BC0
  8
FUTO
 10
-3983.680139551806
 20
8606.6761894656483
 30
0.0
 40
8.0
 50
270.0
 51
339.30703913986719
  0
ARC
  5
6BC1
  8
FUTO
 10
-3983.680139551806
 20
8606.6761894656483
 30
0.0
 40
8.5999999999999996
 50
270.0
 51
340.04959599021743
  0
LINE
  5
6BC2
  8
CT
 10
-3976.1962399491281
 20
8653.6761894656465
 30
0.0
 11
-3975.59623994913
 21
8653.6761894656465
 31
0.0
  0
LINE
  5
6BC3
  8
CT
 10
-3976.1962399491281
 20
8653.6761894656465
 30
0.0
 11
-3975.59623994913
 21
8653.6761894656465
 31
0.0
  0
ARC
  5
6BC4
  8
FUTO
 10
-3970.680139551806
 20
8635.6761894656483
 30
0.0
 40
2.0
 50
270.0
 51
317.8977746568911
  0
LINE
  5
6BC5
  8
CT
 10
-3976.1962399491281
 20
8813.6761894656483
 30
0.0
 11
-3975.59623994913
 21
8813.6761894656483
 31
0.0
  0
LINE
  5
6BC6
  8
FUTO
 10
-3989.7820263867588
 20
8848.6761894656465
 30
0.0
 11
-4074.6104535114991
 21
8848.6761894656465
 31
0.0
  0
DIMENSION
  5
6BC7
  8
SP
  2
*D8
 10
-3976.1962399491281
 20
8933.6761894656483
 30
0.0
 11
-4032.196239949129
 21
8958.6761894656483
 31
0.0
 70
     0
 13
-4088.196239949129
 23
8863.6761894656483
 33
0.0
 14
-3976.1962399491281
 24
8863.6761894656483
 34
0.0
  0
LINE
  5
6BC8
  8
FUTO
 10
-4086.1962399491299
 20
8860.261975903275
 30
0.0
 11
-4088.196239949129
 21
8860.261975903275
 31
0.0
  0
LINE
  5
6BC9
  8
FUTO
 10
-4088.796239949128
 20
8833.6761894656483
 30
0.0
 11
-4093.196239949129
 21
8833.6761894656483
 31
0.0
  0
LINE
  5
6BCA
  8
FUTO
 10
-4086.1962399491299
 20
8860.261975903275
 30
0.0
 11
-4074.6104535114991
 21
8848.6761894656465
 31
0.0
  0
ARC
  5
6BCB
  8
FUTO
 10
-3971.196239949129
 20
8831.6761894656483
 30
0.0
 40
2.0
 50
0.0
 51
90.0
  0
LINE
  5
6BCC
  8
CT
 10
-3979.9229031621039
 20
8823.6761894656483
 30
0.0
 11
-3965.4175159544202
 21
8823.6761894656483
 31
0.0
  0
LINE
  5
6BCD
  8
FUTO
 10
-3978.1962399491281
 20
8860.261975903275
 30
0.0
 11
-3989.7820263867588
 21
8848.6761894656465
 31
0.0
  0
LINE
  5
6BCE
  8
FUTO
 10
-3975.5962399491291
 20
8833.6761894656483
 30
0.0
 11
-3971.196239949129
 21
8833.6761894656483
 31
0.0
  0
LINE
  5
6BCF
  8
FUTO
 10
-3978.1962399491281
 20
8860.261975903275
 30
0.0
 11
-3976.1962399491281
 21
8860.261975903275
 31
0.0
  0
POINT
  5
6BD0
  8
FUTO
 10
-3969.196239949129
 20
8831.6761894656483
 30
0.0
  0
POINT
  5
6BD1
  8
FUTO
 10
-3969.196239949129
 20
8831.6761894656483
 30
0.0
  0
LINE
  5
6BD2
  8
FUTO
 10
-3955.1962399491281
 20
8862.6761894656483
 30
0.0
 11
-3955.1962399491281
 21
8863.6761894656483
 31
0.0
  0
LINE
  5
6BD3
  8
CT
 10
-3965.196239949129
 20
8855.3347615312232
 30
0.0
 11
-3965.196239949129
 21
8870.0176174000717
 31
0.0
  0
ARC
  5
6BD6
  8
FUTO
 10
-4789.8372944800294
 20
9651.5412464436013
 30
0.0
 40
20.0
 50
0.0
 51
90.0
  0
CIRCLE
  5
6BD7
  8
FUTO
 10
-4779.8372944800276
 20
9634.5412464436013
 30
0.0
 40
4.0
  0
LINE
  5
6BD8
  8
CT
 10
-4787.2186191844858
 20
9634.5412464436013
 30
0.0
 11
-4772.4559697755694
 21
9634.5412464436013
 31
0.0
  0
LINE
  5
6BD9
  8
CT
 10
-4787.2186191844858
 20
9554.5412464436013
 30
0.0
 11
-4772.4559697755694
 21
9554.5412464436013
 31
0.0
  0
CIRCLE
  5
6BDA
  8
FUTO
 10
-4779.8372944800276
 20
9554.5412464436013
 30
0.0
 40
4.0
  0
ARC
  5
6BDE
  8
FUTO
 10
-4789.8372944800294
 20
9537.5412464435994
 30
0.0
 40
20.0
 50
270.0
 51
0.0
  0
LINE
  5
6BE5
  8
CT
 10
-4640.7281805171269
 20
9594.5412464436013
 30
0.0
 11
-4993.3231530031562
 21
9594.5412464436013
 31
0.0
  0
LINE
  5
6BEA
  8
CT
 10
-4963.8372944800267
 20
9641.9225711480594
 30
0.0
 11
-4963.8372944800267
 21
9627.1599217391431
 31
0.0
  0
LINE
  5
6BEB
  8
FUTO
 10
-4973.8372944800294
 20
9651.5412464436013
 30
0.0
 11
-4973.8372944800294
 21
9537.5412464435994
 31
0.0
  0
LINE
  5
6BEC
  8
FUTO
 10
-4953.8372944800276
 20
9641.5412464436013
 30
0.0
 11
-4953.8372944800276
 21
9547.5412464436013
 31
0.0
  0
LINE
  5
6BED
  8
CT
 10
-4779.8372944800294
 20
9641.9225711480594
 30
0.0
 11
-4779.8372944800294
 21
9627.1599217391431
 31
0.0
  0
LINE
  5
6BEE
  8
CT
 10
-4791.8372944800276
 20
9706.5326023159396
 30
0.0
 11
-4791.8372944800276
 21
9306.3458193096176
 31
0.0
  0
LINE
  5
6BEF
  8
FUTO
 10
-4789.8372944800294
 20
9641.5412464436013
 30
0.0
 11
-4789.8372944800294
 21
9547.5412464436013
 31
0.0
  0
LINE
  5
6BF0
  8
HOSO
 10
-4950.9083622918943
 20
9540.4701786317346
 30
0.0
 11
-4792.7662266681618
 21
9648.6123142554661
 31
0.0
  0
LINE
  5
6BF1
  8
HOSO
 10
-4950.9083622918943
 20
9648.6123142554661
 30
0.0
 11
-4792.7662266681618
 21
9540.4701786317346
 31
0.0
  0
LINE
  5
6BF4
  8
FUTO
 10
-4953.8372944800276
 20
9517.5412464436013
 30
0.0
 11
-4789.8372944800294
 21
9517.5412464436013
 31
0.0
  0
LINE
  5
6BF5
  8
FUTO
 10
-4943.8372944800294
 20
9537.5412464435994
 30
0.0
 11
-4799.8372944800276
 21
9537.5412464435994
 31
0.0
  0
ARC
  5
6BF8
  8
FUTO
 10
-4953.8372944800276
 20
9537.5412464435994
 30
0.0
 40
20.0
 50
180.0
 51
270.0
  0
CIRCLE
  5
6BF9
  8
FUTO
 10
-4963.8372944800294
 20
9554.5412464436013
 30
0.0
 40
4.0
  0
LINE
  5
6BFA
  8
CT
 10
-4956.4559697755712
 20
9554.5412464436013
 30
0.0
 11
-4971.2186191844867
 21
9554.5412464436013
 31
0.0
  0
POINT
  5
6BFB
  8
DEFPOINTS
 10
-4973.8372944800294
 20
9537.5412464435994
 30
0.0
  0
ARC
  5
6BFC
  8
FUTO
 10
-4943.8372944800294
 20
9547.5412464436013
 30
0.0
 40
10.0
 50
180.0
 51
270.0
  0
LINE
  5
6BFD
  8
CT
 10
-4963.8372944800267
 20
9547.1599217391413
 30
0.0
 11
-4963.8372944800267
 21
9561.9225711480594
 31
0.0
  0
LINE
  5
6BFE
  8
CT
 10
-4956.4559697755712
 20
9634.5412464436013
 30
0.0
 11
-4971.2186191844867
 21
9634.5412464436013
 31
0.0
  0
CIRCLE
  5
6BFF
  8
FUTO
 10
-4963.8372944800294
 20
9634.5412464436013
 30
0.0
 40
4.0
  0
CIRCLE
  5
6C0B
  8
FUTO
 10
-4921.8372944800276
 20
9527.5412464436013
 30
0.0
 40
4.0
  0
LINE
  5
6C0C
  8
CT
 10
-4921.8372944800276
 20
9520.1599217391431
 30
0.0
 11
-4921.8372944800276
 21
9534.9225711480594
 31
0.0
  0
LINE
  5
6C0D
  8
CT
 10
-4929.2186191844867
 20
9527.5412464436013
 30
0.0
 11
-4914.4559697755703
 21
9527.5412464436013
 31
0.0
  0
CIRCLE
  5
6C0E
  8
FUTO
 10
-4821.8372944800294
 20
9527.5412464436013
 30
0.0
 40
4.0
  0
LINE
  5
6C0F
  8
CT
 10
-4821.8372944800294
 20
9520.1599217391431
 30
0.0
 11
-4821.8372944800294
 21
9534.9225711480594
 31
0.0
  0
LINE
  5
6C1A
  8
CT
 10
-4829.2186191844867
 20
9527.5412464436013
 30
0.0
 11
-4814.4559697755703
 21
9527.5412464436013
 31
0.0
  0
ARC
  5
6C1B
  8
FUTO
 10
-4799.8372944800276
 20
9547.5412464436013
 30
0.0
 40
10.0
 50
270.0
 51
0.0
  0
LINE
  5
6C1C
  8
CT
 10
-4779.8372944800294
 20
9547.1599217391413
 30
0.0
 11
-4779.8372944800294
 21
9561.9225711480594
 31
0.0
  0
LINE
  5
6C1F
  8
FUTO
 10
-4943.8372944800294
 20
9651.5412464436013
 30
0.0
 11
-4799.8372944800276
 21
9651.5412464436013
 31
0.0
  0
LINE
  5
6C20
  8
FUTO
 10
-4953.8372944800276
 20
9671.5412464436013
 30
0.0
 11
-4789.8372944800294
 21
9671.5412464436013
 31
0.0
  0
ARC
  5
6C21
  8
FUTO
 10
-4953.8372944800276
 20
9651.5412464436013
 30
0.0
 40
20.0
 50
90.0
 51
180.0
  0
ARC
  5
6C22
  8
FUTO
 10
-4943.8372944800294
 20
9641.5412464436013
 30
0.0
 40
10.0
 50
90.0
 51
180.0
  0
LINE
  5
6C27
  8
CT
 10
-4929.2186191844867
 20
9661.5412464436031
 30
0.0
 11
-4914.4559697755703
 21
9661.5412464436031
 31
0.0
  0
CIRCLE
  5
6C28
  8
FUTO
 10
-4921.8372944800276
 20
9661.5412464436031
 30
0.0
 40
4.0
  0
LINE
  5
6C29
  8
CT
 10
-4921.8372944800276
 20
9668.9225711480594
 30
0.0
 11
-4921.8372944800276
 21
9654.1599217391431
 31
0.0
  0
CIRCLE
  5
6C2A
  8
FUTO
 10
-4821.8372944800294
 20
9661.5412464436031
 30
0.0
 40
4.0
  0
LINE
  5
6C2B
  8
CT
 10
-4829.2186191844867
 20
9661.5412464436031
 30
0.0
 11
-4814.4559697755703
 21
9661.5412464436031
 31
0.0
  0
LINE
  5
6C2C
  8
CT
 10
-4821.8372944800294
 20
9668.9225711480594
 30
0.0
 11
-4821.8372944800294
 21
9654.1599217391431
 31
0.0
  0
ARC
  5
6C2D
  8
FUTO
 10
-4799.8372944800276
 20
9641.5412464436013
 30
0.0
 40
10.0
 50
0.0
 51
90.0
  0
LINE
  5
6C2F
  8
FUTO
 10
-4667.8372944800294
 20
9546.2831962449382
 30
0.0
 11
-4667.8372944800294
 21
9642.7992966422607
 31
0.0
  0
LINE
  5
6C30
  8
FUTO
 10
-4668.437294480028
 20
9546.2831962449382
 30
0.0
 11
-4668.437294480028
 21
9642.7992966422607
 31
0.0
  0
LINE
  5
6C31
  8
FUTO
 10
-4769.8372944800276
 20
9651.5412464436013
 30
0.0
 11
-4769.8372944800276
 21
9537.5412464435994
 31
0.0
  0
LINE
  5
6C40
  8
FUTO
 10
-4676.437294480027
 20
9537.6831962449396
 30
0.0
 11
-4769.8372944800276
 21
9537.6831962449396
 31
0.0
  0
LINE
  5
6C41
  8
FUTO
 10
-4676.437294480027
 20
9538.2831962449382
 30
0.0
 11
-4769.8372944800276
 21
9538.2831962449382
 31
0.0
  0
POINT
  5
6C48
  8
DEFPOINTS
 10
-4769.8372944800276
 20
9537.5412464435994
 30
0.0
  0
LINE
  5
6C49
  8
CT
 10
-4701.8372944800276
 20
9524.3575731466008
 30
0.0
 11
-4701.8372944800276
 21
9535.3305936665893
 31
0.0
  0
LINE
  5
6C4B
  8
FUTO
 10
-4691.8372944800294
 20
9532.9412464436009
 30
0.0
 11
-4691.8372944800294
 21
9537.9412464435991
 31
0.0
  0
ARC
  5
6C4C
  8
FUTO
 10
-4693.8372944800294
 20
9532.9412464435973
 30
0.0
 40
2.0
 50
270.0
 51
0.0
  0
ARC
  5
6C4E
  8
FUTO
 10
-4676.437294480027
 20
9546.2831962449382
 30
0.0
 40
8.0
 50
270.0
 51
0.0
  0
ARC
  5
6C4F
  8
FUTO
 10
-4676.437294480027
 20
9546.2831962449382
 30
0.0
 40
8.5999999999999996
 50
270.0
 51
0.0
  0
LINE
  5
6C50
  8
FUTO
 10
-4673.6104151516793
 20
9650.2831962449382
 30
0.0
 11
-4769.8372944800276
 21
9650.2831962449382
 31
0.0
  0
LINE
  5
6C51
  8
FUTO
 10
-4673.502917678421
 20
9650.8831962449403
 30
0.0
 11
-4769.8372944800276
 21
9650.8831962449403
 31
0.0
  0
ARC
  5
6C53
  8
FUTO
 10
-4676.437294480027
 20
9642.7992966422607
 30
0.0
 40
8.0
 50
0.0
 51
69.307039139858006
  0
ARC
  5
6C54
  8
FUTO
 10
-4676.437294480027
 20
9642.7992966422607
 30
0.0
 40
8.5999999999999996
 50
0.0
 51
70.049595990192955
  0
LINE
  5
821A
  8
FUTO
 10
-4693.8372944800294
 20
9530.9412464436009
 30
0.0
 11
-4770.9576758398116
 21
9530.9412464436009
 31
0.0
  0
LINE
  5
8459
  8
CT
 10
-4283.8360939272716
 20
8733.6761894656483
 30
0.0
 11
-3954.8923136358239
 21
8733.6761894656483
 31
0.0
  0
LINE
  5
8483
  8
FUTO
 10
-4122.8430189306009
 20
8790.7761894656487
 30
0.0
 11
-4241.1430189306011
 21
8790.7761894656487
 31
0.0
  0
LINE
  5
8484
  8
FUTO
 10
-4241.1430189306011
 20
8673.1761894656483
 30
0.0
 11
-4241.1430189306011
 21
8794.1761894656483
 31
0.0
  0
LINE
  5
8485
  8
FUTO
 10
-4241.1430189306011
 20
8794.1761894656483
 30
0.0
 11
-4262.1430189306011
 21
8794.1761894656483
 31
0.0
  0
LINE
  5
8486
  8
FUTO
 10
-4263.1430189306011
 20
8793.1761894656483
 30
0.0
 11
-4292.2095189306019
 21
8791.2383894656487
 31
0.0
  0
ARC
  5
8487
  8
FUTO
 10
-4292.1429189306009
 20
8790.2404894656484
 30
0.0
 40
1.0000999999999991
 50
93.821000000000112
 51
180.00165729919101
  0
ARC
  5
8488
  8
FUTO
 10
-4262.1429189306018
 20
8793.1761894656483
 30
0.0
 40
1.0000999999999991
 50
90.003500000015705
 51
180.0
  0
LINE
  5
8489
  8
CT
 10
-4184.1962399491294
 20
8666.4715762572214
 30
0.0
 11
-4184.1962399491294
 21
8800.8808026740753
 31
0.0
  0
LINE
  5
848A
  8
FUTO
 10
-4125.1430189306011
 20
8790.7761894656487
 30
0.0
 11
-4125.1430189306029
 21
8736.9294104841756
 31
0.0
  0
LINE
  5
848B
  8
FUTO
 10
-4119.3386189306011
 20
8771.9427894656474
 30
0.0
 11
-4122.8119189306017
 21
8785.5544894656487
 31
0.0
  0
ARC
  5
848C
  8
FUTO
 10
-4121.8481189306031
 20
8785.8011894656483
 30
0.0
 40
0.9948999999999999
 50
179.9684000000118
 51
194.3577000000175
  0
LINE
  5
848D
  8
FUTO
 10
-4122.8430189306009
 20
8790.7761894656487
 30
0.0
 11
-4122.8430189306009
 21
8739.2294104841767
 31
0.0
  0
ARC
  5
848E
  8
FUTO
 10
-4125.440618930601
 20
8770.3853894656495
 30
0.0
 40
6.2976000000000001
 50
359.9977999999864
 51
14.318099999985799
  0
ARC
  5
848F
  8
FUTO
 10
-4120.8432189306022
 20
8743.2293894656486
 30
0.0
 40
4.7001999999999988
 50
27.487694404151469
 51
44.998399999985907
  0
LINE
  5
8490
  8
FUTO
 10
-4117.5196189306034
 20
8746.5527894656461
 30
0.0
 11
-4118.8501189306016
 21
8747.8832894656462
 31
0.0
  0
ARC
  5
8491
  8
FUTO
 10
-4118.1433189306017
 20
8748.5902894656483
 30
0.0
 40
0.9996999999999999
 50
179.99650000001029
 51
225.00989999999129
  0
LINE
  5
8492
  8
FUTO
 10
-4119.1430189306011
 20
8770.385089465648
 30
0.0
 11
-4119.1430189306011
 21
8742.9294104841756
 31
0.0
  0
ARC
  5
8493
  8
FUTO
 10
-4197.8923189306024
 20
8685.5363894656475
 30
0.0
 40
7.9999000000000002
 50
90.0
 51
166.00459999998009
  0
ARC
  5
8494
  8
FUTO
 10
-4212.3114189306007
 20
8692.4708894656487
 30
0.0
 40
8.0
 50
270.0
 51
334.31589999997709
  0
LINE
  5
8495
  8
FUTO
 10
-4205.6548189306013
 20
8687.4710894656491
 30
0.0
 11
-4208.5761189306013
 21
8675.7506894656472
 31
0.0
  0
LINE
  5
8496
  8
FUTO
 10
-4170.3937189306007
 20
8693.5362894656464
 30
0.0
 11
-4197.8923189306024
 21
8693.5362894656464
 31
0.0
  0
LINE
  5
8497
  8
FUTO
 10
-4207.1178189306002
 20
8673.4761894656476
 30
0.0
 11
-4176.6064963593863
 21
8673.4761894656476
 31
0.0
  0
ARC
  5
8498
  8
FUTO
 10
-4211.4871189306014
 20
8676.4761894656476
 30
0.0
 40
3.0
 50
270.0
 51
346.00480000002312
  0
ARC
  5
8499
  8
FUTO
 10
-4211.486918930601
 20
8676.4760894656501
 30
0.0
 40
5.2999000000000001
 50
269.99930000000768
 51
326.34980000002167
  0
LINE
  5
849A
  8
FUTO
 10
-4234.1430189306011
 20
8671.1761894656483
 30
0.0
 11
-4211.486918930601
 21
8671.1761894656483
 31
0.0
  0
LINE
  5
849B
  8
FUTO
 10
-4234.1430189306011
 20
8673.4761894656476
 30
0.0
 11
-4211.4871189306014
 21
8673.4761894656476
 31
0.0
  0
ARC
  5
849C
  8
FUTO
 10
-4226.1430189306011
 20
8676.4708894656487
 30
0.0
 40
8.0
 50
90.0
 51
180.0
  0
LINE
  5
849D
  8
FUTO
 10
-4234.1430189306011
 20
8671.1761894656483
 30
0.0
 11
-4234.1430189306011
 21
8676.4708894656487
 31
0.0
  0
LINE
  5
849E
  8
FUTO
 10
-4234.1430189306011
 20
8677.576189465648
 30
0.0
 11
-4241.1430189306011
 21
8677.576189465648
 31
0.0
  0
LINE
  5
849F
  8
CT
 10
-4224.1430189306002
 20
8679.4076394656477
 30
0.0
 11
-4224.1430189306002
 21
8667.5447394656476
 31
0.0
  0
LINE
  5
84A0
  8
FUTO
 10
-4212.3114189306007
 20
8684.4708894656487
 30
0.0
 11
-4226.1430189306011
 21
8684.4708894656487
 31
0.0
  0
ARC
  5
84A1
  8
FUTO
 10
-4170.3938189306027
 20
8685.5362894656482
 30
0.0
 40
8.0000999999999998
 50
48.146064575376911
 51
89.999599999985804
  0
LINE
  5
84A2
  8
FUTO
 10
-4293.1430189306011
 20
8790.2404894656484
 30
0.0
 11
-4293.1430189306011
 21
8677.1117894656509
 31
0.0
  0
LINE
  5
84A3
  8
FUTO
 10
-4263.1430189306011
 20
8793.1761894656483
 30
0.0
 11
-4263.1430189306011
 21
8674.1761894656483
 31
0.0
  0
LINE
  5
84A4
  8
FUTO
 10
-4263.1430189306011
 20
8674.1761894656483
 30
0.0
 11
-4292.2095189306019
 21
8676.113989465648
 31
0.0
  0
ARC
  5
84A5
  8
FUTO
 10
-4292.1429189306009
 20
8677.1118894656465
 30
0.0
 40
1.0000999999999991
 50
180.0069999999923
 51
266.17899999999992
  0
ARC
  5
84A6
  8
FUTO
 10
-4262.1429189306018
 20
8674.1761894656483
 30
0.0
 40
1.0000999999999991
 50
180.0
 51
269.99649999998422
  0
LINE
  5
84A7
  8
FUTO
 10
-4241.1430189306011
 20
8673.1761894656483
 30
0.0
 11
-4262.1430189306011
 21
8673.1761894656483
 31
0.0
  0
LINE
  5
8814
  8
FUTO
 10
-4724.3372944800294
 20
9385.5944674621296
 30
0.0
 11
-4859.3372944800276
 21
9385.5944674621278
 31
0.0
  0
LINE
  5
8815
  8
FUTO
 10
-4858.3372944800294
 20
9363.5944674621278
 30
0.0
 11
-4725.3372944800276
 21
9363.5944674621278
 31
0.0
  0
LINE
  5
8816
  8
CT
 10
-4719.4937963554248
 20
9442.5412464436013
 30
0.0
 11
-4866.6132963554273
 21
9442.5412464436013
 31
0.0
  0
LINE
  5
8817
  8
FUTO
 10
-4848.1203350952101
 20
9333.5944674621278
 30
0.0
 11
-4735.5542538648469
 21
9333.5944674621278
 31
0.0
  0
LINE
  5
8818
  8
FUTO
 10
-4735.2372944800281
 20
9506.0803602373853
 30
0.0
 11
-4848.4372944800289
 21
9506.0803602373853
 31
0.0
  0
LINE
  5
8819
  8
FUTO
 10
-4735.2372944800281
 20
9508.3803602373846
 30
0.0
 11
-4848.4372944800289
 21
9508.3803602373846
 31
0.0
  0
LINE
  5
881A
  8
FUTO
 10
-4754.0706944800277
 20
9511.8847602373862
 30
0.0
 11
-4740.4589944800282
 21
9508.4114602373847
 31
0.0
  0
LINE
  5
881B
  8
FUTO
 10
-4848.4372944800289
 20
9508.3803602373846
 30
0.0
 11
-4848.4372944800289
 21
9385.5944674621278
 31
0.0
  0
LINE
  5
881C
  8
FUTO
 10
-4854.9401189979162
 20
9363.5944674621278
 30
0.0
 11
-4849.1009159000769
 21
9334.3983519728754
 31
0.0
  0
LINE
  5
881D
  8
FUTO
 10
-4859.3372944800276
 20
9385.5944674621278
 30
0.0
 11
-4859.3372944800276
 21
9364.5944674621278
 31
0.0
  0
ARC
  5
881E
  8
FUTO
 10
-4858.3372944800294
 20
9364.5944674621278
 30
0.0
 40
1.0
 50
180.0
 51
270.0
  0
ARC
  5
881F
  8
FUTO
 10
-4848.1203350952101
 20
9334.5944674621278
 30
0.0
 40
1.0
 50
191.3098947346725
 51
270.0
  0
LINE
  5
8820
  8
FUTO
 10
-4755.6283944800289
 20
9512.0803602373853
 30
0.0
 11
-4828.1002944800284
 21
9512.0803602373853
 31
0.0
  0
LINE
  5
8821
  8
FUTO
 10
-4829.5541944800289
 20
9511.9103602373852
 30
0.0
 11
-4844.3234944800288
 21
9508.4073602373865
 31
0.0
  0
LINE
  5
8822
  8
FUTO
 10
-4848.4372944800289
 20
9508.4241602373877
 30
0.0
 11
-4848.4372944800289
 21
9497.0036602373857
 31
0.0
  0
ARC
  5
8823
  8
FUTO
 10
-4844.5542944800281
 20
9509.3815602373834
 30
0.0
 40
1.0012000000000001
 50
270.00349999998957
 51
283.32969999999011
  0
ARC
  5
8824
  8
FUTO
 10
-4828.1002944800284
 20
9505.7801602373856
 30
0.0
 40
6.3002000000000002
 50
89.999399999991695
 51
103.3419999999974
  0
LINE
  5
8825
  8
FUTO
 10
-4800.8903944800277
 20
9515.0803602373853
 30
0.0
 11
-4782.7840944800282
 21
9515.0803602373853
 31
0.0
  0
ARC
  5
8826
  8
FUTO
 10
-4806.2513944800276
 20
9513.0800602373856
 30
0.0
 40
0.9996999999999999
 50
269.99649999998422
 51
315.009899999982
  0
LINE
  5
8827
  8
FUTO
 10
-4804.213894480029
 20
9513.7037602373875
 30
0.0
 11
-4805.5443944800281
 21
9512.3732602373875
 31
0.0
  0
ARC
  5
8828
  8
FUTO
 10
-4800.8902944800284
 20
9510.3800602373867
 30
0.0
 40
4.7003000000000004
 50
90.001499999994792
 51
134.9984000000135
  0
LINE
  5
8829
  8
FUTO
 10
-4799.3372944800303
 20
9529.3412464436005
 30
0.0
 11
-4799.3372944800276
 21
9515.0803602373853
 31
0.0
  0
LINE
  5
882A
  8
FUTO
 10
-4779.4606944800289
 20
9513.7037602373875
 30
0.0
 11
-4778.1301944800289
 21
9512.3732602373875
 31
0.0
  0
ARC
  5
882B
  8
FUTO
 10
-4777.4231944800276
 20
9513.0800602373856
 30
0.0
 40
0.9996999999999999
 50
224.99010000001789
 51
270.00349999998957
  0
ARC
  5
882C
  8
FUTO
 10
-4782.7840944800282
 20
9510.3801602373878
 30
0.0
 40
4.7001999999999988
 50
45.00159999998646
 51
90.0
  0
LINE
  5
882D
  8
FUTO
 10
-4784.3372944800312
 20
9529.3412464436005
 30
0.0
 11
-4784.3372944800276
 21
9515.0803602373853
 31
0.0
  0
ARC
  5
882E
  8
FUTO
 10
-4755.6280944800283
 20
9505.7827602373854
 30
0.0
 40
6.2976000000000001
 50
75.681899999984111
 51
90.00219999998744
  0
LINE
  5
882F
  8
FUTO
 10
-4735.2372944800281
 20
9508.3803602373846
 30
0.0
 11
-4735.23729448003
 21
9385.5944674621296
 31
0.0
  0
LINE
  5
8830
  8
FUTO
 10
-4728.7344699621399
 20
9363.5944674621296
 30
0.0
 11
-4734.5736730599801
 21
9334.3983519728754
 31
0.0
  0
ARC
  5
8831
  8
FUTO
 10
-4725.3372944800276
 20
9364.5944674621278
 30
0.0
 40
1.0
 50
270.0
 51
0.0
  0
LINE
  5
8832
  8
FUTO
 10
-4724.3372944800294
 20
9385.5944674621278
 30
0.0
 11
-4724.3372944800294
 21
9364.5944674621278
 31
0.0
  0
ARC
  5
8833
  8
FUTO
 10
-4735.5542538648469
 20
9334.5944674621278
 30
0.0
 40
1.0
 50
270.0
 51
348.69010526532742
  0
ARC
  5
8834
  8
FUTO
 10
-4740.2122944800276
 20
9509.3752602373861
 30
0.0
 40
0.9948999999999999
 50
255.64230000000441
 51
270.03159999998809
  0
LINE
  5
8835
  8
FUTO
 10
-4681.8372944800294
 20
9355.5412464436013
 30
0.0
 11
-4730.3451086492041
 21
9355.5412464436013
 31
0.0
  0
LINE
  5
8836
  8
CT
 10
-4674.8372944800276
 20
9381.5412464436013
 30
0.0
 11
-4654.8372944800294
 21
9381.5412464436013
 31
0.0
  0
CIRCLE
  5
8837
  8
FUTO
 10
-4664.8372944800294
 20
9381.5412464436013
 30
0.0
 40
6.0
  0
LINE
  5
8838
  8
FUTO
 10
-4681.8372944800276
 20
9361.5412464436013
 30
0.0
 11
-4651.8372944800276
 21
9361.5412464436013
 31
0.0
  0
LINE
  5
8839
  8
CT
 10
-4664.8372944800294
 20
9391.5412464436013
 30
0.0
 11
-4664.8372944800294
 21
9371.5412464436013
 31
0.0
  0
LINE
  5
883A
  8
FUTO
 10
-4651.8372944800276
 20
9531.5412464435994
 30
0.0
 11
-4651.8372944800276
 21
9361.5412464436013
 31
0.0
  0
LINE
  5
883B
  8
FUTO
 10
-4681.8372944800294
 20
9355.5412464436013
 30
0.0
 11
-4681.8372944800294
 21
9531.5412464435994
 31
0.0
  0
LINE
  5
883C
  8
FUTO
 10
-4681.8372944800294
 20
9530.9412464436009
 30
0.0
 11
-4901.8372944800276
 21
9530.9412464436009
 31
0.0
  0
LINE
  5
883D
  8
FUTO
 10
-4681.8372944800276
 20
9529.3412464436005
 30
0.0
 11
-4901.8372944800276
 21
9529.3412464436005
 31
0.0
  0
ARC
  5
883E
  8
FUTO
 10
-4693.8372944800294
 20
9532.9412464436009
 30
0.0
 40
2.0
 50
270.0
 51
0.0
  0
LINE
  5
883F
  8
CT
 10
-4701.8372944800276
 20
9524.3575731466008
 30
0.0
 11
-4701.8372944800276
 21
9535.3305936665893
 31
0.0
  0
LINE
  5
8840
  8
FUTO
 10
-4691.8372944800294
 20
9532.9412464436009
 30
0.0
 11
-4691.8372944800294
 21
9537.9412464436009
 31
0.0
  0
ARC
  5
8841
  8
FUTO
 10
-4889.8372944800276
 20
9532.9412464436009
 30
0.0
 40
2.0
 50
180.0
 51
270.0
  0
LINE
  5
8842
  8
FUTO
 10
-4891.8372944800294
 20
9532.9412464436009
 30
0.0
 11
-4891.8372944800294
 21
9537.9412464436009
 31
0.0
  0
LINE
  5
8843
  8
CT
 10
-4881.8372944800276
 20
9524.3575731466008
 30
0.0
 11
-4881.8372944800276
 21
9535.3305936665893
 31
0.0
  0
LINE
  5
8844
  8
FUTO
 10
-4901.8372944800276
 20
9355.5412464436013
 30
0.0
 11
-4901.8372944800276
 21
9531.5412464435994
 31
0.0
  0
LINE
  5
8845
  8
FUTO
 10
-4931.8372944800294
 20
9531.5412464435994
 30
0.0
 11
-4931.8372944800294
 21
9361.5412464436013
 31
0.0
  0
LINE
  5
8846
  8
FUTO
 10
-4901.8372944800276
 20
9361.5412464436013
 30
0.0
 11
-4931.8372944800294
 21
9361.5412464436013
 31
0.0
  0
LINE
  5
8847
  8
CT
 10
-4918.8372944800276
 20
9391.5412464436013
 30
0.0
 11
-4918.8372944800276
 21
9371.5412464436013
 31
0.0
  0
CIRCLE
  5
8848
  8
FUTO
 10
-4918.8372944800276
 20
9381.5412464436013
 30
0.0
 40
6.0
  0
LINE
  5
8849
  8
CT
 10
-4908.8372944800276
 20
9381.5412464436013
 30
0.0
 11
-4928.8372944800276
 21
9381.5412464436013
 31
0.0
  0
LINE
  5
884A
  8
FUTO
 10
-4931.8372944800294
 20
9531.5412464435994
 30
0.0
 11
-4901.8372944800276
 21
9531.5412464435994
 31
0.0
  0
LINE
  5
884B
  8
CT
 10
-4918.8372944800276
 20
9521.5412464436013
 30
0.0
 11
-4918.8372944800276
 21
9501.5412464436013
 31
0.0
  0
LINE
  5
884C
  8
CT
 10
-4908.8372944800276
 20
9511.5412464436013
 30
0.0
 11
-4928.8372944800276
 21
9511.5412464436013
 31
0.0
  0
CIRCLE
  5
884D
  8
FUTO
 10
-4918.8372944800276
 20
9511.5412464436013
 30
0.0
 40
6.0
  0
LINE
  5
884E
  8
FUTO
 10
-4901.8372944800276
 20
9530.9412464436009
 30
0.0
 11
-4901.8372944800276
 21
9529.3412464436005
 31
0.0
  0
LINE
  5
884F
  8
FUTO
 10
-4853.3294803108529
 20
9355.5412464436013
 30
0.0
 11
-4901.8372944800276
 21
9355.5412464436013
 31
0.0
  0
CIRCLE
  5
8850
  8
FUTO
 10
-4664.8372944800294
 20
9511.5412464436013
 30
0.0
 40
6.0
  0
LINE
  5
8851
  8
CT
 10
-4674.8372944800276
 20
9511.5412464436013
 30
0.0
 11
-4654.8372944800294
 21
9511.5412464436013
 31
0.0
  0
LINE
  5
8852
  8
CT
 10
-4664.8372944800294
 20
9521.5412464436013
 30
0.0
 11
-4664.8372944800294
 21
9501.5412464436013
 31
0.0
  0
LINE
  5
8853
  8
FUTO
 10
-4651.8372944800276
 20
9531.5412464435994
 30
0.0
 11
-4681.8372944800276
 21
9531.5412464435994
 31
0.0
  0
DIMENSION
  5
8A0A
  8
SP
  2
*D9
 10
-4551.8583004818838
 20
9361.5412464436013
 30
0.0
 11
-4576.8583004818847
 21
9446.5412464435994
 31
0.0
 70
     0
 13
-4651.8372944800276
 23
9531.5412464435994
 33
0.0
 14
-4651.8372944800276
 24
9361.5412464436013
 34
0.0
 50
90.0
  0
DIMENSION
  5
8A17
  8
SP
  2
*D10
 10
-4551.8583004818838
 20
9594.5412464436013
 30
0.0
 11
-4576.8583004818847
 21
9680.8434503462831
 31
0.0
 70
     0
 13
-4651.8372944800276
 23
9531.5412464435994
 33
0.0
 14
-4640.7281805171269
 24
9594.5412464436013
 34
0.0
 50
90.0
  0
DIMENSION
  5
8AA4
  8
SP
  2
*D11
 10
-4651.8372944800276
 20
9253.5944674621278
 30
0.0
 11
-4791.8372944800276
 21
9278.5944674621278
 31
0.0
 70
     0
 13
-4931.8372944800294
 23
9361.5412464436013
 33
0.0
 14
-4651.8372944800276
 24
9361.5412464436013
 34
0.0
  0
LINE
  5
8C86
  8
4
 10
-5503.1349900969471
 20
10505.219059589719
 30
0.0
 11
-3403.1349900969471
 21
10505.219059589719
 31
0.0
  0
LINE
  5
8C87
  8
4
 10
-3403.1349900969471
 20
7555.2190595897273
 30
0.0
 11
-5503.1349900969471
 21
7555.2190595897273
 31
0.0
  0
LINE
  5
8C88
  8
4
 10
-5503.1349900969471
 20
7555.2190595897273
 30
0.0
 11
-5503.1349900969471
 21
10505.219059589719
 31
0.0
  0
LINE
  5
8C8A
  8
4
 10
-5053.1349900969471
 20
8055.2190595897273
 30
0.0
 11
-3853.1349900969471
 21
8055.2190595897273
 31
0.0
  0
LINE
  5
8C8B
  8
4
 10
-5053.1349900969471
 20
7955.2190595897273
 30
0.0
 11
-3853.1349900969471
 21
7955.2190595897273
 31
0.0
  0
LINE
  5
8C8C
  8
4
 10
-5053.1349900969471
 20
7855.2190595897273
 30
0.0
 11
-3853.1349900969471
 21
7855.2190595897273
 31
0.0
  0
TEXT
  5
8C8E
  8
4
 10
-4516.4804945114656
 20
7872.3786438696698
 30
0.0
 40
50.0
  1
MF＃1-7
  0
TEXT
  5
8C8F
  8
4
 10
-4525.4562446092832
 20
7977.790828547295
 30
0.0
 40
50.0
  1
ミツヤ多翼送風機
  0
TEXT
  5
8C91
  8
4
 10
-5016.8768840721496
 20
7876.8642163217382
 30
0.0
 40
50.0
  1
機器型番
  0
TEXT
  5
8C92
  8
4
 10
-5014.6329092500464
 20
7986.7620854563402
 30
0.0
 40
50.0
  1
機器名称
  0
LINE
  5
8C93
  8
4
 10
-5053.1349900969471
 20
8055.2190595897273
 30
0.0
 11
-5053.1349900969471
 21
7855.2190595897246
 31
0.0
  0
LINE
  5
8C94
  8
4
 10
-4553.1349900969471
 20
8055.2190595897273
 30
0.0
 11
-4553.1349900969471
 21
7855.2190595897246
 31
0.0
  0
LINE
  5
8C95
  8
4
 10
-3853.1349900969471
 20
8055.2190595897273
 30
0.0
 11
-3853.1349900969471
 21
7855.2190595897246
 31
0.0
  0
LINE
  5
8C96
  8
4
 10
-5253.1349900969471
 20
10224.627813854529
 30
0.0
 11
-3653.1349900969471
 21
10224.627813854529
 31
0.0
  0
LINE
  5
8C97
  8
4
 10
-5253.1349900969471
 20
10024.627813854529
 30
0.0
 11
-3653.1349900969471
 21
10024.627813854529
 31
0.0
  0
LINE
  5
8C98
  8
4
 10
-5253.1349900969471
 20
10224.627813854529
 30
0.0
 11
-5253.1349900969471
 21
10024.627813854529
 31
0.0
  0
LINE
  5
8C99
  8
4
 10
-3653.1349900969471
 20
10224.627813854529
 30
0.0
 11
-3653.1349900969471
 21
10024.627813854529
 31
0.0
  0
TEXT
  5
8C9B
  8
4
 10
-5015.0720861520876
 20
10089.100035789021
 30
0.0
 40
72.0
  1
遠心式片吸込直動形多翼ファン
  0
TEXT
  5
8C9C
  8
4
 10
-5207.1779903578117
 20
9937.5385371360699
 30
0.0
 40
53.999999999999993
  1
右回転上向
  0
TEXT
  5
8C9D
  8
4
 10
-4087.9386781627668
 20
9938.6479009222421
 30
0.0
 40
53.999999999999993
  1
縮尺：1/10
  0
LINE
  5
8C9E
  8
4
 10
-3653.1349900969471
 20
10236.48264271512
 30
0.0
 11
-4062.5175677370821
 21
10236.48264271512
 31
0.0
  0
LINE
  5
8C9F
  8
4
 10
-4062.5175677370821
 20
10341.87132113947
 30
0.0
 11
-3653.1349900969471
 21
10341.87132113947
 31
0.0
  0
TEXT
  5
8CA0
  8
4
 10
-4034.1654308476559
 20
10261.28014108503
 30
0.0
 40
56.000000000000007
  1
No.
  0
LINE
  5
8CA1
  8
4
 10
-4062.5175677370821
 20
10236.48264271512
 30
0.0
 11
-4062.5175677370821
 21
10341.87132113947
 31
0.0
  0
LINE
  5
8CA2
  8
4
 10
-3653.1349900969471
 20
10341.87132113947
 30
0.0
 11
-3653.1349900969471
 21
10236.48264271512
 31
0.0
  0
LINE
  5
8CA3
  8
4
 10
-3403.1349900969471
 20
10505.219059589719
 30
0.0
 11
-3403.1349900969471
 21
7555.2190595897273
 31
0.0
  0
LINE
  5
8CA4
  8
4
 10
-3403.1349900969471
 20
10505.219059589719
 30
0.0
 11
-3403.1349900969471
 21
10505.219059589719
 31
0.0
  0
LINE
  5
9EBF
  8
FUTO
 10
-4905.0372944800256
 20
8511.6761894656502
 30
0.0
 11
-4678.6372944800314
 21
8511.6761894656502
 31
0.0
  0
LINE
  5
9EC0
  8
FUTO
 10
-4901.8372944800258
 20
8481.6761894656502
 30
0.0
 11
-4681.8372944800303
 21
8481.6761894656502
 31
0.0
  0
LINE
  5
9EC1
  8
FUTO
 10
-4901.8435505954913
 20
8508.6761894656502
 30
0.0
 11
-4681.8310383645658
 21
8508.6761894656502
 31
0.0
  0
LINE
  5
9EC2
  8
FUTO
 10
-4905.0372944800256
 20
8511.6761894656502
 30
0.0
 11
-4931.8372944800294
 21
8511.6761894656502
 31
0.0
  0
LINE
  5
9EC3
  8
FUTO
 10
-4905.0372944800283
 20
8451.6761894656483
 30
0.0
 11
-4931.8372944800331
 21
8451.6761894656483
 31
0.0
  0
LINE
  5
9EC4
  8
FUTO
 10
-4905.1372944800269
 20
8453.9761894656476
 30
0.0
 11
-4931.8372944800331
 21
8453.9761894656494
 31
0.0
  0
LINE
  5
9EC5
  8
FUTO
 10
-4905.1372944800269
 20
8509.3761894656491
 30
0.0
 11
-4931.8372944800294
 21
8509.3761894656509
 31
0.0
  0
LINE
  5
9EC6
  8
FUTO
 10
-4931.8372944800267
 20
8511.6761894656502
 30
0.0
 11
-4931.8372944800267
 21
8509.3761894656527
 31
0.0
  0
LINE
  5
9EC7
  8
FUTO
 10
-4931.8372944800267
 20
8453.9761894656494
 30
0.0
 11
-4931.8372944800267
 21
8451.6761894656483
 31
0.0
  0
LINE
  5
9EC8
  8
FUTO
 10
-4901.8372944800258
 20
8508.4761894656494
 30
0.0
 11
-4901.8372944800276
 21
8454.8761894656491
 31
0.0
  0
LINE
  5
9EC9
  8
FUTO
 10
-4904.1372944800269
 20
8508.3761894656473
 30
0.0
 11
-4904.1372944800278
 21
8454.9761894656476
 31
0.0
  0
ARC
  5
9ECA
  8
FUTO
 10
-4905.0372944800283
 20
8454.8761894656491
 30
0.0
 40
3.2000000000000002
 50
269.99999999999648
 51
359.99999999999909
  0
ARC
  5
9ECB
  8
FUTO
 10
-4905.0372944800256
 20
8508.4761894656494
 30
0.0
 40
3.2000000000000002
 50
359.99999999999898
 51
89.999999999996504
  0
ARC
  5
9ECC
  8
FUTO
 10
-4905.1372944800269
 20
8508.3761894656473
 30
0.0
 40
1.0
 50
359.99999999999909
 51
89.999999999996334
  0
ARC
  5
9ECD
  8
FUTO
 10
-4905.1372944800269
 20
8454.9761894656476
 30
0.0
 40
1.0
 50
269.99999999999631
 51
359.99999999999898
  0
LINE
  5
9ECE
  8
FUTO
 10
-4678.5372944800301
 20
8509.3761894656491
 30
0.0
 11
-4651.8372944800267
 21
8509.3761894656509
 31
0.0
  0
LINE
  5
9ECF
  8
FUTO
 10
-4678.5372944800292
 20
8453.9761894656476
 30
0.0
 11
-4651.837294480023
 21
8453.9761894656494
 31
0.0
  0
LINE
  5
9ED0
  8
FUTO
 10
-4678.6372944800287
 20
8451.6761894656483
 30
0.0
 11
-4651.837294480023
 21
8451.6761894656483
 31
0.0
  0
LINE
  5
9ED1
  8
FUTO
 10
-4678.6372944800314
 20
8511.6761894656502
 30
0.0
 11
-4651.8372944800267
 21
8511.6761894656502
 31
0.0
  0
ARC
  5
9ED2
  8
FUTO
 10
-4678.5372944800292
 20
8454.9761894656476
 30
0.0
 40
1.0
 50
180.00000000000091
 51
270.00000000000358
  0
ARC
  5
9ED3
  8
FUTO
 10
-4678.5372944800301
 20
8508.3761894656473
 30
0.0
 40
1.0
 50
90.000000000003652
 51
180.0000000000008
  0
ARC
  5
9ED4
  8
FUTO
 10
-4678.6372944800314
 20
8508.4761894656494
 30
0.0
 40
3.2000000000000002
 50
90.000000000003453
 51
180.00000000000091
  0
ARC
  5
9ED5
  8
FUTO
 10
-4678.6372944800287
 20
8454.8761894656491
 30
0.0
 40
3.2000000000000002
 50
180.0000000000008
 51
270.00000000000341
  0
LINE
  5
9ED6
  8
FUTO
 10
-4679.5372944800301
 20
8508.3761894656473
 30
0.0
 11
-4679.5372944800292
 21
8454.9761894656476
 31
0.0
  0
LINE
  5
9ED7
  8
FUTO
 10
-4681.8372944800321
 20
8508.4761894656494
 30
0.0
 11
-4681.8372944800294
 21
8454.8761894656491
 31
0.0
  0
LINE
  5
9ED8
  8
FUTO
 10
-4651.8372944800303
 20
8453.9761894656494
 30
0.0
 11
-4651.8372944800303
 21
8451.6761894656483
 31
0.0
  0
LINE
  5
9ED9
  8
FUTO
 10
-4651.8372944800303
 20
8511.6761894656502
 30
0.0
 11
-4651.8372944800303
 21
8509.3761894656527
 31
0.0
  0
LINE
  5
9EDA
  8
CT
 10
-4664.8372944800294
 20
8500.1791146752366
 30
0.0
 11
-4664.8372944800294
 21
8542.7003335502086
 31
0.0
  0
LINE
  5
9EDB
  8
CT
 10
-4918.8372944800276
 20
8500.1791146752366
 30
0.0
 11
-4918.8372944800276
 21
8542.7003335502086
 31
0.0
  0
DIMENSION
  5
9EDC
  8
SP
  2
*D18
 10
-4931.8372944800267
 20
8311.6761894656502
 30
0.0
 11
-4791.8372944800276
 21
8336.6761894656502
 31
0.0
 70
     0
 13
-4651.8372944800303
 23
8451.6761894656483
 33
0.0
 14
-4931.8372944800267
 24
8451.6761894656483
 34
0.0
 50
180.0
  0
DIMENSION
  5
9EDD
  8
SP
  2
*D17
 10
-4931.8372944800331
 20
8381.6761894656483
 30
0.0
 11
-4861.8372944800303
 21
8406.6761894656465
 31
0.0
 70
     0
 13
-4791.8372944800276
 23
8445.476525147631
 33
0.0
 14
-4931.8372944800331
 24
8451.6761894656483
 34
0.0
 50
180.0
  0
DIMENSION
  5
9EDE
  8
SP
  2
*D19
 10
-4651.8372944800303
 20
8381.6761894656483
 30
0.0
 11
-4721.8372944800276
 21
8406.6761894656465
 31
0.0
 70
     0
 13
-4791.8372944800276
 23
8445.476525147631
 33
0.0
 14
-4651.8372944800303
 24
8451.6761894656483
 34
0.0
 50
180.0
  0
DIMENSION
  5
9EDF
  8
SP
  2
*D14
 10
-4032.196239949129
 20
8311.6761894656502
 30
0.0
 11
-4148.6962399491304
 21
8336.6761894656502
 31
0.0
 70
     0
 13
-4265.1962399491294
 23
8451.6761894656483
 33
0.0
 14
-4032.196239949129
 24
8542.0878311137112
 34
0.0
  0
DIMENSION
  5
9EE0
  8
SP
  2
*D16
 10
-4032.196239949129
 20
8381.6761894656483
 30
0.0
 11
-3945.8940360464439
 21
8406.6761894656465
 31
0.0
 70
     0
 13
-4095.196239949129
 23
8451.6761894656483
 33
0.0
 14
-4032.196239949129
 24
8542.0878311137112
 34
0.0
  0
LINE
  5
9EE1
  8
FUTO
 10
-4095.196239949129
 20
8511.6761894656483
 30
0.0
 11
-4265.1962399491294
 21
8511.6761894656483
 31
0.0
  0
LINE
  5
9EE2
  8
FUTO
 10
-4095.196239949129
 20
8451.6761894656483
 30
0.0
 11
-4265.1962399491294
 21
8451.6761894656483
 31
0.0
  0
DIMENSION
  5
9EE3
  8
SP
  2
*D15
 10
-4265.1962399491294
 20
8381.6761894656483
 30
0.0
 11
-4180.1962399491294
 21
8406.6761894656465
 31
0.0
 70
     0
 13
-4095.196239949129
 23
8451.6761894656483
 33
0.0
 14
-4265.1962399491294
 24
8451.6761894656483
 34
0.0
  0
LINE
  5
9EE4
  8
FUTO
 10
-4095.196239949129
 20
8509.3761894656491
 30
0.0
 11
-4265.1962399491294
 21
8509.3761894656491
 31
0.0
  0
LINE
  5
9EE5
  8
FUTO
 10
-4095.196239949129
 20
8453.9761894656476
 30
0.0
 11
-4265.1962399491294
 21
8453.9761894656476
 31
0.0
  0
LINE
  5
9EE6
  8
FUTO
 10
-4265.1962399491294
 20
8511.6761894656483
 30
0.0
 11
-4265.1962399491294
 21
8451.6761894656483
 31
0.0
  0
LINE
  5
9EE7
  8
FUTO
 10
-4095.196239949129
 20
8511.6761894656483
 30
0.0
 11
-4095.196239949129
 21
8451.6761894656483
 31
0.0
  0
DIMENSION
  5
A271
  8
SP
  2
*D20
 10
-4581.8372944800276
 20
8451.6761894656483
 30
0.0
 11
-4606.8372944800294
 21
8366.1395546841941
 31
0.0
 70
     0
 13
-4651.8372944800267
 23
8511.6761894656502
 33
0.0
 14
-4651.837294480023
 24
8451.6761894656483
 34
0.0
 50
90.0
1001
ACAD
1000
DSTYLE
1002
{
1070
     6
1000
DOT
1002
}
  0
DIMENSION
  5
A280
  8
SP
  2
*D21
 10
-4581.8372944800276
 20
8511.6761894656502
 30
0.0
 11
-4546.3384805114147
 21
8522.6761894656483
 31
0.0
 70
   128
 13
-4651.8372944800276
 23
8533.6761894656502
 33
0.0
 14
-4651.8372944800303
 24
8511.6761894656502
 34
0.0
 50
90.0
1001
ACAD
1000
DSTYLE
1002
{
1070
   287
1070
     5
1070
     3
1000
（<>）
1070
   279
1070
     2
1070
     6
1000
NONE
1070
     7
1000
NONE
1002
}
  0
TEXT
  5
A3BA
  8
4
 10
-4751.5819799774072
 20
9938.15333729341
 30
0.0
 40
53.999999999999993
  1
床置防振ベッド型
  0
LINE
  5
A3CB
  8
FUTO
 10
-3976.196239949129
 20
8813.6761894656483
 30
0.0
 11
-3975.5962399491309
 21
8813.6761894656483
 31
0.0
  0
LINE
  5
A3CC
  8
FUTO
 10
-3976.196239949129
 20
8813.6761894656483
 30
0.0
 11
-3975.5962399491309
 21
8813.6761894656483
 31
0.0
  0
LINE
  5
A3CD
  8
FUTO
 10
-3975.5962399491282
 20
8813.6761894656483
 30
0.0
 11
-3969.196239949129
 21
8813.6761894656483
 31
0.0
  0
LINE
  5
A3CE
  8
FUTO
 10
-3976.196239949129
 20
8813.6761894656483
 30
0.0
 11
-3975.5962399491309
 21
8813.6761894656483
 31
0.0
  0
LINE
  5
A3CF
  8
FUTO
 10
-3975.5962399491282
 20
8653.6761894656465
 30
0.0
 11
-3969.196239949129
 21
8653.6761894656465
 31
0.0
  0
LINE
  5
A3D0
  8
FUTO
 10
-3976.196239949129
 20
8653.6761894656465
 30
0.0
 11
-3975.5962399491309
 21
8653.6761894656465
 31
0.0
  0
LINE
  5
A3D1
  8
FUTO
 10
-3976.196239949129
 20
8653.6761894656465
 30
0.0
 11
-3975.5962399491309
 21
8653.6761894656465
 31
0.0
  0
ENDSEC
  0
EOF
