  0
SECTION
  2
HEADER
  9
$ACADVER
  1
AC1009
  9
$INSBASE
 10
0.0
 20
0.0
 30
0.0
  9
$EXTMIN
 10
-690.24390403695725
 20
7555.2190595897273
 30
0.0
  9
$EXTMAX
 10
1409.7560959630421
 20
10505.219059589719
 30
0.0
  9
$LIMMIN
 10
0.0
 20
0.0
  9
$LIMMAX
 10
297.0
 20
210.0
  9
$ORTHOMODE
 70
     0
  9
$REGENMODE
 70
     1
  9
$FILLMODE
 70
     1
  9
$QTEXTMODE
 70
     0
  9
$MIRRTEXT
 70
     0
  9
$DRAGMODE
 70
     2
  9
$LTSCALE
 40
25.0
  9
$OSMODE
 70
   545
  9
$ATTMODE
 70
     1
  9
$TEXTSIZE
 40
3.5
  9
$TRACEWID
 40
0.05
  9
$TEXTSTYLE
  7
STANDARD
  9
$CLAYER
  8
SP
  9
$CELTYPE
  6
BYLAYER
  9
$CECOLOR
 62
   256
  9
$DIMSCALE
 40
10.0
  9
$DIMASZ
 40
2.5
  9
$DIMEXO
 40
1.0
  9
$DIMDLI
 40
7.0
  9
$DIMRND
 40
0.0
  9
$DIMDLE
 40
0.0
  9
$DIMEXE
 40
1.0
  9
$DIMTP
 40
0.0
  9
$DIMTM
 40
0.0
  9
$DIMTXT
 40
3.0
  9
$DIMCEN
 40
0.0
  9
$DIMTSZ
 40
0.0
  9
$DIMTOL
 70
     0
  9
$DIMLIM
 70
     0
  9
$DIMTIH
 70
     0
  9
$DIMTOH
 70
     0
  9
$DIMSE1
 70
     0
  9
$DIMSE2
 70
     0
  9
$DIMTAD
 70
     1
  9
$DIMZIN
 70
     8
  9
$DIMBLK
  1

  9
$DIMASO
 70
     1
  9
$DIMSHO
 70
     1
  9
$DIMPOST
  1

  9
$DIMAPOST
  1

  9
$DIMALT
 70
     0
  9
$DIMALTD
 70
     2
  9
$DIMALTF
 40
0.03937
  9
$DIMLFAC
 40
1.0
  9
$DIMTOFL
 70
     1
  9
$DIMTVP
 40
0.0
  9
$DIMTIX
 70
     0
  9
$DIMSOXD
 70
     0
  9
$DIMSAH
 70
     1
  9
$DIMBLK1
  1
OPEN
  9
$DIMBLK2
  1
OPEN
  9
$DIMSTYLE
  2
GOD
  9
$DIMCLRD
 70
   256
  9
$DIMCLRE
 70
   256
  9
$DIMCLRT
 70
   256
  9
$DIMTFAC
 40
1.0
  9
$DIMGAP
 40
1.0
  9
$LUNITS
 70
     2
  9
$LUPREC
 70
     3
  9
$SKETCHINC
 40
0.1
  9
$FILLETRAD
 40
1.0
  9
$AUNITS
 70
     0
  9
$AUPREC
 70
     2
  9
$MENU
  1
acad
  9
$ELEVATION
 40
0.0
  9
$PELEVATION
 40
0.0
  9
$THICKNESS
 40
0.0
  9
$LIMCHECK
 70
     0
  9
$BLIPMODE
 70
     0
  9
$CHAMFERA
 40
0.0
  9
$CHAMFERB
 40
0.0
  9
$SKPOLY
 70
     0
  9
$TDCREATE
 40
2454894.5465396061
  9
$TDUPDATE
 40
2454953.8313453011
  9
$TDINDWG
 40
0.3750830556
  9
$TDUSRTIMER
 40
0.3750830556
  9
$USRTIMER
 70
     1
  9
$ANGBASE
 50
0.0
  9
$ANGDIR
 70
     0
  9
$PDMODE
 70
     0
  9
$PDSIZE
 40
1.0
  9
$PLINEWID
 40
0.0
  9
$COORDS
 70
     2
  9
$SPLFRAME
 70
     0
  9
$SPLINETYPE
 70
     6
  9
$SPLINESEGS
 70
     8
  9
$ATTDIA
 70
     0
  9
$ATTREQ
 70
     1
  9
$HANDLING
 70
 22529
  9
$HANDSEED
  5
A416
  9
$SURFTAB1
 70
     6
  9
$SURFTAB2
 70
     6
  9
$SURFTYPE
 70
     6
  9
$SURFU
 70
     6
  9
$SURFV
 70
     6
  9
$UCSNAME
  2

  9
$UCSORG
 10
0.0
 20
0.0
 30
0.0
  9
$UCSXDIR
 10
1.0
 20
0.0
 30
0.0
  9
$UCSYDIR
 10
0.0
 20
1.0
 30
0.0
  9
$PUCSNAME
  2

  9
$PUCSORG
 10
0.0
 20
0.0
 30
0.0
  9
$PUCSXDIR
 10
1.0
 20
0.0
 30
0.0
  9
$PUCSYDIR
 10
0.0
 20
1.0
 30
0.0
  9
$USERI1
 70
     0
  9
$USERI2
 70
     0
  9
$USERI3
 70
     0
  9
$USERI4
 70
     0
  9
$USERI5
 70
     0
  9
$USERR1
 40
0.0
  9
$USERR2
 40
0.0
  9
$USERR3
 40
0.0
  9
$USERR4
 40
0.0
  9
$USERR5
 40
0.0
  9
$WORLDVIEW
 70
     1
  9
$SHADEDGE
 70
     3
  9
$SHADEDIF
 70
    70
  9
$TILEMODE
 70
     1
  9
$MAXACTVP
 70
    16
  9
$PLIMCHECK
 70
     0
  9
$PEXTMIN
 10
1.0000000000000000E+020
 20
1.0000000000000000E+020
 30
1.0000000000000000E+020
  9
$PEXTMAX
 10
-1.0000000000000000E+020
 20
-1.0000000000000000E+020
 30
-1.0000000000000000E+020
  9
$PLIMMIN
 10
0.0
 20
0.0
  9
$PLIMMAX
 10
12.0
 20
9.0
  9
$UNITMODE
 70
     0
  9
$VISRETAIN
 70
     0
  9
$PLINEGEN
 70
     0
  9
$PSLTSCALE
 70
     0
  0
ENDSEC
  0
SECTION
  2
TABLES
  0
TABLE
  2
VPORT
 70
     2
  0
VPORT
  2
*ACTIVE
 70
     0
 10
0.0
 20
0.0
 11
1.0
 21
1.0
 12
546.60341186704954
 22
9030.1443513929516
 13
0.0
 23
0.0
 14
5.0
 24
5.0
 15
0.0
 25
0.0
 16
0.0
 26
0.0
 36
1.0
 17
0.0
 27
0.0
 37
0.0
 40
2973.9060074936342
 41
1.6307901907356941
 42
50.0
 43
0.0
 44
0.0
 50
0.0
 51
0.0
 71
     0
 72
   100
 73
     1
 74
     0
 75
     0
 76
     0
 77
     0
 78
     0
  0
ENDTAB
  0
TABLE
  2
LTYPE
 70
     4
  0
LTYPE
  2
CONTINUOUS
 70
     0
  3
Solid line
 72
    65
 73
     0
 40
0.0
  0
LTYPE
  2
CENTER
 70
     0
  3
____ _ ____ _ ____ _ ____ _ ____ _ ____ _ ____ 
 72
    65
 73
     4
 40
2.0
 49
1.25
 49
-0.25
 49
0.25
 49
-0.25
  0
LTYPE
  2
HIDDEN
 70
     0
  3
__ __ __ __ __ __ __ __ __ __ __ __ __ __ __ __
 72
    65
 73
     2
 40
0.375
 49
0.25
 49
-0.125
  0
LTYPE
  2
PHANTOM
 70
     0
  3
______  __  __  ______  __  __  ______  __  __ 
 72
    65
 73
     6
 40
2.5
 49
1.25
 49
-0.25
 49
0.25
 49
-0.25
 49
0.25
 49
-0.25
  0
ENDTAB
  0
TABLE
  2
LAYER
 70
     9
  0
LAYER
  2
0
 70
     0
 62
     7
  6
CONTINUOUS
  0
LAYER
  2
CT
 70
     0
 62
     3
  6
CENTER
  0
LAYER
  2
FUTO
 70
     0
 62
     4
  6
CONTINUOUS
  0
LAYER
  2
HOSO
 70
     0
 62
     7
  6
CONTINUOUS
  0
LAYER
  2
KL
 70
     0
 62
     7
  6
HIDDEN
  0
LAYER
  2
SL
 70
     0
 62
     1
  6
PHANTOM
  0
LAYER
  2
SP
 70
     0
 62
     2
  6
CONTINUOUS
  0
LAYER
  2
DEFPOINTS
 70
     0
 62
     7
  6
CONTINUOUS
  0
LAYER
  2
4
 70
     0
 62
     7
  6
CONTINUOUS
  0
ENDTAB
  0
TABLE
  2
STYLE
 70
     1
  0
STYLE
  2
STANDARD
 70
     0
 40
0.0
 41
1.0
 50
15.0
 71
     0
 42
3.5
  3
C:\Program Files\AutoCAD LT\simplex.shx
  4
C:\Program Files\AutoCAD LT\extfont.shx
  0
ENDTAB
  0
TABLE
  2
VIEW
 70
     0
  0
ENDTAB
  0
TABLE
  2
UCS
 70
     0
  0
ENDTAB
  0
TABLE
  2
APPID
 70
     1
  0
APPID
  2
ACAD
 70
     0
  0
ENDTAB
  0
TABLE
  2
DIMSTYLE
 70
     3
  0
DIMSTYLE
  2
STANDARD
 70
     0
  3

  4

  5

  6

  7

 40
1.0
 41
0.18
 42
0.0625
 43
0.38
 44
0.18
 45
0.0
 46
0.0
 47
0.0
 48
0.0
140
0.18
141
0.09
142
0.0
143
25.399999999999999
144
1.0
145
0.0
146
1.0
147
0.09
 71
     0
 72
     0
 73
     1
 74
     1
 75
     0
 76
     0
 77
     0
 78
     0
170
     0
171
     2
172
     0
173
     0
174
     0
175
     0
176
     0
177
     0
178
     0
  0
DIMSTYLE
  2
GOD
 70
     0
  3

  4

  5

  6
OPEN
  7
OPEN
 40
10.0
 41
2.5
 42
1.0
 43
7.0
 44
1.0
 45
0.0
 46
0.0
 47
0.0
 48
0.0
140
3.0
141
0.0
142
0.0
143
0.03937
144
1.0
145
0.0
146
1.0
147
1.0
 71
     0
 72
     0
 73
     0
 74
     0
 75
     0
 76
     0
 77
     1
 78
     8
170
     0
171
     2
172
     1
173
     1
174
     0
175
     0
176
   256
177
   256
178
   256
  0
DIMSTYLE
  2
IGA
 70
     0
  3

  4

  5

  6

  7

 40
1.0
 41
3.0
 42
0.5
 43
10.0
 44
1.0
 45
0.0
 46
0.0
 47
1.0
 48
1.0
140
3.0
141
0.0
142
0.0
143
0.039
144
1.0
145
0.0
146
10.0
147
1.0
 71
     0
 72
     0
 73
     0
 74
     0
 75
     0
 76
     0
 77
     1
 78
     8
170
     0
171
     2
172
     1
173
     1
174
     0
175
     0
176
     0
177
     0
178
     0
  0
ENDTAB
  0
ENDSEC
  0
SECTION
  2
BLOCKS
  0
BLOCK
  8
0
  2
$MODEL_SPACE
 70
     0
 10
0.0
 20
0.0
 30
0.0
  3
$MODEL_SPACE
  1

  0
ENDBLK
  5
1B
  8
0
  0
BLOCK
 67
     1
  8
0
  2
$PAPER_SPACE
 70
     0
 10
0.0
 20
0.0
 30
0.0
  3
$PAPER_SPACE
  1

  0
ENDBLK
  5
18
 67
     1
  8
0
  0
BLOCK
  8
0
  2
_OPEN
 70
     0
 10
0.0
 20
0.0
 30
0.0
  3
_OPEN
  1

  0
LINE
  5
1E81
  8
0
  6
BYBLOCK
 62
     0
 10
-1.0
 20
0.1666666666666666
 30
0.0
 11
0.0
 21
0.0
 31
0.0
  0
LINE
  5
1E82
  8
0
  6
BYBLOCK
 62
     0
 10
0.0
 20
0.0
 30
0.0
 11
-1.0
 21
-0.1666666666666666
 31
0.0
  0
LINE
  5
1E83
  8
0
  6
BYBLOCK
 62
     0
 10
0.0
 20
0.0
 30
0.0
 11
-1.0
 21
0.0
 31
0.0
  0
ENDBLK
  5
1E84
  8
0
  0
BLOCK
  8
0
  2
*D1
 70
     1
 10
0.0
 20
0.0
 30
0.0
  3
*D1
  1

  0
LINE
  5
9CCE
  8
SP
 10
-139.0032443915197
 20
8533.6761894656502
 30
0.0
 11
-199.00324439152061
 21
8533.6761894656502
 31
0.0
  0
LINE
  5
9CCF
  8
SP
 10
-144.84887682794391
 20
8733.6761894656483
 30
0.0
 11
-199.00324439152061
 21
8733.6761894656483
 31
0.0
  0
LINE
  5
9CD0
  8
SP
 10
-189.00324439152061
 20
8558.6761894656483
 30
0.0
 11
-189.00324439152061
 21
8708.6761894656483
 31
0.0
  0
INSERT
  5
9CD1
  8
SP
  2
_OPEN
 10
-189.00324439152061
 20
8533.6761894656502
 30
0.0
 41
25.0
 42
25.0
 43
25.0
 50
270.0
  0
INSERT
  5
9CD2
  8
SP
  2
_OPEN
 10
-189.00324439152061
 20
8733.6761894656483
 30
0.0
 41
25.0
 42
25.0
 43
25.0
 50
90.0
  0
TEXT
  5
9CD3
  8
SP
 10
-199.003244391522
 20
8592.5653778432697
 30
0.0
 40
30.0
  1
200
 50
90.0
 51
15.0
  0
POINT
  5
9CD4
  8
DEFPOINTS
 62
     0
 10
-129.0032443915197
 20
8533.6761894656502
 30
0.0
  0
POINT
  5
9CD5
  8
DEFPOINTS
 62
     0
 10
-134.84887682794391
 20
8733.6761894656483
 30
0.0
  0
POINT
  5
9CD6
  8
DEFPOINTS
 62
     0
 10
-189.00324439152061
 20
8733.6761894656483
 30
0.0
  0
ENDBLK
  5
60A3
  8
0
  0
BLOCK
  8
0
  2
*D2
 70
     1
 10
0.0
 20
0.0
 30
0.0
  3
*D2
  1

  0
LINE
  5
9CF2
  8
SP
 10
-144.84887682794391
 20
8733.6761894656483
 30
0.0
 11
-199.0032443915197
 21
8733.6761894656483
 31
0.0
  0
LINE
  5
9CF3
  8
SP
 10
-129.0032443915197
 20
8893.6761894656483
 30
0.0
 11
-199.0032443915197
 21
8893.6761894656483
 31
0.0
  0
LINE
  5
9CF4
  8
SP
 10
-189.0032443915197
 20
8758.6761894656483
 30
0.0
 11
-189.0032443915197
 21
8868.6761894656483
 31
0.0
  0
INSERT
  5
9CF5
  8
SP
  2
_OPEN
 10
-189.0032443915197
 20
8733.6761894656483
 30
0.0
 41
25.0
 42
25.0
 43
25.0
 50
270.0
  0
INSERT
  5
9CF6
  8
SP
  2
_OPEN
 10
-189.0032443915197
 20
8893.6761894656483
 30
0.0
 41
25.0
 42
25.0
 43
25.0
 50
90.0
  0
TEXT
  5
9CF7
  8
SP
 10
-199.00324439152109
 20
8772.1688519351774
 30
0.0
 40
30.0
  1
160
 50
90.0
 51
15.0
  0
POINT
  5
9CF8
  8
DEFPOINTS
 62
     0
 10
-134.84887682794391
 20
8733.6761894656483
 30
0.0
  0
POINT
  5
9CF9
  8
DEFPOINTS
 62
     0
 10
-119.0032443915197
 20
8893.6761894656483
 30
0.0
  0
POINT
  5
9CFA
  8
DEFPOINTS
 62
     0
 10
-189.0032443915197
 20
8893.6761894656483
 30
0.0
  0
ENDBLK
  5
60AF
  8
0
  0
BLOCK
  8
0
  2
*D3
 70
     1
 10
0.0
 20
0.0
 30
0.0
  3
*D3
  1

  0
LINE
  5
9CE9
  8
SP
 10
10.996755608480269
 20
8933.5934657609978
 30
0.0
 11
10.996755608480269
 21
8985.6761894656483
 31
0.0
  0
LINE
  5
9CEA
  8
SP
 10
-119.0032443915206
 20
8925.6761894656483
 30
0.0
 11
-119.0032443915206
 21
8985.6761894656483
 31
0.0
  0
LINE
  5
9CEB
  8
SP
 10
-14.00324439151972
 20
8975.6761894656502
 30
0.0
 11
-94.003244391520624
 21
8975.6761894656502
 31
0.0
  0
INSERT
  5
9CEC
  8
SP
  2
_OPEN
 10
10.996755608480269
 20
8975.6761894656502
 30
0.0
 41
25.0
 42
25.0
 43
25.0
  0
INSERT
  5
9CED
  8
SP
  2
_OPEN
 10
-119.0032443915206
 20
8975.6761894656502
 30
0.0
 41
25.0
 42
25.0
 43
25.0
 50
180.0
  0
TEXT
  5
9CEE
  8
SP
 10
-95.510581921990308
 20
8985.6761894656483
 30
0.0
 40
30.0
  1
130
 51
15.0
  0
POINT
  5
9CEF
  8
DEFPOINTS
 62
     0
 10
10.996755608480269
 20
8923.5934657609978
 30
0.0
  0
POINT
  5
9CF0
  8
DEFPOINTS
 62
     0
 10
-119.0032443915206
 20
8915.6761894656465
 30
0.0
  0
POINT
  5
9CF1
  8
DEFPOINTS
 62
     0
 10
-119.0032443915206
 20
8975.6761894656502
 30
0.0
  0
ENDBLK
  5
64CE
  8
0
  0
BLOCK
  8
0
  2
*D4
 70
     1
 10
0.0
 20
0.0
 30
0.0
  3
*D4
  1

  0
LINE
  5
9CE0
  8
SP
 10
10.996755608480269
 20
8933.5934657609978
 30
0.0
 11
10.996755608480269
 21
8985.6761894656483
 31
0.0
  0
LINE
  5
9CE1
  8
SP
 10
144.9967556084793
 20
8756.6761894656483
 30
0.0
 11
144.99675560847939
 21
8985.6761894656483
 31
0.0
  0
LINE
  5
9CE2
  8
SP
 10
35.996755608480271
 20
8975.6761894656502
 30
0.0
 11
119.9967556084793
 21
8975.6761894656502
 31
0.0
  0
INSERT
  5
9CE3
  8
SP
  2
_OPEN
 10
10.996755608480269
 20
8975.6761894656502
 30
0.0
 41
25.0
 42
25.0
 43
25.0
 50
180.0
  0
INSERT
  5
9CE4
  8
SP
  2
_OPEN
 10
144.9967556084793
 20
8975.6761894656502
 30
0.0
 41
25.0
 42
25.0
 43
25.0
  0
TEXT
  5
9CE5
  8
SP
 10
36.974769452517698
 20
8985.6761894656483
 30
0.0
 40
30.0
  1
134
 51
15.0
  0
POINT
  5
9CE6
  8
DEFPOINTS
 62
     0
 10
10.996755608480269
 20
8923.5934657609978
 30
0.0
  0
POINT
  5
9CE7
  8
DEFPOINTS
 62
     0
 10
144.9967556084793
 20
8746.6761894656483
 30
0.0
  0
POINT
  5
9CE8
  8
DEFPOINTS
 62
     0
 10
144.9967556084793
 20
8975.6761894656502
 30
0.0
  0
ENDBLK
  5
64DB
  8
0
  0
BLOCK
  8
0
  2
*D5
 70
     1
 10
0.0
 20
0.0
 30
0.0
  3
*D5
  1

  0
LINE
  5
9D2C
  8
SP
 10
714.63781013938024
 20
8913.6761894656483
 30
0.0
 11
714.63781013938024
 21
8995.6761894656483
 31
0.0
  0
LINE
  5
9D2D
  8
SP
 10
826.63781013938035
 20
8913.6761894656483
 30
0.0
 11
826.63781013938035
 21
8995.6761894656483
 31
0.0
  0
LINE
  5
9D2E
  8
SP
 10
739.63781013938024
 20
8985.6761894656483
 30
0.0
 11
801.63781013938035
 21
8985.6761894656483
 31
0.0
  0
INSERT
  5
9D2F
  8
SP
  2
_OPEN
 10
714.63781013938024
 20
8985.6761894656483
 30
0.0
 41
25.0
 42
25.0
 43
25.0
 50
180.0
  0
INSERT
  5
9D30
  8
SP
  2
_OPEN
 10
826.63781013938035
 20
8985.6761894656483
 30
0.0
 41
25.0
 42
25.0
 43
25.0
  0
TEXT
  5
9D31
  8
SP
 10
731.98761546605294
 20
8995.6761894656483
 30
0.0
 40
30.0
  1
112
 51
15.0
  0
POINT
  5
9D32
  8
DEFPOINTS
 62
     0
 10
714.63781013938024
 20
8903.6761894656465
 30
0.0
  0
POINT
  5
9D33
  8
DEFPOINTS
 62
     0
 10
826.63781013938035
 20
8903.6761894656465
 30
0.0
  0
POINT
  5
9D34
  8
DEFPOINTS
 62
     0
 10
826.63781013938035
 20
8985.6761894656483
 30
0.0
  0
ENDBLK
  5
729A
  8
0
  0
BLOCK
  8
0
  2
*D6
 70
     1
 10
0.0
 20
0.0
 30
0.0
  3
*D6
  1

  0
LINE
  5
9D18
  8
SP
 10
770.63781013938024
 20
9035.6761894656483
 30
0.0
 11
770.63781013938024
 21
9065.6761894656483
 31
0.0
  0
LINE
  5
9D19
  8
SP
 10
833.63781013938012
 20
8841.6761894656483
 30
0.0
 11
833.63781013938012
 21
9065.6761894656483
 31
0.0
  0
LINE
  5
9D1A
  8
SP
 10
745.63781013938024
 20
9055.6761894656483
 30
0.0
 11
720.63781013938024
 21
9055.6761894656483
 31
0.0
  0
LINE
  5
9D1B
  8
SP
 10
858.63781013938035
 20
9055.6761894656483
 30
0.0
 11
956.24221794475193
 21
9055.6761894656483
 31
0.0
  0
LINE
  5
9D1C
  8
SP
 10
770.63781013938024
 20
9055.6761894656483
 30
0.0
 11
833.63781013938012
 21
9055.6761894656483
 31
0.0
  0
INSERT
  5
9D1D
  8
SP
  2
_OPEN
 10
770.63781013938024
 20
9055.6761894656483
 30
0.0
 41
25.0
 42
25.0
 43
25.0
  0
INSERT
  5
9D1E
  8
SP
  2
_OPEN
 10
833.63781013938012
 20
9055.6761894656483
 30
0.0
 41
25.0
 42
25.0
 43
25.0
 50
180.0
  0
TEXT
  5
9D1F
  8
SP
 10
891.06088502896114
 20
9065.6761894656483
 30
0.0
 40
30.0
  1
63
 51
15.0
  0
POINT
  5
9D20
  8
DEFPOINTS
 62
     0
 10
770.63781013938024
 20
9025.6761894656483
 30
0.0
  0
POINT
  5
9D21
  8
DEFPOINTS
 62
     0
 10
833.63781013938012
 20
8831.6761894656483
 30
0.0
  0
POINT
  5
9D22
  8
DEFPOINTS
 62
     0
 10
833.63781013938012
 20
9055.6761894656483
 30
0.0
  0
ENDBLK
  5
72A8
  8
0
  0
BLOCK
  8
0
  2
*D7
 70
     1
 10
0.0
 20
0.0
 30
0.0
  3
*D7
  1

  0
LINE
  5
9D23
  8
SP
 10
770.63781013938024
 20
9035.6761894656483
 30
0.0
 11
770.63781013938024
 21
9065.6761894656483
 31
0.0
  0
LINE
  5
9D24
  8
SP
 10
510.69113115790691
 20
8800.2404894656484
 30
0.0
 11
510.69113115790691
 21
9065.6761894656483
 31
0.0
  0
LINE
  5
9D25
  8
SP
 10
745.63781013938024
 20
9055.6761894656483
 30
0.0
 11
535.69113115790685
 21
9055.6761894656483
 31
0.0
  0
INSERT
  5
9D26
  8
SP
  2
_OPEN
 10
770.63781013938024
 20
9055.6761894656483
 30
0.0
 41
25.0
 42
25.0
 43
25.0
  0
INSERT
  5
9D27
  8
SP
  2
_OPEN
 10
510.69113115790691
 20
9055.6761894656483
 30
0.0
 41
25.0
 42
25.0
 43
25.0
 50
180.0
  0
TEXT
  5
9D28
  8
SP
 10
573.75476890824314
 20
9065.6761894656483
 30
0.0
 40
30.0
  1
（330）
 51
15.0
  0
POINT
  5
9D29
  8
DEFPOINTS
 62
     0
 10
770.63781013938024
 20
9025.6761894656483
 30
0.0
  0
POINT
  5
9D2A
  8
DEFPOINTS
 62
     0
 10
510.69113115790691
 20
8790.2404894656484
 30
0.0
  0
POINT
  5
9D2B
  8
DEFPOINTS
 62
     0
 10
510.69113115790691
 20
9055.6761894656483
 30
0.0
  0
ENDBLK
  5
72B4
  8
0
  0
BLOCK
  8
0
  2
*D8
 70
     1
 10
0.0
 20
0.0
 30
0.0
  3
*D8
  1

  0
LINE
  5
A3E4
  8
SP
 10
843.63781013938035
 20
8813.6761894656483
 30
0.0
 11
929.83337109879892
 21
8813.6761894656483
 31
0.0
  0
LINE
  5
A3E5
  8
SP
 10
843.63781013938035
 20
8653.6761894656465
 30
0.0
 11
929.83337109879892
 21
8653.6761894656465
 31
0.0
  0
LINE
  5
A3E6
  8
SP
 10
919.83337109879903
 20
8788.6761894656483
 30
0.0
 11
919.83337109879903
 21
8678.6761894656465
 31
0.0
  0
INSERT
  5
A3E7
  8
SP
  2
_OPEN
 10
919.83337109879903
 20
8813.6761894656483
 30
0.0
 41
25.0
 42
25.0
 43
25.0
 50
90.0
  0
INSERT
  5
A3E8
  8
SP
  2
_OPEN
 10
919.83337109879903
 20
8653.6761894656465
 30
0.0
 41
25.0
 42
25.0
 43
25.0
 50
270.0
  0
TEXT
  5
A3E9
  8
SP
 10
909.83337109879756
 20
8681.7622666625684
 30
0.0
 40
30.0
  1
φ160
 50
90.0
 51
15.0
  0
POINT
  5
A3EA
  8
DEFPOINTS
 62
     0
 10
833.63781013938012
 20
8813.6761894656483
 30
0.0
  0
POINT
  5
A3EB
  8
DEFPOINTS
 62
     0
 10
833.63781013938012
 20
8653.6761894656465
 30
0.0
  0
POINT
  5
A3EC
  8
DEFPOINTS
 62
     0
 10
919.83337109879903
 20
8653.6761894656465
 30
0.0
  0
ENDBLK
  5
72E4
  8
0
  0
BLOCK
  8
0
  2
*D9
 70
     1
 10
0.0
 20
0.0
 30
0.0
  3
*D9
  1

  0
LINE
  5
9CD7
  8
SP
 10
160.9967556084793
 20
9531.5412464435994
 30
0.0
 11
244.19703902278891
 21
9531.5412464435994
 31
0.0
  0
LINE
  5
9CD8
  8
SP
 10
160.9967556084793
 20
9361.5412464436013
 30
0.0
 11
244.19703902278891
 21
9361.5412464436013
 31
0.0
  0
LINE
  5
9CD9
  8
SP
 10
234.1970390227888
 20
9506.5412464436013
 30
0.0
 11
234.1970390227888
 21
9386.5412464436013
 31
0.0
  0
INSERT
  5
9CDA
  8
SP
  2
_OPEN
 10
234.1970390227888
 20
9531.5412464435994
 30
0.0
 41
25.0
 42
25.0
 43
25.0
 50
90.0
  0
INSERT
  5
9CDB
  8
SP
  2
_OPEN
 10
234.1970390227888
 20
9361.5412464436013
 30
0.0
 41
25.0
 42
25.0
 43
25.0
 50
270.0
  0
TEXT
  5
9CDC
  8
SP
 10
224.19703902278729
 20
9405.0339089131303
 30
0.0
 40
30.0
  1
170
 50
90.0
 51
15.0
  0
POINT
  5
9CDD
  8
DEFPOINTS
 62
     0
 10
150.9967556084793
 20
9531.5412464435994
 30
0.0
  0
POINT
  5
9CDE
  8
DEFPOINTS
 62
     0
 10
150.9967556084793
 20
9361.5412464436013
 30
0.0
  0
POINT
  5
9CDF
  8
DEFPOINTS
 62
     0
 10
234.1970390227888
 20
9361.5412464436013
 30
0.0
  0
ENDBLK
  5
8A94
  8
0
  0
BLOCK
  8
0
  2
*D10
 70
     1
 10
0.0
 20
0.0
 30
0.0
  3
*D10
  1

  0
LINE
  5
9D04
  8
SP
 10
160.9967556084793
 20
9531.5412464435994
 30
0.0
 11
244.1970390227888
 21
9531.5412464435994
 31
0.0
  0
LINE
  5
9D05
  8
SP
 10
193.7875201648512
 20
9594.5412464436013
 30
0.0
 11
244.19703902278891
 21
9594.5412464436013
 31
0.0
  0
LINE
  5
9D06
  8
SP
 10
234.1970390227888
 20
9506.5412464436013
 30
0.0
 11
234.1970390227888
 21
9481.5412464436013
 31
0.0
  0
LINE
  5
9D07
  8
SP
 10
234.1970390227888
 20
9619.5412464436031
 30
0.0
 11
234.1970390227888
 21
9717.1456542489723
 31
0.0
  0
LINE
  5
9D08
  8
SP
 10
234.1970390227888
 20
9531.5412464435994
 30
0.0
 11
234.1970390227888
 21
9594.5412464436013
 31
0.0
  0
INSERT
  5
9D09
  8
SP
  2
_OPEN
 10
234.1970390227888
 20
9531.5412464435994
 30
0.0
 41
25.0
 42
25.0
 43
25.0
 50
90.0
  0
INSERT
  5
9D0A
  8
SP
  2
_OPEN
 10
234.1970390227888
 20
9594.5412464436013
 30
0.0
 41
25.0
 42
25.0
 43
25.0
 50
270.0
  0
TEXT
  5
9D0B
  8
SP
 10
224.19703902278729
 20
9651.9643213331801
 30
0.0
 40
30.0
  1
63
 50
90.0
 51
15.0
  0
POINT
  5
9D0C
  8
DEFPOINTS
 62
     0
 10
150.9967556084793
 20
9531.5412464435994
 30
0.0
  0
POINT
  5
9D0D
  8
DEFPOINTS
 62
     0
 10
183.7875201648512
 20
9594.5412464436013
 30
0.0
  0
POINT
  5
9D0E
  8
DEFPOINTS
 62
     0
 10
234.1970390227888
 20
9594.5412464436013
 30
0.0
  0
ENDBLK
  5
8AA3
  8
0
  0
BLOCK
  8
0
  2
*D11
 70
     1
 10
0.0
 20
0.0
 30
0.0
  3
*D11
  1

  0
LINE
  5
9CFB
  8
SP
 10
-129.0032443915197
 20
9351.5412464435994
 30
0.0
 11
-129.0032443915197
 21
9243.5944674621296
 31
0.0
  0
LINE
  5
9CFC
  8
SP
 10
150.9967556084793
 20
9351.5412464435994
 30
0.0
 11
150.9967556084793
 21
9243.5944674621296
 31
0.0
  0
LINE
  5
9CFD
  8
SP
 10
-104.0032443915197
 20
9253.5944674621278
 30
0.0
 11
125.9967556084793
 21
9253.5944674621278
 31
0.0
  0
INSERT
  5
9CFE
  8
SP
  2
_OPEN
 10
-129.0032443915197
 20
9253.5944674621278
 30
0.0
 41
25.0
 42
25.0
 43
25.0
 50
180.0
  0
INSERT
  5
9CFF
  8
SP
  2
_OPEN
 10
150.9967556084793
 20
9253.5944674621278
 30
0.0
 41
25.0
 42
25.0
 43
25.0
  0
TEXT
  5
9D00
  8
SP
 10
-30.1140560138981
 20
9263.5944674621278
 30
0.0
 40
30.0
  1
280
 51
15.0
  0
POINT
  5
9D01
  8
DEFPOINTS
 62
     0
 10
-129.0032443915197
 20
9361.5412464436013
 30
0.0
  0
POINT
  5
9D02
  8
DEFPOINTS
 62
     0
 10
150.9967556084793
 20
9361.5412464436013
 30
0.0
  0
POINT
  5
9D03
  8
DEFPOINTS
 62
     0
 10
150.9967556084793
 20
9253.5944674621278
 30
0.0
  0
ENDBLK
  5
8AD7
  8
0
  0
BLOCK
  8
0
  2
_DOT
 70
     0
 10
0.0
 20
0.0
 30
0.0
  3
_DOT
  1

  0
LINE
  5
9B41
  8
0
  6
BYBLOCK
 62
     0
 10
0.0
 20
0.0
 30
0.0
 11
-1.0
 21
-0.0000000000000284
 31
0.0
  0
POLYLINE
  5
9B42
  8
0
  6
BYBLOCK
 62
     0
 66
     1
 10
0.0
 20
0.0
 30
0.0
 70
     1
 40
0.1666666666666666
 41
0.1666666666666666
  0
VERTEX
  5
A3FF
  8
0
  6
BYBLOCK
 62
     0
 10
-0.0833333333333286
 20
-0.0000000000000284
 30
0.0
 42
1.0
  0
VERTEX
  5
A400
  8
0
  6
BYBLOCK
 62
     0
 10
0.0833333333333286
 20
-0.0000000000000284
 30
0.0
 42
1.0
  0
SEQEND
  5
A401
  8
0
  6
BYBLOCK
 62
     0
  0
ENDBLK
  5
9B29
  8
0
  0
BLOCK
  8
0
  2
_NONE
 70
     0
 10
0.0
 20
0.0
 30
0.0
  3
_NONE
  1

  0
ENDBLK
  5
9B45
  8
0
  0
BLOCK
  8
0
  2
*D14
 70
     1
 10
0.0
 20
0.0
 30
0.0
  3
*D14
  1

  0
LINE
  5
A0E7
  8
SP
 10
10.996755608480269
 20
8435.476525147631
 30
0.0
 11
10.99675560848026
 21
8371.6761894656483
 31
0.0
  0
LINE
  5
A0E8
  8
SP
 10
-129.00324439152419
 20
8441.6761894656502
 30
0.0
 11
-129.00324439152419
 21
8371.6761894656483
 31
0.0
  0
LINE
  5
A0E9
  8
SP
 10
-14.003244391519731
 20
8381.6761894656483
 30
0.0
 11
-104.00324439152421
 21
8381.6761894656483
 31
0.0
  0
INSERT
  5
A0EA
  8
SP
  2
_OPEN
 10
10.99675560848026
 20
8381.6761894656483
 30
0.0
 41
25.0
 42
25.0
 43
25.0
  0
INSERT
  5
A0EB
  8
SP
  2
_OPEN
 10
-129.00324439152419
 20
8381.6761894656483
 30
0.0
 41
25.0
 42
25.0
 43
25.0
 50
180.0
  0
TEXT
  5
A0EC
  8
SP
 10
-100.5105819219921
 20
8391.6761894656483
 30
0.0
 40
30.0
  1
140
 51
15.0
  0
POINT
  5
A0ED
  8
DEFPOINTS
 62
     0
 10
10.996755608480269
 20
8445.476525147631
 30
0.0
  0
POINT
  5
A0EE
  8
DEFPOINTS
 62
     0
 10
-129.00324439152419
 20
8451.6761894656483
 30
0.0
  0
POINT
  5
A0EF
  8
DEFPOINTS
 62
     0
 10
-129.00324439152419
 20
8381.6761894656483
 30
0.0
  0
ENDBLK
  5
A0A8
  8
0
  0
BLOCK
  8
0
  2
*D15
 70
     1
 10
0.0
 20
0.0
 30
0.0
  3
*D15
  1

  0
LINE
  5
A0F0
  8
SP
 10
150.9967556084793
 20
8441.6761894656502
 30
0.0
 11
150.9967556084793
 21
8301.6761894656502
 31
0.0
  0
LINE
  5
A0F1
  8
SP
 10
-129.00324439151879
 20
8441.6761894656502
 30
0.0
 11
-129.00324439151879
 21
8301.6761894656502
 31
0.0
  0
LINE
  5
A0F2
  8
SP
 10
125.9967556084793
 20
8311.6761894656502
 30
0.0
 11
-104.00324439151881
 21
8311.6761894656502
 31
0.0
  0
INSERT
  5
A0F3
  8
SP
  2
_OPEN
 10
150.9967556084793
 20
8311.6761894656502
 30
0.0
 41
25.0
 42
25.0
 43
25.0
  0
INSERT
  5
A0F4
  8
SP
  2
_OPEN
 10
-129.00324439151879
 20
8311.6761894656502
 30
0.0
 41
25.0
 42
25.0
 43
25.0
 50
180.0
  0
TEXT
  5
A0F5
  8
SP
 10
-30.114056013897638
 20
8321.6761894656502
 30
0.0
 40
30.0
  1
280
 51
15.0
  0
POINT
  5
A0F6
  8
DEFPOINTS
 62
     0
 10
150.9967556084793
 20
8451.6761894656483
 30
0.0
  0
POINT
  5
A0F7
  8
DEFPOINTS
 62
     0
 10
-129.00324439151879
 20
8451.6761894656483
 30
0.0
  0
POINT
  5
A0F8
  8
DEFPOINTS
 62
     0
 10
-129.00324439151879
 20
8311.6761894656502
 30
0.0
  0
ENDBLK
  5
A0B4
  8
0
  0
BLOCK
  8
0
  2
*D16
 70
     1
 10
0.0
 20
0.0
 30
0.0
  3
*D16
  1

  0
LINE
  5
A0F9
  8
SP
 10
10.996755608480269
 20
8435.476525147631
 30
0.0
 11
10.99675560848026
 21
8371.6761894656483
 31
0.0
  0
LINE
  5
A0FA
  8
SP
 10
150.9967556084793
 20
8441.6761894656502
 30
0.0
 11
150.9967556084793
 21
8371.6761894656483
 31
0.0
  0
LINE
  5
A0FB
  8
SP
 10
35.996755608480271
 20
8381.6761894656483
 30
0.0
 11
125.9967556084793
 21
8381.6761894656483
 31
0.0
  0
INSERT
  5
A0FC
  8
SP
  2
_OPEN
 10
10.99675560848026
 20
8381.6761894656483
 30
0.0
 41
25.0
 42
25.0
 43
25.0
 50
180.0
  0
INSERT
  5
A0FD
  8
SP
  2
_OPEN
 10
150.9967556084793
 20
8381.6761894656483
 30
0.0
 41
25.0
 42
25.0
 43
25.0
  0
TEXT
  5
A0FE
  8
SP
 10
39.489418078009678
 20
8391.6761894656483
 30
0.0
 40
30.0
  1
140
 51
15.0
  0
POINT
  5
A0FF
  8
DEFPOINTS
 62
     0
 10
10.996755608480269
 20
8445.476525147631
 30
0.0
  0
POINT
  5
A100
  8
DEFPOINTS
 62
     0
 10
150.9967556084793
 20
8451.6761894656483
 30
0.0
  0
POINT
  5
A101
  8
DEFPOINTS
 62
     0
 10
150.9967556084793
 20
8381.6761894656483
 30
0.0
  0
ENDBLK
  5
A0C0
  8
0
  0
BLOCK
  8
0
  2
*D17
 70
     1
 10
0.0
 20
0.0
 30
0.0
  3
*D17
  1

  0
LINE
  5
A102
  8
SP
 10
707.63781013937921
 20
8441.6761894656483
 30
0.0
 11
707.63781013937921
 21
8371.6761894656483
 31
0.0
  0
LINE
  5
A103
  8
SP
 10
537.63781013937933
 20
8441.6761894656483
 30
0.0
 11
537.63781013937933
 21
8371.6761894656483
 31
0.0
  0
LINE
  5
A104
  8
SP
 10
682.63781013937921
 20
8381.6761894656483
 30
0.0
 11
562.63781013937933
 21
8381.6761894656483
 31
0.0
  0
INSERT
  5
A105
  8
SP
  2
_OPEN
 10
707.63781013937921
 20
8381.6761894656483
 30
0.0
 41
25.0
 42
25.0
 43
25.0
  0
INSERT
  5
A106
  8
SP
  2
_OPEN
 10
537.63781013937933
 20
8381.6761894656483
 30
0.0
 41
25.0
 42
25.0
 43
25.0
 50
180.0
  0
TEXT
  5
A107
  8
SP
 10
581.13047260890914
 20
8391.6761894656483
 30
0.0
 40
30.0
  1
170
 51
15.0
  0
POINT
  5
A108
  8
DEFPOINTS
 62
     0
 10
707.63781013937921
 20
8451.6761894656483
 30
0.0
  0
POINT
  5
A109
  8
DEFPOINTS
 62
     0
 10
537.63781013937933
 20
8451.6761894656483
 30
0.0
  0
POINT
  5
A10A
  8
DEFPOINTS
 62
     0
 10
537.63781013937933
 20
8381.6761894656483
 30
0.0
  0
ENDBLK
  5
A0CC
  8
0
  0
BLOCK
  8
0
  2
*D18
 70
     1
 10
0.0
 20
0.0
 30
0.0
  3
*D18
  1

  0
LINE
  5
A10B
  8
SP
 10
707.63781013937921
 20
8441.6761894656483
 30
0.0
 11
707.63781013937921
 21
8371.6761894656483
 31
0.0
  0
LINE
  5
A10C
  8
SP
 10
770.63781013937933
 20
8532.0878311137112
 30
0.0
 11
770.63781013937933
 21
8371.6761894656483
 31
0.0
  0
LINE
  5
A10D
  8
SP
 10
682.63781013937921
 20
8381.6761894656483
 30
0.0
 11
657.63781013937921
 21
8381.6761894656483
 31
0.0
  0
LINE
  5
A10E
  8
SP
 10
795.63781013937933
 20
8381.6761894656483
 30
0.0
 11
893.24221794475102
 21
8381.6761894656483
 31
0.0
  0
LINE
  5
A10F
  8
SP
 10
707.63781013937921
 20
8381.6761894656483
 30
0.0
 11
770.63781013937933
 21
8381.6761894656483
 31
0.0
  0
INSERT
  5
A110
  8
SP
  2
_OPEN
 10
707.63781013937921
 20
8381.6761894656483
 30
0.0
 41
25.0
 42
25.0
 43
25.0
  0
INSERT
  5
A111
  8
SP
  2
_OPEN
 10
770.63781013937933
 20
8381.6761894656483
 30
0.0
 41
25.0
 42
25.0
 43
25.0
 50
180.0
  0
TEXT
  5
A112
  8
SP
 10
828.06088502896034
 20
8391.6761894656483
 30
0.0
 40
30.0
  1
63
 51
15.0
  0
POINT
  5
A113
  8
DEFPOINTS
 62
     0
 10
707.63781013937921
 20
8451.6761894656483
 30
0.0
  0
POINT
  5
A114
  8
DEFPOINTS
 62
     0
 10
770.63781013937933
 20
8542.0878311137112
 30
0.0
  0
POINT
  5
A115
  8
DEFPOINTS
 62
     0
 10
770.63781013937933
 20
8381.6761894656483
 30
0.0
  0
ENDBLK
  5
A0DA
  8
0
  0
BLOCK
  8
0
  2
*D19
 70
     1
 10
0.0
 20
0.0
 30
0.0
  3
*D19
  1

  0
LINE
  5
A116
  8
SP
 10
537.63781013937933
 20
8441.6761894656483
 30
0.0
 11
537.63781013937933
 21
8301.6761894656502
 31
0.0
  0
LINE
  5
A117
  8
SP
 10
770.63781013937933
 20
8532.0878311137112
 30
0.0
 11
770.63781013937933
 21
8301.6761894656502
 31
0.0
  0
LINE
  5
A118
  8
SP
 10
562.63781013937933
 20
8311.6761894656502
 30
0.0
 11
745.63781013937933
 21
8311.6761894656502
 31
0.0
  0
INSERT
  5
A119
  8
SP
  2
_OPEN
 10
537.63781013937933
 20
8311.6761894656502
 30
0.0
 41
25.0
 42
25.0
 43
25.0
 50
180.0
  0
INSERT
  5
A11A
  8
SP
  2
_OPEN
 10
770.63781013937933
 20
8311.6761894656502
 30
0.0
 41
25.0
 42
25.0
 43
25.0
  0
TEXT
  5
A11B
  8
SP
 10
612.26142939576948
 20
8321.6761894656502
 30
0.0
 40
30.0
  1
233
 51
15.0
  0
POINT
  5
A11C
  8
DEFPOINTS
 62
     0
 10
537.63781013937933
 20
8451.6761894656483
 30
0.0
  0
POINT
  5
A11D
  8
DEFPOINTS
 62
     0
 10
770.63781013937933
 20
8542.0878311137112
 30
0.0
  0
POINT
  5
A11E
  8
DEFPOINTS
 62
     0
 10
770.63781013937933
 20
8311.6761894656502
 30
0.0
  0
ENDBLK
  5
A0E6
  8
0
  0
BLOCK
  8
0
  2
*D20
 70
     1
 10
0.0
 20
0.0
 30
0.0
  3
*D20
  1

  0
LINE
  5
A402
  8
SP
 10
-139.00324439152061
 20
8511.6761894656502
 30
0.0
 11
-199.0032443915207
 21
8511.6761894656502
 31
0.0
  0
LINE
  5
A403
  8
SP
 10
-139.00324439151879
 20
8451.6761894656483
 30
0.0
 11
-199.0032443915207
 21
8451.6761894656483
 31
0.0
  0
LINE
  5
A404
  8
SP
 10
-189.00324439152061
 20
8536.6761894656502
 30
0.0
 11
-189.00324439152061
 21
8561.6761894656502
 31
0.0
  0
LINE
  5
A405
  8
SP
 10
-189.00324439152061
 20
8426.6761894656502
 30
0.0
 11
-189.0032443915207
 21
8330.6029199027435
 31
0.0
  0
LINE
  5
A406
  8
SP
 10
-189.00324439152061
 20
8511.6761894656502
 30
0.0
 11
-189.00324439152061
 21
8451.6761894656483
 31
0.0
  0
INSERT
  5
A407
  8
SP
  2
_DOT
 10
-189.00324439152061
 20
8511.6761894656502
 30
0.0
 41
25.0
 42
25.0
 43
25.0
 50
270.0
  0
INSERT
  5
A408
  8
SP
  2
_OPEN
 10
-189.00324439152061
 20
8451.6761894656483
 30
0.0
 41
25.0
 42
25.0
 43
25.0
 50
90.0
  0
TEXT
  8
0
  40
30
  5
A414
  72
0
  71
0
 10
-274.003
 20
8313.04
 30
0.000000
  1
60
  0
POINT
  5
A40A
  8
DEFPOINTS
 62
     0
 10
-129.00324439152061
 20
8511.6761894656502
 30
0.0
  0
POINT
  5
A40B
  8
DEFPOINTS
 62
     0
 10
-129.00324439151879
 20
8451.6761894656483
 30
0.0
  0
POINT
  5
A40C
  8
DEFPOINTS
 62
     0
 10
-189.00324439152061
 20
8451.6761894656483
 30
0.0
  0
ENDBLK
  5
A2E4
  8
0
  0
BLOCK
  8
0
  2
*D21
 70
     1
 10
0.0
 20
0.0
 30
0.0
  3
*D21
  1

  0
LINE
  5
A40D
  8
SP
 10
-139.00324439152061
 20
8533.6761894656502
 30
0.0
 11
-199.0032443915207
 21
8533.6761894656502
 31
0.0
  0
LINE
  5
A40E
  8
SP
 10
-139.00324439151879
 20
8511.6761894656502
 30
0.0
 11
-199.0032443915207
 21
8511.6761894656502
 31
0.0
  0
LINE
  5
A40F
  8
SP
 10
-189.00324439152061
 20
8533.6761894656502
 30
0.0
 11
-189.0032443915207
 21
8511.6761894656502
 31
0.0
  0
TEXT
  8
0
  40
30
  5
A415
  72
0
  71
0
 10
-284.102
 20
8461.09
 30
0.000000
  1
（22）
  0
POINT
  5
A411
  8
DEFPOINTS
 62
     0
 10
-129.00324439152061
 20
8533.6761894656502
 30
0.0
  0
POINT
  5
A412
  8
DEFPOINTS
 62
     0
 10
-129.00324439151879
 20
8511.6761894656502
 30
0.0
  0
POINT
  5
A413
  8
DEFPOINTS
 62
     0
 10
-189.0032443915207
 20
8511.6761894656502
 30
0.0
  0
ENDBLK
  5
A2F3
  8
0
  0
ENDSEC
  0
SECTION
  2
ENTITIES
  0
ARC
  5
6027
  8
FUTO
 10
21.996755608478448
 20
8744.6761894656483
 30
0.0
 40
135.0
 50
269.5135224137598
 51
0.4450793962559058
  0
DIMENSION
  5
6028
  8
SP
  2
*D2
 10
-189.0032443915197
 20
8893.6761894656483
 30
0.0
 11
-214.00324439152109
 21
8813.6761894656483
 31
0.0
 70
     0
 13
-134.84887682794391
 23
8733.6761894656483
 33
0.0
 14
-119.0032443915197
 24
8893.6761894656483
 34
0.0
 50
90.0
  0
DIMENSION
  5
6029
  8
SP
  2
*D1
 10
-189.00324439152061
 20
8733.6761894656483
 30
0.0
 11
-214.003244391522
 21
8633.6761894656483
 31
0.0
 70
     0
 13
-129.0032443915197
 23
8533.6761894656502
 33
0.0
 14
-134.84887682794391
 24
8733.6761894656483
 34
0.0
 50
90.0
  0
LINE
  5
602B
  8
CT
 10
176.25152404315301
 20
8733.6761894656483
 30
0.0
 11
-134.84887682794391
 21
8733.6761894656483
 31
0.0
  0
ARC
  5
602C
  8
FUTO
 10
-2.0032443915206382
 20
8746.6761894656483
 30
0.0
 40
147.0
 50
42.71864451436317
 51
90.0
  0
ARC
  5
602D
  8
FUTO
 10
-2.0032443915206382
 20
8746.6761894656483
 30
0.0
 40
159.0
 50
47.215305089357443
 51
90.0
  0
ARC
  5
602E
  8
FUTO
 10
19.996755608479361
 20
8724.6761894656483
 30
0.0
 40
103.0
 50
184.26560891566629
 51
270.53161476225978
  0
ARC
  5
602F
  8
FUTO
 10
19.996755608479361
 20
8724.6761894656483
 30
0.0
 40
115.0
 50
184.26560891566629
 51
270.53161476225978
  0
ARC
  5
6030
  8
FUTO
 10
10.998420418706701
 20
8729.9893426686776
 30
0.0
 40
64.186846818564661
 50
296.75862459227471
 51
243.29311967506609
  0
CIRCLE
  5
6031
  8
CT
 10
10.996755608480269
 20
8733.6761894656483
 30
0.0
 40
90.0
  0
LINE
  5
6032
  8
FUTO
 10
-94.203244391519533
 20
8670.6761894656483
 30
0.0
 11
116.19675560847909
 21
8670.6761894656483
 31
0.0
  0
LINE
  5
6033
  8
FUTO
 10
70.996755608479361
 20
8652.2761894656469
 30
0.0
 11
-49.003244391520639
 21
8652.2761894656487
 31
0.0
  0
LINE
  5
6034
  8
FUTO
 10
-24.003244391519718
 20
8838.6761894656483
 30
0.0
 11
45.996755608480271
 21
8838.6761894656483
 31
0.0
  0
LINE
  5
6035
  8
FUTO
 10
39.994955608480268
 20
8672.6761894656483
 30
0.0
 11
-17.903944391519872
 21
8672.6761894656483
 31
0.0
  0
ARC
  5
6037
  8
FUTO
 10
-2.0032443915206382
 20
8746.6761894656483
 30
0.0
 40
147.0
 50
359.59287178573129
 51
42.71864451436317
  0
ARC
  5
6038
  8
FUTO
 10
-2.0032443915206382
 20
8746.6761894656483
 30
0.0
 40
159.0
 50
359.59287178573129
 51
47.215305089357443
  0
CIRCLE
  5
6039
  8
FUTO
 10
94.145913534495776
 20
8768.1176983785081
 30
0.0
 40
4.0
  0
LINE
  5
603A
  8
FUTO
 10
120.9967556084793
 20
8763.6761894656483
 30
0.0
 11
45.996755608480271
 21
8838.6761894656483
 31
0.0
  0
LINE
  5
603B
  8
FUTO
 10
119.39675560847991
 20
8536.6761894656502
 30
0.0
 11
119.39675560847991
 21
8765.2761894656505
 31
0.0
  0
ARC
  5
603C
  8
FUTO
 10
21.996755608478448
 20
8744.6761894656483
 30
0.0
 40
123.0
 50
269.5135224137598
 51
0.4450793962559058
  0
LINE
  5
603D
  8
FUTO
 10
104.7728001767254
 20
8670.6761894656483
 30
0.0
 11
70.996755608480271
 21
8652.2761894656487
 31
0.0
  0
LINE
  5
603E
  8
CT
 10
102.4608293270975
 20
8695.7905296615063
 30
0.0
 11
85.830997741893952
 21
8702.6788314440782
 31
0.0
  0
LINE
  5
603F
  8
FUTO
 10
117.7967556084795
 20
8583.8761894656473
 30
0.0
 11
117.7967556084795
 21
8667.4761894656494
 31
0.0
  0
LINE
  5
6040
  8
FUTO
 10
120.9967556084793
 20
8536.213904973738
 30
0.0
 11
120.9967556084793
 21
8763.6761894656483
 31
0.0
  0
LINE
  5
6041
  8
FUTO
 10
122.5967556084797
 20
8533.6761894656502
 30
0.0
 11
150.9967556084793
 21
8533.6761894656502
 31
0.0
  0
LINE
  5
6042
  8
FUTO
 10
121.9967556084793
 20
8535.2761894656487
 30
0.0
 11
150.9967556084793
 21
8535.2761894656487
 31
0.0
  0
LINE
  5
6043
  8
FUTO
 10
150.9967556084793
 20
8533.6761894656502
 30
0.0
 11
150.9967556084793
 21
8535.2761894656487
 31
0.0
  0
ARC
  5
6044
  8
FUTO
 10
121.9967556084793
 20
8536.2761894656487
 30
0.0
 40
1.0
 50
180.0
 51
270.0
  0
ARC
  5
6045
  8
FUTO
 10
122.5967556084797
 20
8536.8761894656491
 30
0.0
 40
3.2000000000000002
 50
180.0
 51
270.0
  0
LINE
  5
6046
  8
CT
 10
137.9967556084793
 20
8500.1791146752366
 30
0.0
 11
137.9967556084793
 21
8542.7003335502086
 31
0.0
  0
ARC
  5
6047
  8
FUTO
 10
119.39675560847991
 20
8533.6761894656502
 30
0.0
 40
3.0
 50
0.0000000000000076
 51
0.1194908935784599
  0
LINE
  5
6048
  8
FUTO
 10
119.3967556084789
 20
8583.8761894656473
 30
0.0
 11
117.7967556084795
 21
8583.8761894656473
 31
0.0
  0
LINE
  5
6049
  8
CT
 10
110.1625429896466
 20
8653.8761894656473
 30
0.0
 11
129.63674460020681
 21
8653.8761894656473
 31
0.0
  0
LINE
  5
604A
  8
CT
 10
110.1625429896466
 20
8598.8761894656491
 30
0.0
 11
129.63674460020681
 21
8598.8761894656491
 31
0.0
  0
LINE
  5
604B
  8
FUTO
 10
101.8357528229653
 20
8669.0761894656498
 30
0.0
 11
116.19675560847909
 21
8669.0761894656498
 31
0.0
  0
ARC
  5
604C
  8
FUTO
 10
116.19675560847909
 20
8667.4761894656494
 30
0.0
 40
3.2000000000000002
 50
0.0000000000000076
 51
90.0
  0
ARC
  5
604D
  8
FUTO
 10
116.19675560847909
 20
8667.4761894656494
 30
0.0
 40
1.6000000000000001
 50
0.0000000000000076
 51
90.0
  0
LINE
  5
604E
  8
FUTO
 10
119.39675560847991
 20
8584.8761894656491
 30
0.0
 11
119.39675560847991
 21
8668.4761894656476
 31
0.0
  0
LINE
  5
604F
  8
FUTO
 10
44.996755608480271
 20
8670.6761894656483
 30
0.0
 11
74.996755608480271
 21
8670.6761894656483
 31
0.0
  0
LINE
  5
6050
  8
FUTO
 10
74.996755608480271
 20
8672.9761894656476
 30
0.0
 11
46.132855608479979
 21
8672.9761894656476
 31
0.0
  0
LINE
  5
6051
  8
FUTO
 10
60.581655608480098
 20
8687.3912894656496
 30
0.0
 11
74.996755608480271
 21
8672.9761894656476
 31
0.0
  0
LINE
  5
6052
  8
FUTO
 10
74.996755608480271
 20
8672.9761894656476
 30
0.0
 11
74.996755608480271
 21
8670.6761894656483
 31
0.0
  0
CIRCLE
  5
6053
  8
FUTO
 10
94.145913534495776
 20
8699.2346805527923
 30
0.0
 40
4.0
  0
ARC
  5
6054
  8
FUTO
 10
46.132955608480181
 20
8676.6762894656495
 30
0.0
 40
3.7000999999999991
 50
218.82630000000199
 51
274.60909999999433
  0
CIRCLE
  5
6055
  8
FUTO
 10
45.438264521338162
 20
8650.5270315396356
 30
0.0
 40
4.0
  0
LINE
  5
6056
  8
CT
 10
48.882415412624141
 20
8642.2121157470319
 30
0.0
 11
41.9941136300531
 21
8658.8419473322356
 31
0.0
  0
ARC
  5
6057
  8
FUTO
 10
45.844155608479923
 20
8677.1759894656498
 30
0.0
 40
5.9997999999999987
 50
220.71839999999469
 51
261.88309999999711
  0
LINE
  5
6058
  8
FUTO
 10
44.996755608480271
 20
8671.2323894656474
 30
0.0
 11
44.996755608480271
 21
8670.6761894656483
 31
0.0
  0
LINE
  5
6059
  8
CT
 10
102.4608293270975
 20
8771.5618492697922
 30
0.0
 11
85.830997741893952
 21
8764.6735474872203
 31
0.0
  0
LINE
  5
605A
  8
CT
 10
48.882415412624141
 20
8825.1402631842666
 30
0.0
 11
41.994113630052198
 21
8808.5104315990648
 31
0.0
  0
CIRCLE
  5
605B
  8
FUTO
 10
45.438264521338162
 20
8816.8253473916666
 30
0.0
 40
4.0
  0
LINE
  5
605C
  8
CT
 10
10.996755608480269
 20
8923.5934657609978
 30
0.0
 11
10.996755608480269
 21
8445.476525147631
 31
0.0
  0
LINE
  5
605D
  8
FUTO
 10
-104.0032443915206
 20
8879.6761894656483
 30
0.0
 11
-104.0032443915206
 21
8747.6761894656483
 31
0.0
  0
LINE
  5
605E
  8
FUTO
 10
-118.0032443915206
 20
8896.6761894656483
 30
0.0
 11
-118.0032443915206
 21
8711.6761894656483
 31
0.0
  0
LINE
  5
605F
  8
FUTO
 10
-119.0032443915206
 20
8915.6761894656465
 30
0.0
 11
-119.0032443915206
 21
8711.6761894656483
 31
0.0
  0
CIRCLE
  5
6060
  8
FUTO
 10
-72.152402317536144
 20
8768.1176983785081
 30
0.0
 40
4.0
  0
LINE
  5
6061
  8
FUTO
 10
-99.003244391519715
 20
8763.6761894656483
 30
0.0
 11
-24.003244391519718
 21
8838.6761894656483
 31
0.0
  0
LINE
  5
6062
  8
FUTO
 10
-97.403244391520275
 20
8536.8761894656491
 30
0.0
 11
-97.403244391519365
 21
8765.2761894656505
 31
0.0
  0
LINE
  5
6063
  8
FUTO
 10
-82.779288959765836
 20
8670.6761894656483
 30
0.0
 11
-49.003244391520639
 21
8652.2761894656487
 31
0.0
  0
ARC
  5
6065
  8
FUTO
 10
-24.081844391520459
 20
8676.2763894656473
 30
0.0
 40
3.3001999999999989
 50
270.00130000000058
 51
326.01850000000201
  0
CIRCLE
  5
6066
  8
FUTO
 10
-23.444753304377631
 20
8650.5270315396356
 30
0.0
 40
4.0
  0
LINE
  5
6067
  8
CT
 10
-26.888904195663599
 20
8642.2121157470319
 30
0.0
 11
-20.000602413091649
 21
8658.8419473322356
 31
0.0
  0
ARC
  5
6068
  8
FUTO
 10
-24.023944391519759
 20
8677.1760894656509
 30
0.0
 40
5.9999000000000002
 50
279.6292000000023
 51
320.9463999999993
  0
LINE
  5
6069
  8
FUTO
 10
-38.349144391520888
 20
8687.6302894656474
 30
0.0
 11
-53.003244391519729
 21
8672.9761894656476
 31
0.0
  0
LINE
  5
606A
  8
FUTO
 10
-23.003244391519718
 20
8670.6761894656483
 30
0.0
 11
-53.003244391519729
 21
8670.6761894656483
 31
0.0
  0
LINE
  5
606B
  8
FUTO
 10
-23.815844391519931
 20
8672.9761894656476
 30
0.0
 11
-52.739544391520212
 21
8672.9761894656476
 31
0.0
  0
LINE
  5
606C
  8
FUTO
 10
-23.003244391519718
 20
8671.2520894656482
 30
0.0
 11
-23.003244391519718
 21
8670.6761894656483
 31
0.0
  0
LINE
  5
606D
  8
FUTO
 10
-53.003244391519729
 20
8672.9761894656476
 30
0.0
 11
-53.003244391519729
 21
8670.6761894656483
 31
0.0
  0
LINE
  5
606E
  8
FUTO
 10
-97.403244391520275
 20
8583.8761894656473
 30
0.0
 11
-97.403244391519365
 21
8667.4761894656494
 31
0.0
  0
LINE
  5
606F
  8
FUTO
 10
-95.803244391519925
 20
8583.8761894656473
 30
0.0
 11
-95.803244391519925
 21
8667.4761894656494
 31
0.0
  0
LINE
  5
6070
  8
FUTO
 10
-99.003244391520653
 20
8536.2761894656487
 30
0.0
 11
-99.003244391519715
 21
8763.6761894656483
 31
0.0
  0
LINE
  5
6071
  8
FUTO
 10
-100.0032443915206
 20
8535.2761894656487
 30
0.0
 11
-129.00324439152061
 21
8535.2761894656487
 31
0.0
  0
LINE
  5
6072
  8
FUTO
 10
-100.60324439151999
 20
8533.6761894656502
 30
0.0
 11
-129.00324439152061
 21
8533.6761894656502
 31
0.0
  0
LINE
  5
6073
  8
FUTO
 10
-97.403244391520275
 20
8583.8761894656473
 30
0.0
 11
-95.803244391519925
 21
8583.8761894656473
 31
0.0
  0
ARC
  5
6074
  8
FUTO
 10
-100.60324439151999
 20
8536.8761894656491
 30
0.0
 40
3.2000000000000002
 50
270.0
 51
0.0000000000000076
  0
ARC
  5
6075
  8
FUTO
 10
-100.0032443915206
 20
8536.2761894656487
 30
0.0
 40
1.0
 50
270.0
 51
0.0000000000000076
  0
LINE
  5
6076
  8
CT
 10
-116.0032443915206
 20
8500.1791146752366
 30
0.0
 11
-116.0032443915206
 21
8542.7003335502086
 31
0.0
  0
LINE
  5
6077
  8
FUTO
 10
-129.00324439152061
 20
8533.6761894656502
 30
0.0
 11
-129.00324439152061
 21
8535.2761894656487
 31
0.0
  0
ARC
  5
6078
  8
FUTO
 10
-94.003244391520624
 20
8730.2219829226233
 30
0.0
 40
10.0
 50
179.99999999999989
 51
240.0000000000027
  0
LINE
  5
6079
  8
CT
 10
-107.3116863101113
 20
8653.8761894656473
 30
0.0
 11
-87.837484699551169
 21
8653.8761894656473
 31
0.0
  0
LINE
  5
607A
  8
CT
 10
-107.3116863101113
 20
8598.8761894656491
 30
0.0
 11
-87.837484699552078
 21
8598.8761894656491
 31
0.0
  0
LINE
  5
607B
  8
FUTO
 10
-94.203244391519533
 20
8669.0761894656498
 30
0.0
 11
-79.842241606004791
 21
8669.0761894656462
 31
0.0
  0
ARC
  5
607C
  8
FUTO
 10
-94.203244391519533
 20
8667.4761894656494
 30
0.0
 40
3.2000000000000002
 50
90.0
 51
180.0
  0
ARC
  5
607D
  8
FUTO
 10
-94.203244391519533
 20
8667.4761894656494
 30
0.0
 40
1.6000000000000001
 50
90.0
 51
180.0
  0
ARC
  5
607E
  8
FUTO
 10
-100.6680694235074
 20
8715.6761894656483
 30
0.0
 40
18.0
 50
4.2656089156662311
 51
84.693112663675535
  0
LINE
  5
607F
  8
CT
 10
-80.467318110137967
 20
8695.7905296615063
 30
0.0
 11
-63.83748652493432
 21
8702.6788314440764
 31
0.0
  0
CIRCLE
  5
6080
  8
FUTO
 10
-72.152402317536144
 20
8699.2346805527886
 30
0.0
 40
4.0
  0
ARC
  5
6081
  8
FUTO
 10
-100.6680694235074
 20
8715.6761894656483
 30
0.0
 40
18.0
 50
84.693112663675535
 51
90.0
  0
ARC
  5
6082
  8
FUTO
 10
-94.003244391520624
 20
8730.2219829226233
 30
0.0
 40
10.0
 50
240.0000000000027
 51
245.38293604451411
  0
ARC
  5
6083
  8
FUTO
 10
-100.6680694235074
 20
8715.6761894656483
 30
0.0
 40
6.0
 50
4.2656089156662311
 51
65.382936044519653
  0
LINE
  5
6084
  8
CT
 10
-126.1880899699535
 20
8721.6761894656483
 30
0.0
 11
-108.3194710999214
 21
8721.6761894656483
 31
0.0
  0
LINE
  5
6085
  8
FUTO
 10
-119.0032443915206
 20
8711.6761894656483
 30
0.0
 11
-118.0032443915206
 21
8711.6761894656483
 31
0.0
  0
ARC
  5
6086
  8
FUTO
 10
-116.0032443915206
 20
8730.6761894656483
 30
0.0
 40
2.0
 50
90.0
 51
179.99999999999989
  0
ARC
  5
6087
  8
FUTO
 10
-114.1748172667748
 20
8734.6761894656447
 30
0.0
 40
2.0
 50
135.00000000000909
 51
270.0
  0
LINE
  5
6088
  8
FUTO
 10
-104.0032443915206
 20
8733.6761894656483
 30
0.0
 11
-104.0032443915206
 21
8730.2219829226233
 31
0.0
  0
LINE
  5
6089
  8
FUTO
 10
-116.0032443915206
 20
8732.6761894656483
 30
0.0
 11
-104.0032443915206
 21
8732.6761894656483
 31
0.0
  0
LINE
  5
608A
  8
FUTO
 10
-115.5890308291473
 20
8736.090403028018
 30
0.0
 11
-104.0032443915206
 21
8747.6761894656483
 31
0.0
  0
LINE
  5
608B
  8
FUTO
 10
-119.0032443915206
 20
8893.6761894656483
 30
0.0
 11
-2.0032443915206382
 21
8893.6761894656483
 31
0.0
  0
LINE
  5
608C
  8
FUTO
 10
-104.0032443915206
 20
8905.6761894656483
 30
0.0
 11
-2.0032443915206382
 21
8905.6761894656483
 31
0.0
  0
LINE
  5
608D
  8
CT
 10
-26.888904195664509
 20
8825.1402631842648
 30
0.0
 11
-20.000602413092562
 21
8808.5104315990648
 31
0.0
  0
CIRCLE
  5
608E
  8
FUTO
 10
-23.44475330437853
 20
8816.8253473916648
 30
0.0
 40
4.0
  0
LINE
  5
608F
  8
CT
 10
-80.467318110137967
 20
8771.5618492697922
 30
0.0
 11
-63.83748652493432
 21
8764.6735474872203
 31
0.0
  0
LINE
  5
6090
  8
CT
 10
-126.1880899699535
 20
8905.6761894656483
 30
0.0
 11
-109.6269306026897
 21
8905.6761894656483
 31
0.0
  0
ARC
  5
6091
  8
FUTO
 10
-116.0032443915206
 20
8896.6761894656483
 30
0.0
 40
2.0
 50
179.99999999999989
 51
270.0
  0
ARC
  5
6092
  8
FUTO
 10
-114.1748172667748
 20
8892.6761894656483
 30
0.0
 40
2.0
 50
90.0
 51
224.99999999999079
  0
LINE
  5
6093
  8
FUTO
 10
-104.0032443915206
 20
8905.6761894656483
 30
0.0
 11
-104.0032443915206
 21
8893.6761894656483
 31
0.0
  0
LINE
  5
6094
  8
FUTO
 10
-115.5890308291473
 20
8891.2619759032732
 30
0.0
 11
-104.0032443915206
 21
8879.6761894656483
 31
0.0
  0
LINE
  5
6095
  8
FUTO
 10
-116.0032443915206
 20
8894.6761894656483
 30
0.0
 11
-104.0032443915206
 21
8894.6761894656483
 31
0.0
  0
LINE
  5
6096
  8
FUTO
 10
-119.0032443915206
 20
8915.6761894656465
 30
0.0
 11
-118.0032443915206
 21
8915.6761894656465
 31
0.0
  0
LINE
  5
6097
  8
FUTO
 10
-118.0032443915206
 20
8915.6761894656465
 30
0.0
 11
-118.0032443915206
 21
8896.6761894656483
 31
0.0
  0
DIMENSION
  5
64C2
  8
SP
  2
*D3
 10
-119.0032443915206
 20
8975.6761894656502
 30
0.0
 11
-54.003244391520191
 21
9000.6761894656483
 31
0.0
 70
     0
 13
10.996755608480269
 23
8923.5934657609978
 33
0.0
 14
-119.0032443915206
 24
8915.6761894656465
 34
0.0
  0
DIMENSION
  5
64CF
  8
SP
  2
*D4
 10
144.9967556084793
 20
8975.6761894656502
 30
0.0
 11
77.996755608479816
 21
9000.6761894656483
 31
0.0
 70
     0
 13
10.996755608480269
 23
8923.5934657609978
 33
0.0
 14
144.9967556084793
 24
8746.6761894656483
 34
0.0
  0
LINE
  5
719B
  8
CT
 10
-148.7384793245819
 20
9594.5412464436013
 30
0.0
 11
183.7875201648512
 21
9594.5412464436013
 31
0.0
  0
LINE
  5
719E
  8
FUTO
 10
151.2195617783818
 20
9650.2831962449382
 30
0.0
 11
-118.0032443915206
 21
9650.2831962449382
 31
0.0
  0
LINE
  5
719F
  8
FUTO
 10
151.32705925164001
 20
9650.8831962449403
 30
0.0
 11
-118.00324439151881
 21
9650.8831962449403
 31
0.0
  0
LINE
  5
71A6
  8
FUTO
 10
148.39268245003399
 20
9537.6831962449396
 30
0.0
 11
-118.00324439151881
 21
9537.6831962449396
 31
0.0
  0
LINE
  5
71A7
  8
FUTO
 10
148.39268245003399
 20
9538.2831962449382
 30
0.0
 11
-118.00324439151881
 21
9538.2831962449382
 31
0.0
  0
LINE
  5
71AE
  8
FUTO
 10
-119.00324439151881
 20
9671.5412464436013
 30
0.0
 11
-119.00324439151881
 21
9517.5412464436013
 31
0.0
  0
LINE
  5
71AF
  8
FUTO
 10
-118.00324439151881
 20
9671.5412464436013
 30
0.0
 11
-118.00324439151881
 21
9517.5412464436013
 31
0.0
  0
LINE
  5
71B0
  8
FUTO
 10
-104.00324439151881
 20
9552.1270328812316
 30
0.0
 11
-104.00324439151881
 21
9636.955460005971
 31
0.0
  0
LINE
  5
71B8
  8
FUTO
 10
-115.5890308291473
 20
9540.5412464435994
 30
0.0
 11
-104.00324439151881
 21
9552.1270328812279
 31
0.0
  0
LINE
  5
71BC
  8
FUTO
 10
-119.00324439151881
 20
9517.5412464436013
 30
0.0
 11
-118.00324439151881
 21
9517.5412464436013
 31
0.0
  0
LINE
  5
71BD
  8
CT
 10
-123.5067982988966
 20
9527.5412464436013
 30
0.0
 11
-113.4996904841409
 21
9527.5412464436013
 31
0.0
  0
LINE
  5
71BE
  8
FUTO
 10
-115.5890308291473
 20
9540.5412464435994
 30
0.0
 11
-115.5890308291473
 21
9538.5412464436013
 31
0.0
  0
ARC
  5
71C4
  8
FUTO
 10
-87.003244391520639
 20
9532.9412464435973
 30
0.0
 40
2.0
 50
180.0
 51
270.0
  0
LINE
  5
71C6
  8
FUTO
 10
-89.003244391520624
 20
9532.9412464435973
 30
0.0
 11
-89.003244391520624
 21
9537.9412464435991
 31
0.0
  0
LINE
  5
71C8
  8
CT
 10
-79.003244391520639
 20
9524.3575731465971
 30
0.0
 11
-79.003244391520639
 21
9535.3305936665893
 31
0.0
  0
LINE
  5
71CB
  8
FUTO
 10
-115.5890308291473
 20
9648.5412464436013
 30
0.0
 11
-104.00324439151881
 21
9636.955460005971
 31
0.0
  0
LINE
  5
71CC
  8
FUTO
 10
-119.00324439151881
 20
9671.5412464436013
 30
0.0
 11
-118.00324439151881
 21
9671.5412464436013
 31
0.0
  0
LINE
  5
71CD
  8
CT
 10
-123.5067982988966
 20
9661.5412464435994
 30
0.0
 11
-113.4996904841409
 21
9661.5412464435994
 31
0.0
  0
LINE
  5
71CE
  8
FUTO
 10
-115.5890308291473
 20
9648.5412464436013
 30
0.0
 11
-115.5890308291473
 21
9650.5412464436013
 31
0.0
  0
LINE
  5
71D4
  8
CT
 10
10.99675560847936
 20
9706.5326023159396
 30
0.0
 11
10.99675560848118
 21
9306.3458193096176
 31
0.0
  0
LINE
  5
71D5
  8
FUTO
 10
156.3926824500322
 20
9546.2831962449382
 30
0.0
 11
156.3926824500322
 21
9642.7992966422607
 31
0.0
  0
LINE
  5
71D6
  8
FUTO
 10
156.9926824500325
 20
9546.2831962449382
 30
0.0
 11
156.9926824500325
 21
9642.7992966422607
 31
0.0
  0
LINE
  5
71EE
  8
FUTO
 10
110.9967556084793
 20
9532.9412464435973
 30
0.0
 11
110.9967556084793
 21
9537.9412464435991
 31
0.0
  0
LINE
  5
71EF
  8
CT
 10
100.9967556084793
 20
9524.3575731465971
 30
0.0
 11
100.9967556084793
 21
9535.3305936665893
 31
0.0
  0
ARC
  5
71F0
  8
FUTO
 10
108.9967556084793
 20
9532.9412464435973
 30
0.0
 40
2.0
 50
270.0
 51
0.0
  0
ARC
  5
71F7
  8
FUTO
 10
148.39268245003399
 20
9546.2831962449382
 30
0.0
 40
8.5999999999999996
 50
270.0
 51
0.0
  0
ARC
  5
71F8
  8
FUTO
 10
148.39268245003399
 20
9546.2831962449382
 30
0.0
 40
8.0
 50
270.0
 51
0.0
  0
ARC
  5
71FB
  8
FUTO
 10
148.39268245003399
 20
9642.7992966422607
 30
0.0
 40
8.5999999999999996
 50
0.0
 51
70.049595990217441
  0
ARC
  5
71FC
  8
FUTO
 10
148.39268245003399
 20
9642.7992966422607
 30
0.0
 40
8.0
 50
0.0
 51
69.307039139858006
  0
DIMENSION
  5
7201
  8
SP
  2
*D5
 10
826.63781013938035
 20
8985.6761894656483
 30
0.0
 11
770.63781013938024
 21
9010.6761894656483
 31
0.0
 70
     0
 13
714.63781013938024
 23
8903.6761894656465
 33
0.0
 14
826.63781013938035
 24
8903.6761894656465
 34
0.0
  0
DIMENSION
  5
7202
  8
SP
  2
*D6
 10
833.63781013938012
 20
9055.6761894656483
 30
0.0
 11
919.94001404206597
 21
9080.6761894656483
 31
0.0
 70
     0
 13
770.63781013938024
 23
9025.6761894656483
 33
0.0
 14
833.63781013938012
 24
8831.6761894656483
 34
0.0
  0
DIMENSION
  5
7203
  8
SP
  2
*D7
 10
510.69113115790691
 20
9055.6761894656483
 30
0.0
 11
640.6644706486436
 21
9080.6761894656483
 31
0.0
 70
     0
  1
（330）
 13
770.63781013938024
 23
9025.6761894656483
 33
0.0
 14
510.69113115790691
 24
8790.2404894656484
 34
0.0
  0
LINE
  5
7205
  8
FUTO
 10
647.63781013938024
 20
8706.8761894656491
 30
0.0
 11
706.03781013938158
 21
8765.2761894656469
 31
0.0
  0
LINE
  5
7209
  8
CT
 10
478.98834088006328
 20
8733.6761894656483
 30
0.0
 11
865.48807483452754
 21
8733.6761894656483
 31
0.0
  0
LINE
  5
720E
  8
FUTO
 10
537.63781013938024
 20
8535.2761894656469
 30
0.0
 11
647.63781013938024
 21
8706.8761894656491
 31
0.0
  0
LINE
  5
7218
  8
FUTO
 10
534.83781013938096
 20
8670.6761894656483
 30
0.0
 11
624.43268193425126
 21
8670.6761894656483
 31
0.0
  0
LINE
  5
7219
  8
FUTO
 10
534.83781013938096
 20
8669.0761894656498
 30
0.0
 11
623.40704090861072
 21
8669.0761894656462
 31
0.0
  0
LINE
  5
721A
  8
FUTO
 10
578.43909639741923
 20
8598.926196028191
 30
0.0
 11
540.22384959309954
 21
8669.0761894656498
 31
0.0
  0
ARC
  5
721D
  8
FUTO
 10
534.83781013938096
 20
8667.4761894656494
 30
0.0
 40
3.2000000000000002
 50
90.0
 51
180.0
  0
ARC
  5
721E
  8
FUTO
 10
534.83781013938096
 20
8667.4761894656494
 30
0.0
 40
1.6000000000000001
 50
90.0
 51
180.0
  0
LINE
  5
721F
  8
FUTO
 10
533.2378101393806
 20
8652.2761894656487
 30
0.0
 11
533.2378101393806
 21
8667.4761894656494
 31
0.0
  0
LINE
  5
7220
  8
FUTO
 10
531.63781013938024
 20
8652.2761894656487
 30
0.0
 11
531.63781013938024
 21
8667.4761894656494
 31
0.0
  0
LINE
  5
7221
  8
FUTO
 10
531.63781013938024
 20
8652.2761894656487
 30
0.0
 11
533.2378101393806
 21
8652.2761894656487
 31
0.0
  0
LINE
  5
7234
  8
FUTO
 10
706.03781013938158
 20
8838.6761894656483
 30
0.0
 11
706.03781013937987
 21
8533.6761894656502
 31
0.0
  0
LINE
  5
7235
  8
FUTO
 10
707.63781013938024
 20
8838.6761894656483
 30
0.0
 11
707.63781013938114
 21
8533.6761894656502
 31
0.0
  0
LINE
  5
7237
  8
CT
 10
770.63781013938024
 20
8542.0878311137112
 30
0.0
 11
770.63781013938024
 21
8924.9094297356478
 31
0.0
  0
LINE
  5
723A
  8
FUTO
 10
714.63781013938024
 20
8895.6761894656483
 30
0.0
 11
826.63781013938035
 21
8895.6761894656483
 31
0.0
  0
LINE
  5
723B
  8
CT
 10
822.9111469264044
 20
8823.6761894656483
 30
0.0
 11
837.41653413408847
 21
8823.6761894656483
 31
0.0
  0
LINE
  5
723C
  8
CT
 10
822.9111469264044
 20
8643.6761894656483
 30
0.0
 11
837.41653413408847
 21
8643.6761894656483
 31
0.0
  0
ARC
  5
723D
  8
FUTO
 10
819.15391053670271
 20
8628.6810555717057
 30
0.0
 40
8.5999999999999996
 50
270.0
 51
340.04959599021743
  0
ARC
  5
723E
  8
FUTO
 10
819.15391053670271
 20
8628.6810555717057
 30
0.0
 40
8.0
 50
270.0
 51
339.30703913985798
  0
LINE
  5
723F
  8
FUTO
 10
713.63781013938024
 20
8915.6761894656465
 30
0.0
 11
827.63781013938024
 21
8915.6761894656465
 31
0.0
  0
LINE
  5
7240
  8
FUTO
 10
714.63781013938024
 20
8628.6810555717057
 30
0.0
 11
714.63781013938024
 21
8905.6761894656483
 31
0.0
  0
LINE
  5
7241
  8
FUTO
 10
714.03781013937987
 20
8628.6810555717057
 30
0.0
 11
714.03781013937987
 21
8905.6761894656483
 31
0.0
  0
LINE
  5
7245
  8
FUTO
 10
693.63781013938024
 20
8895.6761894656483
 30
0.0
 11
693.63781013938024
 21
8752.8761894656454
 31
0.0
  0
LINE
  5
7246
  8
FUTO
 10
722.63781013938024
 20
8620.0810555717053
 30
0.0
 11
819.15391053670271
 21
8620.0810555717053
 31
0.0
  0
LINE
  5
7247
  8
FUTO
 10
722.63781013938024
 20
8620.6810555717057
 30
0.0
 11
819.15391053670271
 21
8620.6810555717057
 31
0.0
  0
LINE
  5
7248
  8
FUTO
 10
707.63781013938024
 20
8712.5974054373128
 30
0.0
 11
707.63781013938024
 21
8634.3352785927054
 31
0.0
  0
ARC
  5
7249
  8
FUTO
 10
722.63781013938024
 20
8628.6810555717057
 30
0.0
 40
8.5999999999999996
 50
180.0
 51
270.0
  0
ARC
  5
724A
  8
FUTO
 10
722.63781013938024
 20
8628.6810555717057
 30
0.0
 40
8.0
 50
180.0
 51
270.0
  0
LINE
  5
724B
  8
FUTO
 10
714.03781013938169
 20
8633.6761894656483
 30
0.0
 11
709.12170974205765
 21
8633.6761894656483
 31
0.0
  0
ARC
  5
724C
  8
FUTO
 10
709.12170974205765
 20
8635.6761894656483
 30
0.0
 40
2.0
 50
222.10222534309139
 51
270.0
  0
LINE
  5
7250
  8
CT
 10
718.36447335235607
 20
8643.6761894656483
 30
0.0
 11
703.85908614467371
 21
8643.6761894656483
 31
0.0
  0
ARC
  5
7251
  8
FUTO
 10
774.83781013938085
 20
8617.6810555717057
 30
0.0
 40
3.0
 50
126.8698976458127
 51
180.0
  0
ARC
  5
7252
  8
FUTO
 10
766.43781013937939
 20
8617.6810555717057
 30
0.0
 40
3.0
 50
0.0
 51
53.130102354187251
  0
ARC
  5
7253
  8
FUTO
 10
770.63781013938024
 20
8610.8810555717046
 30
0.0
 40
1.1999999999999991
 50
180.0
 51
0.0
  0
LINE
  5
7254
  8
FUTO
 10
771.83781013938096
 20
8617.6810555717057
 30
0.0
 11
771.83781013938096
 21
8610.8810555717046
 31
0.0
  0
LINE
  5
7255
  8
FUTO
 10
769.43781013937951
 20
8617.6810555717057
 30
0.0
 11
769.43781013937951
 21
8610.8810555717046
 31
0.0
  0
LINE
  5
7259
  8
FUTO
 10
707.63781013938024
 20
8838.6761894656483
 30
0.0
 11
706.03781013938158
 21
8838.6761894656483
 31
0.0
  0
LINE
  5
725A
  8
CT
 10
718.36447335235607
 20
8823.6761894656483
 30
0.0
 11
703.85908614467371
 21
8823.6761894656483
 31
0.0
  0
LINE
  5
725B
  8
CT
 10
714.63781013938024
 20
8813.6761894656483
 30
0.0
 11
714.03781013938169
 21
8813.6761894656483
 31
0.0
  0
LINE
  5
725C
  8
FUTO
 10
714.03781013938169
 20
8833.6761894656483
 30
0.0
 11
709.63781013938024
 21
8833.6761894656483
 31
0.0
  0
ARC
  5
725D
  8
FUTO
 10
709.63781013938024
 20
8831.6761894656483
 30
0.0
 40
2.0
 50
90.0
 51
180.0
  0
POINT
  5
725E
  8
FUTO
 10
707.63781013938024
 20
8831.6761894656483
 30
0.0
  0
POINT
  5
725F
  8
FUTO
 10
707.63781013938024
 20
8831.6761894656483
 30
0.0
  0
ARC
  5
7260
  8
FUTO
 10
713.63781013938024
 20
8895.6761894656483
 30
0.0
 40
20.0
 50
90.0
 51
180.0
  0
LINE
  5
7261
  8
FUTO
 10
714.03781013937987
 20
8905.6761894656483
 30
0.0
 11
714.63781013938205
 21
8905.6761894656483
 31
0.0
  0
LINE
  5
7262
  8
SP
 10
770.63781013938024
 20
8930.6751183490833
 30
0.0
 11
770.63781013938024
 21
8979.6890191853054
 31
0.0
  0
LINE
  5
7263
  8
FUTO
 10
827.23781013938242
 20
8905.6761894656483
 30
0.0
 11
827.23781013938242
 21
8625.7466787700978
 31
0.0
  0
LINE
  5
7264
  8
FUTO
 10
826.63781013938035
 20
8628.6810555717057
 30
0.0
 11
826.63781013938035
 21
8905.6761894656483
 31
0.0
  0
DIMENSION
  5
7265
  8
SP
  2
*D8
 10
919.83337109879903
 20
8653.6761894656465
 30
0.0
 11
894.83337109879767
 21
8733.6761894656483
 31
0.0
 70
     0
 13
833.63781013938012
 23
8813.6761894656483
 33
0.0
 14
833.63781013938012
 24
8653.6761894656465
 34
0.0
 50
90.0
1001
ACAD
1000
DSTYLE
1002
{
1070
     3
1000
φ<>
1002
}
  0
LINE
  5
7266
  8
FUTO
 10
847.63781013938024
 20
8895.6761894656483
 30
0.0
 11
847.63781013938024
 21
8731.6761894656483
 31
0.0
  0
LINE
  5
7267
  8
FUTO
 10
833.63781013938012
 20
8831.6761894656483
 30
0.0
 11
833.63781013938012
 21
8713.2886948957093
 31
0.0
  0
LINE
  5
7268
  8
FUTO
 10
826.63781013938035
 20
8625.8541762433561
 30
0.0
 11
826.63781013938035
 21
8711.6761894656483
 31
0.0
  0
LINE
  5
7269
  8
FUTO
 10
833.63781013938012
 20
8713.2886948957093
 30
0.0
 11
833.63781013938012
 21
8634.3352785927054
 31
0.0
  0
ARC
  5
726A
  8
FUTO
 10
832.15391053670282
 20
8635.6761894656483
 30
0.0
 40
2.0
 50
270.0
 51
317.89777465690861
  0
LINE
  5
726B
  8
FUTO
 10
827.2378101393806
 20
8633.6761894656483
 30
0.0
 11
832.15391053670282
 21
8633.6761894656483
 31
0.0
  0
LINE
  5
726C
  8
CT
 10
826.63781013938035
 20
8653.6761894656465
 30
0.0
 11
827.23781013937867
 21
8653.6761894656465
 31
0.0
  0
LINE
  5
726D
  8
CT
 10
826.63781013938035
 20
8653.6761894656465
 30
0.0
 11
827.23781013937867
 21
8653.6761894656465
 31
0.0
  0
ARC
  5
726E
  8
FUTO
 10
827.63781013938024
 20
8731.6761894656483
 30
0.0
 40
20.0
 50
270.0
 51
0.0
  0
POINT
  5
726F
  8
FUTO
 10
833.63781013938012
 20
8831.6761894656483
 30
0.0
  0
POINT
  5
7270
  8
FUTO
 10
833.63781013938012
 20
8831.6761894656483
 30
0.0
  0
ARC
  5
7271
  8
FUTO
 10
831.63781013938024
 20
8831.6761894656483
 30
0.0
 40
2.0
 50
0.0
 51
90.0
  0
LINE
  5
7272
  8
FUTO
 10
827.2378101393806
 20
8833.6761894656483
 30
0.0
 11
831.63781013938024
 21
8833.6761894656483
 31
0.0
  0
LINE
  5
7273
  8
CT
 10
826.63781013938035
 20
8813.6761894656483
 30
0.0
 11
827.23781013937867
 21
8813.6761894656483
 31
0.0
  0
ARC
  5
7274
  8
FUTO
 10
827.63781013938024
 20
8895.6761894656483
 30
0.0
 40
20.0
 50
0.0
 51
90.0
  0
LINE
  5
7275
  8
FUTO
 10
826.63781013938035
 20
8905.6761894656483
 30
0.0
 11
827.23781013938242
 21
8905.6761894656483
 31
0.0
  0
POINT
  5
7276
  8
DEFPOINTS
 10
827.63781013938024
 20
8915.6761894656465
 30
0.0
  0
LINE
  5
8576
  8
FUTO
 10
679.99103115790695
 20
8790.7761894656487
 30
0.0
 11
561.69103115790767
 21
8790.7761894656487
 31
0.0
  0
LINE
  5
8577
  8
FUTO
 10
561.69103115790767
 20
8673.1761894656483
 30
0.0
 11
561.69103115790767
 21
8794.1761894656483
 31
0.0
  0
LINE
  5
8578
  8
FUTO
 10
561.69103115790767
 20
8794.1761894656483
 30
0.0
 11
540.69103115790767
 21
8794.1761894656483
 31
0.0
  0
LINE
  5
8579
  8
FUTO
 10
539.69103115790756
 20
8793.1761894656483
 30
0.0
 11
510.62453115790771
 21
8791.2383894656487
 31
0.0
  0
ARC
  5
857A
  8
FUTO
 10
510.69113115790691
 20
8790.2404894656484
 30
0.0
 40
1.0000999999999991
 50
93.821000000000112
 51
180.00165729919101
  0
ARC
  5
857B
  8
FUTO
 10
540.69113115790697
 20
8793.1761894656483
 30
0.0
 40
1.0000999999999991
 50
90.003499999989657
 51
180.0
  0
LINE
  5
857C
  8
CT
 10
618.63781013938024
 20
8666.4715762572214
 30
0.0
 11
618.63781013938024
 21
8800.8808026740753
 31
0.0
  0
LINE
  5
857D
  8
FUTO
 10
677.69103115790767
 20
8790.7761894656487
 30
0.0
 11
677.69103115790665
 21
8736.9294104841756
 31
0.0
  0
LINE
  5
857E
  8
FUTO
 10
683.49543115790755
 20
8771.9427894656474
 30
0.0
 11
680.0221311579071
 21
8785.5544894656487
 31
0.0
  0
ARC
  5
857F
  8
FUTO
 10
680.98593115790754
 20
8785.8011894656483
 30
0.0
 40
0.9948999999999999
 50
179.9684000000118
 51
194.35770000002071
  0
LINE
  5
8580
  8
FUTO
 10
679.99103115790695
 20
8790.7761894656487
 30
0.0
 11
679.99103115790786
 21
8739.2294104841767
 31
0.0
  0
ARC
  5
8581
  8
FUTO
 10
677.39343115790768
 20
8770.3853894656495
 30
0.0
 40
6.2976000000000001
 50
359.9977999999864
 51
14.31809999999064
  0
ARC
  5
8582
  8
FUTO
 10
681.99083115790745
 20
8743.2293894656486
 30
0.0
 40
4.7001999999999988
 50
27.48769440413944
 51
44.998400000004331
  0
LINE
  5
8583
  8
FUTO
 10
685.31443115790717
 20
8746.5527894656461
 30
0.0
 11
683.98393115790714
 21
8747.8832894656462
 31
0.0
  0
ARC
  5
8584
  8
FUTO
 10
684.69073115790695
 20
8748.5902894656483
 30
0.0
 40
0.9996999999999999
 50
179.99650000001029
 51
225.009899999982
  0
LINE
  5
8585
  8
FUTO
 10
683.69103115790756
 20
8770.385089465648
 30
0.0
 11
683.69103115790756
 21
8742.9294104841756
 31
0.0
  0
ARC
  5
8586
  8
FUTO
 10
604.94173115790716
 20
8685.5363894656475
 30
0.0
 40
7.9999000000000002
 50
90.0
 51
166.00459999998009
  0
ARC
  5
8587
  8
FUTO
 10
590.52263115790709
 20
8692.4708894656487
 30
0.0
 40
8.0
 50
270.0
 51
334.31589999996578
  0
LINE
  5
8588
  8
FUTO
 10
597.17923115790745
 20
8687.4710894656491
 30
0.0
 11
594.25793115790736
 21
8675.7506894656472
 31
0.0
  0
LINE
  5
8589
  8
FUTO
 10
632.44033115790717
 20
8693.5362894656464
 30
0.0
 11
604.94173115790716
 21
8693.5362894656464
 31
0.0
  0
LINE
  5
858A
  8
FUTO
 10
595.71623115790771
 20
8673.4761894656476
 30
0.0
 11
626.22755372912343
 21
8673.4761894656476
 31
0.0
  0
ARC
  5
858B
  8
FUTO
 10
591.34693115790742
 20
8676.4761894656476
 30
0.0
 40
3.0
 50
270.0
 51
346.00480000002779
  0
ARC
  5
858C
  8
FUTO
 10
591.34713115790782
 20
8676.4760894656501
 30
0.0
 40
5.2999000000000001
 50
269.99930000003371
 51
326.34980000003259
  0
LINE
  5
858D
  8
FUTO
 10
568.69103115790756
 20
8671.1761894656483
 30
0.0
 11
591.34713115790782
 21
8671.1761894656483
 31
0.0
  0
LINE
  5
858E
  8
FUTO
 10
568.69103115790756
 20
8673.4761894656476
 30
0.0
 11
591.34693115790742
 21
8673.4761894656476
 31
0.0
  0
ARC
  5
858F
  8
FUTO
 10
576.69103115790756
 20
8676.4708894656487
 30
0.0
 40
8.0
 50
90.0
 51
180.0
  0
LINE
  5
8590
  8
FUTO
 10
568.69103115790756
 20
8671.1761894656483
 30
0.0
 11
568.69103115790756
 21
8676.4708894656487
 31
0.0
  0
LINE
  5
8591
  8
FUTO
 10
568.69103115790756
 20
8677.576189465648
 30
0.0
 11
561.69103115790767
 21
8677.576189465648
 31
0.0
  0
LINE
  5
8592
  8
CT
 10
578.69103115790756
 20
8679.4076394656477
 30
0.0
 11
578.69103115790756
 21
8667.5447394656476
 31
0.0
  0
LINE
  5
8593
  8
FUTO
 10
590.52263115790709
 20
8684.4708894656487
 30
0.0
 11
576.69103115790756
 21
8684.4708894656487
 31
0.0
  0
ARC
  5
8594
  8
FUTO
 10
632.44023115790696
 20
8685.5362894656482
 30
0.0
 40
8.0000999999999998
 50
48.14606457539147
 51
89.999599999959742
  0
LINE
  5
8595
  8
FUTO
 10
509.69103115790762
 20
8790.2404894656484
 30
0.0
 11
509.69103115790762
 21
8677.1117894656509
 31
0.0
  0
LINE
  5
8596
  8
FUTO
 10
539.69103115790756
 20
8793.1761894656483
 30
0.0
 11
539.69103115790756
 21
8674.1761894656483
 31
0.0
  0
LINE
  5
8597
  8
FUTO
 10
539.69103115790756
 20
8674.1761894656483
 30
0.0
 11
510.62453115790771
 21
8676.113989465648
 31
0.0
  0
ARC
  5
8598
  8
FUTO
 10
510.69113115790691
 20
8677.1118894656465
 30
0.0
 40
1.0000999999999991
 50
180.0069999999923
 51
266.17899999999992
  0
ARC
  5
8599
  8
FUTO
 10
540.69113115790697
 20
8674.1761894656483
 30
0.0
 40
1.0000999999999991
 50
180.0
 51
269.99649999995819
  0
LINE
  5
859A
  8
FUTO
 10
561.69103115790767
 20
8673.1761894656483
 30
0.0
 11
540.69103115790767
 21
8673.1761894656483
 31
0.0
  0
LINE
  5
89A0
  8
FUTO
 10
78.496755608480271
 20
9385.5944674621296
 30
0.0
 11
-56.503244391519722
 21
9385.5944674621278
 31
0.0
  0
LINE
  5
89A1
  8
FUTO
 10
-55.503244391519729
 20
9363.5944674621278
 30
0.0
 11
77.496755608480271
 21
9363.5944674621278
 31
0.0
  0
LINE
  5
89A2
  8
CT
 10
83.340253733083046
 20
9442.5412464436013
 30
0.0
 11
-63.779246266917653
 21
9442.5412464436013
 31
0.0
  0
LINE
  5
89A3
  8
FUTO
 10
-45.286285006700382
 20
9333.5944674621278
 30
0.0
 11
67.279796223660014
 21
9333.5944674621278
 31
0.0
  0
LINE
  5
89A4
  8
FUTO
 10
67.596755608480635
 20
9506.0803602373853
 30
0.0
 11
-45.603244391520093
 21
9506.0803602373853
 31
0.0
  0
LINE
  5
89A5
  8
FUTO
 10
67.596755608480635
 20
9508.3803602373846
 30
0.0
 11
-45.603244391520093
 21
9508.3803602373846
 31
0.0
  0
LINE
  5
89A6
  8
FUTO
 10
48.76335560848019
 20
9511.8847602373862
 30
0.0
 11
62.375055608480579
 21
9508.4114602373847
 31
0.0
  0
LINE
  5
89A7
  8
FUTO
 10
-45.603244391520093
 20
9508.3803602373846
 30
0.0
 11
-45.603244391519183
 21
9385.5944674621278
 31
0.0
  0
LINE
  5
89A8
  8
FUTO
 10
-52.10606890940835
 20
9363.5944674621278
 30
0.0
 11
-46.266865811568103
 21
9334.3983519728754
 31
0.0
  0
LINE
  5
89A9
  8
FUTO
 10
-56.503244391519722
 20
9385.5944674621278
 30
0.0
 11
-56.503244391519722
 21
9364.5944674621278
 31
0.0
  0
ARC
  5
89AA
  8
FUTO
 10
-55.503244391519729
 20
9364.5944674621278
 30
0.0
 40
1.0
 50
180.0
 51
270.0
  0
ARC
  5
89AB
  8
FUTO
 10
-45.286285006700382
 20
9334.5944674621278
 30
0.0
 40
1.0
 50
191.3098947346725
 51
270.0
  0
LINE
  5
89AC
  8
FUTO
 10
47.205655608479887
 20
9512.0803602373853
 30
0.0
 11
-25.266244391519638
 21
9512.0803602373853
 31
0.0
  0
LINE
  5
89AD
  8
FUTO
 10
-26.720144391520069
 20
9511.9103602373852
 30
0.0
 11
-41.48944439152001
 21
9508.4073602373865
 31
0.0
  0
LINE
  5
89AE
  8
FUTO
 10
-45.603244391520093
 20
9508.4241602373877
 30
0.0
 11
-45.603244391520093
 21
9497.0036602373857
 31
0.0
  0
ARC
  5
89AF
  8
FUTO
 10
-41.720244391519373
 20
9509.3815602373834
 30
0.0
 40
1.0012000000000001
 50
270.00349999998957
 51
283.32969999999011
  0
ARC
  5
89B0
  8
FUTO
 10
-25.266244391519638
 20
9505.7801602373856
 30
0.0
 40
6.3002000000000002
 50
89.999399999991695
 51
103.341999999972
  0
LINE
  5
89B1
  8
FUTO
 10
1.943655608480185
 20
9515.0803602373853
 30
0.0
 11
20.049955608480559
 21
9515.0803602373853
 31
0.0
  0
ARC
  5
89B2
  8
FUTO
 10
-3.4173443915196908
 20
9513.0800602373856
 30
0.0
 40
0.9996999999999999
 50
269.99649999995819
 51
315.009899999982
  0
LINE
  5
89B3
  8
FUTO
 10
-1.3798443915202361
 20
9513.7037602373875
 30
0.0
 11
-2.7103443915193561
 21
9512.3732602373875
 31
0.0
  0
ARC
  5
89B4
  8
FUTO
 10
1.9437556084803871
 20
9510.3800602373867
 30
0.0
 40
4.7003000000000004
 50
90.001499999994792
 51
134.9984000000043
  0
LINE
  5
89B5
  8
FUTO
 10
3.496755608478451
 20
9529.3412464436005
 30
0.0
 11
3.49675560848027
 21
9515.0803602373853
 31
0.0
  0
LINE
  5
89B6
  8
FUTO
 10
23.373355608479869
 20
9513.7037602373875
 30
0.0
 11
24.703855608479898
 21
9512.3732602373875
 31
0.0
  0
ARC
  5
89B7
  8
FUTO
 10
25.41085560848023
 20
9513.0800602373856
 30
0.0
 40
0.9996999999999999
 50
224.99010000001789
 51
270.00349999998957
  0
ARC
  5
89B8
  8
FUTO
 10
20.049955608480559
 20
9510.3801602373878
 30
0.0
 40
4.7001999999999988
 50
45.001599999995662
 51
90.0
  0
LINE
  5
89B9
  8
FUTO
 10
18.496755608477539
 20
9529.3412464436005
 30
0.0
 11
18.496755608480271
 21
9515.0803602373853
 31
0.0
  0
ARC
  5
89BA
  8
FUTO
 10
47.205955608480501
 20
9505.7827602373854
 30
0.0
 40
6.2976000000000001
 50
75.681899999958873
 51
90.002199999961405
  0
LINE
  5
89BB
  8
FUTO
 10
67.596755608480635
 20
9508.3803602373846
 30
0.0
 11
67.596755608479725
 21
9385.5944674621296
 31
0.0
  0
LINE
  5
89BC
  8
FUTO
 10
74.099580126368892
 20
9363.5944674621296
 30
0.0
 11
68.260377028527714
 21
9334.3983519728754
 31
0.0
  0
ARC
  5
89BD
  8
FUTO
 10
77.496755608480271
 20
9364.5944674621278
 30
0.0
 40
1.0
 50
270.0
 51
0.0
  0
LINE
  5
89BE
  8
FUTO
 10
78.496755608480271
 20
9385.5944674621278
 30
0.0
 11
78.496755608480271
 21
9364.5944674621278
 31
0.0
  0
ARC
  5
89BF
  8
FUTO
 10
67.279796223660014
 20
9334.5944674621278
 30
0.0
 40
1.0
 50
270.0
 51
348.69010526532742
  0
ARC
  5
89C0
  8
FUTO
 10
62.621755608480271
 20
9509.3752602373861
 30
0.0
 40
0.9948999999999999
 50
255.6422999999792
 51
270.03159999998809
  0
LINE
  5
89C1
  8
FUTO
 10
120.9967556084793
 20
9355.5412464436013
 30
0.0
 11
72.488941439304654
 21
9355.5412464436013
 31
0.0
  0
LINE
  5
89C2
  8
CT
 10
127.9967556084802
 20
9381.5412464436013
 30
0.0
 11
147.9967556084793
 21
9381.5412464436013
 31
0.0
  0
CIRCLE
  5
89C3
  8
FUTO
 10
137.99675560848021
 20
9381.5412464436013
 30
0.0
 40
6.0
  0
LINE
  5
89C4
  8
FUTO
 10
120.9967556084802
 20
9361.5412464436013
 30
0.0
 11
150.9967556084793
 21
9361.5412464436013
 31
0.0
  0
LINE
  5
89C5
  8
CT
 10
137.99675560848021
 20
9391.5412464436013
 30
0.0
 11
137.99675560848021
 21
9371.5412464436013
 31
0.0
  0
LINE
  5
89C6
  8
FUTO
 10
150.9967556084793
 20
9531.5412464435994
 30
0.0
 11
150.9967556084793
 21
9361.5412464436013
 31
0.0
  0
LINE
  5
89C7
  8
FUTO
 10
120.9967556084793
 20
9355.5412464436013
 30
0.0
 11
120.9967556084793
 21
9531.5412464435994
 31
0.0
  0
LINE
  5
89C8
  8
FUTO
 10
120.9967556084793
 20
9530.9412464436009
 30
0.0
 11
-99.003244391519715
 21
9530.9412464436009
 31
0.0
  0
LINE
  5
89C9
  8
FUTO
 10
120.9967556084802
 20
9529.3412464436005
 30
0.0
 11
-99.00324439151882
 21
9529.3412464436005
 31
0.0
  0
ARC
  5
89CA
  8
FUTO
 10
108.9967556084802
 20
9532.9412464436009
 30
0.0
 40
2.0
 50
270.0
 51
0.0
  0
LINE
  5
89CB
  8
CT
 10
100.9967556084802
 20
9524.3575731466008
 30
0.0
 11
100.9967556084802
 21
9535.3305936665893
 31
0.0
  0
LINE
  5
89CC
  8
FUTO
 10
110.9967556084802
 20
9532.9412464436009
 30
0.0
 11
110.9967556084802
 21
9537.9412464436009
 31
0.0
  0
ARC
  5
89CD
  8
FUTO
 10
-87.003244391519729
 20
9532.9412464436009
 30
0.0
 40
2.0
 50
180.0
 51
270.0
  0
LINE
  5
89CE
  8
FUTO
 10
-89.003244391519715
 20
9532.9412464436009
 30
0.0
 11
-89.003244391519715
 21
9537.9412464436009
 31
0.0
  0
LINE
  5
89CF
  8
CT
 10
-79.003244391519715
 20
9524.3575731466008
 30
0.0
 11
-79.003244391519715
 21
9535.3305936665893
 31
0.0
  0
LINE
  5
89D0
  8
FUTO
 10
-99.003244391519715
 20
9355.5412464436013
 30
0.0
 11
-99.003244391519715
 21
9531.5412464435994
 31
0.0
  0
LINE
  5
89D1
  8
FUTO
 10
-129.0032443915197
 20
9531.5412464435994
 30
0.0
 11
-129.0032443915197
 21
9361.5412464436013
 31
0.0
  0
LINE
  5
89D2
  8
FUTO
 10
-99.003244391519715
 20
9361.5412464436013
 30
0.0
 11
-129.0032443915197
 21
9361.5412464436013
 31
0.0
  0
LINE
  5
89D3
  8
CT
 10
-116.0032443915197
 20
9391.5412464436013
 30
0.0
 11
-116.0032443915197
 21
9371.5412464436013
 31
0.0
  0
CIRCLE
  5
89D4
  8
FUTO
 10
-116.0032443915197
 20
9381.5412464436013
 30
0.0
 40
6.0
  0
LINE
  5
89D5
  8
CT
 10
-106.0032443915197
 20
9381.5412464436013
 30
0.0
 11
-126.00324439151881
 21
9381.5412464436013
 31
0.0
  0
LINE
  5
89D6
  8
FUTO
 10
-129.0032443915197
 20
9531.5412464435994
 30
0.0
 11
-99.003244391519715
 21
9531.5412464435994
 31
0.0
  0
LINE
  5
89D7
  8
CT
 10
-116.0032443915197
 20
9521.5412464436013
 30
0.0
 11
-116.0032443915197
 21
9501.5412464436013
 31
0.0
  0
LINE
  5
89D8
  8
CT
 10
-106.0032443915197
 20
9511.5412464436013
 30
0.0
 11
-126.00324439151881
 21
9511.5412464436013
 31
0.0
  0
CIRCLE
  5
89D9
  8
FUTO
 10
-116.0032443915197
 20
9511.5412464436013
 30
0.0
 40
6.0
  0
LINE
  5
89DA
  8
FUTO
 10
-99.003244391519715
 20
9530.9412464436009
 30
0.0
 11
-99.003244391519715
 21
9529.3412464436005
 31
0.0
  0
LINE
  5
89DB
  8
FUTO
 10
-50.495430222344112
 20
9355.5412464436013
 30
0.0
 11
-99.003244391519715
 21
9355.5412464436013
 31
0.0
  0
CIRCLE
  5
89DC
  8
FUTO
 10
137.99675560848021
 20
9511.5412464436013
 30
0.0
 40
6.0
  0
LINE
  5
89DD
  8
CT
 10
127.9967556084802
 20
9511.5412464436013
 30
0.0
 11
147.9967556084793
 21
9511.5412464436013
 31
0.0
  0
LINE
  5
89DE
  8
CT
 10
137.99675560848021
 20
9521.5412464436013
 30
0.0
 11
137.99675560848021
 21
9501.5412464436013
 31
0.0
  0
LINE
  5
89DF
  8
FUTO
 10
150.9967556084793
 20
9531.5412464435994
 30
0.0
 11
120.9967556084802
 21
9531.5412464435994
 31
0.0
  0
DIMENSION
  5
8A88
  8
SP
  2
*D9
 10
234.1970390227888
 20
9361.5412464436013
 30
0.0
 11
209.19703902278729
 21
9446.5412464436013
 31
0.0
 70
     0
 13
150.9967556084793
 23
9531.5412464435994
 33
0.0
 14
150.9967556084793
 24
9361.5412464436013
 34
0.0
 50
90.0
  0
DIMENSION
  5
8A95
  8
SP
  2
*D10
 10
234.1970390227888
 20
9594.5412464436013
 30
0.0
 11
209.19703902278729
 21
9680.8434503462868
 31
0.0
 70
     0
 13
150.9967556084793
 23
9531.5412464435994
 33
0.0
 14
183.7875201648512
 24
9594.5412464436013
 34
0.0
 50
90.0
  0
DIMENSION
  5
8ACB
  8
SP
  2
*D11
 10
150.9967556084793
 20
9253.5944674621278
 30
0.0
 11
10.996755608479811
 21
9278.5944674621278
 31
0.0
 70
     0
 13
-129.0032443915197
 23
9361.5412464436013
 33
0.0
 14
150.9967556084793
 24
9361.5412464436013
 34
0.0
  0
LINE
  5
8B09
  8
FUTO
 10
706.03781013937987
 20
8535.2761894656469
 30
0.0
 11
537.63781013938024
 21
8535.2761894656469
 31
0.0
  0
LINE
  5
8B0A
  8
FUTO
 10
707.63781013938024
 20
8533.6761894656465
 30
0.0
 11
537.63781013938024
 21
8533.6761894656502
 31
0.0
  0
LINE
  5
8B0B
  8
FUTO
 10
537.63781013938024
 20
8535.2761894656469
 30
0.0
 11
537.63781013938024
 21
8533.6761894656502
 31
0.0
  0
TEXT
  5
8CC4
  8
4
 10
120.0760361209886
 20
9938.6479009222421
 30
0.0
 40
53.999999999999993
  1
床置防振ベッド型
  0
LINE
  5
8CC5
  8
4
 10
-690.24390403695725
 20
10505.219059589719
 30
0.0
 11
1409.7560959630421
 21
10505.219059589719
 31
0.0
  0
LINE
  5
8CC6
  8
4
 10
-440.24390403695719
 20
10224.627813854529
 30
0.0
 11
1159.7560959630421
 21
10224.627813854529
 31
0.0
  0
LINE
  5
8CC7
  8
4
 10
-440.24390403695719
 20
10024.627813854529
 30
0.0
 11
1159.7560959630421
 21
10024.627813854529
 31
0.0
  0
TEXT
  5
8CC8
  8
4
 10
-202.18100009209769
 20
10089.100035789021
 30
0.0
 40
72.0
  1
遠心式片吸込直動形多翼ファン
  0
LINE
  5
8CC9
  8
4
 10
1409.7560959630421
 20
7555.2190595897273
 30
0.0
 11
-690.24390403695725
 21
7555.2190595897273
 31
0.0
  0
LINE
  5
8CCA
  8
4
 10
-240.24390403695719
 20
8055.2190595897273
 30
0.0
 11
959.75609596304275
 21
8055.2190595897273
 31
0.0
  0
LINE
  5
8CCB
  8
4
 10
-240.24390403695719
 20
7955.2190595897273
 30
0.0
 11
959.75609596304275
 21
7955.2190595897273
 31
0.0
  0
LINE
  5
8CCC
  8
4
 10
-240.24390403695719
 20
7855.2190595897273
 30
0.0
 11
959.75609596304275
 21
7855.2190595897273
 31
0.0
  0
LINE
  5
8CCE
  8
4
 10
-690.24390403695725
 20
7555.2190595897273
 30
0.0
 11
-690.24390403695725
 21
10505.219059589719
 31
0.0
  0
TEXT
  5
8CD0
  8
4
 10
-203.98579801215959
 20
7876.8642163217382
 30
0.0
 40
50.0
  1
機器型番
  0
TEXT
  5
8CD1
  8
4
 10
-201.7418231900555
 20
7986.7620854563402
 30
0.0
 40
50.0
  1
機器名称
  0
LINE
  5
8CD2
  8
4
 10
-240.24390403695719
 20
8055.2190595897273
 30
0.0
 11
-240.24390403695719
 21
7855.2190595897246
 31
0.0
  0
LINE
  5
8CD3
  8
4
 10
-440.24390403695719
 20
10224.627813854529
 30
0.0
 11
-440.24390403695719
 21
10024.627813854529
 31
0.0
  0
TEXT
  5
8CD4
  8
4
 10
-375.49240276665472
 20
9937.5385371360699
 30
0.0
 40
53.999999999999993
  1
左回転左横向
  0
LINE
  5
8CD5
  8
4
 10
1409.7560959630421
 20
10505.219059589719
 30
0.0
 11
1409.7560959630421
 21
7555.2190595897273
 31
0.0
  0
TEXT
  5
8CD7
  8
4
 10
287.43484145070761
 20
7977.790828547295
 30
0.0
 40
50.0
  1
ミツヤ多翼送風機
  0
TEXT
  5
8CD8
  8
4
 10
296.41059154852331
 20
7872.3786438696698
 30
0.0
 40
50.0
  1
MF＃1-7
  0
LINE
  5
8CD9
  8
4
 10
259.7560959630427
 20
8055.2190595897273
 30
0.0
 11
259.7560959630427
 21
7855.2190595897246
 31
0.0
  0
LINE
  5
8CDA
  8
4
 10
959.75609596304275
 20
8055.2190595897273
 30
0.0
 11
959.75609596304275
 21
7855.2190595897246
 31
0.0
  0
LINE
  5
8CDB
  8
4
 10
1159.7560959630421
 20
10224.627813854529
 30
0.0
 11
1159.7560959630421
 21
10024.627813854529
 31
0.0
  0
TEXT
  5
8CDC
  8
4
 10
757.88047120510419
 20
9938.6479009222421
 30
0.0
 40
53.999999999999993
  1
縮尺：1/10
  0
LINE
  5
8CDD
  8
4
 10
1159.7560959630421
 20
10236.48264271512
 30
0.0
 11
750.37351832290733
 21
10236.48264271512
 31
0.0
  0
LINE
  5
8CDE
  8
4
 10
750.37351832290733
 20
10341.87132113947
 30
0.0
 11
1159.7560959630421
 21
10341.87132113947
 31
0.0
  0
TEXT
  5
8CDF
  8
4
 10
778.72565521233264
 20
10261.28014108503
 30
0.0
 40
56.000000000000007
  1
No.
  0
LINE
  5
8CE0
  8
4
 10
750.37351832290733
 20
10236.48264271512
 30
0.0
 11
750.37351832290733
 21
10341.87132113947
 31
0.0
  0
LINE
  5
8CE1
  8
4
 10
1159.7560959630421
 20
10341.87132113947
 30
0.0
 11
1159.7560959630421
 21
10236.48264271512
 31
0.0
  0
LINE
  5
8CE2
  8
4
 10
1409.7560959630421
 20
10505.219059589719
 30
0.0
 11
1409.7560959630421
 21
10505.219059589719
 31
0.0
  0
LINE
  5
A076
  8
FUTO
 10
-102.2032443915168
 20
8511.6761894656502
 30
0.0
 11
124.1967556084773
 21
8511.6761894656502
 31
0.0
  0
LINE
  5
A077
  8
FUTO
 10
-99.003244391517015
 20
8481.6761894656502
 30
0.0
 11
120.9967556084784
 21
8481.6761894656502
 31
0.0
  0
LINE
  5
A078
  8
FUTO
 10
-99.009500506982491
 20
8508.6761894656502
 30
0.0
 11
121.003011723943
 21
8508.6761894656502
 31
0.0
  0
DIMENSION
  5
A079
  8
SP
  2
*D15
 10
-129.00324439151879
 20
8311.6761894656502
 30
0.0
 11
10.996755608480269
 21
8336.6761894656502
 31
0.0
 70
     0
 13
150.9967556084793
 23
8451.6761894656483
 33
0.0
 14
-129.00324439151879
 24
8451.6761894656483
 34
0.0
 50
180.0
  0
DIMENSION
  5
A07A
  8
SP
  2
*D14
 10
-129.00324439152419
 20
8381.6761894656483
 30
0.0
 11
-59.003244391522003
 21
8406.6761894656465
 31
0.0
 70
     0
 13
10.996755608480269
 23
8445.476525147631
 33
0.0
 14
-129.00324439152419
 24
8451.6761894656483
 34
0.0
 50
180.0
  0
LINE
  5
A07B
  8
FUTO
 10
-99.003244391517015
 20
8508.4761894656494
 30
0.0
 11
-99.00324439151882
 21
8454.8761894656491
 31
0.0
  0
LINE
  5
A07C
  8
FUTO
 10
-101.30324439151801
 20
8508.3761894656473
 30
0.0
 11
-101.303244391519
 21
8454.9761894656476
 31
0.0
  0
ARC
  5
A07D
  8
FUTO
 10
-102.2032443915186
 20
8454.8761894656491
 30
0.0
 40
3.2000000000000002
 50
269.99999999999648
 51
359.99999999999909
  0
ARC
  5
A07E
  8
FUTO
 10
-102.2032443915168
 20
8508.4761894656494
 30
0.0
 40
3.2000000000000002
 50
359.99999999999898
 51
89.999999999996504
  0
ARC
  5
A07F
  8
FUTO
 10
-102.30324439151811
 20
8508.3761894656473
 30
0.0
 40
1.0
 50
359.99999999999909
 51
89.999999999996334
  0
ARC
  5
A080
  8
FUTO
 10
-102.303244391519
 20
8454.9761894656476
 30
0.0
 40
1.0
 50
269.99999999999631
 51
359.99999999999898
  0
LINE
  5
A081
  8
FUTO
 10
-129.00324439151879
 20
8511.6761894656502
 30
0.0
 11
-129.00324439151879
 21
8509.3761894656527
 31
0.0
  0
LINE
  5
A082
  8
FUTO
 10
-129.00324439151879
 20
8453.9761894656494
 30
0.0
 11
-129.00324439151879
 21
8451.6761894656483
 31
0.0
  0
LINE
  5
A083
  8
FUTO
 10
-102.2032443915168
 20
8511.6761894656502
 30
0.0
 11
-129.00324439152061
 21
8511.6761894656502
 31
0.0
  0
LINE
  5
A084
  8
FUTO
 10
-102.2032443915186
 20
8451.6761894656483
 30
0.0
 11
-129.00324439152419
 21
8451.6761894656483
 31
0.0
  0
LINE
  5
A085
  8
FUTO
 10
-102.303244391519
 20
8453.9761894656476
 30
0.0
 11
-129.00324439152419
 21
8453.9761894656494
 31
0.0
  0
LINE
  5
A086
  8
FUTO
 10
-102.30324439151811
 20
8509.3761894656491
 30
0.0
 11
-129.00324439152061
 21
8509.3761894656509
 31
0.0
  0
DIMENSION
  5
A087
  8
SP
  2
*D16
 10
150.9967556084793
 20
8381.6761894656483
 30
0.0
 11
80.996755608479816
 21
8406.6761894656465
 31
0.0
 70
     0
 13
10.996755608480269
 23
8445.476525147631
 33
0.0
 14
150.9967556084793
 24
8451.6761894656483
 34
0.0
 50
180.0
  0
LINE
  5
A088
  8
FUTO
 10
124.29675560847861
 20
8509.3761894656491
 30
0.0
 11
150.9967556084811
 21
8509.3761894656509
 31
0.0
  0
LINE
  5
A089
  8
FUTO
 10
124.2967556084795
 20
8453.9761894656476
 30
0.0
 11
150.99675560848479
 21
8453.9761894656494
 31
0.0
  0
LINE
  5
A08A
  8
FUTO
 10
124.19675560847909
 20
8451.6761894656483
 30
0.0
 11
150.99675560848479
 21
8451.6761894656483
 31
0.0
  0
LINE
  5
A08B
  8
FUTO
 10
124.1967556084773
 20
8511.6761894656502
 30
0.0
 11
150.9967556084811
 21
8511.6761894656502
 31
0.0
  0
ARC
  5
A08C
  8
FUTO
 10
124.2967556084795
 20
8454.9761894656476
 30
0.0
 40
1.0
 50
180.00000000000091
 51
270.00000000000358
  0
ARC
  5
A08D
  8
FUTO
 10
124.29675560847861
 20
8508.3761894656473
 30
0.0
 40
1.0
 50
90.000000000003652
 51
180.0000000000008
  0
ARC
  5
A08E
  8
FUTO
 10
124.1967556084773
 20
8508.4761894656494
 30
0.0
 40
3.2000000000000002
 50
90.000000000003453
 51
180.00000000000091
  0
ARC
  5
A08F
  8
FUTO
 10
124.19675560847909
 20
8454.8761894656491
 30
0.0
 40
3.2000000000000002
 50
180.0000000000008
 51
270.00000000000341
  0
LINE
  5
A090
  8
FUTO
 10
123.29675560847861
 20
8508.3761894656473
 30
0.0
 11
123.2967556084795
 21
8454.9761894656476
 31
0.0
  0
LINE
  5
A091
  8
FUTO
 10
120.9967556084775
 20
8508.4761894656494
 30
0.0
 11
120.9967556084793
 21
8454.8761894656491
 31
0.0
  0
LINE
  5
A092
  8
FUTO
 10
150.9967556084793
 20
8453.9761894656494
 30
0.0
 11
150.9967556084793
 21
8451.6761894656483
 31
0.0
  0
LINE
  5
A093
  8
FUTO
 10
150.9967556084793
 20
8511.6761894656502
 30
0.0
 11
150.9967556084793
 21
8509.3761894656527
 31
0.0
  0
LINE
  5
A094
  8
FUTO
 10
707.63781013937921
 20
8511.6761894656483
 30
0.0
 11
537.63781013937933
 21
8511.6761894656483
 31
0.0
  0
LINE
  5
A095
  8
FUTO
 10
707.63781013937921
 20
8451.6761894656483
 30
0.0
 11
537.63781013937933
 21
8451.6761894656483
 31
0.0
  0
DIMENSION
  5
A096
  8
SP
  2
*D17
 10
537.63781013937933
 20
8381.6761894656483
 30
0.0
 11
622.63781013937933
 21
8406.6761894656465
 31
0.0
 70
     0
 13
707.63781013937921
 23
8451.6761894656483
 33
0.0
 14
537.63781013937933
 24
8451.6761894656483
 34
0.0
  0
LINE
  5
A097
  8
FUTO
 10
707.63781013937921
 20
8509.3761894656491
 30
0.0
 11
537.63781013937933
 21
8509.3761894656491
 31
0.0
  0
LINE
  5
A098
  8
FUTO
 10
707.63781013937921
 20
8453.9761894656476
 30
0.0
 11
537.63781013937933
 21
8453.9761894656476
 31
0.0
  0
LINE
  5
A099
  8
FUTO
 10
537.63781013937933
 20
8511.6761894656483
 30
0.0
 11
537.63781013937933
 21
8451.6761894656483
 31
0.0
  0
LINE
  5
A09A
  8
FUTO
 10
707.63781013937921
 20
8511.6761894656483
 30
0.0
 11
707.63781013937921
 21
8451.6761894656483
 31
0.0
  0
DIMENSION
  5
A09B
  8
SP
  2
*D19
 10
770.63781013937933
 20
8311.6761894656502
 30
0.0
 11
654.13781013937933
 21
8336.6761894656502
 31
0.0
 70
     0
 13
537.63781013937933
 23
8451.6761894656483
 33
0.0
 14
770.63781013937933
 24
8542.0878311137112
 34
0.0
  0
DIMENSION
  5
A09C
  8
SP
  2
*D18
 10
770.63781013937933
 20
8381.6761894656483
 30
0.0
 11
856.94001404206517
 21
8406.6761894656465
 31
0.0
 70
     0
 13
707.63781013937921
 23
8451.6761894656483
 33
0.0
 14
770.63781013937933
 24
8542.0878311137112
 34
0.0
  0
DIMENSION
  5
A2D6
  8
SP
  2
*D20
 10
-189.00324439152061
 20
8451.6761894656483
 30
0.0
 11
-214.003244391522
 21
8366.1395546841959
 31
0.0
 70
     0
 13
-129.00324439152061
 23
8511.6761894656502
 33
0.0
 14
-129.00324439151879
 24
8451.6761894656483
 34
0.0
 50
90.0
1001
ACAD
1000
DSTYLE
1002
{
1070
     6
1000
DOT
1002
}
  0
DIMENSION
  5
A2E5
  8
SP
  2
*D21
 10
-189.0032443915207
 20
8511.6761894656502
 30
0.0
 11
-224.10193327407441
 21
8514.1868695865269
 31
0.0
 70
   128
 13
-129.00324439152061
 23
8533.6761894656502
 33
0.0
 14
-129.00324439151879
 24
8511.6761894656502
 34
0.0
 50
90.0
1001
ACAD
1000
DSTYLE
1002
{
1070
   287
1070
     5
1070
     3
1000
（<>）
1070
   279
1070
     2
1070
     6
1000
NONE
1070
     7
1000
NONE
1002
}
  0
LINE
  5
A3CB
  8
FUTO
 10
826.63781013938035
 20
8813.6761894656483
 30
0.0
 11
827.23781013937867
 21
8813.6761894656483
 31
0.0
  0
LINE
  5
A3CC
  8
FUTO
 10
826.63781013938035
 20
8813.6761894656483
 30
0.0
 11
827.23781013937867
 21
8813.6761894656483
 31
0.0
  0
LINE
  5
A3CD
  8
FUTO
 10
827.23781013938151
 20
8813.6761894656483
 30
0.0
 11
833.63781013938012
 21
8813.6761894656483
 31
0.0
  0
LINE
  5
A3CE
  8
FUTO
 10
826.63781013938035
 20
8813.6761894656483
 30
0.0
 11
827.23781013937867
 21
8813.6761894656483
 31
0.0
  0
LINE
  5
A3CF
  8
FUTO
 10
827.23781013938151
 20
8653.6761894656465
 30
0.0
 11
833.63781013938012
 21
8653.6761894656465
 31
0.0
  0
LINE
  5
A3D0
  8
FUTO
 10
826.63781013938035
 20
8653.6761894656465
 30
0.0
 11
827.23781013937867
 21
8653.6761894656465
 31
0.0
  0
LINE
  5
A3D1
  8
FUTO
 10
826.63781013938035
 20
8653.6761894656465
 30
0.0
 11
827.23781013937867
 21
8653.6761894656465
 31
0.0
  0
ENDSEC
  0
EOF
