  0
SECTION
  2
HEADER
  9
$ACADVER
  1
AC1009
  9
$INSBASE
 10
0.0
 20
0.0
 30
0.0
  9
$EXTMIN
 10
-7823.9218047510694
 20
7555.2190595897273
 30
0.0
  9
$EXTMAX
 10
-5723.9218047510703
 20
10505.219059589719
 30
0.0
  9
$LIMMIN
 10
0.0
 20
0.0
  9
$LIMMAX
 10
297.0
 20
210.0
  9
$ORTHOMODE
 70
     0
  9
$REGENMODE
 70
     1
  9
$FILLMODE
 70
     1
  9
$QTEXTMODE
 70
     0
  9
$MIRRTEXT
 70
     0
  9
$DRAGMODE
 70
     2
  9
$LTSCALE
 40
25.0
  9
$OSMODE
 70
   545
  9
$ATTMODE
 70
     1
  9
$TEXTSIZE
 40
3.5
  9
$TRACEWID
 40
0.05
  9
$TEXTSTYLE
  7
STANDARD
  9
$CLAYER
  8
SP
  9
$CELTYPE
  6
BYLAYER
  9
$CECOLOR
 62
   256
  9
$DIMSCALE
 40
10.0
  9
$DIMASZ
 40
2.5
  9
$DIMEXO
 40
1.0
  9
$DIMDLI
 40
7.0
  9
$DIMRND
 40
0.0
  9
$DIMDLE
 40
0.0
  9
$DIMEXE
 40
1.0
  9
$DIMTP
 40
0.0
  9
$DIMTM
 40
0.0
  9
$DIMTXT
 40
3.0
  9
$DIMCEN
 40
0.0
  9
$DIMTSZ
 40
0.0
  9
$DIMTOL
 70
     0
  9
$DIMLIM
 70
     0
  9
$DIMTIH
 70
     0
  9
$DIMTOH
 70
     0
  9
$DIMSE1
 70
     0
  9
$DIMSE2
 70
     0
  9
$DIMTAD
 70
     1
  9
$DIMZIN
 70
     8
  9
$DIMBLK
  1

  9
$DIMASO
 70
     1
  9
$DIMSHO
 70
     1
  9
$DIMPOST
  1

  9
$DIMAPOST
  1

  9
$DIMALT
 70
     0
  9
$DIMALTD
 70
     2
  9
$DIMALTF
 40
0.03937
  9
$DIMLFAC
 40
1.0
  9
$DIMTOFL
 70
     1
  9
$DIMTVP
 40
0.0
  9
$DIMTIX
 70
     0
  9
$DIMSOXD
 70
     0
  9
$DIMSAH
 70
     1
  9
$DIMBLK1
  1
OPEN
  9
$DIMBLK2
  1
OPEN
  9
$DIMSTYLE
  2
GOD
  9
$DIMCLRD
 70
   256
  9
$DIMCLRE
 70
   256
  9
$DIMCLRT
 70
   256
  9
$DIMTFAC
 40
1.0
  9
$DIMGAP
 40
1.0
  9
$LUNITS
 70
     2
  9
$LUPREC
 70
     3
  9
$SKETCHINC
 40
0.1
  9
$FILLETRAD
 40
0.0
  9
$AUNITS
 70
     0
  9
$AUPREC
 70
     2
  9
$MENU
  1
acad
  9
$ELEVATION
 40
0.0
  9
$PELEVATION
 40
0.0
  9
$THICKNESS
 40
0.0
  9
$LIMCHECK
 70
     0
  9
$BLIPMODE
 70
     0
  9
$CHAMFERA
 40
0.0
  9
$CHAMFERB
 40
0.0
  9
$SKPOLY
 70
     0
  9
$TDCREATE
 40
2454894.5465396061
  9
$TDUPDATE
 40
2454953.8314883448
  9
$TDINDWG
 40
0.3269486227
  9
$TDUSRTIMER
 40
0.3269486227
  9
$USRTIMER
 70
     1
  9
$ANGBASE
 50
0.0
  9
$ANGDIR
 70
     0
  9
$PDMODE
 70
     0
  9
$PDSIZE
 40
1.0
  9
$PLINEWID
 40
0.0
  9
$COORDS
 70
     2
  9
$SPLFRAME
 70
     0
  9
$SPLINETYPE
 70
     6
  9
$SPLINESEGS
 70
     8
  9
$ATTDIA
 70
     0
  9
$ATTREQ
 70
     1
  9
$HANDLING
 70
 22529
  9
$HANDSEED
  5
9AC1
  9
$SURFTAB1
 70
     6
  9
$SURFTAB2
 70
     6
  9
$SURFTYPE
 70
     6
  9
$SURFU
 70
     6
  9
$SURFV
 70
     6
  9
$UCSNAME
  2

  9
$UCSORG
 10
0.0
 20
0.0
 30
0.0
  9
$UCSXDIR
 10
1.0
 20
0.0
 30
0.0
  9
$UCSYDIR
 10
0.0
 20
1.0
 30
0.0
  9
$PUCSNAME
  2

  9
$PUCSORG
 10
0.0
 20
0.0
 30
0.0
  9
$PUCSXDIR
 10
1.0
 20
0.0
 30
0.0
  9
$PUCSYDIR
 10
0.0
 20
1.0
 30
0.0
  9
$USERI1
 70
     0
  9
$USERI2
 70
     0
  9
$USERI3
 70
     0
  9
$USERI4
 70
     0
  9
$USERI5
 70
     0
  9
$USERR1
 40
0.0
  9
$USERR2
 40
0.0
  9
$USERR3
 40
0.0
  9
$USERR4
 40
0.0
  9
$USERR5
 40
0.0
  9
$WORLDVIEW
 70
     1
  9
$SHADEDGE
 70
     3
  9
$SHADEDIF
 70
    70
  9
$TILEMODE
 70
     1
  9
$MAXACTVP
 70
    16
  9
$PLIMCHECK
 70
     0
  9
$PEXTMIN
 10
1.0000000000000000E+020
 20
1.0000000000000000E+020
 30
1.0000000000000000E+020
  9
$PEXTMAX
 10
-1.0000000000000000E+020
 20
-1.0000000000000000E+020
 30
-1.0000000000000000E+020
  9
$PLIMMIN
 10
0.0
 20
0.0
  9
$PLIMMAX
 10
12.0
 20
9.0
  9
$UNITMODE
 70
     0
  9
$VISRETAIN
 70
     0
  9
$PLINEGEN
 70
     0
  9
$PSLTSCALE
 70
     0
  0
ENDSEC
  0
SECTION
  2
TABLES
  0
TABLE
  2
VPORT
 70
     2
  0
VPORT
  2
*ACTIVE
 70
     0
 10
0.0
 20
0.0
 11
1.0
 21
1.0
 12
-6587.1094794008968
 22
9030.0065181736736
 13
0.0
 23
0.0
 14
5.0
 24
5.0
 15
0.0
 25
0.0
 16
0.0
 26
0.0
 36
1.0
 17
0.0
 27
0.0
 37
0.0
 40
2973.9677297470048
 41
1.6307901907356941
 42
50.0
 43
0.0
 44
0.0
 50
0.0
 51
0.0
 71
     0
 72
   100
 73
     1
 74
     0
 75
     0
 76
     0
 77
     0
 78
     0
  0
ENDTAB
  0
TABLE
  2
LTYPE
 70
     2
  0
LTYPE
  2
CONTINUOUS
 70
     0
  3
Solid line
 72
    65
 73
     0
 40
0.0
  0
LTYPE
  2
CENTER
 70
     0
  3
____ _ ____ _ ____ _ ____ _ ____ _ ____ _ ____ 
 72
    65
 73
     4
 40
2.0
 49
1.25
 49
-0.25
 49
0.25
 49
-0.25
  0
ENDTAB
  0
TABLE
  2
LAYER
 70
     7
  0
LAYER
  2
0
 70
     0
 62
     7
  6
CONTINUOUS
  0
LAYER
  2
CT
 70
     0
 62
     3
  6
CENTER
  0
LAYER
  2
FUTO
 70
     0
 62
     4
  6
CONTINUOUS
  0
LAYER
  2
HOSO
 70
     0
 62
     7
  6
CONTINUOUS
  0
LAYER
  2
SP
 70
     0
 62
     2
  6
CONTINUOUS
  0
LAYER
  2
DEFPOINTS
 70
     0
 62
     7
  6
CONTINUOUS
  0
LAYER
  2
4
 70
     0
 62
     7
  6
CONTINUOUS
  0
ENDTAB
  0
TABLE
  2
STYLE
 70
     1
  0
STYLE
  2
STANDARD
 70
     0
 40
0.0
 41
1.0
 50
15.0
 71
     0
 42
3.5
  3
C:\Program Files\AutoCAD LT\simplex.shx
  4
C:\Program Files\AutoCAD LT\extfont.shx
  0
ENDTAB
  0
TABLE
  2
VIEW
 70
     0
  0
ENDTAB
  0
TABLE
  2
UCS
 70
     0
  0
ENDTAB
  0
TABLE
  2
APPID
 70
     1
  0
APPID
  2
ACAD
 70
     0
  0
ENDTAB
  0
TABLE
  2
DIMSTYLE
 70
     2
  0
DIMSTYLE
  2
STANDARD
 70
     0
  3

  4

  5

  6

  7

 40
1.0
 41
0.18
 42
0.0625
 43
0.38
 44
0.18
 45
0.0
 46
0.0
 47
0.0
 48
0.0
140
0.18
141
0.09
142
0.0
143
25.399999999999999
144
1.0
145
0.0
146
1.0
147
0.09
 71
     0
 72
     0
 73
     1
 74
     1
 75
     0
 76
     0
 77
     0
 78
     0
170
     0
171
     2
172
     0
173
     0
174
     0
175
     0
176
     0
177
     0
178
     0
  0
DIMSTYLE
  2
GOD
 70
     0
  3

  4

  5

  6
OPEN
  7
OPEN
 40
10.0
 41
2.5
 42
1.0
 43
7.0
 44
1.0
 45
0.0
 46
0.0
 47
0.0
 48
0.0
140
3.0
141
0.0
142
0.0
143
0.03937
144
1.0
145
0.0
146
1.0
147
1.0
 71
     0
 72
     0
 73
     0
 74
     0
 75
     0
 76
     0
 77
     1
 78
     8
170
     0
171
     2
172
     1
173
     1
174
     0
175
     0
176
   256
177
   256
178
   256
  0
ENDTAB
  0
ENDSEC
  0
SECTION
  2
BLOCKS
  0
BLOCK
  8
0
  2
$MODEL_SPACE
 70
     0
 10
0.0
 20
0.0
 30
0.0
  3
$MODEL_SPACE
  1

  0
ENDBLK
  5
1B
  8
0
  0
BLOCK
 67
     1
  8
0
  2
$PAPER_SPACE
 70
     0
 10
0.0
 20
0.0
 30
0.0
  3
$PAPER_SPACE
  1

  0
ENDBLK
  5
18
 67
     1
  8
0
  0
BLOCK
  8
0
  2
_OPEN
 70
     0
 10
0.0
 20
0.0
 30
0.0
  3
_OPEN
  1

  0
LINE
  5
1E81
  8
0
  6
BYBLOCK
 62
     0
 10
-1.0
 20
0.1666666666666666
 30
0.0
 11
0.0
 21
0.0
 31
0.0
  0
LINE
  5
1E82
  8
0
  6
BYBLOCK
 62
     0
 10
0.0
 20
0.0
 30
0.0
 11
-1.0
 21
-0.1666666666666666
 31
0.0
  0
LINE
  5
1E83
  8
0
  6
BYBLOCK
 62
     0
 10
0.0
 20
0.0
 30
0.0
 11
-1.0
 21
0.0
 31
0.0
  0
ENDBLK
  5
1E84
  8
0
  0
BLOCK
  8
0
  2
*D1
 70
     1
 10
0.0
 20
0.0
 30
0.0
  3
*D1
  1

  0
LINE
  5
9062
  8
SP
 10
-6409.673033525215
 20
8473.6761894656465
 30
0.0
 11
-6409.673033525215
 21
8403.6761894656465
 31
0.0
  0
LINE
  5
9063
  8
SP
 10
-6579.6730335252141
 20
8473.6761894656465
 30
0.0
 11
-6579.6730335252141
 21
8403.6761894656465
 31
0.0
  0
LINE
  5
9064
  8
SP
 10
-6434.6730335252141
 20
8413.6761894656483
 30
0.0
 11
-6554.6730335252132
 21
8413.6761894656483
 31
0.0
  0
INSERT
  5
9065
  8
SP
  2
_OPEN
 10
-6409.673033525215
 20
8413.6761894656483
 30
0.0
 41
25.0
 42
25.0
 43
25.0
  0
INSERT
  5
9066
  8
SP
  2
_OPEN
 10
-6579.6730335252141
 20
8413.6761894656483
 30
0.0
 41
25.0
 42
25.0
 43
25.0
 50
180.0
  0
TEXT
  5
9067
  8
SP
 10
-6536.1803710556842
 20
8423.6761894656483
 30
0.0
 40
30.0
  1
170
 51
15.0
  0
POINT
  5
9068
  8
DEFPOINTS
 62
     0
 10
-6409.673033525215
 20
8483.6761894656483
 30
0.0
  0
POINT
  5
9069
  8
DEFPOINTS
 62
     0
 10
-6579.6730335252141
 20
8483.6761894656483
 30
0.0
  0
POINT
  5
906A
  8
DEFPOINTS
 62
     0
 10
-6579.6730335252141
 20
8413.6761894656483
 30
0.0
  0
ENDBLK
  5
57C9
  8
0
  0
BLOCK
  8
0
  2
*D2
 70
     1
 10
0.0
 20
0.0
 30
0.0
  3
*D2
  1

  0
LINE
  5
906B
  8
SP
 10
-6579.6730335252141
 20
8473.6761894656465
 30
0.0
 11
-6579.6730335252141
 21
8333.6761894656502
 31
0.0
  0
LINE
  5
906C
  8
SP
 10
-6346.6730335252141
 20
8482.0878311137112
 30
0.0
 11
-6346.6730335252141
 21
8333.6761894656502
 31
0.0
  0
LINE
  5
906D
  8
SP
 10
-6554.6730335252132
 20
8343.6761894656502
 30
0.0
 11
-6371.6730335252141
 21
8343.6761894656502
 31
0.0
  0
INSERT
  5
906E
  8
SP
  2
_OPEN
 10
-6579.6730335252141
 20
8343.6761894656502
 30
0.0
 41
25.0
 42
25.0
 43
25.0
 50
180.0
  0
INSERT
  5
906F
  8
SP
  2
_OPEN
 10
-6346.6730335252141
 20
8343.6761894656502
 30
0.0
 41
25.0
 42
25.0
 43
25.0
  0
TEXT
  5
9070
  8
SP
 10
-6505.049414268824
 20
8353.6761894656502
 30
0.0
 40
30.0
  1
233
 51
15.0
  0
POINT
  5
9071
  8
DEFPOINTS
 62
     0
 10
-6579.6730335252141
 20
8483.6761894656483
 30
0.0
  0
POINT
  5
9072
  8
DEFPOINTS
 62
     0
 10
-6346.6730335252141
 20
8492.0878311137112
 30
0.0
  0
POINT
  5
9073
  8
DEFPOINTS
 62
     0
 10
-6346.6730335252141
 20
8343.6761894656502
 30
0.0
  0
ENDBLK
  5
57D5
  8
0
  0
BLOCK
  8
0
  2
*D3
 70
     1
 10
0.0
 20
0.0
 30
0.0
  3
*D3
  1

  0
LINE
  5
9074
  8
SP
 10
-6409.673033525215
 20
8473.6761894656465
 30
0.0
 11
-6409.673033525215
 21
8403.6761894656465
 31
0.0
  0
LINE
  5
9075
  8
SP
 10
-6346.6730335252141
 20
8482.0878311137112
 30
0.0
 11
-6346.6730335252141
 21
8403.6761894656465
 31
0.0
  0
LINE
  5
9076
  8
SP
 10
-6434.6730335252141
 20
8413.6761894656483
 30
0.0
 11
-6459.673033525215
 21
8413.6761894656483
 31
0.0
  0
LINE
  5
9077
  8
SP
 10
-6321.673033525215
 20
8413.6761894656483
 30
0.0
 11
-6224.0686257198422
 21
8413.6761894656483
 31
0.0
  0
LINE
  5
9078
  8
SP
 10
-6409.673033525215
 20
8413.6761894656483
 30
0.0
 11
-6346.6730335252141
 21
8413.6761894656483
 31
0.0
  0
INSERT
  5
9079
  8
SP
  2
_OPEN
 10
-6409.673033525215
 20
8413.6761894656483
 30
0.0
 41
25.0
 42
25.0
 43
25.0
  0
INSERT
  5
907A
  8
SP
  2
_OPEN
 10
-6346.6730335252141
 20
8413.6761894656483
 30
0.0
 41
25.0
 42
25.0
 43
25.0
 50
180.0
  0
TEXT
  5
907B
  8
SP
 10
-6289.2499586356334
 20
8423.6761894656483
 30
0.0
 40
30.0
  1
63
 51
15.0
  0
POINT
  5
907C
  8
DEFPOINTS
 62
     0
 10
-6409.673033525215
 20
8483.6761894656483
 30
0.0
  0
POINT
  5
907D
  8
DEFPOINTS
 62
     0
 10
-6346.6730335252141
 20
8492.0878311137112
 30
0.0
  0
POINT
  5
907E
  8
DEFPOINTS
 62
     0
 10
-6346.6730335252141
 20
8413.6761894656483
 30
0.0
  0
ENDBLK
  5
5813
  8
0
  0
BLOCK
  8
0
  2
*D4
 70
     1
 10
0.0
 20
0.0
 30
0.0
  3
*D4
  1

  0
LINE
  5
90CB
  8
SP
 10
-6346.6730335252141
 20
8985.6761894656483
 30
0.0
 11
-6346.6730335252141
 21
9015.6761894656483
 31
0.0
  0
LINE
  5
90CC
  8
SP
 10
-6607.6198125066849
 20
8750.2404894656502
 30
0.0
 11
-6607.6198125066849
 21
9015.6761894656483
 31
0.0
  0
LINE
  5
90CD
  8
SP
 10
-6371.6730335252141
 20
9005.6761894656483
 30
0.0
 11
-6582.6198125066849
 21
9005.6761894656483
 31
0.0
  0
INSERT
  5
90CE
  8
SP
  2
_OPEN
 10
-6346.6730335252141
 20
9005.6761894656483
 30
0.0
 41
25.0
 42
25.0
 43
25.0
  0
INSERT
  5
90CF
  8
SP
  2
_OPEN
 10
-6607.6198125066849
 20
9005.6761894656483
 30
0.0
 41
25.0
 42
25.0
 43
25.0
 50
180.0
  0
TEXT
  5
90D0
  8
SP
 10
-6544.056124756351
 20
9015.6761894656483
 30
0.0
 40
30.0
  1
（330）
 51
15.0
  0
POINT
  5
90D1
  8
DEFPOINTS
 62
     0
 10
-6346.6730335252141
 20
8975.6761894656502
 30
0.0
  0
POINT
  5
90D2
  8
DEFPOINTS
 62
     0
 10
-6607.6198125066849
 20
8740.2404894656502
 30
0.0
  0
POINT
  5
90D3
  8
DEFPOINTS
 62
     0
 10
-6607.6198125066849
 20
9005.6761894656483
 30
0.0
  0
ENDBLK
  5
581F
  8
0
  0
BLOCK
  8
0
  2
*D5
 70
     1
 10
0.0
 20
0.0
 30
0.0
  3
*D5
  1

  0
LINE
  5
90B7
  8
SP
 10
-6346.6730335252141
 20
8985.6761894656483
 30
0.0
 11
-6346.6730335252141
 21
9015.6761894656483
 31
0.0
  0
LINE
  5
90B8
  8
SP
 10
-6283.6730335252141
 20
8791.6761894656483
 30
0.0
 11
-6283.6730335252141
 21
9015.6761894656483
 31
0.0
  0
LINE
  5
90B9
  8
SP
 10
-6371.6730335252141
 20
9005.6761894656483
 30
0.0
 11
-6396.6730335252141
 21
9005.6761894656483
 31
0.0
  0
LINE
  5
90BA
  8
SP
 10
-6258.6730335252141
 20
9005.6761894656483
 30
0.0
 11
-6161.0686257198422
 21
9005.6761894656483
 31
0.0
  0
LINE
  5
90BB
  8
SP
 10
-6346.6730335252141
 20
9005.6761894656483
 30
0.0
 11
-6283.6730335252141
 21
9005.6761894656483
 31
0.0
  0
INSERT
  5
90BC
  8
SP
  2
_OPEN
 10
-6346.6730335252141
 20
9005.6761894656483
 30
0.0
 41
25.0
 42
25.0
 43
25.0
  0
INSERT
  5
90BD
  8
SP
  2
_OPEN
 10
-6283.6730335252141
 20
9005.6761894656483
 30
0.0
 41
25.0
 42
25.0
 43
25.0
 50
180.0
  0
TEXT
  5
90BE
  8
SP
 10
-6226.2499586356344
 20
9015.6761894656483
 30
0.0
 40
30.0
  1
63
 51
15.0
  0
POINT
  5
90BF
  8
DEFPOINTS
 62
     0
 10
-6346.6730335252141
 20
8975.6761894656502
 30
0.0
  0
POINT
  5
90C0
  8
DEFPOINTS
 62
     0
 10
-6283.6730335252141
 20
8781.6761894656465
 30
0.0
  0
POINT
  5
90C1
  8
DEFPOINTS
 62
     0
 10
-6283.6730335252141
 20
9005.6761894656483
 30
0.0
  0
ENDBLK
  5
5851
  8
0
  0
BLOCK
  8
0
  2
*D6
 70
     1
 10
0.0
 20
0.0
 30
0.0
  3
*D6
  1

  0
LINE
  5
90D4
  8
SP
 10
-6402.6730335252141
 20
8850.0350884091913
 30
0.0
 11
-6402.6730335252141
 21
8945.6761894656483
 31
0.0
  0
LINE
  5
90D5
  8
SP
 10
-6290.6730335252141
 20
8848.4761894656476
 30
0.0
 11
-6290.6730335252141
 21
8945.6761894656483
 31
0.0
  0
LINE
  5
90D6
  8
SP
 10
-6377.6730335252141
 20
8935.6761894656483
 30
0.0
 11
-6315.6730335252141
 21
8935.6761894656483
 31
0.0
  0
INSERT
  5
90D7
  8
SP
  2
_OPEN
 10
-6402.6730335252141
 20
8935.6761894656483
 30
0.0
 41
25.0
 42
25.0
 43
25.0
 50
180.0
  0
INSERT
  5
90D8
  8
SP
  2
_OPEN
 10
-6290.6730335252141
 20
8935.6761894656483
 30
0.0
 41
25.0
 42
25.0
 43
25.0
  0
TEXT
  5
90D9
  8
SP
 10
-6385.3232281985411
 20
8945.6761894656483
 30
0.0
 40
30.0
  1
112
 51
15.0
  0
POINT
  5
90DA
  8
DEFPOINTS
 62
     0
 10
-6402.6730335252141
 20
8840.0350884091895
 30
0.0
  0
POINT
  5
90DB
  8
DEFPOINTS
 62
     0
 10
-6290.6730335252141
 20
8838.4761894656476
 30
0.0
  0
POINT
  5
90DC
  8
DEFPOINTS
 62
     0
 10
-6290.6730335252141
 20
8935.6761894656483
 30
0.0
  0
ENDBLK
  5
585D
  8
0
  0
BLOCK
  8
0
  2
*D7
 70
     1
 10
0.0
 20
0.0
 30
0.0
  3
*D7
  1

  0
LINE
  5
907F
  8
SP
 10
-6956.3140880561141
 20
9481.5412464436013
 30
0.0
 11
-6826.4402735301264
 21
9481.5412464436013
 31
0.0
  0
LINE
  5
9080
  8
SP
 10
-6956.3140880561141
 20
9311.5412464436013
 30
0.0
 11
-6826.4402735301264
 21
9311.5412464436013
 31
0.0
  0
LINE
  5
9081
  8
SP
 10
-6836.4402735301273
 20
9456.5412464436013
 30
0.0
 11
-6836.4402735301273
 21
9336.5412464436013
 31
0.0
  0
INSERT
  5
9082
  8
SP
  2
_OPEN
 10
-6836.4402735301273
 20
9481.5412464436013
 30
0.0
 41
25.0
 42
25.0
 43
25.0
 50
90.0
  0
INSERT
  5
9083
  8
SP
  2
_OPEN
 10
-6836.4402735301273
 20
9311.5412464436013
 30
0.0
 41
25.0
 42
25.0
 43
25.0
 50
270.0
  0
TEXT
  5
9084
  8
SP
 10
-6846.4402735301273
 20
9355.0339089131285
 30
0.0
 40
30.0
  1
170
 50
90.0
 51
15.0
  0
POINT
  5
9085
  8
DEFPOINTS
 62
     0
 10
-6966.3140880561132
 20
9481.5412464436013
 30
0.0
  0
POINT
  5
9086
  8
DEFPOINTS
 62
     0
 10
-6966.3140880561132
 20
9311.5412464436013
 30
0.0
  0
POINT
  5
9087
  8
DEFPOINTS
 62
     0
 10
-6836.4402735301273
 20
9311.5412464436013
 30
0.0
  0
ENDBLK
  5
5B1E
  8
0
  0
BLOCK
  8
0
  2
*D8
 70
     1
 10
0.0
 20
0.0
 30
0.0
  3
*D8
  1

  0
LINE
  5
90AC
  8
SP
 10
-6956.3140880561141
 20
9481.5412464436013
 30
0.0
 11
-6826.4402735301264
 21
9481.5412464436013
 31
0.0
  0
LINE
  5
90AD
  8
SP
 10
-6926.6416766253878
 20
9544.5412464436013
 30
0.0
 11
-6826.4402735301264
 21
9544.5412464436013
 31
0.0
  0
LINE
  5
90AE
  8
SP
 10
-6836.4402735301273
 20
9456.5412464436013
 30
0.0
 11
-6836.4402735301273
 21
9431.5412464435994
 31
0.0
  0
LINE
  5
90AF
  8
SP
 10
-6836.4402735301273
 20
9569.5412464436013
 30
0.0
 11
-6836.4402735301273
 21
9667.1456542489723
 31
0.0
  0
LINE
  5
90B0
  8
SP
 10
-6836.4402735301273
 20
9481.5412464436013
 30
0.0
 11
-6836.4402735301273
 21
9544.5412464436013
 31
0.0
  0
INSERT
  5
90B1
  8
SP
  2
_OPEN
 10
-6836.4402735301273
 20
9481.5412464436013
 30
0.0
 41
25.0
 42
25.0
 43
25.0
 50
90.0
  0
INSERT
  5
90B2
  8
SP
  2
_OPEN
 10
-6836.4402735301273
 20
9544.5412464436013
 30
0.0
 41
25.0
 42
25.0
 43
25.0
 50
270.0
  0
TEXT
  5
90B3
  8
SP
 10
-6846.4402735301273
 20
9601.9643213331801
 30
0.0
 40
30.0
  1
63
 50
90.0
 51
15.0
  0
POINT
  5
90B4
  8
DEFPOINTS
 62
     0
 10
-6966.3140880561132
 20
9481.5412464436013
 30
0.0
  0
POINT
  5
90B5
  8
DEFPOINTS
 62
     0
 10
-6936.6416766253878
 20
9544.5412464436013
 30
0.0
  0
POINT
  5
90B6
  8
DEFPOINTS
 62
     0
 10
-6836.4402735301273
 20
9544.5412464436013
 30
0.0
  0
ENDBLK
  5
5B2D
  8
0
  0
BLOCK
  8
0
  2
*D9
 70
     1
 10
0.0
 20
0.0
 30
0.0
  3
*D9
  1

  0
LINE
  5
9091
  8
SP
 10
-7246.3140880561132
 20
9301.5412464436013
 30
0.0
 11
-7246.3140880561132
 21
9193.5944674621296
 31
0.0
  0
LINE
  5
9092
  8
SP
 10
-6966.3140880561132
 20
9301.5412464436013
 30
0.0
 11
-6966.3140880561132
 21
9193.5944674621296
 31
0.0
  0
LINE
  5
9093
  8
SP
 10
-7221.3140880561132
 20
9203.5944674621296
 30
0.0
 11
-6991.3140880561132
 21
9203.5944674621296
 31
0.0
  0
INSERT
  5
9094
  8
SP
  2
_OPEN
 10
-7246.3140880561132
 20
9203.5944674621296
 30
0.0
 41
25.0
 42
25.0
 43
25.0
 50
180.0
  0
INSERT
  5
9095
  8
SP
  2
_OPEN
 10
-6966.3140880561132
 20
9203.5944674621296
 30
0.0
 41
25.0
 42
25.0
 43
25.0
  0
TEXT
  5
9096
  8
SP
 10
-7147.42489967849
 20
9213.5944674621296
 30
0.0
 40
30.0
  1
280
 51
15.0
  0
POINT
  5
9097
  8
DEFPOINTS
 62
     0
 10
-7246.3140880561132
 20
9311.5412464436013
 30
0.0
  0
POINT
  5
9098
  8
DEFPOINTS
 62
     0
 10
-6966.3140880561132
 20
9311.5412464436013
 30
0.0
  0
POINT
  5
9099
  8
DEFPOINTS
 62
     0
 10
-6966.3140880561132
 20
9203.5944674621296
 30
0.0
  0
ENDBLK
  5
5B3A
  8
0
  0
BLOCK
  8
0
  2
*D10
 70
     1
 10
0.0
 20
0.0
 30
0.0
  3
*D10
  1

  0
LINE
  5
9047
  8
SP
 10
-7106.3140880561132
 20
8461.4288100448612
 30
0.0
 11
-7106.3140880561132
 21
8403.6761894656465
 31
0.0
  0
LINE
  5
9048
  8
SP
 10
-6966.3140880561132
 20
8473.6761894656465
 30
0.0
 11
-6966.3140880561132
 21
8403.6761894656465
 31
0.0
  0
LINE
  5
9049
  8
SP
 10
-7081.3140880561141
 20
8413.6761894656483
 30
0.0
 11
-6991.3140880561132
 21
8413.6761894656483
 31
0.0
  0
INSERT
  5
904A
  8
SP
  2
_OPEN
 10
-7106.3140880561132
 20
8413.6761894656483
 30
0.0
 41
25.0
 42
25.0
 43
25.0
 50
180.0
  0
INSERT
  5
904B
  8
SP
  2
_OPEN
 10
-6966.3140880561132
 20
8413.6761894656483
 30
0.0
 41
25.0
 42
25.0
 43
25.0
  0
TEXT
  5
904C
  8
SP
 10
-7077.8214255865832
 20
8423.6761894656483
 30
0.0
 40
30.0
  1
140
 51
15.0
  0
POINT
  5
904D
  8
DEFPOINTS
 62
     0
 10
-7106.3140880561132
 20
8471.4288100448593
 30
0.0
  0
POINT
  5
904E
  8
DEFPOINTS
 62
     0
 10
-6966.3140880561132
 20
8483.6761894656483
 30
0.0
  0
POINT
  5
904F
  8
DEFPOINTS
 62
     0
 10
-6966.3140880561132
 20
8413.6761894656483
 30
0.0
  0
ENDBLK
  5
5F60
  8
0
  0
BLOCK
  8
0
  2
*D11
 70
     1
 10
0.0
 20
0.0
 30
0.0
  3
*D11
  1

  0
LINE
  5
9050
  8
SP
 10
-6966.3140880561132
 20
8473.6761894656465
 30
0.0
 11
-6966.3140880561132
 21
8333.6761894656502
 31
0.0
  0
LINE
  5
9051
  8
SP
 10
-7246.3140880561132
 20
8473.6761894656502
 30
0.0
 11
-7246.3140880561132
 21
8333.6761894656502
 31
0.0
  0
LINE
  5
9052
  8
SP
 10
-6991.3140880561132
 20
8343.6761894656502
 30
0.0
 11
-7221.3140880561132
 21
8343.6761894656502
 31
0.0
  0
INSERT
  5
9053
  8
SP
  2
_OPEN
 10
-6966.3140880561132
 20
8343.6761894656502
 30
0.0
 41
25.0
 42
25.0
 43
25.0
  0
INSERT
  5
9054
  8
SP
  2
_OPEN
 10
-7246.3140880561132
 20
8343.6761894656502
 30
0.0
 41
25.0
 42
25.0
 43
25.0
 50
180.0
  0
TEXT
  5
9055
  8
SP
 10
-7147.42489967849
 20
8353.6761894656502
 30
0.0
 40
30.0
  1
280
 51
15.0
  0
POINT
  5
9056
  8
DEFPOINTS
 62
     0
 10
-6966.3140880561132
 20
8483.6761894656483
 30
0.0
  0
POINT
  5
9057
  8
DEFPOINTS
 62
     0
 10
-7246.3140880561132
 20
8483.6761894656502
 30
0.0
  0
POINT
  5
9058
  8
DEFPOINTS
 62
     0
 10
-7246.3140880561132
 20
8343.6761894656502
 30
0.0
  0
ENDBLK
  5
5F6C
  8
0
  0
BLOCK
  8
0
  2
*D12
 70
     1
 10
0.0
 20
0.0
 30
0.0
  3
*D12
  1

  0
LINE
  5
9059
  8
SP
 10
-7106.3140880561132
 20
8461.4288100448612
 30
0.0
 11
-7106.3140880561132
 21
8403.6761894656465
 31
0.0
  0
LINE
  5
905A
  8
SP
 10
-7246.3140880561132
 20
8473.6761894656502
 30
0.0
 11
-7246.3140880561132
 21
8403.6761894656465
 31
0.0
  0
LINE
  5
905B
  8
SP
 10
-7131.3140880561141
 20
8413.6761894656483
 30
0.0
 11
-7221.3140880561132
 21
8413.6761894656483
 31
0.0
  0
INSERT
  5
905C
  8
SP
  2
_OPEN
 10
-7106.3140880561132
 20
8413.6761894656483
 30
0.0
 41
25.0
 42
25.0
 43
25.0
  0
INSERT
  5
905D
  8
SP
  2
_OPEN
 10
-7246.3140880561132
 20
8413.6761894656483
 30
0.0
 41
25.0
 42
25.0
 43
25.0
 50
180.0
  0
TEXT
  5
905E
  8
SP
 10
-7217.8214255865842
 20
8423.6761894656483
 30
0.0
 40
30.0
  1
140
 51
15.0
  0
POINT
  5
905F
  8
DEFPOINTS
 62
     0
 10
-7106.3140880561132
 20
8471.4288100448593
 30
0.0
  0
POINT
  5
9060
  8
DEFPOINTS
 62
     0
 10
-7246.3140880561132
 20
8483.6761894656502
 30
0.0
  0
POINT
  5
9061
  8
DEFPOINTS
 62
     0
 10
-7246.3140880561132
 20
8413.6761894656483
 30
0.0
  0
ENDBLK
  5
5F78
  8
0
  0
BLOCK
  8
0
  2
*D13
 70
     1
 10
0.0
 20
0.0
 30
0.0
  3
*D13
  1

  0
LINE
  5
903E
  8
SP
 10
-6956.3140880561141
 20
8483.6761894656483
 30
0.0
 11
-6896.3140880561123
 21
8483.6761894656483
 31
0.0
  0
LINE
  5
903F
  8
SP
 10
-6950.4684556196908
 20
8683.6761894656483
 30
0.0
 11
-6896.3140880561123
 21
8683.6761894656483
 31
0.0
  0
LINE
  5
9040
  8
SP
 10
-6906.3140880561132
 20
8508.6761894656483
 30
0.0
 11
-6906.3140880561132
 21
8658.6761894656502
 31
0.0
  0
INSERT
  5
9041
  8
SP
  2
_OPEN
 10
-6906.3140880561132
 20
8483.6761894656483
 30
0.0
 41
25.0
 42
25.0
 43
25.0
 50
270.0
  0
INSERT
  5
9042
  8
SP
  2
_OPEN
 10
-6906.3140880561132
 20
8683.6761894656483
 30
0.0
 41
25.0
 42
25.0
 43
25.0
 50
90.0
  0
TEXT
  5
9043
  8
SP
 10
-6916.314088056115
 20
8542.5653778432661
 30
0.0
 40
30.0
  1
200
 50
90.0
 51
15.0
  0
POINT
  5
9044
  8
DEFPOINTS
 62
     0
 10
-6966.3140880561132
 20
8483.6761894656483
 30
0.0
  0
POINT
  5
9045
  8
DEFPOINTS
 62
     0
 10
-6960.4684556196898
 20
8683.6761894656483
 30
0.0
  0
POINT
  5
9046
  8
DEFPOINTS
 62
     0
 10
-6906.3140880561132
 20
8683.6761894656483
 30
0.0
  0
ENDBLK
  5
5F84
  8
0
  0
BLOCK
  8
0
  2
*D14
 70
     1
 10
0.0
 20
0.0
 30
0.0
  3
*D14
  1

  0
LINE
  5
90A3
  8
SP
 10
-6950.4684556196908
 20
8683.6761894656483
 30
0.0
 11
-6896.3140880561123
 21
8683.6761894656483
 31
0.0
  0
LINE
  5
90A4
  8
SP
 10
-6966.3140880561132
 20
8843.6761894656483
 30
0.0
 11
-6896.3140880561123
 21
8843.6761894656483
 31
0.0
  0
LINE
  5
90A5
  8
SP
 10
-6906.3140880561132
 20
8708.6761894656483
 30
0.0
 11
-6906.3140880561132
 21
8818.6761894656483
 31
0.0
  0
INSERT
  5
90A6
  8
SP
  2
_OPEN
 10
-6906.3140880561132
 20
8683.6761894656483
 30
0.0
 41
25.0
 42
25.0
 43
25.0
 50
270.0
  0
INSERT
  5
90A7
  8
SP
  2
_OPEN
 10
-6906.3140880561132
 20
8843.6761894656483
 30
0.0
 41
25.0
 42
25.0
 43
25.0
 50
90.0
  0
TEXT
  5
90A8
  8
SP
 10
-6916.314088056115
 20
8722.1688519351756
 30
0.0
 40
30.0
  1
160
 50
90.0
 51
15.0
  0
POINT
  5
90A9
  8
DEFPOINTS
 62
     0
 10
-6960.4684556196898
 20
8683.6761894656483
 30
0.0
  0
POINT
  5
90AA
  8
DEFPOINTS
 62
     0
 10
-6976.3140880561132
 20
8843.6761894656483
 30
0.0
  0
POINT
  5
90AB
  8
DEFPOINTS
 62
     0
 10
-6906.3140880561132
 20
8843.6761894656483
 30
0.0
  0
ENDBLK
  5
5F90
  8
0
  0
BLOCK
  8
0
  2
*D15
 70
     1
 10
0.0
 20
0.0
 30
0.0
  3
*D15
  1

  0
LINE
  5
9088
  8
SP
 10
-7106.3140880561132
 20
8883.5934657609978
 30
0.0
 11
-7106.3140880561132
 21
8935.6761894656502
 31
0.0
  0
LINE
  5
9089
  8
SP
 10
-6976.3140880561132
 20
8875.6761894656502
 30
0.0
 11
-6976.3140880561132
 21
8935.6761894656502
 31
0.0
  0
LINE
  5
908A
  8
SP
 10
-7081.3140880561141
 20
8925.6761894656502
 30
0.0
 11
-7001.3140880561141
 21
8925.6761894656502
 31
0.0
  0
INSERT
  5
908B
  8
SP
  2
_OPEN
 10
-7106.3140880561132
 20
8925.6761894656502
 30
0.0
 41
25.0
 42
25.0
 43
25.0
 50
180.0
  0
INSERT
  5
908C
  8
SP
  2
_OPEN
 10
-6976.3140880561132
 20
8925.6761894656502
 30
0.0
 41
25.0
 42
25.0
 43
25.0
  0
TEXT
  5
908D
  8
SP
 10
-7082.8214255865832
 20
8935.6761894656502
 30
0.0
 40
30.0
  1
130
 51
15.0
  0
POINT
  5
908E
  8
DEFPOINTS
 62
     0
 10
-7106.3140880561132
 20
8873.5934657609978
 30
0.0
  0
POINT
  5
908F
  8
DEFPOINTS
 62
     0
 10
-6976.3140880561132
 20
8865.6761894656502
 30
0.0
  0
POINT
  5
9090
  8
DEFPOINTS
 62
     0
 10
-6976.3140880561132
 20
8925.6761894656502
 30
0.0
  0
ENDBLK
  5
64B4
  8
0
  0
BLOCK
  8
0
  2
*D16
 70
     1
 10
0.0
 20
0.0
 30
0.0
  3
*D16
  1

  0
LINE
  5
909A
  8
SP
 10
-7106.3140880561132
 20
8883.5934657609978
 30
0.0
 11
-7106.3140880561132
 21
8935.6761894656502
 31
0.0
  0
LINE
  5
909B
  8
SP
 10
-7240.3140880561141
 20
8706.6761894656483
 30
0.0
 11
-7240.3140880561141
 21
8935.6761894656502
 31
0.0
  0
LINE
  5
909C
  8
SP
 10
-7131.3140880561141
 20
8925.6761894656502
 30
0.0
 11
-7215.3140880561141
 21
8925.6761894656502
 31
0.0
  0
INSERT
  5
909D
  8
SP
  2
_OPEN
 10
-7106.3140880561132
 20
8925.6761894656502
 30
0.0
 41
25.0
 42
25.0
 43
25.0
  0
INSERT
  5
909E
  8
SP
  2
_OPEN
 10
-7240.3140880561141
 20
8925.6761894656502
 30
0.0
 41
25.0
 42
25.0
 43
25.0
 50
180.0
  0
TEXT
  5
909F
  8
SP
 10
-7214.3360742120749
 20
8935.6761894656502
 30
0.0
 40
30.0
  1
134
 51
15.0
  0
POINT
  5
90A0
  8
DEFPOINTS
 62
     0
 10
-7106.3140880561132
 20
8873.5934657609978
 30
0.0
  0
POINT
  5
90A1
  8
DEFPOINTS
 62
     0
 10
-7240.3140880561141
 20
8696.6761894656483
 30
0.0
  0
POINT
  5
90A2
  8
DEFPOINTS
 62
     0
 10
-7240.3140880561141
 20
8925.6761894656502
 30
0.0
  0
ENDBLK
  5
64C1
  8
0
  0
BLOCK
  8
0
  2
*D17
 70
     1
 10
0.0
 20
0.0
 30
0.0
  3
*D17
  1

  0
LINE
  5
9AA4
  8
SP
 10
-6273.6730335252141
 20
8763.6761894656483
 30
0.0
 11
-6193.1523511139931
 21
8763.6761894656483
 31
0.0
  0
LINE
  5
9AA5
  8
SP
 10
-6273.6730335252141
 20
8603.6761894656483
 30
0.0
 11
-6193.1523511139931
 21
8603.6761894656483
 31
0.0
  0
LINE
  5
9AA6
  8
SP
 10
-6203.1523511139931
 20
8738.6761894656483
 30
0.0
 11
-6203.1523511139931
 21
8628.6761894656483
 31
0.0
  0
INSERT
  5
9AA7
  8
SP
  2
_OPEN
 10
-6203.1523511139931
 20
8763.6761894656483
 30
0.0
 41
25.0
 42
25.0
 43
25.0
 50
90.0
  0
INSERT
  5
9AA8
  8
SP
  2
_OPEN
 10
-6203.1523511139931
 20
8603.6761894656483
 30
0.0
 41
25.0
 42
25.0
 43
25.0
 50
270.0
  0
TEXT
  5
9AA9
  8
SP
 10
-6213.1523511139931
 20
8631.7622666625666
 30
0.0
 40
30.0
  1
φ160
 50
90.0
 51
15.0
  0
POINT
  5
9AAA
  8
DEFPOINTS
 62
     0
 10
-6283.6730335252141
 20
8763.6761894656483
 30
0.0
  0
POINT
  5
9AAB
  8
DEFPOINTS
 62
     0
 10
-6283.6730335252141
 20
8603.6761894656483
 30
0.0
  0
POINT
  5
9AAC
  8
DEFPOINTS
 62
     0
 10
-6203.1523511139931
 20
8603.6761894656483
 30
0.0
  0
ENDBLK
  5
9AA3
  8
0
  0
ENDSEC
  0
SECTION
  2
ENTITIES
  0
LINE
  5
56AE
  8
FUTO
 10
-7068.5474880561133
 20
9461.8847602373862
 30
0.0
 11
-7054.9357880561129
 21
9458.4114602373866
 31
0.0
  0
LINE
  5
56AF
  8
FUTO
 10
-7049.7140880561128
 20
9458.3803602373864
 30
0.0
 11
-7162.9140880561145
 21
9458.3803602373864
 31
0.0
  0
LINE
  5
56B0
  8
FUTO
 10
-7049.7140880561128
 20
9456.0803602373835
 30
0.0
 11
-7162.9140880561145
 21
9456.0803602373835
 31
0.0
  0
LINE
  5
56B3
  8
FUTO
 10
-6996.3140880561132
 20
9479.3412464436005
 30
0.0
 11
-7216.3140880561132
 21
9479.3412464436005
 31
0.0
  0
LINE
  5
56B4
  8
CT
 10
-7033.9705899315104
 20
9392.5412464436013
 30
0.0
 11
-7181.090089931512
 21
9392.5412464436013
 31
0.0
  0
LINE
  5
56B5
  8
CT
 10
-6936.6416766253878
 20
9544.5412464436013
 30
0.0
 11
-7284.123461990067
 21
9544.5412464436013
 31
0.0
  0
LINE
  5
56B8
  8
FUTO
 10
-7246.5368942260147
 20
9600.2831962449436
 30
0.0
 11
-6977.3140880561132
 21
9600.2831962449418
 31
0.0
  0
LINE
  5
56B9
  8
FUTO
 10
-7246.6443916992712
 20
9600.8831962449403
 30
0.0
 11
-6977.3140880561132
 21
9600.8831962449403
 31
0.0
  0
LINE
  5
56BA
  8
FUTO
 10
-7243.710014897667
 20
9487.6831962449396
 30
0.0
 11
-6977.314088056115
 21
9487.6831962449396
 31
0.0
  0
LINE
  5
56BB
  8
FUTO
 10
-7243.710014897667
 20
9488.2831962449418
 30
0.0
 11
-6977.314088056115
 21
9488.2831962449418
 31
0.0
  0
LINE
  5
56BC
  8
FUTO
 10
-6996.3140880561132
 20
9480.9412464436009
 30
0.0
 11
-7216.3140880561132
 21
9480.9412464436027
 31
0.0
  0
LINE
  5
56C0
  8
FUTO
 10
-7252.3100148976646
 20
9496.2831962449418
 30
0.0
 11
-7252.3100148976646
 21
9592.7992966422644
 31
0.0
  0
LINE
  5
56C1
  8
FUTO
 10
-7251.7100148976651
 20
9496.2831962449418
 30
0.0
 11
-7251.7100148976651
 21
9592.7992966422644
 31
0.0
  0
LINE
  5
56C2
  8
CT
 10
-7106.3140880561132
 20
9656.5326023159414
 30
0.0
 11
-7106.3140880561132
 21
9267.6152575047108
 31
0.0
  0
ARC
  5
56CA
  8
FUTO
 10
-7243.710014897667
 20
9496.2831962449418
 30
0.0
 40
8.0
 50
180.0
 51
270.0
  0
ARC
  5
56CB
  8
FUTO
 10
-7243.710014897667
 20
9496.2831962449418
 30
0.0
 40
8.5999999999999996
 50
180.0
 51
270.0
  0
LINE
  5
56CC
  8
FUTO
 10
-7173.8140880561132
 20
9335.5944674621278
 30
0.0
 11
-7173.8140880561132
 21
9314.5944674621278
 31
0.0
  0
LINE
  5
56D2
  8
FUTO
 10
-7169.416912574
 20
9313.5944674621296
 30
0.0
 11
-7163.5777094761625
 21
9284.3983519728754
 31
0.0
  0
LINE
  5
56D3
  8
FUTO
 10
-7070.1051880561135
 20
9462.0803602373853
 30
0.0
 11
-7142.5770880561131
 21
9462.0803602373853
 31
0.0
  0
LINE
  5
56D4
  8
FUTO
 10
-7162.9140880561145
 20
9458.3803602373864
 30
0.0
 11
-7162.9140880561145
 21
9335.5944674621278
 31
0.0
  0
LINE
  5
56D5
  8
FUTO
 10
-7206.3140880561141
 20
9482.9412464436027
 30
0.0
 11
-7206.3140880561141
 21
9487.9412464436027
 31
0.0
  0
ARC
  5
56D6
  8
FUTO
 10
-7204.3140880561141
 20
9482.9412464436027
 30
0.0
 40
2.0
 50
180.0
 51
270.0
  0
LINE
  5
56D7
  8
CT
 10
-7196.3140880561123
 20
9474.3575731466008
 30
0.0
 11
-7196.3140880561123
 21
9485.3305936665893
 31
0.0
  0
LINE
  5
56D8
  8
FUTO
 10
-7162.9140880561145
 20
9458.4241602373877
 30
0.0
 11
-7162.9140880561145
 21
9447.0036602373875
 31
0.0
  0
LINE
  5
56D9
  8
FUTO
 10
-7144.0309880561126
 20
9461.9103602373871
 30
0.0
 11
-7158.8002880561125
 21
9458.4073602373846
 31
0.0
  0
ARC
  5
56DA
  8
FUTO
 10
-7159.0310880561137
 20
9459.381560237387
 30
0.0
 40
1.0012000000000001
 50
270.00350000000259
 51
283.32969999999682
  0
ARC
  5
56DB
  8
FUTO
 10
-7142.5770880561131
 20
9455.7801602373856
 30
0.0
 40
6.3002000000000002
 50
89.99939999999819
 51
103.3420000000004
  0
LINE
  5
56DC
  8
FUTO
 10
-7115.3671880561133
 20
9465.0803602373853
 30
0.0
 11
-7097.260888056112
 21
9465.0803602373853
 31
0.0
  0
ARC
  5
56DD
  8
FUTO
 10
-7120.7281880561122
 20
9463.0800602373856
 30
0.0
 40
0.9996999999999999
 50
269.9964999999973
 51
315.00989999999808
  0
ARC
  5
56DE
  8
FUTO
 10
-7115.367088056114
 20
9460.3800602373867
 30
0.0
 40
4.7003000000000004
 50
90.001500000001286
 51
134.99839999999961
  0
LINE
  5
56DF
  8
FUTO
 10
-7113.814088056115
 20
9479.3412464436005
 30
0.0
 11
-7113.8140880561141
 21
9465.0803602373853
 31
0.0
  0
LINE
  5
56E0
  8
FUTO
 10
-7118.6906880561137
 20
9463.7037602373857
 30
0.0
 11
-7120.0211880561128
 21
9462.3732602373857
 31
0.0
  0
ARC
  5
56E1
  8
FUTO
 10
-7097.260888056112
 20
9460.380160237386
 30
0.0
 40
4.7001999999999988
 50
45.001600000000238
 51
89.999999999999986
  0
LINE
  5
56E2
  8
FUTO
 10
-7098.8140880561159
 20
9479.3412464436005
 30
0.0
 11
-7098.8140880561132
 21
9465.0803602373853
 31
0.0
  0
ARC
  5
56E3
  8
FUTO
 10
-7091.8999880561132
 20
9463.0800602373856
 30
0.0
 40
0.9996999999999999
 50
224.9901000000018
 51
270.00350000000259
  0
LINE
  5
56E4
  8
FUTO
 10
-7093.9374880561127
 20
9463.7037602373857
 30
0.0
 11
-7092.6069880561154
 21
9462.3732602373857
 31
0.0
  0
ARC
  5
56E5
  8
FUTO
 10
-7070.1048880561129
 20
9455.7827602373873
 30
0.0
 40
6.2976000000000001
 50
75.681899999999942
 51
90.002200000000457
  0
ARC
  5
56EA
  8
FUTO
 10
-7243.710014897667
 20
9592.7992966422644
 30
0.0
 40
8.0
 50
110.6929608601327
 51
180.0
  0
ARC
  5
56EB
  8
FUTO
 10
-7243.710014897667
 20
9592.7992966422644
 30
0.0
 40
8.5999999999999996
 50
109.9504040098029
 51
180.0
  0
LINE
  5
56EF
  8
FUTO
 10
-6977.3140880561132
 20
9621.5412464436013
 30
0.0
 11
-6977.314088056115
 21
9467.5412464435994
 31
0.0
  0
LINE
  5
56F0
  8
FUTO
 10
-6976.3140880561132
 20
9621.5412464436013
 30
0.0
 11
-6976.3140880561132
 21
9467.5412464435994
 31
0.0
  0
LINE
  5
56F1
  8
FUTO
 10
-6991.3140880561132
 20
9502.1270328812316
 30
0.0
 11
-6991.3140880561132
 21
9586.9554600059728
 31
0.0
  0
LINE
  5
56FA
  8
FUTO
 10
-7043.2112635382246
 20
9313.5944674621314
 30
0.0
 11
-7049.0504666360648
 21
9284.3983519728754
 31
0.0
  0
LINE
  5
5700
  8
FUTO
 10
-6976.3140880561132
 20
9467.5412464435994
 30
0.0
 11
-6977.314088056115
 21
9467.5412464435994
 31
0.0
  0
LINE
  5
5701
  8
CT
 10
-6971.8105341487362
 20
9477.5412464436013
 30
0.0
 11
-6981.817641963492
 21
9477.5412464436013
 31
0.0
  0
LINE
  5
5702
  8
FUTO
 10
-7049.7140880561128
 20
9458.3803602373864
 30
0.0
 11
-7049.7140880561146
 21
9335.5944674621314
 31
0.0
  0
ARC
  5
5703
  8
FUTO
 10
-7054.6890880561141
 20
9459.3752602373861
 30
0.0
 40
0.9948999999999999
 50
255.64230000000131
 51
270.03160000000111
  0
LINE
  5
5704
  8
FUTO
 10
-6979.7283016184856
 20
9490.5412464436013
 30
0.0
 11
-6991.3140880561132
 21
9502.1270328812316
 31
0.0
  0
ARC
  5
5705
  8
FUTO
 10
-7008.3140880561132
 20
9482.9412464436027
 30
0.0
 40
2.0
 50
270.0
 51
359.99999999999989
  0
LINE
  5
5706
  8
CT
 10
-7016.3140880561132
 20
9474.3575731466008
 30
0.0
 11
-7016.3140880561132
 21
9485.3305936665893
 31
0.0
  0
LINE
  5
5707
  8
FUTO
 10
-7006.3140880561141
 20
9482.9412464436027
 30
0.0
 11
-7006.3140880561141
 21
9487.9412464436027
 31
0.0
  0
LINE
  5
5708
  8
FUTO
 10
-6996.3140880561132
 20
9480.9412464436027
 30
0.0
 11
-6996.3140880561132
 21
9479.3412464436005
 31
0.0
  0
LINE
  5
570A
  8
FUTO
 10
-6979.7283016184856
 20
9490.5412464436013
 30
0.0
 11
-6979.7283016184856
 21
9488.5412464436013
 31
0.0
  0
LINE
  5
570C
  8
FUTO
 10
-6976.3140880561132
 20
9621.5412464436013
 30
0.0
 11
-6977.314088056115
 21
9621.5412464436013
 31
0.0
  0
LINE
  5
570D
  8
CT
 10
-6971.8105341487362
 20
9611.5412464436013
 30
0.0
 11
-6981.817641963492
 21
9611.5412464436013
 31
0.0
  0
LINE
  5
570F
  8
FUTO
 10
-6979.7283016184856
 20
9598.5412464435994
 30
0.0
 11
-6991.3140880561132
 21
9586.9554600059728
 31
0.0
  0
LINE
  5
5710
  8
FUTO
 10
-6979.7283016184856
 20
9598.5412464435994
 30
0.0
 11
-6979.7283016184856
 21
9600.5412464436031
 31
0.0
  0
DIMENSION
  5
5715
  8
SP
  2
*D6
 10
-6290.6730335252141
 20
8935.6761894656483
 30
0.0
 11
-6346.6730335252141
 21
8960.6761894656483
 31
0.0
 70
     0
 13
-6402.6730335252141
 23
8840.0350884091895
 33
0.0
 14
-6290.6730335252141
 24
8838.4761894656476
 34
0.0
  0
DIMENSION
  5
5716
  8
SP
  2
*D5
 10
-6283.6730335252141
 20
9005.6761894656483
 30
0.0
 11
-6197.3708296225286
 21
9030.6761894656483
 31
0.0
 70
     0
 13
-6346.6730335252141
 23
8975.6761894656502
 33
0.0
 14
-6283.6730335252141
 24
8781.6761894656465
 34
0.0
  0
DIMENSION
  5
5717
  8
SP
  2
*D4
 10
-6607.6198125066849
 20
9005.6761894656483
 30
0.0
 11
-6477.146423015949
 21
9030.6761894656483
 31
0.0
 70
     0
  1
（330）
 13
-6346.6730335252141
 23
8975.6761894656502
 33
0.0
 14
-6607.6198125066849
 24
8740.2404894656502
 34
0.0
  0
LINE
  5
5718
  8
FUTO
 10
-6393.6730335252141
 20
8845.6761894656465
 30
0.0
 11
-6299.6730335252141
 21
8845.6761894656465
 31
0.0
  0
LINE
  5
5719
  8
FUTO
 10
-6403.6730335252141
 20
8865.6761894656483
 30
0.0
 11
-6289.673033525215
 21
8865.6761894656483
 31
0.0
  0
LINE
  5
571A
  8
FUTO
 10
-6403.6730335252141
 20
8661.6761894656502
 30
0.0
 11
-6289.673033525215
 21
8661.6761894656502
 31
0.0
  0
LINE
  5
571B
  8
FUTO
 10
-6393.6730335252141
 20
8681.6761894656483
 30
0.0
 11
-6299.6730335252141
 21
8681.6761894656483
 31
0.0
  0
LINE
  5
571C
  8
HOSO
 10
-6400.744101337079
 20
8842.747257277515
 30
0.0
 11
-6292.6019657133493
 21
8684.6051216537835
 31
0.0
  0
LINE
  5
571D
  8
HOSO
 10
-6292.6019657133493
 20
8842.747257277515
 30
0.0
 11
-6400.744101337079
 21
8684.6051216537835
 31
0.0
  0
LINE
  5
571E
  8
CT
 10
-6638.9745793185284
 20
8683.6761894656483
 30
0.0
 11
-6261.9521369738732
 21
8683.6761894656483
 31
0.0
  0
LINE
  5
571F
  8
FUTO
 10
-6394.6730335252141
 20
8570.6810555717057
 30
0.0
 11
-6298.1569331278906
 21
8570.6810555717057
 31
0.0
  0
LINE
  5
5720
  8
FUTO
 10
-6394.6730335252141
 20
8570.0810555717071
 30
0.0
 11
-6298.1569331278906
 21
8570.0810555717071
 31
0.0
  0
DIMENSION
  5
5722
  8
SP
  2
*D2
 10
-6346.6730335252141
 20
8343.6761894656502
 30
0.0
 11
-6463.1730335252141
 21
8368.6761894656502
 31
0.0
 70
     0
 13
-6579.6730335252141
 23
8483.6761894656483
 33
0.0
 14
-6346.6730335252141
 24
8492.0878311137112
 34
0.0
  0
DIMENSION
  5
5723
  8
SP
  2
*D1
 10
-6579.6730335252141
 20
8413.6761894656483
 30
0.0
 11
-6494.6730335252141
 21
8438.6761894656483
 31
0.0
 70
     0
 13
-6409.673033525215
 23
8483.6761894656483
 33
0.0
 14
-6579.6730335252141
 24
8483.6761894656483
 34
0.0
  0
LINE
  5
5725
  8
FUTO
 10
-6409.673033525215
 20
8662.6323631542964
 30
0.0
 11
-6409.673033525215
 21
8483.6761894656483
 31
0.0
  0
LINE
  5
5726
  8
FUTO
 10
-6411.2730335252154
 20
8663.222052562327
 30
0.0
 11
-6411.2730335252154
 21
8483.6761894656502
 31
0.0
  0
LINE
  5
5727
  8
FUTO
 10
-6579.6730335252141
 20
8485.2761894656487
 30
0.0
 11
-6469.6730335252141
 21
8656.8761894656473
 31
0.0
  0
LINE
  5
5728
  8
FUTO
 10
-6409.673033525215
 20
8483.6761894656483
 30
0.0
 11
-6579.6730335252141
 21
8483.6761894656483
 31
0.0
  0
LINE
  5
5729
  8
FUTO
 10
-6411.2730335252154
 20
8485.2761894656487
 30
0.0
 11
-6579.6730335252141
 21
8485.2761894656487
 31
0.0
  0
LINE
  5
572B
  8
FUTO
 10
-6579.6730335252141
 20
8483.6761894656483
 30
0.0
 11
-6579.6730335252141
 21
8485.2761894656487
 31
0.0
  0
LINE
  5
572C
  8
FUTO
 10
-6548.6198125066858
 20
8623.4761894656494
 30
0.0
 11
-6525.963912506686
 21
8623.4761894656494
 31
0.0
  0
LINE
  5
572D
  8
FUTO
 10
-6526.7882125066862
 20
8634.4708894656505
 30
0.0
 11
-6540.6198125066867
 21
8634.4708894656505
 31
0.0
  0
LINE
  5
572E
  8
FUTO
 10
-6437.3198125066856
 20
8740.7761894656505
 30
0.0
 11
-6555.6198125066858
 21
8740.7761894656505
 31
0.0
  0
LINE
  5
572F
  8
FUTO
 10
-6548.6198125066858
 20
8621.1761894656483
 30
0.0
 11
-6525.9637125066856
 21
8621.1761894656483
 31
0.0
  0
LINE
  5
5730
  8
FUTO
 10
-6582.4730335252143
 20
8620.6761894656483
 30
0.0
 11
-6492.878161730343
 21
8620.6761894656483
 31
0.0
  0
LINE
  5
5731
  8
FUTO
 10
-6582.4730335252143
 20
8619.0761894656498
 30
0.0
 11
-6493.9038027559827
 21
8619.0761894656462
 31
0.0
  0
LINE
  5
5732
  8
FUTO
 10
-6538.8717472671742
 20
8548.9261960281892
 30
0.0
 11
-6577.0869940714956
 21
8619.0761894656498
 31
0.0
  0
LINE
  5
5733
  8
FUTO
 10
-6577.6198125066858
 20
8743.1761894656483
 30
0.0
 11
-6577.6198125066858
 21
8624.1761894656483
 31
0.0
  0
LINE
  5
5734
  8
FUTO
 10
-6555.6198125066858
 20
8623.1761894656483
 30
0.0
 11
-6555.6198125066858
 21
8744.1761894656483
 31
0.0
  0
LINE
  5
5735
  8
FUTO
 10
-6607.6198125066849
 20
8740.2404894656502
 30
0.0
 11
-6607.6198125066849
 21
8627.1117894656491
 31
0.0
  0
LINE
  5
5736
  8
FUTO
 10
-6548.6198125066858
 20
8621.1761894656483
 30
0.0
 11
-6548.6198125066858
 21
8626.4708894656505
 31
0.0
  0
LINE
  5
5737
  8
CT
 10
-6538.6198125066849
 20
8629.4076394656495
 30
0.0
 11
-6538.6198125066849
 21
8617.5447394656494
 31
0.0
  0
ARC
  5
5738
  8
FUTO
 10
-6582.4730335252143
 20
8617.4761894656494
 30
0.0
 40
1.6000000000000001
 50
90.0
 51
180.0
  0
LINE
  5
5739
  8
FUTO
 10
-6584.0730335252128
 20
8602.2761894656505
 30
0.0
 11
-6584.0730335252128
 21
8617.4761894656494
 31
0.0
  0
LINE
  5
573A
  8
FUTO
 10
-6585.6730335252141
 20
8602.2761894656505
 30
0.0
 11
-6585.6730335252141
 21
8617.4761894656494
 31
0.0
  0
LINE
  5
573B
  8
FUTO
 10
-6585.6730335252141
 20
8602.2761894656505
 30
0.0
 11
-6584.0730335252128
 21
8602.2761894656505
 31
0.0
  0
ARC
  5
573C
  8
FUTO
 10
-6582.4730335252143
 20
8617.4761894656494
 30
0.0
 40
3.2000000000000002
 50
90.0
 51
180.0
  0
LINE
  5
573D
  8
FUTO
 10
-6577.6198125066858
 20
8624.1761894656483
 30
0.0
 11
-6606.6863125066866
 21
8626.1139894656499
 31
0.0
  0
ARC
  5
573E
  8
FUTO
 10
-6606.6197125066856
 20
8627.1118894656502
 30
0.0
 40
1.0000999999999991
 50
180.00699999999881
 51
266.17900000000071
  0
LINE
  5
573F
  8
FUTO
 10
-6555.6198125066858
 20
8623.1761894656483
 30
0.0
 11
-6576.6198125066858
 21
8623.1761894656483
 31
0.0
  0
ARC
  5
5740
  8
FUTO
 10
-6576.6197125066874
 20
8624.1761894656483
 30
0.0
 40
1.0000999999999991
 50
180.0
 51
269.9964999999973
  0
ARC
  5
5741
  8
FUTO
 10
-6540.6198125066867
 20
8626.4708894656505
 30
0.0
 40
8.0
 50
90.0
 51
180.0
  0
LINE
  5
5742
  8
FUTO
 10
-6548.6198125066858
 20
8627.5761894656498
 30
0.0
 11
-6555.6198125066858
 21
8627.5761894656498
 31
0.0
  0
LINE
  5
5747
  8
FUTO
 10
-6437.3198125066856
 20
8740.7761894656505
 30
0.0
 11
-6437.3198125066856
 21
8689.2294104841767
 31
0.0
  0
LINE
  5
5748
  8
FUTO
 10
-6439.6198125066858
 20
8740.7761894656505
 30
0.0
 11
-6439.6198125066876
 21
8686.9294104841756
 31
0.0
  0
LINE
  5
5749
  8
FUTO
 10
-6423.673033525215
 20
8845.6761894656465
 30
0.0
 11
-6423.673033525215
 21
8681.6761894656483
 31
0.0
  0
LINE
  5
574A
  8
FUTO
 10
-6403.6730335252141
 20
8835.6761894656483
 30
0.0
 11
-6403.6730335252141
 21
8691.6761894656483
 31
0.0
  0
LINE
  5
574B
  8
FUTO
 10
-6403.2730335252136
 20
8688.8761894656509
 30
0.0
 11
-6403.2730335252136
 21
8838.4761894656476
 31
0.0
  0
LINE
  5
574C
  8
FUTO
 10
-6402.6730335252141
 20
8687.3172905221109
 30
0.0
 11
-6402.6730335252141
 21
8840.0350884091895
 31
0.0
  0
LINE
  5
574E
  8
FUTO
 10
-6469.6730335252141
 20
8656.8761894656473
 30
0.0
 11
-6423.5629861094412
 21
8702.9862368814192
 31
0.0
  0
ARC
  5
574F
  8
FUTO
 10
-6525.9637125066856
 20
8626.4760894656501
 30
0.0
 40
5.2999000000000001
 50
269.99929999999461
 51
326.34979999999467
  0
LINE
  5
5750
  8
FUTO
 10
-6521.5946125066857
 20
8623.4761894656494
 30
0.0
 11
-6491.08328993547
 21
8623.4761894656494
 31
0.0
  0
LINE
  5
5751
  8
FUTO
 10
-6484.8705125066854
 20
8643.53628946565
 30
0.0
 11
-6512.3691125066871
 21
8643.53628946565
 31
0.0
  0
ARC
  5
5752
  8
FUTO
 10
-6512.3691125066871
 20
8635.5363894656493
 30
0.0
 40
7.9999000000000002
 50
90.0
 51
166.00459999999899
  0
LINE
  5
5753
  8
FUTO
 10
-6520.1316125066869
 20
8637.4710894656473
 30
0.0
 11
-6523.052912506686
 21
8625.750689465649
 31
0.0
  0
ARC
  5
5754
  8
FUTO
 10
-6526.7882125066862
 20
8642.4708894656505
 30
0.0
 40
8.0
 50
270.0
 51
334.31590000000028
  0
ARC
  5
5755
  8
FUTO
 10
-6525.963912506686
 20
8626.4761894656494
 30
0.0
 40
3.0
 50
270.0
 51
346.0048000000026
  0
ARC
  5
5756
  8
FUTO
 10
-6484.8706125066874
 20
8635.5362894656519
 30
0.0
 40
8.0000999999999998
 50
48.146064575382901
 51
89.999599999998821
  0
LINE
  5
5757
  8
FUTO
 10
-6402.6730335252141
 20
8578.6810555717057
 30
0.0
 11
-6402.6730335252141
 21
8661.6761894656502
 31
0.0
  0
LINE
  5
5758
  8
FUTO
 10
-6403.2730335252136
 20
8578.6810555717057
 30
0.0
 11
-6403.2730335252136
 21
8661.6761894656502
 31
0.0
  0
LINE
  5
5759
  8
FUTO
 10
-6409.673033525215
 20
8662.5974054373128
 30
0.0
 11
-6409.673033525215
 21
8584.3352785927091
 31
0.0
  0
LINE
  5
575A
  8
FUTO
 10
-6403.2730335252127
 20
8583.6761894656483
 30
0.0
 11
-6408.1891339225367
 21
8583.6761894656483
 31
0.0
  0
ARC
  5
575B
  8
FUTO
 10
-6408.1891339225367
 20
8585.6761894656483
 30
0.0
 40
2.0
 50
222.10222534308949
 51
270.0
  0
ARC
  5
575C
  8
FUTO
 10
-6394.6730335252141
 20
8578.6810555717057
 30
0.0
 40
8.0
 50
180.0
 51
270.0
  0
ARC
  5
575D
  8
FUTO
 10
-6394.6730335252141
 20
8578.6810555717057
 30
0.0
 40
8.5999999999999996
 50
180.0
 51
270.0
  0
LINE
  5
575E
  8
CT
 10
-6398.9463703122383
 20
8593.6761894656483
 30
0.0
 11
-6413.4517575199216
 21
8593.6761894656483
 31
0.0
  0
LINE
  5
575F
  8
CT
 10
-6421.0543582296723
 20
8713.6761894656483
 30
0.0
 11
-6406.291708820756
 21
8713.6761894656483
 31
0.0
  0
CIRCLE
  5
5760
  8
FUTO
 10
-6413.6730335252132
 20
8713.6761894656483
 30
0.0
 40
4.0
  0
ARC
  5
5761
  8
FUTO
 10
-6403.6730335252141
 20
8681.6761894656483
 30
0.0
 40
20.0
 50
180.0
 51
270.0
  0
LINE
  5
5762
  8
FUTO
 10
-6433.8154125066858
 20
8721.9427894656474
 30
0.0
 11
-6437.2887125066873
 21
8735.5544894656487
 31
0.0
  0
ARC
  5
5763
  8
FUTO
 10
-6436.3249125066868
 20
8735.8011894656483
 30
0.0
 40
0.9948999999999999
 50
179.9683999999987
 51
194.35769999999849
  0
LINE
  5
5764
  8
FUTO
 10
-6433.6198125066858
 20
8720.3850894656498
 30
0.0
 11
-6433.6198125066858
 21
8692.9294104841756
 31
0.0
  0
ARC
  5
5765
  8
FUTO
 10
-6432.6201125066873
 20
8698.5902894656501
 30
0.0
 40
0.9996999999999999
 50
179.99649999999721
 51
225.00989999999811
  0
LINE
  5
5766
  8
FUTO
 10
-6431.9964125066881
 20
8696.5527894656461
 30
0.0
 11
-6433.3269125066881
 21
8697.883289465648
 31
0.0
  0
ARC
  5
5767
  8
FUTO
 10
-6435.3200125066878
 20
8693.2293894656505
 30
0.0
 40
4.7001999999999988
 50
27.487694404129169
 51
44.99839999999972
  0
ARC
  5
5768
  8
FUTO
 10
-6439.9174125066857
 20
8720.3853894656495
 30
0.0
 40
6.2976000000000001
 50
359.99779999999942
 51
14.31810000000004
  0
LINE
  5
5769
  8
CT
 10
-6394.0543582296732
 20
8671.6761894656483
 30
0.0
 11
-6379.291708820756
 21
8671.6761894656483
 31
0.0
  0
LINE
  5
576A
  8
CT
 10
-6386.6730335252141
 20
8679.0575141701083
 30
0.0
 11
-6386.6730335252141
 21
8664.294864761192
 31
0.0
  0
CIRCLE
  5
576B
  8
FUTO
 10
-6386.6730335252141
 20
8671.6761894656483
 30
0.0
 40
4.0
  0
ARC
  5
576C
  8
FUTO
 10
-6393.6730335252141
 20
8691.6761894656483
 30
0.0
 40
10.0
 50
180.0
 51
270.0
  0
LINE
  5
576D
  8
CT
 10
-6413.6730335252132
 20
8721.0575141701083
 30
0.0
 11
-6413.6730335252132
 21
8706.294864761192
 31
0.0
  0
LINE
  5
576E
  8
CT
 10
-6386.6730335252141
 20
8848.2948647611902
 30
0.0
 11
-6386.6730335252141
 21
8863.0575141701083
 31
0.0
  0
ARC
  5
576F
  8
FUTO
 10
-6403.6730335252141
 20
8845.6761894656465
 30
0.0
 40
20.0
 50
90.0
 51
180.0
  0
CIRCLE
  5
5770
  8
FUTO
 10
-6386.6730335252141
 20
8855.6761894656483
 30
0.0
 40
4.0
  0
LINE
  5
5771
  8
CT
 10
-6421.0543582296723
 20
8813.6761894656483
 30
0.0
 11
-6406.291708820756
 21
8813.6761894656483
 31
0.0
  0
CIRCLE
  5
5772
  8
FUTO
 10
-6413.6730335252132
 20
8813.6761894656483
 30
0.0
 40
4.0
  0
ARC
  5
5773
  8
FUTO
 10
-6393.6730335252141
 20
8835.6761894656483
 30
0.0
 40
10.0
 50
90.0
 51
180.0
  0
LINE
  5
5774
  8
CT
 10
-6413.6730335252132
 20
8821.0575141701083
 30
0.0
 11
-6413.6730335252132
 21
8806.2948647611902
 31
0.0
  0
LINE
  5
5775
  8
CT
 10
-6394.0543582296732
 20
8855.6761894656483
 30
0.0
 11
-6379.291708820756
 21
8855.6761894656483
 31
0.0
  0
LINE
  5
5776
  8
CT
 10
-6346.6730335252141
 20
8492.0878311137112
 30
0.0
 11
-6346.6730335252141
 21
8874.909429735646
 31
0.0
  0
DIMENSION
  5
5777
  8
SP
  2
*D3
 10
-6346.6730335252141
 20
8413.6761894656483
 30
0.0
 11
-6260.3708296225277
 21
8438.6761894656483
 31
0.0
 70
     0
 13
-6409.673033525215
 23
8483.6761894656483
 33
0.0
 14
-6346.6730335252141
 24
8492.0878311137112
 34
0.0
  0
LINE
  5
577A
  8
FUTO
 10
-6289.673033525215
 20
8835.6761894656483
 30
0.0
 11
-6289.673033525215
 21
8691.6761894656483
 31
0.0
  0
LINE
  5
577B
  8
FUTO
 10
-6269.6730335252141
 20
8845.6761894656465
 30
0.0
 11
-6269.6730335252141
 21
8681.6761894656483
 31
0.0
  0
LINE
  5
577C
  8
FUTO
 10
-6290.6730335252141
 20
8687.3172905221109
 30
0.0
 11
-6290.6730335252141
 21
8840.0350884091895
 31
0.0
  0
LINE
  5
577D
  8
FUTO
 10
-6290.0730335252138
 20
8688.8761894656509
 30
0.0
 11
-6290.0730335252138
 21
8838.4761894656476
 31
0.0
  0
LINE
  5
577E
  8
FUTO
 10
-6283.6730335252141
 20
8781.6761894656465
 30
0.0
 11
-6283.6730335252141
 21
8584.3352785927054
 31
0.0
  0
ARC
  5
577F
  8
FUTO
 10
-6299.6730335252141
 20
8691.6761894656483
 30
0.0
 40
10.0
 50
270.0
 51
0.0
  0
ARC
  5
5780
  8
FUTO
 10
-6298.1569331278906
 20
8578.6810555717057
 30
0.0
 40
8.0
 50
270.0
 51
339.30703913986719
  0
ARC
  5
5781
  8
FUTO
 10
-6298.1569331278906
 20
8578.6810555717057
 30
0.0
 40
8.5999999999999996
 50
270.0
 51
340.04959599019708
  0
LINE
  5
5782
  8
CT
 10
-6294.39969673819
 20
8593.6761894656483
 30
0.0
 11
-6279.8943095305049
 21
8593.6761894656483
 31
0.0
  0
LINE
  5
5783
  8
FUTO
 10
-6347.8730335252149
 20
8567.6810555717057
 30
0.0
 11
-6347.8730335252149
 21
8560.8810555717064
 31
0.0
  0
LINE
  5
5784
  8
FUTO
 10
-6345.4730335252134
 20
8567.6810555717057
 30
0.0
 11
-6345.4730335252134
 21
8560.8810555717064
 31
0.0
  0
ARC
  5
5785
  8
FUTO
 10
-6346.6730335252141
 20
8560.8810555717064
 30
0.0
 40
1.1999999999999991
 50
180.0
 51
0.0
  0
ARC
  5
5786
  8
FUTO
 10
-6350.8730335252149
 20
8567.6810555717057
 30
0.0
 40
3.0
 50
0.0
 51
53.130102354173353
  0
ARC
  5
5787
  8
FUTO
 10
-6342.4730335252134
 20
8567.6810555717057
 30
0.0
 40
3.0
 50
126.8698976458266
 51
180.0
  0
LINE
  5
5788
  8
CT
 10
-6299.291708820756
 20
8671.6761894656483
 30
0.0
 11
-6314.0543582296723
 21
8671.6761894656483
 31
0.0
  0
CIRCLE
  5
5789
  8
FUTO
 10
-6306.6730335252141
 20
8671.6761894656483
 30
0.0
 40
4.0
  0
LINE
  5
578A
  8
CT
 10
-6306.6730335252141
 20
8679.0575141701083
 30
0.0
 11
-6306.6730335252141
 21
8664.294864761192
 31
0.0
  0
LINE
  5
578B
  8
FUTO
 10
-6290.0730335252138
 20
8575.7466787700996
 30
0.0
 11
-6290.0730335252138
 21
8661.6761894656502
 31
0.0
  0
LINE
  5
578C
  8
FUTO
 10
-6290.6730335252141
 20
8575.8541762433579
 30
0.0
 11
-6290.6730335252141
 21
8661.6761894656502
 31
0.0
  0
ARC
  5
578E
  8
FUTO
 10
-6285.1569331278924
 20
8585.6761894656483
 30
0.0
 40
2.0
 50
270.0
 51
317.89777465691043
  0
LINE
  5
578F
  8
FUTO
 10
-6290.0730335252138
 20
8583.6761894656483
 30
0.0
 11
-6285.1569331278924
 21
8583.6761894656483
 31
0.0
  0
LINE
  5
5790
  8
FUTO
 10
-6290.6730335252141
 20
8603.6761894656483
 30
0.0
 11
-6290.0730335252147
 21
8603.6761894656483
 31
0.0
  0
LINE
  5
5791
  8
FUTO
 10
-6290.6730335252141
 20
8603.6761894656483
 30
0.0
 11
-6290.0730335252147
 21
8603.6761894656483
 31
0.0
  0
ARC
  5
5792
  8
FUTO
 10
-6289.673033525215
 20
8681.6761894656483
 30
0.0
 40
20.0
 50
270.0
 51
0.0
  0
CIRCLE
  5
5793
  8
FUTO
 10
-6279.6730335252141
 20
8713.6761894656483
 30
0.0
 40
4.0
  0
LINE
  5
5794
  8
CT
 10
-6279.6730335252141
 20
8721.0575141701083
 30
0.0
 11
-6279.6730335252141
 21
8706.294864761192
 31
0.0
  0
LINE
  5
5795
  8
CT
 10
-6272.291708820755
 20
8713.6761894656483
 30
0.0
 11
-6287.0543582296723
 21
8713.6761894656483
 31
0.0
  0
ARC
  5
5796
  8
FUTO
 10
-6299.6730335252141
 20
8835.6761894656483
 30
0.0
 40
10.0
 50
0.0
 51
90.0
  0
LINE
  5
5797
  8
CT
 10
-6294.39969673819
 20
8773.6761894656483
 30
0.0
 11
-6279.8943095305049
 21
8773.6761894656483
 31
0.0
  0
LINE
  5
5798
  8
CT
 10
-6306.6730335252141
 20
8848.2948647611902
 30
0.0
 11
-6306.6730335252141
 21
8863.0575141701083
 31
0.0
  0
CIRCLE
  5
5799
  8
FUTO
 10
-6306.6730335252141
 20
8855.6761894656483
 30
0.0
 40
4.0
  0
LINE
  5
579A
  8
SP
 10
-6346.6730335252141
 20
8880.6751183490851
 30
0.0
 11
-6346.6730335252141
 21
8929.6890191853054
 31
0.0
  0
LINE
  5
579B
  8
CT
 10
-6299.291708820756
 20
8855.6761894656483
 30
0.0
 11
-6314.0543582296723
 21
8855.6761894656483
 31
0.0
  0
ARC
  5
579C
  8
FUTO
 10
-6289.673033525215
 20
8845.6761894656465
 30
0.0
 40
20.0
 50
0.0
 51
90.0
  0
POINT
  5
579D
  8
FUTO
 10
-6283.6730335252141
 20
8781.6761894656465
 30
0.0
  0
POINT
  5
579E
  8
FUTO
 10
-6283.6730335252141
 20
8781.6761894656465
 30
0.0
  0
ARC
  5
579F
  8
FUTO
 10
-6285.6730335252141
 20
8781.6761894656465
 30
0.0
 40
2.0
 50
0.0
 51
90.0
  0
LINE
  5
57A0
  8
FUTO
 10
-6290.0730335252138
 20
8783.6761894656502
 30
0.0
 11
-6285.6730335252141
 21
8783.6761894656502
 31
0.0
  0
LINE
  5
57A1
  8
FUTO
 10
-6290.6730335252141
 20
8763.6761894656483
 30
0.0
 11
-6290.0730335252147
 21
8763.6761894656483
 31
0.0
  0
LINE
  5
57A2
  8
CT
 10
-6272.291708820755
 20
8813.6761894656483
 30
0.0
 11
-6287.0543582296723
 21
8813.6761894656483
 31
0.0
  0
LINE
  5
57A3
  8
CT
 10
-6279.6730335252141
 20
8821.0575141701083
 30
0.0
 11
-6279.6730335252141
 21
8806.2948647611902
 31
0.0
  0
CIRCLE
  5
57A4
  8
FUTO
 10
-6279.6730335252141
 20
8813.6761894656483
 30
0.0
 40
4.0
  0
POINT
  5
57A5
  8
DEFPOINTS
 10
-6289.673033525215
 20
8865.6761894656483
 30
0.0
  0
LINE
  5
5ADF
  8
FUTO
 10
-6577.6198125066858
 20
8743.1761894656483
 30
0.0
 11
-6606.6863125066866
 21
8741.2383894656487
 31
0.0
  0
ARC
  5
5AE0
  8
FUTO
 10
-6606.6197125066856
 20
8740.2404894656502
 30
0.0
 40
1.0000999999999991
 50
93.820999999999245
 51
180.00165729919689
  0
LINE
  5
5AEB
  8
FUTO
 10
-6555.6198125066858
 20
8744.1761894656483
 30
0.0
 11
-6576.6198125066858
 21
8744.1761894656483
 31
0.0
  0
ARC
  5
5AEC
  8
FUTO
 10
-6576.6197125066874
 20
8743.1761894656483
 30
0.0
 40
1.0000999999999991
 50
90.003500000002703
 51
180.0
  0
LINE
  5
5AF2
  8
FUTO
 10
-7162.5971286712929
 20
9283.5944674621296
 30
0.0
 11
-7050.0310474409334
 21
9283.5944674621296
 31
0.0
  0
ARC
  5
5AF5
  8
FUTO
 10
-7162.5971286712929
 20
9284.5944674621296
 30
0.0
 40
1.0
 50
191.30989473466261
 51
270.0
  0
ARC
  5
5AF6
  8
FUTO
 10
-7050.0310474409334
 20
9284.5944674621296
 30
0.0
 40
1.0
 50
270.0
 51
348.69010526533731
  0
LINE
  5
5B02
  8
FUTO
 10
-7216.3140880561132
 20
9480.9412464436027
 30
0.0
 11
-7216.3140880561132
 21
9479.3412464436005
 31
0.0
  0
LINE
  5
5B05
  8
FUTO
 10
-7246.3140880561132
 20
9481.5412464436013
 30
0.0
 11
-7246.3140880561132
 21
9311.5412464436013
 31
0.0
  0
LINE
  5
5B08
  8
FUTO
 10
-7246.3140880561132
 20
9481.5412464436013
 30
0.0
 11
-7216.3140880561132
 21
9481.5412464436013
 31
0.0
  0
LINE
  5
5B09
  8
FUTO
 10
-7216.3140880561132
 20
9311.5412464436013
 30
0.0
 11
-7246.3140880561132
 21
9311.5412464436013
 31
0.0
  0
LINE
  5
5B0A
  8
FUTO
 10
-6966.3140880561132
 20
9481.5412464436013
 30
0.0
 11
-6966.3140880561132
 21
9311.5412464436013
 31
0.0
  0
LINE
  5
5B0C
  8
FUTO
 10
-6996.3140880561132
 20
9311.5412464436013
 30
0.0
 11
-6966.3140880561132
 21
9311.5412464436013
 31
0.0
  0
LINE
  5
5B0D
  8
FUTO
 10
-6966.3140880561132
 20
9481.5412464436013
 30
0.0
 11
-6996.3140880561132
 21
9481.5412464436013
 31
0.0
  0
LINE
  5
5B0E
  8
FUTO
 10
-6996.3140880561141
 20
9305.5412464436013
 30
0.0
 11
-7044.8219022252879
 21
9305.5412464436013
 31
0.0
  0
LINE
  5
5B0F
  8
FUTO
 10
-7216.3140880561132
 20
9305.5412464436013
 30
0.0
 11
-7216.3140880561132
 21
9481.5412464436013
 31
0.0
  0
LINE
  5
5B10
  8
FUTO
 10
-6996.3140880561141
 20
9305.5412464436013
 30
0.0
 11
-6996.3140880561141
 21
9481.5412464436013
 31
0.0
  0
LINE
  5
5B11
  8
FUTO
 10
-7167.8062738869367
 20
9305.5412464436013
 30
0.0
 11
-7216.3140880561132
 21
9305.5412464436013
 31
0.0
  0
DIMENSION
  5
5B12
  8
SP
  2
*D7
 10
-6836.4402735301273
 20
9311.5412464436013
 30
0.0
 11
-6861.4402735301273
 21
9396.5412464435994
 31
0.0
 70
     0
 13
-6966.3140880561132
 23
9481.5412464436013
 33
0.0
 14
-6966.3140880561132
 24
9311.5412464436013
 34
0.0
 50
90.0
  0
DIMENSION
  5
5B1F
  8
SP
  2
*D8
 10
-6836.4402735301273
 20
9544.5412464436013
 30
0.0
 11
-6861.4402735301273
 21
9630.843450346285
 31
0.0
 70
     0
 13
-6966.3140880561132
 23
9481.5412464436013
 33
0.0
 14
-6936.6416766253878
 24
9544.5412464436013
 34
0.0
 50
90.0
  0
DIMENSION
  5
5B2E
  8
SP
  2
*D9
 10
-6966.3140880561132
 20
9203.5944674621296
 30
0.0
 11
-7106.3140880561132
 21
9228.5944674621278
 31
0.0
 70
     0
 13
-7246.3140880561132
 23
9311.5412464436013
 33
0.0
 14
-6966.3140880561132
 24
9311.5412464436013
 34
0.0
  0
LINE
  5
5EE4
  8
FUTO
 10
-6977.3140880561132
 20
8865.6761894656502
 30
0.0
 11
-6977.3140880561132
 21
8846.6761894656483
 31
0.0
  0
ARC
  5
5EE5
  8
FUTO
 10
-7093.3140880561141
 20
8696.6761894656483
 30
0.0
 40
159.0
 50
89.999999999999986
 51
132.78469491064249
  0
LINE
  5
5EE6
  8
FUTO
 10
-6976.3140880561132
 20
8865.6761894656502
 30
0.0
 11
-6976.3140880561132
 21
8661.6761894656502
 31
0.0
  0
LINE
  5
5EE7
  8
CT
 10
-7271.5688564907859
 20
8683.6761894656483
 30
0.0
 11
-6960.4684556196898
 21
8683.6761894656483
 31
0.0
  0
LINE
  5
5EE8
  8
FUTO
 10
-6976.3140880561132
 20
8865.6761894656502
 30
0.0
 11
-6977.3140880561132
 21
8865.6761894656502
 31
0.0
  0
DIMENSION
  5
5EE9
  8
SP
  2
*D13
 10
-6906.3140880561132
 20
8683.6761894656483
 30
0.0
 11
-6931.3140880561132
 21
8583.6761894656465
 31
0.0
 70
     0
 13
-6966.3140880561132
 23
8483.6761894656483
 33
0.0
 14
-6960.4684556196898
 24
8683.6761894656483
 34
0.0
 50
90.0
  0
DIMENSION
  5
5EEA
  8
SP
  2
*D14
 10
-6906.3140880561132
 20
8843.6761894656483
 30
0.0
 11
-6931.3140880561132
 21
8763.6761894656465
 31
0.0
 70
     0
 13
-6960.4684556196898
 23
8683.6761894656483
 33
0.0
 14
-6976.3140880561132
 24
8843.6761894656483
 34
0.0
 50
90.0
  0
LINE
  5
5EEB
  8
FUTO
 10
-6979.7283016184856
 20
8686.0904030280199
 30
0.0
 11
-6991.3140880561132
 21
8697.6761894656502
 31
0.0
  0
DIMENSION
  5
5EEC
  8
SP
  2
*D12
 10
-7246.3140880561132
 20
8413.6761894656483
 30
0.0
 11
-7176.3140880561141
 21
8438.6761894656483
 31
0.0
 70
     0
 13
-7106.3140880561132
 23
8471.4288100448593
 33
0.0
 14
-7246.3140880561132
 24
8483.6761894656502
 34
0.0
 50
180.0
  0
LINE
  5
5EED
  8
FUTO
 10
-6977.3140880561132
 20
8846.6761894656483
 30
0.0
 11
-6977.3140880561132
 21
8661.6761894656502
 31
0.0
  0
DIMENSION
  5
5EEE
  8
SP
  2
*D11
 10
-7246.3140880561132
 20
8343.6761894656502
 30
0.0
 11
-7106.3140880561132
 21
8368.6761894656502
 31
0.0
 70
     0
 13
-6966.3140880561132
 23
8483.6761894656483
 33
0.0
 14
-7246.3140880561132
 24
8483.6761894656502
 34
0.0
 50
180.0
  0
LINE
  5
5EEF
  8
FUTO
 10
-7135.3122880561132
 20
8622.6761894656483
 30
0.0
 11
-7077.4133880561139
 21
8622.6761894656483
 31
0.0
  0
LINE
  5
5EF0
  8
FUTO
 10
-7071.3140880561123
 20
8788.6761894656483
 30
0.0
 11
-7141.3140880561132
 21
8788.6761894656483
 31
0.0
  0
LINE
  5
5EF1
  8
FUTO
 10
-7166.3140880561132
 20
8602.2761894656487
 30
0.0
 11
-7046.3140880561132
 21
8602.2761894656505
 31
0.0
  0
LINE
  5
5EF2
  8
FUTO
 10
-7001.1140880561125
 20
8620.6761894656483
 30
0.0
 11
-7211.5140880561121
 21
8620.6761894656483
 31
0.0
  0
CIRCLE
  5
5EF3
  8
CT
 10
-7106.3140880561132
 20
8683.6761894656483
 30
0.0
 40
90.0
  0
ARC
  5
5EF4
  8
FUTO
 10
-7106.3157528663396
 20
8679.9893426686758
 30
0.0
 40
64.186846818565385
 50
296.70688032493427
 51
243.2413754077248
  0
ARC
  5
5EF5
  8
FUTO
 10
-7117.3140880561123
 20
8694.6761894656483
 30
0.0
 40
135.0
 50
179.55492060374399
 51
270.48647758624008
  0
ARC
  5
5EF6
  8
FUTO
 10
-7117.3140880561123
 20
8694.6761894656483
 30
0.0
 40
123.0
 50
179.55492060374399
 51
270.48647758624008
  0
LINE
  5
5EF7
  8
FUTO
 10
-7214.7140880561119
 20
8486.6761894656502
 30
0.0
 11
-7214.7140880561119
 21
8715.2761894656505
 31
0.0
  0
LINE
  5
5EF8
  8
FUTO
 10
-7216.3140880561132
 20
8486.2139049737398
 30
0.0
 11
-7216.3140880561132
 21
8713.6761894656483
 31
0.0
  0
ARC
  5
5EF9
  8
FUTO
 10
-7093.3140880561141
 20
8696.6761894656483
 30
0.0
 40
147.0
 50
137.28135548563679
 51
180.4071282142686
  0
ARC
  5
5EFA
  8
FUTO
 10
-7093.3140880561141
 20
8696.6761894656483
 30
0.0
 40
159.0
 50
132.78469491064249
 51
180.4071282142686
  0
LINE
  5
5EFB
  8
FUTO
 10
-7214.7140880561119
 20
8534.8761894656491
 30
0.0
 11
-7214.7140880561119
 21
8618.4761894656494
 31
0.0
  0
LINE
  5
5EFC
  8
FUTO
 10
-7213.1140880561125
 20
8533.8761894656491
 30
0.0
 11
-7213.1140880561125
 21
8617.4761894656494
 31
0.0
  0
ARC
  5
5EFD
  8
FUTO
 10
-7093.3140880561141
 20
8696.6761894656483
 30
0.0
 40
147.0
 50
89.999999999999986
 51
137.28135548563679
  0
LINE
  5
5EFE
  8
FUTO
 10
-7217.3140880561132
 20
8485.2761894656505
 30
0.0
 11
-7246.3140880561132
 21
8485.2761894656505
 31
0.0
  0
LINE
  5
5EFF
  8
FUTO
 10
-7217.9140880561117
 20
8483.6761894656483
 30
0.0
 11
-7246.3140880561132
 21
8483.6761894656502
 31
0.0
  0
LINE
  5
5F00
  8
FUTO
 10
-7246.3140880561132
 20
8483.6761894656502
 30
0.0
 11
-7246.3140880561132
 21
8485.2761894656505
 31
0.0
  0
ARC
  5
5F01
  8
FUTO
 10
-7217.9140880561117
 20
8486.8761894656491
 30
0.0
 40
3.2000000000000002
 50
270.0
 51
359.99999999999989
  0
ARC
  5
5F02
  8
FUTO
 10
-7217.3140880561132
 20
8486.2761894656505
 30
0.0
 40
1.0
 50
270.0
 51
359.99999999999989
  0
ARC
  5
5F03
  8
FUTO
 10
-7214.7140880561119
 20
8483.6761894656502
 30
0.0
 40
3.0
 50
179.8805091064215
 51
179.99999999999989
  0
LINE
  5
5F04
  8
CT
 10
-7233.3140880561132
 20
8470.7003335502104
 30
0.0
 11
-7233.3140880561132
 21
8492.7003335502086
 31
0.0
  0
LINE
  5
5F05
  8
CT
 10
-7205.4798754372796
 20
8548.8761894656509
 30
0.0
 11
-7224.9540770478397
 21
8548.8761894656509
 31
0.0
  0
LINE
  5
5F06
  8
FUTO
 10
-7214.7140880561119
 20
8533.8761894656491
 30
0.0
 11
-7213.1140880561125
 21
8533.8761894656491
 31
0.0
  0
LINE
  5
5F07
  8
CT
 10
-7197.7781617747314
 20
8721.5618492697959
 30
0.0
 11
-7181.148330189526
 21
8714.6735474872203
 31
0.0
  0
LINE
  5
5F08
  8
CT
 10
-7197.7781617747314
 20
8645.7905296615063
 30
0.0
 11
-7181.148330189526
 21
8652.6788314440764
 31
0.0
  0
LINE
  5
5F09
  8
FUTO
 10
-7200.0901326243584
 20
8620.6761894656483
 30
0.0
 11
-7166.3140880561132
 21
8602.2761894656505
 31
0.0
  0
LINE
  5
5F0A
  8
FUTO
 10
-7216.3140880561132
 20
8713.6761894656483
 30
0.0
 11
-7141.3140880561132
 21
8788.6761894656483
 31
0.0
  0
LINE
  5
5F0B
  8
FUTO
 10
-6991.3140880561132
 20
8829.6761894656483
 30
0.0
 11
-6991.3140880561132
 21
8697.6761894656502
 31
0.0
  0
LINE
  5
5F0C
  8
FUTO
 10
-6976.3140880561132
 20
8843.6761894656483
 30
0.0
 11
-7093.3140880561141
 21
8843.6761894656502
 31
0.0
  0
LINE
  5
5F0D
  8
FUTO
 10
-6991.3140880561132
 20
8855.6761894656502
 30
0.0
 11
-7093.3140880561141
 21
8855.6761894656502
 31
0.0
  0
LINE
  5
5F0E
  8
CT
 10
-7205.4798754372796
 20
8603.8761894656491
 30
0.0
 11
-7224.9540770478397
 21
8603.8761894656491
 31
0.0
  0
ARC
  5
5F0F
  8
FUTO
 10
-7211.5140880561121
 20
8617.4761894656494
 30
0.0
 40
1.6000000000000001
 50
89.999999999999986
 51
179.99999999999989
  0
ARC
  5
5F10
  8
FUTO
 10
-7211.5140880561121
 20
8617.4761894656494
 30
0.0
 40
3.2000000000000002
 50
89.999999999999986
 51
179.99999999999989
  0
LINE
  5
5F11
  8
FUTO
 10
-7197.1530852705982
 20
8619.0761894656498
 30
0.0
 11
-7211.5140880561121
 21
8619.0761894656498
 31
0.0
  0
LINE
  5
5F12
  8
FUTO
 10
-6979.7283016184856
 20
8841.2619759032768
 30
0.0
 11
-6991.3140880561132
 21
8829.6761894656483
 31
0.0
  0
LINE
  5
5F13
  8
FUTO
 10
-6991.3140880561132
 20
8855.6761894656502
 30
0.0
 11
-6991.3140880561132
 21
8843.6761894656502
 31
0.0
  0
ARC
  5
5F14
  8
FUTO
 10
-6979.3140880561132
 20
8846.6761894656483
 30
0.0
 40
2.0
 50
270.0
 51
0.0
  0
LINE
  5
5F15
  8
FUTO
 10
-6979.3140880561132
 20
8844.6761894656502
 30
0.0
 11
-6991.3140880561132
 21
8844.6761894656502
 31
0.0
  0
ARC
  5
5F16
  8
FUTO
 10
-6981.1425151808589
 20
8842.6761894656465
 30
0.0
 40
2.0
 50
315.00000000000909
 51
89.999999999999986
  0
LINE
  5
5F17
  8
CT
 10
-6969.1292424776811
 20
8855.6761894656502
 30
0.0
 11
-6985.6904018449441
 21
8855.6761894656502
 31
0.0
  0
CIRCLE
  5
5F18
  8
FUTO
 10
-7140.7555969689711
 20
8766.8253473916666
 30
0.0
 40
4.0
  0
LINE
  5
5F19
  8
CT
 10
-7144.199747860257
 20
8775.1402631842666
 30
0.0
 11
-7137.3114460776851
 21
8758.5104315990648
 31
0.0
  0
LINE
  5
5F1A
  8
FUTO
 10
-7170.3140880561132
 20
8622.9761894656494
 30
0.0
 11
-7141.4501880561129
 21
8622.9761894656494
 31
0.0
  0
LINE
  5
5F1B
  8
FUTO
 10
-7140.3140880561141
 20
8620.6761894656483
 30
0.0
 11
-7170.3140880561132
 21
8620.6761894656483
 31
0.0
  0
CIRCLE
  5
5F1C
  8
FUTO
 10
-7189.4632459821287
 20
8649.2346805527923
 30
0.0
 40
4.0
  0
LINE
  5
5F1D
  8
FUTO
 10
-7170.3140880561132
 20
8622.9761894656494
 30
0.0
 11
-7170.3140880561132
 21
8620.6761894656483
 31
0.0
  0
LINE
  5
5F1E
  8
FUTO
 10
-7155.898988056113
 20
8637.3912894656496
 30
0.0
 11
-7170.3140880561132
 21
8622.9761894656494
 31
0.0
  0
CIRCLE
  5
5F1F
  8
FUTO
 10
-7189.4632459821287
 20
8718.1176983785081
 30
0.0
 40
4.0
  0
LINE
  5
5F20
  8
FUTO
 10
-7140.3140880561141
 20
8621.2323894656492
 30
0.0
 11
-7140.3140880561141
 21
8620.6761894656483
 31
0.0
  0
ARC
  5
5F21
  8
FUTO
 10
-7141.1614880561128
 20
8627.1759894656498
 30
0.0
 40
5.9997999999999987
 50
278.11690000000289
 51
319.2816000000052
  0
ARC
  5
5F22
  8
FUTO
 10
-7141.4502880561131
 20
8626.6762894656495
 30
0.0
 40
3.7000999999999991
 50
265.39090000000562
 51
321.17369999999789
  0
LINE
  5
5F23
  8
CT
 10
-7144.199747860257
 20
8592.2121157470301
 30
0.0
 11
-7137.311446077686
 21
8608.8419473322356
 31
0.0
  0
CIRCLE
  5
5F24
  8
FUTO
 10
-7140.7555969689711
 20
8600.5270315396338
 30
0.0
 40
4.0
  0
LINE
  5
5F25
  8
FUTO
 10
-6997.9140880561126
 20
8486.8761894656491
 30
0.0
 11
-6997.9140880561126
 21
8715.2761894656505
 31
0.0
  0
LINE
  5
5F26
  8
FUTO
 10
-6996.3140880561132
 20
8486.2761894656505
 30
0.0
 11
-6996.3140880561132
 21
8713.6761894656483
 31
0.0
  0
LINE
  5
5F27
  8
FUTO
 10
-6999.514088056113
 20
8533.8761894656491
 30
0.0
 11
-6999.514088056113
 21
8617.4761894656494
 31
0.0
  0
LINE
  5
5F28
  8
FUTO
 10
-6997.9140880561126
 20
8533.8761894656491
 30
0.0
 11
-6997.9140880561126
 21
8617.4761894656494
 31
0.0
  0
LINE
  5
5F29
  8
CT
 10
-7106.3140880561132
 20
8873.5934657609978
 30
0.0
 11
-7106.3140880561132
 21
8471.4288100448593
 31
0.0
  0
DIMENSION
  5
5F2A
  8
SP
  2
*D10
 10
-6966.3140880561132
 20
8413.6761894656483
 30
0.0
 11
-7036.3140880561132
 21
8438.6761894656483
 31
0.0
 70
     0
 13
-7106.3140880561132
 23
8471.4288100448593
 33
0.0
 14
-6966.3140880561132
 24
8483.6761894656483
 34
0.0
 50
180.0
  0
LINE
  5
5F2B
  8
FUTO
 10
-6994.7140880561128
 20
8483.6761894656483
 30
0.0
 11
-6966.3140880561132
 21
8483.6761894656483
 31
0.0
  0
LINE
  5
5F2C
  8
FUTO
 10
-6995.3140880561132
 20
8485.2761894656505
 30
0.0
 11
-6966.3140880561132
 21
8485.2761894656505
 31
0.0
  0
LINE
  5
5F2D
  8
CT
 10
-6988.0056461375216
 20
8548.8761894656509
 30
0.0
 11
-7007.4798477480826
 21
8548.8761894656509
 31
0.0
  0
ARC
  5
5F2E
  8
FUTO
 10
-6995.3140880561132
 20
8486.2761894656505
 30
0.0
 40
1.0
 50
179.99999999999989
 51
270.0
  0
ARC
  5
5F2F
  8
FUTO
 10
-6994.7140880561128
 20
8486.8761894656491
 30
0.0
 40
3.2000000000000002
 50
179.99999999999989
 51
270.0
  0
LINE
  5
5F30
  8
FUTO
 10
-6997.9140880561126
 20
8533.8761894656491
 30
0.0
 11
-6999.514088056113
 21
8533.8761894656491
 31
0.0
  0
LINE
  5
5F31
  8
CT
 10
-6979.3140880561132
 20
8470.7003335502104
 30
0.0
 11
-6979.3140880561132
 21
8492.7003335502086
 31
0.0
  0
LINE
  5
5F32
  8
FUTO
 10
-6966.3140880561132
 20
8483.6761894656483
 30
0.0
 11
-6966.3140880561132
 21
8485.2761894656505
 31
0.0
  0
LINE
  5
5F33
  8
FUTO
 10
-7012.538043487868
 20
8620.6761894656483
 30
0.0
 11
-7046.3140880561132
 21
8602.2761894656505
 31
0.0
  0
LINE
  5
5F34
  8
FUTO
 10
-6996.3140880561132
 20
8713.6761894656483
 30
0.0
 11
-7071.3140880561123
 21
8788.6761894656483
 31
0.0
  0
ARC
  5
5F35
  8
FUTO
 10
-7115.3140880561141
 20
8674.6761894656483
 30
0.0
 40
103.0
 50
269.46838523774011
 51
355.73439108433359
  0
ARC
  5
5F36
  8
FUTO
 10
-7115.3140880561141
 20
8674.6761894656483
 30
0.0
 40
115.0
 50
269.46838523774011
 51
355.73439108433359
  0
CIRCLE
  5
5F37
  8
FUTO
 10
-7071.8725791432562
 20
8766.8253473916666
 30
0.0
 40
4.0
  0
LINE
  5
5F38
  8
CT
 10
-7068.4284282519693
 20
8775.1402631842666
 30
0.0
 11
-7075.3167300345413
 21
8758.5104315990648
 31
0.0
  0
ARC
  5
5F39
  8
FUTO
 10
-7071.2933880561141
 20
8627.1760894656509
 30
0.0
 40
5.9999000000000002
 50
219.05360000000061
 51
260.37079999999759
  0
LINE
  5
5F3A
  8
CT
 10
-7068.4284282519693
 20
8592.2121157470301
 30
0.0
 11
-7075.3167300345413
 21
8608.8419473322356
 31
0.0
  0
CIRCLE
  5
5F3B
  8
FUTO
 10
-7071.8725791432562
 20
8600.5270315396338
 30
0.0
 40
4.0
  0
ARC
  5
5F3C
  8
FUTO
 10
-7071.2354880561143
 20
8626.2763894656491
 30
0.0
 40
3.3001999999999989
 50
213.98149999999779
 51
269.9986999999993
  0
LINE
  5
5F3D
  8
FUTO
 10
-7056.9681880561138
 20
8637.6302894656492
 30
0.0
 11
-7042.3140880561132
 21
8622.9761894656494
 31
0.0
  0
LINE
  5
5F3E
  8
FUTO
 10
-7071.501488056113
 20
8622.9761894656494
 30
0.0
 11
-7042.5777880561127
 21
8622.9761894656494
 31
0.0
  0
LINE
  5
5F3F
  8
FUTO
 10
-7072.3140880561132
 20
8620.6761894656483
 30
0.0
 11
-7042.3140880561132
 21
8620.6761894656483
 31
0.0
  0
LINE
  5
5F40
  8
FUTO
 10
-7072.3140880561132
 20
8621.2520894656463
 30
0.0
 11
-7072.3140880561132
 21
8620.6761894656483
 31
0.0
  0
LINE
  5
5F41
  8
FUTO
 10
-7042.3140880561132
 20
8622.9761894656494
 30
0.0
 11
-7042.3140880561132
 21
8620.6761894656483
 31
0.0
  0
ARC
  5
5F42
  8
FUTO
 10
-7001.3140880561141
 20
8680.2219829226215
 30
0.0
 40
10.0
 50
294.61706395548578
 51
299.9999999999971
  0
ARC
  5
5F43
  8
FUTO
 10
-6994.6492630241264
 20
8665.6761894656465
 30
0.0
 40
6.0
 50
114.6170639554803
 51
175.73439108433371
  0
ARC
  5
5F44
  8
FUTO
 10
-6994.6492630241264
 20
8665.6761894656465
 30
0.0
 40
18.0
 50
95.306887336324465
 51
175.73439108433371
  0
ARC
  5
5F45
  8
FUTO
 10
-7001.3140880561141
 20
8680.2219829226215
 30
0.0
 40
10.0
 50
299.9999999999971
 51
0.0
  0
LINE
  5
5F46
  8
CT
 10
-6969.1292424776811
 20
8671.6761894656483
 30
0.0
 11
-6986.9978613477106
 21
8671.6761894656483
 31
0.0
  0
ARC
  5
5F47
  8
FUTO
 10
-6979.3140880561132
 20
8680.6761894656483
 30
0.0
 40
2.0
 50
0.0
 51
89.999999999999986
  0
LINE
  5
5F48
  8
FUTO
 10
-6991.3140880561132
 20
8683.6761894656502
 30
0.0
 11
-6991.3140880561132
 21
8680.2219829226233
 31
0.0
  0
ARC
  5
5F49
  8
FUTO
 10
-6994.6492630241264
 20
8665.6761894656465
 30
0.0
 40
18.0
 50
89.999999999999986
 51
95.306887336324465
  0
LINE
  5
5F4A
  8
FUTO
 10
-6979.3140880561132
 20
8682.6761894656502
 30
0.0
 11
-6991.3140880561132
 21
8682.6761894656502
 31
0.0
  0
ARC
  5
5F4B
  8
FUTO
 10
-6981.1425151808589
 20
8684.6761894656465
 30
0.0
 40
2.0
 50
270.0
 51
44.999999999990777
  0
LINE
  5
5F4C
  8
FUTO
 10
-6976.3140880561132
 20
8661.6761894656502
 30
0.0
 11
-6977.3140880561132
 21
8661.6761894656502
 31
0.0
  0
LINE
  5
5F4D
  8
CT
 10
-6988.0056461375216
 20
8603.8761894656491
 30
0.0
 11
-7007.4798477480826
 21
8603.8761894656491
 31
0.0
  0
LINE
  5
5F4E
  8
FUTO
 10
-7001.1140880561125
 20
8619.0761894656498
 30
0.0
 11
-7015.475090841629
 21
8619.0761894656498
 31
0.0
  0
CIRCLE
  5
5F4F
  8
FUTO
 10
-7023.1649301300968
 20
8649.2346805527923
 30
0.0
 40
4.0
  0
LINE
  5
5F50
  8
CT
 10
-7014.8500143374958
 20
8645.7905296615063
 30
0.0
 11
-7031.4798459226986
 21
8652.6788314440764
 31
0.0
  0
ARC
  5
5F51
  8
FUTO
 10
-7001.1140880561125
 20
8617.4761894656494
 30
0.0
 40
1.6000000000000001
 50
359.99999999999989
 51
89.999999999999986
  0
ARC
  5
5F52
  8
FUTO
 10
-7001.1140880561125
 20
8617.4761894656494
 30
0.0
 40
3.2000000000000002
 50
359.99999999999989
 51
89.999999999999986
  0
CIRCLE
  5
5F53
  8
FUTO
 10
-7023.1649301300968
 20
8718.1176983785081
 30
0.0
 40
4.0
  0
LINE
  5
5F54
  8
CT
 10
-7014.8500143374958
 20
8721.5618492697959
 30
0.0
 11
-7031.4798459226986
 21
8714.6735474872203
 31
0.0
  0
DIMENSION
  5
64A8
  8
SP
  2
*D15
 10
-6976.3140880561132
 20
8925.6761894656502
 30
0.0
 11
-7041.3140880561132
 21
8950.6761894656502
 31
0.0
 70
     0
 13
-7106.3140880561132
 23
8873.5934657609978
 33
0.0
 14
-6976.3140880561132
 24
8865.6761894656502
 34
0.0
  0
DIMENSION
  5
64B5
  8
SP
  2
*D16
 10
-7240.3140880561141
 20
8925.6761894656502
 30
0.0
 11
-7173.3140880561132
 21
8950.6761894656502
 31
0.0
 70
     0
 13
-7106.3140880561132
 23
8873.5934657609978
 33
0.0
 14
-7240.3140880561141
 24
8696.6761894656483
 34
0.0
  0
LINE
  5
651D
  8
CT
 10
-7223.3140880561132
 20
9331.5412464436013
 30
0.0
 11
-7243.3140880561132
 21
9331.5412464436013
 31
0.0
  0
LINE
  5
651E
  8
CT
 10
-7233.3140880561132
 20
9341.5412464436013
 30
0.0
 11
-7233.3140880561132
 21
9321.5412464436013
 31
0.0
  0
CIRCLE
  5
651F
  8
FUTO
 10
-7233.3140880561132
 20
9331.5412464436013
 30
0.0
 40
6.0
  0
CIRCLE
  5
6524
  8
FUTO
 10
-7233.3140880561132
 20
9461.5412464436013
 30
0.0
 40
6.0
  0
LINE
  5
6525
  8
CT
 10
-7223.3140880561132
 20
9461.5412464436013
 30
0.0
 11
-7243.3140880561132
 21
9461.5412464436013
 31
0.0
  0
LINE
  5
6526
  8
CT
 10
-7233.3140880561132
 20
9471.5412464436013
 30
0.0
 11
-7233.3140880561132
 21
9451.5412464436013
 31
0.0
  0
CIRCLE
  5
7C13
  8
FUTO
 10
-6979.3140880561132
 20
9461.5412464436013
 30
0.0
 40
6.0
  0
LINE
  5
7C14
  8
CT
 10
-6989.3140880561132
 20
9461.5412464436013
 30
0.0
 11
-6969.314088056115
 21
9461.5412464436013
 31
0.0
  0
LINE
  5
7C15
  8
CT
 10
-6979.3140880561132
 20
9471.5412464436013
 30
0.0
 11
-6979.3140880561132
 21
9451.5412464436013
 31
0.0
  0
LINE
  5
7C16
  8
CT
 10
-6989.3140880561132
 20
9331.5412464436013
 30
0.0
 11
-6969.314088056115
 21
9331.5412464436013
 31
0.0
  0
CIRCLE
  5
7C17
  8
FUTO
 10
-6979.3140880561132
 20
9331.5412464436013
 30
0.0
 40
6.0
  0
LINE
  5
7C18
  8
CT
 10
-6979.3140880561132
 20
9341.5412464436013
 30
0.0
 11
-6979.3140880561132
 21
9321.5412464436013
 31
0.0
  0
LINE
  5
8405
  8
CT
 10
-6498.6730335252132
 20
8616.4715762572232
 30
0.0
 11
-6498.6730335252132
 21
8750.8808026740753
 31
0.0
  0
LINE
  5
8740
  8
FUTO
 10
-7172.8140880561132
 20
9313.5944674621296
 30
0.0
 11
-7039.8140880561132
 21
9313.5944674621296
 31
0.0
  0
LINE
  5
8741
  8
FUTO
 10
-7038.8140880561132
 20
9335.5944674621314
 30
0.0
 11
-7173.8140880561132
 21
9335.5944674621278
 31
0.0
  0
ARC
  5
8742
  8
FUTO
 10
-7172.8140880561132
 20
9314.5944674621278
 30
0.0
 40
1.0
 50
180.0
 51
270.0
  0
LINE
  5
8745
  8
FUTO
 10
-7038.8140880561132
 20
9335.5944674621278
 30
0.0
 11
-7038.8140880561132
 21
9314.5944674621278
 31
0.0
  0
ARC
  5
8746
  8
FUTO
 10
-7039.8140880561132
 20
9314.5944674621278
 30
0.0
 40
1.0
 50
270.0
 51
0.000000000000007
  0
TEXT
  5
8C42
  8
4
 10
-6846.2430592634046
 20
7977.790828547295
 30
0.0
 40
50.0
  1
ミツヤ多翼送風機
  0
TEXT
  5
8C43
  8
4
 10
-6837.2673091655879
 20
7872.3786438696698
 30
0.0
 40
50.0
  1
MF＃1-7
  0
LINE
  5
8C46
  8
4
 10
-7373.9218047510694
 20
7855.2190595897273
 30
0.0
 11
-6173.9218047510703
 21
7855.2190595897273
 31
0.0
  0
LINE
  5
8C47
  8
4
 10
-7373.9218047510694
 20
7955.2190595897273
 30
0.0
 11
-6173.9218047510703
 21
7955.2190595897273
 31
0.0
  0
LINE
  5
8C48
  8
4
 10
-7373.9218047510694
 20
8055.2190595897273
 30
0.0
 11
-6173.9218047510703
 21
8055.2190595897273
 31
0.0
  0
LINE
  5
8C49
  8
4
 10
-5723.9218047510703
 20
7555.2190595897273
 30
0.0
 11
-7823.9218047510694
 21
7555.2190595897273
 31
0.0
  0
TEXT
  5
8C4A
  8
4
 10
-6980.8805785372133
 20
9938.6479009222421
 30
0.0
 40
53.999999999999993
  1
床置ベッド型
  0
TEXT
  5
8C4B
  8
4
 10
-7335.8589008062099
 20
10089.100035789021
 30
0.0
 40
72.0
  1
遠心式片吸込直動形多翼ファン
  0
LINE
  5
8C4C
  8
4
 10
-7573.9218047510694
 20
10024.627813854529
 30
0.0
 11
-5973.9218047510703
 21
10024.627813854529
 31
0.0
  0
LINE
  5
8C4D
  8
4
 10
-7573.9218047510694
 20
10224.627813854529
 30
0.0
 11
-5973.9218047510703
 21
10224.627813854529
 31
0.0
  0
LINE
  5
8C4E
  8
4
 10
-7823.9218047510694
 20
10505.219059589719
 30
0.0
 11
-5723.9218047510703
 21
10505.219059589719
 31
0.0
  0
LINE
  5
8C4F
  8
4
 10
-7823.9218047510694
 20
7555.2190595897273
 30
0.0
 11
-7823.9218047510694
 21
10505.219059589719
 31
0.0
  0
TEXT
  5
8C51
  8
4
 10
-7335.4197239041678
 20
7986.7620854563402
 30
0.0
 40
50.0
  1
機器名称
  0
TEXT
  5
8C52
  8
4
 10
-7337.6636987262709
 20
7876.8642163217382
 30
0.0
 40
50.0
  1
機器型番
  0
LINE
  5
8C53
  8
4
 10
-7373.9218047510694
 20
8055.2190595897273
 30
0.0
 11
-7373.9218047510694
 21
7855.2190595897246
 31
0.0
  0
LINE
  5
8C54
  8
4
 10
-6873.9218047510694
 20
8055.2190595897273
 30
0.0
 11
-6873.9218047510694
 21
7855.2190595897246
 31
0.0
  0
TEXT
  5
8C55
  8
4
 10
-7508.6662232911012
 20
9937.5385371360699
 30
0.0
 40
53.999999999999993
  1
右回転右横向
  0
LINE
  5
8C56
  8
4
 10
-7573.9218047510694
 20
10224.627813854529
 30
0.0
 11
-7573.9218047510694
 21
10024.627813854529
 31
0.0
  0
LINE
  5
8C57
  8
4
 10
-5723.9218047510703
 20
10505.219059589719
 30
0.0
 11
-5723.9218047510703
 21
7555.2190595897273
 31
0.0
  0
LINE
  5
8C58
  8
4
 10
-6173.9218047510703
 20
8055.2190595897273
 30
0.0
 11
-6173.9218047510703
 21
7855.2190595897246
 31
0.0
  0
LINE
  5
8C59
  8
4
 10
-6383.3043823912049
 20
10341.87132113947
 30
0.0
 11
-5973.9218047510703
 21
10341.87132113947
 31
0.0
  0
LINE
  5
8C5A
  8
4
 10
-5973.9218047510703
 20
10236.48264271512
 30
0.0
 11
-6383.3043823912049
 21
10236.48264271512
 31
0.0
  0
TEXT
  5
8C5B
  8
4
 10
-6454.328526464381
 20
9938.6479009222421
 30
0.0
 40
53.999999999999993
  1
縮尺：1/10
  0
TEXT
  5
8C5C
  8
4
 10
-6354.9522455017786
 20
10261.28014108503
 30
0.0
 40
56.000000000000007
  1
No.
  0
LINE
  5
8C5D
  8
4
 10
-6383.3043823912049
 20
10236.48264271512
 30
0.0
 11
-6383.3043823912049
 21
10341.87132113947
 31
0.0
  0
LINE
  5
8C5E
  8
4
 10
-5973.9218047510703
 20
10224.627813854529
 30
0.0
 11
-5973.9218047510703
 21
10024.627813854529
 31
0.0
  0
LINE
  5
8C5F
  8
4
 10
-5973.9218047510703
 20
10341.87132113947
 30
0.0
 11
-5973.9218047510703
 21
10236.48264271512
 31
0.0
  0
LINE
  5
8C60
  8
4
 10
-5723.9218047510703
 20
10505.219059589719
 30
0.0
 11
-5723.9218047510703
 21
10505.219059589719
 31
0.0
  0
LINE
  5
9A92
  8
FUTO
 10
-6290.0730335252128
 20
8603.6761894656483
 30
0.0
 11
-6283.6730335252141
 21
8603.6761894656483
 31
0.0
  0
LINE
  5
9A94
  8
FUTO
 10
-6290.0730335252128
 20
8763.6761894656483
 30
0.0
 11
-6283.6730335252141
 21
8763.6761894656483
 31
0.0
  0
LINE
  5
9A95
  8
FUTO
 10
-6290.6730335252141
 20
8763.6761894656483
 30
0.0
 11
-6290.0730335252147
 21
8763.6761894656483
 31
0.0
  0
LINE
  5
9A96
  8
FUTO
 10
-6290.6730335252141
 20
8763.6761894656483
 30
0.0
 11
-6290.0730335252147
 21
8763.6761894656483
 31
0.0
  0
DIMENSION
  5
9A97
  8
SP
  2
*D17
 10
-6203.1523511139931
 20
8603.6761894656483
 30
0.0
 11
-6228.152351113994
 21
8683.6761894656465
 31
0.0
 70
     0
 13
-6283.6730335252141
 23
8763.6761894656483
 33
0.0
 14
-6283.6730335252141
 24
8603.6761894656483
 34
0.0
 50
90.0
1001
ACAD
1000
DSTYLE
1002
{
1070
     3
1000
φ<>
1002
}
  0
ENDSEC
  0
EOF
