  0
SECTION
  2
HEADER
  9
$ACADVER
  1
AC1009
  9
$INSBASE
 10
0.0
 20
0.0
 30
0.0
  9
$EXTMIN
 10
1720.3435473019961
 20
7555.2190595897273
 30
0.0
  9
$EXTMAX
 10
3820.3435473019958
 20
10505.219059589719
 30
0.0
  9
$LIMMIN
 10
0.0
 20
0.0
  9
$LIMMAX
 10
297.0
 20
210.0
  9
$ORTHOMODE
 70
     0
  9
$REGENMODE
 70
     1
  9
$FILLMODE
 70
     1
  9
$QTEXTMODE
 70
     0
  9
$MIRRTEXT
 70
     0
  9
$DRAGMODE
 70
     2
  9
$LTSCALE
 40
25.0
  9
$OSMODE
 70
   545
  9
$ATTMODE
 70
     1
  9
$TEXTSIZE
 40
3.5
  9
$TRACEWID
 40
0.05
  9
$TEXTSTYLE
  7
STANDARD
  9
$CLAYER
  8
SP
  9
$CELTYPE
  6
BYLAYER
  9
$CECOLOR
 62
   256
  9
$DIMSCALE
 40
10.0
  9
$DIMASZ
 40
2.5
  9
$DIMEXO
 40
1.0
  9
$DIMDLI
 40
7.0
  9
$DIMRND
 40
0.0
  9
$DIMDLE
 40
0.0
  9
$DIMEXE
 40
1.0
  9
$DIMTP
 40
0.0
  9
$DIMTM
 40
0.0
  9
$DIMTXT
 40
3.0
  9
$DIMCEN
 40
0.0
  9
$DIMTSZ
 40
0.0
  9
$DIMTOL
 70
     0
  9
$DIMLIM
 70
     0
  9
$DIMTIH
 70
     0
  9
$DIMTOH
 70
     0
  9
$DIMSE1
 70
     0
  9
$DIMSE2
 70
     0
  9
$DIMTAD
 70
     1
  9
$DIMZIN
 70
     8
  9
$DIMBLK
  1

  9
$DIMASO
 70
     1
  9
$DIMSHO
 70
     1
  9
$DIMPOST
  1

  9
$DIMAPOST
  1

  9
$DIMALT
 70
     0
  9
$DIMALTD
 70
     2
  9
$DIMALTF
 40
0.03937
  9
$DIMLFAC
 40
1.0
  9
$DIMTOFL
 70
     1
  9
$DIMTVP
 40
0.0
  9
$DIMTIX
 70
     0
  9
$DIMSOXD
 70
     0
  9
$DIMSAH
 70
     1
  9
$DIMBLK1
  1
OPEN
  9
$DIMBLK2
  1
OPEN
  9
$DIMSTYLE
  2
GOD
  9
$DIMCLRD
 70
   256
  9
$DIMCLRE
 70
   256
  9
$DIMCLRT
 70
   256
  9
$DIMTFAC
 40
1.0
  9
$DIMGAP
 40
1.0
  9
$LUNITS
 70
     2
  9
$LUPREC
 70
     3
  9
$SKETCHINC
 40
0.1
  9
$FILLETRAD
 40
0.0
  9
$AUNITS
 70
     0
  9
$AUPREC
 70
     2
  9
$MENU
  1
acad
  9
$ELEVATION
 40
0.0
  9
$PELEVATION
 40
0.0
  9
$THICKNESS
 40
0.0
  9
$LIMCHECK
 70
     0
  9
$BLIPMODE
 70
     0
  9
$CHAMFERA
 40
0.0
  9
$CHAMFERB
 40
0.0
  9
$SKPOLY
 70
     0
  9
$TDCREATE
 40
2454894.5465396061
  9
$TDUPDATE
 40
2454953.83162471
  9
$TDINDWG
 40
0.3251680208
  9
$TDUSRTIMER
 40
0.3251680208
  9
$USRTIMER
 70
     1
  9
$ANGBASE
 50
0.0
  9
$ANGDIR
 70
     0
  9
$PDMODE
 70
     0
  9
$PDSIZE
 40
1.0
  9
$PLINEWID
 40
0.0
  9
$COORDS
 70
     2
  9
$SPLFRAME
 70
     0
  9
$SPLINETYPE
 70
     6
  9
$SPLINESEGS
 70
     8
  9
$ATTDIA
 70
     0
  9
$ATTREQ
 70
     1
  9
$HANDLING
 70
 22529
  9
$HANDSEED
  5
9AD4
  9
$SURFTAB1
 70
     6
  9
$SURFTAB2
 70
     6
  9
$SURFTYPE
 70
     6
  9
$SURFU
 70
     6
  9
$SURFV
 70
     6
  9
$UCSNAME
  2

  9
$UCSORG
 10
0.0
 20
0.0
 30
0.0
  9
$UCSXDIR
 10
1.0
 20
0.0
 30
0.0
  9
$UCSYDIR
 10
0.0
 20
1.0
 30
0.0
  9
$PUCSNAME
  2

  9
$PUCSORG
 10
0.0
 20
0.0
 30
0.0
  9
$PUCSXDIR
 10
1.0
 20
0.0
 30
0.0
  9
$PUCSYDIR
 10
0.0
 20
1.0
 30
0.0
  9
$USERI1
 70
     0
  9
$USERI2
 70
     0
  9
$USERI3
 70
     0
  9
$USERI4
 70
     0
  9
$USERI5
 70
     0
  9
$USERR1
 40
0.0
  9
$USERR2
 40
0.0
  9
$USERR3
 40
0.0
  9
$USERR4
 40
0.0
  9
$USERR5
 40
0.0
  9
$WORLDVIEW
 70
     1
  9
$SHADEDGE
 70
     3
  9
$SHADEDIF
 70
    70
  9
$TILEMODE
 70
     1
  9
$MAXACTVP
 70
    16
  9
$PLIMCHECK
 70
     0
  9
$PEXTMIN
 10
1.0000000000000000E+020
 20
1.0000000000000000E+020
 30
1.0000000000000000E+020
  9
$PEXTMAX
 10
-1.0000000000000000E+020
 20
-1.0000000000000000E+020
 30
-1.0000000000000000E+020
  9
$PLIMMIN
 10
0.0
 20
0.0
  9
$PLIMMAX
 10
12.0
 20
9.0
  9
$UNITMODE
 70
     0
  9
$VISRETAIN
 70
     0
  9
$PLINEGEN
 70
     0
  9
$PSLTSCALE
 70
     0
  0
ENDSEC
  0
SECTION
  2
TABLES
  0
TABLE
  2
VPORT
 70
     2
  0
VPORT
  2
*ACTIVE
 70
     0
 10
0.0
 20
0.0
 11
1.0
 21
1.0
 12
2957.2110689141568
 22
9030.0065181736736
 13
0.0
 23
0.0
 14
5.0
 24
5.0
 15
0.0
 25
0.0
 16
0.0
 26
0.0
 36
1.0
 17
0.0
 27
0.0
 37
0.0
 40
2974.5593762569151
 41
1.6307901907356941
 42
50.0
 43
0.0
 44
0.0
 50
0.0
 51
0.0
 71
     0
 72
   100
 73
     1
 74
     0
 75
     0
 76
     0
 77
     0
 78
     0
  0
ENDTAB
  0
TABLE
  2
LTYPE
 70
     2
  0
LTYPE
  2
CONTINUOUS
 70
     0
  3
Solid line
 72
    65
 73
     0
 40
0.0
  0
LTYPE
  2
CENTER
 70
     0
  3
____ _ ____ _ ____ _ ____ _ ____ _ ____ _ ____ 
 72
    65
 73
     4
 40
2.0
 49
1.25
 49
-0.25
 49
0.25
 49
-0.25
  0
ENDTAB
  0
TABLE
  2
LAYER
 70
     7
  0
LAYER
  2
0
 70
     0
 62
     7
  6
CONTINUOUS
  0
LAYER
  2
CT
 70
     0
 62
     3
  6
CENTER
  0
LAYER
  2
FUTO
 70
     0
 62
     4
  6
CONTINUOUS
  0
LAYER
  2
HOSO
 70
     0
 62
     7
  6
CONTINUOUS
  0
LAYER
  2
SP
 70
     0
 62
     2
  6
CONTINUOUS
  0
LAYER
  2
DEFPOINTS
 70
     0
 62
     7
  6
CONTINUOUS
  0
LAYER
  2
4
 70
     0
 62
     7
  6
CONTINUOUS
  0
ENDTAB
  0
TABLE
  2
STYLE
 70
     1
  0
STYLE
  2
STANDARD
 70
     0
 40
0.0
 41
1.0
 50
15.0
 71
     0
 42
3.5
  3
C:\Program Files\AutoCAD LT\simplex.shx
  4
C:\Program Files\AutoCAD LT\extfont.shx
  0
ENDTAB
  0
TABLE
  2
VIEW
 70
     0
  0
ENDTAB
  0
TABLE
  2
UCS
 70
     0
  0
ENDTAB
  0
TABLE
  2
APPID
 70
     1
  0
APPID
  2
ACAD
 70
     0
  0
ENDTAB
  0
TABLE
  2
DIMSTYLE
 70
     2
  0
DIMSTYLE
  2
STANDARD
 70
     0
  3

  4

  5

  6

  7

 40
1.0
 41
0.18
 42
0.0625
 43
0.38
 44
0.18
 45
0.0
 46
0.0
 47
0.0
 48
0.0
140
0.18
141
0.09
142
0.0
143
25.399999999999999
144
1.0
145
0.0
146
1.0
147
0.09
 71
     0
 72
     0
 73
     1
 74
     1
 75
     0
 76
     0
 77
     0
 78
     0
170
     0
171
     2
172
     0
173
     0
174
     0
175
     0
176
     0
177
     0
178
     0
  0
DIMSTYLE
  2
GOD
 70
     0
  3

  4

  5

  6
OPEN
  7
OPEN
 40
10.0
 41
2.5
 42
1.0
 43
7.0
 44
1.0
 45
0.0
 46
0.0
 47
0.0
 48
0.0
140
3.0
141
0.0
142
0.0
143
0.03937
144
1.0
145
0.0
146
1.0
147
1.0
 71
     0
 72
     0
 73
     0
 74
     0
 75
     0
 76
     0
 77
     1
 78
     8
170
     0
171
     2
172
     1
173
     1
174
     0
175
     0
176
   256
177
   256
178
   256
  0
ENDTAB
  0
ENDSEC
  0
SECTION
  2
BLOCKS
  0
BLOCK
  8
0
  2
$MODEL_SPACE
 70
     0
 10
0.0
 20
0.0
 30
0.0
  3
$MODEL_SPACE
  1

  0
ENDBLK
  5
1B
  8
0
  0
BLOCK
 67
     1
  8
0
  2
$PAPER_SPACE
 70
     0
 10
0.0
 20
0.0
 30
0.0
  3
$PAPER_SPACE
  1

  0
ENDBLK
  5
18
 67
     1
  8
0
  0
BLOCK
  8
0
  2
_OPEN
 70
     0
 10
0.0
 20
0.0
 30
0.0
  3
_OPEN
  1

  0
LINE
  5
1E81
  8
0
  6
BYBLOCK
 62
     0
 10
-1.0
 20
0.1666666666666666
 30
0.0
 11
0.0
 21
0.0
 31
0.0
  0
LINE
  5
1E82
  8
0
  6
BYBLOCK
 62
     0
 10
0.0
 20
0.0
 30
0.0
 11
-1.0
 21
-0.1666666666666666
 31
0.0
  0
LINE
  5
1E83
  8
0
  6
BYBLOCK
 62
     0
 10
0.0
 20
0.0
 30
0.0
 11
-1.0
 21
0.0
 31
0.0
  0
ENDBLK
  5
1E84
  8
0
  0
BLOCK
  8
0
  2
*D1
 70
     1
 10
0.0
 20
0.0
 30
0.0
  3
*D1
  1

  0
LINE
  5
96B3
  8
SP
 10
2404.1211529572138
 20
8461.4288100448593
 30
0.0
 11
2404.1211529572138
 21
8403.6761894656465
 31
0.0
  0
LINE
  5
96B4
  8
SP
 10
2264.1211529572138
 20
8473.6761894656465
 30
0.0
 11
2264.1211529572138
 21
8403.6761894656465
 31
0.0
  0
LINE
  5
96B5
  8
SP
 10
2379.1211529572138
 20
8413.6761894656483
 30
0.0
 11
2289.1211529572138
 21
8413.6761894656483
 31
0.0
  0
INSERT
  5
96B6
  8
SP
  2
_OPEN
 10
2404.1211529572138
 20
8413.6761894656483
 30
0.0
 41
25.0
 42
25.0
 43
25.0
  0
INSERT
  5
96B7
  8
SP
  2
_OPEN
 10
2264.1211529572138
 20
8413.6761894656483
 30
0.0
 41
25.0
 42
25.0
 43
25.0
 50
180.0
  0
TEXT
  5
96B8
  8
SP
 10
2292.6138154267442
 20
8423.6761894656483
 30
0.0
 40
30.0
  1
140
 51
15.0
  0
POINT
  5
96B9
  8
DEFPOINTS
 62
     0
 10
2404.1211529572138
 20
8471.4288100448593
 30
0.0
  0
POINT
  5
96BA
  8
DEFPOINTS
 62
     0
 10
2264.1211529572138
 20
8483.6761894656483
 30
0.0
  0
POINT
  5
96BB
  8
DEFPOINTS
 62
     0
 10
2264.1211529572138
 20
8413.6761894656483
 30
0.0
  0
ENDBLK
  5
5DDC
  8
0
  0
BLOCK
  8
0
  2
*D2
 70
     1
 10
0.0
 20
0.0
 30
0.0
  3
*D2
  1

  0
LINE
  5
96BC
  8
SP
 10
2264.1211529572138
 20
8473.6761894656465
 30
0.0
 11
2264.1211529572138
 21
8333.6761894656483
 31
0.0
  0
LINE
  5
96BD
  8
SP
 10
2544.1211529572129
 20
8473.6761894656465
 30
0.0
 11
2544.1211529572129
 21
8333.6761894656483
 31
0.0
  0
LINE
  5
96BE
  8
SP
 10
2289.1211529572138
 20
8343.6761894656483
 30
0.0
 11
2519.1211529572129
 21
8343.6761894656483
 31
0.0
  0
INSERT
  5
96BF
  8
SP
  2
_OPEN
 10
2264.1211529572138
 20
8343.6761894656483
 30
0.0
 41
25.0
 42
25.0
 43
25.0
 50
180.0
  0
INSERT
  5
96C0
  8
SP
  2
_OPEN
 10
2544.1211529572129
 20
8343.6761894656483
 30
0.0
 41
25.0
 42
25.0
 43
25.0
  0
TEXT
  5
96C1
  8
SP
 10
2363.0103413348361
 20
8353.6761894656483
 30
0.0
 40
30.0
  1
280
 51
15.0
  0
POINT
  5
96C2
  8
DEFPOINTS
 62
     0
 10
2264.1211529572138
 20
8483.6761894656483
 30
0.0
  0
POINT
  5
96C3
  8
DEFPOINTS
 62
     0
 10
2544.1211529572129
 20
8483.6761894656483
 30
0.0
  0
POINT
  5
96C4
  8
DEFPOINTS
 62
     0
 10
2544.1211529572129
 20
8343.6761894656483
 30
0.0
  0
ENDBLK
  5
5DE8
  8
0
  0
BLOCK
  8
0
  2
*D3
 70
     1
 10
0.0
 20
0.0
 30
0.0
  3
*D3
  1

  0
LINE
  5
96C5
  8
SP
 10
2404.1211529572138
 20
8461.4288100448593
 30
0.0
 11
2404.1211529572138
 21
8403.6761894656465
 31
0.0
  0
LINE
  5
96C6
  8
SP
 10
2544.1211529572129
 20
8473.6761894656465
 30
0.0
 11
2544.1211529572129
 21
8403.6761894656465
 31
0.0
  0
LINE
  5
96C7
  8
SP
 10
2429.1211529572138
 20
8413.6761894656483
 30
0.0
 11
2519.1211529572129
 21
8413.6761894656483
 31
0.0
  0
INSERT
  5
96C8
  8
SP
  2
_OPEN
 10
2404.1211529572138
 20
8413.6761894656483
 30
0.0
 41
25.0
 42
25.0
 43
25.0
 50
180.0
  0
INSERT
  5
96C9
  8
SP
  2
_OPEN
 10
2544.1211529572129
 20
8413.6761894656483
 30
0.0
 41
25.0
 42
25.0
 43
25.0
  0
TEXT
  5
96CA
  8
SP
 10
2432.6138154267428
 20
8423.6761894656483
 30
0.0
 40
30.0
  1
140
 51
15.0
  0
POINT
  5
96CB
  8
DEFPOINTS
 62
     0
 10
2404.1211529572138
 20
8471.4288100448593
 30
0.0
  0
POINT
  5
96CC
  8
DEFPOINTS
 62
     0
 10
2544.1211529572129
 20
8483.6761894656483
 30
0.0
  0
POINT
  5
96CD
  8
DEFPOINTS
 62
     0
 10
2544.1211529572129
 20
8413.6761894656483
 30
0.0
  0
ENDBLK
  5
5DF4
  8
0
  0
BLOCK
  8
0
  2
*D4
 70
     1
 10
0.0
 20
0.0
 30
0.0
  3
*D4
  1

  0
LINE
  5
9706
  8
SP
 10
2597.2193008122381
 20
8683.6761894656483
 30
0.0
 11
2656.1211529572151
 21
8683.6761894656483
 31
0.0
  0
LINE
  5
9707
  8
SP
 10
2596.1211529572151
 20
8813.6761894656483
 30
0.0
 11
2656.1211529572151
 21
8813.6761894656483
 31
0.0
  0
LINE
  5
9708
  8
SP
 10
2646.1211529572138
 20
8708.6761894656483
 30
0.0
 11
2646.1211529572138
 21
8788.6761894656483
 31
0.0
  0
INSERT
  5
9709
  8
SP
  2
_OPEN
 10
2646.1211529572138
 20
8683.6761894656483
 30
0.0
 41
25.0
 42
25.0
 43
25.0
 50
270.0
  0
INSERT
  5
970A
  8
SP
  2
_OPEN
 10
2646.1211529572138
 20
8813.6761894656483
 30
0.0
 41
25.0
 42
25.0
 43
25.0
 50
90.0
  0
TEXT
  5
970B
  8
SP
 10
2636.1211529572129
 20
8707.1688519351774
 30
0.0
 40
30.0
  1
130
 50
90.0
 51
15.0
  0
POINT
  5
970C
  8
DEFPOINTS
 62
     0
 10
2587.2193008122372
 20
8683.6761894656483
 30
0.0
  0
POINT
  5
970D
  8
DEFPOINTS
 62
     0
 10
2586.1211529572151
 20
8813.6761894656483
 30
0.0
  0
POINT
  5
970E
  8
DEFPOINTS
 62
     0
 10
2646.1211529572138
 20
8813.6761894656483
 30
0.0
  0
ENDBLK
  5
5E47
  8
0
  0
BLOCK
  8
0
  2
*D5
 70
     1
 10
0.0
 20
0.0
 30
0.0
  3
*D5
  1

  0
LINE
  5
9698
  8
SP
 10
2554.1211529572151
 20
8483.6761894656483
 30
0.0
 11
2656.1211529572151
 21
8483.6761894656483
 31
0.0
  0
LINE
  5
9699
  8
SP
 10
2597.2193008122381
 20
8683.6761894656483
 30
0.0
 11
2656.1211529572151
 21
8683.6761894656483
 31
0.0
  0
LINE
  5
969A
  8
SP
 10
2646.1211529572138
 20
8508.6761894656483
 30
0.0
 11
2646.1211529572138
 21
8658.6761894656502
 31
0.0
  0
INSERT
  5
969B
  8
SP
  2
_OPEN
 10
2646.1211529572138
 20
8483.6761894656483
 30
0.0
 41
25.0
 42
25.0
 43
25.0
 50
270.0
  0
INSERT
  5
969C
  8
SP
  2
_OPEN
 10
2646.1211529572138
 20
8683.6761894656483
 30
0.0
 41
25.0
 42
25.0
 43
25.0
 50
90.0
  0
TEXT
  5
969D
  8
SP
 10
2636.1211529572129
 20
8542.5653778432716
 30
0.0
 40
30.0
  1
200
 50
90.0
 51
15.0
  0
POINT
  5
969E
  8
DEFPOINTS
 62
     0
 10
2544.1211529572138
 20
8483.6761894656483
 30
0.0
  0
POINT
  5
969F
  8
DEFPOINTS
 62
     0
 10
2587.2193008122372
 20
8683.6761894656483
 30
0.0
  0
POINT
  5
96A0
  8
DEFPOINTS
 62
     0
 10
2646.1211529572138
 20
8683.6761894656483
 30
0.0
  0
ENDBLK
  5
5E53
  8
0
  0
BLOCK
  8
0
  2
*D6
 70
     1
 10
0.0
 20
0.0
 30
0.0
  3
*D6
  1

  0
LINE
  5
96F4
  8
SP
 10
2564.1211529572138
 20
8823.6761894656483
 30
0.0
 11
2564.1211529572138
 21
8893.6761894656483
 31
0.0
  0
LINE
  5
96F5
  8
SP
 10
2404.1211529572138
 20
8846.1327277346227
 30
0.0
 11
2404.1211529572138
 21
8893.6761894656483
 31
0.0
  0
LINE
  5
96F6
  8
SP
 10
2539.1211529572138
 20
8883.6761894656483
 30
0.0
 11
2429.1211529572151
 21
8883.6761894656483
 31
0.0
  0
INSERT
  5
96F7
  8
SP
  2
_OPEN
 10
2564.1211529572138
 20
8883.6761894656483
 30
0.0
 41
25.0
 42
25.0
 43
25.0
  0
INSERT
  5
96F8
  8
SP
  2
_OPEN
 10
2404.1211529572138
 20
8883.6761894656483
 30
0.0
 41
25.0
 42
25.0
 43
25.0
 50
180.0
  0
TEXT
  5
96F9
  8
SP
 10
2442.6138154267442
 20
8893.6761894656483
 30
0.0
 40
30.0
  1
160
 51
15.0
  0
POINT
  5
96FA
  8
DEFPOINTS
 62
     0
 10
2564.1211529572138
 20
8813.6761894656483
 30
0.0
  0
POINT
  5
96FB
  8
DEFPOINTS
 62
     0
 10
2404.1211529572138
 20
8836.1327277346227
 30
0.0
  0
POINT
  5
96FC
  8
DEFPOINTS
 62
     0
 10
2404.1211529572138
 20
8883.6761894656483
 30
0.0
  0
ENDBLK
  5
643F
  8
0
  0
BLOCK
  8
0
  2
*D7
 70
     1
 10
0.0
 20
0.0
 30
0.0
  3
*D7
  1

  0
LINE
  5
96EB
  8
SP
 10
2404.1211529572138
 20
8846.1327277346227
 30
0.0
 11
2404.1211529572138
 21
8893.6761894656483
 31
0.0
  0
LINE
  5
96EC
  8
SP
 10
2292.1211529572138
 20
8682.6761894656483
 30
0.0
 11
2292.1211529572138
 21
8893.6761894656483
 31
0.0
  0
LINE
  5
96ED
  8
SP
 10
2379.1211529572138
 20
8883.6761894656483
 30
0.0
 11
2317.1211529572138
 21
8883.6761894656483
 31
0.0
  0
INSERT
  5
96EE
  8
SP
  2
_OPEN
 10
2404.1211529572138
 20
8883.6761894656483
 30
0.0
 41
25.0
 42
25.0
 43
25.0
  0
INSERT
  5
96EF
  8
SP
  2
_OPEN
 10
2292.1211529572138
 20
8883.6761894656483
 30
0.0
 41
25.0
 42
25.0
 43
25.0
 50
180.0
  0
TEXT
  5
96F0
  8
SP
 10
2309.4709582838868
 20
8893.6761894656483
 30
0.0
 40
30.0
  1
112
 51
15.0
  0
POINT
  5
96F1
  8
DEFPOINTS
 62
     0
 10
2404.1211529572138
 20
8836.1327277346227
 30
0.0
  0
POINT
  5
96F2
  8
DEFPOINTS
 62
     0
 10
2292.1211529572138
 20
8672.6761894656483
 30
0.0
  0
POINT
  5
96F3
  8
DEFPOINTS
 62
     0
 10
2292.1211529572138
 20
8883.6761894656483
 30
0.0
  0
ENDBLK
  5
644C
  8
0
  0
BLOCK
  8
0
  2
*D8
 70
     1
 10
0.0
 20
0.0
 30
0.0
  3
*D8
  1

  0
LINE
  5
96D9
  8
SP
 10
3163.7622074881142
 20
8933.6761894656483
 30
0.0
 11
3163.7622074881142
 21
8963.6761894656483
 31
0.0
  0
LINE
  5
96DA
  8
SP
 10
2902.8154285066421
 20
8750.2404894656484
 30
0.0
 11
2902.8154285066421
 21
8963.6761894656483
 31
0.0
  0
LINE
  5
96DB
  8
SP
 10
3138.7622074881142
 20
8953.6761894656483
 30
0.0
 11
2927.8154285066421
 21
8953.6761894656483
 31
0.0
  0
INSERT
  5
96DC
  8
SP
  2
_OPEN
 10
3163.7622074881142
 20
8953.6761894656483
 30
0.0
 41
25.0
 42
25.0
 43
25.0
  0
INSERT
  5
96DD
  8
SP
  2
_OPEN
 10
2902.8154285066421
 20
8953.6761894656483
 30
0.0
 41
25.0
 42
25.0
 43
25.0
 50
180.0
  0
TEXT
  5
96DE
  8
SP
 10
2966.3791162569769
 20
8963.6761894656483
 30
0.0
 40
30.0
  1
（330）
 51
15.0
  0
POINT
  5
96DF
  8
DEFPOINTS
 62
     0
 10
3163.7622074881142
 20
8923.6761894656483
 30
0.0
  0
POINT
  5
96E0
  8
DEFPOINTS
 62
     0
 10
2902.8154285066421
 20
8740.2404894656484
 30
0.0
  0
POINT
  5
96E1
  8
DEFPOINTS
 62
     0
 10
2902.8154285066421
 20
8953.6761894656483
 30
0.0
  0
ENDBLK
  5
75C1
  8
0
  0
BLOCK
  8
0
  2
*D9
 70
     1
 10
0.0
 20
0.0
 30
0.0
  3
*D9
  1

  0
LINE
  5
9723
  8
SP
 10
3163.7622074881142
 20
8933.6761894656483
 30
0.0
 11
3163.7622074881142
 21
8963.6761894656483
 31
0.0
  0
LINE
  5
9724
  8
SP
 10
3226.7622074881142
 20
8791.6761894656483
 30
0.0
 11
3226.7622074881142
 21
8963.6761894656483
 31
0.0
  0
LINE
  5
9725
  8
SP
 10
3138.7622074881142
 20
8953.6761894656483
 30
0.0
 11
3113.7622074881151
 21
8953.6761894656483
 31
0.0
  0
LINE
  5
9726
  8
SP
 10
3251.7622074881142
 20
8953.6761894656483
 30
0.0
 11
3349.3666152934861
 21
8953.6761894656483
 31
0.0
  0
LINE
  5
9727
  8
SP
 10
3163.7622074881142
 20
8953.6761894656483
 30
0.0
 11
3226.7622074881142
 21
8953.6761894656483
 31
0.0
  0
INSERT
  5
9728
  8
SP
  2
_OPEN
 10
3163.7622074881142
 20
8953.6761894656483
 30
0.0
 41
25.0
 42
25.0
 43
25.0
  0
INSERT
  5
9729
  8
SP
  2
_OPEN
 10
3226.7622074881142
 20
8953.6761894656483
 30
0.0
 41
25.0
 42
25.0
 43
25.0
 50
180.0
  0
TEXT
  5
972A
  8
SP
 10
3284.1852823776958
 20
8963.6761894656483
 30
0.0
 40
30.0
  1
63
 51
15.0
  0
POINT
  5
972B
  8
DEFPOINTS
 62
     0
 10
3163.7622074881142
 20
8923.6761894656483
 30
0.0
  0
POINT
  5
972C
  8
DEFPOINTS
 62
     0
 10
3226.7622074881142
 20
8781.6761894656465
 30
0.0
  0
POINT
  5
972D
  8
DEFPOINTS
 62
     0
 10
3226.7622074881142
 20
8953.6761894656483
 30
0.0
  0
ENDBLK
  5
75CF
  8
0
  0
BLOCK
  8
0
  2
*D10
 70
     1
 10
0.0
 20
0.0
 30
0.0
  3
*D10
  1

  0
LINE
  5
96A1
  8
SP
 10
3100.7622074881151
 20
8473.6761894656465
 30
0.0
 11
3100.7622074881151
 21
8403.6761894656465
 31
0.0
  0
LINE
  5
96A2
  8
SP
 10
2930.7622074881151
 20
8473.6761894656465
 30
0.0
 11
2930.7622074881151
 21
8403.6761894656465
 31
0.0
  0
LINE
  5
96A3
  8
SP
 10
3075.7622074881142
 20
8413.6761894656483
 30
0.0
 11
2955.7622074881151
 21
8413.6761894656483
 31
0.0
  0
INSERT
  5
96A4
  8
SP
  2
_OPEN
 10
3100.7622074881151
 20
8413.6761894656483
 30
0.0
 41
25.0
 42
25.0
 43
25.0
  0
INSERT
  5
96A5
  8
SP
  2
_OPEN
 10
2930.7622074881151
 20
8413.6761894656483
 30
0.0
 41
25.0
 42
25.0
 43
25.0
 50
180.0
  0
TEXT
  5
96A6
  8
SP
 10
2974.2548699576441
 20
8423.6761894656483
 30
0.0
 40
30.0
  1
170
 51
15.0
  0
POINT
  5
96A7
  8
DEFPOINTS
 62
     0
 10
3100.7622074881151
 20
8483.6761894656447
 30
0.0
  0
POINT
  5
96A8
  8
DEFPOINTS
 62
     0
 10
2930.7622074881151
 20
8483.6761894656483
 30
0.0
  0
POINT
  5
96A9
  8
DEFPOINTS
 62
     0
 10
2930.7622074881151
 20
8413.6761894656483
 30
0.0
  0
ENDBLK
  5
75DB
  8
0
  0
BLOCK
  8
0
  2
*D11
 70
     1
 10
0.0
 20
0.0
 30
0.0
  3
*D11
  1

  0
LINE
  5
96AA
  8
SP
 10
2930.7622074881151
 20
8473.6761894656465
 30
0.0
 11
2930.7622074881151
 21
8333.6761894656483
 31
0.0
  0
LINE
  5
96AB
  8
SP
 10
3163.7622074881142
 20
8426.6839105243525
 30
0.0
 11
3163.7622074881142
 21
8333.6761894656483
 31
0.0
  0
LINE
  5
96AC
  8
SP
 10
2955.7622074881151
 20
8343.6761894656483
 30
0.0
 11
3138.7622074881142
 21
8343.6761894656483
 31
0.0
  0
INSERT
  5
96AD
  8
SP
  2
_OPEN
 10
2930.7622074881151
 20
8343.6761894656483
 30
0.0
 41
25.0
 42
25.0
 43
25.0
 50
180.0
  0
INSERT
  5
96AE
  8
SP
  2
_OPEN
 10
3163.7622074881142
 20
8343.6761894656483
 30
0.0
 41
25.0
 42
25.0
 43
25.0
  0
TEXT
  5
96AF
  8
SP
 10
3005.3858267445039
 20
8353.6761894656483
 30
0.0
 40
30.0
  1
233
 51
15.0
  0
POINT
  5
96B0
  8
DEFPOINTS
 62
     0
 10
2930.7622074881151
 20
8483.6761894656483
 30
0.0
  0
POINT
  5
96B1
  8
DEFPOINTS
 62
     0
 10
3163.7622074881142
 20
8436.6839105243525
 30
0.0
  0
POINT
  5
96B2
  8
DEFPOINTS
 62
     0
 10
3163.7622074881142
 20
8343.6761894656483
 30
0.0
  0
ENDBLK
  5
75E7
  8
0
  0
BLOCK
  8
0
  2
*D12
 70
     1
 10
0.0
 20
0.0
 30
0.0
  3
*D12
  1

  0
LINE
  5
96CE
  8
SP
 10
3100.7622074881151
 20
8473.6761894656465
 30
0.0
 11
3100.7622074881151
 21
8403.6761894656465
 31
0.0
  0
LINE
  5
96CF
  8
SP
 10
3163.7622074881142
 20
8426.6839105243525
 30
0.0
 11
3163.7622074881142
 21
8403.6761894656465
 31
0.0
  0
LINE
  5
96D0
  8
SP
 10
3075.7622074881142
 20
8413.6761894656483
 30
0.0
 11
3050.7622074881142
 21
8413.6761894656483
 31
0.0
  0
LINE
  5
96D1
  8
SP
 10
3188.7622074881142
 20
8413.6761894656483
 30
0.0
 11
3286.3666152934861
 21
8413.6761894656483
 31
0.0
  0
LINE
  5
96D2
  8
SP
 10
3100.7622074881151
 20
8413.6761894656483
 30
0.0
 11
3163.7622074881142
 21
8413.6761894656483
 31
0.0
  0
INSERT
  5
96D3
  8
SP
  2
_OPEN
 10
3100.7622074881151
 20
8413.6761894656483
 30
0.0
 41
25.0
 42
25.0
 43
25.0
  0
INSERT
  5
96D4
  8
SP
  2
_OPEN
 10
3163.7622074881142
 20
8413.6761894656483
 30
0.0
 41
25.0
 42
25.0
 43
25.0
 50
180.0
  0
TEXT
  5
96D5
  8
SP
 10
3221.1852823776958
 20
8423.6761894656483
 30
0.0
 40
30.0
  1
63
 51
15.0
  0
POINT
  5
96D6
  8
DEFPOINTS
 62
     0
 10
3100.7622074881151
 20
8483.6761894656447
 30
0.0
  0
POINT
  5
96D7
  8
DEFPOINTS
 62
     0
 10
3163.7622074881142
 20
8436.6839105243525
 30
0.0
  0
POINT
  5
96D8
  8
DEFPOINTS
 62
     0
 10
3163.7622074881142
 20
8413.6761894656483
 30
0.0
  0
ENDBLK
  5
75F3
  8
0
  0
BLOCK
  8
0
  2
*D13
 70
     1
 10
0.0
 20
0.0
 30
0.0
  3
*D13
  1

  0
LINE
  5
9AB9
  8
SP
 10
3236.7622074881142
 20
8763.6761894656483
 30
0.0
 11
3313.976355226921
 21
8763.6761894656483
 31
0.0
  0
LINE
  5
9ABA
  8
SP
 10
3236.7622074881142
 20
8603.6761894656483
 30
0.0
 11
3313.976355226921
 21
8603.6761894656483
 31
0.0
  0
LINE
  5
9ABB
  8
SP
 10
3303.976355226921
 20
8738.6761894656483
 30
0.0
 11
3303.976355226921
 21
8628.6761894656483
 31
0.0
  0
INSERT
  5
9ABC
  8
SP
  2
_OPEN
 10
3303.976355226921
 20
8763.6761894656483
 30
0.0
 41
25.0
 42
25.0
 43
25.0
 50
90.0
  0
INSERT
  5
9ABD
  8
SP
  2
_OPEN
 10
3303.976355226921
 20
8603.6761894656483
 30
0.0
 41
25.0
 42
25.0
 43
25.0
 50
270.0
  0
TEXT
  5
9ABE
  8
SP
 10
3293.9763552269201
 20
8631.7622666625666
 30
0.0
 40
30.0
  1
φ160
 50
90.0
 51
15.0
  0
POINT
  5
9ABF
  8
DEFPOINTS
 62
     0
 10
3226.7622074881142
 20
8763.6761894656483
 30
0.0
  0
POINT
  5
9AC0
  8
DEFPOINTS
 62
     0
 10
3226.7622074881142
 20
8603.6761894656483
 30
0.0
  0
POINT
  5
9AC1
  8
DEFPOINTS
 62
     0
 10
3303.976355226921
 20
8603.6761894656483
 30
0.0
  0
ENDBLK
  5
75FF
  8
0
  0
BLOCK
  8
0
  2
*D14
 70
     1
 10
0.0
 20
0.0
 30
0.0
  3
*D14
  1

  0
LINE
  5
971A
  8
SP
 10
3107.7622074881142
 20
8823.6761894656483
 30
0.0
 11
3107.7622074881142
 21
8893.6761894656483
 31
0.0
  0
LINE
  5
971B
  8
SP
 10
3219.7622074881142
 20
8823.6761894656483
 30
0.0
 11
3219.7622074881142
 21
8893.6761894656483
 31
0.0
  0
LINE
  5
971C
  8
SP
 10
3132.7622074881151
 20
8883.6761894656483
 30
0.0
 11
3194.7622074881142
 21
8883.6761894656483
 31
0.0
  0
INSERT
  5
971D
  8
SP
  2
_OPEN
 10
3107.7622074881142
 20
8883.6761894656483
 30
0.0
 41
25.0
 42
25.0
 43
25.0
 50
180.0
  0
INSERT
  5
971E
  8
SP
  2
_OPEN
 10
3219.7622074881142
 20
8883.6761894656483
 30
0.0
 41
25.0
 42
25.0
 43
25.0
  0
TEXT
  5
971F
  8
SP
 10
3125.1120128147868
 20
8893.6761894656483
 30
0.0
 40
30.0
  1
112
 51
15.0
  0
POINT
  5
9720
  8
DEFPOINTS
 62
     0
 10
3107.7622074881142
 20
8813.6761894656483
 30
0.0
  0
POINT
  5
9721
  8
DEFPOINTS
 62
     0
 10
3219.7622074881142
 20
8813.6761894656483
 30
0.0
  0
POINT
  5
9722
  8
DEFPOINTS
 62
     0
 10
3219.7622074881142
 20
8883.6761894656483
 30
0.0
  0
ENDBLK
  5
760B
  8
0
  0
BLOCK
  8
0
  2
*D15
 70
     1
 10
0.0
 20
0.0
 30
0.0
  3
*D15
  1

  0
LINE
  5
96E2
  8
SP
 10
2254.1211529572138
 20
9481.5412464436013
 30
0.0
 11
2177.8282441346742
 21
9481.5412464436013
 31
0.0
  0
LINE
  5
96E3
  8
SP
 10
2254.1211529572138
 20
9311.5412464436013
 30
0.0
 11
2177.8282441346742
 21
9311.5412464436013
 31
0.0
  0
LINE
  5
96E4
  8
SP
 10
2187.8282441346742
 20
9456.5412464436013
 30
0.0
 11
2187.8282441346742
 21
9336.5412464436013
 31
0.0
  0
INSERT
  5
96E5
  8
SP
  2
_OPEN
 10
2187.8282441346742
 20
9481.5412464436013
 30
0.0
 41
25.0
 42
25.0
 43
25.0
 50
90.0
  0
INSERT
  5
96E6
  8
SP
  2
_OPEN
 10
2187.8282441346742
 20
9311.5412464436013
 30
0.0
 41
25.0
 42
25.0
 43
25.0
 50
270.0
  0
TEXT
  5
96E7
  8
SP
 10
2177.8282441346719
 20
9355.0339089131303
 30
0.0
 40
30.0
  1
170
 50
90.0
 51
15.0
  0
POINT
  5
96E8
  8
DEFPOINTS
 62
     0
 10
2264.1211529572138
 20
9481.5412464436013
 30
0.0
  0
POINT
  5
96E9
  8
DEFPOINTS
 62
     0
 10
2264.1211529572138
 20
9311.5412464436013
 30
0.0
  0
POINT
  5
96EA
  8
DEFPOINTS
 62
     0
 10
2187.8282441346742
 20
9311.5412464436013
 30
0.0
  0
ENDBLK
  5
8A34
  8
0
  0
BLOCK
  8
0
  2
*D16
 70
     1
 10
0.0
 20
0.0
 30
0.0
  3
*D16
  1

  0
LINE
  5
970F
  8
SP
 10
2254.1211529572138
 20
9481.5412464436013
 30
0.0
 11
2177.8282441346742
 21
9481.5412464436013
 31
0.0
  0
LINE
  5
9710
  8
SP
 10
2237.2403538340541
 20
9544.5412464436013
 30
0.0
 11
2177.8282441346742
 21
9544.5412464436013
 31
0.0
  0
LINE
  5
9711
  8
SP
 10
2187.8282441346742
 20
9456.5412464436013
 30
0.0
 11
2187.8282441346742
 21
9431.5412464435994
 31
0.0
  0
LINE
  5
9712
  8
SP
 10
2187.8282441346742
 20
9569.5412464436013
 30
0.0
 11
2187.8282441346742
 21
9667.1456542489723
 31
0.0
  0
LINE
  5
9713
  8
SP
 10
2187.8282441346742
 20
9481.5412464436013
 30
0.0
 11
2187.8282441346742
 21
9544.5412464436013
 31
0.0
  0
INSERT
  5
9714
  8
SP
  2
_OPEN
 10
2187.8282441346742
 20
9481.5412464436013
 30
0.0
 41
25.0
 42
25.0
 43
25.0
 50
90.0
  0
INSERT
  5
9715
  8
SP
  2
_OPEN
 10
2187.8282441346742
 20
9544.5412464436013
 30
0.0
 41
25.0
 42
25.0
 43
25.0
 50
270.0
  0
TEXT
  5
9716
  8
SP
 10
2177.8282441346719
 20
9601.9643213331819
 30
0.0
 40
30.0
  1
63
 50
90.0
 51
15.0
  0
POINT
  5
9717
  8
DEFPOINTS
 62
     0
 10
2264.1211529572138
 20
9481.5412464436013
 30
0.0
  0
POINT
  5
9718
  8
DEFPOINTS
 62
     0
 10
2247.2403538340541
 20
9544.5412464436013
 30
0.0
  0
POINT
  5
9719
  8
DEFPOINTS
 62
     0
 10
2187.8282441346742
 20
9544.5412464436013
 30
0.0
  0
ENDBLK
  5
8A43
  8
0
  0
BLOCK
  8
0
  2
*D17
 70
     1
 10
0.0
 20
0.0
 30
0.0
  3
*D17
  1

  0
LINE
  5
96FD
  8
SP
 10
2264.1211529572138
 20
9301.5412464436013
 30
0.0
 11
2264.1211529572138
 21
9193.5944674621278
 31
0.0
  0
LINE
  5
96FE
  8
SP
 10
2544.1211529572138
 20
9301.5412464436013
 30
0.0
 11
2544.1211529572138
 21
9193.5944674621278
 31
0.0
  0
LINE
  5
96FF
  8
SP
 10
2289.1211529572138
 20
9203.5944674621278
 30
0.0
 11
2519.1211529572138
 21
9203.5944674621278
 31
0.0
  0
INSERT
  5
9700
  8
SP
  2
_OPEN
 10
2264.1211529572138
 20
9203.5944674621278
 30
0.0
 41
25.0
 42
25.0
 43
25.0
 50
180.0
  0
INSERT
  5
9701
  8
SP
  2
_OPEN
 10
2544.1211529572138
 20
9203.5944674621278
 30
0.0
 41
25.0
 42
25.0
 43
25.0
  0
TEXT
  5
9702
  8
SP
 10
2363.0103413348361
 20
9213.5944674621278
 30
0.0
 40
30.0
  1
280
 51
15.0
  0
POINT
  5
9703
  8
DEFPOINTS
 62
     0
 10
2264.1211529572138
 20
9311.5412464436013
 30
0.0
  0
POINT
  5
9704
  8
DEFPOINTS
 62
     0
 10
2544.1211529572138
 20
9311.5412464436013
 30
0.0
  0
POINT
  5
9705
  8
DEFPOINTS
 62
     0
 10
2544.1211529572138
 20
9203.5944674621278
 30
0.0
  0
ENDBLK
  5
8ABD
  8
0
  0
ENDSEC
  0
SECTION
  2
ENTITIES
  0
ARC
  5
5D61
  8
FUTO
 10
2415.1211529572138
 20
8672.6761894656483
 30
0.0
 40
123.0
 50
179.5135224137598
 51
270.44507939625589
  0
ARC
  5
5D62
  8
FUTO
 10
2415.1211529572138
 20
8672.6761894656483
 30
0.0
 40
135.0
 50
179.5135224137598
 51
270.44507939625589
  0
ARC
  5
5D63
  8
FUTO
 10
2395.1211529572138
 20
8674.6761894656483
 30
0.0
 40
115.0
 50
94.265608915666306
 51
180.53161476225981
  0
ARC
  5
5D64
  8
FUTO
 10
2395.1211529572138
 20
8674.6761894656483
 30
0.0
 40
103.0
 50
94.265608915666306
 51
180.53161476225981
  0
ARC
  5
5D65
  8
FUTO
 10
2404.1228177655271
 20
8679.9893469090002
 30
0.0
 40
64.186850605661149
 50
296.75862288962992
 51
243.29312137770901
  0
CIRCLE
  5
5D66
  8
CT
 10
2404.1211529572138
 20
8683.6761894656483
 30
0.0
 40
90.0
  0
LINE
  5
5D67
  8
FUTO
 10
2298.921152957214
 20
8620.6761894656483
 30
0.0
 11
2509.3211529572131
 21
8620.6761894656483
 31
0.0
  0
LINE
  5
5D68
  8
FUTO
 10
2464.1211529572138
 20
8602.2761894656469
 30
0.0
 11
2344.1211529572138
 21
8602.2761894656487
 31
0.0
  0
LINE
  5
5D69
  8
CT
 10
2587.2193008122372
 20
8683.6761894656483
 30
0.0
 11
2258.27552052079
 21
8683.6761894656483
 31
0.0
  0
LINE
  5
5D6A
  8
FUTO
 10
2369.1211529572138
 20
8788.6761894656483
 30
0.0
 11
2439.1211529572138
 21
8788.6761894656483
 31
0.0
  0
LINE
  5
5D6B
  8
FUTO
 10
2433.1193529572151
 20
8622.6761894656483
 30
0.0
 11
2375.2204529572141
 21
8622.6761894656483
 31
0.0
  0
DIMENSION
  5
5D6C
  8
SP
  2
*D1
 10
2264.1211529572138
 20
8413.6761894656483
 30
0.0
 11
2334.1211529572138
 21
8438.6761894656483
 31
0.0
 70
     0
 13
2404.1211529572138
 23
8471.4288100448593
 33
0.0
 14
2264.1211529572138
 24
8483.6761894656483
 34
0.0
  0
DIMENSION
  5
5D6D
  8
SP
  2
*D2
 10
2544.1211529572129
 20
8343.6761894656483
 30
0.0
 11
2404.1211529572129
 21
8368.6761894656483
 31
0.0
 70
     0
 13
2264.1211529572138
 23
8483.6761894656483
 33
0.0
 14
2544.1211529572129
 24
8483.6761894656483
 34
0.0
  0
LINE
  5
5D6E
  8
FUTO
 10
2567.1211529572151
 20
8812.6761894656483
 30
0.0
 11
2382.1211529572138
 21
8812.6761894656483
 31
0.0
  0
LINE
  5
5D6F
  8
FUTO
 10
2586.1211529572151
 20
8813.6761894656483
 30
0.0
 11
2382.1211529572138
 21
8813.6761894656483
 31
0.0
  0
LINE
  5
5D70
  8
FUTO
 10
2550.1211529572138
 20
8798.6761894656483
 30
0.0
 11
2418.1211529572151
 21
8798.6761894656483
 31
0.0
  0
ARC
  5
5D71
  8
FUTO
 10
2417.1211529572138
 20
8696.6761894656483
 30
0.0
 40
147.0
 50
312.71864451436312
 51
0.0
  0
ARC
  5
5D72
  8
FUTO
 10
2417.1211529572138
 20
8696.6761894656483
 30
0.0
 40
159.0
 50
317.2153050893574
 51
0.0
  0
LINE
  5
5D73
  8
FUTO
 10
2515.7211529572141
 20
8483.6761894656483
 30
0.0
 11
2544.1211529572129
 21
8483.6761894656483
 31
0.0
  0
LINE
  5
5D74
  8
FUTO
 10
2515.1211529572129
 20
8485.2761894656487
 30
0.0
 11
2544.1211529572129
 21
8485.2761894656487
 31
0.0
  0
DIMENSION
  5
5D75
  8
SP
  2
*D3
 10
2544.1211529572129
 20
8413.6761894656483
 30
0.0
 11
2474.1211529572129
 21
8438.6761894656483
 31
0.0
 70
     0
 13
2404.1211529572138
 23
8471.4288100448593
 33
0.0
 14
2544.1211529572129
 24
8483.6761894656483
 34
0.0
  0
LINE
  5
5D76
  8
FUTO
 10
2544.1211529572138
 20
8483.6761894656483
 30
0.0
 11
2544.1211529572129
 21
8485.2761894656487
 31
0.0
  0
LINE
  5
5D77
  8
FUTO
 10
2576.1211529572138
 20
8798.6761894656483
 30
0.0
 11
2576.1211529572138
 21
8696.6761894656483
 31
0.0
  0
LINE
  5
5D78
  8
FUTO
 10
2564.1211529572138
 20
8813.6761894656483
 30
0.0
 11
2564.1211529572138
 21
8696.6761894656483
 31
0.0
  0
LINE
  5
5D79
  8
FUTO
 10
2586.1211529572151
 20
8812.6761894656483
 30
0.0
 11
2567.1211529572151
 21
8812.6761894656483
 31
0.0
  0
LINE
  5
5D7A
  8
FUTO
 10
2586.1211529572151
 20
8813.6761894656483
 30
0.0
 11
2586.1211529572151
 21
8812.6761894656483
 31
0.0
  0
LINE
  5
5D7B
  8
FUTO
 10
2561.7069393948409
 20
8810.261975903275
 30
0.0
 11
2550.1211529572138
 21
8798.6761894656483
 31
0.0
  0
LINE
  5
5D7C
  8
CT
 10
2576.1211529572138
 20
8820.8610350440813
 30
0.0
 11
2576.1211529572138
 21
8804.2998756768156
 31
0.0
  0
ARC
  5
5D7D
  8
FUTO
 10
2563.1211529572151
 20
8808.8477623409017
 30
0.0
 40
2.0
 50
0.0
 51
134.99999999999071
  0
LINE
  5
5D7E
  8
FUTO
 10
2565.1211529572138
 20
8810.6761894656483
 30
0.0
 11
2565.1211529572138
 21
8798.6761894656483
 31
0.0
  0
ARC
  5
5D7F
  8
FUTO
 10
2567.1211529572151
 20
8810.6761894656483
 30
0.0
 40
2.0
 50
89.999999999999986
 51
179.99999999999989
  0
LINE
  5
5D80
  8
FUTO
 10
2576.1211529572138
 20
8798.6761894656483
 30
0.0
 11
2564.1211529572138
 21
8798.6761894656483
 31
0.0
  0
LINE
  5
5D81
  8
FUTO
 10
2510.9211529572131
 20
8533.8761894656491
 30
0.0
 11
2510.921152957214
 21
8617.4761894656476
 31
0.0
  0
LINE
  5
5D82
  8
FUTO
 10
2512.5211529572139
 20
8534.8761894656491
 30
0.0
 11
2512.5211529572139
 21
8618.4761894656476
 31
0.0
  0
ARC
  5
5D83
  8
FUTO
 10
2417.1211529572138
 20
8696.6761894656483
 30
0.0
 40
159.0
 50
269.59287178573129
 51
317.2153050893574
  0
ARC
  5
5D84
  8
FUTO
 10
2417.1211529572138
 20
8696.6761894656483
 30
0.0
 40
147.0
 50
269.59287178573129
 51
312.71864451436312
  0
LINE
  5
5D85
  8
FUTO
 10
2514.1211529572129
 20
8486.2139049737361
 30
0.0
 11
2514.1211529572138
 21
8713.6761894656483
 31
0.0
  0
LINE
  5
5D86
  8
FUTO
 10
2512.5211529572139
 20
8486.6761894656483
 30
0.0
 11
2512.5211529572139
 21
8715.2761894656487
 31
0.0
  0
LINE
  5
5D87
  8
CT
 10
2404.1211529572138
 20
8836.1327277346227
 30
0.0
 11
2404.1211529572138
 21
8471.4288100448593
 31
0.0
  0
LINE
  5
5D88
  8
CT
 10
2531.1211529572129
 20
8470.7003335502104
 30
0.0
 11
2531.1211529572129
 21
8492.7003335502086
 31
0.0
  0
ARC
  5
5D89
  8
FUTO
 10
2512.5211529572139
 20
8483.6761894656483
 30
0.0
 40
3.0
 50
0.0000000000000085
 51
0.1194908935784608
  0
ARC
  5
5D8A
  8
FUTO
 10
2515.1211529572129
 20
8486.2761894656487
 30
0.0
 40
1.0
 50
180.0
 51
270.0
  0
ARC
  5
5D8B
  8
FUTO
 10
2515.7211529572141
 20
8486.8761894656491
 30
0.0
 40
3.2000000000000002
 50
180.0
 51
270.0
  0
LINE
  5
5D8C
  8
CT
 10
2503.2869403383802
 20
8548.8761894656509
 30
0.0
 11
2522.7611419489408
 21
8548.8761894656509
 31
0.0
  0
LINE
  5
5D8D
  8
FUTO
 10
2512.521152957213
 20
8533.8761894656491
 30
0.0
 11
2510.9211529572131
 21
8533.8761894656491
 31
0.0
  0
LINE
  5
5D8E
  8
FUTO
 10
2438.1211529572151
 20
8620.6761894656483
 30
0.0
 11
2468.1211529572138
 21
8620.6761894656483
 31
0.0
  0
LINE
  5
5D8F
  8
FUTO
 10
2514.1211529572138
 20
8713.6761894656483
 30
0.0
 11
2439.1211529572138
 21
8788.6761894656483
 31
0.0
  0
LINE
  5
5D90
  8
FUTO
 10
2453.7060529572141
 20
8637.3912894656496
 30
0.0
 11
2468.1211529572138
 21
8622.9761894656476
 31
0.0
  0
LINE
  5
5D91
  8
FUTO
 10
2468.1211529572138
 20
8622.9761894656476
 30
0.0
 11
2439.257252957214
 21
8622.9761894656476
 31
0.0
  0
LINE
  5
5D92
  8
FUTO
 10
2494.9601501716988
 20
8619.0761894656498
 30
0.0
 11
2509.3211529572131
 21
8619.0761894656498
 31
0.0
  0
LINE
  5
5D93
  8
CT
 10
2503.2869403383811
 20
8603.8761894656491
 30
0.0
 11
2522.7611419489408
 21
8603.8761894656491
 31
0.0
  0
ARC
  5
5D94
  8
FUTO
 10
2509.3211529572131
 20
8617.4761894656476
 30
0.0
 40
3.2000000000000002
 50
0.0000000000000085
 51
90.0
  0
ARC
  5
5D95
  8
FUTO
 10
2509.3211529572131
 20
8617.4761894656476
 30
0.0
 40
1.6000000000000001
 50
0.0000000000000085
 51
90.0
  0
LINE
  5
5D96
  8
FUTO
 10
2497.8971975254599
 20
8620.6761894656483
 30
0.0
 11
2464.1211529572138
 21
8602.2761894656487
 31
0.0
  0
LINE
  5
5D97
  8
CT
 10
2495.585226675832
 20
8645.7905296615063
 30
0.0
 11
2478.9553950906279
 21
8652.6788314440764
 31
0.0
  0
CIRCLE
  5
5D98
  8
FUTO
 10
2487.2703108832302
 20
8649.2346805527923
 30
0.0
 40
4.0
  0
LINE
  5
5D99
  8
FUTO
 10
2468.1211529572138
 20
8622.9761894656476
 30
0.0
 11
2468.1211529572138
 21
8620.6761894656483
 31
0.0
  0
LINE
  5
5D9A
  8
CT
 10
2495.585226675832
 20
8721.5618492697922
 30
0.0
 11
2478.9553950906279
 21
8714.6735474872203
 31
0.0
  0
CIRCLE
  5
5D9B
  8
FUTO
 10
2487.2703108832302
 20
8718.1176983785081
 30
0.0
 40
4.0
  0
LINE
  5
5D9C
  8
CT
 10
2442.0068127613581
 20
8775.1402631842666
 30
0.0
 11
2435.1185109787862
 21
8758.5104315990629
 31
0.0
  0
CIRCLE
  5
5D9D
  8
FUTO
 10
2438.5626618700721
 20
8766.8253473916666
 30
0.0
 40
4.0
  0
CIRCLE
  5
5D9E
  8
FUTO
 10
2438.5626618700721
 20
8600.5270315396338
 30
0.0
 40
4.0
  0
LINE
  5
5D9F
  8
CT
 10
2442.0068127613581
 20
8592.2121157470301
 30
0.0
 11
2435.1185109787871
 21
8608.8419473322356
 31
0.0
  0
ARC
  5
5DA0
  8
FUTO
 10
2439.2573529572151
 20
8626.6762894656495
 30
0.0
 40
3.7000999999999991
 50
218.82630000000199
 51
274.60909999999433
  0
ARC
  5
5DA1
  8
FUTO
 10
2438.9685529572139
 20
8627.1759894656498
 30
0.0
 40
5.9997999999999987
 50
220.71839999999469
 51
261.88309999999711
  0
LINE
  5
5DA2
  8
FUTO
 10
2438.1211529572151
 20
8621.2323894656474
 30
0.0
 11
2438.1211529572151
 21
8620.6761894656483
 31
0.0
  0
LINE
  5
5DA3
  8
FUTO
 10
2406.5353665195839
 20
8810.261975903275
 30
0.0
 11
2418.1211529572151
 21
8798.6761894656483
 31
0.0
  0
ARC
  5
5DA4
  8
FUTO
 10
2400.6669464141892
 20
8788.6761894656483
 30
0.0
 40
10.0
 50
89.999999999999986
 51
150.0000000000027
  0
ARC
  5
5DA5
  8
FUTO
 10
2386.1211529572151
 20
8795.3410144976351
 30
0.0
 40
18.0
 50
274.26560891566618
 51
354.69311266367549
  0
ARC
  5
5DA6
  8
FUTO
 10
2405.1211529572111
 20
8808.8477623409017
 30
0.0
 40
2.0
 50
45.000000000009187
 51
179.99999999999989
  0
LINE
  5
5DA7
  8
FUTO
 10
2403.1211529572138
 20
8810.6761894656483
 30
0.0
 11
2403.1211529572138
 21
8798.6761894656483
 31
0.0
  0
ARC
  5
5DA8
  8
FUTO
 10
2386.1211529572151
 20
8795.3410144976351
 30
0.0
 40
18.0
 50
354.69311266367549
 51
0.0
  0
LINE
  5
5DA9
  8
FUTO
 10
2404.1211529572138
 20
8798.6761894656483
 30
0.0
 11
2400.6669464141892
 21
8798.6761894656483
 31
0.0
  0
ARC
  5
5DAA
  8
FUTO
 10
2401.1211529572138
 20
8810.6761894656483
 30
0.0
 40
2.0
 50
0.0
 51
89.999999999999986
  0
LINE
  5
5DAB
  8
CT
 10
2392.1211529572138
 20
8820.8610350440813
 30
0.0
 11
2392.1211529572138
 21
8802.9924161740491
 31
0.0
  0
ARC
  5
5DAC
  8
FUTO
 10
2386.1211529572151
 20
8795.3410144976351
 30
0.0
 40
6.0
 50
274.26560891566618
 51
335.38293604451962
  0
ARC
  5
5DAD
  8
FUTO
 10
2400.6669464141892
 20
8788.6761894656483
 30
0.0
 40
10.0
 50
150.0000000000027
 51
155.38293604451411
  0
LINE
  5
5DAE
  8
FUTO
 10
2382.1211529572138
 20
8813.6761894656483
 30
0.0
 11
2382.1211529572138
 21
8812.6761894656483
 31
0.0
  0
LINE
  5
5DB0
  8
FUTO
 10
2295.7211529572141
 20
8533.8761894656491
 30
0.0
 11
2295.7211529572151
 21
8617.4761894656476
 31
0.0
  0
LINE
  5
5DB1
  8
FUTO
 10
2297.3211529572141
 20
8533.8761894656491
 30
0.0
 11
2297.3211529572141
 21
8617.4761894656476
 31
0.0
  0
LINE
  5
5DB2
  8
FUTO
 10
2294.1211529572138
 20
8486.2761894656487
 30
0.0
 11
2294.1211529572138
 21
8713.6761894656483
 31
0.0
  0
LINE
  5
5DB3
  8
FUTO
 10
2295.7211529572141
 20
8486.8761894656491
 30
0.0
 11
2295.7211529572151
 21
8715.2761894656487
 31
0.0
  0
LINE
  5
5DB4
  8
CT
 10
2285.8127110386231
 20
8548.8761894656509
 30
0.0
 11
2305.2869126491828
 21
8548.8761894656509
 31
0.0
  0
ARC
  5
5DB5
  8
FUTO
 10
2292.5211529572139
 20
8486.8761894656491
 30
0.0
 40
3.2000000000000002
 50
270.0
 51
0.0000000000000085
  0
LINE
  5
5DB6
  8
FUTO
 10
2295.7211529572141
 20
8533.8761894656491
 30
0.0
 11
2297.3211529572141
 21
8533.8761894656491
 31
0.0
  0
LINE
  5
5DB7
  8
FUTO
 10
2293.1211529572138
 20
8485.2761894656487
 30
0.0
 11
2264.1211529572138
 21
8485.2761894656487
 31
0.0
  0
LINE
  5
5DB8
  8
FUTO
 10
2292.5211529572139
 20
8483.6761894656483
 30
0.0
 11
2264.1211529572138
 21
8483.6761894656483
 31
0.0
  0
ARC
  5
5DB9
  8
FUTO
 10
2293.1211529572138
 20
8486.2761894656487
 30
0.0
 40
1.0
 50
270.0
 51
0.0000000000000085
  0
LINE
  5
5DBA
  8
CT
 10
2277.1211529572138
 20
8470.7003335502104
 30
0.0
 11
2277.1211529572138
 21
8492.7003335502086
 31
0.0
  0
LINE
  5
5DBB
  8
FUTO
 10
2264.1211529572138
 20
8483.6761894656483
 30
0.0
 11
2264.1211529572138
 21
8485.2761894656487
 31
0.0
  0
LINE
  5
5DBC
  8
FUTO
 10
2294.1211529572138
 20
8713.6761894656483
 30
0.0
 11
2369.1211529572138
 21
8788.6761894656483
 31
0.0
  0
LINE
  5
5DBD
  8
CT
 10
2285.8127110386231
 20
8603.8761894656491
 30
0.0
 11
2305.2869126491828
 21
8603.8761894656491
 31
0.0
  0
LINE
  5
5DBE
  8
CT
 10
2366.2354931530699
 20
8775.1402631842648
 30
0.0
 11
2373.1237949356409
 21
8758.5104315990629
 31
0.0
  0
CIRCLE
  5
5DBF
  8
FUTO
 10
2369.6796440443559
 20
8766.8253473916648
 30
0.0
 40
4.0
  0
LINE
  5
5DC0
  8
FUTO
 10
2310.3451083889681
 20
8620.6761894656483
 30
0.0
 11
2344.1211529572138
 21
8602.2761894656487
 31
0.0
  0
LINE
  5
5DC1
  8
FUTO
 10
2370.1211529572151
 20
8620.6761894656483
 30
0.0
 11
2340.1211529572138
 21
8620.6761894656483
 31
0.0
  0
LINE
  5
5DC2
  8
FUTO
 10
2369.308552957214
 20
8622.9761894656476
 30
0.0
 11
2340.3848529572128
 21
8622.9761894656476
 31
0.0
  0
ARC
  5
5DC3
  8
FUTO
 10
2369.042552957214
 20
8626.2763894656491
 30
0.0
 40
3.3001999999999989
 50
270.00130000000058
 51
326.01850000000201
  0
LINE
  5
5DC4
  8
FUTO
 10
2370.1211529572151
 20
8621.2520894656463
 30
0.0
 11
2370.1211529572151
 21
8620.6761894656483
 31
0.0
  0
CIRCLE
  5
5DC5
  8
FUTO
 10
2369.6796440443559
 20
8600.5270315396338
 30
0.0
 40
4.0
  0
LINE
  5
5DC6
  8
CT
 10
2366.2354931530699
 20
8592.2121157470301
 30
0.0
 11
2373.1237949356419
 21
8608.8419473322356
 31
0.0
  0
ARC
  5
5DC7
  8
FUTO
 10
2369.1004529572142
 20
8627.1760894656491
 30
0.0
 40
5.9999000000000002
 50
279.6292000000023
 51
320.9463999999993
  0
LINE
  5
5DC8
  8
FUTO
 10
2354.775252957214
 20
8637.6302894656474
 30
0.0
 11
2340.1211529572138
 21
8622.9761894656476
 31
0.0
  0
LINE
  5
5DC9
  8
FUTO
 10
2340.1211529572138
 20
8622.9761894656476
 30
0.0
 11
2340.1211529572138
 21
8620.6761894656483
 31
0.0
  0
LINE
  5
5DCA
  8
CT
 10
2312.657079238596
 20
8645.7905296615045
 30
0.0
 11
2329.2869108238001
 21
8652.6788314440764
 31
0.0
  0
CIRCLE
  5
5DCB
  8
FUTO
 10
2320.9719950311978
 20
8649.2346805527905
 30
0.0
 40
4.0
  0
ARC
  5
5DCC
  8
FUTO
 10
2298.921152957214
 20
8617.4761894656476
 30
0.0
 40
3.2000000000000002
 50
90.0
 51
180.0
  0
LINE
  5
5DCD
  8
FUTO
 10
2298.921152957214
 20
8619.0761894656498
 30
0.0
 11
2313.2821557427292
 21
8619.076189465648
 31
0.0
  0
ARC
  5
5DCE
  8
FUTO
 10
2298.921152957214
 20
8617.4761894656476
 30
0.0
 40
1.6000000000000001
 50
90.0
 51
180.0
  0
LINE
  5
5DCF
  8
CT
 10
2312.657079238596
 20
8721.5618492697922
 30
0.0
 11
2329.2869108238001
 21
8714.6735474872203
 31
0.0
  0
CIRCLE
  5
5DD0
  8
FUTO
 10
2320.9719950311978
 20
8718.1176983785081
 30
0.0
 40
4.0
  0
DIMENSION
  5
5E3A
  8
SP
  2
*D4
 10
2646.1211529572138
 20
8813.6761894656483
 30
0.0
 11
2621.1211529572129
 21
8748.6761894656483
 31
0.0
 70
     0
 13
2587.2193008122372
 23
8683.6761894656483
 33
0.0
 14
2586.1211529572151
 24
8813.6761894656483
 34
0.0
 50
90.0
  0
DIMENSION
  5
5E3B
  8
SP
  2
*D5
 10
2646.1211529572138
 20
8683.6761894656483
 30
0.0
 11
2621.1211529572129
 21
8583.6761894656483
 31
0.0
 70
     0
 13
2544.1211529572138
 23
8483.6761894656483
 33
0.0
 14
2587.2193008122372
 24
8683.6761894656483
 34
0.0
 50
90.0
  0
DIMENSION
  5
6433
  8
SP
  2
*D6
 10
2404.1211529572138
 20
8883.6761894656483
 30
0.0
 11
2484.1211529572138
 21
8908.6761894656502
 31
0.0
 70
     0
 13
2564.1211529572138
 23
8813.6761894656483
 33
0.0
 14
2404.1211529572138
 24
8836.1327277346227
 34
0.0
  0
DIMENSION
  5
6440
  8
SP
  2
*D7
 10
2292.1211529572138
 20
8883.6761894656483
 30
0.0
 11
2348.1211529572138
 21
8908.6761894656502
 31
0.0
 70
     0
 13
2404.1211529572138
 23
8836.1327277346227
 33
0.0
 14
2292.1211529572138
 24
8672.6761894656483
 34
0.0
  0
LINE
  5
74A6
  8
CT
 10
2399.5024776616729
 20
9584.5412464436013
 30
0.0
 11
2384.739828252757
 21
9584.5412464436013
 31
0.0
  0
LINE
  5
74A7
  8
CT
 10
2399.5024776616729
 20
9504.5412464436013
 30
0.0
 11
2384.739828252757
 21
9504.5412464436013
 31
0.0
  0
ARC
  5
74A8
  8
FUTO
 10
2402.1211529572151
 20
9487.5412464436013
 30
0.0
 40
20.0
 50
180.0
 51
270.0
  0
ARC
  5
74A9
  8
FUTO
 10
2402.1211529572151
 20
9601.5412464436013
 30
0.0
 40
20.0
 50
90.0
 51
180.0
  0
LINE
  5
74B5
  8
CT
 10
2241.7526339273568
 20
9544.5412464436013
 30
0.0
 11
2605.607011480341
 21
9544.5412464436013
 31
0.0
  0
LINE
  5
74B6
  8
FUTO
 10
2382.1211529572138
 20
9601.5412464436013
 30
0.0
 11
2382.1211529572138
 21
9487.5412464436013
 31
0.0
  0
LINE
  5
74B7
  8
FUTO
 10
2280.7211529572151
 20
9496.2831962449382
 30
0.0
 11
2280.7211529572151
 21
9592.7992966422607
 31
0.0
  0
LINE
  5
74B8
  8
FUTO
 10
2280.1211529572138
 20
9496.2831962449382
 30
0.0
 11
2280.1211529572138
 21
9592.7992966422607
 31
0.0
  0
LINE
  5
74C4
  8
FUTO
 10
2288.7211529572151
 20
9488.2831962449382
 30
0.0
 11
2382.1211529572151
 21
9488.2831962449382
 31
0.0
  0
LINE
  5
74C5
  8
FUTO
 10
2288.7211529572151
 20
9487.6831962449396
 30
0.0
 11
2382.1211529572151
 21
9487.6831962449396
 31
0.0
  0
ARC
  5
74C9
  8
FUTO
 10
2288.7211529572151
 20
9496.2831962449382
 30
0.0
 40
8.5999999999999996
 50
180.0
 51
270.0
  0
ARC
  5
74CA
  8
FUTO
 10
2288.7211529572151
 20
9496.2831962449382
 30
0.0
 40
8.0
 50
180.0
 51
270.0
  0
POINT
  5
74D6
  8
DEFPOINTS
 10
2382.1211529572138
 20
9487.5412464436013
 30
0.0
  0
LINE
  5
74D7
  8
FUTO
 10
2285.7867761556081
 20
9600.8831962449403
 30
0.0
 11
2382.1211529572151
 21
9600.8831962449403
 31
0.0
  0
LINE
  5
74D8
  8
FUTO
 10
2285.894273628865
 20
9600.2831962449363
 30
0.0
 11
2382.1211529572151
 21
9600.2831962449363
 31
0.0
  0
ARC
  5
74DA
  8
FUTO
 10
2288.7211529572151
 20
9592.7992966422607
 30
0.0
 40
8.5999999999999996
 50
109.95040400980091
 51
180.0
  0
ARC
  5
74DB
  8
FUTO
 10
2288.7211529572151
 20
9592.7992966422607
 30
0.0
 40
8.0
 50
110.69296086014189
 51
180.0
  0
LINE
  5
74E0
  8
FUTO
 10
2566.1211529572138
 20
9591.5412464436013
 30
0.0
 11
2566.1211529572138
 21
9497.5412464436013
 31
0.0
  0
LINE
  5
74E1
  8
FUTO
 10
2586.1211529572151
 20
9601.5412464436013
 30
0.0
 11
2586.1211529572151
 21
9487.5412464436013
 31
0.0
  0
LINE
  5
74E2
  8
FUTO
 10
2402.1211529572151
 20
9591.5412464436013
 30
0.0
 11
2402.1211529572151
 21
9497.5412464436013
 31
0.0
  0
LINE
  5
74E3
  8
HOSO
 10
2563.1922207690809
 20
9598.6123142554643
 30
0.0
 11
2405.0500851453498
 21
9490.4701786317346
 31
0.0
  0
LINE
  5
74E4
  8
HOSO
 10
2563.1922207690809
 20
9490.4701786317346
 30
0.0
 11
2405.0500851453498
 21
9598.6123142554643
 31
0.0
  0
LINE
  5
74E5
  8
CT
 10
2404.1211529572138
 20
9656.5326023159414
 30
0.0
 11
2404.1211529572138
 21
9256.3458193096176
 31
0.0
  0
LINE
  5
74E6
  8
FUTO
 10
2556.1211529572138
 20
9487.5412464436013
 30
0.0
 11
2412.1211529572138
 21
9487.5412464436013
 31
0.0
  0
LINE
  5
74E7
  8
FUTO
 10
2566.1211529572138
 20
9467.5412464435994
 30
0.0
 11
2402.1211529572151
 21
9467.5412464435994
 31
0.0
  0
ARC
  5
74F8
  8
FUTO
 10
2412.1211529572151
 20
9497.5412464436013
 30
0.0
 40
10.0
 50
180.0
 51
270.0
  0
CIRCLE
  5
74F9
  8
FUTO
 10
2392.1211529572151
 20
9504.5412464436013
 30
0.0
 40
4.0
  0
LINE
  5
74FA
  8
CT
 10
2392.1211529572161
 20
9497.1599217391413
 30
0.0
 11
2392.1211529572161
 21
9511.9225711480576
 31
0.0
  0
LINE
  5
74FF
  8
CT
 10
2434.1211529572151
 20
9470.1599217391431
 30
0.0
 11
2434.1211529572151
 21
9484.9225711480613
 31
0.0
  0
CIRCLE
  5
7500
  8
FUTO
 10
2434.1211529572151
 20
9477.5412464436013
 30
0.0
 40
4.0
  0
LINE
  5
7501
  8
CT
 10
2441.5024776616729
 20
9477.5412464436013
 30
0.0
 11
2426.739828252757
 21
9477.5412464436013
 31
0.0
  0
LINE
  5
7507
  8
CT
 10
2541.5024776616729
 20
9477.5412464436013
 30
0.0
 11
2526.7398282527579
 21
9477.5412464436013
 31
0.0
  0
LINE
  5
7508
  8
CT
 10
2534.1211529572151
 20
9470.1599217391431
 30
0.0
 11
2534.1211529572151
 21
9484.9225711480613
 31
0.0
  0
CIRCLE
  5
7509
  8
FUTO
 10
2534.1211529572151
 20
9477.5412464436013
 30
0.0
 40
4.0
  0
ARC
  5
750D
  8
FUTO
 10
2566.1211529572151
 20
9487.5412464436013
 30
0.0
 40
20.0
 50
270.0
 51
0.0
  0
LINE
  5
750E
  8
CT
 10
2568.739828252757
 20
9504.5412464436013
 30
0.0
 11
2583.5024776616729
 21
9504.5412464436013
 31
0.0
  0
ARC
  5
750F
  8
FUTO
 10
2556.1211529572151
 20
9497.5412464436013
 30
0.0
 40
10.0
 50
270.0
 51
0.0
  0
CIRCLE
  5
7510
  8
FUTO
 10
2576.1211529572151
 20
9504.5412464436013
 30
0.0
 40
4.0
  0
LINE
  5
7511
  8
CT
 10
2576.1211529572138
 20
9497.1599217391413
 30
0.0
 11
2576.1211529572138
 21
9511.9225711480576
 31
0.0
  0
POINT
  5
7512
  8
DEFPOINTS
 10
2586.1211529572151
 20
9487.5412464436013
 30
0.0
  0
LINE
  5
7513
  8
FUTO
 10
2566.1211529572138
 20
9621.5412464436013
 30
0.0
 11
2402.1211529572151
 21
9621.5412464436013
 31
0.0
  0
LINE
  5
7514
  8
FUTO
 10
2556.1211529572138
 20
9601.5412464436013
 30
0.0
 11
2412.1211529572138
 21
9601.5412464436013
 31
0.0
  0
LINE
  5
7516
  8
CT
 10
2392.1211529572161
 20
9591.9225711480576
 30
0.0
 11
2392.1211529572161
 21
9577.1599217391413
 31
0.0
  0
ARC
  5
7517
  8
FUTO
 10
2412.1211529572151
 20
9591.5412464436013
 30
0.0
 40
10.0
 50
90.0
 51
180.0
  0
CIRCLE
  5
7518
  8
FUTO
 10
2392.1211529572151
 20
9584.5412464436013
 30
0.0
 40
4.0
  0
LINE
  5
7519
  8
CT
 10
2441.5024776616729
 20
9611.5412464436013
 30
0.0
 11
2426.739828252757
 21
9611.5412464436013
 31
0.0
  0
CIRCLE
  5
751A
  8
FUTO
 10
2434.1211529572151
 20
9611.5412464436013
 30
0.0
 40
4.0
  0
LINE
  5
751B
  8
CT
 10
2434.1211529572151
 20
9618.9225711480576
 30
0.0
 11
2434.1211529572151
 21
9604.1599217391413
 31
0.0
  0
LINE
  5
751E
  8
CT
 10
2541.5024776616729
 20
9611.5412464436013
 30
0.0
 11
2526.7398282527579
 21
9611.5412464436013
 31
0.0
  0
CIRCLE
  5
751F
  8
FUTO
 10
2534.1211529572151
 20
9611.5412464436013
 30
0.0
 40
4.0
  0
LINE
  5
7520
  8
CT
 10
2534.1211529572151
 20
9618.9225711480576
 30
0.0
 11
2534.1211529572151
 21
9604.1599217391413
 31
0.0
  0
ARC
  5
7521
  8
FUTO
 10
2566.1211529572151
 20
9601.5412464436013
 30
0.0
 40
20.0
 50
0.0
 51
90.0
  0
LINE
  5
7522
  8
CT
 10
2576.1211529572138
 20
9591.9225711480576
 30
0.0
 11
2576.1211529572138
 21
9577.1599217391413
 31
0.0
  0
LINE
  5
7523
  8
CT
 10
2568.739828252757
 20
9584.5412464436013
 30
0.0
 11
2583.5024776616729
 21
9584.5412464436013
 31
0.0
  0
ARC
  5
7524
  8
FUTO
 10
2556.1211529572151
 20
9591.5412464436013
 30
0.0
 40
10.0
 50
0.0
 51
90.0
  0
CIRCLE
  5
7525
  8
FUTO
 10
2576.1211529572151
 20
9584.5412464436013
 30
0.0
 40
4.0
  0
DIMENSION
  5
7529
  8
SP
  2
*D8
 10
2902.8154285066421
 20
8953.6761894656483
 30
0.0
 11
3033.2888179973779
 21
8978.6761894656483
 31
0.0
 70
     0
  1
（330）
 13
3163.7622074881142
 23
8923.6761894656483
 33
0.0
 14
2902.8154285066421
 24
8740.2404894656484
 34
0.0
  0
DIMENSION
  5
752A
  8
SP
  2
*D9
 10
3226.7622074881142
 20
8953.6761894656483
 30
0.0
 11
3313.0644113908002
 21
8978.6761894656483
 31
0.0
 70
     0
 13
3163.7622074881142
 23
8923.6761894656483
 33
0.0
 14
3226.7622074881142
 24
8781.6761894656465
 34
0.0
  0
LINE
  5
752D
  8
FUTO
 10
3040.7622074881142
 20
8656.8761894656473
 30
0.0
 11
3099.1622074881152
 21
8715.2761894656487
 31
0.0
  0
DIMENSION
  5
752E
  8
SP
  2
*D10
 10
2930.7622074881151
 20
8413.6761894656483
 30
0.0
 11
3015.7622074881142
 21
8438.6761894656483
 31
0.0
 70
     0
 13
3100.7622074881151
 23
8483.6761894656447
 33
0.0
 14
2930.7622074881151
 24
8483.6761894656483
 34
0.0
  0
DIMENSION
  5
752F
  8
SP
  2
*D11
 10
3163.7622074881142
 20
8343.6761894656483
 30
0.0
 11
3047.2622074881151
 21
8368.6761894656483
 31
0.0
 70
     0
 13
2930.7622074881151
 23
8483.6761894656483
 33
0.0
 14
3163.7622074881142
 24
8436.6839105243525
 34
0.0
  0
LINE
  5
7533
  8
CT
 10
2859.0217463120371
 20
8683.6761894656483
 30
0.0
 11
3245.5214802665009
 21
8683.6761894656483
 31
0.0
  0
LINE
  5
753E
  8
FUTO
 10
2927.9622074881149
 20
8619.0761894656498
 30
0.0
 11
3016.5314382573451
 21
8619.0761894656462
 31
0.0
  0
LINE
  5
753F
  8
FUTO
 10
2927.9622074881149
 20
8620.6761894656483
 30
0.0
 11
3017.5570792829858
 21
8620.6761894656483
 31
0.0
  0
LINE
  5
7540
  8
FUTO
 10
2930.7622074881151
 20
8485.2761894656487
 30
0.0
 11
3040.7622074881142
 21
8656.8761894656473
 31
0.0
  0
LINE
  5
7544
  8
FUTO
 10
2971.5634937461541
 20
8548.9261960281892
 30
0.0
 11
2933.3482469418332
 21
8619.0761894656498
 31
0.0
  0
ARC
  5
7547
  8
FUTO
 10
2927.9622074881149
 20
8617.4761894656476
 30
0.0
 40
1.6000000000000001
 50
90.0
 51
180.0
  0
ARC
  5
7548
  8
FUTO
 10
2927.9622074881149
 20
8617.4761894656476
 30
0.0
 40
3.2000000000000002
 50
90.0
 51
180.0
  0
LINE
  5
7549
  8
FUTO
 10
2924.7622074881151
 20
8602.2761894656487
 30
0.0
 11
2926.362207488115
 21
8602.2761894656487
 31
0.0
  0
LINE
  5
754A
  8
FUTO
 10
2924.7622074881142
 20
8602.2761894656487
 30
0.0
 11
2924.7622074881142
 21
8617.4761894656476
 31
0.0
  0
LINE
  5
754B
  8
FUTO
 10
2926.362207488115
 20
8602.2761894656487
 30
0.0
 11
2926.362207488115
 21
8617.4761894656476
 31
0.0
  0
LINE
  5
755D
  8
CT
 10
3163.7622074881142
 20
8436.6839105243525
 30
0.0
 11
3163.7622074881142
 21
8874.3420348391664
 31
0.0
  0
DIMENSION
  5
755E
  8
SP
  2
*D12
 10
3163.7622074881142
 20
8413.6761894656483
 30
0.0
 11
3250.0644113908011
 21
8438.6761894656483
 31
0.0
 70
     0
 13
3100.7622074881151
 23
8483.6761894656447
 33
0.0
 14
3163.7622074881142
 24
8436.6839105243525
 34
0.0
  0
DIMENSION
  5
755F
  8
SP
  2
*D13
 10
3303.976355226921
 20
8603.6761894656483
 30
0.0
 11
3278.9763552269192
 21
8683.6761894656483
 31
0.0
 70
     0
 13
3226.7622074881142
 23
8763.6761894656483
 33
0.0
 14
3226.7622074881142
 24
8603.6761894656483
 34
0.0
 50
90.0
1001
ACAD
1000
DSTYLE
1002
{
1070
     3
1000
φ<>
1002
}
  0
LINE
  5
7560
  8
FUTO
 10
3086.7622074881142
 20
8812.6761894656483
 30
0.0
 11
3240.7622074881151
 21
8812.6761894656483
 31
0.0
  0
LINE
  5
7561
  8
FUTO
 10
3086.7622074881142
 20
8813.6761894656483
 30
0.0
 11
3240.7622074881142
 21
8813.6761894656483
 31
0.0
  0
LINE
  5
7562
  8
FUTO
 10
3099.1622074881152
 20
8788.6761894656483
 30
0.0
 11
3099.1622074881152
 21
8483.6761894656483
 31
0.0
  0
LINE
  5
7563
  8
FUTO
 10
3100.7622074881151
 20
8788.6761894656483
 30
0.0
 11
3100.7622074881151
 21
8483.6761894656483
 31
0.0
  0
LINE
  5
7567
  8
FUTO
 10
3107.7622074881142
 20
8556.6761894656483
 30
0.0
 11
3107.7622074881142
 21
8813.6761894656483
 31
0.0
  0
LINE
  5
7568
  8
FUTO
 10
3107.1622074881138
 20
8556.6761894656483
 30
0.0
 11
3107.1622074881138
 21
8813.6761894656483
 31
0.0
  0
LINE
  5
7569
  8
FUTO
 10
3107.1622074881138
 20
8683.6761894656483
 30
0.0
 11
3107.1622074881138
 21
8813.6761894656483
 31
0.0
  0
LINE
  5
756A
  8
FUTO
 10
3220.362207488115
 20
8553.7418126640441
 30
0.0
 11
3220.3622074881132
 21
8813.6761894656483
 31
0.0
  0
LINE
  5
756B
  8
FUTO
 10
3219.7622074881142
 20
8553.8493101373006
 30
0.0
 11
3219.7622074881142
 21
8813.6761894656483
 31
0.0
  0
LINE
  5
756C
  8
FUTO
 10
3226.7622074881142
 20
8781.6761894656465
 30
0.0
 11
3226.7622074881142
 21
8663.2886948957093
 31
0.0
  0
LINE
  5
756D
  8
FUTO
 10
3115.7622074881142
 20
8548.6761894656502
 30
0.0
 11
3212.2783078854368
 21
8548.6761894656502
 31
0.0
  0
LINE
  5
756E
  8
FUTO
 10
3115.7622074881142
 20
8548.0761894656498
 30
0.0
 11
3212.2783078854368
 21
8548.0761894656498
 31
0.0
  0
LINE
  5
756F
  8
FUTO
 10
3100.7622074881151
 20
8663.2886948957093
 30
0.0
 11
3100.7622074881151
 21
8584.3352785927054
 31
0.0
  0
ARC
  5
7570
  8
FUTO
 10
3115.7622074881142
 20
8556.6761894656483
 30
0.0
 40
8.0
 50
180.0
 51
270.0
  0
ARC
  5
7571
  8
FUTO
 10
3115.7622074881142
 20
8556.6761894656483
 30
0.0
 40
8.5999999999999996
 50
180.0
 51
270.0
  0
ARC
  5
7572
  8
FUTO
 10
3102.2461070907921
 20
8585.6761894656483
 30
0.0
 40
2.0
 50
222.10222534310009
 51
270.0
  0
LINE
  5
7573
  8
FUTO
 10
3107.1622074881161
 20
8583.6761894656483
 30
0.0
 11
3102.2461070907921
 21
8583.6761894656483
 31
0.0
  0
LINE
  5
7574
  8
CT
 10
3111.48887070109
 20
8593.6761894656483
 30
0.0
 11
3096.9834834934072
 21
8593.6761894656483
 31
0.0
  0
LINE
  5
7578
  8
FUTO
 10
3226.7622074881142
 20
8663.2886948957093
 30
0.0
 11
3226.7622074881142
 21
8584.3352785927054
 31
0.0
  0
LINE
  5
7579
  8
FUTO
 10
3162.5622074881139
 20
8545.6761894656483
 30
0.0
 11
3162.5622074881139
 21
8538.8761894656509
 31
0.0
  0
LINE
  5
757A
  8
FUTO
 10
3164.9622074881149
 20
8545.6761894656483
 30
0.0
 11
3164.9622074881149
 21
8538.8761894656509
 31
0.0
  0
ARC
  5
757B
  8
FUTO
 10
3163.7622074881142
 20
8538.8761894656509
 30
0.0
 40
1.1999999999999991
 50
180.0
 51
0.0
  0
ARC
  5
757C
  8
FUTO
 10
3159.5622074881139
 20
8545.6761894656483
 30
0.0
 40
3.0
 50
0.0
 51
53.130102354171612
  0
ARC
  5
757D
  8
FUTO
 10
3167.9622074881149
 20
8545.6761894656483
 30
0.0
 40
3.0
 50
126.8698976458283
 51
180.0
  0
ARC
  5
757E
  8
FUTO
 10
3212.2783078854368
 20
8556.6761894656483
 30
0.0
 40
8.0
 50
270.0
 51
339.30703913986719
  0
ARC
  5
757F
  8
FUTO
 10
3212.2783078854368
 20
8556.6761894656483
 30
0.0
 40
8.5999999999999996
 50
270.0
 51
340.04959599021521
  0
LINE
  5
7580
  8
FUTO
 10
3220.362207488115
 20
8583.6761894656483
 30
0.0
 11
3225.2783078854368
 21
8583.6761894656483
 31
0.0
  0
ARC
  5
7581
  8
FUTO
 10
3225.2783078854368
 20
8585.6761894656483
 30
0.0
 40
2.0
 50
270.0
 51
317.8977746568998
  0
LINE
  5
7582
  8
CT
 10
3216.0355442751388
 20
8593.6761894656483
 30
0.0
 11
3230.540931482823
 21
8593.6761894656483
 31
0.0
  0
LINE
  5
7583
  8
CT
 10
3219.7622074881142
 20
8603.6761894656483
 30
0.0
 11
3220.3622074881132
 21
8603.6761894656483
 31
0.0
  0
LINE
  5
7584
  8
CT
 10
3219.7622074881142
 20
8603.6761894656483
 30
0.0
 11
3220.3622074881132
 21
8603.6761894656483
 31
0.0
  0
DIMENSION
  5
7585
  8
SP
  2
*D14
 10
3219.7622074881142
 20
8883.6761894656483
 30
0.0
 11
3163.7622074881142
 21
8908.6761894656502
 31
0.0
 70
     0
 13
3107.7622074881142
 23
8813.6761894656483
 33
0.0
 14
3219.7622074881142
 24
8813.6761894656483
 34
0.0
  0
LINE
  5
7586
  8
FUTO
 10
3206.1764210504839
 20
8798.6761894656483
 30
0.0
 11
3121.347993925745
 21
8798.6761894656483
 31
0.0
  0
LINE
  5
7587
  8
CT
 10
3096.7622074881151
 20
8805.3347615312268
 30
0.0
 11
3096.7622074881151
 21
8820.0176174000717
 31
0.0
  0
LINE
  5
7588
  8
CT
 10
3111.48887070109
 20
8773.6761894656483
 30
0.0
 11
3096.9834834934072
 21
8773.6761894656483
 31
0.0
  0
LINE
  5
7589
  8
FUTO
 10
3109.7622074881151
 20
8810.2619759032787
 30
0.0
 11
3121.347993925745
 21
8798.6761894656483
 31
0.0
  0
LINE
  5
758D
  8
FUTO
 10
3086.7622074881142
 20
8812.6761894656483
 30
0.0
 11
3086.7622074881142
 21
8813.6761894656483
 31
0.0
  0
LINE
  5
758E
  8
FUTO
 10
3099.1622074881152
 20
8788.6761894656483
 30
0.0
 11
3100.7622074881151
 21
8788.6761894656483
 31
0.0
  0
ARC
  5
758F
  8
FUTO
 10
3102.7622074881142
 20
8781.6761894656465
 30
0.0
 40
2.0
 50
90.0
 51
180.0
  0
POINT
  5
7590
  8
FUTO
 10
3100.7622074881151
 20
8781.6761894656465
 30
0.0
  0
POINT
  5
7591
  8
FUTO
 10
3100.7622074881151
 20
8781.6761894656465
 30
0.0
  0
LINE
  5
7592
  8
FUTO
 10
3107.1622074881161
 20
8783.6761894656502
 30
0.0
 11
3102.7622074881142
 21
8783.6761894656502
 31
0.0
  0
LINE
  5
7593
  8
FUTO
 10
3109.7622074881151
 20
8810.2619759032787
 30
0.0
 11
3107.7622074881142
 21
8810.2619759032787
 31
0.0
  0
LINE
  5
7594
  8
CT
 10
3230.7622074881142
 20
8805.3347615312268
 30
0.0
 11
3230.7622074881151
 21
8820.0176174000717
 31
0.0
  0
LINE
  5
7595
  8
FUTO
 10
3217.762207488116
 20
8810.2619759032787
 30
0.0
 11
3206.1764210504848
 21
8798.6761894656483
 31
0.0
  0
LINE
  5
7596
  8
CT
 10
3216.0355442751388
 20
8773.6761894656483
 30
0.0
 11
3230.540931482823
 21
8773.6761894656483
 31
0.0
  0
LINE
  5
7597
  8
CT
 10
3219.7622074881142
 20
8763.6761894656483
 30
0.0
 11
3220.3622074881132
 21
8763.6761894656483
 31
0.0
  0
LINE
  5
7598
  8
FUTO
 10
3217.762207488116
 20
8810.2619759032787
 30
0.0
 11
3219.7622074881142
 21
8810.2619759032787
 31
0.0
  0
LINE
  5
7599
  8
FUTO
 10
3220.362207488115
 20
8783.6761894656502
 30
0.0
 11
3224.7622074881151
 21
8783.6761894656502
 31
0.0
  0
ARC
  5
759A
  8
FUTO
 10
3224.7622074881151
 20
8781.6761894656465
 30
0.0
 40
2.0
 50
0.0
 51
90.0
  0
POINT
  5
759B
  8
FUTO
 10
3226.7622074881142
 20
8781.6761894656465
 30
0.0
  0
POINT
  5
759C
  8
FUTO
 10
3226.7622074881142
 20
8781.6761894656465
 30
0.0
  0
LINE
  5
759D
  8
FUTO
 10
3240.7622074881142
 20
8812.6761894656483
 30
0.0
 11
3240.7622074881142
 21
8813.6761894656483
 31
0.0
  0
LINE
  5
84DA
  8
FUTO
 10
3073.1154285066409
 20
8740.7761894656487
 30
0.0
 11
2954.8154285066421
 21
8740.7761894656487
 31
0.0
  0
LINE
  5
84DB
  8
FUTO
 10
2954.8154285066421
 20
8623.1761894656483
 30
0.0
 11
2954.8154285066421
 21
8744.1761894656483
 31
0.0
  0
LINE
  5
84DC
  8
FUTO
 10
2954.8154285066421
 20
8744.1761894656483
 30
0.0
 11
2933.8154285066421
 21
8744.1761894656483
 31
0.0
  0
LINE
  5
84DD
  8
FUTO
 10
2932.8154285066421
 20
8743.1761894656483
 30
0.0
 11
2903.7489285066422
 21
8741.2383894656487
 31
0.0
  0
ARC
  5
84DE
  8
FUTO
 10
2903.8155285066409
 20
8740.2404894656484
 30
0.0
 40
1.0000999999999991
 50
93.821000000000112
 51
180.00165729919101
  0
ARC
  5
84DF
  8
FUTO
 10
2933.8155285066409
 20
8743.1761894656483
 30
0.0
 40
1.0000999999999991
 50
90.003500000015705
 51
180.0
  0
LINE
  5
84E0
  8
CT
 10
3011.7622074881151
 20
8616.4715762572214
 30
0.0
 11
3011.7622074881151
 21
8750.8808026740753
 31
0.0
  0
LINE
  5
84E1
  8
FUTO
 10
3070.8154285066421
 20
8740.7761894656487
 30
0.0
 11
3070.8154285066412
 21
8686.9294104841756
 31
0.0
  0
LINE
  5
84E2
  8
FUTO
 10
3076.6198285066421
 20
8721.9427894656474
 30
0.0
 11
3073.1465285066411
 21
8735.5544894656487
 31
0.0
  0
ARC
  5
84E3
  8
FUTO
 10
3074.110328506642
 20
8735.8011894656483
 30
0.0
 40
0.9948999999999999
 50
179.9684000000118
 51
194.35770000002071
  0
LINE
  5
84E4
  8
FUTO
 10
3073.1154285066409
 20
8740.7761894656487
 30
0.0
 11
3073.1154285066418
 21
8689.2294104841749
 31
0.0
  0
ARC
  5
84E5
  8
FUTO
 10
3070.5178285066422
 20
8720.3853894656495
 30
0.0
 40
6.2976000000000001
 50
359.9977999999864
 51
14.31809999998419
  0
ARC
  5
84E6
  8
FUTO
 10
3075.115228506641
 20
8693.2293894656468
 30
0.0
 40
4.7001999999999988
 50
27.487694404151469
 51
44.998399999985907
  0
LINE
  5
84E7
  8
FUTO
 10
3078.4388285066411
 20
8696.5527894656461
 30
0.0
 11
3077.1083285066411
 21
8697.883289465648
 31
0.0
  0
ARC
  5
84E8
  8
FUTO
 10
3077.815128506641
 20
8698.5902894656483
 30
0.0
 40
0.9996999999999999
 50
179.99650000001029
 51
225.00990000000041
  0
LINE
  5
84E9
  8
FUTO
 10
3076.8154285066421
 20
8720.3850894656498
 30
0.0
 11
3076.8154285066421
 21
8692.9294104841756
 31
0.0
  0
ARC
  5
84EA
  8
FUTO
 10
2998.0661285066408
 20
8635.5363894656475
 30
0.0
 40
7.9999000000000002
 50
90.0
 51
166.00459999998009
  0
ARC
  5
84EB
  8
FUTO
 10
2983.6470285066412
 20
8642.4708894656487
 30
0.0
 40
8.0
 50
270.0
 51
334.31589999997709
  0
LINE
  5
84EC
  8
FUTO
 10
2990.3036285066419
 20
8637.4710894656473
 30
0.0
 11
2987.3823285066419
 21
8625.7506894656472
 31
0.0
  0
LINE
  5
84ED
  8
FUTO
 10
3025.5647285066411
 20
8643.5362894656482
 30
0.0
 11
2998.0661285066408
 21
8643.5362894656482
 31
0.0
  0
LINE
  5
84EE
  8
FUTO
 10
2988.8406285066421
 20
8623.4761894656458
 30
0.0
 11
3019.3519510778578
 21
8623.4761894656458
 31
0.0
  0
ARC
  5
84EF
  8
FUTO
 10
2984.4713285066409
 20
8626.4761894656458
 30
0.0
 40
3.0
 50
270.0
 51
346.00480000002148
  0
ARC
  5
84F0
  8
FUTO
 10
2984.4715285066418
 20
8626.4760894656483
 30
0.0
 40
5.2999000000000001
 50
269.99930000000768
 51
326.34980000001821
  0
LINE
  5
84F1
  8
FUTO
 10
2961.8154285066421
 20
8621.1761894656483
 30
0.0
 11
2984.4715285066418
 21
8621.1761894656483
 31
0.0
  0
LINE
  5
84F2
  8
FUTO
 10
2961.8154285066421
 20
8623.4761894656458
 30
0.0
 11
2984.4713285066409
 21
8623.4761894656458
 31
0.0
  0
ARC
  5
84F3
  8
FUTO
 10
2969.8154285066421
 20
8626.4708894656487
 30
0.0
 40
8.0
 50
90.0
 51
180.0
  0
LINE
  5
84F4
  8
FUTO
 10
2961.8154285066421
 20
8621.1761894656483
 30
0.0
 11
2961.8154285066421
 21
8626.4708894656487
 31
0.0
  0
LINE
  5
84F5
  8
FUTO
 10
2961.8154285066421
 20
8627.5761894656462
 30
0.0
 11
2954.8154285066421
 21
8627.5761894656462
 31
0.0
  0
LINE
  5
84F6
  8
CT
 10
2971.8154285066421
 20
8629.4076394656477
 30
0.0
 11
2971.8154285066421
 21
8617.5447394656476
 31
0.0
  0
LINE
  5
84F7
  8
FUTO
 10
2983.6470285066412
 20
8634.4708894656487
 30
0.0
 11
2969.8154285066421
 21
8634.4708894656487
 31
0.0
  0
ARC
  5
84F8
  8
FUTO
 10
3025.5646285066409
 20
8635.5362894656464
 30
0.0
 40
8.0000999999999998
 50
48.146064575372058
 51
89.999599999985804
  0
LINE
  5
84F9
  8
FUTO
 10
2902.8154285066421
 20
8740.2404894656484
 30
0.0
 11
2902.8154285066421
 21
8627.1117894656491
 31
0.0
  0
LINE
  5
84FA
  8
FUTO
 10
2932.8154285066421
 20
8743.1761894656483
 30
0.0
 11
2932.8154285066421
 21
8624.1761894656483
 31
0.0
  0
LINE
  5
84FB
  8
FUTO
 10
2932.8154285066421
 20
8624.1761894656483
 30
0.0
 11
2903.7489285066422
 21
8626.1139894656499
 31
0.0
  0
ARC
  5
84FC
  8
FUTO
 10
2903.8155285066409
 20
8627.1118894656483
 30
0.0
 40
1.0000999999999991
 50
180.0069999999923
 51
266.17899999999992
  0
ARC
  5
84FD
  8
FUTO
 10
2933.8155285066409
 20
8624.1761894656483
 30
0.0
 40
1.0000999999999991
 50
180.0
 51
269.99649999998422
  0
LINE
  5
84FE
  8
FUTO
 10
2954.8154285066421
 20
8623.1761894656483
 30
0.0
 11
2933.8154285066421
 21
8623.1761894656483
 31
0.0
  0
LINE
  5
8898
  8
FUTO
 10
2471.6211529572151
 20
9335.5944674621296
 30
0.0
 11
2336.6211529572138
 21
9335.5944674621278
 31
0.0
  0
LINE
  5
8899
  8
FUTO
 10
2337.6211529572138
 20
9313.5944674621296
 30
0.0
 11
2470.6211529572138
 21
9313.5944674621296
 31
0.0
  0
LINE
  5
889A
  8
CT
 10
2476.464651081817
 20
9392.5412464436013
 30
0.0
 11
2329.3451510818159
 21
9392.5412464436013
 31
0.0
  0
LINE
  5
889B
  8
FUTO
 10
2347.838112342034
 20
9283.5944674621278
 30
0.0
 11
2460.4041935723949
 21
9283.5944674621278
 31
0.0
  0
LINE
  5
889C
  8
FUTO
 10
2460.7211529572151
 20
9456.0803602373835
 30
0.0
 11
2347.5211529572139
 21
9456.0803602373835
 31
0.0
  0
LINE
  5
889D
  8
FUTO
 10
2460.7211529572151
 20
9458.3803602373846
 30
0.0
 11
2347.5211529572139
 21
9458.3803602373846
 31
0.0
  0
LINE
  5
889E
  8
FUTO
 10
2441.8877529572142
 20
9461.8847602373862
 30
0.0
 11
2455.499452957215
 21
9458.4114602373847
 31
0.0
  0
LINE
  5
889F
  8
FUTO
 10
2347.5211529572139
 20
9458.3803602373846
 30
0.0
 11
2347.5211529572139
 21
9335.5944674621278
 31
0.0
  0
LINE
  5
88A0
  8
FUTO
 10
2341.0183284393261
 20
9313.5944674621296
 30
0.0
 11
2346.8575315371659
 21
9284.3983519728754
 31
0.0
  0
LINE
  5
88A1
  8
FUTO
 10
2336.6211529572138
 20
9335.5944674621278
 30
0.0
 11
2336.6211529572138
 21
9314.5944674621278
 31
0.0
  0
ARC
  5
88A2
  8
FUTO
 10
2337.6211529572138
 20
9314.5944674621278
 30
0.0
 40
1.0
 50
180.0
 51
270.0
  0
ARC
  5
88A3
  8
FUTO
 10
2347.838112342034
 20
9284.5944674621278
 30
0.0
 40
1.0
 50
191.3098947346725
 51
270.0
  0
LINE
  5
88A4
  8
FUTO
 10
2440.3300529572139
 20
9462.0803602373853
 30
0.0
 11
2367.8581529572139
 21
9462.0803602373853
 31
0.0
  0
LINE
  5
88A5
  8
FUTO
 10
2366.4042529572139
 20
9461.9103602373871
 30
0.0
 11
2351.634952957214
 21
9458.4073602373846
 31
0.0
  0
LINE
  5
88A6
  8
FUTO
 10
2347.5211529572139
 20
9458.4241602373859
 30
0.0
 11
2347.5211529572139
 21
9447.0036602373857
 31
0.0
  0
ARC
  5
88A7
  8
FUTO
 10
2351.4041529572141
 20
9459.3815602373852
 30
0.0
 40
1.0012000000000001
 50
270.00349999998957
 51
283.32969999999011
  0
ARC
  5
88A8
  8
FUTO
 10
2367.8581529572139
 20
9455.7801602373856
 30
0.0
 40
6.3002000000000002
 50
89.999399999991695
 51
103.3419999999974
  0
LINE
  5
88A9
  8
FUTO
 10
2395.0680529572141
 20
9465.0803602373853
 30
0.0
 11
2413.174352957215
 21
9465.0803602373853
 31
0.0
  0
ARC
  5
88AA
  8
FUTO
 10
2389.7070529572138
 20
9463.0800602373856
 30
0.0
 40
0.9996999999999999
 50
269.99649999998422
 51
315.009899999982
  0
LINE
  5
88AB
  8
FUTO
 10
2391.7445529572142
 20
9463.7037602373857
 30
0.0
 11
2390.4140529572142
 21
9462.3732602373857
 31
0.0
  0
ARC
  5
88AC
  8
FUTO
 10
2395.0681529572139
 20
9460.3800602373849
 30
0.0
 40
4.7003000000000004
 50
90.001499999994792
 51
134.9984000000043
  0
LINE
  5
88AD
  8
FUTO
 10
2396.621152957212
 20
9479.3412464436005
 30
0.0
 11
2396.6211529572151
 21
9465.0803602373853
 31
0.0
  0
LINE
  5
88AE
  8
FUTO
 10
2416.4977529572138
 20
9463.7037602373857
 30
0.0
 11
2417.8282529572139
 21
9462.3732602373857
 31
0.0
  0
ARC
  5
88AF
  8
FUTO
 10
2418.5352529572142
 20
9463.0800602373856
 30
0.0
 40
0.9996999999999999
 50
224.99010000001789
 51
270.00349999998957
  0
ARC
  5
88B0
  8
FUTO
 10
2413.174352957215
 20
9460.380160237386
 30
0.0
 40
4.7001999999999988
 50
45.001599999995662
 51
90.0
  0
LINE
  5
88B1
  8
FUTO
 10
2411.621152957212
 20
9479.3412464436005
 30
0.0
 11
2411.6211529572151
 21
9465.0803602373853
 31
0.0
  0
ARC
  5
88B2
  8
FUTO
 10
2440.330352957214
 20
9455.7827602373854
 30
0.0
 40
6.2976000000000001
 50
75.681899999984111
 51
90.00219999998744
  0
LINE
  5
88B3
  8
FUTO
 10
2460.7211529572151
 20
9458.3803602373846
 30
0.0
 11
2460.7211529572128
 21
9335.5944674621296
 31
0.0
  0
LINE
  5
88B4
  8
FUTO
 10
2467.2239774751029
 20
9313.5944674621296
 30
0.0
 11
2461.3847743772621
 21
9284.3983519728754
 31
0.0
  0
ARC
  5
88B5
  8
FUTO
 10
2470.6211529572138
 20
9314.5944674621278
 30
0.0
 40
1.0
 50
270.0
 51
0.0
  0
LINE
  5
88B6
  8
FUTO
 10
2471.6211529572151
 20
9335.5944674621278
 30
0.0
 11
2471.6211529572151
 21
9314.5944674621278
 31
0.0
  0
ARC
  5
88B7
  8
FUTO
 10
2460.4041935723949
 20
9284.5944674621278
 30
0.0
 40
1.0
 50
270.0
 51
348.69010526532742
  0
ARC
  5
88B8
  8
FUTO
 10
2455.7461529572138
 20
9459.3752602373861
 30
0.0
 40
0.9948999999999999
 50
255.64230000000441
 51
270.03159999998809
  0
LINE
  5
88B9
  8
FUTO
 10
2514.1211529572138
 20
9305.5412464436013
 30
0.0
 11
2465.6133387880391
 21
9305.5412464436013
 31
0.0
  0
LINE
  5
88BA
  8
CT
 10
2521.1211529572138
 20
9331.5412464436013
 30
0.0
 11
2541.1211529572129
 21
9331.5412464436013
 31
0.0
  0
CIRCLE
  5
88BB
  8
FUTO
 10
2531.1211529572151
 20
9331.5412464436013
 30
0.0
 40
6.0
  0
LINE
  5
88BC
  8
FUTO
 10
2514.1211529572138
 20
9311.5412464436013
 30
0.0
 11
2544.1211529572138
 21
9311.5412464436013
 31
0.0
  0
LINE
  5
88BD
  8
CT
 10
2531.1211529572151
 20
9341.5412464436013
 30
0.0
 11
2531.1211529572151
 21
9321.5412464436013
 31
0.0
  0
LINE
  5
88BE
  8
FUTO
 10
2544.1211529572138
 20
9481.5412464436013
 30
0.0
 11
2544.1211529572138
 21
9311.5412464436013
 31
0.0
  0
LINE
  5
88BF
  8
FUTO
 10
2514.1211529572138
 20
9305.5412464436013
 30
0.0
 11
2514.1211529572138
 21
9481.5412464436013
 31
0.0
  0
LINE
  5
88C1
  8
FUTO
 10
2514.1211529572138
 20
9479.3412464436005
 30
0.0
 11
2294.1211529572151
 21
9479.3412464436005
 31
0.0
  0
ARC
  5
88C2
  8
FUTO
 10
2502.1211529572151
 20
9482.9412464436009
 30
0.0
 40
2.0
 50
270.0
 51
0.0
  0
LINE
  5
88C3
  8
CT
 10
2494.1211529572138
 20
9474.357573146599
 30
0.0
 11
2494.1211529572138
 21
9485.3305936665893
 31
0.0
  0
LINE
  5
88C4
  8
FUTO
 10
2504.1211529572138
 20
9482.9412464436009
 30
0.0
 11
2504.1211529572138
 21
9487.9412464436027
 31
0.0
  0
ARC
  5
88C5
  8
FUTO
 10
2306.1211529572138
 20
9482.9412464436009
 30
0.0
 40
2.0
 50
180.0
 51
270.0
  0
LINE
  5
88C6
  8
FUTO
 10
2304.1211529572138
 20
9482.9412464436009
 30
0.0
 11
2304.1211529572138
 21
9487.9412464436027
 31
0.0
  0
LINE
  5
88C7
  8
CT
 10
2314.1211529572138
 20
9474.357573146599
 30
0.0
 11
2314.1211529572138
 21
9485.3305936665893
 31
0.0
  0
LINE
  5
88C8
  8
FUTO
 10
2294.1211529572138
 20
9305.5412464436013
 30
0.0
 11
2294.1211529572138
 21
9481.5412464436013
 31
0.0
  0
LINE
  5
88C9
  8
FUTO
 10
2264.1211529572138
 20
9481.5412464436013
 30
0.0
 11
2264.1211529572138
 21
9311.5412464436013
 31
0.0
  0
LINE
  5
88CA
  8
FUTO
 10
2294.1211529572138
 20
9311.5412464436013
 30
0.0
 11
2264.1211529572138
 21
9311.5412464436013
 31
0.0
  0
LINE
  5
88CB
  8
CT
 10
2277.1211529572151
 20
9341.5412464436013
 30
0.0
 11
2277.1211529572151
 21
9321.5412464436013
 31
0.0
  0
CIRCLE
  5
88CC
  8
FUTO
 10
2277.1211529572151
 20
9331.5412464436013
 30
0.0
 40
6.0
  0
LINE
  5
88CD
  8
CT
 10
2287.1211529572138
 20
9331.5412464436013
 30
0.0
 11
2267.1211529572151
 21
9331.5412464436013
 31
0.0
  0
LINE
  5
88CE
  8
FUTO
 10
2264.1211529572138
 20
9481.5412464436013
 30
0.0
 11
2294.1211529572138
 21
9481.5412464436013
 31
0.0
  0
LINE
  5
88CF
  8
CT
 10
2277.1211529572151
 20
9471.5412464436013
 30
0.0
 11
2277.1211529572151
 21
9451.5412464436013
 31
0.0
  0
LINE
  5
88D0
  8
CT
 10
2287.1211529572138
 20
9461.5412464436013
 30
0.0
 11
2267.1211529572151
 21
9461.5412464436013
 31
0.0
  0
CIRCLE
  5
88D1
  8
FUTO
 10
2277.1211529572151
 20
9461.5412464436013
 30
0.0
 40
6.0
  0
LINE
  5
88D2
  8
FUTO
 10
2294.1211529572138
 20
9480.9412464436009
 30
0.0
 11
2294.1211529572138
 21
9479.3412464436005
 31
0.0
  0
LINE
  5
88D3
  8
FUTO
 10
2342.6289671263899
 20
9305.5412464436013
 30
0.0
 11
2294.1211529572138
 21
9305.5412464436013
 31
0.0
  0
CIRCLE
  5
88D4
  8
FUTO
 10
2531.1211529572151
 20
9461.5412464436013
 30
0.0
 40
6.0
  0
LINE
  5
88D5
  8
CT
 10
2521.1211529572138
 20
9461.5412464436013
 30
0.0
 11
2541.1211529572129
 21
9461.5412464436013
 31
0.0
  0
LINE
  5
88D6
  8
CT
 10
2531.1211529572151
 20
9471.5412464436013
 30
0.0
 11
2531.1211529572151
 21
9451.5412464436013
 31
0.0
  0
LINE
  5
88D7
  8
FUTO
 10
2544.1211529572138
 20
9481.5412464436013
 30
0.0
 11
2514.1211529572138
 21
9481.5412464436013
 31
0.0
  0
LINE
  5
89E0
  8
FUTO
 10
2514.1211529572129
 20
9480.9412464435991
 30
0.0
 11
2294.1211529572138
 21
9480.9412464436027
 31
0.0
  0
DIMENSION
  5
8A28
  8
SP
  2
*D15
 10
2187.8282441346742
 20
9311.5412464436013
 30
0.0
 11
2162.8282441346719
 21
9396.5412464436013
 31
0.0
 70
     0
 13
2264.1211529572138
 23
9481.5412464436013
 33
0.0
 14
2264.1211529572138
 24
9311.5412464436013
 34
0.0
 50
90.0
  0
DIMENSION
  5
8A35
  8
SP
  2
*D16
 10
2187.8282441346742
 20
9544.5412464436013
 30
0.0
 11
2162.8282441346719
 21
9630.8434503462886
 31
0.0
 70
     0
 13
2264.1211529572138
 23
9481.5412464436013
 33
0.0
 14
2247.2403538340541
 24
9544.5412464436013
 34
0.0
 50
90.0
  0
DIMENSION
  5
8AB1
  8
SP
  2
*D17
 10
2544.1211529572138
 20
9203.5944674621278
 30
0.0
 11
2404.1211529572138
 21
9228.5944674621278
 31
0.0
 70
     0
 13
2264.1211529572138
 23
9311.5412464436013
 33
0.0
 14
2544.1211529572138
 24
9311.5412464436013
 34
0.0
  0
LINE
  5
8AF3
  8
FUTO
 10
3100.7622074881151
 20
8483.6761894656447
 30
0.0
 11
2930.7622074881151
 21
8483.6761894656483
 31
0.0
  0
LINE
  5
8AF4
  8
FUTO
 10
3099.1622074881138
 20
8485.2761894656469
 30
0.0
 11
2930.7622074881151
 21
8485.2761894656469
 31
0.0
  0
LINE
  5
8AF5
  8
FUTO
 10
2930.7622074881151
 20
8485.2761894656469
 30
0.0
 11
2930.7622074881151
 21
8483.6761894656483
 31
0.0
  0
LINE
  5
8CE3
  8
4
 10
3820.3435473019958
 20
7555.2190595897273
 30
0.0
 11
1720.3435473019961
 21
7555.2190595897273
 31
0.0
  0
LINE
  5
8CE4
  8
4
 10
1720.3435473019961
 20
10505.219059589719
 30
0.0
 11
3820.3435473019958
 21
10505.219059589719
 31
0.0
  0
LINE
  5
8CE5
  8
4
 10
1720.3435473019961
 20
7555.2190595897273
 30
0.0
 11
1720.3435473019961
 21
10505.219059589719
 31
0.0
  0
TEXT
  5
8CE7
  8
4
 10
2706.9980428874769
 20
7872.3786438696698
 30
0.0
 40
50.0
  1
MF＃1-7
  0
TEXT
  5
8CE8
  8
4
 10
2698.0222927896612
 20
7977.790828547295
 30
0.0
 40
50.0
  1
ミツヤ多翼送風機
  0
LINE
  5
8CEA
  8
4
 10
2170.3435473019958
 20
7855.2190595897273
 30
0.0
 11
3370.3435473019958
 21
7855.2190595897273
 31
0.0
  0
LINE
  5
8CEB
  8
4
 10
2170.3435473019958
 20
7955.2190595897273
 30
0.0
 11
3370.3435473019958
 21
7955.2190595897273
 31
0.0
  0
LINE
  5
8CEC
  8
4
 10
2170.3435473019958
 20
8055.2190595897273
 30
0.0
 11
3370.3435473019958
 21
8055.2190595897273
 31
0.0
  0
TEXT
  5
8CED
  8
4
 10
2208.845628148897
 20
7986.7620854563402
 30
0.0
 40
50.0
  1
機器名称
  0
TEXT
  5
8CEE
  8
4
 10
2206.6016533267939
 20
7876.8642163217382
 30
0.0
 40
50.0
  1
機器型番
  0
LINE
  5
8CF0
  8
4
 10
2170.3435473019958
 20
8055.2190595897273
 30
0.0
 11
2170.3435473019958
 21
7855.2190595897246
 31
0.0
  0
LINE
  5
8CF1
  8
4
 10
2670.3435473019958
 20
8055.2190595897273
 30
0.0
 11
2670.3435473019958
 21
7855.2190595897246
 31
0.0
  0
LINE
  5
8CF2
  8
4
 10
3370.3435473019958
 20
8055.2190595897273
 30
0.0
 11
3370.3435473019958
 21
7855.2190595897246
 31
0.0
  0
LINE
  5
8CF3
  8
4
 10
3570.3435473019958
 20
10224.627813854529
 30
0.0
 11
3570.3435473019958
 21
10024.627813854529
 31
0.0
  0
LINE
  5
8CF4
  8
4
 10
1970.3435473019961
 20
10224.627813854529
 30
0.0
 11
1970.3435473019961
 21
10024.627813854529
 31
0.0
  0
TEXT
  5
8CF5
  8
4
 10
2208.4064512468549
 20
10089.100035789021
 30
0.0
 40
72.0
  1
遠心式片吸込直動形多翼ファン
  0
LINE
  5
8CF6
  8
4
 10
1970.3435473019961
 20
10024.627813854529
 30
0.0
 11
3570.3435473019958
 21
10024.627813854529
 31
0.0
  0
TEXT
  5
8CF7
  8
4
 10
2563.384773515852
 20
9938.6479009222421
 30
0.0
 40
53.999999999999993
  1
床置ベッド型
  0
TEXT
  5
8CF8
  8
4
 10
2080.9048490505729
 20
9937.5385371360699
 30
0.0
 40
53.999999999999993
  1
左回転上向
  0
TEXT
  5
8CF9
  8
4
 10
3089.936825588683
 20
9938.6479009222421
 30
0.0
 40
53.999999999999993
  1
縮尺：1/10
  0
LINE
  5
8CFA
  8
4
 10
1970.3435473019961
 20
10224.627813854529
 30
0.0
 11
3570.3435473019958
 21
10224.627813854529
 31
0.0
  0
TEXT
  5
8CFB
  8
4
 10
3189.3131065512862
 20
10261.28014108503
 30
0.0
 40
56.000000000000007
  1
No.
  0
LINE
  5
8CFC
  8
4
 10
3160.9609696618609
 20
10341.87132113947
 30
0.0
 11
3570.3435473019958
 21
10341.87132113947
 31
0.0
  0
LINE
  5
8CFD
  8
4
 10
3570.3435473019958
 20
10236.48264271512
 30
0.0
 11
3160.9609696618609
 21
10236.48264271512
 31
0.0
  0
LINE
  5
8CFE
  8
4
 10
3160.9609696618609
 20
10236.48264271512
 30
0.0
 11
3160.9609696618609
 21
10341.87132113947
 31
0.0
  0
LINE
  5
8CFF
  8
4
 10
3570.3435473019958
 20
10341.87132113947
 30
0.0
 11
3570.3435473019958
 21
10236.48264271512
 31
0.0
  0
LINE
  5
8D00
  8
4
 10
3820.3435473019958
 20
10505.219059589719
 30
0.0
 11
3820.3435473019958
 21
7555.2190595897273
 31
0.0
  0
LINE
  5
8D01
  8
4
 10
3820.3435473019958
 20
10505.219059589719
 30
0.0
 11
3820.3435473019958
 21
10505.219059589719
 31
0.0
  0
LINE
  5
9AA0
  8
FUTO
 10
3219.7622074881142
 20
8763.6761894656483
 30
0.0
 11
3220.3622074881132
 21
8763.6761894656483
 31
0.0
  0
LINE
  5
9AA1
  8
FUTO
 10
3219.7622074881142
 20
8763.6761894656483
 30
0.0
 11
3220.3622074881132
 21
8763.6761894656483
 31
0.0
  0
LINE
  5
9AA2
  8
FUTO
 10
3220.3622074881159
 20
8763.6761894656483
 30
0.0
 11
3226.7622074881142
 21
8763.6761894656483
 31
0.0
  0
LINE
  5
9AA3
  8
FUTO
 10
3219.7622074881142
 20
8763.6761894656483
 30
0.0
 11
3220.3622074881132
 21
8763.6761894656483
 31
0.0
  0
LINE
  5
9AA4
  8
FUTO
 10
3220.3622074881159
 20
8603.6761894656483
 30
0.0
 11
3226.7622074881142
 21
8603.6761894656483
 31
0.0
  0
LINE
  5
9AA5
  8
FUTO
 10
3219.7622074881142
 20
8603.6761894656483
 30
0.0
 11
3220.3622074881132
 21
8603.6761894656483
 31
0.0
  0
LINE
  5
9AA6
  8
FUTO
 10
3219.7622074881142
 20
8603.6761894656483
 30
0.0
 11
3220.3622074881132
 21
8603.6761894656483
 31
0.0
  0
ENDSEC
  0
EOF
