  0
SECTION
  2
HEADER
  9
$ACADVER
  1
AC1009
  9
$INSBASE
 10
0.0
 20
0.0
 30
0.0
  9
$EXTMIN
 10
-690.24390403695725
 20
7555.2190595897273
 30
0.0
  9
$EXTMAX
 10
1409.7560959630421
 20
10505.219059589719
 30
0.0
  9
$LIMMIN
 10
0.0
 20
0.0
  9
$LIMMAX
 10
297.0
 20
210.0
  9
$ORTHOMODE
 70
     0
  9
$REGENMODE
 70
     1
  9
$FILLMODE
 70
     1
  9
$QTEXTMODE
 70
     0
  9
$MIRRTEXT
 70
     0
  9
$DRAGMODE
 70
     2
  9
$LTSCALE
 40
25.0
  9
$OSMODE
 70
   545
  9
$ATTMODE
 70
     1
  9
$TEXTSIZE
 40
3.5
  9
$TRACEWID
 40
0.05
  9
$TEXTSTYLE
  7
STANDARD
  9
$CLAYER
  8
SP
  9
$CELTYPE
  6
BYLAYER
  9
$CECOLOR
 62
   256
  9
$DIMSCALE
 40
10.0
  9
$DIMASZ
 40
2.5
  9
$DIMEXO
 40
1.0
  9
$DIMDLI
 40
7.0
  9
$DIMRND
 40
0.0
  9
$DIMDLE
 40
0.0
  9
$DIMEXE
 40
1.0
  9
$DIMTP
 40
0.0
  9
$DIMTM
 40
0.0
  9
$DIMTXT
 40
3.0
  9
$DIMCEN
 40
0.0
  9
$DIMTSZ
 40
0.0
  9
$DIMTOL
 70
     0
  9
$DIMLIM
 70
     0
  9
$DIMTIH
 70
     0
  9
$DIMTOH
 70
     0
  9
$DIMSE1
 70
     0
  9
$DIMSE2
 70
     0
  9
$DIMTAD
 70
     1
  9
$DIMZIN
 70
     8
  9
$DIMBLK
  1

  9
$DIMASO
 70
     1
  9
$DIMSHO
 70
     1
  9
$DIMPOST
  1

  9
$DIMAPOST
  1

  9
$DIMALT
 70
     0
  9
$DIMALTD
 70
     2
  9
$DIMALTF
 40
0.03937
  9
$DIMLFAC
 40
1.0
  9
$DIMTOFL
 70
     1
  9
$DIMTVP
 40
0.0
  9
$DIMTIX
 70
     0
  9
$DIMSOXD
 70
     0
  9
$DIMSAH
 70
     1
  9
$DIMBLK1
  1
OPEN
  9
$DIMBLK2
  1
OPEN
  9
$DIMSTYLE
  2
GOD
  9
$DIMCLRD
 70
   256
  9
$DIMCLRE
 70
   256
  9
$DIMCLRT
 70
   256
  9
$DIMTFAC
 40
1.0
  9
$DIMGAP
 40
1.0
  9
$LUNITS
 70
     2
  9
$LUPREC
 70
     3
  9
$SKETCHINC
 40
0.1
  9
$FILLETRAD
 40
0.0
  9
$AUNITS
 70
     0
  9
$AUPREC
 70
     2
  9
$MENU
  1
acad
  9
$ELEVATION
 40
0.0
  9
$PELEVATION
 40
0.0
  9
$THICKNESS
 40
0.0
  9
$LIMCHECK
 70
     0
  9
$BLIPMODE
 70
     0
  9
$CHAMFERA
 40
0.0
  9
$CHAMFERB
 40
0.0
  9
$SKPOLY
 70
     0
  9
$TDCREATE
 40
2454894.5465396061
  9
$TDUPDATE
 40
2454953.8245627079
  9
$TDINDWG
 40
0.3257857639
  9
$TDUSRTIMER
 40
0.3257857639
  9
$USRTIMER
 70
     1
  9
$ANGBASE
 50
0.0
  9
$ANGDIR
 70
     0
  9
$PDMODE
 70
     0
  9
$PDSIZE
 40
1.0
  9
$PLINEWID
 40
0.0
  9
$COORDS
 70
     2
  9
$SPLFRAME
 70
     0
  9
$SPLINETYPE
 70
     6
  9
$SPLINESEGS
 70
     8
  9
$ATTDIA
 70
     0
  9
$ATTREQ
 70
     1
  9
$HANDLING
 70
 22529
  9
$HANDSEED
  5
9ACC
  9
$SURFTAB1
 70
     6
  9
$SURFTAB2
 70
     6
  9
$SURFTYPE
 70
     6
  9
$SURFU
 70
     6
  9
$SURFV
 70
     6
  9
$UCSNAME
  2

  9
$UCSORG
 10
0.0
 20
0.0
 30
0.0
  9
$UCSXDIR
 10
1.0
 20
0.0
 30
0.0
  9
$UCSYDIR
 10
0.0
 20
1.0
 30
0.0
  9
$PUCSNAME
  2

  9
$PUCSORG
 10
0.0
 20
0.0
 30
0.0
  9
$PUCSXDIR
 10
1.0
 20
0.0
 30
0.0
  9
$PUCSYDIR
 10
0.0
 20
1.0
 30
0.0
  9
$USERI1
 70
     0
  9
$USERI2
 70
     0
  9
$USERI3
 70
     0
  9
$USERI4
 70
     0
  9
$USERI5
 70
     0
  9
$USERR1
 40
0.0
  9
$USERR2
 40
0.0
  9
$USERR3
 40
0.0
  9
$USERR4
 40
0.0
  9
$USERR5
 40
0.0
  9
$WORLDVIEW
 70
     1
  9
$SHADEDGE
 70
     3
  9
$SHADEDIF
 70
    70
  9
$TILEMODE
 70
     1
  9
$MAXACTVP
 70
    16
  9
$PLIMCHECK
 70
     0
  9
$PEXTMIN
 10
1.0000000000000000E+020
 20
1.0000000000000000E+020
 30
1.0000000000000000E+020
  9
$PEXTMAX
 10
-1.0000000000000000E+020
 20
-1.0000000000000000E+020
 30
-1.0000000000000000E+020
  9
$PLIMMIN
 10
0.0
 20
0.0
  9
$PLIMMAX
 10
12.0
 20
9.0
  9
$UNITMODE
 70
     0
  9
$VISRETAIN
 70
     0
  9
$PLINEGEN
 70
     0
  9
$PSLTSCALE
 70
     0
  0
ENDSEC
  0
SECTION
  2
TABLES
  0
TABLE
  2
VPORT
 70
     2
  0
VPORT
  2
*ACTIVE
 70
     0
 10
0.0
 20
0.0
 11
1.0
 21
1.0
 12
546.65927537032803
 22
9030.0065181736736
 13
0.0
 23
0.0
 14
5.0
 24
5.0
 15
0.0
 25
0.0
 16
0.0
 26
0.0
 36
1.0
 17
0.0
 27
0.0
 37
0.0
 40
2974.3866955513722
 41
1.6307901907356941
 42
50.0
 43
0.0
 44
0.0
 50
0.0
 51
0.0
 71
     0
 72
   100
 73
     1
 74
     0
 75
     0
 76
     0
 77
     0
 78
     0
  0
ENDTAB
  0
TABLE
  2
LTYPE
 70
     2
  0
LTYPE
  2
CONTINUOUS
 70
     0
  3
Solid line
 72
    65
 73
     0
 40
0.0
  0
LTYPE
  2
CENTER
 70
     0
  3
____ _ ____ _ ____ _ ____ _ ____ _ ____ _ ____ 
 72
    65
 73
     4
 40
2.0
 49
1.25
 49
-0.25
 49
0.25
 49
-0.25
  0
ENDTAB
  0
TABLE
  2
LAYER
 70
     6
  0
LAYER
  2
0
 70
     0
 62
     7
  6
CONTINUOUS
  0
LAYER
  2
CT
 70
     0
 62
     3
  6
CENTER
  0
LAYER
  2
FUTO
 70
     0
 62
     4
  6
CONTINUOUS
  0
LAYER
  2
SP
 70
     0
 62
     2
  6
CONTINUOUS
  0
LAYER
  2
DEFPOINTS
 70
     0
 62
     7
  6
CONTINUOUS
  0
LAYER
  2
4
 70
     0
 62
     7
  6
CONTINUOUS
  0
ENDTAB
  0
TABLE
  2
STYLE
 70
     1
  0
STYLE
  2
STANDARD
 70
     0
 40
0.0
 41
1.0
 50
15.0
 71
     0
 42
3.5
  3
C:\Program Files\AutoCAD LT\simplex.shx
  4
C:\Program Files\AutoCAD LT\extfont.shx
  0
ENDTAB
  0
TABLE
  2
VIEW
 70
     0
  0
ENDTAB
  0
TABLE
  2
UCS
 70
     0
  0
ENDTAB
  0
TABLE
  2
APPID
 70
     1
  0
APPID
  2
ACAD
 70
     0
  0
ENDTAB
  0
TABLE
  2
DIMSTYLE
 70
     2
  0
DIMSTYLE
  2
STANDARD
 70
     0
  3

  4

  5

  6

  7

 40
1.0
 41
0.18
 42
0.0625
 43
0.38
 44
0.18
 45
0.0
 46
0.0
 47
0.0
 48
0.0
140
0.18
141
0.09
142
0.0
143
25.399999999999999
144
1.0
145
0.0
146
1.0
147
0.09
 71
     0
 72
     0
 73
     1
 74
     1
 75
     0
 76
     0
 77
     0
 78
     0
170
     0
171
     2
172
     0
173
     0
174
     0
175
     0
176
     0
177
     0
178
     0
  0
DIMSTYLE
  2
GOD
 70
     0
  3

  4

  5

  6
OPEN
  7
OPEN
 40
10.0
 41
2.5
 42
1.0
 43
7.0
 44
1.0
 45
0.0
 46
0.0
 47
0.0
 48
0.0
140
3.0
141
0.0
142
0.0
143
0.03937
144
1.0
145
0.0
146
1.0
147
1.0
 71
     0
 72
     0
 73
     0
 74
     0
 75
     0
 76
     0
 77
     1
 78
     8
170
     0
171
     2
172
     1
173
     1
174
     0
175
     0
176
   256
177
   256
178
   256
  0
ENDTAB
  0
ENDSEC
  0
SECTION
  2
BLOCKS
  0
BLOCK
  8
0
  2
$MODEL_SPACE
 70
     0
 10
0.0
 20
0.0
 30
0.0
  3
$MODEL_SPACE
  1

  0
ENDBLK
  5
1B
  8
0
  0
BLOCK
 67
     1
  8
0
  2
$PAPER_SPACE
 70
     0
 10
0.0
 20
0.0
 30
0.0
  3
$PAPER_SPACE
  1

  0
ENDBLK
  5
18
 67
     1
  8
0
  0
BLOCK
  8
0
  2
_OPEN
 70
     0
 10
0.0
 20
0.0
 30
0.0
  3
_OPEN
  1

  0
LINE
  5
1E81
  8
0
  6
BYBLOCK
 62
     0
 10
-1.0
 20
0.1666666666666666
 30
0.0
 11
0.0
 21
0.0
 31
0.0
  0
LINE
  5
1E82
  8
0
  6
BYBLOCK
 62
     0
 10
0.0
 20
0.0
 30
0.0
 11
-1.0
 21
-0.1666666666666666
 31
0.0
  0
LINE
  5
1E83
  8
0
  6
BYBLOCK
 62
     0
 10
0.0
 20
0.0
 30
0.0
 11
-1.0
 21
0.0
 31
0.0
  0
ENDBLK
  5
1E84
  8
0
  0
BLOCK
  8
0
  2
*D1
 70
     1
 10
0.0
 20
0.0
 30
0.0
  3
*D1
  1

  0
LINE
  5
940A
  8
SP
 10
-139.0032443915197
 20
8483.6761894656483
 30
0.0
 11
-199.0032443915207
 21
8483.6761894656483
 31
0.0
  0
LINE
  5
940B
  8
SP
 10
-144.84887682794391
 20
8683.6761894656483
 30
0.0
 11
-199.00324439152061
 21
8683.6761894656483
 31
0.0
  0
LINE
  5
940C
  8
SP
 10
-189.00324439152061
 20
8508.6761894656483
 30
0.0
 11
-189.00324439152061
 21
8658.6761894656502
 31
0.0
  0
INSERT
  5
940D
  8
SP
  2
_OPEN
 10
-189.00324439152061
 20
8483.6761894656483
 30
0.0
 41
25.0
 42
25.0
 43
25.0
 50
270.0
  0
INSERT
  5
940E
  8
SP
  2
_OPEN
 10
-189.00324439152061
 20
8683.6761894656483
 30
0.0
 41
25.0
 42
25.0
 43
25.0
 50
90.0
  0
TEXT
  5
940F
  8
SP
 10
-199.003244391522
 20
8542.5653778432716
 30
0.0
 40
30.0
  1
200
 50
90.0
 51
15.0
  0
POINT
  5
9410
  8
DEFPOINTS
 62
     0
 10
-129.0032443915197
 20
8483.6761894656483
 30
0.0
  0
POINT
  5
9411
  8
DEFPOINTS
 62
     0
 10
-134.84887682794391
 20
8683.6761894656483
 30
0.0
  0
POINT
  5
9412
  8
DEFPOINTS
 62
     0
 10
-189.00324439152061
 20
8683.6761894656483
 30
0.0
  0
ENDBLK
  5
60A3
  8
0
  0
BLOCK
  8
0
  2
*D2
 70
     1
 10
0.0
 20
0.0
 30
0.0
  3
*D2
  1

  0
LINE
  5
9466
  8
SP
 10
-144.84887682794391
 20
8683.6761894656483
 30
0.0
 11
-199.0032443915197
 21
8683.6761894656483
 31
0.0
  0
LINE
  5
9467
  8
SP
 10
-129.0032443915197
 20
8843.6761894656483
 30
0.0
 11
-199.0032443915197
 21
8843.6761894656483
 31
0.0
  0
LINE
  5
9468
  8
SP
 10
-189.0032443915197
 20
8708.6761894656483
 30
0.0
 11
-189.0032443915197
 21
8818.6761894656483
 31
0.0
  0
INSERT
  5
9469
  8
SP
  2
_OPEN
 10
-189.0032443915197
 20
8683.6761894656483
 30
0.0
 41
25.0
 42
25.0
 43
25.0
 50
270.0
  0
INSERT
  5
946A
  8
SP
  2
_OPEN
 10
-189.0032443915197
 20
8843.6761894656483
 30
0.0
 41
25.0
 42
25.0
 43
25.0
 50
90.0
  0
TEXT
  5
946B
  8
SP
 10
-199.00324439152109
 20
8722.1688519351774
 30
0.0
 40
30.0
  1
160
 50
90.0
 51
15.0
  0
POINT
  5
946C
  8
DEFPOINTS
 62
     0
 10
-134.84887682794391
 20
8683.6761894656483
 30
0.0
  0
POINT
  5
946D
  8
DEFPOINTS
 62
     0
 10
-119.0032443915197
 20
8843.6761894656483
 30
0.0
  0
POINT
  5
946E
  8
DEFPOINTS
 62
     0
 10
-189.0032443915197
 20
8843.6761894656483
 30
0.0
  0
ENDBLK
  5
60AF
  8
0
  0
BLOCK
  8
0
  2
*D3
 70
     1
 10
0.0
 20
0.0
 30
0.0
  3
*D3
  1

  0
LINE
  5
9425
  8
SP
 10
10.996755608480269
 20
8461.4288100448593
 30
0.0
 11
10.99675560848026
 21
8403.6761894656465
 31
0.0
  0
LINE
  5
9426
  8
SP
 10
150.9967556084793
 20
8473.6761894656465
 30
0.0
 11
150.9967556084793
 21
8403.6761894656465
 31
0.0
  0
LINE
  5
9427
  8
SP
 10
35.996755608480271
 20
8413.6761894656483
 30
0.0
 11
125.9967556084793
 21
8413.6761894656483
 31
0.0
  0
INSERT
  5
9428
  8
SP
  2
_OPEN
 10
10.99675560848026
 20
8413.6761894656483
 30
0.0
 41
25.0
 42
25.0
 43
25.0
 50
180.0
  0
INSERT
  5
9429
  8
SP
  2
_OPEN
 10
150.9967556084793
 20
8413.6761894656483
 30
0.0
 41
25.0
 42
25.0
 43
25.0
  0
TEXT
  5
942A
  8
SP
 10
39.489418078009678
 20
8423.6761894656483
 30
0.0
 40
30.0
  1
140
 51
15.0
  0
POINT
  5
942B
  8
DEFPOINTS
 62
     0
 10
10.996755608480269
 20
8471.4288100448593
 30
0.0
  0
POINT
  5
942C
  8
DEFPOINTS
 62
     0
 10
150.9967556084793
 20
8483.6761894656483
 30
0.0
  0
POINT
  5
942D
  8
DEFPOINTS
 62
     0
 10
150.9967556084793
 20
8413.6761894656483
 30
0.0
  0
ENDBLK
  5
60BB
  8
0
  0
BLOCK
  8
0
  2
*D4
 70
     1
 10
0.0
 20
0.0
 30
0.0
  3
*D4
  1

  0
LINE
  5
941C
  8
SP
 10
-129.0032443915197
 20
8473.6761894656465
 30
0.0
 11
-129.0032443915197
 21
8333.6761894656483
 31
0.0
  0
LINE
  5
941D
  8
SP
 10
150.9967556084793
 20
8473.6761894656465
 30
0.0
 11
150.9967556084793
 21
8333.6761894656483
 31
0.0
  0
LINE
  5
941E
  8
SP
 10
-104.0032443915197
 20
8343.6761894656483
 30
0.0
 11
125.9967556084793
 21
8343.6761894656483
 31
0.0
  0
INSERT
  5
941F
  8
SP
  2
_OPEN
 10
-129.0032443915197
 20
8343.6761894656483
 30
0.0
 41
25.0
 42
25.0
 43
25.0
 50
180.0
  0
INSERT
  5
9420
  8
SP
  2
_OPEN
 10
150.9967556084793
 20
8343.6761894656483
 30
0.0
 41
25.0
 42
25.0
 43
25.0
  0
TEXT
  5
9421
  8
SP
 10
-30.1140560138981
 20
8353.6761894656483
 30
0.0
 40
30.0
  1
280
 51
15.0
  0
POINT
  5
9422
  8
DEFPOINTS
 62
     0
 10
-129.0032443915197
 20
8483.6761894656483
 30
0.0
  0
POINT
  5
9423
  8
DEFPOINTS
 62
     0
 10
150.9967556084793
 20
8483.6761894656483
 30
0.0
  0
POINT
  5
9424
  8
DEFPOINTS
 62
     0
 10
150.9967556084793
 20
8343.6761894656483
 30
0.0
  0
ENDBLK
  5
60C7
  8
0
  0
BLOCK
  8
0
  2
*D5
 70
     1
 10
0.0
 20
0.0
 30
0.0
  3
*D5
  1

  0
LINE
  5
9413
  8
SP
 10
10.996755608480269
 20
8461.4288100448593
 30
0.0
 11
10.99675560848026
 21
8403.6761894656465
 31
0.0
  0
LINE
  5
9414
  8
SP
 10
-129.0032443915197
 20
8473.6761894656465
 30
0.0
 11
-129.0032443915197
 21
8403.6761894656465
 31
0.0
  0
LINE
  5
9415
  8
SP
 10
-14.003244391519731
 20
8413.6761894656483
 30
0.0
 11
-104.0032443915197
 21
8413.6761894656483
 31
0.0
  0
INSERT
  5
9416
  8
SP
  2
_OPEN
 10
10.99675560848026
 20
8413.6761894656483
 30
0.0
 41
25.0
 42
25.0
 43
25.0
  0
INSERT
  5
9417
  8
SP
  2
_OPEN
 10
-129.0032443915197
 20
8413.6761894656483
 30
0.0
 41
25.0
 42
25.0
 43
25.0
 50
180.0
  0
TEXT
  5
9418
  8
SP
 10
-100.5105819219898
 20
8423.6761894656483
 30
0.0
 40
30.0
  1
140
 51
15.0
  0
POINT
  5
9419
  8
DEFPOINTS
 62
     0
 10
10.996755608480269
 20
8471.4288100448593
 30
0.0
  0
POINT
  5
941A
  8
DEFPOINTS
 62
     0
 10
-129.0032443915197
 20
8483.6761894656483
 30
0.0
  0
POINT
  5
941B
  8
DEFPOINTS
 62
     0
 10
-129.0032443915197
 20
8413.6761894656483
 30
0.0
  0
ENDBLK
  5
60D3
  8
0
  0
BLOCK
  8
0
  2
*D6
 70
     1
 10
0.0
 20
0.0
 30
0.0
  3
*D6
  1

  0
LINE
  5
9454
  8
SP
 10
10.996755608480269
 20
8883.5934657609978
 30
0.0
 11
10.996755608480269
 21
8935.6761894656483
 31
0.0
  0
LINE
  5
9455
  8
SP
 10
-119.0032443915206
 20
8875.6761894656483
 30
0.0
 11
-119.0032443915206
 21
8935.6761894656483
 31
0.0
  0
LINE
  5
9456
  8
SP
 10
-14.00324439151972
 20
8925.6761894656483
 30
0.0
 11
-94.003244391520624
 21
8925.6761894656483
 31
0.0
  0
INSERT
  5
9457
  8
SP
  2
_OPEN
 10
10.996755608480269
 20
8925.6761894656483
 30
0.0
 41
25.0
 42
25.0
 43
25.0
  0
INSERT
  5
9458
  8
SP
  2
_OPEN
 10
-119.0032443915206
 20
8925.6761894656483
 30
0.0
 41
25.0
 42
25.0
 43
25.0
 50
180.0
  0
TEXT
  5
9459
  8
SP
 10
-95.510581921990308
 20
8935.6761894656483
 30
0.0
 40
30.0
  1
130
 51
15.0
  0
POINT
  5
945A
  8
DEFPOINTS
 62
     0
 10
10.996755608480269
 20
8873.5934657609978
 30
0.0
  0
POINT
  5
945B
  8
DEFPOINTS
 62
     0
 10
-119.0032443915206
 20
8865.6761894656483
 30
0.0
  0
POINT
  5
945C
  8
DEFPOINTS
 62
     0
 10
-119.0032443915206
 20
8925.6761894656483
 30
0.0
  0
ENDBLK
  5
64CE
  8
0
  0
BLOCK
  8
0
  2
*D7
 70
     1
 10
0.0
 20
0.0
 30
0.0
  3
*D7
  1

  0
LINE
  5
946F
  8
SP
 10
10.996755608480269
 20
8883.5934657609978
 30
0.0
 11
10.996755608480269
 21
8935.6761894656483
 31
0.0
  0
LINE
  5
9470
  8
SP
 10
144.9967556084793
 20
8706.6761894656483
 30
0.0
 11
144.99675560847939
 21
8935.6761894656483
 31
0.0
  0
LINE
  5
9471
  8
SP
 10
35.996755608480271
 20
8925.6761894656483
 30
0.0
 11
119.9967556084793
 21
8925.6761894656483
 31
0.0
  0
INSERT
  5
9472
  8
SP
  2
_OPEN
 10
10.996755608480269
 20
8925.6761894656483
 30
0.0
 41
25.0
 42
25.0
 43
25.0
 50
180.0
  0
INSERT
  5
9473
  8
SP
  2
_OPEN
 10
144.9967556084793
 20
8925.6761894656483
 30
0.0
 41
25.0
 42
25.0
 43
25.0
  0
TEXT
  5
9474
  8
SP
 10
36.974769452517698
 20
8935.6761894656483
 30
0.0
 40
30.0
  1
134
 51
15.0
  0
POINT
  5
9475
  8
DEFPOINTS
 62
     0
 10
10.996755608480269
 20
8873.5934657609978
 30
0.0
  0
POINT
  5
9476
  8
DEFPOINTS
 62
     0
 10
144.9967556084793
 20
8696.6761894656483
 30
0.0
  0
POINT
  5
9477
  8
DEFPOINTS
 62
     0
 10
144.9967556084793
 20
8925.6761894656483
 30
0.0
  0
ENDBLK
  5
64DB
  8
0
  0
BLOCK
  8
0
  2
*D8
 70
     1
 10
0.0
 20
0.0
 30
0.0
  3
*D8
  1

  0
LINE
  5
9497
  8
SP
 10
714.63781013938024
 20
8863.6761894656483
 30
0.0
 11
714.63781013938024
 21
8945.6761894656483
 31
0.0
  0
LINE
  5
9498
  8
SP
 10
826.63781013938035
 20
8863.6761894656483
 30
0.0
 11
826.63781013938035
 21
8945.6761894656483
 31
0.0
  0
LINE
  5
9499
  8
SP
 10
739.63781013938024
 20
8935.6761894656483
 30
0.0
 11
801.63781013938035
 21
8935.6761894656483
 31
0.0
  0
INSERT
  5
949A
  8
SP
  2
_OPEN
 10
714.63781013938024
 20
8935.6761894656483
 30
0.0
 41
25.0
 42
25.0
 43
25.0
 50
180.0
  0
INSERT
  5
949B
  8
SP
  2
_OPEN
 10
826.63781013938035
 20
8935.6761894656483
 30
0.0
 41
25.0
 42
25.0
 43
25.0
  0
TEXT
  5
949C
  8
SP
 10
731.98761546605294
 20
8945.6761894656483
 30
0.0
 40
30.0
  1
112
 51
15.0
  0
POINT
  5
949D
  8
DEFPOINTS
 62
     0
 10
714.63781013938024
 20
8853.6761894656483
 30
0.0
  0
POINT
  5
949E
  8
DEFPOINTS
 62
     0
 10
826.63781013938035
 20
8853.6761894656483
 30
0.0
  0
POINT
  5
949F
  8
DEFPOINTS
 62
     0
 10
826.63781013938035
 20
8935.6761894656483
 30
0.0
  0
ENDBLK
  5
729A
  8
0
  0
BLOCK
  8
0
  2
*D9
 70
     1
 10
0.0
 20
0.0
 30
0.0
  3
*D9
  1

  0
LINE
  5
948C
  8
SP
 10
770.63781013938024
 20
8985.6761894656483
 30
0.0
 11
770.63781013938024
 21
9015.6761894656483
 31
0.0
  0
LINE
  5
948D
  8
SP
 10
833.63781013938012
 20
8791.6761894656483
 30
0.0
 11
833.63781013938012
 21
9015.6761894656483
 31
0.0
  0
LINE
  5
948E
  8
SP
 10
745.63781013938024
 20
9005.6761894656483
 30
0.0
 11
720.63781013938024
 21
9005.6761894656483
 31
0.0
  0
LINE
  5
948F
  8
SP
 10
858.63781013938035
 20
9005.6761894656483
 30
0.0
 11
956.24221794475193
 21
9005.6761894656483
 31
0.0
  0
LINE
  5
9490
  8
SP
 10
770.63781013938024
 20
9005.6761894656483
 30
0.0
 11
833.63781013938012
 21
9005.6761894656483
 31
0.0
  0
INSERT
  5
9491
  8
SP
  2
_OPEN
 10
770.63781013938024
 20
9005.6761894656483
 30
0.0
 41
25.0
 42
25.0
 43
25.0
  0
INSERT
  5
9492
  8
SP
  2
_OPEN
 10
833.63781013938012
 20
9005.6761894656483
 30
0.0
 41
25.0
 42
25.0
 43
25.0
 50
180.0
  0
TEXT
  5
9493
  8
SP
 10
891.06088502896114
 20
9015.6761894656483
 30
0.0
 40
30.0
  1
63
 51
15.0
  0
POINT
  5
9494
  8
DEFPOINTS
 62
     0
 10
770.63781013938024
 20
8975.6761894656502
 30
0.0
  0
POINT
  5
9495
  8
DEFPOINTS
 62
     0
 10
833.63781013938012
 20
8781.6761894656465
 30
0.0
  0
POINT
  5
9496
  8
DEFPOINTS
 62
     0
 10
833.63781013938012
 20
9005.6761894656483
 30
0.0
  0
ENDBLK
  5
72A8
  8
0
  0
BLOCK
  8
0
  2
*D10
 70
     1
 10
0.0
 20
0.0
 30
0.0
  3
*D10
  1

  0
LINE
  5
94A0
  8
SP
 10
770.63781013938024
 20
8985.6761894656483
 30
0.0
 11
770.63781013938024
 21
9015.6761894656483
 31
0.0
  0
LINE
  5
94A1
  8
SP
 10
510.69113115790691
 20
8750.2404894656484
 30
0.0
 11
510.69113115790691
 21
9015.6761894656483
 31
0.0
  0
LINE
  5
94A2
  8
SP
 10
745.63781013938024
 20
9005.6761894656483
 30
0.0
 11
535.69113115790685
 21
9005.6761894656483
 31
0.0
  0
INSERT
  5
94A3
  8
SP
  2
_OPEN
 10
770.63781013938024
 20
9005.6761894656483
 30
0.0
 41
25.0
 42
25.0
 43
25.0
  0
INSERT
  5
94A4
  8
SP
  2
_OPEN
 10
510.69113115790691
 20
9005.6761894656483
 30
0.0
 41
25.0
 42
25.0
 43
25.0
 50
180.0
  0
TEXT
  5
94A5
  8
SP
 10
573.75476890824314
 20
9015.6761894656483
 30
0.0
 40
30.0
  1
（330）
 51
15.0
  0
POINT
  5
94A6
  8
DEFPOINTS
 62
     0
 10
770.63781013938024
 20
8975.6761894656502
 30
0.0
  0
POINT
  5
94A7
  8
DEFPOINTS
 62
     0
 10
510.69113115790691
 20
8740.2404894656484
 30
0.0
  0
POINT
  5
94A8
  8
DEFPOINTS
 62
     0
 10
510.69113115790691
 20
9005.6761894656483
 30
0.0
  0
ENDBLK
  5
72B4
  8
0
  0
BLOCK
  8
0
  2
*D11
 70
     1
 10
0.0
 20
0.0
 30
0.0
  3
*D11
  1

  0
LINE
  5
9439
  8
SP
 10
707.63781013938114
 20
8473.6761894656465
 30
0.0
 11
707.63781013938114
 21
8403.6761894656465
 31
0.0
  0
LINE
  5
943A
  8
SP
 10
537.63781013938024
 20
8473.6761894656465
 30
0.0
 11
537.63781013938024
 21
8403.6761894656465
 31
0.0
  0
LINE
  5
943B
  8
SP
 10
682.63781013938114
 20
8413.6761894656483
 30
0.0
 11
562.63781013938024
 21
8413.6761894656483
 31
0.0
  0
INSERT
  5
943C
  8
SP
  2
_OPEN
 10
707.63781013938114
 20
8413.6761894656483
 30
0.0
 41
25.0
 42
25.0
 43
25.0
  0
INSERT
  5
943D
  8
SP
  2
_OPEN
 10
537.63781013938024
 20
8413.6761894656483
 30
0.0
 41
25.0
 42
25.0
 43
25.0
 50
180.0
  0
TEXT
  5
943E
  8
SP
 10
581.13047260891051
 20
8423.6761894656483
 30
0.0
 40
30.0
  1
170
 51
15.0
  0
POINT
  5
943F
  8
DEFPOINTS
 62
     0
 10
707.63781013938114
 20
8483.6761894656447
 30
0.0
  0
POINT
  5
9440
  8
DEFPOINTS
 62
     0
 10
537.63781013938024
 20
8483.6761894656483
 30
0.0
  0
POINT
  5
9441
  8
DEFPOINTS
 62
     0
 10
537.63781013938024
 20
8413.6761894656483
 30
0.0
  0
ENDBLK
  5
72C0
  8
0
  0
BLOCK
  8
0
  2
*D12
 70
     1
 10
0.0
 20
0.0
 30
0.0
  3
*D12
  1

  0
LINE
  5
9442
  8
SP
 10
537.63781013938024
 20
8473.6761894656465
 30
0.0
 11
537.63781013938024
 21
8333.6761894656483
 31
0.0
  0
LINE
  5
9443
  8
SP
 10
770.63781013938024
 20
8474.8815913152157
 30
0.0
 11
770.63781013938024
 21
8333.6761894656483
 31
0.0
  0
LINE
  5
9444
  8
SP
 10
562.63781013938024
 20
8343.6761894656483
 30
0.0
 11
745.63781013938024
 21
8343.6761894656483
 31
0.0
  0
INSERT
  5
9445
  8
SP
  2
_OPEN
 10
537.63781013938024
 20
8343.6761894656483
 30
0.0
 41
25.0
 42
25.0
 43
25.0
 50
180.0
  0
INSERT
  5
9446
  8
SP
  2
_OPEN
 10
770.63781013938024
 20
8343.6761894656483
 30
0.0
 41
25.0
 42
25.0
 43
25.0
  0
TEXT
  5
9447
  8
SP
 10
612.26142939577039
 20
8353.6761894656483
 30
0.0
 40
30.0
  1
233
 51
15.0
  0
POINT
  5
9448
  8
DEFPOINTS
 62
     0
 10
537.63781013938024
 20
8483.6761894656483
 30
0.0
  0
POINT
  5
9449
  8
DEFPOINTS
 62
     0
 10
770.63781013938024
 20
8484.8815913152139
 30
0.0
  0
POINT
  5
944A
  8
DEFPOINTS
 62
     0
 10
770.63781013938024
 20
8343.6761894656483
 30
0.0
  0
ENDBLK
  5
72CC
  8
0
  0
BLOCK
  8
0
  2
*D13
 70
     1
 10
0.0
 20
0.0
 30
0.0
  3
*D13
  1

  0
LINE
  5
942E
  8
SP
 10
707.63781013938114
 20
8473.6761894656465
 30
0.0
 11
707.63781013938114
 21
8403.6761894656465
 31
0.0
  0
LINE
  5
942F
  8
SP
 10
770.63781013938024
 20
8474.8815913152157
 30
0.0
 11
770.63781013938024
 21
8403.6761894656465
 31
0.0
  0
LINE
  5
9430
  8
SP
 10
682.63781013938114
 20
8413.6761894656483
 30
0.0
 11
657.63781013938114
 21
8413.6761894656483
 31
0.0
  0
LINE
  5
9431
  8
SP
 10
795.63781013938024
 20
8413.6761894656483
 30
0.0
 11
893.24221794475181
 21
8413.6761894656483
 31
0.0
  0
LINE
  5
9432
  8
SP
 10
707.63781013938114
 20
8413.6761894656483
 30
0.0
 11
770.63781013938024
 21
8413.6761894656483
 31
0.0
  0
INSERT
  5
9433
  8
SP
  2
_OPEN
 10
707.63781013938114
 20
8413.6761894656483
 30
0.0
 41
25.0
 42
25.0
 43
25.0
  0
INSERT
  5
9434
  8
SP
  2
_OPEN
 10
770.63781013938024
 20
8413.6761894656483
 30
0.0
 41
25.0
 42
25.0
 43
25.0
 50
180.0
  0
TEXT
  5
9435
  8
SP
 10
828.06088502896125
 20
8423.6761894656483
 30
0.0
 40
30.0
  1
63
 51
15.0
  0
POINT
  5
9436
  8
DEFPOINTS
 62
     0
 10
707.63781013938114
 20
8483.6761894656447
 30
0.0
  0
POINT
  5
9437
  8
DEFPOINTS
 62
     0
 10
770.63781013938024
 20
8484.8815913152139
 30
0.0
  0
POINT
  5
9438
  8
DEFPOINTS
 62
     0
 10
770.63781013938024
 20
8413.6761894656483
 30
0.0
  0
ENDBLK
  5
72D8
  8
0
  0
BLOCK
  8
0
  2
*D14
 70
     1
 10
0.0
 20
0.0
 30
0.0
  3
*D14
  1

  0
LINE
  5
9AB0
  8
SP
 10
843.63781013938035
 20
8763.6761894656483
 30
0.0
 11
929.83337109879892
 21
8763.6761894656483
 31
0.0
  0
LINE
  5
9AB1
  8
SP
 10
843.63781013938035
 20
8603.6761894656483
 30
0.0
 11
929.83337109879892
 21
8603.6761894656483
 31
0.0
  0
LINE
  5
9AB2
  8
SP
 10
919.83337109879903
 20
8738.6761894656483
 30
0.0
 11
919.83337109879903
 21
8628.6761894656483
 31
0.0
  0
INSERT
  5
9AB3
  8
SP
  2
_OPEN
 10
919.83337109879903
 20
8763.6761894656483
 30
0.0
 41
25.0
 42
25.0
 43
25.0
 50
90.0
  0
INSERT
  5
9AB4
  8
SP
  2
_OPEN
 10
919.83337109879903
 20
8603.6761894656483
 30
0.0
 41
25.0
 42
25.0
 43
25.0
 50
270.0
  0
TEXT
  5
9AB5
  8
SP
 10
909.83337109879756
 20
8631.7622666625666
 30
0.0
 40
30.0
  1
φ160
 50
90.0
 51
15.0
  0
POINT
  5
9AB6
  8
DEFPOINTS
 62
     0
 10
833.63781013938012
 20
8763.6761894656483
 30
0.0
  0
POINT
  5
9AB7
  8
DEFPOINTS
 62
     0
 10
833.63781013938012
 20
8603.6761894656483
 30
0.0
  0
POINT
  5
9AB8
  8
DEFPOINTS
 62
     0
 10
919.83337109879903
 20
8603.6761894656483
 30
0.0
  0
ENDBLK
  5
72E4
  8
0
  0
BLOCK
  8
0
  2
*D15
 70
     1
 10
0.0
 20
0.0
 30
0.0
  3
*D15
  1

  0
LINE
  5
944B
  8
SP
 10
160.9967556084793
 20
9481.5412464436013
 30
0.0
 11
244.19703902278891
 21
9481.5412464436013
 31
0.0
  0
LINE
  5
944C
  8
SP
 10
160.9967556084793
 20
9311.5412464436013
 30
0.0
 11
244.19703902278891
 21
9311.5412464436013
 31
0.0
  0
LINE
  5
944D
  8
SP
 10
234.1970390227888
 20
9456.5412464436013
 30
0.0
 11
234.1970390227888
 21
9336.5412464436013
 31
0.0
  0
INSERT
  5
944E
  8
SP
  2
_OPEN
 10
234.1970390227888
 20
9481.5412464436013
 30
0.0
 41
25.0
 42
25.0
 43
25.0
 50
90.0
  0
INSERT
  5
944F
  8
SP
  2
_OPEN
 10
234.1970390227888
 20
9311.5412464436013
 30
0.0
 41
25.0
 42
25.0
 43
25.0
 50
270.0
  0
TEXT
  5
9450
  8
SP
 10
224.19703902278729
 20
9355.0339089131303
 30
0.0
 40
30.0
  1
170
 50
90.0
 51
15.0
  0
POINT
  5
9451
  8
DEFPOINTS
 62
     0
 10
150.9967556084793
 20
9481.5412464436013
 30
0.0
  0
POINT
  5
9452
  8
DEFPOINTS
 62
     0
 10
150.9967556084793
 20
9311.5412464436013
 30
0.0
  0
POINT
  5
9453
  8
DEFPOINTS
 62
     0
 10
234.1970390227888
 20
9311.5412464436013
 30
0.0
  0
ENDBLK
  5
8A94
  8
0
  0
BLOCK
  8
0
  2
*D16
 70
     1
 10
0.0
 20
0.0
 30
0.0
  3
*D16
  1

  0
LINE
  5
9478
  8
SP
 10
160.9967556084793
 20
9481.5412464436013
 30
0.0
 11
244.1970390227888
 21
9481.5412464436013
 31
0.0
  0
LINE
  5
9479
  8
SP
 10
193.7875201648512
 20
9544.5412464436013
 30
0.0
 11
244.19703902278891
 21
9544.5412464436013
 31
0.0
  0
LINE
  5
947A
  8
SP
 10
234.1970390227888
 20
9456.5412464436013
 30
0.0
 11
234.1970390227888
 21
9431.5412464435994
 31
0.0
  0
LINE
  5
947B
  8
SP
 10
234.1970390227888
 20
9569.5412464436013
 30
0.0
 11
234.1970390227888
 21
9667.1456542489723
 31
0.0
  0
LINE
  5
947C
  8
SP
 10
234.1970390227888
 20
9481.5412464436013
 30
0.0
 11
234.1970390227888
 21
9544.5412464436013
 31
0.0
  0
INSERT
  5
947D
  8
SP
  2
_OPEN
 10
234.1970390227888
 20
9481.5412464436013
 30
0.0
 41
25.0
 42
25.0
 43
25.0
 50
90.0
  0
INSERT
  5
947E
  8
SP
  2
_OPEN
 10
234.1970390227888
 20
9544.5412464436013
 30
0.0
 41
25.0
 42
25.0
 43
25.0
 50
270.0
  0
TEXT
  5
947F
  8
SP
 10
224.19703902278729
 20
9601.9643213331819
 30
0.0
 40
30.0
  1
63
 50
90.0
 51
15.0
  0
POINT
  5
9480
  8
DEFPOINTS
 62
     0
 10
150.9967556084793
 20
9481.5412464436013
 30
0.0
  0
POINT
  5
9481
  8
DEFPOINTS
 62
     0
 10
183.7875201648512
 20
9544.5412464436013
 30
0.0
  0
POINT
  5
9482
  8
DEFPOINTS
 62
     0
 10
234.1970390227888
 20
9544.5412464436013
 30
0.0
  0
ENDBLK
  5
8AA3
  8
0
  0
BLOCK
  8
0
  2
*D17
 70
     1
 10
0.0
 20
0.0
 30
0.0
  3
*D17
  1

  0
LINE
  5
945D
  8
SP
 10
-129.0032443915197
 20
9301.5412464436013
 30
0.0
 11
-129.0032443915197
 21
9193.5944674621278
 31
0.0
  0
LINE
  5
945E
  8
SP
 10
150.9967556084793
 20
9301.5412464436013
 30
0.0
 11
150.9967556084793
 21
9193.5944674621278
 31
0.0
  0
LINE
  5
945F
  8
SP
 10
-104.0032443915197
 20
9203.5944674621278
 30
0.0
 11
125.9967556084793
 21
9203.5944674621278
 31
0.0
  0
INSERT
  5
9460
  8
SP
  2
_OPEN
 10
-129.0032443915197
 20
9203.5944674621278
 30
0.0
 41
25.0
 42
25.0
 43
25.0
 50
180.0
  0
INSERT
  5
9461
  8
SP
  2
_OPEN
 10
150.9967556084793
 20
9203.5944674621278
 30
0.0
 41
25.0
 42
25.0
 43
25.0
  0
TEXT
  5
9462
  8
SP
 10
-30.1140560138981
 20
9213.5944674621278
 30
0.0
 40
30.0
  1
280
 51
15.0
  0
POINT
  5
9463
  8
DEFPOINTS
 62
     0
 10
-129.0032443915197
 20
9311.5412464436013
 30
0.0
  0
POINT
  5
9464
  8
DEFPOINTS
 62
     0
 10
150.9967556084793
 20
9311.5412464436013
 30
0.0
  0
POINT
  5
9465
  8
DEFPOINTS
 62
     0
 10
150.9967556084793
 20
9203.5944674621278
 30
0.0
  0
ENDBLK
  5
8AD7
  8
0
  0
ENDSEC
  0
SECTION
  2
ENTITIES
  0
ARC
  5
6027
  8
FUTO
 10
21.996755608478448
 20
8694.6761894656483
 30
0.0
 40
135.0
 50
269.5135224137598
 51
0.4450793962559058
  0
DIMENSION
  5
6028
  8
SP
  2
*D2
 10
-189.0032443915197
 20
8843.6761894656483
 30
0.0
 11
-214.00324439152109
 21
8763.6761894656483
 31
0.0
 70
     0
 13
-134.84887682794391
 23
8683.6761894656483
 33
0.0
 14
-119.0032443915197
 24
8843.6761894656483
 34
0.0
 50
90.0
  0
DIMENSION
  5
6029
  8
SP
  2
*D1
 10
-189.00324439152061
 20
8683.6761894656483
 30
0.0
 11
-214.003244391522
 21
8583.6761894656483
 31
0.0
 70
     0
 13
-129.0032443915197
 23
8483.6761894656483
 33
0.0
 14
-134.84887682794391
 24
8683.6761894656483
 34
0.0
 50
90.0
  0
DIMENSION
  5
602A
  8
SP
  2
*D4
 10
150.9967556084793
 20
8343.6761894656483
 30
0.0
 11
10.996755608479811
 21
8368.6761894656483
 31
0.0
 70
     0
 13
-129.0032443915197
 23
8483.6761894656483
 33
0.0
 14
150.9967556084793
 24
8483.6761894656483
 34
0.0
  0
LINE
  5
602B
  8
CT
 10
176.25152404315301
 20
8683.6761894656483
 30
0.0
 11
-134.84887682794391
 21
8683.6761894656483
 31
0.0
  0
ARC
  5
602C
  8
FUTO
 10
-2.0032443915206382
 20
8696.6761894656483
 30
0.0
 40
147.0
 50
42.71864451436317
 51
90.0
  0
ARC
  5
602D
  8
FUTO
 10
-2.0032443915206382
 20
8696.6761894656483
 30
0.0
 40
159.0
 50
47.215305089357443
 51
90.0
  0
ARC
  5
602E
  8
FUTO
 10
19.996755608479361
 20
8674.6761894656483
 30
0.0
 40
103.0
 50
184.26560891566629
 51
270.53161476225978
  0
ARC
  5
602F
  8
FUTO
 10
19.996755608479361
 20
8674.6761894656483
 30
0.0
 40
115.0
 50
184.26560891566629
 51
270.53161476225978
  0
ARC
  5
6030
  8
FUTO
 10
10.998420418706701
 20
8679.9893426686758
 30
0.0
 40
64.186846818564661
 50
296.75862459227471
 51
243.29311967506609
  0
CIRCLE
  5
6031
  8
CT
 10
10.996755608480269
 20
8683.6761894656483
 30
0.0
 40
90.0
  0
LINE
  5
6032
  8
FUTO
 10
-94.203244391519533
 20
8620.6761894656483
 30
0.0
 11
116.19675560847909
 21
8620.6761894656483
 31
0.0
  0
LINE
  5
6033
  8
FUTO
 10
70.996755608479361
 20
8602.2761894656469
 30
0.0
 11
-49.003244391520639
 21
8602.2761894656487
 31
0.0
  0
LINE
  5
6034
  8
FUTO
 10
-24.003244391519718
 20
8788.6761894656483
 30
0.0
 11
45.996755608480271
 21
8788.6761894656483
 31
0.0
  0
LINE
  5
6035
  8
FUTO
 10
39.994955608480268
 20
8622.6761894656483
 30
0.0
 11
-17.903944391519872
 21
8622.6761894656483
 31
0.0
  0
DIMENSION
  5
6036
  8
SP
  2
*D3
 10
150.9967556084793
 20
8413.6761894656483
 30
0.0
 11
80.996755608479816
 21
8438.6761894656483
 31
0.0
 70
     0
 13
10.996755608480269
 23
8471.4288100448593
 33
0.0
 14
150.9967556084793
 24
8483.6761894656483
 34
0.0
  0
ARC
  5
6037
  8
FUTO
 10
-2.0032443915206382
 20
8696.6761894656483
 30
0.0
 40
147.0
 50
359.59287178573129
 51
42.71864451436317
  0
ARC
  5
6038
  8
FUTO
 10
-2.0032443915206382
 20
8696.6761894656483
 30
0.0
 40
159.0
 50
359.59287178573129
 51
47.215305089357443
  0
CIRCLE
  5
6039
  8
FUTO
 10
94.145913534495776
 20
8718.1176983785081
 30
0.0
 40
4.0
  0
LINE
  5
603A
  8
FUTO
 10
120.9967556084793
 20
8713.6761894656483
 30
0.0
 11
45.996755608480271
 21
8788.6761894656483
 31
0.0
  0
LINE
  5
603B
  8
FUTO
 10
119.39675560847991
 20
8486.6761894656483
 30
0.0
 11
119.39675560847991
 21
8715.2761894656487
 31
0.0
  0
ARC
  5
603C
  8
FUTO
 10
21.996755608478448
 20
8694.6761894656483
 30
0.0
 40
123.0
 50
269.5135224137598
 51
0.4450793962559058
  0
LINE
  5
603D
  8
FUTO
 10
104.7728001767254
 20
8620.6761894656483
 30
0.0
 11
70.996755608480271
 21
8602.2761894656487
 31
0.0
  0
LINE
  5
603E
  8
CT
 10
102.4608293270975
 20
8645.7905296615063
 30
0.0
 11
85.830997741893952
 21
8652.6788314440764
 31
0.0
  0
LINE
  5
603F
  8
FUTO
 10
117.7967556084795
 20
8533.8761894656491
 30
0.0
 11
117.7967556084795
 21
8617.4761894656476
 31
0.0
  0
LINE
  5
6040
  8
FUTO
 10
120.9967556084793
 20
8486.2139049737361
 30
0.0
 11
120.9967556084793
 21
8713.6761894656483
 31
0.0
  0
LINE
  5
6041
  8
FUTO
 10
122.5967556084797
 20
8483.6761894656483
 30
0.0
 11
150.9967556084793
 21
8483.6761894656483
 31
0.0
  0
LINE
  5
6042
  8
FUTO
 10
121.9967556084793
 20
8485.2761894656487
 30
0.0
 11
150.9967556084793
 21
8485.2761894656487
 31
0.0
  0
LINE
  5
6043
  8
FUTO
 10
150.9967556084793
 20
8483.6761894656483
 30
0.0
 11
150.9967556084793
 21
8485.2761894656487
 31
0.0
  0
ARC
  5
6044
  8
FUTO
 10
121.9967556084793
 20
8486.2761894656487
 30
0.0
 40
1.0
 50
180.0
 51
270.0
  0
ARC
  5
6045
  8
FUTO
 10
122.5967556084797
 20
8486.8761894656491
 30
0.0
 40
3.2000000000000002
 50
180.0
 51
270.0
  0
LINE
  5
6046
  8
CT
 10
137.9967556084793
 20
8470.7003335502104
 30
0.0
 11
137.9967556084793
 21
8492.7003335502086
 31
0.0
  0
ARC
  5
6047
  8
FUTO
 10
119.39675560847991
 20
8483.6761894656483
 30
0.0
 40
3.0
 50
0.0000000000000076
 51
0.1194908935784599
  0
LINE
  5
6048
  8
FUTO
 10
119.3967556084789
 20
8533.8761894656491
 30
0.0
 11
117.7967556084795
 21
8533.8761894656491
 31
0.0
  0
LINE
  5
6049
  8
CT
 10
110.1625429896466
 20
8603.8761894656491
 30
0.0
 11
129.63674460020681
 21
8603.8761894656491
 31
0.0
  0
LINE
  5
604A
  8
CT
 10
110.1625429896466
 20
8548.8761894656509
 30
0.0
 11
129.63674460020681
 21
8548.8761894656509
 31
0.0
  0
LINE
  5
604B
  8
FUTO
 10
101.8357528229653
 20
8619.0761894656498
 30
0.0
 11
116.19675560847909
 21
8619.0761894656498
 31
0.0
  0
ARC
  5
604C
  8
FUTO
 10
116.19675560847909
 20
8617.4761894656476
 30
0.0
 40
3.2000000000000002
 50
0.0000000000000076
 51
90.0
  0
ARC
  5
604D
  8
FUTO
 10
116.19675560847909
 20
8617.4761894656476
 30
0.0
 40
1.6000000000000001
 50
0.0000000000000076
 51
90.0
  0
LINE
  5
604E
  8
FUTO
 10
119.39675560847991
 20
8534.8761894656491
 30
0.0
 11
119.39675560847991
 21
8618.4761894656476
 31
0.0
  0
LINE
  5
604F
  8
FUTO
 10
44.996755608480271
 20
8620.6761894656483
 30
0.0
 11
74.996755608480271
 21
8620.6761894656483
 31
0.0
  0
LINE
  5
6050
  8
FUTO
 10
74.996755608480271
 20
8622.9761894656476
 30
0.0
 11
46.132855608479979
 21
8622.9761894656476
 31
0.0
  0
LINE
  5
6051
  8
FUTO
 10
60.581655608480098
 20
8637.3912894656496
 30
0.0
 11
74.996755608480271
 21
8622.9761894656476
 31
0.0
  0
LINE
  5
6052
  8
FUTO
 10
74.996755608480271
 20
8622.9761894656476
 30
0.0
 11
74.996755608480271
 21
8620.6761894656483
 31
0.0
  0
CIRCLE
  5
6053
  8
FUTO
 10
94.145913534495776
 20
8649.2346805527923
 30
0.0
 40
4.0
  0
ARC
  5
6054
  8
FUTO
 10
46.132955608480181
 20
8626.6762894656495
 30
0.0
 40
3.7000999999999991
 50
218.82630000000199
 51
274.60909999999433
  0
CIRCLE
  5
6055
  8
FUTO
 10
45.438264521338162
 20
8600.5270315396338
 30
0.0
 40
4.0
  0
LINE
  5
6056
  8
CT
 10
48.882415412624141
 20
8592.2121157470301
 30
0.0
 11
41.9941136300531
 21
8608.8419473322356
 31
0.0
  0
ARC
  5
6057
  8
FUTO
 10
45.844155608479923
 20
8627.1759894656498
 30
0.0
 40
5.9997999999999987
 50
220.71839999999469
 51
261.88309999999711
  0
LINE
  5
6058
  8
FUTO
 10
44.996755608480271
 20
8621.2323894656474
 30
0.0
 11
44.996755608480271
 21
8620.6761894656483
 31
0.0
  0
LINE
  5
6059
  8
CT
 10
102.4608293270975
 20
8721.5618492697922
 30
0.0
 11
85.830997741893952
 21
8714.6735474872203
 31
0.0
  0
LINE
  5
605A
  8
CT
 10
48.882415412624141
 20
8775.1402631842666
 30
0.0
 11
41.994113630052198
 21
8758.5104315990629
 31
0.0
  0
CIRCLE
  5
605B
  8
FUTO
 10
45.438264521338162
 20
8766.8253473916666
 30
0.0
 40
4.0
  0
LINE
  5
605C
  8
CT
 10
10.996755608480269
 20
8873.5934657609978
 30
0.0
 11
10.996755608480269
 21
8471.4288100448593
 31
0.0
  0
LINE
  5
605D
  8
FUTO
 10
-104.0032443915206
 20
8829.6761894656483
 30
0.0
 11
-104.0032443915206
 21
8697.6761894656483
 31
0.0
  0
LINE
  5
605E
  8
FUTO
 10
-118.0032443915206
 20
8846.6761894656483
 30
0.0
 11
-118.0032443915206
 21
8661.6761894656502
 31
0.0
  0
LINE
  5
605F
  8
FUTO
 10
-119.0032443915206
 20
8865.6761894656483
 30
0.0
 11
-119.0032443915206
 21
8661.6761894656502
 31
0.0
  0
CIRCLE
  5
6060
  8
FUTO
 10
-72.152402317536144
 20
8718.1176983785081
 30
0.0
 40
4.0
  0
LINE
  5
6061
  8
FUTO
 10
-99.003244391519715
 20
8713.6761894656483
 30
0.0
 11
-24.003244391519718
 21
8788.6761894656483
 31
0.0
  0
LINE
  5
6062
  8
FUTO
 10
-97.403244391520275
 20
8486.8761894656491
 30
0.0
 11
-97.403244391519365
 21
8715.2761894656487
 31
0.0
  0
LINE
  5
6063
  8
FUTO
 10
-82.779288959765836
 20
8620.6761894656483
 30
0.0
 11
-49.003244391520639
 21
8602.2761894656487
 31
0.0
  0
DIMENSION
  5
6064
  8
SP
  2
*D5
 10
-129.0032443915197
 20
8413.6761894656483
 30
0.0
 11
-59.003244391519722
 21
8438.6761894656483
 31
0.0
 70
     0
 13
10.996755608480269
 23
8471.4288100448593
 33
0.0
 14
-129.0032443915197
 24
8483.6761894656483
 34
0.0
  0
ARC
  5
6065
  8
FUTO
 10
-24.081844391520459
 20
8626.2763894656491
 30
0.0
 40
3.3001999999999989
 50
270.00130000000058
 51
326.01850000000201
  0
CIRCLE
  5
6066
  8
FUTO
 10
-23.444753304377631
 20
8600.5270315396338
 30
0.0
 40
4.0
  0
LINE
  5
6067
  8
CT
 10
-26.888904195663599
 20
8592.2121157470301
 30
0.0
 11
-20.000602413091649
 21
8608.8419473322356
 31
0.0
  0
ARC
  5
6068
  8
FUTO
 10
-24.023944391519759
 20
8627.1760894656491
 30
0.0
 40
5.9999000000000002
 50
279.6292000000023
 51
320.9463999999993
  0
LINE
  5
6069
  8
FUTO
 10
-38.349144391520888
 20
8637.6302894656474
 30
0.0
 11
-53.003244391519729
 21
8622.9761894656476
 31
0.0
  0
LINE
  5
606A
  8
FUTO
 10
-23.003244391519718
 20
8620.6761894656483
 30
0.0
 11
-53.003244391519729
 21
8620.6761894656483
 31
0.0
  0
LINE
  5
606B
  8
FUTO
 10
-23.815844391519931
 20
8622.9761894656476
 30
0.0
 11
-52.739544391520212
 21
8622.9761894656476
 31
0.0
  0
LINE
  5
606C
  8
FUTO
 10
-23.003244391519718
 20
8621.2520894656463
 30
0.0
 11
-23.003244391519718
 21
8620.6761894656483
 31
0.0
  0
LINE
  5
606D
  8
FUTO
 10
-53.003244391519729
 20
8622.9761894656476
 30
0.0
 11
-53.003244391519729
 21
8620.6761894656483
 31
0.0
  0
LINE
  5
606E
  8
FUTO
 10
-97.403244391520275
 20
8533.8761894656491
 30
0.0
 11
-97.403244391519365
 21
8617.4761894656476
 31
0.0
  0
LINE
  5
606F
  8
FUTO
 10
-95.803244391519925
 20
8533.8761894656491
 30
0.0
 11
-95.803244391519925
 21
8617.4761894656476
 31
0.0
  0
LINE
  5
6070
  8
FUTO
 10
-99.003244391520653
 20
8486.2761894656487
 30
0.0
 11
-99.003244391519715
 21
8713.6761894656483
 31
0.0
  0
LINE
  5
6071
  8
FUTO
 10
-100.0032443915206
 20
8485.2761894656487
 30
0.0
 11
-129.00324439152061
 21
8485.2761894656487
 31
0.0
  0
LINE
  5
6072
  8
FUTO
 10
-100.60324439151999
 20
8483.6761894656483
 30
0.0
 11
-129.00324439152061
 21
8483.6761894656483
 31
0.0
  0
LINE
  5
6073
  8
FUTO
 10
-97.403244391520275
 20
8533.8761894656491
 30
0.0
 11
-95.803244391519925
 21
8533.8761894656491
 31
0.0
  0
ARC
  5
6074
  8
FUTO
 10
-100.60324439151999
 20
8486.8761894656491
 30
0.0
 40
3.2000000000000002
 50
270.0
 51
0.0000000000000076
  0
ARC
  5
6075
  8
FUTO
 10
-100.0032443915206
 20
8486.2761894656487
 30
0.0
 40
1.0
 50
270.0
 51
0.0000000000000076
  0
LINE
  5
6076
  8
CT
 10
-116.0032443915206
 20
8470.7003335502104
 30
0.0
 11
-116.0032443915206
 21
8492.7003335502086
 31
0.0
  0
LINE
  5
6077
  8
FUTO
 10
-129.00324439152061
 20
8483.6761894656483
 30
0.0
 11
-129.00324439152061
 21
8485.2761894656487
 31
0.0
  0
ARC
  5
6078
  8
FUTO
 10
-94.003244391520624
 20
8680.2219829226215
 30
0.0
 40
10.0
 50
179.99999999999989
 51
240.0000000000027
  0
LINE
  5
6079
  8
CT
 10
-107.3116863101113
 20
8603.8761894656491
 30
0.0
 11
-87.837484699551169
 21
8603.8761894656491
 31
0.0
  0
LINE
  5
607A
  8
CT
 10
-107.3116863101113
 20
8548.8761894656509
 30
0.0
 11
-87.837484699552078
 21
8548.8761894656509
 31
0.0
  0
LINE
  5
607B
  8
FUTO
 10
-94.203244391519533
 20
8619.0761894656498
 30
0.0
 11
-79.842241606004791
 21
8619.076189465648
 31
0.0
  0
ARC
  5
607C
  8
FUTO
 10
-94.203244391519533
 20
8617.4761894656476
 30
0.0
 40
3.2000000000000002
 50
90.0
 51
180.0
  0
ARC
  5
607D
  8
FUTO
 10
-94.203244391519533
 20
8617.4761894656476
 30
0.0
 40
1.6000000000000001
 50
90.0
 51
180.0
  0
ARC
  5
607E
  8
FUTO
 10
-100.6680694235074
 20
8665.6761894656465
 30
0.0
 40
18.0
 50
4.2656089156662311
 51
84.693112663675535
  0
LINE
  5
607F
  8
CT
 10
-80.467318110137967
 20
8645.7905296615045
 30
0.0
 11
-63.83748652493432
 21
8652.6788314440764
 31
0.0
  0
CIRCLE
  5
6080
  8
FUTO
 10
-72.152402317536144
 20
8649.2346805527905
 30
0.0
 40
4.0
  0
ARC
  5
6081
  8
FUTO
 10
-100.6680694235074
 20
8665.6761894656465
 30
0.0
 40
18.0
 50
84.693112663675535
 51
90.0
  0
ARC
  5
6082
  8
FUTO
 10
-94.003244391520624
 20
8680.2219829226215
 30
0.0
 40
10.0
 50
240.0000000000027
 51
245.38293604451411
  0
ARC
  5
6083
  8
FUTO
 10
-100.6680694235074
 20
8665.6761894656465
 30
0.0
 40
6.0
 50
4.2656089156662311
 51
65.382936044519653
  0
LINE
  5
6084
  8
CT
 10
-126.1880899699535
 20
8671.6761894656483
 30
0.0
 11
-108.3194710999214
 21
8671.6761894656483
 31
0.0
  0
LINE
  5
6085
  8
FUTO
 10
-119.0032443915206
 20
8661.6761894656502
 30
0.0
 11
-118.0032443915206
 21
8661.6761894656502
 31
0.0
  0
ARC
  5
6086
  8
FUTO
 10
-116.0032443915206
 20
8680.6761894656483
 30
0.0
 40
2.0
 50
90.0
 51
179.99999999999989
  0
ARC
  5
6087
  8
FUTO
 10
-114.1748172667748
 20
8684.6761894656465
 30
0.0
 40
2.0
 50
135.00000000000909
 51
270.0
  0
LINE
  5
6088
  8
FUTO
 10
-104.0032443915206
 20
8683.6761894656483
 30
0.0
 11
-104.0032443915206
 21
8680.2219829226215
 31
0.0
  0
LINE
  5
6089
  8
FUTO
 10
-116.0032443915206
 20
8682.6761894656483
 30
0.0
 11
-104.0032443915206
 21
8682.6761894656483
 31
0.0
  0
LINE
  5
608A
  8
FUTO
 10
-115.5890308291473
 20
8686.090403028018
 30
0.0
 11
-104.0032443915206
 21
8697.6761894656483
 31
0.0
  0
LINE
  5
608B
  8
FUTO
 10
-119.0032443915206
 20
8843.6761894656483
 30
0.0
 11
-2.0032443915206382
 21
8843.6761894656483
 31
0.0
  0
LINE
  5
608C
  8
FUTO
 10
-104.0032443915206
 20
8855.6761894656483
 30
0.0
 11
-2.0032443915206382
 21
8855.6761894656483
 31
0.0
  0
LINE
  5
608D
  8
CT
 10
-26.888904195664509
 20
8775.1402631842648
 30
0.0
 11
-20.000602413092562
 21
8758.5104315990629
 31
0.0
  0
CIRCLE
  5
608E
  8
FUTO
 10
-23.44475330437853
 20
8766.8253473916648
 30
0.0
 40
4.0
  0
LINE
  5
608F
  8
CT
 10
-80.467318110137967
 20
8721.5618492697922
 30
0.0
 11
-63.83748652493432
 21
8714.6735474872203
 31
0.0
  0
LINE
  5
6090
  8
CT
 10
-126.1880899699535
 20
8855.6761894656483
 30
0.0
 11
-109.6269306026897
 21
8855.6761894656483
 31
0.0
  0
ARC
  5
6091
  8
FUTO
 10
-116.0032443915206
 20
8846.6761894656483
 30
0.0
 40
2.0
 50
179.99999999999989
 51
270.0
  0
ARC
  5
6092
  8
FUTO
 10
-114.1748172667748
 20
8842.6761894656465
 30
0.0
 40
2.0
 50
90.0
 51
224.99999999999079
  0
LINE
  5
6093
  8
FUTO
 10
-104.0032443915206
 20
8855.6761894656483
 30
0.0
 11
-104.0032443915206
 21
8843.6761894656483
 31
0.0
  0
LINE
  5
6094
  8
FUTO
 10
-115.5890308291473
 20
8841.261975903275
 30
0.0
 11
-104.0032443915206
 21
8829.6761894656483
 31
0.0
  0
LINE
  5
6095
  8
FUTO
 10
-116.0032443915206
 20
8844.6761894656502
 30
0.0
 11
-104.0032443915206
 21
8844.6761894656502
 31
0.0
  0
LINE
  5
6096
  8
FUTO
 10
-119.0032443915206
 20
8865.6761894656483
 30
0.0
 11
-118.0032443915206
 21
8865.6761894656483
 31
0.0
  0
LINE
  5
6097
  8
FUTO
 10
-118.0032443915206
 20
8865.6761894656483
 30
0.0
 11
-118.0032443915206
 21
8846.6761894656483
 31
0.0
  0
DIMENSION
  5
64C2
  8
SP
  2
*D6
 10
-119.0032443915206
 20
8925.6761894656483
 30
0.0
 11
-54.003244391520191
 21
8950.6761894656483
 31
0.0
 70
     0
 13
10.996755608480269
 23
8873.5934657609978
 33
0.0
 14
-119.0032443915206
 24
8865.6761894656483
 34
0.0
  0
DIMENSION
  5
64CF
  8
SP
  2
*D7
 10
144.9967556084793
 20
8925.6761894656483
 30
0.0
 11
77.996755608479816
 21
8950.6761894656483
 31
0.0
 70
     0
 13
10.996755608480269
 23
8873.5934657609978
 33
0.0
 14
144.9967556084793
 24
8696.6761894656483
 34
0.0
  0
LINE
  5
719B
  8
CT
 10
-148.7384793245819
 20
9544.5412464436013
 30
0.0
 11
183.7875201648512
 21
9544.5412464436013
 31
0.0
  0
LINE
  5
719E
  8
FUTO
 10
151.2195617783818
 20
9600.2831962449363
 30
0.0
 11
-118.0032443915206
 21
9600.2831962449363
 31
0.0
  0
LINE
  5
719F
  8
FUTO
 10
151.32705925164001
 20
9600.8831962449385
 30
0.0
 11
-118.00324439151881
 21
9600.8831962449385
 31
0.0
  0
LINE
  5
71A6
  8
FUTO
 10
148.39268245003399
 20
9487.6831962449396
 30
0.0
 11
-118.00324439151881
 21
9487.6831962449396
 31
0.0
  0
LINE
  5
71A7
  8
FUTO
 10
148.39268245003399
 20
9488.2831962449382
 30
0.0
 11
-118.00324439151881
 21
9488.2831962449382
 31
0.0
  0
LINE
  5
71AE
  8
FUTO
 10
-119.00324439151881
 20
9621.5412464435994
 30
0.0
 11
-119.00324439151881
 21
9467.5412464435994
 31
0.0
  0
LINE
  5
71AF
  8
FUTO
 10
-118.00324439151881
 20
9621.5412464435994
 30
0.0
 11
-118.00324439151881
 21
9467.5412464435994
 31
0.0
  0
LINE
  5
71B0
  8
FUTO
 10
-104.00324439151881
 20
9502.1270328812316
 30
0.0
 11
-104.00324439151881
 21
9586.9554600059728
 31
0.0
  0
LINE
  5
71B8
  8
FUTO
 10
-115.5890308291473
 20
9490.5412464435994
 30
0.0
 11
-104.00324439151881
 21
9502.1270328812298
 31
0.0
  0
LINE
  5
71BC
  8
FUTO
 10
-119.00324439151881
 20
9467.5412464435994
 30
0.0
 11
-118.00324439151881
 21
9467.5412464435994
 31
0.0
  0
LINE
  5
71BD
  8
CT
 10
-123.5067982988966
 20
9477.5412464436013
 30
0.0
 11
-113.4996904841409
 21
9477.5412464436013
 31
0.0
  0
LINE
  5
71BE
  8
FUTO
 10
-115.5890308291473
 20
9490.5412464435994
 30
0.0
 11
-115.5890308291473
 21
9488.5412464436013
 31
0.0
  0
ARC
  5
71C4
  8
FUTO
 10
-87.003244391520639
 20
9482.9412464436009
 30
0.0
 40
2.0
 50
180.0
 51
270.0
  0
LINE
  5
71C6
  8
FUTO
 10
-89.003244391520624
 20
9482.9412464436009
 30
0.0
 11
-89.003244391520624
 21
9487.9412464435991
 31
0.0
  0
LINE
  5
71C8
  8
CT
 10
-79.003244391520639
 20
9474.3575731465953
 30
0.0
 11
-79.003244391520639
 21
9485.3305936665893
 31
0.0
  0
LINE
  5
71CB
  8
FUTO
 10
-115.5890308291473
 20
9598.5412464435994
 30
0.0
 11
-104.00324439151881
 21
9586.9554600059728
 31
0.0
  0
LINE
  5
71CC
  8
FUTO
 10
-119.00324439151881
 20
9621.5412464435994
 30
0.0
 11
-118.00324439151881
 21
9621.5412464435994
 31
0.0
  0
LINE
  5
71CD
  8
CT
 10
-123.5067982988966
 20
9611.5412464435994
 30
0.0
 11
-113.4996904841409
 21
9611.5412464435994
 31
0.0
  0
LINE
  5
71CE
  8
FUTO
 10
-115.5890308291473
 20
9598.5412464435994
 30
0.0
 11
-115.5890308291473
 21
9600.5412464436031
 31
0.0
  0
LINE
  5
71D4
  8
CT
 10
10.99675560847936
 20
9656.5326023159414
 30
0.0
 11
10.99675560848118
 21
9256.3458193096176
 31
0.0
  0
LINE
  5
71D5
  8
FUTO
 10
156.3926824500322
 20
9496.2831962449382
 30
0.0
 11
156.3926824500322
 21
9592.7992966422607
 31
0.0
  0
LINE
  5
71D6
  8
FUTO
 10
156.9926824500325
 20
9496.2831962449382
 30
0.0
 11
156.9926824500325
 21
9592.7992966422607
 31
0.0
  0
LINE
  5
71EE
  8
FUTO
 10
110.9967556084793
 20
9482.9412464436009
 30
0.0
 11
110.9967556084793
 21
9487.9412464435991
 31
0.0
  0
LINE
  5
71EF
  8
CT
 10
100.9967556084793
 20
9474.3575731465953
 30
0.0
 11
100.9967556084793
 21
9485.3305936665893
 31
0.0
  0
ARC
  5
71F0
  8
FUTO
 10
108.9967556084793
 20
9482.9412464436009
 30
0.0
 40
2.0
 50
270.0
 51
0.0
  0
ARC
  5
71F7
  8
FUTO
 10
148.39268245003399
 20
9496.2831962449382
 30
0.0
 40
8.5999999999999996
 50
270.0
 51
0.0
  0
ARC
  5
71F8
  8
FUTO
 10
148.39268245003399
 20
9496.2831962449382
 30
0.0
 40
8.0
 50
270.0
 51
0.0
  0
ARC
  5
71FB
  8
FUTO
 10
148.39268245003399
 20
9592.7992966422607
 30
0.0
 40
8.5999999999999996
 50
0.0
 51
70.049595990217441
  0
ARC
  5
71FC
  8
FUTO
 10
148.39268245003399
 20
9592.7992966422607
 30
0.0
 40
8.0
 50
0.0
 51
69.307039139858006
  0
DIMENSION
  5
7201
  8
SP
  2
*D8
 10
826.63781013938035
 20
8935.6761894656483
 30
0.0
 11
770.63781013938024
 21
8960.6761894656483
 31
0.0
 70
     0
 13
714.63781013938024
 23
8853.6761894656483
 33
0.0
 14
826.63781013938035
 24
8853.6761894656483
 34
0.0
  0
DIMENSION
  5
7202
  8
SP
  2
*D9
 10
833.63781013938012
 20
9005.6761894656483
 30
0.0
 11
919.94001404206597
 21
9030.6761894656483
 31
0.0
 70
     0
 13
770.63781013938024
 23
8975.6761894656502
 33
0.0
 14
833.63781013938012
 24
8781.6761894656465
 34
0.0
  0
DIMENSION
  5
7203
  8
SP
  2
*D10
 10
510.69113115790691
 20
9005.6761894656483
 30
0.0
 11
640.6644706486436
 21
9030.6761894656483
 31
0.0
 70
     0
  1
（330）
 13
770.63781013938024
 23
8975.6761894656502
 33
0.0
 14
510.69113115790691
 24
8740.2404894656484
 34
0.0
  0
LINE
  5
7205
  8
FUTO
 10
647.63781013938024
 20
8656.8761894656473
 30
0.0
 11
706.03781013938158
 21
8715.2761894656469
 31
0.0
  0
DIMENSION
  5
7208
  8
SP
  2
*D11
 10
537.63781013938024
 20
8413.6761894656483
 30
0.0
 11
622.63781013938058
 21
8438.6761894656483
 31
0.0
 70
     0
 13
707.63781013938114
 23
8483.6761894656447
 33
0.0
 14
537.63781013938024
 24
8483.6761894656483
 34
0.0
  0
LINE
  5
7209
  8
CT
 10
478.98834088006328
 20
8683.6761894656483
 30
0.0
 11
865.48807483452754
 21
8683.6761894656483
 31
0.0
  0
DIMENSION
  5
720C
  8
SP
  2
*D12
 10
770.63781013938024
 20
8343.6761894656483
 30
0.0
 11
654.13781013938024
 21
8368.6761894656483
 31
0.0
 70
     0
 13
537.63781013938024
 23
8483.6761894656483
 33
0.0
 14
770.63781013938024
 24
8484.8815913152139
 34
0.0
  0
LINE
  5
720E
  8
FUTO
 10
537.63781013938024
 20
8485.2761894656469
 30
0.0
 11
647.63781013938024
 21
8656.8761894656473
 31
0.0
  0
LINE
  5
7218
  8
FUTO
 10
534.83781013938096
 20
8620.6761894656483
 30
0.0
 11
624.43268193425126
 21
8620.6761894656483
 31
0.0
  0
LINE
  5
7219
  8
FUTO
 10
534.83781013938096
 20
8619.0761894656498
 30
0.0
 11
623.40704090861072
 21
8619.0761894656462
 31
0.0
  0
LINE
  5
721A
  8
FUTO
 10
578.43909639741923
 20
8548.9261960281892
 30
0.0
 11
540.22384959309954
 21
8619.0761894656498
 31
0.0
  0
ARC
  5
721D
  8
FUTO
 10
534.83781013938096
 20
8617.4761894656476
 30
0.0
 40
3.2000000000000002
 50
90.0
 51
180.0
  0
ARC
  5
721E
  8
FUTO
 10
534.83781013938096
 20
8617.4761894656476
 30
0.0
 40
1.6000000000000001
 50
90.0
 51
180.0
  0
LINE
  5
721F
  8
FUTO
 10
533.2378101393806
 20
8602.2761894656487
 30
0.0
 11
533.2378101393806
 21
8617.4761894656476
 31
0.0
  0
LINE
  5
7220
  8
FUTO
 10
531.63781013938024
 20
8602.2761894656487
 30
0.0
 11
531.63781013938024
 21
8617.4761894656476
 31
0.0
  0
LINE
  5
7221
  8
FUTO
 10
531.63781013938024
 20
8602.2761894656487
 30
0.0
 11
533.2378101393806
 21
8602.2761894656487
 31
0.0
  0
LINE
  5
7234
  8
FUTO
 10
706.03781013938158
 20
8788.6761894656483
 30
0.0
 11
706.03781013937987
 21
8483.6761894656483
 31
0.0
  0
LINE
  5
7235
  8
FUTO
 10
707.63781013938024
 20
8788.6761894656483
 30
0.0
 11
707.63781013938114
 21
8483.6761894656483
 31
0.0
  0
LINE
  5
7237
  8
CT
 10
770.63781013938024
 20
8484.8815913152139
 30
0.0
 11
770.63781013938024
 21
8874.909429735646
 31
0.0
  0
DIMENSION
  5
7238
  8
SP
  2
*D13
 10
770.63781013938024
 20
8413.6761894656483
 30
0.0
 11
856.94001404206608
 21
8438.6761894656483
 31
0.0
 70
     0
 13
707.63781013938114
 23
8483.6761894656447
 33
0.0
 14
770.63781013938024
 24
8484.8815913152139
 34
0.0
  0
LINE
  5
723A
  8
FUTO
 10
714.63781013938024
 20
8845.6761894656465
 30
0.0
 11
826.63781013938035
 21
8845.6761894656465
 31
0.0
  0
LINE
  5
723B
  8
CT
 10
822.9111469264044
 20
8773.6761894656483
 30
0.0
 11
837.41653413408847
 21
8773.6761894656483
 31
0.0
  0
LINE
  5
723C
  8
CT
 10
822.9111469264044
 20
8593.6761894656483
 30
0.0
 11
837.41653413408847
 21
8593.6761894656483
 31
0.0
  0
ARC
  5
723D
  8
FUTO
 10
819.15391053670271
 20
8578.6810555717057
 30
0.0
 40
8.5999999999999996
 50
270.0
 51
340.04959599021743
  0
ARC
  5
723E
  8
FUTO
 10
819.15391053670271
 20
8578.6810555717057
 30
0.0
 40
8.0
 50
270.0
 51
339.30703913985798
  0
LINE
  5
723F
  8
FUTO
 10
713.63781013938024
 20
8865.6761894656483
 30
0.0
 11
827.63781013938024
 21
8865.6761894656483
 31
0.0
  0
LINE
  5
7240
  8
FUTO
 10
714.63781013938024
 20
8578.6810555717057
 30
0.0
 11
714.63781013938024
 21
8855.6761894656483
 31
0.0
  0
LINE
  5
7241
  8
FUTO
 10
714.03781013937987
 20
8578.6810555717057
 30
0.0
 11
714.03781013937987
 21
8855.6761894656483
 31
0.0
  0
LINE
  5
7245
  8
FUTO
 10
693.63781013938024
 20
8845.6761894656465
 30
0.0
 11
693.63781013938024
 21
8702.8761894656454
 31
0.0
  0
LINE
  5
7246
  8
FUTO
 10
722.63781013938024
 20
8570.0810555717053
 30
0.0
 11
819.15391053670271
 21
8570.0810555717053
 31
0.0
  0
LINE
  5
7247
  8
FUTO
 10
722.63781013938024
 20
8570.6810555717057
 30
0.0
 11
819.15391053670271
 21
8570.6810555717057
 31
0.0
  0
LINE
  5
7248
  8
FUTO
 10
707.63781013938024
 20
8662.5974054373128
 30
0.0
 11
707.63781013938024
 21
8584.3352785927054
 31
0.0
  0
ARC
  5
7249
  8
FUTO
 10
722.63781013938024
 20
8578.6810555717057
 30
0.0
 40
8.5999999999999996
 50
180.0
 51
270.0
  0
ARC
  5
724A
  8
FUTO
 10
722.63781013938024
 20
8578.6810555717057
 30
0.0
 40
8.0
 50
180.0
 51
270.0
  0
LINE
  5
724B
  8
FUTO
 10
714.03781013938169
 20
8583.6761894656483
 30
0.0
 11
709.12170974205765
 21
8583.6761894656483
 31
0.0
  0
ARC
  5
724C
  8
FUTO
 10
709.12170974205765
 20
8585.6761894656483
 30
0.0
 40
2.0
 50
222.10222534309139
 51
270.0
  0
LINE
  5
7250
  8
CT
 10
718.36447335235607
 20
8593.6761894656483
 30
0.0
 11
703.85908614467371
 21
8593.6761894656483
 31
0.0
  0
ARC
  5
7251
  8
FUTO
 10
774.83781013938085
 20
8567.6810555717057
 30
0.0
 40
3.0
 50
126.8698976458127
 51
180.0
  0
ARC
  5
7252
  8
FUTO
 10
766.43781013937939
 20
8567.6810555717057
 30
0.0
 40
3.0
 50
0.0
 51
53.130102354187251
  0
ARC
  5
7253
  8
FUTO
 10
770.63781013938024
 20
8560.8810555717027
 30
0.0
 40
1.1999999999999991
 50
180.0
 51
0.0
  0
LINE
  5
7254
  8
FUTO
 10
771.83781013938096
 20
8567.6810555717057
 30
0.0
 11
771.83781013938096
 21
8560.8810555717027
 31
0.0
  0
LINE
  5
7255
  8
FUTO
 10
769.43781013937951
 20
8567.6810555717057
 30
0.0
 11
769.43781013937951
 21
8560.8810555717027
 31
0.0
  0
LINE
  5
7259
  8
FUTO
 10
707.63781013938024
 20
8788.6761894656483
 30
0.0
 11
706.03781013938158
 21
8788.6761894656483
 31
0.0
  0
LINE
  5
725A
  8
CT
 10
718.36447335235607
 20
8773.6761894656483
 30
0.0
 11
703.85908614467371
 21
8773.6761894656483
 31
0.0
  0
LINE
  5
725B
  8
CT
 10
714.63781013938024
 20
8763.6761894656483
 30
0.0
 11
714.03781013938169
 21
8763.6761894656483
 31
0.0
  0
LINE
  5
725C
  8
FUTO
 10
714.03781013938169
 20
8783.6761894656502
 30
0.0
 11
709.63781013938024
 21
8783.6761894656502
 31
0.0
  0
ARC
  5
725D
  8
FUTO
 10
709.63781013938024
 20
8781.6761894656465
 30
0.0
 40
2.0
 50
90.0
 51
180.0
  0
POINT
  5
725E
  8
FUTO
 10
707.63781013938024
 20
8781.6761894656465
 30
0.0
  0
POINT
  5
725F
  8
FUTO
 10
707.63781013938024
 20
8781.6761894656465
 30
0.0
  0
ARC
  5
7260
  8
FUTO
 10
713.63781013938024
 20
8845.6761894656465
 30
0.0
 40
20.0
 50
90.0
 51
180.0
  0
LINE
  5
7261
  8
FUTO
 10
714.03781013937987
 20
8855.6761894656483
 30
0.0
 11
714.63781013938205
 21
8855.6761894656483
 31
0.0
  0
LINE
  5
7262
  8
SP
 10
770.63781013938024
 20
8880.6751183490851
 30
0.0
 11
770.63781013938024
 21
8929.6890191853054
 31
0.0
  0
LINE
  5
7263
  8
FUTO
 10
827.23781013938242
 20
8855.6761894656483
 30
0.0
 11
827.23781013938242
 21
8575.7466787700978
 31
0.0
  0
LINE
  5
7264
  8
FUTO
 10
826.63781013938035
 20
8578.6810555717057
 30
0.0
 11
826.63781013938035
 21
8855.6761894656483
 31
0.0
  0
DIMENSION
  5
7265
  8
SP
  2
*D14
 10
919.83337109879903
 20
8603.6761894656483
 30
0.0
 11
894.83337109879767
 21
8683.6761894656483
 31
0.0
 70
     0
 13
833.63781013938012
 23
8763.6761894656483
 33
0.0
 14
833.63781013938012
 24
8603.6761894656483
 34
0.0
 50
90.0
1001
ACAD
1000
DSTYLE
1002
{
1070
     3
1000
φ<>
1002
}
  0
LINE
  5
7266
  8
FUTO
 10
847.63781013938024
 20
8845.6761894656465
 30
0.0
 11
847.63781013938024
 21
8681.6761894656483
 31
0.0
  0
LINE
  5
7267
  8
FUTO
 10
833.63781013938012
 20
8781.6761894656465
 30
0.0
 11
833.63781013938012
 21
8663.2886948957093
 31
0.0
  0
LINE
  5
7268
  8
FUTO
 10
826.63781013938035
 20
8575.8541762433579
 30
0.0
 11
826.63781013938035
 21
8661.6761894656502
 31
0.0
  0
LINE
  5
7269
  8
FUTO
 10
833.63781013938012
 20
8663.2886948957093
 30
0.0
 11
833.63781013938012
 21
8584.3352785927054
 31
0.0
  0
ARC
  5
726A
  8
FUTO
 10
832.15391053670282
 20
8585.6761894656483
 30
0.0
 40
2.0
 50
270.0
 51
317.89777465690861
  0
LINE
  5
726B
  8
FUTO
 10
827.2378101393806
 20
8583.6761894656483
 30
0.0
 11
832.15391053670282
 21
8583.6761894656483
 31
0.0
  0
LINE
  5
726C
  8
CT
 10
826.63781013938035
 20
8603.6761894656483
 30
0.0
 11
827.23781013937867
 21
8603.6761894656483
 31
0.0
  0
LINE
  5
726D
  8
CT
 10
826.63781013938035
 20
8603.6761894656483
 30
0.0
 11
827.23781013937867
 21
8603.6761894656483
 31
0.0
  0
ARC
  5
726E
  8
FUTO
 10
827.63781013938024
 20
8681.6761894656483
 30
0.0
 40
20.0
 50
270.0
 51
0.0
  0
POINT
  5
726F
  8
FUTO
 10
833.63781013938012
 20
8781.6761894656465
 30
0.0
  0
POINT
  5
7270
  8
FUTO
 10
833.63781013938012
 20
8781.6761894656465
 30
0.0
  0
ARC
  5
7271
  8
FUTO
 10
831.63781013938024
 20
8781.6761894656465
 30
0.0
 40
2.0
 50
0.0
 51
90.0
  0
LINE
  5
7272
  8
FUTO
 10
827.2378101393806
 20
8783.6761894656502
 30
0.0
 11
831.63781013938024
 21
8783.6761894656502
 31
0.0
  0
LINE
  5
7273
  8
CT
 10
826.63781013938035
 20
8763.6761894656483
 30
0.0
 11
827.23781013937867
 21
8763.6761894656483
 31
0.0
  0
ARC
  5
7274
  8
FUTO
 10
827.63781013938024
 20
8845.6761894656465
 30
0.0
 40
20.0
 50
0.0
 51
90.0
  0
LINE
  5
7275
  8
FUTO
 10
826.63781013938035
 20
8855.6761894656483
 30
0.0
 11
827.23781013938242
 21
8855.6761894656483
 31
0.0
  0
POINT
  5
7276
  8
DEFPOINTS
 10
827.63781013938024
 20
8865.6761894656483
 30
0.0
  0
LINE
  5
8576
  8
FUTO
 10
679.99103115790695
 20
8740.7761894656487
 30
0.0
 11
561.69103115790767
 21
8740.7761894656487
 31
0.0
  0
LINE
  5
8577
  8
FUTO
 10
561.69103115790767
 20
8623.1761894656483
 30
0.0
 11
561.69103115790767
 21
8744.1761894656483
 31
0.0
  0
LINE
  5
8578
  8
FUTO
 10
561.69103115790767
 20
8744.1761894656483
 30
0.0
 11
540.69103115790767
 21
8744.1761894656483
 31
0.0
  0
LINE
  5
8579
  8
FUTO
 10
539.69103115790756
 20
8743.1761894656483
 30
0.0
 11
510.62453115790771
 21
8741.2383894656487
 31
0.0
  0
ARC
  5
857A
  8
FUTO
 10
510.69113115790691
 20
8740.2404894656484
 30
0.0
 40
1.0000999999999991
 50
93.821000000000112
 51
180.00165729919101
  0
ARC
  5
857B
  8
FUTO
 10
540.69113115790697
 20
8743.1761894656483
 30
0.0
 40
1.0000999999999991
 50
90.003499999989657
 51
180.0
  0
LINE
  5
857C
  8
CT
 10
618.63781013938024
 20
8616.4715762572214
 30
0.0
 11
618.63781013938024
 21
8750.8808026740753
 31
0.0
  0
LINE
  5
857D
  8
FUTO
 10
677.69103115790767
 20
8740.7761894656487
 30
0.0
 11
677.69103115790665
 21
8686.9294104841756
 31
0.0
  0
LINE
  5
857E
  8
FUTO
 10
683.49543115790755
 20
8721.9427894656474
 30
0.0
 11
680.0221311579071
 21
8735.5544894656487
 31
0.0
  0
ARC
  5
857F
  8
FUTO
 10
680.98593115790754
 20
8735.8011894656483
 30
0.0
 40
0.9948999999999999
 50
179.9684000000118
 51
194.35770000002071
  0
LINE
  5
8580
  8
FUTO
 10
679.99103115790695
 20
8740.7761894656487
 30
0.0
 11
679.99103115790786
 21
8689.2294104841749
 31
0.0
  0
ARC
  5
8581
  8
FUTO
 10
677.39343115790768
 20
8720.3853894656495
 30
0.0
 40
6.2976000000000001
 50
359.9977999999864
 51
14.31809999999064
  0
ARC
  5
8582
  8
FUTO
 10
681.99083115790745
 20
8693.2293894656468
 30
0.0
 40
4.7001999999999988
 50
27.48769440413944
 51
44.998400000004331
  0
LINE
  5
8583
  8
FUTO
 10
685.31443115790717
 20
8696.5527894656461
 30
0.0
 11
683.98393115790714
 21
8697.883289465648
 31
0.0
  0
ARC
  5
8584
  8
FUTO
 10
684.69073115790695
 20
8698.5902894656483
 30
0.0
 40
0.9996999999999999
 50
179.99650000001029
 51
225.009899999982
  0
LINE
  5
8585
  8
FUTO
 10
683.69103115790756
 20
8720.3850894656498
 30
0.0
 11
683.69103115790756
 21
8692.9294104841756
 31
0.0
  0
ARC
  5
8586
  8
FUTO
 10
604.94173115790716
 20
8635.5363894656475
 30
0.0
 40
7.9999000000000002
 50
90.0
 51
166.00459999998009
  0
ARC
  5
8587
  8
FUTO
 10
590.52263115790709
 20
8642.4708894656487
 30
0.0
 40
8.0
 50
270.0
 51
334.31589999996578
  0
LINE
  5
8588
  8
FUTO
 10
597.17923115790745
 20
8637.4710894656473
 30
0.0
 11
594.25793115790736
 21
8625.7506894656472
 31
0.0
  0
LINE
  5
8589
  8
FUTO
 10
632.44033115790717
 20
8643.5362894656482
 30
0.0
 11
604.94173115790716
 21
8643.5362894656482
 31
0.0
  0
LINE
  5
858A
  8
FUTO
 10
595.71623115790771
 20
8623.4761894656458
 30
0.0
 11
626.22755372912343
 21
8623.4761894656458
 31
0.0
  0
ARC
  5
858B
  8
FUTO
 10
591.34693115790742
 20
8626.4761894656458
 30
0.0
 40
3.0
 50
270.0
 51
346.00480000002779
  0
ARC
  5
858C
  8
FUTO
 10
591.34713115790782
 20
8626.4760894656483
 30
0.0
 40
5.2999000000000001
 50
269.99930000003371
 51
326.34980000003259
  0
LINE
  5
858D
  8
FUTO
 10
568.69103115790756
 20
8621.1761894656483
 30
0.0
 11
591.34713115790782
 21
8621.1761894656483
 31
0.0
  0
LINE
  5
858E
  8
FUTO
 10
568.69103115790756
 20
8623.4761894656458
 30
0.0
 11
591.34693115790742
 21
8623.4761894656458
 31
0.0
  0
ARC
  5
858F
  8
FUTO
 10
576.69103115790756
 20
8626.4708894656487
 30
0.0
 40
8.0
 50
90.0
 51
180.0
  0
LINE
  5
8590
  8
FUTO
 10
568.69103115790756
 20
8621.1761894656483
 30
0.0
 11
568.69103115790756
 21
8626.4708894656487
 31
0.0
  0
LINE
  5
8591
  8
FUTO
 10
568.69103115790756
 20
8627.5761894656462
 30
0.0
 11
561.69103115790767
 21
8627.5761894656462
 31
0.0
  0
LINE
  5
8592
  8
CT
 10
578.69103115790756
 20
8629.4076394656477
 30
0.0
 11
578.69103115790756
 21
8617.5447394656476
 31
0.0
  0
LINE
  5
8593
  8
FUTO
 10
590.52263115790709
 20
8634.4708894656487
 30
0.0
 11
576.69103115790756
 21
8634.4708894656487
 31
0.0
  0
ARC
  5
8594
  8
FUTO
 10
632.44023115790696
 20
8635.5362894656464
 30
0.0
 40
8.0000999999999998
 50
48.14606457539147
 51
89.999599999959742
  0
LINE
  5
8595
  8
FUTO
 10
509.69103115790762
 20
8740.2404894656484
 30
0.0
 11
509.69103115790762
 21
8627.1117894656491
 31
0.0
  0
LINE
  5
8596
  8
FUTO
 10
539.69103115790756
 20
8743.1761894656483
 30
0.0
 11
539.69103115790756
 21
8624.1761894656483
 31
0.0
  0
LINE
  5
8597
  8
FUTO
 10
539.69103115790756
 20
8624.1761894656483
 30
0.0
 11
510.62453115790771
 21
8626.1139894656499
 31
0.0
  0
ARC
  5
8598
  8
FUTO
 10
510.69113115790691
 20
8627.1118894656483
 30
0.0
 40
1.0000999999999991
 50
180.0069999999923
 51
266.17899999999992
  0
ARC
  5
8599
  8
FUTO
 10
540.69113115790697
 20
8624.1761894656483
 30
0.0
 40
1.0000999999999991
 50
180.0
 51
269.99649999995819
  0
LINE
  5
859A
  8
FUTO
 10
561.69103115790767
 20
8623.1761894656483
 30
0.0
 11
540.69103115790767
 21
8623.1761894656483
 31
0.0
  0
LINE
  5
89A0
  8
FUTO
 10
78.496755608480271
 20
9335.5944674621296
 30
0.0
 11
-56.503244391519722
 21
9335.5944674621278
 31
0.0
  0
LINE
  5
89A1
  8
FUTO
 10
-55.503244391519729
 20
9313.5944674621296
 30
0.0
 11
77.496755608480271
 21
9313.5944674621296
 31
0.0
  0
LINE
  5
89A2
  8
CT
 10
83.340253733083046
 20
9392.5412464436013
 30
0.0
 11
-63.779246266917653
 21
9392.5412464436013
 31
0.0
  0
LINE
  5
89A3
  8
FUTO
 10
-45.286285006700382
 20
9283.5944674621278
 30
0.0
 11
67.279796223660014
 21
9283.5944674621278
 31
0.0
  0
LINE
  5
89A4
  8
FUTO
 10
67.596755608480635
 20
9456.0803602373835
 30
0.0
 11
-45.603244391520093
 21
9456.0803602373835
 31
0.0
  0
LINE
  5
89A5
  8
FUTO
 10
67.596755608480635
 20
9458.3803602373846
 30
0.0
 11
-45.603244391520093
 21
9458.3803602373846
 31
0.0
  0
LINE
  5
89A6
  8
FUTO
 10
48.76335560848019
 20
9461.8847602373862
 30
0.0
 11
62.375055608480579
 21
9458.4114602373847
 31
0.0
  0
LINE
  5
89A7
  8
FUTO
 10
-45.603244391520093
 20
9458.3803602373846
 30
0.0
 11
-45.603244391519183
 21
9335.5944674621278
 31
0.0
  0
LINE
  5
89A8
  8
FUTO
 10
-52.10606890940835
 20
9313.5944674621296
 30
0.0
 11
-46.266865811568103
 21
9284.3983519728754
 31
0.0
  0
LINE
  5
89A9
  8
FUTO
 10
-56.503244391519722
 20
9335.5944674621278
 30
0.0
 11
-56.503244391519722
 21
9314.5944674621278
 31
0.0
  0
ARC
  5
89AA
  8
FUTO
 10
-55.503244391519729
 20
9314.5944674621278
 30
0.0
 40
1.0
 50
180.0
 51
270.0
  0
ARC
  5
89AB
  8
FUTO
 10
-45.286285006700382
 20
9284.5944674621278
 30
0.0
 40
1.0
 50
191.3098947346725
 51
270.0
  0
LINE
  5
89AC
  8
FUTO
 10
47.205655608479887
 20
9462.0803602373853
 30
0.0
 11
-25.266244391519638
 21
9462.0803602373853
 31
0.0
  0
LINE
  5
89AD
  8
FUTO
 10
-26.720144391520069
 20
9461.9103602373871
 30
0.0
 11
-41.48944439152001
 21
9458.4073602373846
 31
0.0
  0
LINE
  5
89AE
  8
FUTO
 10
-45.603244391520093
 20
9458.4241602373859
 30
0.0
 11
-45.603244391520093
 21
9447.0036602373857
 31
0.0
  0
ARC
  5
89AF
  8
FUTO
 10
-41.720244391519373
 20
9459.3815602373852
 30
0.0
 40
1.0012000000000001
 50
270.00349999998957
 51
283.32969999999011
  0
ARC
  5
89B0
  8
FUTO
 10
-25.266244391519638
 20
9455.7801602373856
 30
0.0
 40
6.3002000000000002
 50
89.999399999991695
 51
103.341999999972
  0
LINE
  5
89B1
  8
FUTO
 10
1.943655608480185
 20
9465.0803602373853
 30
0.0
 11
20.049955608480559
 21
9465.0803602373853
 31
0.0
  0
ARC
  5
89B2
  8
FUTO
 10
-3.4173443915196908
 20
9463.0800602373856
 30
0.0
 40
0.9996999999999999
 50
269.99649999995819
 51
315.009899999982
  0
LINE
  5
89B3
  8
FUTO
 10
-1.3798443915202361
 20
9463.7037602373857
 30
0.0
 11
-2.7103443915193561
 21
9462.3732602373857
 31
0.0
  0
ARC
  5
89B4
  8
FUTO
 10
1.9437556084803871
 20
9460.3800602373849
 30
0.0
 40
4.7003000000000004
 50
90.001499999994792
 51
134.9984000000043
  0
LINE
  5
89B5
  8
FUTO
 10
3.496755608478451
 20
9479.3412464436005
 30
0.0
 11
3.49675560848027
 21
9465.0803602373853
 31
0.0
  0
LINE
  5
89B6
  8
FUTO
 10
23.373355608479869
 20
9463.7037602373857
 30
0.0
 11
24.703855608479898
 21
9462.3732602373857
 31
0.0
  0
ARC
  5
89B7
  8
FUTO
 10
25.41085560848023
 20
9463.0800602373856
 30
0.0
 40
0.9996999999999999
 50
224.99010000001789
 51
270.00349999998957
  0
ARC
  5
89B8
  8
FUTO
 10
20.049955608480559
 20
9460.380160237386
 30
0.0
 40
4.7001999999999988
 50
45.001599999995662
 51
90.0
  0
LINE
  5
89B9
  8
FUTO
 10
18.496755608477539
 20
9479.3412464436005
 30
0.0
 11
18.496755608480271
 21
9465.0803602373853
 31
0.0
  0
ARC
  5
89BA
  8
FUTO
 10
47.205955608480501
 20
9455.7827602373854
 30
0.0
 40
6.2976000000000001
 50
75.681899999958873
 51
90.002199999961405
  0
LINE
  5
89BB
  8
FUTO
 10
67.596755608480635
 20
9458.3803602373846
 30
0.0
 11
67.596755608479725
 21
9335.5944674621296
 31
0.0
  0
LINE
  5
89BC
  8
FUTO
 10
74.099580126368892
 20
9313.5944674621296
 30
0.0
 11
68.260377028527714
 21
9284.3983519728754
 31
0.0
  0
ARC
  5
89BD
  8
FUTO
 10
77.496755608480271
 20
9314.5944674621278
 30
0.0
 40
1.0
 50
270.0
 51
0.0
  0
LINE
  5
89BE
  8
FUTO
 10
78.496755608480271
 20
9335.5944674621278
 30
0.0
 11
78.496755608480271
 21
9314.5944674621278
 31
0.0
  0
ARC
  5
89BF
  8
FUTO
 10
67.279796223660014
 20
9284.5944674621278
 30
0.0
 40
1.0
 50
270.0
 51
348.69010526532742
  0
ARC
  5
89C0
  8
FUTO
 10
62.621755608480271
 20
9459.3752602373861
 30
0.0
 40
0.9948999999999999
 50
255.6422999999792
 51
270.03159999998809
  0
LINE
  5
89C1
  8
FUTO
 10
120.9967556084793
 20
9305.5412464436013
 30
0.0
 11
72.488941439304654
 21
9305.5412464436013
 31
0.0
  0
LINE
  5
89C2
  8
CT
 10
127.9967556084802
 20
9331.5412464436013
 30
0.0
 11
147.9967556084793
 21
9331.5412464436013
 31
0.0
  0
CIRCLE
  5
89C3
  8
FUTO
 10
137.99675560848021
 20
9331.5412464436013
 30
0.0
 40
6.0
  0
LINE
  5
89C4
  8
FUTO
 10
120.9967556084802
 20
9311.5412464436013
 30
0.0
 11
150.9967556084793
 21
9311.5412464436013
 31
0.0
  0
LINE
  5
89C5
  8
CT
 10
137.99675560848021
 20
9341.5412464436013
 30
0.0
 11
137.99675560848021
 21
9321.5412464436013
 31
0.0
  0
LINE
  5
89C6
  8
FUTO
 10
150.9967556084793
 20
9481.5412464436013
 30
0.0
 11
150.9967556084793
 21
9311.5412464436013
 31
0.0
  0
LINE
  5
89C7
  8
FUTO
 10
120.9967556084793
 20
9305.5412464436013
 30
0.0
 11
120.9967556084793
 21
9481.5412464436013
 31
0.0
  0
LINE
  5
89C8
  8
FUTO
 10
120.9967556084793
 20
9480.9412464436009
 30
0.0
 11
-99.003244391519715
 21
9480.9412464436027
 31
0.0
  0
LINE
  5
89C9
  8
FUTO
 10
120.9967556084802
 20
9479.3412464436005
 30
0.0
 11
-99.00324439151882
 21
9479.3412464436005
 31
0.0
  0
ARC
  5
89CA
  8
FUTO
 10
108.9967556084802
 20
9482.9412464436009
 30
0.0
 40
2.0
 50
270.0
 51
0.0
  0
LINE
  5
89CB
  8
CT
 10
100.9967556084802
 20
9474.357573146599
 30
0.0
 11
100.9967556084802
 21
9485.3305936665893
 31
0.0
  0
LINE
  5
89CC
  8
FUTO
 10
110.9967556084802
 20
9482.9412464436009
 30
0.0
 11
110.9967556084802
 21
9487.9412464436027
 31
0.0
  0
ARC
  5
89CD
  8
FUTO
 10
-87.003244391519729
 20
9482.9412464436009
 30
0.0
 40
2.0
 50
180.0
 51
270.0
  0
LINE
  5
89CE
  8
FUTO
 10
-89.003244391519715
 20
9482.9412464436009
 30
0.0
 11
-89.003244391519715
 21
9487.9412464436027
 31
0.0
  0
LINE
  5
89CF
  8
CT
 10
-79.003244391519715
 20
9474.357573146599
 30
0.0
 11
-79.003244391519715
 21
9485.3305936665893
 31
0.0
  0
LINE
  5
89D0
  8
FUTO
 10
-99.003244391519715
 20
9305.5412464436013
 30
0.0
 11
-99.003244391519715
 21
9481.5412464436013
 31
0.0
  0
LINE
  5
89D1
  8
FUTO
 10
-129.0032443915197
 20
9481.5412464436013
 30
0.0
 11
-129.0032443915197
 21
9311.5412464436013
 31
0.0
  0
LINE
  5
89D2
  8
FUTO
 10
-99.003244391519715
 20
9311.5412464436013
 30
0.0
 11
-129.0032443915197
 21
9311.5412464436013
 31
0.0
  0
LINE
  5
89D3
  8
CT
 10
-116.0032443915197
 20
9341.5412464436013
 30
0.0
 11
-116.0032443915197
 21
9321.5412464436013
 31
0.0
  0
CIRCLE
  5
89D4
  8
FUTO
 10
-116.0032443915197
 20
9331.5412464436013
 30
0.0
 40
6.0
  0
LINE
  5
89D5
  8
CT
 10
-106.0032443915197
 20
9331.5412464436013
 30
0.0
 11
-126.00324439151881
 21
9331.5412464436013
 31
0.0
  0
LINE
  5
89D6
  8
FUTO
 10
-129.0032443915197
 20
9481.5412464436013
 30
0.0
 11
-99.003244391519715
 21
9481.5412464436013
 31
0.0
  0
LINE
  5
89D7
  8
CT
 10
-116.0032443915197
 20
9471.5412464436013
 30
0.0
 11
-116.0032443915197
 21
9451.5412464436013
 31
0.0
  0
LINE
  5
89D8
  8
CT
 10
-106.0032443915197
 20
9461.5412464436013
 30
0.0
 11
-126.00324439151881
 21
9461.5412464436013
 31
0.0
  0
CIRCLE
  5
89D9
  8
FUTO
 10
-116.0032443915197
 20
9461.5412464436013
 30
0.0
 40
6.0
  0
LINE
  5
89DA
  8
FUTO
 10
-99.003244391519715
 20
9480.9412464436009
 30
0.0
 11
-99.003244391519715
 21
9479.3412464436005
 31
0.0
  0
LINE
  5
89DB
  8
FUTO
 10
-50.495430222344112
 20
9305.5412464436013
 30
0.0
 11
-99.003244391519715
 21
9305.5412464436013
 31
0.0
  0
CIRCLE
  5
89DC
  8
FUTO
 10
137.99675560848021
 20
9461.5412464436013
 30
0.0
 40
6.0
  0
LINE
  5
89DD
  8
CT
 10
127.9967556084802
 20
9461.5412464436013
 30
0.0
 11
147.9967556084793
 21
9461.5412464436013
 31
0.0
  0
LINE
  5
89DE
  8
CT
 10
137.99675560848021
 20
9471.5412464436013
 30
0.0
 11
137.99675560848021
 21
9451.5412464436013
 31
0.0
  0
LINE
  5
89DF
  8
FUTO
 10
150.9967556084793
 20
9481.5412464436013
 30
0.0
 11
120.9967556084802
 21
9481.5412464436013
 31
0.0
  0
DIMENSION
  5
8A88
  8
SP
  2
*D15
 10
234.1970390227888
 20
9311.5412464436013
 30
0.0
 11
209.19703902278729
 21
9396.5412464436013
 31
0.0
 70
     0
 13
150.9967556084793
 23
9481.5412464436013
 33
0.0
 14
150.9967556084793
 24
9311.5412464436013
 34
0.0
 50
90.0
  0
DIMENSION
  5
8A95
  8
SP
  2
*D16
 10
234.1970390227888
 20
9544.5412464436013
 30
0.0
 11
209.19703902278729
 21
9630.8434503462886
 31
0.0
 70
     0
 13
150.9967556084793
 23
9481.5412464436013
 33
0.0
 14
183.7875201648512
 24
9544.5412464436013
 34
0.0
 50
90.0
  0
DIMENSION
  5
8ACB
  8
SP
  2
*D17
 10
150.9967556084793
 20
9203.5944674621278
 30
0.0
 11
10.996755608479811
 21
9228.5944674621278
 31
0.0
 70
     0
 13
-129.0032443915197
 23
9311.5412464436013
 33
0.0
 14
150.9967556084793
 24
9311.5412464436013
 34
0.0
  0
LINE
  5
8B09
  8
FUTO
 10
706.03781013937987
 20
8485.2761894656469
 30
0.0
 11
537.63781013938024
 21
8485.2761894656469
 31
0.0
  0
LINE
  5
8B0A
  8
FUTO
 10
707.63781013938024
 20
8483.6761894656447
 30
0.0
 11
537.63781013938024
 21
8483.6761894656483
 31
0.0
  0
LINE
  5
8B0B
  8
FUTO
 10
537.63781013938024
 20
8485.2761894656469
 30
0.0
 11
537.63781013938024
 21
8483.6761894656483
 31
0.0
  0
TEXT
  5
8CC4
  8
4
 10
152.79732217689889
 20
9938.6479009222421
 30
0.0
 40
53.999999999999993
  1
床置ベッド型
  0
LINE
  5
8CC5
  8
4
 10
-690.24390403695725
 20
10505.219059589719
 30
0.0
 11
1409.7560959630421
 21
10505.219059589719
 31
0.0
  0
LINE
  5
8CC6
  8
4
 10
-440.24390403695719
 20
10224.627813854529
 30
0.0
 11
1159.7560959630421
 21
10224.627813854529
 31
0.0
  0
LINE
  5
8CC7
  8
4
 10
-440.24390403695719
 20
10024.627813854529
 30
0.0
 11
1159.7560959630421
 21
10024.627813854529
 31
0.0
  0
TEXT
  5
8CC8
  8
4
 10
-202.18100009209769
 20
10089.100035789021
 30
0.0
 40
72.0
  1
遠心式片吸込直動形多翼ファン
  0
LINE
  5
8CC9
  8
4
 10
1409.7560959630421
 20
7555.2190595897273
 30
0.0
 11
-690.24390403695725
 21
7555.2190595897273
 31
0.0
  0
LINE
  5
8CCA
  8
4
 10
-240.24390403695719
 20
8055.2190595897273
 30
0.0
 11
959.75609596304275
 21
8055.2190595897273
 31
0.0
  0
LINE
  5
8CCB
  8
4
 10
-240.24390403695719
 20
7955.2190595897273
 30
0.0
 11
959.75609596304275
 21
7955.2190595897273
 31
0.0
  0
LINE
  5
8CCC
  8
4
 10
-240.24390403695719
 20
7855.2190595897273
 30
0.0
 11
959.75609596304275
 21
7855.2190595897273
 31
0.0
  0
LINE
  5
8CCE
  8
4
 10
-690.24390403695725
 20
7555.2190595897273
 30
0.0
 11
-690.24390403695725
 21
10505.219059589719
 31
0.0
  0
TEXT
  5
8CD0
  8
4
 10
-203.98579801215959
 20
7876.8642163217382
 30
0.0
 40
50.0
  1
機器型番
  0
TEXT
  5
8CD1
  8
4
 10
-201.7418231900555
 20
7986.7620854563402
 30
0.0
 40
50.0
  1
機器名称
  0
LINE
  5
8CD2
  8
4
 10
-240.24390403695719
 20
8055.2190595897273
 30
0.0
 11
-240.24390403695719
 21
7855.2190595897246
 31
0.0
  0
LINE
  5
8CD3
  8
4
 10
-440.24390403695719
 20
10224.627813854529
 30
0.0
 11
-440.24390403695719
 21
10024.627813854529
 31
0.0
  0
TEXT
  5
8CD4
  8
4
 10
-329.68260228837971
 20
9937.5385371360699
 30
0.0
 40
53.999999999999993
  1
左回転左横向
  0
LINE
  5
8CD5
  8
4
 10
1409.7560959630421
 20
10505.219059589719
 30
0.0
 11
1409.7560959630421
 21
7555.2190595897273
 31
0.0
  0
TEXT
  5
8CD7
  8
4
 10
287.43484145070761
 20
7977.790828547295
 30
0.0
 40
50.0
  1
ミツヤ多翼送風機
  0
TEXT
  5
8CD8
  8
4
 10
296.41059154852331
 20
7872.3786438696698
 30
0.0
 40
50.0
  1
MF＃1-7
  0
LINE
  5
8CD9
  8
4
 10
259.7560959630427
 20
8055.2190595897273
 30
0.0
 11
259.7560959630427
 21
7855.2190595897246
 31
0.0
  0
LINE
  5
8CDA
  8
4
 10
959.75609596304275
 20
8055.2190595897273
 30
0.0
 11
959.75609596304275
 21
7855.2190595897246
 31
0.0
  0
LINE
  5
8CDB
  8
4
 10
1159.7560959630421
 20
10224.627813854529
 30
0.0
 11
1159.7560959630421
 21
10024.627813854529
 31
0.0
  0
TEXT
  5
8CDC
  8
4
 10
679.34937424973032
 20
9938.6479009222421
 30
0.0
 40
53.999999999999993
  1
縮尺：1/10
  0
LINE
  5
8CDD
  8
4
 10
1159.7560959630421
 20
10236.48264271512
 30
0.0
 11
750.37351832290733
 21
10236.48264271512
 31
0.0
  0
LINE
  5
8CDE
  8
4
 10
750.37351832290733
 20
10341.87132113947
 30
0.0
 11
1159.7560959630421
 21
10341.87132113947
 31
0.0
  0
TEXT
  5
8CDF
  8
4
 10
778.72565521233264
 20
10261.28014108503
 30
0.0
 40
56.000000000000007
  1
No.
  0
LINE
  5
8CE0
  8
4
 10
750.37351832290733
 20
10236.48264271512
 30
0.0
 11
750.37351832290733
 21
10341.87132113947
 31
0.0
  0
LINE
  5
8CE1
  8
4
 10
1159.7560959630421
 20
10341.87132113947
 30
0.0
 11
1159.7560959630421
 21
10236.48264271512
 31
0.0
  0
LINE
  5
8CE2
  8
4
 10
1409.7560959630421
 20
10505.219059589719
 30
0.0
 11
1409.7560959630421
 21
10505.219059589719
 31
0.0
  0
LINE
  5
9AA0
  8
FUTO
 10
826.63781013938035
 20
8763.6761894656483
 30
0.0
 11
827.23781013937867
 21
8763.6761894656483
 31
0.0
  0
LINE
  5
9AA1
  8
FUTO
 10
826.63781013938035
 20
8763.6761894656483
 30
0.0
 11
827.23781013937867
 21
8763.6761894656483
 31
0.0
  0
LINE
  5
9AA2
  8
FUTO
 10
827.23781013938151
 20
8763.6761894656483
 30
0.0
 11
833.63781013938012
 21
8763.6761894656483
 31
0.0
  0
LINE
  5
9AA3
  8
FUTO
 10
826.63781013938035
 20
8763.6761894656483
 30
0.0
 11
827.23781013937867
 21
8763.6761894656483
 31
0.0
  0
LINE
  5
9AA4
  8
FUTO
 10
827.23781013938151
 20
8603.6761894656483
 30
0.0
 11
833.63781013938012
 21
8603.6761894656483
 31
0.0
  0
LINE
  5
9AA5
  8
FUTO
 10
826.63781013938035
 20
8603.6761894656483
 30
0.0
 11
827.23781013937867
 21
8603.6761894656483
 31
0.0
  0
LINE
  5
9AA6
  8
FUTO
 10
826.63781013938035
 20
8603.6761894656483
 30
0.0
 11
827.23781013937867
 21
8603.6761894656483
 31
0.0
  0
ENDSEC
  0
EOF
