  0
SECTION
  2
HEADER
  9
$ACADVER
  1
AC1009
  9
$INSBASE
 10
0.0
 20
0.0
 30
0.0
  9
$EXTMIN
 10
3820.3435473019958
 20
7555.2190595897273
 30
0.0
  9
$EXTMAX
 10
6230.9309986409498
 20
10505.219059589719
 30
0.0
  9
$LIMMIN
 10
0.0
 20
0.0
  9
$LIMMAX
 10
297.0
 20
210.0
  9
$ORTHOMODE
 70
     0
  9
$REGENMODE
 70
     1
  9
$FILLMODE
 70
     1
  9
$QTEXTMODE
 70
     0
  9
$MIRRTEXT
 70
     0
  9
$DRAGMODE
 70
     2
  9
$LTSCALE
 40
25.0
  9
$OSMODE
 70
   545
  9
$ATTMODE
 70
     1
  9
$TEXTSIZE
 40
3.5
  9
$TRACEWID
 40
0.05
  9
$TEXTSTYLE
  7
STANDARD
  9
$CLAYER
  8
SP
  9
$CELTYPE
  6
BYLAYER
  9
$CECOLOR
 62
   256
  9
$DIMSCALE
 40
10.0
  9
$DIMASZ
 40
2.5
  9
$DIMEXO
 40
1.0
  9
$DIMDLI
 40
7.0
  9
$DIMRND
 40
0.0
  9
$DIMDLE
 40
0.0
  9
$DIMEXE
 40
1.0
  9
$DIMTP
 40
0.0
  9
$DIMTM
 40
0.0
  9
$DIMTXT
 40
3.0
  9
$DIMCEN
 40
0.0
  9
$DIMTSZ
 40
0.0
  9
$DIMTOL
 70
     0
  9
$DIMLIM
 70
     0
  9
$DIMTIH
 70
     0
  9
$DIMTOH
 70
     0
  9
$DIMSE1
 70
     0
  9
$DIMSE2
 70
     0
  9
$DIMTAD
 70
     1
  9
$DIMZIN
 70
     8
  9
$DIMBLK
  1

  9
$DIMASO
 70
     1
  9
$DIMSHO
 70
     1
  9
$DIMPOST
  1

  9
$DIMAPOST
  1

  9
$DIMALT
 70
     0
  9
$DIMALTD
 70
     2
  9
$DIMALTF
 40
0.03937
  9
$DIMLFAC
 40
1.0
  9
$DIMTOFL
 70
     1
  9
$DIMTVP
 40
0.0
  9
$DIMTIX
 70
     0
  9
$DIMSOXD
 70
     0
  9
$DIMSAH
 70
     1
  9
$DIMBLK1
  1
OPEN
  9
$DIMBLK2
  1
OPEN
  9
$DIMSTYLE
  2
GOD
  9
$DIMCLRD
 70
   256
  9
$DIMCLRE
 70
   256
  9
$DIMCLRT
 70
   256
  9
$DIMTFAC
 40
1.0
  9
$DIMGAP
 40
1.0
  9
$LUNITS
 70
     2
  9
$LUPREC
 70
     3
  9
$SKETCHINC
 40
0.1
  9
$FILLETRAD
 40
1.0
  9
$AUNITS
 70
     0
  9
$AUPREC
 70
     2
  9
$MENU
  1
acad
  9
$ELEVATION
 40
0.0
  9
$PELEVATION
 40
0.0
  9
$THICKNESS
 40
0.0
  9
$LIMCHECK
 70
     0
  9
$BLIPMODE
 70
     0
  9
$CHAMFERA
 40
0.0
  9
$CHAMFERB
 40
0.0
  9
$SKPOLY
 70
     0
  9
$TDCREATE
 40
2454894.5465396061
  9
$TDUPDATE
 40
2455012.4079853809
  9
$TDINDWG
 40
0.4430086458
  9
$TDUSRTIMER
 40
0.4430086458
  9
$USRTIMER
 70
     1
  9
$ANGBASE
 50
0.0
  9
$ANGDIR
 70
     0
  9
$PDMODE
 70
     0
  9
$PDSIZE
 40
1.0
  9
$PLINEWID
 40
0.0
  9
$COORDS
 70
     2
  9
$SPLFRAME
 70
     0
  9
$SPLINETYPE
 70
     6
  9
$SPLINESEGS
 70
     8
  9
$ATTDIA
 70
     0
  9
$ATTREQ
 70
     1
  9
$HANDLING
 70
 22529
  9
$HANDSEED
  5
B9C2
  9
$SURFTAB1
 70
     6
  9
$SURFTAB2
 70
     6
  9
$SURFTYPE
 70
     6
  9
$SURFU
 70
     6
  9
$SURFV
 70
     6
  9
$UCSNAME
  2

  9
$UCSORG
 10
0.0
 20
0.0
 30
0.0
  9
$UCSXDIR
 10
1.0
 20
0.0
 30
0.0
  9
$UCSYDIR
 10
0.0
 20
1.0
 30
0.0
  9
$PUCSNAME
  2

  9
$PUCSORG
 10
0.0
 20
0.0
 30
0.0
  9
$PUCSXDIR
 10
1.0
 20
0.0
 30
0.0
  9
$PUCSYDIR
 10
0.0
 20
1.0
 30
0.0
  9
$USERI1
 70
     0
  9
$USERI2
 70
     0
  9
$USERI3
 70
     0
  9
$USERI4
 70
     0
  9
$USERI5
 70
     0
  9
$USERR1
 40
0.0
  9
$USERR2
 40
0.0
  9
$USERR3
 40
0.0
  9
$USERR4
 40
0.0
  9
$USERR5
 40
0.0
  9
$WORLDVIEW
 70
     1
  9
$SHADEDGE
 70
     3
  9
$SHADEDIF
 70
    70
  9
$TILEMODE
 70
     1
  9
$MAXACTVP
 70
    16
  9
$PLIMCHECK
 70
     0
  9
$PEXTMIN
 10
1.0000000000000000E+020
 20
1.0000000000000000E+020
 30
1.0000000000000000E+020
  9
$PEXTMAX
 10
-1.0000000000000000E+020
 20
-1.0000000000000000E+020
 30
-1.0000000000000000E+020
  9
$PLIMMIN
 10
0.0
 20
0.0
  9
$PLIMMAX
 10
12.0
 20
9.0
  9
$UNITMODE
 70
     0
  9
$VISRETAIN
 70
     0
  9
$PLINEGEN
 70
     0
  9
$PSLTSCALE
 70
     0
  0
ENDSEC
  0
SECTION
  2
TABLES
  0
TABLE
  2
VPORT
 70
     2
  0
VPORT
  2
*ACTIVE
 70
     0
 10
0.0
 20
0.0
 11
1.0
 21
1.0
 12
5025.5516330361324
 22
9030.0065181736736
 13
0.0
 23
0.0
 14
5.0
 24
5.0
 15
0.0
 25
0.0
 16
0.0
 26
0.0
 36
1.0
 17
0.0
 27
0.0
 37
0.0
 40
2975.1566567398718
 41
1.6307901907356941
 42
50.0
 43
0.0
 44
0.0
 50
0.0
 51
0.0
 71
     0
 72
   100
 73
     1
 74
     0
 75
     0
 76
     0
 77
     0
 78
     0
  0
ENDTAB
  0
TABLE
  2
LTYPE
 70
     4
  0
LTYPE
  2
CONTINUOUS
 70
     0
  3
Solid line
 72
    65
 73
     0
 40
0.0
  0
LTYPE
  2
CENTER
 70
     0
  3
____ _ ____ _ ____ _ ____ _ ____ _ ____ _ ____ 
 72
    65
 73
     4
 40
2.0
 49
1.25
 49
-0.25
 49
0.25
 49
-0.25
  0
LTYPE
  2
HIDDEN
 70
     0
  3
__ __ __ __ __ __ __ __ __ __ __ __ __ __ __ __
 72
    65
 73
     2
 40
0.375
 49
0.25
 49
-0.125
  0
LTYPE
  2
PHANTOM
 70
     0
  3
______  __  __  ______  __  __  ______  __  __ 
 72
    65
 73
     6
 40
2.5
 49
1.25
 49
-0.25
 49
0.25
 49
-0.25
 49
0.25
 49
-0.25
  0
ENDTAB
  0
TABLE
  2
LAYER
 70
     9
  0
LAYER
  2
0
 70
     0
 62
     7
  6
CONTINUOUS
  0
LAYER
  2
CT
 70
     0
 62
     3
  6
CENTER
  0
LAYER
  2
FUTO
 70
     0
 62
     4
  6
CONTINUOUS
  0
LAYER
  2
HOSO
 70
     0
 62
     7
  6
CONTINUOUS
  0
LAYER
  2
KL
 70
     0
 62
     7
  6
HIDDEN
  0
LAYER
  2
SL
 70
     0
 62
     1
  6
PHANTOM
  0
LAYER
  2
SP
 70
     0
 62
     2
  6
CONTINUOUS
  0
LAYER
  2
DEFPOINTS
 70
     0
 62
     7
  6
CONTINUOUS
  0
LAYER
  2
4
 70
     0
 62
     7
  6
CONTINUOUS
  0
ENDTAB
  0
TABLE
  2
STYLE
 70
     1
  0
STYLE
  2
STANDARD
 70
     0
 40
0.0
 41
1.0
 50
15.0
 71
     0
 42
3.5
  3
C:\Program Files\AutoCAD LT\simplex.shx
  4
C:\Program Files\AutoCAD LT\extfont.shx
  0
ENDTAB
  0
TABLE
  2
VIEW
 70
     0
  0
ENDTAB
  0
TABLE
  2
UCS
 70
     0
  0
ENDTAB
  0
TABLE
  2
APPID
 70
     1
  0
APPID
  2
ACAD
 70
     0
  0
ENDTAB
  0
TABLE
  2
DIMSTYLE
 70
     3
  0
DIMSTYLE
  2
STANDARD
 70
     0
  3

  4

  5

  6

  7

 40
1.0
 41
0.18
 42
0.0625
 43
0.38
 44
0.18
 45
0.0
 46
0.0
 47
0.0
 48
0.0
140
0.18
141
0.09
142
0.0
143
25.399999999999999
144
1.0
145
0.0
146
1.0
147
0.09
 71
     0
 72
     0
 73
     1
 74
     1
 75
     0
 76
     0
 77
     0
 78
     0
170
     0
171
     2
172
     0
173
     0
174
     0
175
     0
176
     0
177
     0
178
     0
  0
DIMSTYLE
  2
GOD
 70
     0
  3

  4

  5

  6
OPEN
  7
OPEN
 40
10.0
 41
2.5
 42
1.0
 43
7.0
 44
1.0
 45
0.0
 46
0.0
 47
0.0
 48
0.0
140
3.0
141
0.0
142
0.0
143
0.03937
144
1.0
145
0.0
146
1.0
147
1.0
 71
     0
 72
     0
 73
     0
 74
     0
 75
     0
 76
     0
 77
     1
 78
     8
170
     0
171
     2
172
     1
173
     1
174
     0
175
     0
176
   256
177
   256
178
   256
  0
DIMSTYLE
  2
IGA
 70
     0
  3

  4

  5

  6

  7

 40
1.0
 41
3.0
 42
0.5
 43
10.0
 44
1.0
 45
0.0
 46
0.0
 47
1.0
 48
1.0
140
3.0
141
0.0
142
0.0
143
0.039
144
1.0
145
0.0
146
10.0
147
1.0
 71
     0
 72
     0
 73
     0
 74
     0
 75
     0
 76
     0
 77
     1
 78
     8
170
     0
171
     2
172
     1
173
     1
174
     0
175
     0
176
     0
177
     0
178
     0
  0
ENDTAB
  0
ENDSEC
  0
SECTION
  2
BLOCKS
  0
BLOCK
  8
0
  2
$MODEL_SPACE
 70
     0
 10
0.0
 20
0.0
 30
0.0
  3
$MODEL_SPACE
  1

  0
ENDBLK
  5
1B
  8
0
  0
BLOCK
 67
     1
  8
0
  2
$PAPER_SPACE
 70
     0
 10
0.0
 20
0.0
 30
0.0
  3
$PAPER_SPACE
  1

  0
ENDBLK
  5
18
 67
     1
  8
0
  0
BLOCK
  8
0
  2
_OPEN
 70
     0
 10
0.0
 20
0.0
 30
0.0
  3
_OPEN
  1

  0
LINE
  5
1E81
  8
0
  6
BYBLOCK
 62
     0
 10
-1.0
 20
0.1666666666666666
 30
0.0
 11
0.0
 21
0.0
 31
0.0
  0
LINE
  5
1E82
  8
0
  6
BYBLOCK
 62
     0
 10
0.0
 20
0.0
 30
0.0
 11
-1.0
 21
-0.1666666666666666
 31
0.0
  0
LINE
  5
1E83
  8
0
  6
BYBLOCK
 62
     0
 10
0.0
 20
0.0
 30
0.0
 11
-1.0
 21
0.0
 31
0.0
  0
ENDBLK
  5
1E84
  8
0
  0
BLOCK
  8
0
  2
_DOT
 70
     0
 10
0.0
 20
0.0
 30
0.0
  3
_DOT
  1

  0
LINE
  5
9B41
  8
0
  6
BYBLOCK
 62
     0
 10
0.0
 20
0.0
 30
0.0
 11
-1.0
 21
-0.0000000000000284
 31
0.0
  0
POLYLINE
  5
9B42
  8
0
  6
BYBLOCK
 62
     0
 66
     1
 10
0.0
 20
0.0
 30
0.0
 70
     1
 40
0.1666666666666666
 41
0.1666666666666666
  0
VERTEX
  5
B9B7
  8
0
  6
BYBLOCK
 62
     0
 10
-0.0833333333333286
 20
-0.0000000000000284
 30
0.0
 42
1.0
  0
VERTEX
  5
B9B8
  8
0
  6
BYBLOCK
 62
     0
 10
0.0833333333333286
 20
-0.0000000000000284
 30
0.0
 42
1.0
  0
SEQEND
  5
B9B9
  8
0
  6
BYBLOCK
 62
     0
  0
ENDBLK
  5
9B29
  8
0
  0
BLOCK
  8
0
  2
_NONE
 70
     0
 10
0.0
 20
0.0
 30
0.0
  3
_NONE
  1

  0
ENDBLK
  5
9B45
  8
0
  0
BLOCK
  8
0
  2
L-30-3
 70
     0
 10
0.0
 20
0.0
 30
0.0
  3
L-30-3
  1

  0
LINE
  5
A495
  8
0
 10
115.2488417492448
 20
98.116970357453638
 30
0.0
 11
145.2488417492448
 21
98.116970357453638
 31
0.0
  0
LINE
  5
A496
  8
0
 10
115.2488417492448
 20
98.116970357453638
 30
0.0
 11
115.2488417492448
 21
128.1169703574536
 31
0.0
  0
LINE
  5
A497
  8
0
 10
145.2488417492448
 20
98.116970357453638
 30
0.0
 11
145.2488417492448
 21
99.116970357453638
 31
0.0
  0
LINE
  5
A498
  8
0
 10
115.2488417492448
 20
128.1169703574536
 30
0.0
 11
116.2488417492448
 21
128.1169703574536
 31
0.0
  0
LINE
  5
A499
  8
0
 10
122.2488417492448
 20
101.1169703574536
 30
0.0
 11
143.2488417492448
 21
101.1169703574536
 31
0.0
  0
LINE
  5
A49A
  8
0
 10
118.2488417492448
 20
105.1169703574536
 30
0.0
 11
118.2488417492448
 21
126.1169703574536
 31
0.0
  0
ARC
  5
A49B
  8
0
 10
143.2488417492448
 20
99.116970357453638
 30
0.0
 40
2.0
 50
0.0
 51
90.0
  0
ARC
  5
A49C
  8
0
 10
116.2488417492448
 20
126.1169703574536
 30
0.0
 40
2.0
 50
0.0
 51
90.0
  0
ARC
  5
A49D
  8
0
 10
122.2488417492448
 20
105.1169703574536
 30
0.0
 40
4.0
 50
180.0
 51
270.0
  0
ENDBLK
  5
A49F
  8
0
  0
BLOCK
  8
0
  2
*D42
 70
     1
 10
0.0
 20
0.0
 30
0.0
  3
*D42
  1

  0
LINE
  5
B8C7
  8
SP
 10
5609.8183995695308
 20
8910.745099680269
 30
0.0
 11
5609.8183995695308
 21
8934.1450996802705
 31
0.0
  0
LINE
  5
B8C8
  8
SP
 10
5672.8183995695317
 20
8768.7450996802709
 30
0.0
 11
5672.8183995695317
 21
8934.1450996802705
 31
0.0
  0
LINE
  5
B8C9
  8
SP
 10
5584.8183995695308
 20
8924.1450996802687
 30
0.0
 11
5559.8183995695317
 21
8924.1450996802687
 31
0.0
  0
LINE
  5
B8CA
  8
SP
 10
5697.8183995695308
 20
8924.1450996802687
 30
0.0
 11
5795.4228073749036
 21
8924.1450996802687
 31
0.0
  0
LINE
  5
B8CB
  8
SP
 10
5609.8183995695308
 20
8924.1450996802687
 30
0.0
 11
5672.8183995695317
 21
8924.1450996802687
 31
0.0
  0
INSERT
  5
B8CC
  8
SP
  2
_OPEN
 10
5609.8183995695308
 20
8924.1450996802687
 30
0.0
 41
25.0
 42
25.0
 43
25.0
  0
INSERT
  5
B8CD
  8
SP
  2
_OPEN
 10
5672.8183995695317
 20
8924.1450996802687
 30
0.0
 41
25.0
 42
25.0
 43
25.0
 50
180.0
  0
TEXT
  5
B8CE
  8
SP
 10
5730.2414744591133
 20
8934.1450996802705
 30
0.0
 40
30.0
  1
63
 51
15.0
  0
POINT
  5
B8CF
  8
DEFPOINTS
 62
     0
 10
5609.8183995695308
 20
8900.745099680269
 30
0.0
  0
POINT
  5
B8D0
  8
DEFPOINTS
 62
     0
 10
5672.8183995695317
 20
8758.7450996802672
 30
0.0
  0
POINT
  5
B8D1
  8
DEFPOINTS
 62
     0
 10
5672.8183995695317
 20
8924.1450996802687
 30
0.0
  0
ENDBLK
  5
B6A8
  8
0
  0
BLOCK
  8
0
  2
*D43
 70
     1
 10
0.0
 20
0.0
 30
0.0
  3
*D43
  1

  0
LINE
  5
B8AC
  8
SP
 10
5609.8183995695308
 20
8910.745099680269
 30
0.0
 11
5609.8183995695308
 21
8934.1450996802705
 31
0.0
  0
LINE
  5
B8AD
  8
SP
 10
5348.8716205880592
 20
8727.3093996802691
 30
0.0
 11
5348.8716205880592
 21
8934.1450996802705
 31
0.0
  0
LINE
  5
B8AE
  8
SP
 10
5584.8183995695308
 20
8924.1450996802687
 30
0.0
 11
5373.8716205880582
 21
8924.1450996802687
 31
0.0
  0
INSERT
  5
B8AF
  8
SP
  2
_OPEN
 10
5609.8183995695308
 20
8924.1450996802687
 30
0.0
 41
25.0
 42
25.0
 43
25.0
  0
INSERT
  5
B8B0
  8
SP
  2
_OPEN
 10
5348.8716205880592
 20
8924.1450996802687
 30
0.0
 41
25.0
 42
25.0
 43
25.0
 50
180.0
  0
TEXT
  5
B8B1
  8
SP
 10
5412.4353083383949
 20
8934.1450996802705
 30
0.0
 40
30.0
  1
（330）
 51
15.0
  0
POINT
  5
B8B2
  8
DEFPOINTS
 62
     0
 10
5609.8183995695308
 20
8900.745099680269
 30
0.0
  0
POINT
  5
B8B3
  8
DEFPOINTS
 62
     0
 10
5348.8716205880592
 20
8717.3093996802691
 30
0.0
  0
POINT
  5
B8B4
  8
DEFPOINTS
 62
     0
 10
5348.8716205880592
 20
8924.1450996802687
 30
0.0
  0
ENDBLK
  5
B6B4
  8
0
  0
BLOCK
  8
0
  2
*D44
 70
     1
 10
0.0
 20
0.0
 30
0.0
  3
*D44
  1

  0
LINE
  5
B8D2
  8
SP
 10
5553.8183995695317
 20
8784.7450996802709
 30
0.0
 11
5553.8183995695317
 21
8864.1450996802687
 31
0.0
  0
LINE
  5
B8D3
  8
SP
 10
5665.8183995695308
 20
8784.7450996802709
 30
0.0
 11
5665.8183995695308
 21
8864.1450996802687
 31
0.0
  0
LINE
  5
B8D4
  8
SP
 10
5578.8183995695317
 20
8854.1450996802705
 30
0.0
 11
5640.8183995695299
 21
8854.1450996802705
 31
0.0
  0
INSERT
  5
B8D5
  8
SP
  2
_OPEN
 10
5553.8183995695317
 20
8854.1450996802705
 30
0.0
 41
25.0
 42
25.0
 43
25.0
 50
180.0
  0
INSERT
  5
B8D6
  8
SP
  2
_OPEN
 10
5665.8183995695308
 20
8854.1450996802705
 30
0.0
 41
25.0
 42
25.0
 43
25.0
  0
TEXT
  5
B8D7
  8
SP
 10
5571.1682048962039
 20
8864.1450996802687
 30
0.0
 40
30.0
  1
112
 51
15.0
  0
POINT
  5
B8D8
  8
DEFPOINTS
 62
     0
 10
5553.8183995695317
 20
8774.7450996802709
 30
0.0
  0
POINT
  5
B8D9
  8
DEFPOINTS
 62
     0
 10
5665.8183995695308
 20
8774.7450996802709
 30
0.0
  0
POINT
  5
B8DA
  8
DEFPOINTS
 62
     0
 10
5665.8183995695308
 20
8854.1450996802705
 30
0.0
  0
ENDBLK
  5
B6C0
  8
0
  0
BLOCK
  8
0
  2
*D45
 70
     1
 10
0.0
 20
0.0
 30
0.0
  3
*D45
  1

  0
LINE
  5
B8BE
  8
SP
 10
5682.8183995695317
 20
8740.745099680269
 30
0.0
 11
5765.9296941831244
 21
8740.745099680269
 31
0.0
  0
LINE
  5
B8BF
  8
SP
 10
5682.8183995695308
 20
8580.745099680269
 30
0.0
 11
5765.9296941831244
 21
8580.745099680269
 31
0.0
  0
LINE
  5
B8C0
  8
SP
 10
5755.9296941831226
 20
8715.745099680269
 30
0.0
 11
5755.9296941831226
 21
8605.7450996802672
 31
0.0
  0
INSERT
  5
B8C1
  8
SP
  2
_OPEN
 10
5755.9296941831226
 20
8740.745099680269
 30
0.0
 41
25.0
 42
25.0
 43
25.0
 50
90.0
  0
INSERT
  5
B8C2
  8
SP
  2
_OPEN
 10
5755.9296941831226
 20
8580.745099680269
 30
0.0
 41
25.0
 42
25.0
 43
25.0
 50
270.0
  0
TEXT
  5
B8C3
  8
SP
 10
5745.9296941831217
 20
8608.8311768771928
 30
0.0
 40
30.0
  1
φ160
 50
90.0
 51
15.0
  0
POINT
  5
B8C4
  8
DEFPOINTS
 62
     0
 10
5672.8183995695317
 20
8740.745099680269
 30
0.0
  0
POINT
  5
B8C5
  8
DEFPOINTS
 62
     0
 10
5672.8183995695308
 20
8580.745099680269
 30
0.0
  0
POINT
  5
B8C6
  8
DEFPOINTS
 62
     0
 10
5755.9296941831226
 20
8580.745099680269
 30
0.0
  0
ENDBLK
  5
B6CC
  8
0
  0
BLOCK
  8
0
  2
*D46
 70
     1
 10
0.0
 20
0.0
 30
0.0
  3
*D46
  1

  0
LINE
  5
B864
  8
SP
 10
4850.1773450386327
 20
8390.3961452231488
 30
0.0
 11
4850.1773450386327
 21
8328.7450996802709
 31
0.0
  0
LINE
  5
B865
  8
SP
 10
4675.1773450386272
 20
8398.7450996802709
 30
0.0
 11
4675.1773450386272
 21
8328.7450996802709
 31
0.0
  0
LINE
  5
B866
  8
SP
 10
4825.1773450386327
 20
8338.7450996802727
 30
0.0
 11
4700.1773450386272
 21
8338.7450996802727
 31
0.0
  0
INSERT
  5
B867
  8
SP
  2
_OPEN
 10
4850.1773450386327
 20
8338.7450996802727
 30
0.0
 41
25.0
 42
25.0
 43
25.0
  0
INSERT
  5
B868
  8
SP
  2
_OPEN
 10
4675.1773450386272
 20
8338.7450996802727
 30
0.0
 41
25.0
 42
25.0
 43
25.0
 50
180.0
  0
TEXT
  5
B869
  8
SP
 10
4721.118724101214
 20
8348.7450996802709
 30
0.0
 40
30.0
  1
175
 51
15.0
  0
POINT
  5
B86A
  8
DEFPOINTS
 62
     0
 10
4850.1773450386327
 20
8400.3961452231488
 30
0.0
  0
POINT
  5
B86B
  8
DEFPOINTS
 62
     0
 10
4675.1773450386272
 20
8408.7450996802727
 30
0.0
  0
POINT
  5
B86C
  8
DEFPOINTS
 62
     0
 10
4675.1773450386272
 20
8338.7450996802727
 30
0.0
  0
ENDBLK
  5
B6D8
  8
0
  0
BLOCK
  8
0
  2
*D47
 70
     1
 10
0.0
 20
0.0
 30
0.0
  3
*D47
  1

  0
LINE
  5
B849
  8
SP
 10
5025.1773450386327
 20
8398.7450996802709
 30
0.0
 11
5025.1773450386327
 21
8258.7450996802727
 31
0.0
  0
LINE
  5
B84A
  8
SP
 10
4675.1773450386318
 20
8398.7450996802709
 30
0.0
 11
4675.1773450386318
 21
8258.7450996802727
 31
0.0
  0
LINE
  5
B84B
  8
SP
 10
5000.1773450386327
 20
8268.7450996802727
 30
0.0
 11
4700.1773450386327
 21
8268.7450996802727
 31
0.0
  0
INSERT
  5
B84C
  8
SP
  2
_OPEN
 10
5025.1773450386327
 20
8268.7450996802727
 30
0.0
 41
25.0
 42
25.0
 43
25.0
  0
INSERT
  5
B84D
  8
SP
  2
_OPEN
 10
4675.1773450386318
 20
8268.7450996802727
 30
0.0
 41
25.0
 42
25.0
 43
25.0
 50
180.0
  0
TEXT
  5
B84E
  8
SP
 10
4808.3009642950228
 20
8278.7450996802709
 30
0.0
 40
30.0
  1
350
 51
15.0
  0
POINT
  5
B84F
  8
DEFPOINTS
 62
     0
 10
5025.1773450386327
 20
8408.7450996802727
 30
0.0
  0
POINT
  5
B850
  8
DEFPOINTS
 62
     0
 10
4675.1773450386318
 20
8408.7450996802727
 30
0.0
  0
POINT
  5
B851
  8
DEFPOINTS
 62
     0
 10
4675.1773450386318
 20
8268.7450996802727
 30
0.0
  0
ENDBLK
  5
B6E4
  8
0
  0
BLOCK
  8
0
  2
*D48
 70
     1
 10
0.0
 20
0.0
 30
0.0
  3
*D48
  1

  0
LINE
  5
B840
  8
SP
 10
5025.1773450386308
 20
9206.6101566582201
 30
0.0
 11
5025.1773450386308
 21
9140.7768233248898
 31
0.0
  0
LINE
  5
B841
  8
SP
 10
4675.1773450386318
 20
9206.6101566582201
 30
0.0
 11
4675.1773450386318
 21
9140.7768233248898
 31
0.0
  0
LINE
  5
B842
  8
SP
 10
5000.1773450386318
 20
9150.7768233248862
 30
0.0
 11
4700.1773450386308
 21
9150.7768233248862
 31
0.0
  0
INSERT
  5
B843
  8
SP
  2
_OPEN
 10
5025.1773450386308
 20
9150.7768233248862
 30
0.0
 41
25.0
 42
25.0
 43
25.0
  0
INSERT
  5
B844
  8
SP
  2
_OPEN
 10
4675.1773450386318
 20
9150.7768233248862
 30
0.0
 41
25.0
 42
25.0
 43
25.0
 50
180.0
  0
TEXT
  5
B845
  8
SP
 10
4808.3009642950219
 20
9160.7768233248862
 30
0.0
 40
30.0
  1
350
 51
15.0
  0
POINT
  5
B846
  8
DEFPOINTS
 62
     0
 10
5025.1773450386308
 20
9216.6101566582238
 30
0.0
  0
POINT
  5
B847
  8
DEFPOINTS
 62
     0
 10
4675.1773450386318
 20
9216.6101566582238
 30
0.0
  0
POINT
  5
B848
  8
DEFPOINTS
 62
     0
 10
4675.1773450386318
 20
9150.7768233248862
 30
0.0
  0
ENDBLK
  5
B6F0
  8
0
  0
BLOCK
  8
0
  2
*D49
 70
     1
 10
0.0
 20
0.0
 30
0.0
  3
*D49
  1

  0
LINE
  5
B888
  8
SP
 10
4850.1773450386308
 20
8816.1001673739374
 30
0.0
 11
4850.1773450386308
 21
8863.9633124934317
 31
0.0
  0
LINE
  5
B889
  8
SP
 10
4720.1773450386308
 20
8692.745099680269
 30
0.0
 11
4720.1773450386308
 21
8863.9633124934317
 31
0.0
  0
LINE
  5
B88A
  8
SP
 10
4825.1773450386318
 20
8853.9633124934317
 30
0.0
 11
4745.1773450386318
 21
8853.9633124934317
 31
0.0
  0
INSERT
  5
B88B
  8
SP
  2
_OPEN
 10
4850.1773450386308
 20
8853.9633124934317
 30
0.0
 41
25.0
 42
25.0
 43
25.0
  0
INSERT
  5
B88C
  8
SP
  2
_OPEN
 10
4720.1773450386308
 20
8853.9633124934317
 30
0.0
 41
25.0
 42
25.0
 43
25.0
 50
180.0
  0
TEXT
  5
B88D
  8
SP
 10
4743.6700075081608
 20
8863.9633124934317
 30
0.0
 40
30.0
  1
130
 51
15.0
  0
POINT
  5
B88E
  8
DEFPOINTS
 62
     0
 10
4850.1773450386308
 20
8806.1001673739356
 30
0.0
  0
POINT
  5
B88F
  8
DEFPOINTS
 62
     0
 10
4720.1773450386308
 20
8682.745099680269
 30
0.0
  0
POINT
  5
B890
  8
DEFPOINTS
 62
     0
 10
4720.1773450386308
 20
8853.9633124934317
 30
0.0
  0
ENDBLK
  5
B6FC
  8
0
  0
BLOCK
  8
0
  2
*D50
 70
     1
 10
0.0
 20
0.0
 30
0.0
  3
*D50
  1

  0
LINE
  5
B87F
  8
SP
 10
4685.9381597924621
 20
8660.745099680269
 30
0.0
 11
4570.1773450386318
 21
8660.745099680269
 31
0.0
  0
LINE
  5
B880
  8
SP
 10
4849.1773450386308
 20
8772.745099680269
 30
0.0
 11
4570.1773450386318
 21
8772.745099680269
 31
0.0
  0
LINE
  5
B881
  8
SP
 10
4580.1773450386318
 20
8685.7450996802709
 30
0.0
 11
4580.1773450386318
 21
8747.745099680269
 31
0.0
  0
INSERT
  5
B882
  8
SP
  2
_OPEN
 10
4580.1773450386318
 20
8660.745099680269
 30
0.0
 41
25.0
 42
25.0
 43
25.0
 50
270.0
  0
INSERT
  5
B883
  8
SP
  2
_OPEN
 10
4580.1773450386318
 20
8772.745099680269
 30
0.0
 41
25.0
 42
25.0
 43
25.0
 50
90.0
  0
TEXT
  5
B884
  8
SP
 10
4570.1773450386308
 20
8678.094905006943
 30
0.0
 40
30.0
  1
112
 50
90.0
 51
15.0
  0
POINT
  5
B885
  8
DEFPOINTS
 62
     0
 10
4695.938159792463
 20
8660.745099680269
 30
0.0
  0
POINT
  5
B886
  8
DEFPOINTS
 62
     0
 10
4859.1773450386308
 20
8772.745099680269
 30
0.0
  0
POINT
  5
B887
  8
DEFPOINTS
 62
     0
 10
4580.1773450386318
 20
8772.745099680269
 30
0.0
  0
ENDBLK
  5
B708
  8
0
  0
BLOCK
  8
0
  2
*D51
 70
     1
 10
0.0
 20
0.0
 30
0.0
  3
*D51
  1

  0
LINE
  5
B9BA
  8
SP
 10
4700.1773450386327
 20
8460.7450996802709
 30
0.0
 11
4570.1773450386318
 21
8460.7450996802709
 31
0.0
  0
LINE
  5
B9BB
  8
SP
 10
4665.1773450386327
 20
8438.7450996802709
 30
0.0
 11
4570.1773450386318
 21
8438.7450996802709
 31
0.0
  0
LINE
  5
B9BC
  8
SP
 10
4580.1773450386318
 20
8460.7450996802709
 30
0.0
 11
4580.1773450386318
 21
8438.7450996802709
 31
0.0
  0
TEXT
  8
0
  40
30
  5
B9C1
  72
0
  71
0
 10
4485.70
 20
8391.13
 30
0.000000
  1
（22）
  0
POINT
  5
B9BE
  8
DEFPOINTS
 62
     0
 10
4710.1773450386327
 20
8460.7450996802709
 30
0.0
  0
POINT
  5
B9BF
  8
DEFPOINTS
 62
     0
 10
4675.1773450386318
 20
8438.7450996802709
 30
0.0
  0
POINT
  5
B9C0
  8
DEFPOINTS
 62
     0
 10
4580.1773450386318
 20
8438.7450996802709
 30
0.0
  0
ENDBLK
  5
B712
  8
0
  0
BLOCK
  8
0
  2
*D52
 70
     1
 10
0.0
 20
0.0
 30
0.0
  3
*D52
  1

  0
LINE
  5
B9A5
  8
SP
 10
4665.1773450386327
 20
8408.7450996802727
 30
0.0
 11
4570.1773450386318
 21
8408.7450996802727
 31
0.0
  0
LINE
  5
B9A6
  8
SP
 10
4665.1773450386327
 20
8438.7450996802709
 30
0.0
 11
4570.1773450386318
 21
8438.7450996802709
 31
0.0
  0
LINE
  5
B9A7
  8
SP
 10
4580.1773450386327
 20
8463.7450996802727
 30
0.0
 11
4580.1773450386327
 21
8488.7450996802709
 31
0.0
  0
LINE
  5
B9A8
  8
SP
 10
4580.1773450386327
 20
8383.7450996802727
 30
0.0
 11
4580.1773450386327
 21
8286.6260432494055
 31
0.0
  0
LINE
  5
B9A9
  8
SP
 10
4580.1773450386327
 20
8438.7450996802709
 30
0.0
 11
4580.1773450386327
 21
8408.7450996802727
 31
0.0
  0
INSERT
  5
B9AA
  8
SP
  2
_DOT
 10
4580.1773450386327
 20
8438.7450996802709
 30
0.0
 41
25.0
 42
25.0
 43
25.0
 50
270.0
  0
INSERT
  5
B9AB
  8
SP
  2
_OPEN
 10
4580.1773450386327
 20
8408.7450996802727
 30
0.0
 41
25.0
 42
25.0
 43
25.0
 50
90.0
  0
TEXT
  5
B9AC
  8
SP
 10
4570.1773450386318
 20
8295.0949050069412
 30
0.0
 40
30.0
  1
30
 50
90.0
 51
15.0
  0
POINT
  5
B9AD
  8
DEFPOINTS
 62
     0
 10
4675.1773450386318
 20
8408.7450996802727
 30
0.0
  0
POINT
  5
B9AE
  8
DEFPOINTS
 62
     0
 10
4675.1773450386318
 20
8438.7450996802709
 30
0.0
  0
POINT
  5
B9AF
  8
DEFPOINTS
 62
     0
 10
4580.1773450386327
 20
8438.7450996802709
 30
0.0
  0
ENDBLK
  5
B720
  8
0
  0
BLOCK
  8
0
  2
*D53
 70
     1
 10
0.0
 20
0.0
 30
0.0
  3
*D53
  1

  0
LINE
  5
B85B
  8
SP
 10
4700.1773450386327
 20
8460.7450996802709
 30
0.0
 11
4570.1773450386318
 21
8460.7450996802709
 31
0.0
  0
LINE
  5
B85C
  8
SP
 10
4685.9381597924621
 20
8660.745099680269
 30
0.0
 11
4570.1773450386318
 21
8660.745099680269
 31
0.0
  0
LINE
  5
B85D
  8
SP
 10
4580.1773450386318
 20
8485.7450996802709
 30
0.0
 11
4580.1773450386318
 21
8635.745099680269
 31
0.0
  0
INSERT
  5
B85E
  8
SP
  2
_OPEN
 10
4580.1773450386318
 20
8460.7450996802709
 30
0.0
 41
25.0
 42
25.0
 43
25.0
 50
270.0
  0
INSERT
  5
B85F
  8
SP
  2
_OPEN
 10
4580.1773450386318
 20
8660.745099680269
 30
0.0
 41
25.0
 42
25.0
 43
25.0
 50
90.0
  0
TEXT
  5
B860
  8
SP
 10
4570.1773450386308
 20
8519.6342880578923
 30
0.0
 40
30.0
  1
200
 50
90.0
 51
15.0
  0
POINT
  5
B861
  8
DEFPOINTS
 62
     0
 10
4710.1773450386327
 20
8460.7450996802709
 30
0.0
  0
POINT
  5
B862
  8
DEFPOINTS
 62
     0
 10
4695.938159792463
 20
8660.745099680269
 30
0.0
  0
POINT
  5
B863
  8
DEFPOINTS
 62
     0
 10
4580.1773450386318
 20
8660.745099680269
 30
0.0
  0
ENDBLK
  5
B72C
  8
0
  0
BLOCK
  8
0
  2
*D54
 70
     1
 10
0.0
 20
0.0
 30
0.0
  3
*D54
  1

  0
LINE
  5
B852
  8
SP
 10
4710.1773450386318
 20
8500.745099680269
 30
0.0
 11
4640.1773450386308
 21
8500.745099680269
 31
0.0
  0
LINE
  5
B853
  8
SP
 10
4685.9381597924621
 20
8660.745099680269
 30
0.0
 11
4640.1773450386308
 21
8660.745099680269
 31
0.0
  0
LINE
  5
B854
  8
SP
 10
4650.1773450386308
 20
8525.745099680269
 30
0.0
 11
4650.1773450386308
 21
8635.745099680269
 31
0.0
  0
INSERT
  5
B855
  8
SP
  2
_OPEN
 10
4650.1773450386308
 20
8500.745099680269
 30
0.0
 41
25.0
 42
25.0
 43
25.0
 50
270.0
  0
INSERT
  5
B856
  8
SP
  2
_OPEN
 10
4650.1773450386308
 20
8660.745099680269
 30
0.0
 41
25.0
 42
25.0
 43
25.0
 50
90.0
  0
TEXT
  5
B857
  8
SP
 10
4640.1773450386299
 20
8539.2377621498017
 30
0.0
 40
30.0
  1
160
 50
90.0
 51
15.0
  0
POINT
  5
B858
  8
DEFPOINTS
 62
     0
 10
4720.1773450386308
 20
8500.745099680269
 30
0.0
  0
POINT
  5
B859
  8
DEFPOINTS
 62
     0
 10
4695.938159792463
 20
8660.745099680269
 30
0.0
  0
POINT
  5
B85A
  8
DEFPOINTS
 62
     0
 10
4650.1773450386308
 20
8660.745099680269
 30
0.0
  0
ENDBLK
  5
B738
  8
0
  0
BLOCK
  8
0
  2
*D55
 70
     1
 10
0.0
 20
0.0
 30
0.0
  3
*D55
  1

  0
LINE
  5
B89A
  8
SP
 10
5304.8183995695317
 20
8428.7450996802709
 30
0.0
 11
5304.8183995695317
 21
8258.7450996802727
 31
0.0
  0
LINE
  5
B89B
  8
SP
 10
5754.8183995695317
 20
8428.7450996802709
 30
0.0
 11
5754.8183995695317
 21
8258.7450996802727
 31
0.0
  0
LINE
  5
B89C
  8
SP
 10
5329.8183995695317
 20
8268.7450996802727
 30
0.0
 11
5729.8183995695308
 21
8268.7450996802727
 31
0.0
  0
INSERT
  5
B89D
  8
SP
  2
_OPEN
 10
5304.8183995695317
 20
8268.7450996802727
 30
0.0
 41
25.0
 42
25.0
 43
25.0
 50
180.0
  0
INSERT
  5
B89E
  8
SP
  2
_OPEN
 10
5754.8183995695317
 20
8268.7450996802727
 30
0.0
 41
25.0
 42
25.0
 43
25.0
  0
TEXT
  5
B89F
  8
SP
 10
5487.3678419849984
 20
8278.7450996802709
 30
0.0
 40
30.0
  1
450
 51
15.0
  0
POINT
  5
B8A0
  8
DEFPOINTS
 62
     0
 10
5304.8183995695317
 20
8438.7450996802709
 30
0.0
  0
POINT
  5
B8A1
  8
DEFPOINTS
 62
     0
 10
5754.8183995695317
 20
8438.7450996802709
 30
0.0
  0
POINT
  5
B8A2
  8
DEFPOINTS
 62
     0
 10
5754.8183995695317
 20
8268.7450996802727
 30
0.0
  0
ENDBLK
  5
B744
  8
0
  0
BLOCK
  8
0
  2
*D56
 70
     1
 10
0.0
 20
0.0
 30
0.0
  3
*D56
  1

  0
LINE
  5
B891
  8
SP
 10
5609.8183995695308
 20
8390.3961452231488
 30
0.0
 11
5609.8183995695308
 21
8328.7450996802709
 31
0.0
  0
LINE
  5
B892
  8
SP
 10
5304.8183995695317
 20
8428.7450996802672
 30
0.0
 11
5304.8183995695317
 21
8328.7450996802709
 31
0.0
  0
LINE
  5
B893
  8
SP
 10
5584.8183995695308
 20
8338.7450996802727
 30
0.0
 11
5329.8183995695317
 21
8338.7450996802727
 31
0.0
  0
INSERT
  5
B894
  8
SP
  2
_OPEN
 10
5609.8183995695308
 20
8338.7450996802727
 30
0.0
 41
25.0
 42
25.0
 43
25.0
  0
INSERT
  5
B895
  8
SP
  2
_OPEN
 10
5304.8183995695317
 20
8338.7450996802727
 30
0.0
 41
25.0
 42
25.0
 43
25.0
 50
180.0
  0
TEXT
  5
B896
  8
SP
 10
5415.390735418976
 20
8348.7450996802709
 30
0.0
 40
30.0
  1
305
 51
15.0
  0
POINT
  5
B897
  8
DEFPOINTS
 62
     0
 10
5609.8183995695308
 20
8400.3961452231488
 30
0.0
  0
POINT
  5
B898
  8
DEFPOINTS
 62
     0
 10
5304.8183995695317
 20
8438.7450996802709
 30
0.0
  0
POINT
  5
B899
  8
DEFPOINTS
 62
     0
 10
5304.8183995695317
 20
8338.7450996802727
 30
0.0
  0
ENDBLK
  5
B750
  8
0
  0
BLOCK
  8
0
  2
*D57
 70
     1
 10
0.0
 20
0.0
 30
0.0
  3
*D57
  1

  0
LINE
  5
B837
  8
SP
 10
4850.1773450386327
 20
8390.3961452231488
 30
0.0
 11
4850.1773450386327
 21
8328.7450996802709
 31
0.0
  0
LINE
  5
B838
  8
SP
 10
5025.1773450386327
 20
8398.7450996802709
 30
0.0
 11
5025.1773450386327
 21
8328.7450996802709
 31
0.0
  0
LINE
  5
B839
  8
SP
 10
4875.1773450386327
 20
8338.7450996802727
 30
0.0
 11
5000.1773450386327
 21
8338.7450996802727
 31
0.0
  0
INSERT
  5
B83A
  8
SP
  2
_OPEN
 10
4850.1773450386327
 20
8338.7450996802727
 30
0.0
 41
25.0
 42
25.0
 43
25.0
 50
180.0
  0
INSERT
  5
B83B
  8
SP
  2
_OPEN
 10
5025.1773450386327
 20
8338.7450996802727
 30
0.0
 41
25.0
 42
25.0
 43
25.0
  0
TEXT
  5
B83C
  8
SP
 10
4896.1187241012167
 20
8348.7450996802709
 30
0.0
 40
30.0
  1
175
 51
15.0
  0
POINT
  5
B83D
  8
DEFPOINTS
 62
     0
 10
4850.1773450386327
 20
8400.3961452231488
 30
0.0
  0
POINT
  5
B83E
  8
DEFPOINTS
 62
     0
 10
5025.1773450386327
 20
8408.7450996802727
 30
0.0
  0
POINT
  5
B83F
  8
DEFPOINTS
 62
     0
 10
5025.1773450386327
 20
8338.7450996802727
 30
0.0
  0
ENDBLK
  5
B75C
  8
0
  0
BLOCK
  8
0
  2
*D58
 70
     1
 10
0.0
 20
0.0
 30
0.0
  3
*D58
  1

  0
LINE
  5
B8A3
  8
SP
 10
5609.8183995695308
 20
8390.3961452231488
 30
0.0
 11
5609.8183995695308
 21
8328.7450996802709
 31
0.0
  0
LINE
  5
B8A4
  8
SP
 10
5754.8183995695317
 20
8428.7450996802709
 30
0.0
 11
5754.8183995695317
 21
8328.7450996802709
 31
0.0
  0
LINE
  5
B8A5
  8
SP
 10
5634.8183995695317
 20
8338.7450996802727
 30
0.0
 11
5729.8183995695308
 21
8338.7450996802727
 31
0.0
  0
INSERT
  5
B8A6
  8
SP
  2
_OPEN
 10
5609.8183995695308
 20
8338.7450996802727
 30
0.0
 41
25.0
 42
25.0
 43
25.0
 50
180.0
  0
INSERT
  5
B8A7
  8
SP
  2
_OPEN
 10
5754.8183995695317
 20
8338.7450996802727
 30
0.0
 41
25.0
 42
25.0
 43
25.0
  0
TEXT
  5
B8A8
  8
SP
 10
5640.7597786321157
 20
8348.7450996802709
 30
0.0
 40
30.0
  1
145
 51
15.0
  0
POINT
  5
B8A9
  8
DEFPOINTS
 62
     0
 10
5609.8183995695308
 20
8400.3961452231488
 30
0.0
  0
POINT
  5
B8AA
  8
DEFPOINTS
 62
     0
 10
5754.8183995695317
 20
8438.7450996802709
 30
0.0
  0
POINT
  5
B8AB
  8
DEFPOINTS
 62
     0
 10
5754.8183995695317
 20
8338.7450996802727
 30
0.0
  0
ENDBLK
  5
B768
  8
0
  0
BLOCK
  8
0
  2
*D59
 70
     1
 10
0.0
 20
0.0
 30
0.0
  3
*D59
  1

  0
LINE
  5
B8B5
  8
SP
 10
5035.1773450386318
 20
9666.610156658222
 30
0.0
 11
5125.3137517570094
 21
9666.610156658222
 31
0.0
  0
LINE
  5
B8B6
  8
SP
 10
5035.1773450386318
 20
9216.6101566582238
 30
0.0
 11
5125.3137517570094
 21
9216.6101566582238
 31
0.0
  0
LINE
  5
B8B7
  8
SP
 10
5115.3137517570094
 20
9641.6101566582238
 30
0.0
 11
5115.3137517570094
 21
9241.6101566582238
 31
0.0
  0
INSERT
  5
B8B8
  8
SP
  2
_OPEN
 10
5115.3137517570094
 20
9666.610156658222
 30
0.0
 41
25.0
 42
25.0
 43
25.0
 50
90.0
  0
INSERT
  5
B8B9
  8
SP
  2
_OPEN
 10
5115.3137517570094
 20
9216.6101566582238
 30
0.0
 41
25.0
 42
25.0
 43
25.0
 50
270.0
  0
TEXT
  5
B8BA
  8
SP
 10
5105.3137517570094
 20
9399.1595990736896
 30
0.0
 40
30.0
  1
450
 50
90.0
 51
15.0
  0
POINT
  5
B8BB
  8
DEFPOINTS
 62
     0
 10
5025.1773450386308
 20
9666.610156658222
 30
0.0
  0
POINT
  5
B8BC
  8
DEFPOINTS
 62
     0
 10
5025.1773450386308
 20
9216.6101566582238
 30
0.0
  0
POINT
  5
B8BD
  8
DEFPOINTS
 62
     0
 10
5115.3137517570094
 20
9216.6101566582238
 30
0.0
  0
ENDBLK
  5
B774
  8
0
  0
BLOCK
  8
0
  2
*D60
 70
     1
 10
0.0
 20
0.0
 30
0.0
  3
*D60
  1

  0
LINE
  5
B82E
  8
SP
 10
4850.1773450386308
 20
8816.1001673739374
 30
0.0
 11
4850.1773450386308
 21
8863.9633124934317
 31
0.0
  0
LINE
  5
B82F
  8
SP
 10
4984.1736339387126
 20
8658.7896328792958
 30
0.0
 11
4984.1736339387126
 21
8863.9633124934317
 31
0.0
  0
LINE
  5
B830
  8
SP
 10
4875.1773450386318
 20
8853.9633124934317
 30
0.0
 11
4959.1736339387116
 21
8853.9633124934317
 31
0.0
  0
INSERT
  5
B831
  8
SP
  2
_OPEN
 10
4850.1773450386308
 20
8853.9633124934317
 30
0.0
 41
25.0
 42
25.0
 43
25.0
 50
180.0
  0
INSERT
  5
B832
  8
SP
  2
_OPEN
 10
4984.1736339387126
 20
8853.9633124934317
 30
0.0
 41
25.0
 42
25.0
 43
25.0
  0
TEXT
  5
B833
  8
SP
 10
4876.1535033327109
 20
8863.9633124934317
 30
0.0
 40
30.0
  1
134
 51
15.0
  0
POINT
  5
B834
  8
DEFPOINTS
 62
     0
 10
4850.1773450386308
 20
8806.1001673739356
 30
0.0
  0
POINT
  5
B835
  8
DEFPOINTS
 62
     0
 10
4984.1736339387126
 20
8648.7896328792958
 30
0.0
  0
POINT
  5
B836
  8
DEFPOINTS
 62
     0
 10
4984.1736339387126
 20
8853.9633124934317
 30
0.0
  0
ENDBLK
  5
B780
  8
0
  0
ENDSEC
  0
SECTION
  2
ENTITIES
  0
LINE
  5
8D01
  8
4
 10
3820.3435473019958
 20
10505.219059589719
 30
0.0
 11
3820.3435473019958
 21
10505.219059589719
 31
0.0
  0
LINE
  5
8D03
  8
4
 10
6230.9309986409498
 20
10505.219059589719
 30
0.0
 11
6230.9309986409498
 21
7555.2190595897273
 31
0.0
  0
LINE
  5
8D04
  8
4
 10
4130.9309986409498
 20
7555.2190595897273
 30
0.0
 11
4130.9309986409498
 21
10505.219059589719
 31
0.0
  0
LINE
  5
8D06
  8
4
 10
4580.9309986409498
 20
8055.2190595897273
 30
0.0
 11
5780.9309986409498
 21
8055.2190595897273
 31
0.0
  0
LINE
  5
8D07
  8
4
 10
4580.9309986409498
 20
7955.2190595897273
 30
0.0
 11
5780.9309986409498
 21
7955.2190595897273
 31
0.0
  0
LINE
  5
8D08
  8
4
 10
4580.9309986409498
 20
7855.2190595897273
 30
0.0
 11
5780.9309986409498
 21
7855.2190595897273
 31
0.0
  0
TEXT
  5
8D0A
  8
4
 10
5108.6097441286147
 20
7977.790828547295
 30
0.0
 40
50.0
  1
ミツヤ多翼送風機
  0
LINE
  5
8D0B
  8
4
 10
6230.9309986409498
 20
7555.2190595897273
 30
0.0
 11
4130.9309986409498
 21
7555.2190595897273
 31
0.0
  0
TEXT
  5
8D0D
  8
4
 10
4617.1891046657474
 20
7876.8642163217382
 30
0.0
 40
50.0
  1
機器型番
  0
TEXT
  5
8D0E
  8
4
 10
4619.4330794878506
 20
7986.7620854563402
 30
0.0
 40
50.0
  1
機器名称
  0
LINE
  5
8D0F
  8
4
 10
4580.9309986409498
 20
8055.2190595897273
 30
0.0
 11
4580.9309986409498
 21
7855.2190595897246
 31
0.0
  0
TEXT
  5
8D10
  8
4
 10
5117.5854942264314
 20
7872.3786438696698
 30
0.0
 40
50.0
  1
MF＃1-7
  0
LINE
  5
8D11
  8
4
 10
5080.9309986409498
 20
8055.2190595897273
 30
0.0
 11
5080.9309986409498
 21
7855.2190595897246
 31
0.0
  0
LINE
  5
8D12
  8
4
 10
5780.9309986409498
 20
8055.2190595897273
 30
0.0
 11
5780.9309986409498
 21
7855.2190595897246
 31
0.0
  0
LINE
  5
8D13
  8
4
 10
4380.9309986409498
 20
10224.627813854529
 30
0.0
 11
5980.9309986409498
 21
10224.627813854529
 31
0.0
  0
LINE
  5
8D14
  8
4
 10
4380.9309986409498
 20
10024.627813854529
 30
0.0
 11
5980.9309986409498
 21
10024.627813854529
 31
0.0
  0
TEXT
  5
8D15
  8
4
 10
4618.9939025858093
 20
10089.100035789021
 30
0.0
 40
72.0
  1
遠心式片吸込直動形多翼ファン
  0
LINE
  5
8D16
  8
4
 10
4130.9309986409498
 20
10505.219059589719
 30
0.0
 11
6230.9309986409498
 21
10505.219059589719
 31
0.0
  0
LINE
  5
8D17
  8
4
 10
4380.9309986409498
 20
10224.627813854529
 30
0.0
 11
4380.9309986409498
 21
10024.627813854529
 31
0.0
  0
TEXT
  5
8D18
  8
4
 10
4460.7147089081518
 20
9937.5385371360699
 30
0.0
 40
53.999999999999993
  1
右回転左横向
  0
TEXT
  5
8D19
  8
4
 10
4943.1946333734304
 20
9938.6479009222421
 30
0.0
 40
53.999999999999993
  1
天井吊ベッド型
  0
LINE
  5
8D1A
  8
4
 10
5980.9309986409498
 20
10224.627813854529
 30
0.0
 11
5980.9309986409498
 21
10024.627813854529
 31
0.0
  0
TEXT
  5
8D1B
  8
4
 10
5500.5242769276383
 20
9938.6479009222421
 30
0.0
 40
53.999999999999993
  1
縮尺：1/10
  0
LINE
  5
8D1C
  8
4
 10
5980.9309986409498
 20
10236.48264271512
 30
0.0
 11
5571.5484210008144
 21
10236.48264271512
 31
0.0
  0
LINE
  5
8D1D
  8
4
 10
5571.5484210008144
 20
10341.87132113947
 30
0.0
 11
5980.9309986409498
 21
10341.87132113947
 31
0.0
  0
TEXT
  5
8D1E
  8
4
 10
5599.9005578902397
 20
10261.28014108503
 30
0.0
 40
56.000000000000007
  1
No.
  0
LINE
  5
8D1F
  8
4
 10
5571.5484210008144
 20
10236.48264271512
 30
0.0
 11
5571.5484210008144
 21
10341.87132113947
 31
0.0
  0
LINE
  5
8D20
  8
4
 10
5980.9309986409498
 20
10341.87132113947
 30
0.0
 11
5980.9309986409498
 21
10236.48264271512
 31
0.0
  0
LINE
  5
8D21
  8
4
 10
6230.9309986409498
 20
10505.219059589719
 30
0.0
 11
6230.9309986409498
 21
10505.219059589719
 31
0.0
  0
DIMENSION
  5
B52B
  8
SP
  2
*D46
 10
4675.1773450386272
 20
8338.7450996802727
 30
0.0
 11
4762.6773450386299
 21
8363.7450996802709
 31
0.0
 70
     0
 13
4850.1773450386327
 23
8400.3961452231488
 33
0.0
 14
4675.1773450386272
 24
8408.7450996802727
 34
0.0
 50
180.0
  0
LINE
  5
B52C
  8
FUTO
 10
4675.1773450386318
 20
8435.7450996802709
 30
0.0
 11
5025.1773450386327
 21
8435.7450996802709
 31
0.0
  0
LINE
  5
B52D
  8
FUTO
 10
4675.1773450386318
 20
8408.7450996802727
 30
0.0
 11
5025.1773450386327
 21
8408.7450996802727
 31
0.0
  0
LINE
  5
B52E
  8
FUTO
 10
4675.1773450386318
 20
8438.7450996802709
 30
0.0
 11
5025.1773450386327
 21
8438.7450996802709
 31
0.0
  0
DIMENSION
  5
B52F
  8
SP
  2
*D47
 10
4675.1773450386318
 20
8268.7450996802727
 30
0.0
 11
4850.1773450386327
 21
8293.7450996802709
 31
0.0
 70
     0
 13
5025.1773450386327
 23
8408.7450996802727
 33
0.0
 14
4675.1773450386318
 24
8408.7450996802727
 34
0.0
 50
180.0
  0
DIMENSION
  5
B530
  8
SP
  2
*D48
 10
4675.1773450386318
 20
9150.7768233248862
 30
0.0
 11
4850.1773450386308
 21
9175.776823324888
 31
0.0
 70
     0
 13
5025.1773450386308
 23
9216.6101566582238
 33
0.0
 14
4675.1773450386318
 24
9216.6101566582238
 34
0.0
  0
LINE
  5
B531
  8
FUTO
 10
4675.1773450386318
 20
9216.6101566582238
 30
0.0
 11
5025.1773450386308
 21
9216.6101566582238
 31
0.0
  0
LINE
  5
B532
  8
FUTO
 10
4675.1773450386318
 20
9246.610156658222
 30
0.0
 11
5025.1773450386308
 21
9246.610156658222
 31
0.0
  0
LINE
  5
B533
  8
FUTO
 10
4675.1773450386318
 20
9666.610156658222
 30
0.0
 11
5025.1773450386308
 21
9666.610156658222
 31
0.0
  0
LINE
  5
B534
  8
FUTO
 10
4675.1773450386318
 20
9636.6101566582201
 30
0.0
 11
5025.1773450386308
 21
9636.6101566582201
 31
0.0
  0
LINE
  5
B535
  8
FUTO
 10
4788.6851592078074
 20
9282.610156658222
 30
0.0
 11
4740.1773450386308
 21
9282.610156658222
 31
0.0
  0
LINE
  5
B536
  8
FUTO
 10
4960.1773450386318
 20
9456.4101566582194
 30
0.0
 11
4740.1773450386327
 21
9456.4101566582194
 31
0.0
  0
LINE
  5
B537
  8
FUTO
 10
4960.1773450386308
 20
9458.0101566582216
 30
0.0
 11
4740.1773450386308
 21
9458.0101566582234
 31
0.0
  0
LINE
  5
B538
  8
CT
 10
4922.5208431632336
 20
9369.610156658222
 30
0.0
 11
4775.4013431632338
 21
9369.610156658222
 31
0.0
  0
LINE
  5
B539
  8
CT
 10
5015.9202743001943
 20
9521.6101566582238
 30
0.0
 11
4684.4344157770693
 21
9521.6101566582238
 31
0.0
  0
LINE
  5
B53A
  8
FUTO
 10
4990.4001512085333
 20
9577.3521064595589
 30
0.0
 11
4721.1773450386318
 21
9577.3521064595589
 31
0.0
  0
LINE
  5
B53B
  8
FUTO
 10
4990.5076486817907
 20
9577.9521064595592
 30
0.0
 11
4721.1773450386318
 21
9577.9521064595592
 31
0.0
  0
LINE
  5
B53C
  8
FUTO
 10
4987.5732718801864
 20
9464.7521064595603
 30
0.0
 11
4721.1773450386318
 21
9464.7521064595603
 31
0.0
  0
LINE
  5
B53D
  8
FUTO
 10
4987.5732718801864
 20
9465.3521064595607
 30
0.0
 11
4721.1773450386318
 21
9465.3521064595607
 31
0.0
  0
DIMENSION
  5
B53E
  8
SP
  2
*D49
 10
4720.1773450386308
 20
8853.9633124934317
 30
0.0
 11
4785.1773450386318
 21
8878.9633124934298
 31
0.0
 70
     0
 13
4850.1773450386308
 23
8806.1001673739356
 33
0.0
 14
4720.1773450386308
 24
8682.745099680269
 34
0.0
  0
DIMENSION
  5
B53F
  8
SP
  2
*D50
 10
4580.1773450386318
 20
8772.745099680269
 30
0.0
 11
4555.1773450386308
 21
8716.7450996802727
 31
0.0
 70
     0
 13
4695.938159792463
 23
8660.745099680269
 33
0.0
 14
4859.1773450386308
 24
8772.745099680269
 34
0.0
 50
90.0
  0
LINE
  5
B540
  8
FUTO
 10
4735.1773450386308
 20
8488.7450996802709
 30
0.0
 11
4837.1773450386318
 21
8488.7450996802709
 31
0.0
  0
LINE
  5
B541
  8
FUTO
 10
4720.1773450386308
 20
8500.745099680269
 30
0.0
 11
4837.1773450386318
 21
8500.745099680269
 31
0.0
  0
LINE
  5
B542
  8
FUTO
 10
4756.4013004703856
 20
8597.745099680269
 30
0.0
 11
4790.1773450386308
 21
8579.3450996802694
 31
0.0
  0
LINE
  5
B543
  8
FUTO
 10
4740.1773450386327
 20
8690.745099680269
 30
0.0
 11
4815.1773450386308
 21
8765.7450996802709
 31
0.0
  0
LINE
  5
B544
  8
FUTO
 10
4955.3773450386307
 20
8597.745099680269
 30
0.0
 11
4744.977345038631
 21
8597.745099680269
 31
0.0
  0
CIRCLE
  5
B545
  8
CT
 10
4850.1773450386308
 20
8660.745099680269
 30
0.0
 40
90.0
  0
ARC
  5
B546
  8
FUTO
 10
4859.1773450386308
 20
8669.7450996802672
 30
0.0
 40
115.0
 50
89.468385237766483
 51
175.73439108430571
  0
ARC
  5
B547
  8
FUTO
 10
4859.1773450386308
 20
8669.7450996802672
 30
0.0
 40
103.0
 50
89.468385237766483
 51
175.73439108430571
  0
LINE
  5
B548
  8
CT
 10
4695.938159792463
 20
8660.745099680269
 30
0.0
 11
5007.03856066356
 21
8660.745099680269
 31
0.0
  0
DIMENSION
  5
B549
  8
SP
  2
*D51
 10
4580.1773450386318
 20
8438.7450996802709
 30
0.0
 11
4545.6971944625202
 21
8444.2252502563788
 31
0.0
 70
   128
 13
4710.1773450386327
 23
8460.7450996802709
 33
0.0
 14
4675.1773450386318
 24
8438.7450996802709
 34
0.0
 50
90.0
1001
ACAD
1000
DSTYLE
1002
{
1070
   287
1070
     5
1070
     3
1000
（<>）
1070
   279
1070
     2
1070
   289
1070
     3
1070
     6
1000
NONE
1070
     7
1000
NONE
1002
}
  0
DIMENSION
  5
B54A
  8
SP
  2
*D52
 10
4580.1773450386327
 20
8438.7450996802709
 30
0.0
 11
4580.1773450386318
 21
8322.6855714648391
 31
0.0
 70
   128
 13
4675.1773450386318
 23
8408.7450996802727
 33
0.0
 14
4675.1773450386318
 24
8438.7450996802709
 34
0.0
 50
90.0
1001
ACAD
1000
DSTYLE
1002
{
1070
     7
1000
DOT
1070
     6
1000
OPEN
1002
}
  0
LINE
  5
B54B
  8
CT
 10
4723.1773450386318
 20
8450.4203278153946
 30
0.0
 11
4723.1773450386318
 21
8469.7692437648293
 31
0.0
  0
DIMENSION
  5
B54C
  8
SP
  2
*D53
 10
4580.1773450386318
 20
8660.745099680269
 30
0.0
 11
4555.1773450386308
 21
8560.7450996802709
 31
0.0
 70
     0
 13
4710.1773450386327
 23
8460.7450996802709
 33
0.0
 14
4695.938159792463
 24
8660.745099680269
 34
0.0
 50
90.0
  0
ARC
  5
B54D
  8
FUTO
 10
4738.5773450386323
 20
8463.9450996802698
 30
0.0
 40
3.2000000000000002
 50
270.0
 51
0.0
  0
ARC
  5
B54E
  8
FUTO
 10
4739.1773450386318
 20
8463.3450996802694
 30
0.0
 40
1.0
 50
270.0
 51
0.0
  0
LINE
  5
B54F
  8
FUTO
 10
4739.1773450386318
 20
8462.3450996802694
 30
0.0
 11
4710.1773450386327
 21
8462.3450996802694
 31
0.0
  0
LINE
  5
B550
  8
FUTO
 10
4738.5773450386323
 20
8460.7450996802709
 30
0.0
 11
4710.1773450386327
 21
8460.7450996802709
 31
0.0
  0
LINE
  5
B551
  8
FUTO
 10
4675.1773450386318
 20
8438.7450996802709
 30
0.0
 11
4675.1773450386318
 21
8408.7450996802727
 31
0.0
  0
LINE
  5
B552
  8
FUTO
 10
4710.1773450386327
 20
8460.7450996802709
 30
0.0
 11
4710.1773450386327
 21
8462.3450996802694
 31
0.0
  0
ARC
  5
B553
  8
FUTO
 10
4741.7773450386321
 20
8460.7450996802709
 30
0.0
 40
3.0
 50
179.88050910641491
 51
180.0
  0
LINE
  5
B554
  8
FUTO
 10
4710.1773450386318
 20
9636.6101566582201
 30
0.0
 11
4710.1773450386318
 21
9246.610156658222
 31
0.0
  0
LINE
  5
B555
  8
FUTO
 10
4740.177345038639
 20
9246.610156658222
 30
0.0
 11
4740.1773450386336
 21
9464.7521064595603
 31
0.0
  0
DIMENSION
  5
B556
  8
SP
  2
*D54
 10
4650.1773450386308
 20
8660.745099680269
 30
0.0
 11
4625.1773450386308
 21
8580.7450996802709
 31
0.0
 70
     0
 13
4720.1773450386308
 23
8500.745099680269
 33
0.0
 14
4695.938159792463
 24
8660.745099680269
 34
0.0
 50
90.0
  0
LINE
  5
B557
  8
CT
 10
4712.9924994601979
 20
8488.7450996802709
 30
0.0
 11
4729.5536588274617
 21
8488.7450996802709
 31
0.0
  0
LINE
  5
B558
  8
CT
 10
4712.9924994601979
 20
8672.7450996802672
 30
0.0
 11
4730.8611183302301
 21
8672.7450996802672
 31
0.0
  0
ARC
  5
B559
  8
FUTO
 10
4738.5125200066441
 20
8678.7450996802672
 30
0.0
 40
18.0
 50
275.30688733629478
 51
355.7343910843058
  0
ARC
  5
B55A
  8
FUTO
 10
4745.1773450386308
 20
8664.1993062232923
 30
0.0
 40
10.0
 50
120.0000000000103
 51
180.0
  0
LINE
  5
B55B
  8
FUTO
 10
4720.1773450386308
 20
8478.745099680269
 30
0.0
 11
4720.1773450386308
 21
8682.745099680269
 31
0.0
  0
LINE
  5
B55C
  8
FUTO
 10
4721.1773450386318
 20
8497.745099680269
 30
0.0
 11
4721.1773450386318
 21
8682.745099680269
 31
0.0
  0
LINE
  5
B55D
  8
FUTO
 10
4740.1773450386327
 20
8463.2828151883587
 30
0.0
 11
4740.1773450386327
 21
8690.745099680269
 31
0.0
  0
LINE
  5
B55E
  8
FUTO
 10
4741.7773450386321
 20
8463.7450996802709
 30
0.0
 11
4741.7773450386321
 21
8692.3450996802694
 31
0.0
  0
LINE
  5
B55F
  8
FUTO
 10
4759.3383478241458
 20
8596.1450996802705
 30
0.0
 11
4744.977345038631
 21
8596.1450996802705
 31
0.0
  0
LINE
  5
B560
  8
CT
 10
4751.0115576574663
 20
8525.9450996802698
 30
0.0
 11
4731.5373560469061
 21
8525.9450996802698
 31
0.0
  0
LINE
  5
B561
  8
CT
 10
4751.0115576574663
 20
8580.9450996802698
 30
0.0
 11
4731.5373560469061
 21
8580.9450996802698
 31
0.0
  0
LINE
  5
B562
  8
FUTO
 10
4721.1773450386318
 20
8478.745099680269
 30
0.0
 11
4721.1773450386318
 21
8497.745099680269
 31
0.0
  0
LINE
  5
B563
  8
FUTO
 10
4720.1773450386308
 20
8478.745099680269
 30
0.0
 11
4721.1773450386318
 21
8478.745099680269
 31
0.0
  0
LINE
  5
B564
  8
FUTO
 10
4723.1773450386318
 20
8499.7450996802709
 30
0.0
 11
4735.1773450386308
 21
8499.7450996802709
 31
0.0
  0
LINE
  5
B565
  8
FUTO
 10
4723.5915586010042
 20
8503.1593132426424
 30
0.0
 11
4735.1773450386308
 21
8514.7450996802672
 31
0.0
  0
LINE
  5
B566
  8
FUTO
 10
4735.1773450386308
 20
8488.7450996802709
 30
0.0
 11
4735.1773450386308
 21
8500.745099680269
 31
0.0
  0
ARC
  5
B567
  8
FUTO
 10
4725.0057721633766
 20
8501.745099680269
 30
0.0
 40
2.0
 50
135.0
 51
270.0
  0
ARC
  5
B568
  8
FUTO
 10
4723.1773450386308
 20
8497.745099680269
 30
0.0
 40
2.0
 50
90.0
 51
180.0
  0
LINE
  5
B569
  8
FUTO
 10
4723.5915586010042
 20
8658.3308861178994
 30
0.0
 11
4735.1773450386308
 21
8646.7450996802709
 31
0.0
  0
LINE
  5
B56A
  8
FUTO
 10
4723.1773450386318
 20
8661.745099680269
 30
0.0
 11
4735.1773450386308
 21
8661.745099680269
 31
0.0
  0
LINE
  5
B56B
  8
FUTO
 10
4735.1773450386308
 20
8660.745099680269
 30
0.0
 11
4735.1773450386308
 21
8664.1993062232923
 31
0.0
  0
ARC
  5
B56C
  8
FUTO
 10
4725.0057721633766
 20
8659.7450996802727
 30
0.0
 40
2.0
 50
90.0
 51
225.0
  0
ARC
  5
B56D
  8
FUTO
 10
4723.1773450386308
 20
8663.745099680269
 30
0.0
 40
2.0
 50
180.0
 51
270.0
  0
ARC
  5
B56E
  8
FUTO
 10
4738.5125200066441
 20
8678.7450996802672
 30
0.0
 40
18.0
 50
270.0
 51
275.30688733629478
  0
LINE
  5
B56F
  8
FUTO
 10
4735.1773450386308
 20
8514.7450996802672
 30
0.0
 11
4735.1773450386308
 21
8646.7450996802709
 31
0.0
  0
LINE
  5
B570
  8
FUTO
 10
4741.7773450386321
 20
8511.9450996802698
 30
0.0
 11
4741.7773450386321
 21
8595.5450996802683
 31
0.0
  0
ARC
  5
B571
  8
FUTO
 10
4744.977345038631
 20
8594.5450996802683
 30
0.0
 40
1.6000000000000001
 50
90.0
 51
180.0
  0
ARC
  5
B572
  8
FUTO
 10
4744.977345038631
 20
8594.5450996802683
 30
0.0
 40
3.2000000000000002
 50
90.0
 51
180.0
  0
LINE
  5
B573
  8
FUTO
 10
4741.777345038633
 20
8510.945099680268
 30
0.0
 11
4743.3773450386316
 21
8510.945099680268
 31
0.0
  0
LINE
  5
B574
  8
FUTO
 10
4743.3773450386316
 20
8510.945099680268
 30
0.0
 11
4743.3773450386316
 21
8594.5450996802683
 31
0.0
  0
CIRCLE
  5
B575
  8
FUTO
 10
4767.0281871126163
 20
8626.303590767413
 30
0.0
 40
4.0
  0
LINE
  5
B576
  8
CT
 10
4758.7132713200144
 20
8622.8594398761288
 30
0.0
 11
4775.3431029052181
 21
8629.7477416586971
 31
0.0
  0
LINE
  5
B577
  8
FUTO
 10
4720.1773450386308
 20
8682.745099680269
 30
0.0
 11
4721.1773450386318
 21
8682.745099680269
 31
0.0
  0
ARC
  5
B578
  8
FUTO
 10
4738.5125200066441
 20
8678.7450996802672
 30
0.0
 40
6.0
 50
294.61706395546952
 51
355.7343910843058
  0
ARC
  5
B579
  8
FUTO
 10
4745.1773450386308
 20
8664.1993062232923
 30
0.0
 40
10.0
 50
114.6170639554695
 51
120.0000000000103
  0
LINE
  5
B57A
  8
CT
 10
4758.7132713200144
 20
8698.6307594844147
 30
0.0
 11
4775.3431029052181
 21
8691.7424577018428
 31
0.0
  0
CIRCLE
  5
B57B
  8
FUTO
 10
4767.0281871126163
 20
8695.1866085931288
 30
0.0
 40
4.0
  0
LINE
  5
B57C
  8
FUTO
 10
4675.1773450386318
 20
9246.610156658222
 30
0.0
 11
4675.1773450386318
 21
9216.6101566582238
 31
0.0
  0
LINE
  5
B57D
  8
CT
 10
4705.1773450386318
 20
9229.6101566582238
 30
0.0
 11
4685.1773450386318
 21
9229.6101566582238
 31
0.0
  0
LINE
  5
B57E
  8
CT
 10
4695.1773450386318
 20
9239.6101566582201
 30
0.0
 11
4695.1773450386318
 21
9219.6101566582201
 31
0.0
  0
CIRCLE
  5
B57F
  8
FUTO
 10
4695.1773450386318
 20
9229.6101566582238
 30
0.0
 40
6.5
  0
LINE
  5
B580
  8
FUTO
 10
4710.1773450386318
 20
9458.610156658222
 30
0.0
 11
4740.1773450386308
 21
9458.610156658222
 31
0.0
  0
LINE
  5
B581
  8
FUTO
 10
4740.1773450386308
 20
9288.610156658222
 30
0.0
 11
4710.1773450386318
 21
9288.610156658222
 31
0.0
  0
LINE
  5
B582
  8
FUTO
 10
4675.1773450386318
 20
9666.610156658222
 30
0.0
 11
4675.1773450386318
 21
9636.6101566582201
 31
0.0
  0
LINE
  5
B583
  8
CT
 10
4705.1773450386318
 20
9653.610156658222
 30
0.0
 11
4685.1773450386318
 21
9653.610156658222
 31
0.0
  0
LINE
  5
B584
  8
CT
 10
4695.1773450386318
 20
9663.610156658222
 30
0.0
 11
4695.1773450386318
 21
9643.6101566582238
 31
0.0
  0
CIRCLE
  5
B585
  8
FUTO
 10
4695.1773450386318
 20
9653.610156658222
 30
0.0
 40
6.5
  0
LINE
  5
B586
  8
FUTO
 10
4735.1773450386318
 20
9479.1959430958523
 30
0.0
 11
4735.1773450386318
 21
9564.0243702205917
 31
0.0
  0
LINE
  5
B587
  8
FUTO
 10
4720.1773450386318
 20
9598.6101566582238
 30
0.0
 11
4720.1773450386318
 21
9444.6101566582201
 31
0.0
  0
LINE
  5
B588
  8
FUTO
 10
4721.1773450386318
 20
9598.6101566582201
 30
0.0
 11
4721.1773450386318
 21
9444.6101566582201
 31
0.0
  0
LINE
  5
B589
  8
FUTO
 10
4740.1773450386308
 20
9458.0101566582216
 30
0.0
 11
4740.1773450386308
 21
9456.4101566582194
 31
0.0
  0
LINE
  5
B58A
  8
FUTO
 10
4720.1773450386318
 20
9444.6101566582201
 30
0.0
 11
4721.1773450386318
 21
9444.6101566582201
 31
0.0
  0
LINE
  5
B58B
  8
CT
 10
4715.6737911312539
 20
9454.6101566582238
 30
0.0
 11
4725.6808989460096
 21
9454.6101566582238
 31
0.0
  0
LINE
  5
B58C
  8
FUTO
 10
4723.5915586010042
 20
9467.6101566582201
 30
0.0
 11
4723.5915586010042
 21
9465.610156658222
 31
0.0
  0
LINE
  5
B58D
  8
FUTO
 10
4723.5915586010042
 20
9467.6101566582201
 30
0.0
 11
4735.1773450386318
 21
9479.1959430958505
 31
0.0
  0
LINE
  5
B58E
  8
CT
 10
4760.1773450386308
 20
9451.4264833612197
 30
0.0
 11
4760.1773450386308
 21
9462.39950388121
 31
0.0
  0
LINE
  5
B58F
  8
FUTO
 10
4750.1773450386318
 20
9460.0101566582216
 30
0.0
 11
4750.1773450386318
 21
9465.0101566582216
 31
0.0
  0
ARC
  5
B590
  8
FUTO
 10
4752.1773450386308
 20
9460.0101566582216
 30
0.0
 40
2.0
 50
180.0
 51
270.0
  0
LINE
  5
B591
  8
FUTO
 10
4740.1773450386299
 20
9577.9521064595592
 30
0.0
 11
4740.1773450386299
 21
9636.6101566582201
 31
0.0
  0
LINE
  5
B592
  8
FUTO
 10
4720.1773450386318
 20
9598.6101566582238
 30
0.0
 11
4721.1773450386318
 21
9598.6101566582201
 31
0.0
  0
LINE
  5
B593
  8
CT
 10
4715.6737911312539
 20
9588.6101566582238
 30
0.0
 11
4725.6808989460096
 21
9588.6101566582183
 31
0.0
  0
LINE
  5
B594
  8
FUTO
 10
4723.5915586010042
 20
9575.6101566582201
 30
0.0
 11
4723.5915586010042
 21
9577.610156658222
 31
0.0
  0
LINE
  5
B595
  8
FUTO
 10
4723.5915586010042
 20
9575.6101566582201
 30
0.0
 11
4735.1773450386318
 21
9564.0243702205917
 31
0.0
  0
LINE
  5
B596
  8
CT
 10
4977.1773450386318
 20
8450.4203278153946
 30
0.0
 11
4977.1773450386318
 21
8469.7692437648293
 31
0.0
  0
LINE
  5
B597
  8
CT
 10
5609.8183995695308
 20
8400.3961452231488
 30
0.0
 11
5609.8183995695308
 21
8851.4109450537871
 31
0.0
  0
LINE
  5
B598
  8
FUTO
 10
5546.8183995695317
 20
8765.7450996802709
 30
0.0
 11
5546.8183995695317
 21
8460.7450996802709
 31
0.0
  0
LINE
  5
B599
  8
FUTO
 10
5545.2183995695314
 20
8765.7450996802709
 30
0.0
 11
5545.2183995695314
 21
8460.7450996802709
 31
0.0
  0
LINE
  5
B59A
  8
FUTO
 10
5376.8183995695317
 20
8462.3450996802676
 30
0.0
 11
5486.8183995695317
 21
8633.9450996802698
 31
0.0
  0
ARC
  5
B59B
  8
FUTO
 10
4961.1773450386308
 20
8463.3450996802694
 30
0.0
 40
1.0
 50
180.0
 51
270.0
  0
ARC
  5
B59C
  8
FUTO
 10
4961.7773450386312
 20
8463.9450996802698
 30
0.0
 40
3.2000000000000002
 50
180.0
 51
270.0
  0
LINE
  5
B59D
  8
CT
 10
4850.1773450386308
 20
8806.1001673739356
 30
0.0
 11
4850.1773450386308
 21
8400.3961452231488
 31
0.0
  0
LINE
  5
B59E
  8
FUTO
 10
5327.8183995695308
 20
8435.7450996802709
 30
0.0
 11
5306.8183995695317
 21
8435.7450996802709
 31
0.0
  0
LINE
  5
B59F
  8
FUTO
 10
5334.8183995695308
 20
8438.7450996802709
 30
0.0
 11
5304.8183995695317
 21
8438.7450996802709
 31
0.0
  0
DIMENSION
  5
B5A0
  8
SP
  2
*D55
 10
5754.8183995695317
 20
8268.7450996802727
 30
0.0
 11
5529.8183995695308
 21
8293.7450996802709
 31
0.0
 70
     0
 13
5304.8183995695317
 23
8438.7450996802709
 33
0.0
 14
5754.8183995695317
 24
8438.7450996802709
 34
0.0
  0
DIMENSION
  5
B5A1
  8
SP
  2
*D56
 10
5304.8183995695317
 20
8338.7450996802727
 30
0.0
 11
5457.3183995695317
 21
8363.7450996802709
 31
0.0
 70
     0
 13
5609.8183995695308
 23
8400.3961452231488
 33
0.0
 14
5304.8183995695317
 24
8438.7450996802709
 34
0.0
  0
DIMENSION
  5
B5A2
  8
SP
  2
*D57
 10
5025.1773450386327
 20
8338.7450996802727
 30
0.0
 11
4937.6773450386327
 21
8363.7450996802709
 31
0.0
 70
     0
 13
4850.1773450386327
 23
8400.3961452231488
 33
0.0
 14
5025.1773450386327
 24
8408.7450996802727
 34
0.0
 50
180.0
  0
LINE
  5
B5A3
  8
FUTO
 10
4961.7773450386312
 20
8460.7450996802709
 30
0.0
 11
4990.1773450386308
 21
8460.7450996802709
 31
0.0
  0
LINE
  5
B5A4
  8
FUTO
 10
4961.1773450386308
 20
8462.3450996802694
 30
0.0
 11
4990.1773450386308
 21
8462.3450996802694
 31
0.0
  0
LINE
  5
B5A5
  8
FUTO
 10
4990.1773450386308
 20
8460.7450996802709
 30
0.0
 11
4990.1773450386308
 21
8462.3450996802694
 31
0.0
  0
LINE
  5
B5A6
  8
FUTO
 10
5025.1773450386327
 20
8438.7450996802709
 30
0.0
 11
5025.1773450386327
 21
8408.7450996802727
 31
0.0
  0
ARC
  5
B5A7
  8
FUTO
 10
5306.8183995695317
 20
8437.7450996802709
 30
0.0
 40
2.0
 50
180.0
 51
270.0
  0
LINE
  5
B5A8
  8
FUTO
 10
5304.8183995695317
 20
8438.7450996802709
 30
0.0
 11
5304.8183995695317
 21
8437.7450996802709
 31
0.0
  0
LINE
  5
B5A9
  8
FUTO
 10
5333.8183995695317
 20
8408.7450996802727
 30
0.0
 11
5725.8183995695317
 21
8408.745099680269
 31
0.0
  0
LINE
  5
B5AA
  8
FUTO
 10
5334.8183995695308
 20
8438.7450996802709
 30
0.0
 11
5724.8183995695317
 21
8438.7450996802709
 31
0.0
  0
LINE
  5
B5AB
  8
FUTO
 10
5545.2183995695314
 20
8462.3450996802694
 30
0.0
 11
5376.8183995695317
 21
8462.3450996802676
 31
0.0
  0
LINE
  5
B5AC
  8
FUTO
 10
5546.8183995695317
 20
8460.7450996802709
 30
0.0
 11
5376.8183995695317
 21
8460.7450996802709
 31
0.0
  0
ARC
  5
B5AD
  8
FUTO
 10
5327.8183995695308
 20
8431.7450996802709
 30
0.0
 40
4.0
 50
0.0
 51
90.0
  0
ARC
  5
B5AE
  8
FUTO
 10
5333.8183995695317
 20
8410.7450996802709
 30
0.0
 40
2.0
 50
180.0
 51
270.0
  0
LINE
  5
B5AF
  8
FUTO
 10
5331.8183995695317
 20
8431.7450996802709
 30
0.0
 11
5331.8183995695317
 21
8410.7450996802709
 31
0.0
  0
LINE
  5
B5B0
  8
FUTO
 10
5334.8183995695308
 20
8408.7450996802727
 30
0.0
 11
5333.8183995695317
 21
8408.7450996802727
 31
0.0
  0
LINE
  5
B5B1
  8
FUTO
 10
5334.8183995695308
 20
8438.7450996802709
 30
0.0
 11
5334.8183995695308
 21
8408.7450996802727
 31
0.0
  0
LINE
  5
B5B2
  8
FUTO
 10
5376.8183995695317
 20
8462.3450996802676
 30
0.0
 11
5376.8183995695317
 21
8460.7450996802709
 31
0.0
  0
DIMENSION
  5
B5B3
  8
SP
  2
*D58
 10
5754.8183995695317
 20
8338.7450996802727
 30
0.0
 11
5682.3183995695308
 21
8363.7450996802709
 31
0.0
 70
     0
 13
5609.8183995695308
 23
8400.3961452231488
 33
0.0
 14
5754.8183995695317
 24
8438.7450996802709
 34
0.0
  0
LINE
  5
B5B4
  8
FUTO
 10
5724.8183995695317
 20
8438.7450996802709
 30
0.0
 11
5754.8183995695317
 21
8438.7450996802709
 31
0.0
  0
LINE
  5
B5B5
  8
FUTO
 10
5731.8183995695317
 20
8435.7450996802709
 30
0.0
 11
5752.8183995695308
 21
8435.7450996802709
 31
0.0
  0
LINE
  5
B5B6
  8
FUTO
 10
5724.8183995695317
 20
8438.7450996802709
 30
0.0
 11
5724.8183995695317
 21
8408.7450996802727
 31
0.0
  0
LINE
  5
B5B7
  8
FUTO
 10
5724.8183995695317
 20
8408.7450996802727
 30
0.0
 11
5725.8183995695317
 21
8408.7450996802727
 31
0.0
  0
LINE
  5
B5B8
  8
FUTO
 10
5727.8183995695317
 20
8431.7450996802709
 30
0.0
 11
5727.8183995695317
 21
8410.7450996802709
 31
0.0
  0
ARC
  5
B5B9
  8
FUTO
 10
5725.8183995695317
 20
8410.7450996802709
 30
0.0
 40
2.0
 50
270.0
 51
0.0
  0
ARC
  5
B5BA
  8
FUTO
 10
5731.8183995695317
 20
8431.7450996802709
 30
0.0
 40
4.0
 50
90.0
 51
180.0
  0
LINE
  5
B5BB
  8
FUTO
 10
5754.8183995695317
 20
8438.7450996802709
 30
0.0
 11
5754.8183995695317
 21
8437.7450996802709
 31
0.0
  0
ARC
  5
B5BC
  8
FUTO
 10
5752.8183995695308
 20
8437.7450996802709
 30
0.0
 40
2.0
 50
270.0
 51
0.0
  0
LINE
  5
B5BD
  8
CT
 10
5304.6232598347078
 20
8660.745099680269
 30
0.0
 11
5703.5892672667742
 21
8660.745099680269
 31
0.0
  0
DIMENSION
  5
B5BE
  8
SP
  2
*D59
 10
5115.3137517570094
 20
9216.6101566582238
 30
0.0
 11
5090.3137517570076
 21
9441.6101566582238
 31
0.0
 70
     0
 13
5025.1773450386308
 23
9666.610156658222
 33
0.0
 14
5025.1773450386308
 24
9216.6101566582238
 34
0.0
 50
90.0
  0
LINE
  5
B5BF
  8
FUTO
 10
4990.1773450386308
 20
9465.7877953220232
 30
0.0
 11
4990.1773450386308
 21
9246.6101566582183
 31
0.0
  0
LINE
  5
B5C0
  8
FUTO
 10
4960.1773450386318
 20
9465.3521064595607
 30
0.0
 11
4960.1773450386318
 21
9246.6101566582183
 31
0.0
  0
LINE
  5
B5C1
  8
FUTO
 10
4913.2801695565213
 20
9290.6633776767503
 30
0.0
 11
4907.4409664586792
 21
9261.4672621874961
 31
0.0
  0
LINE
  5
B5C2
  8
FUTO
 10
4787.0745205207431
 20
9290.6633776767485
 30
0.0
 11
4792.9137236185843
 21
9261.4672621874961
 31
0.0
  0
LINE
  5
B5C3
  8
CT
 10
4850.1773450386308
 20
9633.6015125305603
 30
0.0
 11
4850.1773450386308
 21
9233.4147295242383
 31
0.0
  0
LINE
  5
B5C4
  8
FUTO
 10
4960.1773450386308
 20
9282.610156658222
 30
0.0
 11
4911.6695308694561
 21
9282.610156658222
 31
0.0
  0
DIMENSION
  5
B5C5
  8
SP
  2
*D60
 10
4984.1736339387126
 20
8853.9633124934317
 30
0.0
 11
4917.1754894886726
 21
8878.9633124934298
 31
0.0
 70
     0
 13
4850.1773450386308
 23
8806.1001673739356
 33
0.0
 14
4984.1736339387126
 24
8648.7896328792958
 34
0.0
  0
LINE
  5
B5C6
  8
FUTO
 10
4884.989945038632
 20
8600.0450996802683
 30
0.0
 11
4913.9136450386331
 21
8600.0450996802683
 31
0.0
  0
LINE
  5
B5C7
  8
FUTO
 10
4884.1773450386318
 20
8597.745099680269
 30
0.0
 11
4914.1773450386308
 21
8597.745099680269
 31
0.0
  0
LINE
  5
B5C8
  8
FUTO
 10
4899.523245038632
 20
8614.6991996802681
 30
0.0
 11
4914.1773450386308
 21
8600.0450996802683
 31
0.0
  0
LINE
  5
B5C9
  8
FUTO
 10
4943.9533896068779
 20
8597.745099680269
 30
0.0
 11
4910.1773450386318
 21
8579.3450996802694
 31
0.0
  0
LINE
  5
B5CA
  8
FUTO
 10
4960.1773450386318
 20
8690.745099680269
 30
0.0
 11
4885.1773450386308
 21
8765.7450996802709
 31
0.0
  0
ARC
  5
B5CB
  8
FUTO
 10
4861.1773450386308
 20
8649.7450996802709
 30
0.0
 40
123.0
 50
359.55492060378288
 51
90.486477586266361
  0
ARC
  5
B5CC
  8
FUTO
 10
4850.1756802284044
 20
8657.0582528832965
 30
0.0
 40
64.186846818565911
 50
296.7068803249503
 51
243.24137540772219
  0
ARC
  5
B5CD
  8
FUTO
 10
4837.1773450386308
 20
8647.745099680269
 30
0.0
 40
159.0
 50
270.0
 51
312.78469491066022
  0
ARC
  5
B5CE
  8
FUTO
 10
4837.1773450386308
 20
8647.745099680269
 30
0.0
 40
147.0
 50
270.0
 51
317.28135548562869
  0
ARC
  5
B5CF
  8
FUTO
 10
4861.1773450386308
 20
8649.7450996802709
 30
0.0
 40
135.0
 50
359.55492060378288
 51
90.486477586266361
  0
LINE
  5
B5D0
  8
FUTO
 10
4821.1791450386318
 20
8599.745099680269
 30
0.0
 11
4879.0780450386319
 21
8599.745099680269
 31
0.0
  0
LINE
  5
B5D1
  8
FUTO
 10
4885.1773450386308
 20
8765.7450996802709
 30
0.0
 11
4815.1773450386308
 21
8765.7450996802709
 31
0.0
  0
LINE
  5
B5D2
  8
FUTO
 10
4790.1773450386327
 20
8579.3450996802676
 30
0.0
 11
4910.1773450386318
 21
8579.3450996802694
 31
0.0
  0
LINE
  5
B5D3
  8
CT
 10
4812.291685234487
 20
8569.2810259616526
 30
0.0
 11
4819.1799870170589
 21
8585.9108575468563
 31
0.0
  0
CIRCLE
  5
B5D4
  8
FUTO
 10
4815.7358361257739
 20
8577.5959417542545
 30
0.0
 40
4.0
  0
LINE
  5
B5D5
  8
FUTO
 10
4786.1773450386308
 20
8600.0450996802683
 30
0.0
 11
4815.0412450386311
 21
8600.0450996802683
 31
0.0
  0
LINE
  5
B5D6
  8
FUTO
 10
4816.1773450386318
 20
8597.745099680269
 30
0.0
 11
4786.1773450386308
 21
8597.745099680269
 31
0.0
  0
LINE
  5
B5D7
  8
FUTO
 10
4786.1773450386308
 20
8600.0450996802683
 30
0.0
 11
4786.1773450386308
 21
8597.745099680269
 31
0.0
  0
LINE
  5
B5D8
  8
FUTO
 10
4800.592445038631
 20
8614.4601996802703
 30
0.0
 11
4786.1773450386308
 21
8600.0450996802683
 31
0.0
  0
LINE
  5
B5D9
  8
FUTO
 10
4816.1773450386318
 20
8598.3012996802681
 30
0.0
 11
4816.1773450386318
 21
8597.745099680269
 31
0.0
  0
ARC
  5
B5DA
  8
FUTO
 10
4815.3299450386321
 20
8604.2448996802705
 30
0.0
 40
5.9997999999999987
 50
278.11689999996281
 51
319.28160000002993
  0
ARC
  5
B5DB
  8
FUTO
 10
4815.0411450386318
 20
8603.7451996802702
 30
0.0
 40
3.7000999999999991
 50
265.39090000000749
 51
321.17369999993792
  0
CIRCLE
  5
B5DC
  8
FUTO
 10
4815.7358361257739
 20
8743.8942576062873
 30
0.0
 40
4.0
  0
LINE
  5
B5DD
  8
CT
 10
4812.291685234487
 20
8752.2091733988855
 30
0.0
 11
4819.1799870170598
 21
8735.5793418136836
 31
0.0
  0
LINE
  5
B5DE
  8
FUTO
 10
4884.1773450386318
 20
8598.3209996802689
 30
0.0
 11
4884.1773450386318
 21
8597.745099680269
 31
0.0
  0
ARC
  5
B5DF
  8
FUTO
 10
4885.1980450386318
 20
8604.2449996802698
 30
0.0
 40
5.9999000000000002
 50
219.0535999999457
 51
260.37079999996371
  0
LINE
  5
B5E0
  8
CT
 10
4888.0630048427747
 20
8569.2810259616526
 30
0.0
 11
4881.1747030602028
 21
8585.9108575468563
 31
0.0
  0
CIRCLE
  5
B5E1
  8
FUTO
 10
4884.6188539514897
 20
8577.5959417542545
 30
0.0
 40
4.0
  0
ARC
  5
B5E2
  8
FUTO
 10
4885.2559450386316
 20
8603.3452996802698
 30
0.0
 40
3.3001999999999989
 50
213.98149999995471
 51
269.99869999997321
  0
CIRCLE
  5
B5E3
  8
FUTO
 10
4884.6188539514897
 20
8743.8942576062855
 30
0.0
 40
4.0
  0
LINE
  5
B5E4
  8
CT
 10
4888.0630048427774
 20
8752.2091733988855
 30
0.0
 11
4881.1747030602046
 21
8735.5793418136836
 31
0.0
  0
LINE
  5
B5E5
  8
FUTO
 10
4793.8943044234511
 20
9260.6633776767467
 30
0.0
 11
4906.4603856538124
 21
9260.6633776767467
 31
0.0
  0
ARC
  5
B5E6
  8
FUTO
 10
4793.8943044234511
 20
9261.6633776767485
 30
0.0
 40
1.0
 50
191.3098947347236
 51
270.0
  0
ARC
  5
B5E7
  8
FUTO
 10
4906.4603856538124
 20
9261.6633776767485
 30
0.0
 40
1.0
 50
270.0
 51
348.69010526527632
  0
ARC
  5
B5E8
  8
FUTO
 10
4837.1773450386308
 20
8647.745099680269
 30
0.0
 40
159.0
 50
312.78469491066022
 51
0.4071282142816717
  0
ARC
  5
B5E9
  8
FUTO
 10
4837.1773450386308
 20
8647.745099680269
 30
0.0
 40
147.0
 50
317.28135548562869
 51
0.4071282142816717
  0
LINE
  5
B5EA
  8
FUTO
 10
4960.1773450386318
 20
8463.3450996802694
 30
0.0
 11
4960.1773450386318
 21
8690.745099680269
 31
0.0
  0
LINE
  5
B5EB
  8
FUTO
 10
4958.5773450386314
 20
8463.9450996802698
 30
0.0
 11
4958.5773450386314
 21
8692.3450996802694
 31
0.0
  0
LINE
  5
B5EC
  8
FUTO
 10
4955.3773450386307
 20
8596.1450996802705
 30
0.0
 11
4941.0163422531159
 21
8596.1450996802687
 31
0.0
  0
CIRCLE
  5
B5ED
  8
FUTO
 10
4933.3265029646482
 20
8626.3035907674112
 30
0.0
 40
4.0
  0
LINE
  5
B5EE
  8
CT
 10
4941.6414187572491
 20
8622.8594398761252
 30
0.0
 11
4925.0115871720473
 21
8629.7477416586971
 31
0.0
  0
LINE
  5
B5EF
  8
FUTO
 10
4914.1773450386308
 20
8600.0450996802683
 30
0.0
 11
4914.1773450386308
 21
8597.745099680269
 31
0.0
  0
ARC
  5
B5F0
  8
FUTO
 10
4955.3773450386307
 20
8594.5450996802683
 30
0.0
 40
1.6000000000000001
 50
0.0
 51
90.0
  0
ARC
  5
B5F1
  8
FUTO
 10
4955.3773450386307
 20
8594.5450996802683
 30
0.0
 40
3.2000000000000002
 50
0.0
 51
90.0
  0
LINE
  5
B5F2
  8
CT
 10
4968.4857869572243
 20
8525.9450996802698
 30
0.0
 11
4949.0115853466641
 21
8525.9450996802698
 31
0.0
  0
LINE
  5
B5F3
  8
CT
 10
4968.4857869572243
 20
8580.9450996802698
 30
0.0
 11
4949.0115853466641
 21
8580.9450996802698
 31
0.0
  0
LINE
  5
B5F4
  8
FUTO
 10
4958.5773450386314
 20
8510.945099680268
 30
0.0
 11
4956.9773450386319
 21
8510.945099680268
 31
0.0
  0
LINE
  5
B5F5
  8
FUTO
 10
4956.9773450386319
 20
8510.945099680268
 30
0.0
 11
4956.9773450386319
 21
8594.5450996802683
 31
0.0
  0
LINE
  5
B5F6
  8
FUTO
 10
4958.5773450386314
 20
8510.945099680268
 30
0.0
 11
4958.5773450386314
 21
8594.5450996802683
 31
0.0
  0
LINE
  5
B5F7
  8
CT
 10
4941.6414187572491
 20
8698.6307594844147
 30
0.0
 11
4925.0115871720473
 21
8691.7424577018392
 31
0.0
  0
CIRCLE
  5
B5F8
  8
FUTO
 10
4933.3265029646473
 20
8695.1866085931288
 30
0.0
 40
4.0
  0
LINE
  5
B5F9
  8
CT
 10
4995.1773450386318
 20
9229.6101566582238
 30
0.0
 11
5015.1773450386299
 21
9229.6101566582238
 31
0.0
  0
LINE
  5
B5FA
  8
CT
 10
5005.1773450386318
 20
9239.6101566582201
 30
0.0
 11
5005.1773450386318
 21
9219.6101566582201
 31
0.0
  0
CIRCLE
  5
B5FB
  8
FUTO
 10
5005.1773450386318
 20
9229.6101566582238
 30
0.0
 40
6.5
  0
LINE
  5
B5FC
  8
FUTO
 10
5025.1773450386308
 20
9246.610156658222
 30
0.0
 11
5025.1773450386308
 21
9216.6101566582238
 31
0.0
  0
LINE
  5
B5FD
  8
FUTO
 10
4783.6773450386318
 20
9290.6633776767485
 30
0.0
 11
4916.6773450386318
 21
9290.6633776767485
 31
0.0
  0
LINE
  5
B5FE
  8
FUTO
 10
4917.6773450386318
 20
9312.6633776767503
 30
0.0
 11
4782.6773450386308
 21
9312.6633776767485
 31
0.0
  0
LINE
  5
B5FF
  8
FUTO
 10
4841.1242450386308
 20
9442.149270452006
 30
0.0
 11
4859.230545038632
 21
9442.149270452006
 31
0.0
  0
LINE
  5
B600
  8
FUTO
 10
4886.3862450386314
 20
9439.149270452006
 30
0.0
 11
4813.9143450386318
 21
9439.149270452006
 31
0.0
  0
LINE
  5
B601
  8
FUTO
 10
4906.7773450386321
 20
9435.4492704520053
 30
0.0
 11
4793.5773450386314
 21
9435.4492704520053
 31
0.0
  0
LINE
  5
B602
  8
FUTO
 10
4906.7773450386321
 20
9433.1492704520042
 30
0.0
 11
4793.5773450386314
 21
9433.1492704520042
 31
0.0
  0
ARC
  5
B603
  8
FUTO
 10
4813.9143450386318
 20
9432.8490704520063
 30
0.0
 40
6.3002000000000002
 50
89.999399999991695
 51
103.3420000000347
  0
ARC
  5
B604
  8
FUTO
 10
4797.4603450386321
 20
9436.4504704520059
 30
0.0
 40
1.0012000000000001
 50
270.00349999998957
 51
283.32969999997812
  0
LINE
  5
B605
  8
FUTO
 10
4793.5773450386314
 20
9435.4930704520066
 30
0.0
 11
4793.5773450386314
 21
9424.0725704520064
 31
0.0
  0
LINE
  5
B606
  8
FUTO
 10
4812.4604450386314
 20
9438.9792704520078
 30
0.0
 11
4797.6911450386324
 21
9435.4762704520053
 31
0.0
  0
ARC
  5
B607
  8
FUTO
 10
4783.6773450386318
 20
9291.6633776767485
 30
0.0
 40
1.0
 50
180.0
 51
270.0
  0
LINE
  5
B608
  8
FUTO
 10
4782.6773450386308
 20
9312.6633776767485
 30
0.0
 11
4782.6773450386308
 21
9291.6633776767485
 31
0.0
  0
LINE
  5
B609
  8
FUTO
 10
4793.5773450386314
 20
9435.4492704520053
 30
0.0
 11
4793.5773450386323
 21
9312.6633776767485
 31
0.0
  0
LINE
  5
B60A
  8
FUTO
 10
4842.6773450386299
 20
9456.4101566582194
 30
0.0
 11
4842.6773450386318
 21
9442.149270452006
 31
0.0
  0
ARC
  5
B60B
  8
FUTO
 10
4841.1243450386319
 20
9437.4489704520056
 30
0.0
 40
4.7003000000000004
 50
90.001499999994792
 51
134.9984000000043
  0
LINE
  5
B60C
  8
FUTO
 10
4837.8007450386312
 20
9440.7726704520064
 30
0.0
 11
4836.470245038633
 21
9439.4421704520064
 31
0.0
  0
ARC
  5
B60D
  8
FUTO
 10
4835.7632450386318
 20
9440.1489704520045
 30
0.0
 40
0.9996999999999999
 50
269.99649999995819
 51
315.00990000001889
  0
LINE
  5
B60E
  8
FUTO
 10
4857.677345038629
 20
9456.4101566582194
 30
0.0
 11
4857.6773450386318
 21
9442.149270452006
 31
0.0
  0
ARC
  5
B60F
  8
FUTO
 10
4859.230545038632
 20
9437.4490704520067
 30
0.0
 40
4.7001999999999988
 50
45.001599999995662
 51
90.0
  0
ARC
  5
B610
  8
FUTO
 10
4864.5914450386317
 20
9440.1489704520045
 30
0.0
 40
0.9996999999999999
 50
224.99009999998111
 51
270.00349999998957
  0
LINE
  5
B611
  8
FUTO
 10
4862.5539450386314
 20
9440.7726704520064
 30
0.0
 11
4863.8844450386323
 21
9439.4421704520064
 31
0.0
  0
ARC
  5
B612
  8
FUTO
 10
4901.8023450386318
 20
9436.4441704520068
 30
0.0
 40
0.9948999999999999
 50
255.64230000004261
 51
270.03159999998809
  0
LINE
  5
B613
  8
FUTO
 10
4906.7773450386321
 20
9435.4492704520053
 30
0.0
 11
4906.7773450386312
 21
9312.6633776767503
 31
0.0
  0
ARC
  5
B614
  8
FUTO
 10
4886.386545038632
 20
9432.851670452008
 30
0.0
 40
6.2976000000000001
 50
75.681900000022239
 51
90.002199999961405
  0
LINE
  5
B615
  8
FUTO
 10
4887.9439450386317
 20
9438.9536704520051
 30
0.0
 11
4901.5556450386321
 21
9435.4803704520054
 31
0.0
  0
LINE
  5
B616
  8
FUTO
 10
4990.1773450386308
 20
9458.610156658222
 30
0.0
 11
4960.1773450386318
 21
9458.610156658222
 31
0.0
  0
LINE
  5
B617
  8
FUTO
 10
4960.1773450386318
 20
9288.610156658222
 30
0.0
 11
4990.1773450386308
 21
9288.610156658222
 31
0.0
  0
LINE
  5
B618
  8
CT
 10
4940.1773450386308
 20
9451.4264833612197
 30
0.0
 11
4940.1773450386308
 21
9462.39950388121
 31
0.0
  0
LINE
  5
B619
  8
FUTO
 10
4917.6773450386318
 20
9312.6633776767485
 30
0.0
 11
4917.6773450386318
 21
9291.6633776767485
 31
0.0
  0
ARC
  5
B61A
  8
FUTO
 10
4916.6773450386318
 20
9291.6633776767485
 30
0.0
 40
1.0
 50
270.0
 51
0.0
  0
LINE
  5
B61B
  8
FUTO
 10
4950.1773450386318
 20
9460.0101566582216
 30
0.0
 11
4950.1773450386318
 21
9465.0101566582216
 31
0.0
  0
ARC
  5
B61C
  8
FUTO
 10
4948.1773450386318
 20
9460.0101566582216
 30
0.0
 40
2.0
 50
270.0
 51
0.0
  0
LINE
  5
B61D
  8
FUTO
 10
4960.1773450386318
 20
9636.6101566582201
 30
0.0
 11
4960.1773450386318
 21
9577.3521064595589
 31
0.0
  0
LINE
  5
B61E
  8
FUTO
 10
4960.1773450386327
 20
9577.9521064595629
 30
0.0
 11
4960.1773450386327
 21
9636.6101566582201
 31
0.0
  0
LINE
  5
B61F
  8
FUTO
 10
4995.5732718801837
 20
9473.3521064595589
 30
0.0
 11
4995.5732718801837
 21
9569.8682068568814
 31
0.0
  0
LINE
  5
B620
  8
FUTO
 10
4996.1732718801841
 20
9473.3521064595589
 30
0.0
 11
4996.1732718801841
 21
9569.8682068568814
 31
0.0
  0
ARC
  5
B621
  8
FUTO
 10
4987.5732718801864
 20
9473.3521064595589
 30
0.0
 40
8.5999999999999996
 50
270.0
 51
0.0
  0
ARC
  5
B622
  8
FUTO
 10
4987.5732718801864
 20
9473.3521064595589
 30
0.0
 40
8.0
 50
270.0
 51
0.0
  0
LINE
  5
B623
  8
CT
 10
5015.1773450386308
 20
9653.610156658222
 30
0.0
 11
4995.1773450386327
 21
9653.610156658222
 31
0.0
  0
LINE
  5
B624
  8
FUTO
 10
4990.1773450386308
 20
9636.6101566582201
 30
0.0
 11
4990.1773450386308
 21
9577.3521064595589
 31
0.0
  0
LINE
  5
B625
  8
CT
 10
5005.1773450386318
 20
9663.610156658222
 30
0.0
 11
5005.1773450386318
 21
9643.6101566582238
 31
0.0
  0
CIRCLE
  5
B626
  8
FUTO
 10
5005.1773450386318
 20
9653.610156658222
 30
0.0
 40
6.5
  0
ARC
  5
B627
  8
FUTO
 10
4987.5732718801864
 20
9569.8682068568814
 30
0.0
 40
8.5999999999999996
 50
0.0
 51
70.049595990150678
  0
ARC
  5
B628
  8
FUTO
 10
4987.5732718801864
 20
9569.8682068568814
 30
0.0
 40
8.0
 50
0.0
 51
69.307039139876423
  0
LINE
  5
B629
  8
FUTO
 10
5025.1773450386308
 20
9666.610156658222
 30
0.0
 11
5025.1773450386308
 21
9636.6101566582201
 31
0.0
  0
LINE
  5
B62A
  8
FUTO
 10
5563.2183995695323
 20
8784.7450996802709
 30
0.0
 11
5656.4183995695303
 21
8784.7450996802709
 31
0.0
  0
LINE
  5
B62B
  8
FUTO
 10
5563.2183995695323
 20
8784.1450996802687
 30
0.0
 11
5656.4183995695303
 21
8784.1450996802687
 31
0.0
  0
DIMENSION
  5
B62C
  8
SP
  2
*D42
 10
5672.8183995695317
 20
8924.1450996802687
 30
0.0
 11
5759.1206034722181
 21
8949.1450996802687
 31
0.0
 70
     0
 13
5609.8183995695308
 23
8900.745099680269
 33
0.0
 14
5672.8183995695317
 24
8758.7450996802672
 34
0.0
  0
LINE
  5
B62D
  8
FUTO
 10
5561.8183995695308
 20
8525.745099680269
 30
0.0
 11
5658.3344999668552
 21
8525.745099680269
 31
0.0
  0
LINE
  5
B62E
  8
FUTO
 10
5561.8183995695308
 20
8525.1450996802705
 30
0.0
 11
5658.3344999668552
 21
8525.1450996802705
 31
0.0
  0
LINE
  5
B62F
  8
FUTO
 10
5562.8183995695317
 20
8499.7450996802709
 30
0.0
 11
5656.8183995695317
 21
8499.7450996802709
 31
0.0
  0
LINE
  5
B630
  8
FUTO
 10
5666.8183995695317
 20
8478.745099680269
 30
0.0
 11
5552.8183995695308
 21
8478.745099680269
 31
0.0
  0
DIMENSION
  5
B631
  8
SP
  2
*D43
 10
5348.8716205880592
 20
8924.1450996802687
 30
0.0
 11
5479.345010078795
 21
8949.1450996802687
 31
0.0
 70
     0
  1
（330）
 13
5609.8183995695308
 23
8900.745099680269
 33
0.0
 14
5348.8716205880592
 24
8717.3093996802691
 34
0.0
  0
DIMENSION
  5
B632
  8
SP
  2
*D44
 10
5665.8183995695308
 20
8854.1450996802705
 30
0.0
 11
5609.8183995695299
 21
8879.1450996802705
 31
0.0
 70
     0
 13
5553.8183995695317
 23
8774.7450996802709
 33
0.0
 14
5665.8183995695308
 24
8774.7450996802709
 34
0.0
  0
LINE
  5
B633
  8
FUTO
 10
5434.8968205880583
 20
8600.5450996802665
 30
0.0
 11
5465.408143159274
 21
8600.5450996802665
 31
0.0
  0
LINE
  5
B634
  8
FUTO
 10
5471.6209205880577
 20
8620.6051996802671
 30
0.0
 11
5444.1223205880588
 21
8620.6051996802671
 31
0.0
  0
LINE
  5
B635
  8
FUTO
 10
5519.1716205880566
 20
8717.8450996802694
 30
0.0
 11
5400.8716205880582
 21
8717.8450996802694
 31
0.0
  0
LINE
  5
B636
  8
FUTO
 10
5374.0183995695324
 20
8597.745099680269
 30
0.0
 11
5463.6132713644029
 21
8597.745099680269
 31
0.0
  0
LINE
  5
B637
  8
FUTO
 10
5374.0183995695324
 20
8596.1450996802687
 30
0.0
 11
5462.5876303387604
 21
8596.1450996802669
 31
0.0
  0
LINE
  5
B638
  8
FUTO
 10
5378.8716205880582
 20
8601.245099680269
 30
0.0
 11
5349.8051205880593
 21
8603.1828996802687
 31
0.0
  0
LINE
  5
B639
  8
FUTO
 10
5378.8716205880582
 20
8720.245099680269
 30
0.0
 11
5349.8051205880593
 21
8718.3072996802694
 31
0.0
  0
LINE
  5
B63A
  8
FUTO
 10
5348.8716205880592
 20
8717.3093996802691
 30
0.0
 11
5348.8716205880592
 21
8604.1806996802698
 31
0.0
  0
ARC
  5
B63B
  8
FUTO
 10
5349.8717205880566
 20
8604.180799680269
 30
0.0
 40
1.0000999999999991
 50
180.0069999999923
 51
266.17899999999992
  0
LINE
  5
B63C
  8
FUTO
 10
5372.4183995695312
 20
8579.3450996802694
 30
0.0
 11
5372.4183995695312
 21
8594.5450996802683
 31
0.0
  0
LINE
  5
B63D
  8
FUTO
 10
5370.8183995695317
 20
8579.3450996802694
 30
0.0
 11
5370.8183995695317
 21
8594.5450996802683
 31
0.0
  0
LINE
  5
B63E
  8
FUTO
 10
5370.8183995695317
 20
8579.3450996802694
 30
0.0
 11
5372.4183995695312
 21
8579.3450996802694
 31
0.0
  0
ARC
  5
B63F
  8
FUTO
 10
5374.0183995695324
 20
8594.5450996802683
 30
0.0
 40
3.2000000000000002
 50
90.0
 51
180.0
  0
ARC
  5
B640
  8
FUTO
 10
5374.0183995695324
 20
8594.5450996802683
 30
0.0
 40
1.6000000000000001
 50
90.0
 51
180.0
  0
ARC
  5
B641
  8
FUTO
 10
5349.8717205880566
 20
8717.3093996802691
 30
0.0
 40
1.0000999999999991
 50
93.821000000000112
 51
180.00165729919101
  0
LINE
  5
B642
  8
FUTO
 10
5378.8716205880582
 20
8720.245099680269
 30
0.0
 11
5378.8716205880582
 21
8601.245099680269
 31
0.0
  0
LINE
  5
B643
  8
FUTO
 10
5400.8716205880582
 20
8600.2450996802709
 30
0.0
 11
5400.8716205880582
 21
8721.245099680269
 31
0.0
  0
ARC
  5
B644
  8
FUTO
 10
5415.8716205880582
 20
8603.5397996802694
 30
0.0
 40
8.0
 50
90.0
 51
180.0
  0
LINE
  5
B645
  8
FUTO
 10
5407.8716205880582
 20
8600.5450996802665
 30
0.0
 11
5430.527520588058
 21
8600.5450996802665
 31
0.0
  0
LINE
  5
B646
  8
FUTO
 10
5407.8716205880582
 20
8598.245099680269
 30
0.0
 11
5430.5277205880593
 21
8598.245099680269
 31
0.0
  0
LINE
  5
B647
  8
FUTO
 10
5417.6196858275698
 20
8525.9951062428099
 30
0.0
 11
5379.4044390232493
 21
8596.1450996802687
 31
0.0
  0
LINE
  5
B648
  8
FUTO
 10
5400.8716205880582
 20
8600.2450996802709
 30
0.0
 11
5379.8716205880582
 21
8600.2450996802709
 31
0.0
  0
ARC
  5
B649
  8
FUTO
 10
5379.8717205880585
 20
8601.245099680269
 30
0.0
 40
1.0000999999999991
 50
180.0
 51
269.99649999995819
  0
LINE
  5
B64A
  8
FUTO
 10
5407.8716205880582
 20
8604.6450996802687
 30
0.0
 11
5400.8716205880582
 21
8604.6450996802687
 31
0.0
  0
LINE
  5
B64B
  8
FUTO
 10
5407.8716205880582
 20
8598.245099680269
 30
0.0
 11
5407.8716205880582
 21
8603.5397996802694
 31
0.0
  0
LINE
  5
B64C
  8
FUTO
 10
5429.7032205880569
 20
8611.5397996802694
 30
0.0
 11
5415.8716205880582
 21
8611.5397996802694
 31
0.0
  0
LINE
  5
B64D
  8
CT
 10
5417.8716205880592
 20
8606.4765496802684
 30
0.0
 11
5417.8716205880592
 21
8594.6136496802665
 31
0.0
  0
ARC
  5
B64E
  8
FUTO
 10
5430.5277205880593
 20
8603.5449996802708
 30
0.0
 40
5.2999000000000001
 50
269.99930000003371
 51
326.34980000003259
  0
ARC
  5
B64F
  8
FUTO
 10
5430.527520588058
 20
8603.5450996802683
 30
0.0
 40
3.0
 50
270.0
 51
346.00480000007838
  0
LINE
  5
B650
  8
FUTO
 10
5436.359820588058
 20
8614.5399996802698
 30
0.0
 11
5433.4385205880581
 21
8602.8195996802679
 31
0.0
  0
ARC
  5
B651
  8
FUTO
 10
5429.7032205880569
 20
8619.5397996802694
 30
0.0
 40
8.0
 50
270.0
 51
334.31589999996578
  0
ARC
  5
B652
  8
FUTO
 10
5444.1223205880588
 20
8612.6052996802682
 30
0.0
 40
7.9999000000000002
 50
90.0
 51
166.00459999998009
  0
ARC
  5
B653
  8
FUTO
 10
5379.8717205880585
 20
8720.245099680269
 30
0.0
 40
1.0000999999999991
 50
90.003499999989657
 51
180.0
  0
LINE
  5
B654
  8
FUTO
 10
5400.8716205880582
 20
8721.245099680269
 30
0.0
 11
5379.8716205880582
 21
8721.245099680269
 31
0.0
  0
LINE
  5
B655
  8
FUTO
 10
5486.8183995695317
 20
8633.9450996802698
 30
0.0
 11
5545.2183995695314
 21
8692.3450996802676
 31
0.0
  0
LINE
  5
B656
  8
CT
 10
5457.8183995695317
 20
8593.5404864718439
 30
0.0
 11
5457.8183995695317
 21
8727.949712888696
 31
0.0
  0
ARC
  5
B657
  8
FUTO
 10
5471.6208205880585
 20
8612.6051996802689
 30
0.0
 40
8.0000999999999998
 50
48.146064575317872
 51
89.999599999959742
  0
LINE
  5
B658
  8
FUTO
 10
5519.1716205880566
 20
8717.8450996802694
 30
0.0
 11
5519.1716205880603
 21
8666.2983206987956
 31
0.0
  0
LINE
  5
B659
  8
FUTO
 10
5516.8716205880592
 20
8717.8450996802694
 30
0.0
 11
5516.8716205880592
 21
8663.9983206987963
 31
0.0
  0
LINE
  5
B65A
  8
FUTO
 10
5553.2183995695314
 20
8660.745099680269
 30
0.0
 11
5553.2183995695304
 21
8774.7450996802709
 31
0.0
  0
LINE
  5
B65B
  8
FUTO
 10
5553.8183995695299
 20
8533.745099680269
 30
0.0
 11
5553.8183995695317
 21
8774.7450996802709
 31
0.0
  0
LINE
  5
B65C
  8
FUTO
 10
5553.2183995695314
 20
8533.745099680269
 30
0.0
 11
5553.2183995695314
 21
8774.7450996802709
 31
0.0
  0
LINE
  5
B65D
  8
CT
 10
5557.5450627825066
 20
8570.745099680269
 30
0.0
 11
5543.0396755748234
 21
8570.745099680269
 31
0.0
  0
LINE
  5
B65E
  8
FUTO
 10
5553.2183995695314
 20
8560.7450996802709
 30
0.0
 11
5548.30229917221
 21
8560.7450996802709
 31
0.0
  0
ARC
  5
B65F
  8
FUTO
 10
5548.30229917221
 20
8562.7450996802672
 30
0.0
 40
2.0
 50
222.10222534312629
 51
270.0
  0
LINE
  5
B660
  8
FUTO
 10
5546.8183995695317
 20
8640.3576051103282
 30
0.0
 11
5546.8183995695317
 21
8561.4041888073261
 31
0.0
  0
ARC
  5
B661
  8
FUTO
 10
5552.8183995695308
 20
8498.7450996802672
 30
0.0
 40
20.0
 50
252.5423968762791
 51
270.0
  0
LINE
  5
B662
  8
FUTO
 10
5552.8183995695308
 20
8509.745099680269
 30
0.0
 11
5552.8183995695308
 21
8560.7450996802709
 31
0.0
  0
ARC
  5
B663
  8
FUTO
 10
5561.8183995695308
 20
8533.745099680269
 30
0.0
 40
8.0
 50
180.0
 51
270.0
  0
ARC
  5
B664
  8
FUTO
 10
5561.8183995695308
 20
8533.745099680269
 30
0.0
 40
8.5999999999999996
 50
180.0
 51
270.0
  0
ARC
  5
B665
  8
FUTO
 10
5562.8183995695317
 20
8509.745099680269
 30
0.0
 40
10.0
 50
180.0
 51
270.0
  0
LINE
  5
B666
  8
CT
 10
5557.5450627825066
 20
8750.745099680269
 30
0.0
 11
5543.0396755748234
 21
8750.745099680269
 31
0.0
  0
LINE
  5
B667
  8
FUTO
 10
5522.8716205880582
 20
8697.4539996802687
 30
0.0
 11
5522.8716205880582
 21
8669.9983206987963
 31
0.0
  0
ARC
  5
B668
  8
FUTO
 10
5523.8713205880576
 20
8675.6591996802708
 30
0.0
 40
0.9996999999999999
 50
179.99649999995819
 51
225.00990000005569
  0
LINE
  5
B669
  8
FUTO
 10
5524.4950205880587
 20
8673.6216996802686
 30
0.0
 11
5523.1645205880586
 21
8674.9521996802687
 31
0.0
  0
ARC
  5
B66A
  8
FUTO
 10
5521.1714205880589
 20
8670.2982996802675
 30
0.0
 40
4.7001999999999988
 50
27.48769440413944
 51
44.998399999930633
  0
ARC
  5
B66B
  8
FUTO
 10
5516.5740205880584
 20
8697.4542996802702
 30
0.0
 40
6.2976000000000001
 50
359.9977999999864
 51
14.31809999999064
  0
ARC
  5
B66C
  8
FUTO
 10
5520.166520588059
 20
8712.870099680269
 30
0.0
 40
0.9948999999999999
 50
179.9684000000118
 51
194.35770000002071
  0
LINE
  5
B66D
  8
FUTO
 10
5522.6760205880591
 20
8699.0116996802662
 30
0.0
 11
5519.2027205880577
 21
8712.6233996802694
 31
0.0
  0
LINE
  5
B66E
  8
FUTO
 10
5553.2183995695314
 20
8760.745099680269
 30
0.0
 11
5548.8183995695308
 21
8760.745099680269
 31
0.0
  0
POINT
  5
B66F
  8
FUTO
 10
5546.8183995695317
 20
8758.7450996802672
 30
0.0
  0
POINT
  5
B670
  8
FUTO
 10
5546.8183995695317
 20
8758.7450996802672
 30
0.0
  0
ARC
  5
B671
  8
FUTO
 10
5548.8183995695308
 20
8758.7450996802672
 30
0.0
 40
2.0
 50
90.0
 51
180.0
  0
LINE
  5
B672
  8
FUTO
 10
5545.2183995695314
 20
8765.7450996802709
 30
0.0
 11
5546.8183995695317
 21
8765.7450996802709
 31
0.0
  0
POINT
  5
B673
  8
DEFPOINTS
 10
5552.8183995695308
 20
8682.745099680269
 30
0.0
  0
ARC
  5
B674
  8
FUTO
 10
5563.2183995695323
 20
8774.7450996802709
 30
0.0
 40
10.0
 50
90.0
 51
180.0
  0
ARC
  5
B675
  8
FUTO
 10
5563.2183995695323
 20
8774.7450996802709
 30
0.0
 40
9.4000000000000004
 50
90.0
 51
180.0
  0
DIMENSION
  5
B676
  8
SP
  2
*D45
 10
5755.9296941831226
 20
8580.745099680269
 30
0.0
 11
5730.9296941831226
 21
8660.7450996802709
 31
0.0
 70
     0
 13
5672.8183995695317
 23
8740.745099680269
 33
0.0
 14
5672.8183995695308
 24
8580.745099680269
 34
0.0
 50
90.0
1001
ACAD
1000
DSTYLE
1002
{
1070
     3
1000
φ<>
1002
}
  0
ARC
  5
B677
  8
FUTO
 10
5609.8183995695308
 20
8515.9450996802716
 30
0.0
 40
1.1999999999999991
 50
180.0
 51
0.0
  0
LINE
  5
B678
  8
FUTO
 10
5608.618399569531
 20
8522.745099680269
 30
0.0
 11
5608.618399569531
 21
8515.9450996802716
 31
0.0
  0
ARC
  5
B679
  8
FUTO
 10
5605.618399569531
 20
8522.745099680269
 30
0.0
 40
3.0
 50
0.0
 51
53.130102354218522
  0
LINE
  5
B67A
  8
FUTO
 10
5611.0183995695324
 20
8522.745099680269
 30
0.0
 11
5611.0183995695324
 21
8515.9450996802716
 31
0.0
  0
ARC
  5
B67B
  8
FUTO
 10
5614.0183995695324
 20
8522.745099680269
 30
0.0
 40
3.0
 50
126.86989764578141
 51
180.0
  0
ARC
  5
B67C
  8
FUTO
 10
5666.8183995695317
 20
8662.7450996802709
 30
0.0
 40
20.0
 50
0.0
 51
72.54239687627917
  0
LINE
  5
B67D
  8
FUTO
 10
5672.8183995695317
 20
8758.7450996802672
 30
0.0
 11
5672.8183995695317
 21
8640.3576051103282
 31
0.0
  0
LINE
  5
B67E
  8
FUTO
 10
5666.4183995695303
 20
8530.8107228786612
 30
0.0
 11
5666.4183995695303
 21
8774.7450996802709
 31
0.0
  0
LINE
  5
B67F
  8
FUTO
 10
5665.8183995695308
 20
8530.9182203519194
 30
0.0
 11
5665.8183995695308
 21
8774.7450996802709
 31
0.0
  0
LINE
  5
B680
  8
CT
 10
5662.0917363565559
 20
8570.745099680269
 30
0.0
 11
5676.5971235642382
 21
8570.745099680269
 31
0.0
  0
ARC
  5
B681
  8
FUTO
 10
5666.8183995695317
 20
8498.7450996802672
 30
0.0
 40
20.0
 50
270.0
 51
0.0
  0
LINE
  5
B682
  8
FUTO
 10
5665.8183995695308
 20
8580.745099680269
 30
0.0
 11
5666.4183995695303
 21
8580.745099680269
 31
0.0
  0
LINE
  5
B683
  8
FUTO
 10
5665.8183995695308
 20
8580.745099680269
 30
0.0
 11
5666.4183995695303
 21
8580.745099680269
 31
0.0
  0
LINE
  5
B684
  8
FUTO
 10
5666.418399569533
 20
8580.745099680269
 30
0.0
 11
5672.8183995695317
 21
8580.745099680269
 31
0.0
  0
ARC
  5
B685
  8
FUTO
 10
5671.3344999668543
 20
8562.7450996802672
 30
0.0
 40
2.0
 50
270.0
 51
317.89777465687348
  0
LINE
  5
B686
  8
FUTO
 10
5666.4183995695303
 20
8560.7450996802709
 30
0.0
 11
5671.3344999668543
 21
8560.7450996802709
 31
0.0
  0
LINE
  5
B687
  8
CT
 10
5665.8183995695308
 20
8580.745099680269
 30
0.0
 11
5666.4183995695303
 21
8580.745099680269
 31
0.0
  0
LINE
  5
B688
  8
CT
 10
5665.8183995695308
 20
8580.745099680269
 30
0.0
 11
5666.4183995695303
 21
8580.745099680269
 31
0.0
  0
LINE
  5
B689
  8
FUTO
 10
5672.8183995695317
 20
8640.3576051103282
 30
0.0
 11
5672.8183995695308
 21
8561.4041888073261
 31
0.0
  0
ARC
  5
B68A
  8
FUTO
 10
5658.3344999668552
 20
8533.745099680269
 30
0.0
 40
8.0
 50
270.0
 51
339.30703913985798
  0
ARC
  5
B68B
  8
FUTO
 10
5658.3344999668552
 20
8533.745099680269
 30
0.0
 40
8.5999999999999996
 50
270.0
 51
340.04959599016848
  0
ARC
  5
B68C
  8
FUTO
 10
5656.8183995695317
 20
8509.745099680269
 30
0.0
 40
10.0
 50
270.0
 51
0.0
  0
LINE
  5
B68D
  8
FUTO
 10
5666.8183995695317
 20
8509.745099680269
 30
0.0
 11
5666.8183995695317
 21
8560.7450996802709
 31
0.0
  0
LINE
  5
B68E
  8
FUTO
 10
5686.8183995695308
 20
8498.7450996802672
 30
0.0
 11
5686.8183995695308
 21
8662.7450996802709
 31
0.0
  0
LINE
  5
B68F
  8
CT
 10
5662.0917363565559
 20
8750.745099680269
 30
0.0
 11
5676.5971235642382
 21
8750.745099680269
 31
0.0
  0
LINE
  5
B690
  8
FUTO
 10
5665.8183995695308
 20
8740.745099680269
 30
0.0
 11
5666.4183995695303
 21
8740.745099680269
 31
0.0
  0
LINE
  5
B691
  8
FUTO
 10
5666.418399569533
 20
8740.745099680269
 30
0.0
 11
5672.8183995695317
 21
8740.745099680269
 31
0.0
  0
LINE
  5
B692
  8
FUTO
 10
5665.8183995695308
 20
8740.745099680269
 30
0.0
 11
5666.4183995695303
 21
8740.745099680269
 31
0.0
  0
LINE
  5
B693
  8
FUTO
 10
5665.8183995695308
 20
8740.745099680269
 30
0.0
 11
5666.4183995695303
 21
8740.745099680269
 31
0.0
  0
POINT
  5
B694
  8
FUTO
 10
5672.8183995695317
 20
8758.7450996802672
 30
0.0
  0
POINT
  5
B695
  8
FUTO
 10
5672.8183995695317
 20
8758.7450996802672
 30
0.0
  0
ARC
  5
B696
  8
FUTO
 10
5670.8183995695317
 20
8758.7450996802672
 30
0.0
 40
2.0
 50
0.0
 51
90.0
  0
LINE
  5
B697
  8
FUTO
 10
5666.4183995695303
 20
8760.745099680269
 30
0.0
 11
5670.8183995695317
 21
8760.745099680269
 31
0.0
  0
LINE
  5
B698
  8
CT
 10
5665.8183995695308
 20
8740.745099680269
 30
0.0
 11
5666.4183995695303
 21
8740.745099680269
 31
0.0
  0
ARC
  5
B699
  8
FUTO
 10
5656.4183995695303
 20
8774.7450996802709
 30
0.0
 40
10.0
 50
0.0
 51
90.0
  0
ARC
  5
B69A
  8
FUTO
 10
5656.4183995695303
 20
8774.7450996802709
 30
0.0
 40
9.4000000000000004
 50
0.0
 51
90.0
  0
ENDSEC
  0
EOF
