  0
SECTION
  2
HEADER
  9
$ACADVER
  1
AC1009
  9
$INSBASE
 10
0.0
 20
0.0
 30
0.0
  9
$EXTMIN
 10
-7823.9218047510694
 20
7555.2190595897273
 30
0.0
  9
$EXTMAX
 10
-5723.9218047510703
 20
10505.219059589719
 30
0.0
  9
$LIMMIN
 10
0.0
 20
0.0
  9
$LIMMAX
 10
297.0
 20
210.0
  9
$ORTHOMODE
 70
     0
  9
$REGENMODE
 70
     1
  9
$FILLMODE
 70
     1
  9
$QTEXTMODE
 70
     0
  9
$MIRRTEXT
 70
     0
  9
$DRAGMODE
 70
     2
  9
$LTSCALE
 40
25.0
  9
$OSMODE
 70
   545
  9
$ATTMODE
 70
     1
  9
$TEXTSIZE
 40
3.5
  9
$TRACEWID
 40
0.05
  9
$TEXTSTYLE
  7
STANDARD
  9
$CLAYER
  8
SP
  9
$CELTYPE
  6
BYLAYER
  9
$CECOLOR
 62
   256
  9
$DIMSCALE
 40
10.0
  9
$DIMASZ
 40
2.5
  9
$DIMEXO
 40
1.0
  9
$DIMDLI
 40
7.0
  9
$DIMRND
 40
0.0
  9
$DIMDLE
 40
0.0
  9
$DIMEXE
 40
1.0
  9
$DIMTP
 40
0.0
  9
$DIMTM
 40
0.0
  9
$DIMTXT
 40
3.0
  9
$DIMCEN
 40
0.0
  9
$DIMTSZ
 40
0.0
  9
$DIMTOL
 70
     0
  9
$DIMLIM
 70
     0
  9
$DIMTIH
 70
     0
  9
$DIMTOH
 70
     0
  9
$DIMSE1
 70
     0
  9
$DIMSE2
 70
     0
  9
$DIMTAD
 70
     1
  9
$DIMZIN
 70
     8
  9
$DIMBLK
  1

  9
$DIMASO
 70
     1
  9
$DIMSHO
 70
     1
  9
$DIMPOST
  1

  9
$DIMAPOST
  1

  9
$DIMALT
 70
     0
  9
$DIMALTD
 70
     2
  9
$DIMALTF
 40
0.03937
  9
$DIMLFAC
 40
1.0
  9
$DIMTOFL
 70
     1
  9
$DIMTVP
 40
0.0
  9
$DIMTIX
 70
     0
  9
$DIMSOXD
 70
     0
  9
$DIMSAH
 70
     1
  9
$DIMBLK1
  1
OPEN
  9
$DIMBLK2
  1
OPEN
  9
$DIMSTYLE
  2
GOD
  9
$DIMCLRD
 70
   256
  9
$DIMCLRE
 70
   256
  9
$DIMCLRT
 70
   256
  9
$DIMTFAC
 40
1.0
  9
$DIMGAP
 40
1.0
  9
$LUNITS
 70
     2
  9
$LUPREC
 70
     3
  9
$SKETCHINC
 40
0.1
  9
$FILLETRAD
 40
1.0
  9
$AUNITS
 70
     0
  9
$AUPREC
 70
     2
  9
$MENU
  1
acad
  9
$ELEVATION
 40
0.0
  9
$PELEVATION
 40
0.0
  9
$THICKNESS
 40
0.0
  9
$LIMCHECK
 70
     0
  9
$BLIPMODE
 70
     0
  9
$CHAMFERA
 40
0.0
  9
$CHAMFERB
 40
0.0
  9
$SKPOLY
 70
     0
  9
$TDCREATE
 40
2454894.5465396061
  9
$TDUPDATE
 40
2454953.824708113
  9
$TDINDWG
 40
0.4408789352
  9
$TDUSRTIMER
 40
0.4408789352
  9
$USRTIMER
 70
     1
  9
$ANGBASE
 50
0.0
  9
$ANGDIR
 70
     0
  9
$PDMODE
 70
     0
  9
$PDSIZE
 40
1.0
  9
$PLINEWID
 40
0.0
  9
$COORDS
 70
     2
  9
$SPLFRAME
 70
     0
  9
$SPLINETYPE
 70
     6
  9
$SPLINESEGS
 70
     8
  9
$ATTDIA
 70
     0
  9
$ATTREQ
 70
     1
  9
$HANDLING
 70
 22529
  9
$HANDSEED
  5
B25B
  9
$SURFTAB1
 70
     6
  9
$SURFTAB2
 70
     6
  9
$SURFTYPE
 70
     6
  9
$SURFU
 70
     6
  9
$SURFV
 70
     6
  9
$UCSNAME
  2

  9
$UCSORG
 10
0.0
 20
0.0
 30
0.0
  9
$UCSXDIR
 10
1.0
 20
0.0
 30
0.0
  9
$UCSYDIR
 10
0.0
 20
1.0
 30
0.0
  9
$PUCSNAME
  2

  9
$PUCSORG
 10
0.0
 20
0.0
 30
0.0
  9
$PUCSXDIR
 10
1.0
 20
0.0
 30
0.0
  9
$PUCSYDIR
 10
0.0
 20
1.0
 30
0.0
  9
$USERI1
 70
     0
  9
$USERI2
 70
     0
  9
$USERI3
 70
     0
  9
$USERI4
 70
     0
  9
$USERI5
 70
     0
  9
$USERR1
 40
0.0
  9
$USERR2
 40
0.0
  9
$USERR3
 40
0.0
  9
$USERR4
 40
0.0
  9
$USERR5
 40
0.0
  9
$WORLDVIEW
 70
     1
  9
$SHADEDGE
 70
     3
  9
$SHADEDIF
 70
    70
  9
$TILEMODE
 70
     1
  9
$MAXACTVP
 70
    16
  9
$PLIMCHECK
 70
     0
  9
$PEXTMIN
 10
1.0000000000000000E+020
 20
1.0000000000000000E+020
 30
1.0000000000000000E+020
  9
$PEXTMAX
 10
-1.0000000000000000E+020
 20
-1.0000000000000000E+020
 30
-1.0000000000000000E+020
  9
$PLIMMIN
 10
0.0
 20
0.0
  9
$PLIMMAX
 10
12.0
 20
9.0
  9
$UNITMODE
 70
     0
  9
$VISRETAIN
 70
     0
  9
$PLINEGEN
 70
     0
  9
$PSLTSCALE
 70
     0
  0
ENDSEC
  0
SECTION
  2
TABLES
  0
TABLE
  2
VPORT
 70
     2
  0
VPORT
  2
*ACTIVE
 70
     0
 10
0.0
 20
0.0
 11
1.0
 21
1.0
 12
-6586.8527241055162
 22
9030.0065917595275
 13
0.0
 23
0.0
 14
5.0
 24
5.0
 15
0.0
 25
0.0
 16
0.0
 26
0.0
 36
1.0
 17
0.0
 27
0.0
 37
0.0
 40
2975.5015553956332
 41
1.6307901907356941
 42
50.0
 43
0.0
 44
0.0
 50
0.0
 51
0.0
 71
     0
 72
   100
 73
     1
 74
     0
 75
     0
 76
     0
 77
     0
 78
     0
  0
ENDTAB
  0
TABLE
  2
LTYPE
 70
     4
  0
LTYPE
  2
CONTINUOUS
 70
     0
  3
Solid line
 72
    65
 73
     0
 40
0.0
  0
LTYPE
  2
CENTER
 70
     0
  3
____ _ ____ _ ____ _ ____ _ ____ _ ____ _ ____ 
 72
    65
 73
     4
 40
2.0
 49
1.25
 49
-0.25
 49
0.25
 49
-0.25
  0
LTYPE
  2
HIDDEN
 70
     0
  3
__ __ __ __ __ __ __ __ __ __ __ __ __ __ __ __
 72
    65
 73
     2
 40
0.375
 49
0.25
 49
-0.125
  0
LTYPE
  2
PHANTOM
 70
     0
  3
______  __  __  ______  __  __  ______  __  __ 
 72
    65
 73
     6
 40
2.5
 49
1.25
 49
-0.25
 49
0.25
 49
-0.25
 49
0.25
 49
-0.25
  0
ENDTAB
  0
TABLE
  2
LAYER
 70
     9
  0
LAYER
  2
0
 70
     0
 62
     7
  6
CONTINUOUS
  0
LAYER
  2
CT
 70
     0
 62
     3
  6
CENTER
  0
LAYER
  2
FUTO
 70
     0
 62
     4
  6
CONTINUOUS
  0
LAYER
  2
HOSO
 70
     0
 62
     7
  6
CONTINUOUS
  0
LAYER
  2
KL
 70
     0
 62
     7
  6
HIDDEN
  0
LAYER
  2
SL
 70
     0
 62
     1
  6
PHANTOM
  0
LAYER
  2
SP
 70
     0
 62
     2
  6
CONTINUOUS
  0
LAYER
  2
DEFPOINTS
 70
     0
 62
     7
  6
CONTINUOUS
  0
LAYER
  2
4
 70
     0
 62
     7
  6
CONTINUOUS
  0
ENDTAB
  0
TABLE
  2
STYLE
 70
     1
  0
STYLE
  2
STANDARD
 70
     0
 40
0.0
 41
1.0
 50
15.0
 71
     0
 42
3.5
  3
C:\Program Files\AutoCAD LT\simplex.shx
  4
C:\Program Files\AutoCAD LT\extfont.shx
  0
ENDTAB
  0
TABLE
  2
VIEW
 70
     0
  0
ENDTAB
  0
TABLE
  2
UCS
 70
     0
  0
ENDTAB
  0
TABLE
  2
APPID
 70
     1
  0
APPID
  2
ACAD
 70
     0
  0
ENDTAB
  0
TABLE
  2
DIMSTYLE
 70
     3
  0
DIMSTYLE
  2
STANDARD
 70
     0
  3

  4

  5

  6

  7

 40
1.0
 41
0.18
 42
0.0625
 43
0.38
 44
0.18
 45
0.0
 46
0.0
 47
0.0
 48
0.0
140
0.18
141
0.09
142
0.0
143
25.399999999999999
144
1.0
145
0.0
146
1.0
147
0.09
 71
     0
 72
     0
 73
     1
 74
     1
 75
     0
 76
     0
 77
     0
 78
     0
170
     0
171
     2
172
     0
173
     0
174
     0
175
     0
176
     0
177
     0
178
     0
  0
DIMSTYLE
  2
GOD
 70
     0
  3

  4

  5

  6
OPEN
  7
OPEN
 40
10.0
 41
2.5
 42
1.0
 43
7.0
 44
1.0
 45
0.0
 46
0.0
 47
0.0
 48
0.0
140
3.0
141
0.0
142
0.0
143
0.03937
144
1.0
145
0.0
146
1.0
147
1.0
 71
     0
 72
     0
 73
     0
 74
     0
 75
     0
 76
     0
 77
     1
 78
     8
170
     0
171
     2
172
     1
173
     1
174
     0
175
     0
176
   256
177
   256
178
   256
  0
DIMSTYLE
  2
IGA
 70
     0
  3

  4

  5

  6

  7

 40
1.0
 41
3.0
 42
0.5
 43
10.0
 44
1.0
 45
0.0
 46
0.0
 47
1.0
 48
1.0
140
3.0
141
0.0
142
0.0
143
0.039
144
1.0
145
0.0
146
10.0
147
1.0
 71
     0
 72
     0
 73
     0
 74
     0
 75
     0
 76
     0
 77
     1
 78
     8
170
     0
171
     2
172
     1
173
     1
174
     0
175
     0
176
     0
177
     0
178
     0
  0
ENDTAB
  0
ENDSEC
  0
SECTION
  2
BLOCKS
  0
BLOCK
  8
0
  2
$MODEL_SPACE
 70
     0
 10
0.0
 20
0.0
 30
0.0
  3
$MODEL_SPACE
  1

  0
ENDBLK
  5
1B
  8
0
  0
BLOCK
 67
     1
  8
0
  2
$PAPER_SPACE
 70
     0
 10
0.0
 20
0.0
 30
0.0
  3
$PAPER_SPACE
  1

  0
ENDBLK
  5
18
 67
     1
  8
0
  0
BLOCK
  8
0
  2
_OPEN
 70
     0
 10
0.0
 20
0.0
 30
0.0
  3
_OPEN
  1

  0
LINE
  5
1E81
  8
0
  6
BYBLOCK
 62
     0
 10
-1.0
 20
0.1666666666666666
 30
0.0
 11
0.0
 21
0.0
 31
0.0
  0
LINE
  5
1E82
  8
0
  6
BYBLOCK
 62
     0
 10
0.0
 20
0.0
 30
0.0
 11
-1.0
 21
-0.1666666666666666
 31
0.0
  0
LINE
  5
1E83
  8
0
  6
BYBLOCK
 62
     0
 10
0.0
 20
0.0
 30
0.0
 11
-1.0
 21
0.0
 31
0.0
  0
ENDBLK
  5
1E84
  8
0
  0
BLOCK
  8
0
  2
*D1
 70
     1
 10
0.0
 20
0.0
 30
0.0
  3
*D1
  1

  0
LINE
  5
B227
  8
SP
 10
-6273.6730335252141
 20
8813.6761894656483
 30
0.0
 11
-6186.8566413507897
 21
8813.6761894656483
 31
0.0
  0
LINE
  5
B228
  8
SP
 10
-6273.6730335252141
 20
8653.6761894656465
 30
0.0
 11
-6186.8566413507897
 21
8653.6761894656465
 31
0.0
  0
LINE
  5
B229
  8
SP
 10
-6196.8566413507906
 20
8788.6761894656483
 30
0.0
 11
-6196.8566413507906
 21
8678.6761894656465
 31
0.0
  0
INSERT
  5
B22A
  8
SP
  2
_OPEN
 10
-6196.8566413507906
 20
8813.6761894656483
 30
0.0
 41
25.0
 42
25.0
 43
25.0
 50
90.0
  0
INSERT
  5
B22B
  8
SP
  2
_OPEN
 10
-6196.8566413507906
 20
8653.6761894656465
 30
0.0
 41
25.0
 42
25.0
 43
25.0
 50
270.0
  0
TEXT
  5
B22C
  8
SP
 10
-6206.8566413507924
 20
8681.7622666625666
 30
0.0
 40
30.0
  1
φ160
 50
90.0
 51
15.0
  0
POINT
  5
B22D
  8
DEFPOINTS
 62
     0
 10
-6283.6730335252141
 20
8813.6761894656483
 30
0.0
  0
POINT
  5
B22E
  8
DEFPOINTS
 62
     0
 10
-6283.6730335252141
 20
8653.6761894656465
 30
0.0
  0
POINT
  5
B22F
  8
DEFPOINTS
 62
     0
 10
-6196.8566413507906
 20
8653.6761894656465
 30
0.0
  0
ENDBLK
  5
57BD
  8
0
  0
BLOCK
  8
0
  2
*D2
 70
     1
 10
0.0
 20
0.0
 30
0.0
  3
*D2
  1

  0
LINE
  5
AC9F
  8
SP
 10
-6346.6730335252141
 20
8442.40506451482
 30
0.0
 11
-6346.6730335252141
 21
8401.6761894656502
 31
0.0
  0
LINE
  5
ACA0
  8
SP
 10
-6651.673033525215
 20
8501.6761894656483
 30
0.0
 11
-6651.673033525215
 21
8401.6761894656502
 31
0.0
  0
LINE
  5
ACA1
  8
SP
 10
-6371.6730335252141
 20
8411.6761894656502
 30
0.0
 11
-6626.6730335252141
 21
8411.6761894656502
 31
0.0
  0
INSERT
  5
ACA2
  8
SP
  2
_OPEN
 10
-6346.6730335252141
 20
8411.6761894656502
 30
0.0
 41
25.0
 42
25.0
 43
25.0
  0
INSERT
  5
ACA3
  8
SP
  2
_OPEN
 10
-6651.673033525215
 20
8411.6761894656502
 30
0.0
 41
25.0
 42
25.0
 43
25.0
 50
180.0
  0
TEXT
  5
ACA4
  8
SP
 10
-6541.1006976757699
 20
8421.6761894656483
 30
0.0
 40
30.0
  1
305
 51
15.0
  0
POINT
  5
ACA5
  8
DEFPOINTS
 62
     0
 10
-6346.6730335252141
 20
8452.40506451482
 30
0.0
  0
POINT
  5
ACA6
  8
DEFPOINTS
 62
     0
 10
-6651.673033525215
 20
8511.6761894656483
 30
0.0
  0
POINT
  5
ACA7
  8
DEFPOINTS
 62
     0
 10
-6651.673033525215
 20
8411.6761894656502
 30
0.0
  0
ENDBLK
  5
57C9
  8
0
  0
BLOCK
  8
0
  2
*D3
 70
     1
 10
0.0
 20
0.0
 30
0.0
  3
*D3
  1

  0
LINE
  5
AC84
  8
SP
 10
-6651.673033525215
 20
8501.6761894656502
 30
0.0
 11
-6651.673033525215
 21
8331.6761894656502
 31
0.0
  0
LINE
  5
AC85
  8
SP
 10
-6201.6730335252141
 20
8501.6761894656502
 30
0.0
 11
-6201.6730335252141
 21
8331.6761894656502
 31
0.0
  0
LINE
  5
AC86
  8
SP
 10
-6626.6730335252141
 20
8341.6761894656483
 30
0.0
 11
-6226.6730335252141
 21
8341.6761894656483
 31
0.0
  0
INSERT
  5
AC87
  8
SP
  2
_OPEN
 10
-6651.673033525215
 20
8341.6761894656483
 30
0.0
 41
25.0
 42
25.0
 43
25.0
 50
180.0
  0
INSERT
  5
AC88
  8
SP
  2
_OPEN
 10
-6201.6730335252141
 20
8341.6761894656483
 30
0.0
 41
25.0
 42
25.0
 43
25.0
  0
TEXT
  5
AC89
  8
SP
 10
-6469.1235911097483
 20
8351.6761894656483
 30
0.0
 40
30.0
  1
450
 51
15.0
  0
POINT
  5
AC8A
  8
DEFPOINTS
 62
     0
 10
-6651.673033525215
 20
8511.6761894656502
 30
0.0
  0
POINT
  5
AC8B
  8
DEFPOINTS
 62
     0
 10
-6201.6730335252141
 20
8511.6761894656502
 30
0.0
  0
POINT
  5
AC8C
  8
DEFPOINTS
 62
     0
 10
-6201.6730335252141
 20
8341.6761894656483
 30
0.0
  0
ENDBLK
  5
57D5
  8
0
  0
BLOCK
  8
0
  2
*D4
 70
     1
 10
0.0
 20
0.0
 30
0.0
  3
*D4
  1

  0
LINE
  5
ACA8
  8
SP
 10
-6346.6730335252141
 20
8442.40506451482
 30
0.0
 11
-6346.6730335252141
 21
8401.6761894656502
 31
0.0
  0
LINE
  5
ACA9
  8
SP
 10
-6201.6730335252141
 20
8501.6761894656502
 30
0.0
 11
-6201.6730335252141
 21
8401.6761894656502
 31
0.0
  0
LINE
  5
ACAA
  8
SP
 10
-6321.673033525215
 20
8411.6761894656502
 30
0.0
 11
-6226.6730335252141
 21
8411.6761894656502
 31
0.0
  0
INSERT
  5
ACAB
  8
SP
  2
_OPEN
 10
-6346.6730335252141
 20
8411.6761894656502
 30
0.0
 41
25.0
 42
25.0
 43
25.0
 50
180.0
  0
INSERT
  5
ACAC
  8
SP
  2
_OPEN
 10
-6201.6730335252141
 20
8411.6761894656502
 30
0.0
 41
25.0
 42
25.0
 43
25.0
  0
TEXT
  5
ACAD
  8
SP
 10
-6315.731654462631
 20
8421.6761894656483
 30
0.0
 40
30.0
  1
145
 51
15.0
  0
POINT
  5
ACAE
  8
DEFPOINTS
 62
     0
 10
-6346.6730335252141
 20
8452.40506451482
 30
0.0
  0
POINT
  5
ACAF
  8
DEFPOINTS
 62
     0
 10
-6201.6730335252141
 20
8511.6761894656502
 30
0.0
  0
POINT
  5
ACB0
  8
DEFPOINTS
 62
     0
 10
-6201.6730335252141
 20
8411.6761894656502
 30
0.0
  0
ENDBLK
  5
5813
  8
0
  0
BLOCK
  8
0
  2
*D5
 70
     1
 10
0.0
 20
0.0
 30
0.0
  3
*D5
  1

  0
LINE
  5
9EA2
  8
SP
 10
-6346.6730335252141
 20
9035.6761894656483
 30
0.0
 11
-6346.6730335252141
 21
9065.6761894656483
 31
0.0
  0
LINE
  5
9EA3
  8
SP
 10
-6607.6198125066849
 20
8800.2404894656502
 30
0.0
 11
-6607.6198125066849
 21
9065.6761894656483
 31
0.0
  0
LINE
  5
9EA4
  8
SP
 10
-6371.6730335252141
 20
9055.6761894656483
 30
0.0
 11
-6582.6198125066849
 21
9055.6761894656483
 31
0.0
  0
INSERT
  5
9EA5
  8
SP
  2
_OPEN
 10
-6346.6730335252141
 20
9055.6761894656483
 30
0.0
 41
25.0
 42
25.0
 43
25.0
  0
INSERT
  5
9EA6
  8
SP
  2
_OPEN
 10
-6607.6198125066849
 20
9055.6761894656483
 30
0.0
 41
25.0
 42
25.0
 43
25.0
 50
180.0
  0
TEXT
  5
9EA7
  8
SP
 10
-6544.056124756351
 20
9065.6761894656483
 30
0.0
 40
30.0
  1
（330）
 51
15.0
  0
POINT
  5
9EA8
  8
DEFPOINTS
 62
     0
 10
-6346.6730335252141
 20
9025.6761894656483
 30
0.0
  0
POINT
  5
9EA9
  8
DEFPOINTS
 62
     0
 10
-6607.6198125066849
 20
8790.2404894656502
 30
0.0
  0
POINT
  5
9EAA
  8
DEFPOINTS
 62
     0
 10
-6607.6198125066849
 20
9055.6761894656483
 30
0.0
  0
ENDBLK
  5
581F
  8
0
  0
BLOCK
  8
0
  2
*D6
 70
     1
 10
0.0
 20
0.0
 30
0.0
  3
*D6
  1

  0
LINE
  5
9E6A
  8
SP
 10
-6346.6730335252141
 20
9035.6761894656483
 30
0.0
 11
-6346.6730335252141
 21
9065.6761894656483
 31
0.0
  0
LINE
  5
9E6B
  8
SP
 10
-6283.6730335252141
 20
8841.6761894656483
 30
0.0
 11
-6283.6730335252141
 21
9065.6761894656483
 31
0.0
  0
LINE
  5
9E6C
  8
SP
 10
-6371.6730335252141
 20
9055.6761894656483
 30
0.0
 11
-6396.6730335252141
 21
9055.6761894656483
 31
0.0
  0
LINE
  5
9E6D
  8
SP
 10
-6258.6730335252141
 20
9055.6761894656483
 30
0.0
 11
-6161.0686257198422
 21
9055.6761894656483
 31
0.0
  0
LINE
  5
9E6E
  8
SP
 10
-6346.6730335252141
 20
9055.6761894656483
 30
0.0
 11
-6283.6730335252141
 21
9055.6761894656483
 31
0.0
  0
INSERT
  5
9E6F
  8
SP
  2
_OPEN
 10
-6346.6730335252141
 20
9055.6761894656483
 30
0.0
 41
25.0
 42
25.0
 43
25.0
  0
INSERT
  5
9E70
  8
SP
  2
_OPEN
 10
-6283.6730335252141
 20
9055.6761894656483
 30
0.0
 41
25.0
 42
25.0
 43
25.0
 50
180.0
  0
TEXT
  5
9E71
  8
SP
 10
-6226.2499586356344
 20
9065.6761894656483
 30
0.0
 40
30.0
  1
63
 51
15.0
  0
POINT
  5
9E72
  8
DEFPOINTS
 62
     0
 10
-6346.6730335252141
 20
9025.6761894656483
 30
0.0
  0
POINT
  5
9E73
  8
DEFPOINTS
 62
     0
 10
-6283.6730335252141
 20
8831.6761894656483
 30
0.0
  0
POINT
  5
9E74
  8
DEFPOINTS
 62
     0
 10
-6283.6730335252141
 20
9055.6761894656483
 30
0.0
  0
ENDBLK
  5
5851
  8
0
  0
BLOCK
  8
0
  2
*D7
 70
     1
 10
0.0
 20
0.0
 30
0.0
  3
*D7
  1

  0
LINE
  5
9EAB
  8
SP
 10
-6402.6730335252141
 20
8900.0350884091895
 30
0.0
 11
-6402.6730335252141
 21
8995.6761894656483
 31
0.0
  0
LINE
  5
9EAC
  8
SP
 10
-6290.6730335252141
 20
8898.4761894656476
 30
0.0
 11
-6290.6730335252141
 21
8995.6761894656483
 31
0.0
  0
LINE
  5
9EAD
  8
SP
 10
-6377.6730335252141
 20
8985.6761894656483
 30
0.0
 11
-6315.6730335252141
 21
8985.6761894656483
 31
0.0
  0
INSERT
  5
9EAE
  8
SP
  2
_OPEN
 10
-6402.6730335252141
 20
8985.6761894656483
 30
0.0
 41
25.0
 42
25.0
 43
25.0
 50
180.0
  0
INSERT
  5
9EAF
  8
SP
  2
_OPEN
 10
-6290.6730335252141
 20
8985.6761894656483
 30
0.0
 41
25.0
 42
25.0
 43
25.0
  0
TEXT
  5
9EB0
  8
SP
 10
-6385.3232281985411
 20
8995.6761894656483
 30
0.0
 40
30.0
  1
112
 51
15.0
  0
POINT
  5
9EB1
  8
DEFPOINTS
 62
     0
 10
-6402.6730335252141
 20
8890.0350884091895
 30
0.0
  0
POINT
  5
9EB2
  8
DEFPOINTS
 62
     0
 10
-6290.6730335252141
 20
8888.4761894656476
 30
0.0
  0
POINT
  5
9EB3
  8
DEFPOINTS
 62
     0
 10
-6290.6730335252141
 20
8985.6761894656483
 30
0.0
  0
ENDBLK
  5
585D
  8
0
  0
BLOCK
  8
0
  2
*D8
 70
     1
 10
0.0
 20
0.0
 30
0.0
  3
*D8
  1

  0
LINE
  5
ABB2
  8
SP
 10
-7106.3140880561132
 20
8463.3272350085263
 30
0.0
 11
-7106.3140880561132
 21
8401.6761894656502
 31
0.0
  0
LINE
  5
ABB3
  8
SP
 10
-6931.3140880561132
 20
8471.6761894656502
 30
0.0
 11
-6931.3140880561132
 21
8401.6761894656502
 31
0.0
  0
LINE
  5
ABB4
  8
SP
 10
-7081.3140880561141
 20
8411.6761894656502
 30
0.0
 11
-6956.3140880561141
 21
8411.6761894656502
 31
0.0
  0
INSERT
  5
ABB5
  8
SP
  2
_OPEN
 10
-7106.3140880561132
 20
8411.6761894656502
 30
0.0
 41
25.0
 42
25.0
 43
25.0
 50
180.0
  0
INSERT
  5
ABB6
  8
SP
  2
_OPEN
 10
-6931.3140880561132
 20
8411.6761894656502
 30
0.0
 41
25.0
 42
25.0
 43
25.0
  0
TEXT
  5
ABB7
  8
SP
 10
-7060.3727089935292
 20
8421.6761894656483
 30
0.0
 40
30.0
  1
175
 51
15.0
  0
POINT
  5
ABB8
  8
DEFPOINTS
 62
     0
 10
-7106.3140880561132
 20
8473.3272350085299
 30
0.0
  0
POINT
  5
ABB9
  8
DEFPOINTS
 62
     0
 10
-6931.3140880561132
 20
8481.6761894656502
 30
0.0
  0
POINT
  5
ABBA
  8
DEFPOINTS
 62
     0
 10
-6931.3140880561132
 20
8411.6761894656502
 30
0.0
  0
ENDBLK
  5
5F60
  8
0
  0
BLOCK
  8
0
  2
*D9
 70
     1
 10
0.0
 20
0.0
 30
0.0
  3
*D9
  1

  0
LINE
  5
AB97
  8
SP
 10
-6931.3140880561132
 20
8471.6761894656502
 30
0.0
 11
-6931.3140880561132
 21
8331.6761894656502
 31
0.0
  0
LINE
  5
AB98
  8
SP
 10
-7281.3140880561132
 20
8471.6761894656502
 30
0.0
 11
-7281.3140880561132
 21
8331.6761894656502
 31
0.0
  0
LINE
  5
AB99
  8
SP
 10
-6956.3140880561141
 20
8341.6761894656483
 30
0.0
 11
-7256.3140880561141
 21
8341.6761894656483
 31
0.0
  0
INSERT
  5
AB9A
  8
SP
  2
_OPEN
 10
-6931.3140880561132
 20
8341.6761894656483
 30
0.0
 41
25.0
 42
25.0
 43
25.0
  0
INSERT
  5
AB9B
  8
SP
  2
_OPEN
 10
-7281.3140880561132
 20
8341.6761894656483
 30
0.0
 41
25.0
 42
25.0
 43
25.0
 50
180.0
  0
TEXT
  5
AB9C
  8
SP
 10
-7148.190468799723
 20
8351.6761894656483
 30
0.0
 40
30.0
  1
350
 51
15.0
  0
POINT
  5
AB9D
  8
DEFPOINTS
 62
     0
 10
-6931.3140880561132
 20
8481.6761894656502
 30
0.0
  0
POINT
  5
AB9E
  8
DEFPOINTS
 62
     0
 10
-7281.3140880561132
 20
8481.6761894656502
 30
0.0
  0
POINT
  5
AB9F
  8
DEFPOINTS
 62
     0
 10
-7281.3140880561132
 20
8341.6761894656483
 30
0.0
  0
ENDBLK
  5
5F6C
  8
0
  0
BLOCK
  8
0
  2
*D10
 70
     1
 10
0.0
 20
0.0
 30
0.0
  3
*D10
  1

  0
LINE
  5
ABBB
  8
SP
 10
-7106.3140880561132
 20
8463.3272350085263
 30
0.0
 11
-7106.3140880561132
 21
8401.6761894656502
 31
0.0
  0
LINE
  5
ABBC
  8
SP
 10
-7281.3140880561186
 20
8471.6761894656502
 30
0.0
 11
-7281.3140880561186
 21
8401.6761894656502
 31
0.0
  0
LINE
  5
ABBD
  8
SP
 10
-7131.3140880561141
 20
8411.6761894656502
 30
0.0
 11
-7256.3140880561186
 21
8411.6761894656502
 31
0.0
  0
INSERT
  5
ABBE
  8
SP
  2
_OPEN
 10
-7106.3140880561132
 20
8411.6761894656502
 30
0.0
 41
25.0
 42
25.0
 43
25.0
  0
INSERT
  5
ABBF
  8
SP
  2
_OPEN
 10
-7281.3140880561186
 20
8411.6761894656502
 30
0.0
 41
25.0
 42
25.0
 43
25.0
 50
180.0
  0
TEXT
  5
ABC0
  8
SP
 10
-7235.3727089935319
 20
8421.6761894656483
 30
0.0
 40
30.0
  1
175
 51
15.0
  0
POINT
  5
ABC1
  8
DEFPOINTS
 62
     0
 10
-7106.3140880561132
 20
8473.3272350085299
 30
0.0
  0
POINT
  5
ABC2
  8
DEFPOINTS
 62
     0
 10
-7281.3140880561186
 20
8481.6761894656502
 30
0.0
  0
POINT
  5
ABC3
  8
DEFPOINTS
 62
     0
 10
-7281.3140880561186
 20
8411.6761894656502
 30
0.0
  0
ENDBLK
  5
5F78
  8
0
  0
BLOCK
  8
0
  2
*D11
 70
     1
 10
0.0
 20
0.0
 30
0.0
  3
*D11
  1

  0
LINE
  5
AC68
  8
SP
 10
-6956.3140880561141
 20
8533.6761894656502
 30
0.0
 11
-6851.3140880561132
 21
8533.6761894656502
 31
0.0
  0
LINE
  5
AC69
  8
SP
 10
-6950.4684556196908
 20
8733.6761894656483
 30
0.0
 11
-6851.3140880561132
 21
8733.6761894656483
 31
0.0
  0
LINE
  5
AC6A
  8
SP
 10
-6861.3140880561132
 20
8558.6761894656483
 30
0.0
 11
-6861.3140880561132
 21
8708.6761894656483
 31
0.0
  0
INSERT
  5
AC6B
  8
SP
  2
_OPEN
 10
-6861.3140880561132
 20
8533.6761894656502
 30
0.0
 41
25.0
 42
25.0
 43
25.0
 50
270.0
  0
INSERT
  5
AC6C
  8
SP
  2
_OPEN
 10
-6861.3140880561132
 20
8733.6761894656483
 30
0.0
 41
25.0
 42
25.0
 43
25.0
 50
90.0
  0
TEXT
  5
AC6D
  8
SP
 10
-6871.3140880561141
 20
8592.5653778432679
 30
0.0
 40
30.0
  1
200
 50
90.0
 51
15.0
  0
POINT
  5
AC6E
  8
DEFPOINTS
 62
     0
 10
-6966.3140880561132
 20
8533.6761894656502
 30
0.0
  0
POINT
  5
AC6F
  8
DEFPOINTS
 62
     0
 10
-6960.4684556196898
 20
8733.6761894656483
 30
0.0
  0
POINT
  5
AC70
  8
DEFPOINTS
 62
     0
 10
-6861.3140880561132
 20
8733.6761894656483
 30
0.0
  0
ENDBLK
  5
5F84
  8
0
  0
BLOCK
  8
0
  2
*D12
 70
     1
 10
0.0
 20
0.0
 30
0.0
  3
*D12
  1

  0
LINE
  5
AC5F
  8
SP
 10
-6950.4684556196908
 20
8733.6761894656483
 30
0.0
 11
-6851.3140880561132
 21
8733.6761894656483
 31
0.0
  0
LINE
  5
AC60
  8
SP
 10
-6966.3140880561132
 20
8893.6761894656483
 30
0.0
 11
-6851.3140880561132
 21
8893.6761894656483
 31
0.0
  0
LINE
  5
AC61
  8
SP
 10
-6861.3140880561132
 20
8758.6761894656483
 30
0.0
 11
-6861.3140880561132
 21
8868.6761894656483
 31
0.0
  0
INSERT
  5
AC62
  8
SP
  2
_OPEN
 10
-6861.3140880561132
 20
8733.6761894656483
 30
0.0
 41
25.0
 42
25.0
 43
25.0
 50
270.0
  0
INSERT
  5
AC63
  8
SP
  2
_OPEN
 10
-6861.3140880561132
 20
8893.6761894656483
 30
0.0
 41
25.0
 42
25.0
 43
25.0
 50
90.0
  0
TEXT
  5
AC64
  8
SP
 10
-6871.3140880561141
 20
8772.1688519351756
 30
0.0
 40
30.0
  1
160
 50
90.0
 51
15.0
  0
POINT
  5
AC65
  8
DEFPOINTS
 62
     0
 10
-6960.4684556196898
 20
8733.6761894656483
 30
0.0
  0
POINT
  5
AC66
  8
DEFPOINTS
 62
     0
 10
-6976.3140880561132
 20
8893.6761894656483
 30
0.0
  0
POINT
  5
AC67
  8
DEFPOINTS
 62
     0
 10
-6861.3140880561132
 20
8893.6761894656483
 30
0.0
  0
ENDBLK
  5
5F90
  8
0
  0
BLOCK
  8
0
  2
*D13
 70
     1
 10
0.0
 20
0.0
 30
0.0
  3
*D13
  1

  0
LINE
  5
9E87
  8
SP
 10
-7106.3140880561132
 20
8933.5934657609978
 30
0.0
 11
-7106.3140880561132
 21
8985.6761894656502
 31
0.0
  0
LINE
  5
9E88
  8
SP
 10
-6976.3140880561132
 20
8925.6761894656502
 30
0.0
 11
-6976.3140880561132
 21
8985.6761894656502
 31
0.0
  0
LINE
  5
9E89
  8
SP
 10
-7081.3140880561141
 20
8975.6761894656502
 30
0.0
 11
-7001.3140880561141
 21
8975.6761894656502
 31
0.0
  0
INSERT
  5
9E8A
  8
SP
  2
_OPEN
 10
-7106.3140880561132
 20
8975.6761894656502
 30
0.0
 41
25.0
 42
25.0
 43
25.0
 50
180.0
  0
INSERT
  5
9E8B
  8
SP
  2
_OPEN
 10
-6976.3140880561132
 20
8975.6761894656502
 30
0.0
 41
25.0
 42
25.0
 43
25.0
  0
TEXT
  5
9E8C
  8
SP
 10
-7082.8214255865832
 20
8985.6761894656502
 30
0.0
 40
30.0
  1
130
 51
15.0
  0
POINT
  5
9E8D
  8
DEFPOINTS
 62
     0
 10
-7106.3140880561132
 20
8923.5934657609978
 30
0.0
  0
POINT
  5
9E8E
  8
DEFPOINTS
 62
     0
 10
-6976.3140880561132
 20
8915.6761894656483
 30
0.0
  0
POINT
  5
9E8F
  8
DEFPOINTS
 62
     0
 10
-6976.3140880561132
 20
8975.6761894656502
 30
0.0
  0
ENDBLK
  5
64B4
  8
0
  0
BLOCK
  8
0
  2
*D14
 70
     1
 10
0.0
 20
0.0
 30
0.0
  3
*D14
  1

  0
LINE
  5
9E7E
  8
SP
 10
-7106.3140880561132
 20
8933.5934657609978
 30
0.0
 11
-7106.3140880561132
 21
8985.6761894656502
 31
0.0
  0
LINE
  5
9E7F
  8
SP
 10
-7240.3140880561141
 20
8756.6761894656483
 30
0.0
 11
-7240.3140880561141
 21
8985.6761894656502
 31
0.0
  0
LINE
  5
9E80
  8
SP
 10
-7131.3140880561141
 20
8975.6761894656502
 30
0.0
 11
-7215.3140880561141
 21
8975.6761894656502
 31
0.0
  0
INSERT
  5
9E81
  8
SP
  2
_OPEN
 10
-7106.3140880561132
 20
8975.6761894656502
 30
0.0
 41
25.0
 42
25.0
 43
25.0
  0
INSERT
  5
9E82
  8
SP
  2
_OPEN
 10
-7240.3140880561141
 20
8975.6761894656502
 30
0.0
 41
25.0
 42
25.0
 43
25.0
 50
180.0
  0
TEXT
  5
9E83
  8
SP
 10
-7214.3360742120749
 20
8985.6761894656502
 30
0.0
 40
30.0
  1
134
 51
15.0
  0
POINT
  5
9E84
  8
DEFPOINTS
 62
     0
 10
-7106.3140880561132
 20
8923.5934657609978
 30
0.0
  0
POINT
  5
9E85
  8
DEFPOINTS
 62
     0
 10
-7240.3140880561141
 20
8746.6761894656483
 30
0.0
  0
POINT
  5
9E86
  8
DEFPOINTS
 62
     0
 10
-7240.3140880561141
 20
8975.6761894656502
 30
0.0
  0
ENDBLK
  5
64C1
  8
0
  0
BLOCK
  8
0
  2
_DOT
 70
     0
 10
0.0
 20
0.0
 30
0.0
  3
_DOT
  1

  0
LINE
  5
9B41
  8
0
  6
BYBLOCK
 62
     0
 10
0.0
 20
0.0
 30
0.0
 11
-1.0
 21
-0.0000000000000284
 31
0.0
  0
POLYLINE
  5
9B42
  8
0
  6
BYBLOCK
 62
     0
 66
     1
 10
0.0
 20
0.0
 30
0.0
 70
     1
 40
0.1666666666666666
 41
0.1666666666666666
  0
VERTEX
  5
B242
  8
0
  6
BYBLOCK
 62
     0
 10
-0.0833333333333286
 20
-0.0000000000000284
 30
0.0
 42
1.0
  0
VERTEX
  5
B243
  8
0
  6
BYBLOCK
 62
     0
 10
0.0833333333333286
 20
-0.0000000000000284
 30
0.0
 42
1.0
  0
SEQEND
  5
B244
  8
0
  6
BYBLOCK
 62
     0
  0
ENDBLK
  5
9B29
  8
0
  0
BLOCK
  8
0
  2
_NONE
 70
     0
 10
0.0
 20
0.0
 30
0.0
  3
_NONE
  1

  0
ENDBLK
  5
9B45
  8
0
  0
BLOCK
  8
0
  2
L-30-3
 70
     0
 10
0.0
 20
0.0
 30
0.0
  3
L-30-3
  1

  0
LINE
  5
A495
  8
0
 10
115.2488417492448
 20
98.116970357453638
 30
0.0
 11
145.2488417492448
 21
98.116970357453638
 31
0.0
  0
LINE
  5
A496
  8
0
 10
115.2488417492448
 20
98.116970357453638
 30
0.0
 11
115.2488417492448
 21
128.1169703574536
 31
0.0
  0
LINE
  5
A497
  8
0
 10
145.2488417492448
 20
98.116970357453638
 30
0.0
 11
145.2488417492448
 21
99.116970357453638
 31
0.0
  0
LINE
  5
A498
  8
0
 10
115.2488417492448
 20
128.1169703574536
 30
0.0
 11
116.2488417492448
 21
128.1169703574536
 31
0.0
  0
LINE
  5
A499
  8
0
 10
122.2488417492448
 20
101.1169703574536
 30
0.0
 11
143.2488417492448
 21
101.1169703574536
 31
0.0
  0
LINE
  5
A49A
  8
0
 10
118.2488417492448
 20
105.1169703574536
 30
0.0
 11
118.2488417492448
 21
126.1169703574536
 31
0.0
  0
ARC
  5
A49B
  8
0
 10
143.2488417492448
 20
99.116970357453638
 30
0.0
 40
2.0
 50
0.0
 51
90.0
  0
ARC
  5
A49C
  8
0
 10
116.2488417492448
 20
126.1169703574536
 30
0.0
 40
2.0
 50
0.0
 51
90.0
  0
ARC
  5
A49D
  8
0
 10
122.2488417492448
 20
105.1169703574536
 30
0.0
 40
4.0
 50
180.0
 51
270.0
  0
ENDBLK
  5
A49F
  8
0
  0
BLOCK
  8
0
  2
*D18
 70
     1
 10
0.0
 20
0.0
 30
0.0
  3
*D18
  1

  0
LINE
  5
AA13
  8
SP
 10
-6921.3140880561132
 20
9739.5412464436013
 30
0.0
 11
-6851.3140880561132
 21
9739.5412464436013
 31
0.0
  0
LINE
  5
AA14
  8
SP
 10
-6921.3140880561132
 20
9289.5412464436031
 30
0.0
 11
-6851.3140880561132
 21
9289.5412464436031
 31
0.0
  0
LINE
  5
AA15
  8
SP
 10
-6861.3140880561132
 20
9714.5412464436013
 30
0.0
 11
-6861.3140880561132
 21
9314.5412464436013
 31
0.0
  0
INSERT
  5
AA16
  8
SP
  2
_OPEN
 10
-6861.3140880561132
 20
9739.5412464436013
 30
0.0
 41
25.0
 42
25.0
 43
25.0
 50
90.0
  0
INSERT
  5
AA17
  8
SP
  2
_OPEN
 10
-6861.3140880561132
 20
9289.5412464436031
 30
0.0
 41
25.0
 42
25.0
 43
25.0
 50
270.0
  0
TEXT
  5
AA18
  8
SP
 10
-6871.3140880561141
 20
9472.0906888590653
 30
0.0
 40
30.0
  1
450
 50
90.0
 51
15.0
  0
POINT
  5
AA19
  8
DEFPOINTS
 62
     0
 10
-6931.3140880561132
 20
9739.5412464436013
 30
0.0
  0
POINT
  5
AA1A
  8
DEFPOINTS
 62
     0
 10
-6931.3140880561132
 20
9289.5412464436031
 30
0.0
  0
POINT
  5
AA1B
  8
DEFPOINTS
 62
     0
 10
-6861.3140880561132
 20
9289.5412464436031
 30
0.0
  0
ENDBLK
  5
AA03
  8
0
  0
BLOCK
  8
0
  2
*D19
 70
     1
 10
0.0
 20
0.0
 30
0.0
  3
*D19
  1

  0
LINE
  5
AB6D
  8
SP
 10
-6931.3140880561132
 20
9279.5412464436013
 30
0.0
 11
-6931.3140880561132
 21
9213.7079131102673
 31
0.0
  0
LINE
  5
AB6E
  8
SP
 10
-7281.3140880561132
 20
9279.5412464436013
 30
0.0
 11
-7281.3140880561132
 21
9213.7079131102673
 31
0.0
  0
LINE
  5
AB6F
  8
SP
 10
-6956.3140880561141
 20
9223.7079131102673
 30
0.0
 11
-7256.3140880561141
 21
9223.7079131102673
 31
0.0
  0
INSERT
  5
AB70
  8
SP
  2
_OPEN
 10
-6931.3140880561132
 20
9223.7079131102673
 30
0.0
 41
25.0
 42
25.0
 43
25.0
  0
INSERT
  5
AB71
  8
SP
  2
_OPEN
 10
-7281.3140880561132
 20
9223.7079131102673
 30
0.0
 41
25.0
 42
25.0
 43
25.0
 50
180.0
  0
TEXT
  5
AB72
  8
SP
 10
-7148.190468799723
 20
9233.7079131102673
 30
0.0
 40
30.0
  1
350
 51
15.0
  0
POINT
  5
AB73
  8
DEFPOINTS
 62
     0
 10
-6931.3140880561132
 20
9289.5412464436031
 30
0.0
  0
POINT
  5
AB74
  8
DEFPOINTS
 62
     0
 10
-7281.3140880561132
 20
9289.5412464436031
 30
0.0
  0
POINT
  5
AB75
  8
DEFPOINTS
 62
     0
 10
-7281.3140880561132
 20
9223.7079131102673
 30
0.0
  0
ENDBLK
  5
AA10
  8
0
  0
BLOCK
  8
0
  2
*D20
 70
     1
 10
0.0
 20
0.0
 30
0.0
  3
*D20
  1

  0
LINE
  5
B245
  8
SP
 10
-6921.3140880561132
 20
8511.6761894656502
 30
0.0
 11
-6851.3140880561132
 21
8511.6761894656502
 31
0.0
  0
LINE
  5
B246
  8
SP
 10
-6921.3140880561132
 20
8481.6761894656502
 30
0.0
 11
-6851.3140880561132
 21
8481.6761894656502
 31
0.0
  0
LINE
  5
B247
  8
SP
 10
-6861.3140880561132
 20
8536.6761894656502
 30
0.0
 11
-6861.3140880561132
 21
8561.6761894656502
 31
0.0
  0
LINE
  5
B248
  8
SP
 10
-6861.3140880561132
 20
8456.6761894656502
 30
0.0
 11
-6861.3140880561132
 21
8359.5571330347866
 31
0.0
  0
LINE
  5
B249
  8
SP
 10
-6861.3140880561132
 20
8511.6761894656502
 30
0.0
 11
-6861.3140880561132
 21
8481.6761894656502
 31
0.0
  0
INSERT
  5
B24A
  8
SP
  2
_DOT
 10
-6861.3140880561132
 20
8511.6761894656502
 30
0.0
 41
25.0
 42
25.0
 43
25.0
 50
270.0
  0
INSERT
  5
B24B
  8
SP
  2
_OPEN
 10
-6861.3140880561132
 20
8481.6761894656502
 30
0.0
 41
25.0
 42
25.0
 43
25.0
 50
90.0
  0
TEXT
  8
0
  40
30
  5
B259
  72
0
  71
0
 10
-6946.31
 20
8342.52
 30
0.000000
  1
30
  0
POINT
  5
B24D
  8
DEFPOINTS
 62
     0
 10
-6931.3140880561132
 20
8511.6761894656502
 30
0.0
  0
POINT
  5
B24E
  8
DEFPOINTS
 62
     0
 10
-6931.3140880561132
 20
8481.6761894656502
 30
0.0
  0
POINT
  5
B24F
  8
DEFPOINTS
 62
     0
 10
-6861.3140880561132
 20
8481.6761894656502
 30
0.0
  0
ENDBLK
  5
ABD2
  8
0
  0
BLOCK
  8
0
  2
*D21
 70
     1
 10
0.0
 20
0.0
 30
0.0
  3
*D21
  1

  0
LINE
  5
B250
  8
SP
 10
-6956.3140880561141
 20
8533.6761894656502
 30
0.0
 11
-6851.3140880561132
 21
8533.6761894656502
 31
0.0
  0
LINE
  5
B251
  8
SP
 10
-6921.3140880561132
 20
8511.6761894656502
 30
0.0
 11
-6851.3140880561132
 21
8511.6761894656502
 31
0.0
  0
LINE
  5
B252
  8
SP
 10
-6861.3140880561132
 20
8533.6761894656502
 30
0.0
 11
-6861.3140880561132
 21
8558.6761894656483
 31
0.0
  0
LINE
  5
B253
  8
SP
 10
-6861.3140880561132
 20
8511.6761894656502
 30
0.0
 11
-6861.3140880561132
 21
8486.6761894656502
 31
0.0
  0
TEXT
  8
0
  40
30
  5
B25A
  72
0
  71
0
 10
-6888.81
 20
8457.00
 30
0.000000
  1
（22）
  0
LINE
  5
B255
  8
SP
 10
-6861.3140880561132
 20
8533.6761894656502
 30
0.0
 11
-6861.3140880561132
 21
8511.6761894656502
 31
0.0
  0
POINT
  5
B256
  8
DEFPOINTS
 62
     0
 10
-6966.3140880561132
 20
8533.6761894656502
 30
0.0
  0
POINT
  5
B257
  8
DEFPOINTS
 62
     0
 10
-6931.3140880561132
 20
8511.6761894656502
 30
0.0
  0
POINT
  5
B258
  8
DEFPOINTS
 62
     0
 10
-6861.3140880561132
 20
8511.6761894656502
 30
0.0
  0
ENDBLK
  5
ABE1
  8
0
  0
ENDSEC
  0
SECTION
  2
ENTITIES
  0
LINE
  5
56AE
  8
FUTO
 10
-7068.5474880561133
 20
9511.8847602373862
 30
0.0
 11
-7054.9357880561129
 21
9508.4114602373884
 31
0.0
  0
LINE
  5
56AF
  8
FUTO
 10
-7049.7140880561128
 20
9508.3803602373864
 30
0.0
 11
-7162.9140880561145
 21
9508.3803602373864
 31
0.0
  0
LINE
  5
56B0
  8
FUTO
 10
-7049.7140880561128
 20
9506.0803602373853
 30
0.0
 11
-7162.9140880561145
 21
9506.0803602373853
 31
0.0
  0
LINE
  5
56B3
  8
FUTO
 10
-6996.3140880561132
 20
9529.3412464436005
 30
0.0
 11
-7216.3140880561132
 21
9529.3412464436005
 31
0.0
  0
LINE
  5
56B4
  8
CT
 10
-7033.9705899315104
 20
9442.5412464436013
 30
0.0
 11
-7181.090089931512
 21
9442.5412464436013
 31
0.0
  0
LINE
  5
56B5
  8
CT
 10
-6936.6416766253878
 20
9594.5412464436013
 30
0.0
 11
-7284.123461990067
 21
9594.5412464436013
 31
0.0
  0
LINE
  5
56B8
  8
FUTO
 10
-7246.5368942260147
 20
9650.2831962449418
 30
0.0
 11
-6977.3140880561132
 21
9650.2831962449418
 31
0.0
  0
LINE
  5
56B9
  8
FUTO
 10
-7246.6443916992712
 20
9650.8831962449403
 30
0.0
 11
-6977.3140880561132
 21
9650.8831962449403
 31
0.0
  0
LINE
  5
56BA
  8
FUTO
 10
-7243.710014897667
 20
9537.6831962449396
 30
0.0
 11
-6977.314088056115
 21
9537.6831962449396
 31
0.0
  0
LINE
  5
56BB
  8
FUTO
 10
-7243.710014897667
 20
9538.28319624494
 30
0.0
 11
-6977.314088056115
 21
9538.28319624494
 31
0.0
  0
LINE
  5
56BC
  8
FUTO
 10
-6996.3140880561132
 20
9530.9412464436009
 30
0.0
 11
-7216.3140880561132
 21
9530.9412464436009
 31
0.0
  0
LINE
  5
56C0
  8
FUTO
 10
-7252.3100148976646
 20
9546.2831962449418
 30
0.0
 11
-7252.3100148976646
 21
9642.7992966422662
 31
0.0
  0
LINE
  5
56C1
  8
FUTO
 10
-7251.7100148976651
 20
9546.2831962449418
 30
0.0
 11
-7251.7100148976651
 21
9642.7992966422662
 31
0.0
  0
LINE
  5
56C2
  8
CT
 10
-7106.3140880561132
 20
9755.0044460778463
 30
0.0
 11
-7106.3140880561132
 21
9317.6152575047108
 31
0.0
  0
ARC
  5
56CA
  8
FUTO
 10
-7243.710014897667
 20
9546.2831962449418
 30
0.0
 40
8.0
 50
180.0
 51
270.0
  0
ARC
  5
56CB
  8
FUTO
 10
-7243.710014897667
 20
9546.2831962449418
 30
0.0
 40
8.5999999999999996
 50
180.0
 51
270.0
  0
LINE
  5
56CC
  8
FUTO
 10
-7173.8140880561132
 20
9385.5944674621278
 30
0.0
 11
-7173.8140880561132
 21
9364.5944674621278
 31
0.0
  0
LINE
  5
56D2
  8
FUTO
 10
-7169.416912574
 20
9363.5944674621296
 30
0.0
 11
-7163.5777094761625
 21
9334.3983519728754
 31
0.0
  0
LINE
  5
56D3
  8
FUTO
 10
-7070.1051880561135
 20
9512.0803602373853
 30
0.0
 11
-7142.5770880561131
 21
9512.0803602373853
 31
0.0
  0
LINE
  5
56D4
  8
FUTO
 10
-7162.9140880561145
 20
9508.3803602373864
 30
0.0
 11
-7162.9140880561145
 21
9385.5944674621278
 31
0.0
  0
LINE
  5
56D5
  8
FUTO
 10
-7206.3140880561141
 20
9532.9412464436045
 30
0.0
 11
-7206.3140880561141
 21
9537.9412464436027
 31
0.0
  0
ARC
  5
56D6
  8
FUTO
 10
-7204.3140880561141
 20
9532.9412464436045
 30
0.0
 40
2.0
 50
180.0
 51
270.0
  0
LINE
  5
56D7
  8
CT
 10
-7196.3140880561123
 20
9524.3575731466008
 30
0.0
 11
-7196.3140880561123
 21
9535.3305936665893
 31
0.0
  0
LINE
  5
56D8
  8
FUTO
 10
-7162.9140880561145
 20
9508.4241602373877
 30
0.0
 11
-7162.9140880561145
 21
9497.0036602373875
 31
0.0
  0
LINE
  5
56D9
  8
FUTO
 10
-7144.0309880561126
 20
9511.9103602373852
 30
0.0
 11
-7158.8002880561125
 21
9508.4073602373865
 31
0.0
  0
ARC
  5
56DA
  8
FUTO
 10
-7159.0310880561137
 20
9509.3815602373852
 30
0.0
 40
1.0012000000000001
 50
270.00350000000259
 51
283.32969999999682
  0
ARC
  5
56DB
  8
FUTO
 10
-7142.5770880561131
 20
9505.7801602373875
 30
0.0
 40
6.3002000000000002
 50
89.99939999999819
 51
103.3420000000004
  0
LINE
  5
56DC
  8
FUTO
 10
-7115.3671880561133
 20
9515.0803602373853
 30
0.0
 11
-7097.260888056112
 21
9515.0803602373853
 31
0.0
  0
ARC
  5
56DD
  8
FUTO
 10
-7120.7281880561122
 20
9513.0800602373856
 30
0.0
 40
0.9996999999999999
 50
269.9964999999973
 51
315.00989999999808
  0
ARC
  5
56DE
  8
FUTO
 10
-7115.367088056114
 20
9510.3800602373867
 30
0.0
 40
4.7003000000000004
 50
90.001500000001286
 51
134.99839999999961
  0
LINE
  5
56DF
  8
FUTO
 10
-7113.814088056115
 20
9529.3412464436005
 30
0.0
 11
-7113.8140880561141
 21
9515.0803602373853
 31
0.0
  0
LINE
  5
56E0
  8
FUTO
 10
-7118.6906880561137
 20
9513.7037602373875
 30
0.0
 11
-7120.0211880561128
 21
9512.3732602373875
 31
0.0
  0
ARC
  5
56E1
  8
FUTO
 10
-7097.260888056112
 20
9510.3801602373878
 30
0.0
 40
4.7001999999999988
 50
45.001600000000238
 51
89.999999999999986
  0
LINE
  5
56E2
  8
FUTO
 10
-7098.8140880561159
 20
9529.3412464436005
 30
0.0
 11
-7098.8140880561132
 21
9515.0803602373853
 31
0.0
  0
ARC
  5
56E3
  8
FUTO
 10
-7091.8999880561132
 20
9513.0800602373856
 30
0.0
 40
0.9996999999999999
 50
224.9901000000018
 51
270.00350000000259
  0
LINE
  5
56E4
  8
FUTO
 10
-7093.9374880561127
 20
9513.7037602373875
 30
0.0
 11
-7092.6069880561154
 21
9512.3732602373875
 31
0.0
  0
ARC
  5
56E5
  8
FUTO
 10
-7070.1048880561129
 20
9505.7827602373873
 30
0.0
 40
6.2976000000000001
 50
75.681899999999942
 51
90.002200000000457
  0
ARC
  5
56EA
  8
FUTO
 10
-7243.710014897667
 20
9642.7992966422662
 30
0.0
 40
8.0
 50
110.6929608601327
 51
180.0
  0
ARC
  5
56EB
  8
FUTO
 10
-7243.710014897667
 20
9642.7992966422662
 30
0.0
 40
8.5999999999999996
 50
109.9504040098029
 51
180.0
  0
LINE
  5
56EF
  8
FUTO
 10
-6977.3140880561132
 20
9671.5412464436013
 30
0.0
 11
-6977.314088056115
 21
9517.5412464436013
 31
0.0
  0
LINE
  5
56F0
  8
FUTO
 10
-6976.3140880561132
 20
9671.5412464436013
 30
0.0
 11
-6976.3140880561132
 21
9517.5412464436013
 31
0.0
  0
LINE
  5
56F1
  8
FUTO
 10
-6991.3140880561132
 20
9552.1270328812316
 30
0.0
 11
-6991.3140880561132
 21
9636.955460005971
 31
0.0
  0
LINE
  5
56FA
  8
FUTO
 10
-7043.2112635382246
 20
9363.5944674621314
 30
0.0
 11
-7049.0504666360648
 21
9334.3983519728754
 31
0.0
  0
LINE
  5
5700
  8
FUTO
 10
-6976.3140880561132
 20
9517.5412464436013
 30
0.0
 11
-6977.314088056115
 21
9517.5412464436013
 31
0.0
  0
LINE
  5
5701
  8
CT
 10
-6971.8105341487362
 20
9527.5412464436013
 30
0.0
 11
-6981.817641963492
 21
9527.5412464436013
 31
0.0
  0
LINE
  5
5702
  8
FUTO
 10
-7049.7140880561128
 20
9508.3803602373864
 30
0.0
 11
-7049.7140880561146
 21
9385.5944674621314
 31
0.0
  0
ARC
  5
5703
  8
FUTO
 10
-7054.6890880561141
 20
9509.3752602373861
 30
0.0
 40
0.9948999999999999
 50
255.64230000000131
 51
270.03160000000111
  0
LINE
  5
5704
  8
FUTO
 10
-6979.7283016184856
 20
9540.5412464435994
 30
0.0
 11
-6991.3140880561132
 21
9552.1270328812316
 31
0.0
  0
ARC
  5
5705
  8
FUTO
 10
-7008.3140880561132
 20
9532.9412464436045
 30
0.0
 40
2.0
 50
270.0
 51
359.99999999999989
  0
LINE
  5
5706
  8
CT
 10
-7016.3140880561132
 20
9524.3575731466008
 30
0.0
 11
-7016.3140880561132
 21
9535.3305936665893
 31
0.0
  0
LINE
  5
5707
  8
FUTO
 10
-7006.3140880561141
 20
9532.9412464436045
 30
0.0
 11
-7006.3140880561141
 21
9537.9412464436027
 31
0.0
  0
LINE
  5
5708
  8
FUTO
 10
-6996.3140880561132
 20
9530.9412464436009
 30
0.0
 11
-6996.3140880561132
 21
9529.3412464436005
 31
0.0
  0
LINE
  5
570A
  8
FUTO
 10
-6979.7283016184856
 20
9540.5412464435994
 30
0.0
 11
-6979.7283016184856
 21
9538.5412464436013
 31
0.0
  0
LINE
  5
570C
  8
FUTO
 10
-6976.3140880561132
 20
9671.5412464436013
 30
0.0
 11
-6977.314088056115
 21
9671.5412464436013
 31
0.0
  0
LINE
  5
570D
  8
CT
 10
-6971.8105341487362
 20
9661.5412464436031
 30
0.0
 11
-6981.817641963492
 21
9661.5412464436031
 31
0.0
  0
LINE
  5
570F
  8
FUTO
 10
-6979.7283016184856
 20
9648.5412464436013
 30
0.0
 11
-6991.3140880561132
 21
9636.955460005971
 31
0.0
  0
LINE
  5
5710
  8
FUTO
 10
-6979.7283016184856
 20
9648.5412464436013
 30
0.0
 11
-6979.7283016184856
 21
9650.5412464436013
 31
0.0
  0
DIMENSION
  5
5715
  8
SP
  2
*D7
 10
-6290.6730335252141
 20
8985.6761894656483
 30
0.0
 11
-6346.6730335252141
 21
9010.6761894656483
 31
0.0
 70
     0
 13
-6402.6730335252141
 23
8890.0350884091895
 33
0.0
 14
-6290.6730335252141
 24
8888.4761894656476
 34
0.0
  0
DIMENSION
  5
5716
  8
SP
  2
*D6
 10
-6283.6730335252141
 20
9055.6761894656483
 30
0.0
 11
-6197.3708296225286
 21
9080.6761894656483
 31
0.0
 70
     0
 13
-6346.6730335252141
 23
9025.6761894656483
 33
0.0
 14
-6283.6730335252141
 24
8831.6761894656483
 34
0.0
  0
DIMENSION
  5
5717
  8
SP
  2
*D5
 10
-6607.6198125066849
 20
9055.6761894656483
 30
0.0
 11
-6477.146423015949
 21
9080.6761894656483
 31
0.0
 70
     0
  1
（330）
 13
-6346.6730335252141
 23
9025.6761894656483
 33
0.0
 14
-6607.6198125066849
 24
8790.2404894656502
 34
0.0
  0
LINE
  5
5718
  8
FUTO
 10
-6393.6730335252141
 20
8895.6761894656483
 30
0.0
 11
-6299.6730335252141
 21
8895.6761894656483
 31
0.0
  0
LINE
  5
5719
  8
FUTO
 10
-6403.6730335252141
 20
8915.6761894656465
 30
0.0
 11
-6289.673033525215
 21
8915.6761894656465
 31
0.0
  0
LINE
  5
571A
  8
FUTO
 10
-6403.6730335252141
 20
8711.6761894656483
 30
0.0
 11
-6289.673033525215
 21
8711.6761894656483
 31
0.0
  0
LINE
  5
571B
  8
FUTO
 10
-6393.6730335252141
 20
8731.6761894656483
 30
0.0
 11
-6299.6730335252141
 21
8731.6761894656483
 31
0.0
  0
LINE
  5
571C
  8
HOSO
 10
-6400.744101337079
 20
8892.7472572775168
 30
0.0
 11
-6292.6019657133493
 21
8734.6051216537835
 31
0.0
  0
LINE
  5
571D
  8
HOSO
 10
-6292.6019657133493
 20
8892.7472572775168
 30
0.0
 11
-6400.744101337079
 21
8734.6051216537835
 31
0.0
  0
LINE
  5
571E
  8
CT
 10
-6638.9745793185284
 20
8733.6761894656483
 30
0.0
 11
-6252.4748453640641
 21
8733.6761894656483
 31
0.0
  0
LINE
  5
571F
  8
FUTO
 10
-6394.6730335252141
 20
8620.6810555717057
 30
0.0
 11
-6298.1569331278906
 21
8620.6810555717057
 31
0.0
  0
LINE
  5
5720
  8
FUTO
 10
-6394.6730335252141
 20
8620.0810555717071
 30
0.0
 11
-6298.1569331278906
 21
8620.0810555717071
 31
0.0
  0
DIMENSION
  5
5722
  8
SP
  2
*D3
 10
-6201.6730335252141
 20
8341.6761894656483
 30
0.0
 11
-6426.673033525215
 21
8366.6761894656502
 31
0.0
 70
     0
 13
-6651.673033525215
 23
8511.6761894656502
 33
0.0
 14
-6201.6730335252141
 24
8511.6761894656502
 34
0.0
  0
DIMENSION
  5
5723
  8
SP
  2
*D2
 10
-6651.673033525215
 20
8411.6761894656502
 30
0.0
 11
-6499.1730335252141
 21
8436.6761894656502
 31
0.0
 70
     0
 13
-6346.6730335252141
 23
8452.40506451482
 33
0.0
 14
-6651.673033525215
 24
8511.6761894656483
 34
0.0
  0
LINE
  5
5725
  8
FUTO
 10
-6409.673033525215
 20
8712.6323631542964
 30
0.0
 11
-6409.673033525215
 21
8533.6761894656502
 31
0.0
  0
LINE
  5
5726
  8
FUTO
 10
-6411.2730335252154
 20
8713.222052562327
 30
0.0
 11
-6411.2730335252154
 21
8533.6761894656502
 31
0.0
  0
LINE
  5
5727
  8
FUTO
 10
-6579.6730335252141
 20
8535.2761894656487
 30
0.0
 11
-6469.6730335252141
 21
8706.8761894656491
 31
0.0
  0
LINE
  5
5728
  8
FUTO
 10
-6409.673033525215
 20
8533.6761894656502
 30
0.0
 11
-6579.6730335252141
 21
8533.6761894656502
 31
0.0
  0
LINE
  5
5729
  8
FUTO
 10
-6411.2730335252154
 20
8535.2761894656487
 30
0.0
 11
-6579.6730335252141
 21
8535.2761894656487
 31
0.0
  0
LINE
  5
572B
  8
FUTO
 10
-6579.6730335252141
 20
8533.6761894656502
 30
0.0
 11
-6579.6730335252141
 21
8535.2761894656487
 31
0.0
  0
LINE
  5
572C
  8
FUTO
 10
-6548.6198125066858
 20
8673.4761894656513
 30
0.0
 11
-6525.963912506686
 21
8673.4761894656513
 31
0.0
  0
LINE
  5
572D
  8
FUTO
 10
-6526.7882125066862
 20
8684.4708894656505
 30
0.0
 11
-6540.6198125066867
 21
8684.4708894656505
 31
0.0
  0
LINE
  5
572E
  8
FUTO
 10
-6437.3198125066856
 20
8790.7761894656505
 30
0.0
 11
-6555.6198125066858
 21
8790.7761894656505
 31
0.0
  0
LINE
  5
572F
  8
FUTO
 10
-6548.6198125066858
 20
8671.1761894656483
 30
0.0
 11
-6525.9637125066856
 21
8671.1761894656483
 31
0.0
  0
LINE
  5
5730
  8
FUTO
 10
-6582.4730335252143
 20
8670.6761894656483
 30
0.0
 11
-6492.878161730343
 21
8670.6761894656483
 31
0.0
  0
LINE
  5
5731
  8
FUTO
 10
-6582.4730335252143
 20
8669.0761894656498
 30
0.0
 11
-6493.9038027559827
 21
8669.0761894656462
 31
0.0
  0
LINE
  5
5732
  8
FUTO
 10
-6538.8717472671742
 20
8598.9261960281892
 30
0.0
 11
-6577.0869940714956
 21
8669.0761894656498
 31
0.0
  0
LINE
  5
5733
  8
FUTO
 10
-6577.6198125066858
 20
8793.1761894656483
 30
0.0
 11
-6577.6198125066858
 21
8674.1761894656483
 31
0.0
  0
LINE
  5
5734
  8
FUTO
 10
-6555.6198125066858
 20
8673.1761894656483
 30
0.0
 11
-6555.6198125066858
 21
8794.1761894656483
 31
0.0
  0
LINE
  5
5735
  8
FUTO
 10
-6607.6198125066849
 20
8790.2404894656502
 30
0.0
 11
-6607.6198125066849
 21
8677.1117894656509
 31
0.0
  0
LINE
  5
5736
  8
FUTO
 10
-6548.6198125066858
 20
8671.1761894656483
 30
0.0
 11
-6548.6198125066858
 21
8676.4708894656505
 31
0.0
  0
LINE
  5
5737
  8
CT
 10
-6538.6198125066849
 20
8679.4076394656495
 30
0.0
 11
-6538.6198125066849
 21
8667.5447394656494
 31
0.0
  0
ARC
  5
5738
  8
FUTO
 10
-6582.4730335252143
 20
8667.4761894656494
 30
0.0
 40
1.6000000000000001
 50
90.0
 51
180.0
  0
LINE
  5
5739
  8
FUTO
 10
-6584.0730335252128
 20
8652.2761894656505
 30
0.0
 11
-6584.0730335252128
 21
8667.4761894656494
 31
0.0
  0
LINE
  5
573A
  8
FUTO
 10
-6585.6730335252141
 20
8652.2761894656505
 30
0.0
 11
-6585.6730335252141
 21
8667.4761894656494
 31
0.0
  0
LINE
  5
573B
  8
FUTO
 10
-6585.6730335252141
 20
8652.2761894656505
 30
0.0
 11
-6584.0730335252128
 21
8652.2761894656505
 31
0.0
  0
ARC
  5
573C
  8
FUTO
 10
-6582.4730335252143
 20
8667.4761894656494
 30
0.0
 40
3.2000000000000002
 50
90.0
 51
180.0
  0
LINE
  5
573D
  8
FUTO
 10
-6577.6198125066858
 20
8674.1761894656483
 30
0.0
 11
-6606.6863125066866
 21
8676.113989465648
 31
0.0
  0
ARC
  5
573E
  8
FUTO
 10
-6606.6197125066856
 20
8677.1118894656502
 30
0.0
 40
1.0000999999999991
 50
180.00699999999881
 51
266.17900000000071
  0
LINE
  5
573F
  8
FUTO
 10
-6555.6198125066858
 20
8673.1761894656483
 30
0.0
 11
-6576.6198125066858
 21
8673.1761894656483
 31
0.0
  0
ARC
  5
5740
  8
FUTO
 10
-6576.6197125066874
 20
8674.1761894656483
 30
0.0
 40
1.0000999999999991
 50
180.0
 51
269.9964999999973
  0
ARC
  5
5741
  8
FUTO
 10
-6540.6198125066867
 20
8676.4708894656505
 30
0.0
 40
8.0
 50
90.0
 51
180.0
  0
LINE
  5
5742
  8
FUTO
 10
-6548.6198125066858
 20
8677.5761894656498
 30
0.0
 11
-6555.6198125066858
 21
8677.5761894656498
 31
0.0
  0
LINE
  5
5747
  8
FUTO
 10
-6437.3198125066856
 20
8790.7761894656505
 30
0.0
 11
-6437.3198125066856
 21
8739.2294104841767
 31
0.0
  0
LINE
  5
5748
  8
FUTO
 10
-6439.6198125066858
 20
8790.7761894656505
 30
0.0
 11
-6439.6198125066876
 21
8736.9294104841756
 31
0.0
  0
LINE
  5
5749
  8
FUTO
 10
-6423.673033525215
 20
8895.6761894656483
 30
0.0
 11
-6423.673033525215
 21
8731.6761894656483
 31
0.0
  0
LINE
  5
574A
  8
FUTO
 10
-6403.6730335252141
 20
8885.6761894656483
 30
0.0
 11
-6403.6730335252141
 21
8741.6761894656483
 31
0.0
  0
LINE
  5
574B
  8
FUTO
 10
-6403.2730335252136
 20
8738.8761894656509
 30
0.0
 11
-6403.2730335252136
 21
8888.4761894656476
 31
0.0
  0
LINE
  5
574C
  8
FUTO
 10
-6402.6730335252141
 20
8737.3172905221127
 30
0.0
 11
-6402.6730335252141
 21
8890.0350884091895
 31
0.0
  0
LINE
  5
574E
  8
FUTO
 10
-6469.6730335252141
 20
8706.8761894656491
 30
0.0
 11
-6423.5629861094412
 21
8752.9862368814211
 31
0.0
  0
ARC
  5
574F
  8
FUTO
 10
-6525.9637125066856
 20
8676.4760894656501
 30
0.0
 40
5.2999000000000001
 50
269.99929999999461
 51
326.34979999999467
  0
LINE
  5
5750
  8
FUTO
 10
-6521.5946125066857
 20
8673.4761894656513
 30
0.0
 11
-6491.08328993547
 21
8673.4761894656513
 31
0.0
  0
LINE
  5
5751
  8
FUTO
 10
-6484.8705125066854
 20
8693.5362894656519
 30
0.0
 11
-6512.3691125066871
 21
8693.5362894656519
 31
0.0
  0
ARC
  5
5752
  8
FUTO
 10
-6512.3691125066871
 20
8685.5363894656493
 30
0.0
 40
7.9999000000000002
 50
90.0
 51
166.00459999999899
  0
LINE
  5
5753
  8
FUTO
 10
-6520.1316125066869
 20
8687.4710894656491
 30
0.0
 11
-6523.052912506686
 21
8675.750689465649
 31
0.0
  0
ARC
  5
5754
  8
FUTO
 10
-6526.7882125066862
 20
8692.4708894656505
 30
0.0
 40
8.0
 50
270.0
 51
334.31590000000028
  0
ARC
  5
5755
  8
FUTO
 10
-6525.963912506686
 20
8676.4761894656513
 30
0.0
 40
3.0
 50
270.0
 51
346.0048000000026
  0
ARC
  5
5756
  8
FUTO
 10
-6484.8706125066874
 20
8685.53628946565
 30
0.0
 40
8.0000999999999998
 50
48.146064575382901
 51
89.999599999998821
  0
LINE
  5
5757
  8
FUTO
 10
-6402.6730335252141
 20
8628.6810555717057
 30
0.0
 11
-6402.6730335252141
 21
8711.6761894656483
 31
0.0
  0
LINE
  5
5758
  8
FUTO
 10
-6403.2730335252136
 20
8628.6810555717057
 30
0.0
 11
-6403.2730335252136
 21
8711.6761894656483
 31
0.0
  0
LINE
  5
5759
  8
FUTO
 10
-6409.673033525215
 20
8712.5974054373128
 30
0.0
 11
-6409.673033525215
 21
8634.3352785927073
 31
0.0
  0
LINE
  5
575A
  8
FUTO
 10
-6403.2730335252127
 20
8633.6761894656483
 30
0.0
 11
-6408.1891339225367
 21
8633.6761894656483
 31
0.0
  0
ARC
  5
575B
  8
FUTO
 10
-6408.1891339225367
 20
8635.6761894656483
 30
0.0
 40
2.0
 50
222.10222534308949
 51
270.0
  0
ARC
  5
575C
  8
FUTO
 10
-6394.6730335252141
 20
8628.6810555717057
 30
0.0
 40
8.0
 50
180.0
 51
270.0
  0
ARC
  5
575D
  8
FUTO
 10
-6394.6730335252141
 20
8628.6810555717057
 30
0.0
 40
8.5999999999999996
 50
180.0
 51
270.0
  0
LINE
  5
575E
  8
CT
 10
-6398.9463703122383
 20
8643.6761894656483
 30
0.0
 11
-6413.4517575199216
 21
8643.6761894656483
 31
0.0
  0
LINE
  5
575F
  8
CT
 10
-6421.0543582296723
 20
8763.6761894656483
 30
0.0
 11
-6406.291708820756
 21
8763.6761894656483
 31
0.0
  0
CIRCLE
  5
5760
  8
FUTO
 10
-6413.6730335252132
 20
8763.6761894656483
 30
0.0
 40
4.0
  0
ARC
  5
5761
  8
FUTO
 10
-6403.6730335252141
 20
8731.6761894656483
 30
0.0
 40
20.0
 50
180.0
 51
270.0
  0
LINE
  5
5762
  8
FUTO
 10
-6433.8154125066858
 20
8771.9427894656492
 30
0.0
 11
-6437.2887125066873
 21
8785.5544894656487
 31
0.0
  0
ARC
  5
5763
  8
FUTO
 10
-6436.3249125066868
 20
8785.8011894656483
 30
0.0
 40
0.9948999999999999
 50
179.9683999999987
 51
194.35769999999849
  0
LINE
  5
5764
  8
FUTO
 10
-6433.6198125066858
 20
8770.3850894656498
 30
0.0
 11
-6433.6198125066858
 21
8742.9294104841756
 31
0.0
  0
ARC
  5
5765
  8
FUTO
 10
-6432.6201125066873
 20
8748.5902894656501
 30
0.0
 40
0.9996999999999999
 50
179.99649999999721
 51
225.00989999999811
  0
LINE
  5
5766
  8
FUTO
 10
-6431.9964125066881
 20
8746.5527894656461
 30
0.0
 11
-6433.3269125066881
 21
8747.8832894656462
 31
0.0
  0
ARC
  5
5767
  8
FUTO
 10
-6435.3200125066878
 20
8743.2293894656523
 30
0.0
 40
4.7001999999999988
 50
27.487694404129169
 51
44.99839999999972
  0
ARC
  5
5768
  8
FUTO
 10
-6439.9174125066857
 20
8770.3853894656495
 30
0.0
 40
6.2976000000000001
 50
359.99779999999942
 51
14.31810000000004
  0
LINE
  5
5769
  8
CT
 10
-6394.0543582296732
 20
8721.6761894656502
 30
0.0
 11
-6379.291708820756
 21
8721.6761894656502
 31
0.0
  0
LINE
  5
576A
  8
CT
 10
-6386.6730335252141
 20
8729.0575141701083
 30
0.0
 11
-6386.6730335252141
 21
8714.2948647611902
 31
0.0
  0
CIRCLE
  5
576B
  8
FUTO
 10
-6386.6730335252141
 20
8721.6761894656483
 30
0.0
 40
4.0
  0
ARC
  5
576C
  8
FUTO
 10
-6393.6730335252141
 20
8741.6761894656483
 30
0.0
 40
10.0
 50
180.0
 51
270.0
  0
LINE
  5
576D
  8
CT
 10
-6413.6730335252132
 20
8771.0575141701083
 30
0.0
 11
-6413.6730335252132
 21
8756.294864761192
 31
0.0
  0
LINE
  5
576E
  8
CT
 10
-6386.6730335252141
 20
8898.294864761192
 30
0.0
 11
-6386.6730335252141
 21
8913.0575141701083
 31
0.0
  0
ARC
  5
576F
  8
FUTO
 10
-6403.6730335252141
 20
8895.6761894656483
 30
0.0
 40
20.0
 50
90.0
 51
180.0
  0
CIRCLE
  5
5770
  8
FUTO
 10
-6386.6730335252141
 20
8905.6761894656483
 30
0.0
 40
4.0
  0
LINE
  5
5771
  8
CT
 10
-6421.0543582296723
 20
8863.6761894656483
 30
0.0
 11
-6406.291708820756
 21
8863.6761894656483
 31
0.0
  0
CIRCLE
  5
5772
  8
FUTO
 10
-6413.6730335252132
 20
8863.6761894656483
 30
0.0
 40
4.0
  0
ARC
  5
5773
  8
FUTO
 10
-6393.6730335252141
 20
8885.6761894656483
 30
0.0
 40
10.0
 50
90.0
 51
180.0
  0
LINE
  5
5774
  8
CT
 10
-6413.6730335252132
 20
8871.0575141701083
 30
0.0
 11
-6413.6730335252132
 21
8856.294864761192
 31
0.0
  0
LINE
  5
5775
  8
CT
 10
-6394.0543582296732
 20
8905.6761894656483
 30
0.0
 11
-6379.291708820756
 21
8905.6761894656483
 31
0.0
  0
LINE
  5
5776
  8
CT
 10
-6346.6730335252141
 20
8452.40506451482
 30
0.0
 11
-6346.6730335252141
 21
8924.9094297356478
 31
0.0
  0
DIMENSION
  5
5777
  8
SP
  2
*D4
 10
-6201.6730335252141
 20
8411.6761894656502
 30
0.0
 11
-6274.1730335252141
 21
8436.6761894656502
 31
0.0
 70
     0
 13
-6346.6730335252141
 23
8452.40506451482
 33
0.0
 14
-6201.6730335252141
 24
8511.6761894656502
 34
0.0
  0
DIMENSION
  5
5779
  8
SP
  2
*D1
 10
-6196.8566413507906
 20
8653.6761894656465
 30
0.0
 11
-6221.8566413507906
 21
8733.6761894656447
 31
0.0
 70
     0
 13
-6283.6730335252141
 23
8813.6761894656483
 33
0.0
 14
-6283.6730335252141
 24
8653.6761894656465
 34
0.0
 50
90.0
1001
ACAD
1000
DSTYLE
1002
{
1070
     3
1000
φ<>
1002
}
  0
LINE
  5
577A
  8
FUTO
 10
-6289.673033525215
 20
8885.6761894656483
 30
0.0
 11
-6289.673033525215
 21
8741.6761894656483
 31
0.0
  0
LINE
  5
577B
  8
FUTO
 10
-6269.6730335252141
 20
8895.6761894656483
 30
0.0
 11
-6269.6730335252141
 21
8731.6761894656483
 31
0.0
  0
LINE
  5
577C
  8
FUTO
 10
-6290.6730335252141
 20
8737.3172905221127
 30
0.0
 11
-6290.6730335252141
 21
8890.0350884091895
 31
0.0
  0
LINE
  5
577D
  8
FUTO
 10
-6290.0730335252138
 20
8738.8761894656509
 30
0.0
 11
-6290.0730335252138
 21
8888.4761894656476
 31
0.0
  0
LINE
  5
577E
  8
FUTO
 10
-6283.6730335252141
 20
8831.6761894656483
 30
0.0
 11
-6283.6730335252141
 21
8713.2886948957112
 31
0.0
  0
ARC
  5
577F
  8
FUTO
 10
-6299.6730335252141
 20
8741.6761894656483
 30
0.0
 40
10.0
 50
270.0
 51
0.0
  0
ARC
  5
5780
  8
FUTO
 10
-6298.1569331278906
 20
8628.6810555717057
 30
0.0
 40
8.0
 50
270.0
 51
339.30703913986719
  0
ARC
  5
5781
  8
FUTO
 10
-6298.1569331278906
 20
8628.6810555717057
 30
0.0
 40
8.5999999999999996
 50
270.0
 51
340.04959599019708
  0
LINE
  5
5782
  8
CT
 10
-6294.39969673819
 20
8643.6761894656483
 30
0.0
 11
-6279.8943095305049
 21
8643.6761894656483
 31
0.0
  0
LINE
  5
5783
  8
FUTO
 10
-6347.8730335252149
 20
8617.6810555717057
 30
0.0
 11
-6347.8730335252149
 21
8610.8810555717082
 31
0.0
  0
LINE
  5
5784
  8
FUTO
 10
-6345.4730335252134
 20
8617.6810555717057
 30
0.0
 11
-6345.4730335252134
 21
8610.8810555717082
 31
0.0
  0
ARC
  5
5785
  8
FUTO
 10
-6346.6730335252141
 20
8610.8810555717082
 30
0.0
 40
1.1999999999999991
 50
180.0
 51
0.0
  0
ARC
  5
5786
  8
FUTO
 10
-6350.8730335252149
 20
8617.6810555717057
 30
0.0
 40
3.0
 50
0.0
 51
53.130102354173353
  0
ARC
  5
5787
  8
FUTO
 10
-6342.4730335252134
 20
8617.6810555717057
 30
0.0
 40
3.0
 50
126.8698976458266
 51
180.0
  0
LINE
  5
5788
  8
CT
 10
-6299.291708820756
 20
8721.6761894656502
 30
0.0
 11
-6314.0543582296723
 21
8721.6761894656502
 31
0.0
  0
CIRCLE
  5
5789
  8
FUTO
 10
-6306.6730335252141
 20
8721.6761894656483
 30
0.0
 40
4.0
  0
LINE
  5
578A
  8
CT
 10
-6306.6730335252141
 20
8729.0575141701083
 30
0.0
 11
-6306.6730335252141
 21
8714.2948647611902
 31
0.0
  0
LINE
  5
578B
  8
FUTO
 10
-6290.0730335252138
 20
8625.7466787700996
 30
0.0
 11
-6290.0730335252138
 21
8711.6761894656483
 31
0.0
  0
LINE
  5
578C
  8
FUTO
 10
-6290.6730335252141
 20
8625.8541762433561
 30
0.0
 11
-6290.6730335252141
 21
8711.6761894656483
 31
0.0
  0
LINE
  5
578D
  8
FUTO
 10
-6283.6730335252141
 20
8713.2886948957112
 30
0.0
 11
-6283.6730335252141
 21
8634.3352785927073
 31
0.0
  0
ARC
  5
578E
  8
FUTO
 10
-6285.1569331278924
 20
8635.6761894656483
 30
0.0
 40
2.0
 50
270.0
 51
317.89777465691043
  0
LINE
  5
578F
  8
FUTO
 10
-6290.0730335252138
 20
8633.6761894656483
 30
0.0
 11
-6285.1569331278924
 21
8633.6761894656483
 31
0.0
  0
LINE
  5
5790
  8
CT
 10
-6290.6730335252141
 20
8653.6761894656465
 30
0.0
 11
-6290.0730335252147
 21
8653.6761894656465
 31
0.0
  0
LINE
  5
5791
  8
CT
 10
-6290.6730335252141
 20
8653.6761894656465
 30
0.0
 11
-6290.0730335252147
 21
8653.6761894656465
 31
0.0
  0
ARC
  5
5792
  8
FUTO
 10
-6289.673033525215
 20
8731.6761894656483
 30
0.0
 40
20.0
 50
270.0
 51
0.0
  0
CIRCLE
  5
5793
  8
FUTO
 10
-6279.6730335252141
 20
8763.6761894656483
 30
0.0
 40
4.0
  0
LINE
  5
5794
  8
CT
 10
-6279.6730335252141
 20
8771.0575141701083
 30
0.0
 11
-6279.6730335252141
 21
8756.294864761192
 31
0.0
  0
LINE
  5
5795
  8
CT
 10
-6272.291708820755
 20
8763.6761894656483
 30
0.0
 11
-6287.0543582296723
 21
8763.6761894656483
 31
0.0
  0
ARC
  5
5796
  8
FUTO
 10
-6299.6730335252141
 20
8885.6761894656483
 30
0.0
 40
10.0
 50
0.0
 51
90.0
  0
LINE
  5
5797
  8
CT
 10
-6294.39969673819
 20
8823.6761894656483
 30
0.0
 11
-6279.8943095305049
 21
8823.6761894656483
 31
0.0
  0
LINE
  5
5798
  8
CT
 10
-6306.6730335252141
 20
8898.294864761192
 30
0.0
 11
-6306.6730335252141
 21
8913.0575141701083
 31
0.0
  0
CIRCLE
  5
5799
  8
FUTO
 10
-6306.6730335252141
 20
8905.6761894656483
 30
0.0
 40
4.0
  0
LINE
  5
579A
  8
SP
 10
-6346.6730335252141
 20
8930.6751183490833
 30
0.0
 11
-6346.6730335252141
 21
8979.6890191853054
 31
0.0
  0
LINE
  5
579B
  8
CT
 10
-6299.291708820756
 20
8905.6761894656483
 30
0.0
 11
-6314.0543582296723
 21
8905.6761894656483
 31
0.0
  0
ARC
  5
579C
  8
FUTO
 10
-6289.673033525215
 20
8895.6761894656483
 30
0.0
 40
20.0
 50
0.0
 51
90.0
  0
POINT
  5
579D
  8
FUTO
 10
-6283.6730335252141
 20
8831.6761894656483
 30
0.0
  0
POINT
  5
579E
  8
FUTO
 10
-6283.6730335252141
 20
8831.6761894656483
 30
0.0
  0
ARC
  5
579F
  8
FUTO
 10
-6285.6730335252141
 20
8831.6761894656483
 30
0.0
 40
2.0
 50
0.0
 51
90.0
  0
LINE
  5
57A0
  8
FUTO
 10
-6290.0730335252138
 20
8833.6761894656483
 30
0.0
 11
-6285.6730335252141
 21
8833.6761894656483
 31
0.0
  0
LINE
  5
57A1
  8
CT
 10
-6290.6730335252141
 20
8813.6761894656483
 30
0.0
 11
-6290.0730335252147
 21
8813.6761894656483
 31
0.0
  0
LINE
  5
57A2
  8
CT
 10
-6272.291708820755
 20
8863.6761894656483
 30
0.0
 11
-6287.0543582296723
 21
8863.6761894656483
 31
0.0
  0
LINE
  5
57A3
  8
CT
 10
-6279.6730335252141
 20
8871.0575141701083
 30
0.0
 11
-6279.6730335252141
 21
8856.294864761192
 31
0.0
  0
CIRCLE
  5
57A4
  8
FUTO
 10
-6279.6730335252141
 20
8863.6761894656483
 30
0.0
 40
4.0
  0
POINT
  5
57A5
  8
DEFPOINTS
 10
-6289.673033525215
 20
8915.6761894656465
 30
0.0
  0
LINE
  5
5ADF
  8
FUTO
 10
-6577.6198125066858
 20
8793.1761894656483
 30
0.0
 11
-6606.6863125066866
 21
8791.2383894656487
 31
0.0
  0
ARC
  5
5AE0
  8
FUTO
 10
-6606.6197125066856
 20
8790.2404894656502
 30
0.0
 40
1.0000999999999991
 50
93.820999999999245
 51
180.00165729919689
  0
LINE
  5
5AEB
  8
FUTO
 10
-6555.6198125066858
 20
8794.1761894656483
 30
0.0
 11
-6576.6198125066858
 21
8794.1761894656483
 31
0.0
  0
ARC
  5
5AEC
  8
FUTO
 10
-6576.6197125066874
 20
8793.1761894656483
 30
0.0
 40
1.0000999999999991
 50
90.003500000002703
 51
180.0
  0
LINE
  5
5AF2
  8
FUTO
 10
-7162.5971286712929
 20
9333.5944674621296
 30
0.0
 11
-7050.0310474409334
 21
9333.5944674621296
 31
0.0
  0
ARC
  5
5AF5
  8
FUTO
 10
-7162.5971286712929
 20
9334.5944674621296
 30
0.0
 40
1.0
 50
191.30989473466261
 51
270.0
  0
ARC
  5
5AF6
  8
FUTO
 10
-7050.0310474409334
 20
9334.5944674621296
 30
0.0
 40
1.0
 50
270.0
 51
348.69010526533731
  0
LINE
  5
5B02
  8
FUTO
 10
-7216.3140880561132
 20
9530.9412464436009
 30
0.0
 11
-7216.3140880561132
 21
9529.3412464436005
 31
0.0
  0
LINE
  5
5B05
  8
FUTO
 10
-7246.3140880561132
 20
9709.5412464436013
 30
0.0
 11
-7246.3140880561132
 21
9650.8831962449403
 31
0.0
  0
LINE
  5
5B08
  8
FUTO
 10
-7246.3140880561132
 20
9531.5412464435994
 30
0.0
 11
-7216.3140880561132
 21
9531.5412464435994
 31
0.0
  0
LINE
  5
5B09
  8
FUTO
 10
-7216.3140880561132
 20
9361.5412464436013
 30
0.0
 11
-7246.3140880561132
 21
9361.5412464436013
 31
0.0
  0
LINE
  5
5B0A
  8
FUTO
 10
-6966.3140880561132
 20
9531.5412464435994
 30
0.0
 11
-6966.3140880561132
 21
9361.5412464436013
 31
0.0
  0
LINE
  5
5B0C
  8
FUTO
 10
-6996.3140880561132
 20
9361.5412464436013
 30
0.0
 11
-6966.3140880561132
 21
9361.5412464436013
 31
0.0
  0
LINE
  5
5B0D
  8
FUTO
 10
-6966.3140880561132
 20
9531.5412464435994
 30
0.0
 11
-6996.3140880561132
 21
9531.5412464435994
 31
0.0
  0
LINE
  5
5B0E
  8
FUTO
 10
-6996.3140880561141
 20
9355.5412464436013
 30
0.0
 11
-7044.8219022252879
 21
9355.5412464436013
 31
0.0
  0
LINE
  5
5B0F
  8
FUTO
 10
-7216.3140880561132
 20
9319.5412464436013
 30
0.0
 11
-7216.3140880561132
 21
9537.6831962449396
 31
0.0
  0
LINE
  5
5B10
  8
FUTO
 10
-6996.3140880561141
 20
9355.5412464436013
 30
0.0
 11
-6996.3140880561141
 21
9531.5412464435994
 31
0.0
  0
LINE
  5
5B11
  8
FUTO
 10
-7167.8062738869367
 20
9355.5412464436013
 30
0.0
 11
-7216.3140880561132
 21
9355.5412464436013
 31
0.0
  0
LINE
  5
5EE4
  8
FUTO
 10
-6977.3140880561132
 20
8915.6761894656483
 30
0.0
 11
-6977.3140880561132
 21
8896.6761894656483
 31
0.0
  0
ARC
  5
5EE5
  8
FUTO
 10
-7093.3140880561141
 20
8746.6761894656483
 30
0.0
 40
159.0
 50
89.999999999999986
 51
132.78469491064249
  0
LINE
  5
5EE6
  8
FUTO
 10
-6976.3140880561132
 20
8915.6761894656483
 30
0.0
 11
-6976.3140880561132
 21
8711.6761894656502
 31
0.0
  0
LINE
  5
5EE7
  8
CT
 10
-7271.5688564907859
 20
8733.6761894656483
 30
0.0
 11
-6960.4684556196898
 21
8733.6761894656483
 31
0.0
  0
LINE
  5
5EE8
  8
FUTO
 10
-6976.3140880561132
 20
8915.6761894656483
 30
0.0
 11
-6977.3140880561132
 21
8915.6761894656483
 31
0.0
  0
DIMENSION
  5
5EE9
  8
SP
  2
*D11
 10
-6861.3140880561132
 20
8733.6761894656483
 30
0.0
 11
-6886.3140880561141
 21
8633.6761894656465
 31
0.0
 70
     0
 13
-6966.3140880561132
 23
8533.6761894656502
 33
0.0
 14
-6960.4684556196898
 24
8733.6761894656483
 34
0.0
 50
90.0
  0
DIMENSION
  5
5EEA
  8
SP
  2
*D12
 10
-6861.3140880561132
 20
8893.6761894656483
 30
0.0
 11
-6886.3140880561141
 21
8813.6761894656465
 31
0.0
 70
     0
 13
-6960.4684556196898
 23
8733.6761894656483
 33
0.0
 14
-6976.3140880561132
 24
8893.6761894656483
 34
0.0
 50
90.0
  0
LINE
  5
5EEB
  8
FUTO
 10
-6979.7283016184856
 20
8736.0904030280199
 30
0.0
 11
-6991.3140880561132
 21
8747.6761894656502
 31
0.0
  0
DIMENSION
  5
5EEC
  8
SP
  2
*D10
 10
-7281.3140880561186
 20
8411.6761894656502
 30
0.0
 11
-7193.8140880561159
 21
8436.6761894656502
 31
0.0
 70
     0
 13
-7106.3140880561132
 23
8473.3272350085299
 33
0.0
 14
-7281.3140880561186
 24
8481.6761894656502
 34
0.0
 50
180.0
  0
LINE
  5
5EED
  8
FUTO
 10
-6977.3140880561132
 20
8896.6761894656483
 30
0.0
 11
-6977.3140880561132
 21
8711.6761894656502
 31
0.0
  0
DIMENSION
  5
5EEE
  8
SP
  2
*D9
 10
-7281.3140880561132
 20
8341.6761894656483
 30
0.0
 11
-7106.3140880561132
 21
8366.6761894656502
 31
0.0
 70
     0
 13
-6931.3140880561132
 23
8481.6761894656502
 33
0.0
 14
-7281.3140880561132
 24
8481.6761894656502
 34
0.0
 50
180.0
  0
LINE
  5
5EEF
  8
FUTO
 10
-7135.3122880561132
 20
8672.6761894656483
 30
0.0
 11
-7077.4133880561139
 21
8672.6761894656483
 31
0.0
  0
LINE
  5
5EF0
  8
FUTO
 10
-7071.3140880561123
 20
8838.6761894656483
 30
0.0
 11
-7141.3140880561132
 21
8838.6761894656483
 31
0.0
  0
LINE
  5
5EF1
  8
FUTO
 10
-7166.3140880561132
 20
8652.2761894656487
 30
0.0
 11
-7046.3140880561132
 21
8652.2761894656505
 31
0.0
  0
LINE
  5
5EF2
  8
FUTO
 10
-7001.1140880561125
 20
8670.6761894656483
 30
0.0
 11
-7211.5140880561121
 21
8670.6761894656483
 31
0.0
  0
CIRCLE
  5
5EF3
  8
CT
 10
-7106.3140880561132
 20
8733.6761894656483
 30
0.0
 40
90.0
  0
ARC
  5
5EF4
  8
FUTO
 10
-7106.3157528663396
 20
8729.9893426686776
 30
0.0
 40
64.186846818565385
 50
296.70688032493427
 51
243.2413754077248
  0
ARC
  5
5EF5
  8
FUTO
 10
-7117.3140880561123
 20
8744.6761894656483
 30
0.0
 40
135.0
 50
179.55492060374399
 51
270.48647758624008
  0
ARC
  5
5EF6
  8
FUTO
 10
-7117.3140880561123
 20
8744.6761894656483
 30
0.0
 40
123.0
 50
179.55492060374399
 51
270.48647758624008
  0
LINE
  5
5EF7
  8
FUTO
 10
-7214.7140880561119
 20
8536.6761894656502
 30
0.0
 11
-7214.7140880561119
 21
8765.2761894656505
 31
0.0
  0
LINE
  5
5EF8
  8
FUTO
 10
-7216.3140880561132
 20
8536.2139049737398
 30
0.0
 11
-7216.3140880561132
 21
8763.6761894656483
 31
0.0
  0
ARC
  5
5EF9
  8
FUTO
 10
-7093.3140880561141
 20
8746.6761894656483
 30
0.0
 40
147.0
 50
137.28135548563679
 51
180.4071282142686
  0
ARC
  5
5EFA
  8
FUTO
 10
-7093.3140880561141
 20
8746.6761894656483
 30
0.0
 40
159.0
 50
132.78469491064249
 51
180.4071282142686
  0
LINE
  5
5EFB
  8
FUTO
 10
-7214.7140880561119
 20
8584.8761894656491
 30
0.0
 11
-7214.7140880561119
 21
8668.4761894656476
 31
0.0
  0
LINE
  5
5EFC
  8
FUTO
 10
-7213.1140880561125
 20
8583.8761894656473
 30
0.0
 11
-7213.1140880561125
 21
8667.4761894656494
 31
0.0
  0
ARC
  5
5EFD
  8
FUTO
 10
-7093.3140880561141
 20
8746.6761894656483
 30
0.0
 40
147.0
 50
89.999999999999986
 51
137.28135548563679
  0
LINE
  5
5EFE
  8
FUTO
 10
-7217.3140880561132
 20
8535.2761894656505
 30
0.0
 11
-7246.3140880561132
 21
8535.2761894656505
 31
0.0
  0
LINE
  5
5EFF
  8
FUTO
 10
-7217.9140880561117
 20
8533.6761894656502
 30
0.0
 11
-7246.3140880561132
 21
8533.6761894656502
 31
0.0
  0
LINE
  5
5F00
  8
FUTO
 10
-7246.3140880561132
 20
8533.6761894656502
 30
0.0
 11
-7246.3140880561132
 21
8535.2761894656505
 31
0.0
  0
ARC
  5
5F01
  8
FUTO
 10
-7217.9140880561117
 20
8536.8761894656491
 30
0.0
 40
3.2000000000000002
 50
270.0
 51
359.99999999999989
  0
ARC
  5
5F02
  8
FUTO
 10
-7217.3140880561132
 20
8536.2761894656505
 30
0.0
 40
1.0
 50
270.0
 51
359.99999999999989
  0
ARC
  5
5F03
  8
FUTO
 10
-7214.7140880561119
 20
8533.6761894656502
 30
0.0
 40
3.0
 50
179.8805091064215
 51
179.99999999999989
  0
LINE
  5
5F04
  8
CT
 10
-7233.3140880561132
 20
8523.3514176007757
 30
0.0
 11
-7233.3140880561132
 21
8542.7003335502086
 31
0.0
  0
LINE
  5
5F05
  8
CT
 10
-7205.4798754372796
 20
8598.8761894656491
 30
0.0
 11
-7224.9540770478397
 21
8598.8761894656491
 31
0.0
  0
LINE
  5
5F06
  8
FUTO
 10
-7214.7140880561119
 20
8583.8761894656473
 30
0.0
 11
-7213.1140880561125
 21
8583.8761894656473
 31
0.0
  0
LINE
  5
5F07
  8
CT
 10
-7197.7781617747314
 20
8771.561849269794
 30
0.0
 11
-7181.148330189526
 21
8764.6735474872203
 31
0.0
  0
LINE
  5
5F08
  8
CT
 10
-7197.7781617747314
 20
8695.7905296615063
 30
0.0
 11
-7181.148330189526
 21
8702.6788314440782
 31
0.0
  0
LINE
  5
5F09
  8
FUTO
 10
-7200.0901326243584
 20
8670.6761894656483
 30
0.0
 11
-7166.3140880561132
 21
8652.2761894656505
 31
0.0
  0
LINE
  5
5F0A
  8
FUTO
 10
-7216.3140880561132
 20
8763.6761894656483
 30
0.0
 11
-7141.3140880561132
 21
8838.6761894656483
 31
0.0
  0
LINE
  5
5F0B
  8
FUTO
 10
-6991.3140880561132
 20
8879.6761894656502
 30
0.0
 11
-6991.3140880561132
 21
8747.6761894656502
 31
0.0
  0
LINE
  5
5F0C
  8
FUTO
 10
-6976.3140880561132
 20
8893.6761894656483
 30
0.0
 11
-7093.3140880561141
 21
8893.6761894656483
 31
0.0
  0
LINE
  5
5F0D
  8
FUTO
 10
-6991.3140880561132
 20
8905.6761894656483
 30
0.0
 11
-7093.3140880561141
 21
8905.6761894656483
 31
0.0
  0
LINE
  5
5F0E
  8
CT
 10
-7205.4798754372796
 20
8653.8761894656473
 30
0.0
 11
-7224.9540770478397
 21
8653.8761894656473
 31
0.0
  0
ARC
  5
5F0F
  8
FUTO
 10
-7211.5140880561121
 20
8667.4761894656494
 30
0.0
 40
1.6000000000000001
 50
89.999999999999986
 51
179.99999999999989
  0
ARC
  5
5F10
  8
FUTO
 10
-7211.5140880561121
 20
8667.4761894656494
 30
0.0
 40
3.2000000000000002
 50
89.999999999999986
 51
179.99999999999989
  0
LINE
  5
5F11
  8
FUTO
 10
-7197.1530852705982
 20
8669.0761894656498
 30
0.0
 11
-7211.5140880561121
 21
8669.0761894656498
 31
0.0
  0
LINE
  5
5F12
  8
FUTO
 10
-6979.7283016184856
 20
8891.2619759032768
 30
0.0
 11
-6991.3140880561132
 21
8879.6761894656502
 31
0.0
  0
LINE
  5
5F13
  8
FUTO
 10
-6991.3140880561132
 20
8905.6761894656483
 30
0.0
 11
-6991.3140880561132
 21
8893.6761894656483
 31
0.0
  0
ARC
  5
5F14
  8
FUTO
 10
-6979.3140880561132
 20
8896.6761894656483
 30
0.0
 40
2.0
 50
270.0
 51
0.0
  0
LINE
  5
5F15
  8
FUTO
 10
-6979.3140880561132
 20
8894.6761894656502
 30
0.0
 11
-6991.3140880561132
 21
8894.6761894656502
 31
0.0
  0
ARC
  5
5F16
  8
FUTO
 10
-6981.1425151808589
 20
8892.6761894656483
 30
0.0
 40
2.0
 50
315.00000000000909
 51
89.999999999999986
  0
LINE
  5
5F17
  8
CT
 10
-6969.1292424776811
 20
8905.6761894656483
 30
0.0
 11
-6985.6904018449441
 21
8905.6761894656483
 31
0.0
  0
CIRCLE
  5
5F18
  8
FUTO
 10
-7140.7555969689711
 20
8816.8253473916666
 30
0.0
 40
4.0
  0
LINE
  5
5F19
  8
CT
 10
-7144.199747860257
 20
8825.1402631842684
 30
0.0
 11
-7137.3114460776851
 21
8808.5104315990648
 31
0.0
  0
LINE
  5
5F1A
  8
FUTO
 10
-7170.3140880561132
 20
8672.9761894656476
 30
0.0
 11
-7141.4501880561129
 21
8672.9761894656476
 31
0.0
  0
LINE
  5
5F1B
  8
FUTO
 10
-7140.3140880561141
 20
8670.6761894656483
 30
0.0
 11
-7170.3140880561132
 21
8670.6761894656483
 31
0.0
  0
CIRCLE
  5
5F1C
  8
FUTO
 10
-7189.4632459821287
 20
8699.2346805527923
 30
0.0
 40
4.0
  0
LINE
  5
5F1D
  8
FUTO
 10
-7170.3140880561132
 20
8672.9761894656476
 30
0.0
 11
-7170.3140880561132
 21
8670.6761894656483
 31
0.0
  0
LINE
  5
5F1E
  8
FUTO
 10
-7155.898988056113
 20
8687.3912894656496
 30
0.0
 11
-7170.3140880561132
 21
8672.9761894656476
 31
0.0
  0
CIRCLE
  5
5F1F
  8
FUTO
 10
-7189.4632459821287
 20
8768.1176983785081
 30
0.0
 40
4.0
  0
LINE
  5
5F20
  8
FUTO
 10
-7140.3140880561141
 20
8671.2323894656474
 30
0.0
 11
-7140.3140880561141
 21
8670.6761894656483
 31
0.0
  0
ARC
  5
5F21
  8
FUTO
 10
-7141.1614880561128
 20
8677.1759894656498
 30
0.0
 40
5.9997999999999987
 50
278.11690000000289
 51
319.2816000000052
  0
ARC
  5
5F22
  8
FUTO
 10
-7141.4502880561131
 20
8676.6762894656495
 30
0.0
 40
3.7000999999999991
 50
265.39090000000562
 51
321.17369999999789
  0
LINE
  5
5F23
  8
CT
 10
-7144.199747860257
 20
8642.2121157470319
 30
0.0
 11
-7137.311446077686
 21
8658.8419473322356
 31
0.0
  0
CIRCLE
  5
5F24
  8
FUTO
 10
-7140.7555969689711
 20
8650.5270315396356
 30
0.0
 40
4.0
  0
LINE
  5
5F25
  8
FUTO
 10
-6997.9140880561126
 20
8536.8761894656491
 30
0.0
 11
-6997.9140880561126
 21
8765.2761894656505
 31
0.0
  0
LINE
  5
5F26
  8
FUTO
 10
-6996.3140880561132
 20
8536.2761894656505
 30
0.0
 11
-6996.3140880561132
 21
8763.6761894656502
 31
0.0
  0
LINE
  5
5F27
  8
FUTO
 10
-6999.514088056113
 20
8583.8761894656473
 30
0.0
 11
-6999.514088056113
 21
8667.4761894656494
 31
0.0
  0
LINE
  5
5F28
  8
FUTO
 10
-6997.9140880561126
 20
8583.8761894656473
 30
0.0
 11
-6997.9140880561126
 21
8667.4761894656494
 31
0.0
  0
LINE
  5
5F29
  8
CT
 10
-7106.3140880561132
 20
8923.5934657609978
 30
0.0
 11
-7106.3140880561132
 21
8473.3272350085299
 31
0.0
  0
DIMENSION
  5
5F2A
  8
SP
  2
*D8
 10
-6931.3140880561132
 20
8411.6761894656502
 30
0.0
 11
-7018.8140880561141
 21
8436.6761894656502
 31
0.0
 70
     0
 13
-7106.3140880561132
 23
8473.3272350085299
 33
0.0
 14
-6931.3140880561132
 24
8481.6761894656502
 34
0.0
 50
180.0
  0
LINE
  5
5F2B
  8
FUTO
 10
-6994.7140880561128
 20
8533.6761894656502
 30
0.0
 11
-6966.3140880561132
 21
8533.6761894656502
 31
0.0
  0
LINE
  5
5F2C
  8
FUTO
 10
-6995.3140880561132
 20
8535.2761894656505
 30
0.0
 11
-6966.3140880561132
 21
8535.2761894656505
 31
0.0
  0
LINE
  5
5F2D
  8
CT
 10
-6988.0056461375216
 20
8598.8761894656491
 30
0.0
 11
-7007.4798477480826
 21
8598.8761894656491
 31
0.0
  0
ARC
  5
5F2E
  8
FUTO
 10
-6995.3140880561132
 20
8536.2761894656505
 30
0.0
 40
1.0
 50
179.99999999999989
 51
270.0
  0
ARC
  5
5F2F
  8
FUTO
 10
-6994.7140880561128
 20
8536.8761894656491
 30
0.0
 40
3.2000000000000002
 50
179.99999999999989
 51
270.0
  0
LINE
  5
5F30
  8
FUTO
 10
-6997.9140880561126
 20
8583.8761894656473
 30
0.0
 11
-6999.514088056113
 21
8583.8761894656473
 31
0.0
  0
LINE
  5
5F31
  8
CT
 10
-6979.3140880561132
 20
8523.3514176007757
 30
0.0
 11
-6979.3140880561132
 21
8542.7003335502086
 31
0.0
  0
LINE
  5
5F32
  8
FUTO
 10
-6966.3140880561132
 20
8533.6761894656502
 30
0.0
 11
-6966.3140880561132
 21
8535.2761894656505
 31
0.0
  0
LINE
  5
5F33
  8
FUTO
 10
-7012.538043487868
 20
8670.6761894656483
 30
0.0
 11
-7046.3140880561132
 21
8652.2761894656505
 31
0.0
  0
LINE
  5
5F34
  8
FUTO
 10
-6996.3140880561132
 20
8763.6761894656502
 30
0.0
 11
-7071.3140880561123
 21
8838.6761894656483
 31
0.0
  0
ARC
  5
5F35
  8
FUTO
 10
-7115.3140880561141
 20
8724.6761894656483
 30
0.0
 40
103.0
 50
269.46838523774011
 51
355.73439108433359
  0
ARC
  5
5F36
  8
FUTO
 10
-7115.3140880561141
 20
8724.6761894656483
 30
0.0
 40
115.0
 50
269.46838523774011
 51
355.73439108433359
  0
CIRCLE
  5
5F37
  8
FUTO
 10
-7071.8725791432562
 20
8816.8253473916666
 30
0.0
 40
4.0
  0
LINE
  5
5F38
  8
CT
 10
-7068.4284282519693
 20
8825.1402631842666
 30
0.0
 11
-7075.3167300345413
 21
8808.5104315990648
 31
0.0
  0
ARC
  5
5F39
  8
FUTO
 10
-7071.2933880561141
 20
8677.1760894656509
 30
0.0
 40
5.9999000000000002
 50
219.05360000000061
 51
260.37079999999759
  0
LINE
  5
5F3A
  8
CT
 10
-7068.4284282519693
 20
8642.2121157470319
 30
0.0
 11
-7075.3167300345413
 21
8658.8419473322356
 31
0.0
  0
CIRCLE
  5
5F3B
  8
FUTO
 10
-7071.8725791432562
 20
8650.5270315396356
 30
0.0
 40
4.0
  0
ARC
  5
5F3C
  8
FUTO
 10
-7071.2354880561143
 20
8676.2763894656473
 30
0.0
 40
3.3001999999999989
 50
213.98149999999779
 51
269.9986999999993
  0
LINE
  5
5F3D
  8
FUTO
 10
-7056.9681880561138
 20
8687.6302894656492
 30
0.0
 11
-7042.3140880561132
 21
8672.9761894656476
 31
0.0
  0
LINE
  5
5F3E
  8
FUTO
 10
-7071.501488056113
 20
8672.9761894656476
 30
0.0
 11
-7042.5777880561127
 21
8672.9761894656476
 31
0.0
  0
LINE
  5
5F3F
  8
FUTO
 10
-7072.3140880561132
 20
8670.6761894656483
 30
0.0
 11
-7042.3140880561132
 21
8670.6761894656483
 31
0.0
  0
LINE
  5
5F40
  8
FUTO
 10
-7072.3140880561132
 20
8671.2520894656482
 30
0.0
 11
-7072.3140880561132
 21
8670.6761894656483
 31
0.0
  0
LINE
  5
5F41
  8
FUTO
 10
-7042.3140880561132
 20
8672.9761894656476
 30
0.0
 11
-7042.3140880561132
 21
8670.6761894656483
 31
0.0
  0
ARC
  5
5F42
  8
FUTO
 10
-7001.3140880561141
 20
8730.2219829226233
 30
0.0
 40
10.0
 50
294.61706395548578
 51
299.9999999999971
  0
ARC
  5
5F43
  8
FUTO
 10
-6994.6492630241264
 20
8715.6761894656483
 30
0.0
 40
6.0
 50
114.6170639554803
 51
175.73439108433371
  0
ARC
  5
5F44
  8
FUTO
 10
-6994.6492630241264
 20
8715.6761894656483
 30
0.0
 40
18.0
 50
95.306887336324465
 51
175.73439108433371
  0
ARC
  5
5F45
  8
FUTO
 10
-7001.3140880561141
 20
8730.2219829226233
 30
0.0
 40
10.0
 50
299.9999999999971
 51
0.0
  0
LINE
  5
5F46
  8
CT
 10
-6969.1292424776811
 20
8721.6761894656502
 30
0.0
 11
-6986.9978613477106
 21
8721.6761894656502
 31
0.0
  0
ARC
  5
5F47
  8
FUTO
 10
-6979.3140880561132
 20
8730.6761894656483
 30
0.0
 40
2.0
 50
0.0
 51
89.999999999999986
  0
LINE
  5
5F48
  8
FUTO
 10
-6991.3140880561132
 20
8733.6761894656502
 30
0.0
 11
-6991.3140880561132
 21
8730.2219829226251
 31
0.0
  0
ARC
  5
5F49
  8
FUTO
 10
-6994.6492630241264
 20
8715.6761894656483
 30
0.0
 40
18.0
 50
89.999999999999986
 51
95.306887336324465
  0
LINE
  5
5F4A
  8
FUTO
 10
-6979.3140880561132
 20
8732.6761894656483
 30
0.0
 11
-6991.3140880561132
 21
8732.6761894656483
 31
0.0
  0
ARC
  5
5F4B
  8
FUTO
 10
-6981.1425151808589
 20
8734.6761894656447
 30
0.0
 40
2.0
 50
270.0
 51
44.999999999990777
  0
LINE
  5
5F4C
  8
FUTO
 10
-6976.3140880561132
 20
8711.6761894656502
 30
0.0
 11
-6977.3140880561132
 21
8711.6761894656502
 31
0.0
  0
LINE
  5
5F4D
  8
CT
 10
-6988.0056461375216
 20
8653.8761894656473
 30
0.0
 11
-7007.4798477480826
 21
8653.8761894656473
 31
0.0
  0
LINE
  5
5F4E
  8
FUTO
 10
-7001.1140880561125
 20
8669.0761894656498
 30
0.0
 11
-7015.475090841629
 21
8669.0761894656498
 31
0.0
  0
CIRCLE
  5
5F4F
  8
FUTO
 10
-7023.1649301300968
 20
8699.2346805527923
 30
0.0
 40
4.0
  0
LINE
  5
5F50
  8
CT
 10
-7014.8500143374958
 20
8695.7905296615063
 30
0.0
 11
-7031.4798459226986
 21
8702.6788314440782
 31
0.0
  0
ARC
  5
5F51
  8
FUTO
 10
-7001.1140880561125
 20
8667.4761894656494
 30
0.0
 40
1.6000000000000001
 50
359.99999999999989
 51
89.999999999999986
  0
ARC
  5
5F52
  8
FUTO
 10
-7001.1140880561125
 20
8667.4761894656494
 30
0.0
 40
3.2000000000000002
 50
359.99999999999989
 51
89.999999999999986
  0
CIRCLE
  5
5F53
  8
FUTO
 10
-7023.1649301300968
 20
8768.1176983785081
 30
0.0
 40
4.0
  0
LINE
  5
5F54
  8
CT
 10
-7014.8500143374958
 20
8771.561849269794
 30
0.0
 11
-7031.4798459226986
 21
8764.6735474872203
 31
0.0
  0
DIMENSION
  5
64A8
  8
SP
  2
*D13
 10
-6976.3140880561132
 20
8975.6761894656502
 30
0.0
 11
-7041.3140880561132
 21
9000.6761894656502
 31
0.0
 70
     0
 13
-7106.3140880561132
 23
8923.5934657609978
 33
0.0
 14
-6976.3140880561132
 24
8915.6761894656483
 34
0.0
  0
DIMENSION
  5
64B5
  8
SP
  2
*D14
 10
-7240.3140880561141
 20
8975.6761894656502
 30
0.0
 11
-7173.3140880561132
 21
9000.6761894656502
 31
0.0
 70
     0
 13
-7106.3140880561132
 23
8923.5934657609978
 33
0.0
 14
-7240.3140880561141
 24
8746.6761894656483
 34
0.0
  0
LINE
  5
6525
  8
CT
 10
-7251.3140880561141
 20
9302.5412464436013
 30
0.0
 11
-7271.3140880561123
 21
9302.5412464436013
 31
0.0
  0
LINE
  5
6526
  8
CT
 10
-7261.3140880561141
 20
9312.5412464436013
 30
0.0
 11
-7261.3140880561141
 21
9292.5412464436013
 31
0.0
  0
LINE
  5
8405
  8
CT
 10
-6498.6730335252132
 20
8666.4715762572214
 30
0.0
 11
-6498.6730335252132
 21
8800.8808026740771
 31
0.0
  0
LINE
  5
8740
  8
FUTO
 10
-7172.8140880561132
 20
9363.5944674621278
 30
0.0
 11
-7039.8140880561132
 21
9363.5944674621296
 31
0.0
  0
LINE
  5
8741
  8
FUTO
 10
-7038.8140880561132
 20
9385.5944674621314
 30
0.0
 11
-7173.8140880561132
 21
9385.5944674621278
 31
0.0
  0
ARC
  5
8742
  8
FUTO
 10
-7172.8140880561132
 20
9364.5944674621278
 30
0.0
 40
1.0
 50
180.0
 51
270.0
  0
LINE
  5
8745
  8
FUTO
 10
-7038.8140880561132
 20
9385.5944674621278
 30
0.0
 11
-7038.8140880561132
 21
9364.5944674621278
 31
0.0
  0
ARC
  5
8746
  8
FUTO
 10
-7039.8140880561132
 20
9364.5944674621278
 30
0.0
 40
1.0
 50
270.0
 51
0.000000000000007
  0
TEXT
  5
8C42
  8
4
 10
-6846.2430592634046
 20
7977.790828547295
 30
0.0
 40
50.0
  1
ミツヤ多翼送風機
  0
TEXT
  5
8C43
  8
4
 10
-6837.2673091655879
 20
7872.3786438696698
 30
0.0
 40
50.0
  1
MF＃1-7
  0
LINE
  5
8C46
  8
4
 10
-7373.9218047510694
 20
7855.2190595897273
 30
0.0
 11
-6173.9218047510703
 21
7855.2190595897273
 31
0.0
  0
LINE
  5
8C47
  8
4
 10
-7373.9218047510694
 20
7955.2190595897273
 30
0.0
 11
-6173.9218047510703
 21
7955.2190595897273
 31
0.0
  0
LINE
  5
8C48
  8
4
 10
-7373.9218047510694
 20
8055.2190595897273
 30
0.0
 11
-6173.9218047510703
 21
8055.2190595897273
 31
0.0
  0
LINE
  5
8C49
  8
4
 10
-5723.9218047510703
 20
7555.2190595897273
 30
0.0
 11
-7823.9218047510694
 21
7555.2190595897273
 31
0.0
  0
TEXT
  5
8C4A
  8
4
 10
-7017.1700589502616
 20
9938.6479009222421
 30
0.0
 40
53.999999999999993
  1
天井吊ベッド型
  0
TEXT
  5
8C4B
  8
4
 10
-7335.8589008062099
 20
10089.100035789021
 30
0.0
 40
72.0
  1
遠心式片吸込直動形多翼ファン
  0
LINE
  5
8C4C
  8
4
 10
-7573.9218047510694
 20
10024.627813854529
 30
0.0
 11
-5973.9218047510703
 21
10024.627813854529
 31
0.0
  0
LINE
  5
8C4D
  8
4
 10
-7573.9218047510694
 20
10224.627813854529
 30
0.0
 11
-5973.9218047510703
 21
10224.627813854529
 31
0.0
  0
LINE
  5
8C4E
  8
4
 10
-7823.9218047510694
 20
10505.219059589719
 30
0.0
 11
-5723.9218047510703
 21
10505.219059589719
 31
0.0
  0
LINE
  5
8C4F
  8
4
 10
-7823.9218047510694
 20
7555.2190595897273
 30
0.0
 11
-7823.9218047510694
 21
10505.219059589719
 31
0.0
  0
TEXT
  5
8C51
  8
4
 10
-7335.4197239041678
 20
7986.7620854563402
 30
0.0
 40
50.0
  1
機器名称
  0
TEXT
  5
8C52
  8
4
 10
-7337.6636987262709
 20
7876.8642163217382
 30
0.0
 40
50.0
  1
機器型番
  0
LINE
  5
8C53
  8
4
 10
-7373.9218047510694
 20
8055.2190595897273
 30
0.0
 11
-7373.9218047510694
 21
7855.2190595897246
 31
0.0
  0
LINE
  5
8C54
  8
4
 10
-6873.9218047510694
 20
8055.2190595897273
 30
0.0
 11
-6873.9218047510694
 21
7855.2190595897246
 31
0.0
  0
TEXT
  5
8C55
  8
4
 10
-7508.6662232911012
 20
9937.5385371360699
 30
0.0
 40
53.999999999999993
  1
右回転右横向
  0
LINE
  5
8C56
  8
4
 10
-7573.9218047510694
 20
10224.627813854529
 30
0.0
 11
-7573.9218047510694
 21
10024.627813854529
 31
0.0
  0
LINE
  5
8C57
  8
4
 10
-5723.9218047510703
 20
10505.219059589719
 30
0.0
 11
-5723.9218047510703
 21
7555.2190595897273
 31
0.0
  0
LINE
  5
8C58
  8
4
 10
-6173.9218047510703
 20
8055.2190595897273
 30
0.0
 11
-6173.9218047510703
 21
7855.2190595897246
 31
0.0
  0
LINE
  5
8C59
  8
4
 10
-6383.3043823912049
 20
10341.87132113947
 30
0.0
 11
-5973.9218047510703
 21
10341.87132113947
 31
0.0
  0
LINE
  5
8C5A
  8
4
 10
-5973.9218047510703
 20
10236.48264271512
 30
0.0
 11
-6383.3043823912049
 21
10236.48264271512
 31
0.0
  0
TEXT
  5
8C5B
  8
4
 10
-6454.328526464381
 20
9938.6479009222421
 30
0.0
 40
53.999999999999993
  1
縮尺：1/10
  0
TEXT
  5
8C5C
  8
4
 10
-6354.9522455017786
 20
10261.28014108503
 30
0.0
 40
56.000000000000007
  1
No.
  0
LINE
  5
8C5D
  8
4
 10
-6383.3043823912049
 20
10236.48264271512
 30
0.0
 11
-6383.3043823912049
 21
10341.87132113947
 31
0.0
  0
LINE
  5
8C5E
  8
4
 10
-5973.9218047510703
 20
10224.627813854529
 30
0.0
 11
-5973.9218047510703
 21
10024.627813854529
 31
0.0
  0
LINE
  5
8C5F
  8
4
 10
-5973.9218047510703
 20
10341.87132113947
 30
0.0
 11
-5973.9218047510703
 21
10236.48264271512
 31
0.0
  0
LINE
  5
8C60
  8
4
 10
-5723.9218047510703
 20
10505.219059589719
 30
0.0
 11
-5723.9218047510703
 21
10505.219059589719
 31
0.0
  0
LINE
  5
A3B0
  8
FUTO
 10
-7281.3140880561132
 20
8511.6761894656502
 30
0.0
 11
-6931.3140880561132
 21
8511.6761894656502
 31
0.0
  0
LINE
  5
A3B1
  8
FUTO
 10
-7281.3140880561132
 20
8511.6761894656502
 30
0.0
 11
-7281.3140880561132
 21
8481.6761894656502
 31
0.0
  0
LINE
  5
A3B2
  8
FUTO
 10
-6931.3140880561132
 20
8511.6761894656502
 30
0.0
 11
-6931.3140880561132
 21
8481.6761894656502
 31
0.0
  0
LINE
  5
A3B3
  8
FUTO
 10
-7281.3140880561132
 20
8481.6761894656502
 30
0.0
 11
-6931.3140880561132
 21
8481.6761894656502
 31
0.0
  0
LINE
  5
A412
  8
FUTO
 10
-7281.3140880561132
 20
8508.6761894656502
 30
0.0
 11
-6931.3140880561132
 21
8508.6761894656502
 31
0.0
  0
LINE
  5
A414
  8
FUTO
 10
-6621.6730335252141
 20
8511.6761894656502
 30
0.0
 11
-6231.673033525215
 21
8511.6761894656502
 31
0.0
  0
LINE
  5
A415
  8
FUTO
 10
-6622.6730335252141
 20
8481.676189465652
 30
0.0
 11
-6230.6730335252141
 21
8481.6761894656483
 31
0.0
  0
LINE
  5
A4A1
  8
FUTO
 10
-6621.6730335252141
 20
8511.6761894656502
 30
0.0
 11
-6651.673033525215
 21
8511.6761894656502
 31
0.0
  0
LINE
  5
A4A2
  8
FUTO
 10
-6621.6730335252141
 20
8511.6761894656502
 30
0.0
 11
-6621.6730335252141
 21
8481.6761894656502
 31
0.0
  0
LINE
  5
A4A3
  8
FUTO
 10
-6651.673033525215
 20
8511.6761894656502
 30
0.0
 11
-6651.673033525215
 21
8510.6761894656502
 31
0.0
  0
LINE
  5
A4A4
  8
FUTO
 10
-6621.6730335252141
 20
8481.6761894656502
 30
0.0
 11
-6622.6730335252141
 21
8481.6761894656502
 31
0.0
  0
LINE
  5
A4A5
  8
FUTO
 10
-6628.6730335252141
 20
8508.6761894656502
 30
0.0
 11
-6649.6730335252141
 21
8508.6761894656502
 31
0.0
  0
LINE
  5
A4A6
  8
FUTO
 10
-6624.6730335252141
 20
8504.6761894656502
 30
0.0
 11
-6624.6730335252141
 21
8483.6761894656502
 31
0.0
  0
ARC
  5
A4A7
  8
FUTO
 10
-6649.6730335252141
 20
8510.6761894656502
 30
0.0
 40
2.0
 50
180.0
 51
270.0
  0
ARC
  5
A4A8
  8
FUTO
 10
-6622.6730335252141
 20
8483.6761894656502
 30
0.0
 40
2.0
 50
180.0
 51
270.0
  0
ARC
  5
A4A9
  8
FUTO
 10
-6628.6730335252141
 20
8504.6761894656502
 30
0.0
 40
4.0
 50
0.0
 51
90.0
  0
ARC
  5
A4AB
  8
FUTO
 10
-6224.6730335252141
 20
8504.6761894656502
 30
0.0
 40
4.0
 50
90.0
 51
180.0
  0
ARC
  5
A4AC
  8
FUTO
 10
-6230.6730335252141
 20
8483.6761894656502
 30
0.0
 40
2.0
 50
270.0
 51
0.000000000000007
  0
ARC
  5
A4AD
  8
FUTO
 10
-6203.6730335252141
 20
8510.6761894656502
 30
0.0
 40
2.0
 50
270.0
 51
0.000000000000007
  0
LINE
  5
A4AE
  8
FUTO
 10
-6228.673033525215
 20
8504.6761894656502
 30
0.0
 11
-6228.673033525215
 21
8483.6761894656502
 31
0.0
  0
LINE
  5
A4AF
  8
FUTO
 10
-6224.6730335252141
 20
8508.6761894656502
 30
0.0
 11
-6203.6730335252141
 21
8508.6761894656502
 31
0.0
  0
LINE
  5
A4B0
  8
FUTO
 10
-6231.673033525215
 20
8481.6761894656502
 30
0.0
 11
-6230.6730335252141
 21
8481.6761894656502
 31
0.0
  0
LINE
  5
A4B1
  8
FUTO
 10
-6201.6730335252141
 20
8511.6761894656502
 30
0.0
 11
-6201.6730335252141
 21
8510.6761894656502
 31
0.0
  0
LINE
  5
A4B2
  8
FUTO
 10
-6231.673033525215
 20
8511.6761894656502
 30
0.0
 11
-6231.673033525215
 21
8481.6761894656502
 31
0.0
  0
LINE
  5
A4B3
  8
FUTO
 10
-6231.673033525215
 20
8511.6761894656502
 30
0.0
 11
-6201.6730335252141
 21
8511.6761894656502
 31
0.0
  0
LINE
  5
A841
  8
FUTO
 10
-7281.3140880561132
 20
9289.5412464436031
 30
0.0
 11
-6931.3140880561132
 21
9289.5412464436031
 31
0.0
  0
LINE
  5
A842
  8
FUTO
 10
-7281.3140880561132
 20
9319.5412464436013
 30
0.0
 11
-6931.3140880561132
 21
9319.5412464436013
 31
0.0
  0
LINE
  5
A843
  8
FUTO
 10
-7281.3140880561132
 20
9319.5412464436013
 30
0.0
 11
-7281.3140880561132
 21
9289.5412464436031
 31
0.0
  0
LINE
  5
A844
  8
FUTO
 10
-6931.3140880561132
 20
9319.5412464436013
 30
0.0
 11
-6931.3140880561132
 21
9289.5412464436031
 31
0.0
  0
LINE
  5
A845
  8
FUTO
 10
-7281.3140880561132
 20
9739.5412464436013
 30
0.0
 11
-6931.3140880561132
 21
9739.5412464436013
 31
0.0
  0
LINE
  5
A846
  8
FUTO
 10
-7281.3140880561132
 20
9709.5412464436013
 30
0.0
 11
-6931.3140880561132
 21
9709.5412464436013
 31
0.0
  0
LINE
  5
A847
  8
FUTO
 10
-7281.3140880561132
 20
9739.5412464436013
 30
0.0
 11
-7281.3140880561132
 21
9709.5412464436013
 31
0.0
  0
LINE
  5
A848
  8
FUTO
 10
-6931.3140880561132
 20
9739.5412464436013
 30
0.0
 11
-6931.3140880561132
 21
9709.5412464436013
 31
0.0
  0
CIRCLE
  5
A9CC
  8
FUTO
 10
-7261.3140880561141
 20
9302.5412464436013
 30
0.0
 40
6.5
  0
LINE
  5
A9CD
  8
CT
 10
-6961.3140880561132
 20
9302.5412464436013
 30
0.0
 11
-6941.3140880561141
 21
9302.5412464436013
 31
0.0
  0
LINE
  5
A9CE
  8
CT
 10
-6951.3140880561141
 20
9312.5412464436013
 30
0.0
 11
-6951.3140880561141
 21
9292.5412464436013
 31
0.0
  0
CIRCLE
  5
A9CF
  8
FUTO
 10
-6951.3140880561141
 20
9302.5412464436013
 30
0.0
 40
6.5
  0
LINE
  5
A9D0
  8
CT
 10
-7251.3140880561141
 20
9726.5412464436013
 30
0.0
 11
-7271.3140880561123
 21
9726.5412464436013
 31
0.0
  0
LINE
  5
A9D1
  8
CT
 10
-7261.3140880561141
 20
9736.5412464436013
 30
0.0
 11
-7261.3140880561141
 21
9716.5412464436013
 31
0.0
  0
CIRCLE
  5
A9D2
  8
FUTO
 10
-7261.3140880561141
 20
9726.5412464436013
 30
0.0
 40
6.5
  0
LINE
  5
A9D3
  8
CT
 10
-6941.3140880561132
 20
9726.5412464436013
 30
0.0
 11
-6961.3140880561123
 21
9726.5412464436013
 31
0.0
  0
LINE
  5
A9D4
  8
CT
 10
-6951.3140880561141
 20
9736.5412464436013
 30
0.0
 11
-6951.3140880561141
 21
9716.5412464436013
 31
0.0
  0
CIRCLE
  5
A9D5
  8
FUTO
 10
-6951.3140880561141
 20
9726.5412464436013
 30
0.0
 40
6.5
  0
LINE
  5
A9D6
  8
FUTO
 10
-6996.3140880561141
 20
9319.5412464436013
 30
0.0
 11
-6996.3140880561132
 21
9537.6831962449396
 31
0.0
  0
LINE
  5
A9D7
  8
FUTO
 10
-6966.3140880561132
 20
9709.5412464436013
 30
0.0
 11
-6966.3140880561132
 21
9319.5412464435976
 31
0.0
  0
LINE
  5
A9D9
  8
FUTO
 10
-7246.3140880561132
 20
9538.0869286196466
 30
0.0
 11
-7246.3140880561132
 21
9319.5412464435976
 31
0.0
  0
LINE
  5
A9DA
  8
FUTO
 10
-7216.3140880561141
 20
9650.8831962449422
 30
0.0
 11
-7216.314088056115
 21
9709.5412464436013
 31
0.0
  0
LINE
  5
A9DB
  8
FUTO
 10
-6996.3140880561132
 20
9650.8831962449422
 30
0.0
 11
-6996.3140880561114
 21
9709.5412464436013
 31
0.0
  0
DIMENSION
  5
A9F7
  8
SP
  2
*D18
 10
-6861.3140880561132
 20
9289.5412464436031
 30
0.0
 11
-6886.3140880561141
 21
9514.5412464435994
 31
0.0
 70
     0
 13
-6931.3140880561132
 23
9739.5412464436013
 33
0.0
 14
-6931.3140880561132
 24
9289.5412464436031
 34
0.0
 50
90.0
  0
DIMENSION
  5
AA04
  8
SP
  2
*D19
 10
-7281.3140880561132
 20
9223.7079131102673
 30
0.0
 11
-7106.3140880561132
 21
9248.7079131102673
 31
0.0
 70
     0
 13
-6931.3140880561132
 23
9289.5412464436031
 33
0.0
 14
-7281.3140880561132
 24
9289.5412464436031
 34
0.0
  0
DIMENSION
  5
ABC4
  8
SP
  2
*D20
 10
-6861.3140880561132
 20
8481.6761894656502
 30
0.0
 11
-6886.3140880561141
 21
8395.6166612502166
 31
0.0
 70
     0
 13
-6931.3140880561132
 23
8511.6761894656502
 33
0.0
 14
-6931.3140880561132
 24
8481.6761894656502
 34
0.0
 50
90.0
1001
ACAD
1000
DSTYLE
1002
{
1070
     6
1000
DOT
1002
}
  0
DIMENSION
  5
ABD3
  8
SP
  2
*D21
 10
-6861.3140880561132
 20
8511.6761894656502
 30
0.0
 11
-6828.807897257735
 21
8510.0994842505588
 31
0.0
 70
   128
  1
（<>）
 13
-6966.3140880561132
 23
8533.6761894656502
 33
0.0
 14
-6931.3140880561132
 24
8511.6761894656502
 34
0.0
 50
90.0
1001
ACAD
1000
DSTYLE
1002
{
1070
   287
1070
     5
1070
     7
1000
NONE
1070
     6
1000
NONE
1070
   279
1070
     2
1002
}
  0
LINE
  5
B217
  8
FUTO
 10
-6290.6730335252141
 20
8813.6761894656483
 30
0.0
 11
-6290.0730335252147
 21
8813.6761894656483
 31
0.0
  0
LINE
  5
B218
  8
FUTO
 10
-6290.6730335252141
 20
8813.6761894656483
 30
0.0
 11
-6290.0730335252147
 21
8813.6761894656483
 31
0.0
  0
LINE
  5
B219
  8
FUTO
 10
-6290.0730335252128
 20
8813.6761894656483
 30
0.0
 11
-6283.6730335252141
 21
8813.6761894656483
 31
0.0
  0
LINE
  5
B21A
  8
FUTO
 10
-6290.6730335252141
 20
8813.6761894656483
 30
0.0
 11
-6290.0730335252147
 21
8813.6761894656483
 31
0.0
  0
LINE
  5
B21B
  8
FUTO
 10
-6290.0730335252128
 20
8653.6761894656465
 30
0.0
 11
-6283.6730335252141
 21
8653.6761894656465
 31
0.0
  0
LINE
  5
B21C
  8
FUTO
 10
-6290.6730335252141
 20
8653.6761894656465
 30
0.0
 11
-6290.0730335252147
 21
8653.6761894656465
 31
0.0
  0
LINE
  5
B21D
  8
FUTO
 10
-6290.6730335252141
 20
8653.6761894656465
 30
0.0
 11
-6290.0730335252147
 21
8653.6761894656465
 31
0.0
  0
ENDSEC
  0
EOF
