  0
SECTION
  2
HEADER
  9
$ACADVER
  1
AC1009
  9
$INSBASE
 10
0.0
 20
0.0
 30
0.0
  9
$EXTMIN
 10
1720.3435473019961
 20
7555.2190595897273
 30
0.0
  9
$EXTMAX
 10
3820.3435473019958
 20
10505.219059589719
 30
0.0
  9
$LIMMIN
 10
0.0
 20
0.0
  9
$LIMMAX
 10
297.0
 20
210.0
  9
$ORTHOMODE
 70
     0
  9
$REGENMODE
 70
     1
  9
$FILLMODE
 70
     1
  9
$QTEXTMODE
 70
     0
  9
$MIRRTEXT
 70
     0
  9
$DRAGMODE
 70
     2
  9
$LTSCALE
 40
25.0
  9
$OSMODE
 70
   545
  9
$ATTMODE
 70
     1
  9
$TEXTSIZE
 40
3.5
  9
$TRACEWID
 40
0.05
  9
$TEXTSTYLE
  7
STANDARD
  9
$CLAYER
  8
SP
  9
$CELTYPE
  6
BYLAYER
  9
$CECOLOR
 62
   256
  9
$DIMSCALE
 40
10.0
  9
$DIMASZ
 40
2.5
  9
$DIMEXO
 40
1.0
  9
$DIMDLI
 40
7.0
  9
$DIMRND
 40
0.0
  9
$DIMDLE
 40
0.0
  9
$DIMEXE
 40
1.0
  9
$DIMTP
 40
0.0
  9
$DIMTM
 40
0.0
  9
$DIMTXT
 40
3.0
  9
$DIMCEN
 40
0.0
  9
$DIMTSZ
 40
0.0
  9
$DIMTOL
 70
     0
  9
$DIMLIM
 70
     0
  9
$DIMTIH
 70
     0
  9
$DIMTOH
 70
     0
  9
$DIMSE1
 70
     0
  9
$DIMSE2
 70
     0
  9
$DIMTAD
 70
     1
  9
$DIMZIN
 70
     8
  9
$DIMBLK
  1

  9
$DIMASO
 70
     1
  9
$DIMSHO
 70
     1
  9
$DIMPOST
  1

  9
$DIMAPOST
  1

  9
$DIMALT
 70
     0
  9
$DIMALTD
 70
     2
  9
$DIMALTF
 40
0.03937
  9
$DIMLFAC
 40
1.0
  9
$DIMTOFL
 70
     1
  9
$DIMTVP
 40
0.0
  9
$DIMTIX
 70
     0
  9
$DIMSOXD
 70
     0
  9
$DIMSAH
 70
     1
  9
$DIMBLK1
  1
OPEN
  9
$DIMBLK2
  1
OPEN
  9
$DIMSTYLE
  2
GOD
  9
$DIMCLRD
 70
   256
  9
$DIMCLRE
 70
   256
  9
$DIMCLRT
 70
   256
  9
$DIMTFAC
 40
1.0
  9
$DIMGAP
 40
1.0
  9
$LUNITS
 70
     2
  9
$LUPREC
 70
     3
  9
$SKETCHINC
 40
0.1
  9
$FILLETRAD
 40
1.0
  9
$AUNITS
 70
     0
  9
$AUPREC
 70
     2
  9
$MENU
  1
acad
  9
$ELEVATION
 40
0.0
  9
$PELEVATION
 40
0.0
  9
$THICKNESS
 40
0.0
  9
$LIMCHECK
 70
     0
  9
$BLIPMODE
 70
     0
  9
$CHAMFERA
 40
0.0
  9
$CHAMFERB
 40
0.0
  9
$SKPOLY
 70
     0
  9
$TDCREATE
 40
2454894.5465396061
  9
$TDUPDATE
 40
2454953.824851342
  9
$TDINDWG
 40
0.4420088542
  9
$TDUSRTIMER
 40
0.4420088542
  9
$USRTIMER
 70
     1
  9
$ANGBASE
 50
0.0
  9
$ANGDIR
 70
     0
  9
$PDMODE
 70
     0
  9
$PDSIZE
 40
1.0
  9
$PLINEWID
 40
0.0
  9
$COORDS
 70
     2
  9
$SPLFRAME
 70
     0
  9
$SPLINETYPE
 70
     6
  9
$SPLINESEGS
 70
     8
  9
$ATTDIA
 70
     0
  9
$ATTREQ
 70
     1
  9
$HANDLING
 70
 22529
  9
$HANDSEED
  5
B259
  9
$SURFTAB1
 70
     6
  9
$SURFTAB2
 70
     6
  9
$SURFTYPE
 70
     6
  9
$SURFU
 70
     6
  9
$SURFV
 70
     6
  9
$UCSNAME
  2

  9
$UCSORG
 10
0.0
 20
0.0
 30
0.0
  9
$UCSXDIR
 10
1.0
 20
0.0
 30
0.0
  9
$UCSYDIR
 10
0.0
 20
1.0
 30
0.0
  9
$PUCSNAME
  2

  9
$PUCSORG
 10
0.0
 20
0.0
 30
0.0
  9
$PUCSXDIR
 10
1.0
 20
0.0
 30
0.0
  9
$PUCSYDIR
 10
0.0
 20
1.0
 30
0.0
  9
$USERI1
 70
     0
  9
$USERI2
 70
     0
  9
$USERI3
 70
     0
  9
$USERI4
 70
     0
  9
$USERI5
 70
     0
  9
$USERR1
 40
0.0
  9
$USERR2
 40
0.0
  9
$USERR3
 40
0.0
  9
$USERR4
 40
0.0
  9
$USERR5
 40
0.0
  9
$WORLDVIEW
 70
     1
  9
$SHADEDGE
 70
     3
  9
$SHADEDIF
 70
    70
  9
$TILEMODE
 70
     1
  9
$MAXACTVP
 70
    16
  9
$PLIMCHECK
 70
     0
  9
$PEXTMIN
 10
1.0000000000000000E+020
 20
1.0000000000000000E+020
 30
1.0000000000000000E+020
  9
$PEXTMAX
 10
-1.0000000000000000E+020
 20
-1.0000000000000000E+020
 30
-1.0000000000000000E+020
  9
$PLIMMIN
 10
0.0
 20
0.0
  9
$PLIMMAX
 10
12.0
 20
9.0
  9
$UNITMODE
 70
     0
  9
$VISRETAIN
 70
     0
  9
$PLINEGEN
 70
     0
  9
$PSLTSCALE
 70
     0
  0
ENDSEC
  0
SECTION
  2
TABLES
  0
TABLE
  2
VPORT
 70
     2
  0
VPORT
  2
*ACTIVE
 70
     0
 10
0.0
 20
0.0
 11
1.0
 21
1.0
 12
2957.2696967227912
 22
9030.0065917595275
 13
0.0
 23
0.0
 14
5.0
 24
5.0
 15
0.0
 25
0.0
 16
0.0
 26
0.0
 36
1.0
 17
0.0
 27
0.0
 37
0.0
 40
2974.2321215562929
 41
1.6307901907356941
 42
50.0
 43
0.0
 44
0.0
 50
0.0
 51
0.0
 71
     0
 72
   100
 73
     1
 74
     0
 75
     0
 76
     0
 77
     0
 78
     0
  0
ENDTAB
  0
TABLE
  2
LTYPE
 70
     4
  0
LTYPE
  2
CONTINUOUS
 70
     0
  3
Solid line
 72
    65
 73
     0
 40
0.0
  0
LTYPE
  2
CENTER
 70
     0
  3
____ _ ____ _ ____ _ ____ _ ____ _ ____ _ ____ 
 72
    65
 73
     4
 40
2.0
 49
1.25
 49
-0.25
 49
0.25
 49
-0.25
  0
LTYPE
  2
HIDDEN
 70
     0
  3
__ __ __ __ __ __ __ __ __ __ __ __ __ __ __ __
 72
    65
 73
     2
 40
0.375
 49
0.25
 49
-0.125
  0
LTYPE
  2
PHANTOM
 70
     0
  3
______  __  __  ______  __  __  ______  __  __ 
 72
    65
 73
     6
 40
2.5
 49
1.25
 49
-0.25
 49
0.25
 49
-0.25
 49
0.25
 49
-0.25
  0
ENDTAB
  0
TABLE
  2
LAYER
 70
     9
  0
LAYER
  2
0
 70
     0
 62
     7
  6
CONTINUOUS
  0
LAYER
  2
CT
 70
     0
 62
     3
  6
CENTER
  0
LAYER
  2
FUTO
 70
     0
 62
     4
  6
CONTINUOUS
  0
LAYER
  2
HOSO
 70
     0
 62
     7
  6
CONTINUOUS
  0
LAYER
  2
KL
 70
     0
 62
     7
  6
HIDDEN
  0
LAYER
  2
SL
 70
     0
 62
     1
  6
PHANTOM
  0
LAYER
  2
SP
 70
     0
 62
     2
  6
CONTINUOUS
  0
LAYER
  2
DEFPOINTS
 70
     0
 62
     7
  6
CONTINUOUS
  0
LAYER
  2
4
 70
     0
 62
     7
  6
CONTINUOUS
  0
ENDTAB
  0
TABLE
  2
STYLE
 70
     1
  0
STYLE
  2
STANDARD
 70
     0
 40
0.0
 41
1.0
 50
15.0
 71
     0
 42
3.5
  3
C:\Program Files\AutoCAD LT\simplex.shx
  4
C:\Program Files\AutoCAD LT\extfont.shx
  0
ENDTAB
  0
TABLE
  2
VIEW
 70
     0
  0
ENDTAB
  0
TABLE
  2
UCS
 70
     0
  0
ENDTAB
  0
TABLE
  2
APPID
 70
     1
  0
APPID
  2
ACAD
 70
     0
  0
ENDTAB
  0
TABLE
  2
DIMSTYLE
 70
     3
  0
DIMSTYLE
  2
STANDARD
 70
     0
  3

  4

  5

  6

  7

 40
1.0
 41
0.18
 42
0.0625
 43
0.38
 44
0.18
 45
0.0
 46
0.0
 47
0.0
 48
0.0
140
0.18
141
0.09
142
0.0
143
25.399999999999999
144
1.0
145
0.0
146
1.0
147
0.09
 71
     0
 72
     0
 73
     1
 74
     1
 75
     0
 76
     0
 77
     0
 78
     0
170
     0
171
     2
172
     0
173
     0
174
     0
175
     0
176
     0
177
     0
178
     0
  0
DIMSTYLE
  2
GOD
 70
     0
  3

  4

  5

  6
OPEN
  7
OPEN
 40
10.0
 41
2.5
 42
1.0
 43
7.0
 44
1.0
 45
0.0
 46
0.0
 47
0.0
 48
0.0
140
3.0
141
0.0
142
0.0
143
0.03937
144
1.0
145
0.0
146
1.0
147
1.0
 71
     0
 72
     0
 73
     0
 74
     0
 75
     0
 76
     0
 77
     1
 78
     8
170
     0
171
     2
172
     1
173
     1
174
     0
175
     0
176
   256
177
   256
178
   256
  0
DIMSTYLE
  2
IGA
 70
     0
  3

  4

  5

  6

  7

 40
1.0
 41
3.0
 42
0.5
 43
10.0
 44
1.0
 45
0.0
 46
0.0
 47
1.0
 48
1.0
140
3.0
141
0.0
142
0.0
143
0.039
144
1.0
145
0.0
146
10.0
147
1.0
 71
     0
 72
     0
 73
     0
 74
     0
 75
     0
 76
     0
 77
     1
 78
     8
170
     0
171
     2
172
     1
173
     1
174
     0
175
     0
176
     0
177
     0
178
     0
  0
ENDTAB
  0
ENDSEC
  0
SECTION
  2
BLOCKS
  0
BLOCK
  8
0
  2
$MODEL_SPACE
 70
     0
 10
0.0
 20
0.0
 30
0.0
  3
$MODEL_SPACE
  1

  0
ENDBLK
  5
1B
  8
0
  0
BLOCK
 67
     1
  8
0
  2
$PAPER_SPACE
 70
     0
 10
0.0
 20
0.0
 30
0.0
  3
$PAPER_SPACE
  1

  0
ENDBLK
  5
18
 67
     1
  8
0
  0
BLOCK
  8
0
  2
_OPEN
 70
     0
 10
0.0
 20
0.0
 30
0.0
  3
_OPEN
  1

  0
LINE
  5
1E81
  8
0
  6
BYBLOCK
 62
     0
 10
-1.0
 20
0.1666666666666666
 30
0.0
 11
0.0
 21
0.0
 31
0.0
  0
LINE
  5
1E82
  8
0
  6
BYBLOCK
 62
     0
 10
0.0
 20
0.0
 30
0.0
 11
-1.0
 21
-0.1666666666666666
 31
0.0
  0
LINE
  5
1E83
  8
0
  6
BYBLOCK
 62
     0
 10
0.0
 20
0.0
 30
0.0
 11
-1.0
 21
0.0
 31
0.0
  0
ENDBLK
  5
1E84
  8
0
  0
BLOCK
  8
0
  2
*D1
 70
     1
 10
0.0
 20
0.0
 30
0.0
  3
*D1
  1

  0
LINE
  5
9C38
  8
SP
 10
2597.2193008122381
 20
8733.6761894656483
 30
0.0
 11
2656.1211529572151
 21
8733.6761894656483
 31
0.0
  0
LINE
  5
9C39
  8
SP
 10
2596.1211529572151
 20
8863.6761894656483
 30
0.0
 11
2656.1211529572151
 21
8863.6761894656483
 31
0.0
  0
LINE
  5
9C3A
  8
SP
 10
2646.1211529572138
 20
8758.6761894656483
 30
0.0
 11
2646.1211529572138
 21
8838.6761894656483
 31
0.0
  0
INSERT
  5
9C3B
  8
SP
  2
_OPEN
 10
2646.1211529572138
 20
8733.6761894656483
 30
0.0
 41
25.0
 42
25.0
 43
25.0
 50
270.0
  0
INSERT
  5
9C3C
  8
SP
  2
_OPEN
 10
2646.1211529572138
 20
8863.6761894656483
 30
0.0
 41
25.0
 42
25.0
 43
25.0
 50
90.0
  0
TEXT
  5
9C3D
  8
SP
 10
2636.1211529572129
 20
8757.1688519351774
 30
0.0
 40
30.0
  1
130
 50
90.0
 51
15.0
  0
POINT
  5
9C3E
  8
DEFPOINTS
 62
     0
 10
2587.2193008122372
 20
8733.6761894656483
 30
0.0
  0
POINT
  5
9C3F
  8
DEFPOINTS
 62
     0
 10
2586.1211529572151
 20
8863.6761894656483
 30
0.0
  0
POINT
  5
9C40
  8
DEFPOINTS
 62
     0
 10
2646.1211529572138
 20
8863.6761894656483
 30
0.0
  0
ENDBLK
  5
5E47
  8
0
  0
BLOCK
  8
0
  2
*D2
 70
     1
 10
0.0
 20
0.0
 30
0.0
  3
*D2
  1

  0
LINE
  5
9BF7
  8
SP
 10
2554.1211529572151
 20
8533.6761894656502
 30
0.0
 11
2656.1211529572151
 21
8533.6761894656502
 31
0.0
  0
LINE
  5
9BF8
  8
SP
 10
2597.2193008122381
 20
8733.6761894656483
 30
0.0
 11
2656.1211529572151
 21
8733.6761894656483
 31
0.0
  0
LINE
  5
9BF9
  8
SP
 10
2646.1211529572138
 20
8558.6761894656483
 30
0.0
 11
2646.1211529572138
 21
8708.6761894656483
 31
0.0
  0
INSERT
  5
9BFA
  8
SP
  2
_OPEN
 10
2646.1211529572138
 20
8533.6761894656502
 30
0.0
 41
25.0
 42
25.0
 43
25.0
 50
270.0
  0
INSERT
  5
9BFB
  8
SP
  2
_OPEN
 10
2646.1211529572138
 20
8733.6761894656483
 30
0.0
 41
25.0
 42
25.0
 43
25.0
 50
90.0
  0
TEXT
  5
9BFC
  8
SP
 10
2636.1211529572129
 20
8592.5653778432697
 30
0.0
 40
30.0
  1
200
 50
90.0
 51
15.0
  0
POINT
  5
9BFD
  8
DEFPOINTS
 62
     0
 10
2544.1211529572138
 20
8533.6761894656502
 30
0.0
  0
POINT
  5
9BFE
  8
DEFPOINTS
 62
     0
 10
2587.2193008122372
 20
8733.6761894656483
 30
0.0
  0
POINT
  5
9BFF
  8
DEFPOINTS
 62
     0
 10
2646.1211529572138
 20
8733.6761894656483
 30
0.0
  0
ENDBLK
  5
5E53
  8
0
  0
BLOCK
  8
0
  2
*D3
 70
     1
 10
0.0
 20
0.0
 30
0.0
  3
*D3
  1

  0
LINE
  5
9C09
  8
SP
 10
2564.1211529572138
 20
8873.6761894656483
 30
0.0
 11
2564.1211529572138
 21
8943.6761894656483
 31
0.0
  0
LINE
  5
9C0A
  8
SP
 10
2404.1211529572138
 20
8896.1327277346227
 30
0.0
 11
2404.1211529572138
 21
8943.6761894656483
 31
0.0
  0
LINE
  5
9C0B
  8
SP
 10
2539.1211529572138
 20
8933.6761894656483
 30
0.0
 11
2429.1211529572151
 21
8933.6761894656483
 31
0.0
  0
INSERT
  5
9C0C
  8
SP
  2
_OPEN
 10
2564.1211529572138
 20
8933.6761894656483
 30
0.0
 41
25.0
 42
25.0
 43
25.0
  0
INSERT
  5
9C0D
  8
SP
  2
_OPEN
 10
2404.1211529572138
 20
8933.6761894656483
 30
0.0
 41
25.0
 42
25.0
 43
25.0
 50
180.0
  0
TEXT
  5
9C0E
  8
SP
 10
2442.6138154267442
 20
8943.6761894656483
 30
0.0
 40
30.0
  1
160
 51
15.0
  0
POINT
  5
9C0F
  8
DEFPOINTS
 62
     0
 10
2564.1211529572138
 20
8863.6761894656483
 30
0.0
  0
POINT
  5
9C10
  8
DEFPOINTS
 62
     0
 10
2404.1211529572138
 20
8886.1327277346245
 30
0.0
  0
POINT
  5
9C11
  8
DEFPOINTS
 62
     0
 10
2404.1211529572138
 20
8933.6761894656483
 30
0.0
  0
ENDBLK
  5
643F
  8
0
  0
BLOCK
  8
0
  2
*D4
 70
     1
 10
0.0
 20
0.0
 30
0.0
  3
*D4
  1

  0
LINE
  5
9C1B
  8
SP
 10
2404.1211529572138
 20
8896.1327277346227
 30
0.0
 11
2404.1211529572138
 21
8943.6761894656483
 31
0.0
  0
LINE
  5
9C1C
  8
SP
 10
2292.1211529572138
 20
8732.6761894656483
 30
0.0
 11
2292.1211529572138
 21
8943.6761894656483
 31
0.0
  0
LINE
  5
9C1D
  8
SP
 10
2379.1211529572138
 20
8933.6761894656483
 30
0.0
 11
2317.1211529572138
 21
8933.6761894656483
 31
0.0
  0
INSERT
  5
9C1E
  8
SP
  2
_OPEN
 10
2404.1211529572138
 20
8933.6761894656483
 30
0.0
 41
25.0
 42
25.0
 43
25.0
  0
INSERT
  5
9C1F
  8
SP
  2
_OPEN
 10
2292.1211529572138
 20
8933.6761894656483
 30
0.0
 41
25.0
 42
25.0
 43
25.0
 50
180.0
  0
TEXT
  5
9C20
  8
SP
 10
2309.4709582838868
 20
8943.6761894656483
 30
0.0
 40
30.0
  1
112
 51
15.0
  0
POINT
  5
9C21
  8
DEFPOINTS
 62
     0
 10
2404.1211529572138
 20
8886.1327277346245
 30
0.0
  0
POINT
  5
9C22
  8
DEFPOINTS
 62
     0
 10
2292.1211529572138
 20
8722.6761894656502
 30
0.0
  0
POINT
  5
9C23
  8
DEFPOINTS
 62
     0
 10
2292.1211529572138
 20
8933.6761894656483
 30
0.0
  0
ENDBLK
  5
644C
  8
0
  0
BLOCK
  8
0
  2
*D5
 70
     1
 10
0.0
 20
0.0
 30
0.0
  3
*D5
  1

  0
LINE
  5
9C2F
  8
SP
 10
3163.7622074881142
 20
8983.6761894656483
 30
0.0
 11
3163.7622074881142
 21
9013.6761894656483
 31
0.0
  0
LINE
  5
9C30
  8
SP
 10
2902.8154285066421
 20
8800.2404894656484
 30
0.0
 11
2902.8154285066421
 21
9013.6761894656483
 31
0.0
  0
LINE
  5
9C31
  8
SP
 10
3138.7622074881142
 20
9003.6761894656483
 30
0.0
 11
2927.8154285066421
 21
9003.6761894656483
 31
0.0
  0
INSERT
  5
9C32
  8
SP
  2
_OPEN
 10
3163.7622074881142
 20
9003.6761894656483
 30
0.0
 41
25.0
 42
25.0
 43
25.0
  0
INSERT
  5
9C33
  8
SP
  2
_OPEN
 10
2902.8154285066421
 20
9003.6761894656483
 30
0.0
 41
25.0
 42
25.0
 43
25.0
 50
180.0
  0
TEXT
  5
9C34
  8
SP
 10
2966.3791162569769
 20
9013.6761894656483
 30
0.0
 40
30.0
  1
（330）
 51
15.0
  0
POINT
  5
9C35
  8
DEFPOINTS
 62
     0
 10
3163.7622074881142
 20
8973.6761894656465
 30
0.0
  0
POINT
  5
9C36
  8
DEFPOINTS
 62
     0
 10
2902.8154285066421
 20
8790.2404894656484
 30
0.0
  0
POINT
  5
9C37
  8
DEFPOINTS
 62
     0
 10
2902.8154285066421
 20
9003.6761894656483
 30
0.0
  0
ENDBLK
  5
75C1
  8
0
  0
BLOCK
  8
0
  2
*D6
 70
     1
 10
0.0
 20
0.0
 30
0.0
  3
*D6
  1

  0
LINE
  5
9C41
  8
SP
 10
3163.7622074881142
 20
8983.6761894656483
 30
0.0
 11
3163.7622074881142
 21
9013.6761894656483
 31
0.0
  0
LINE
  5
9C42
  8
SP
 10
3226.7622074881142
 20
8841.6761894656483
 30
0.0
 11
3226.7622074881142
 21
9013.6761894656483
 31
0.0
  0
LINE
  5
9C43
  8
SP
 10
3138.7622074881142
 20
9003.6761894656483
 30
0.0
 11
3113.7622074881151
 21
9003.6761894656483
 31
0.0
  0
LINE
  5
9C44
  8
SP
 10
3251.7622074881142
 20
9003.6761894656483
 30
0.0
 11
3349.3666152934861
 21
9003.6761894656483
 31
0.0
  0
LINE
  5
9C45
  8
SP
 10
3163.7622074881142
 20
9003.6761894656483
 30
0.0
 11
3226.7622074881142
 21
9003.6761894656483
 31
0.0
  0
INSERT
  5
9C46
  8
SP
  2
_OPEN
 10
3163.7622074881142
 20
9003.6761894656483
 30
0.0
 41
25.0
 42
25.0
 43
25.0
  0
INSERT
  5
9C47
  8
SP
  2
_OPEN
 10
3226.7622074881142
 20
9003.6761894656483
 30
0.0
 41
25.0
 42
25.0
 43
25.0
 50
180.0
  0
TEXT
  5
9C48
  8
SP
 10
3284.1852823776958
 20
9013.6761894656483
 30
0.0
 40
30.0
  1
63
 51
15.0
  0
POINT
  5
9C49
  8
DEFPOINTS
 62
     0
 10
3163.7622074881142
 20
8973.6761894656465
 30
0.0
  0
POINT
  5
9C4A
  8
DEFPOINTS
 62
     0
 10
3226.7622074881142
 20
8831.6761894656483
 30
0.0
  0
POINT
  5
9C4B
  8
DEFPOINTS
 62
     0
 10
3226.7622074881142
 20
9003.6761894656483
 30
0.0
  0
ENDBLK
  5
75CF
  8
0
  0
BLOCK
  8
0
  2
*D7
 70
     1
 10
0.0
 20
0.0
 30
0.0
  3
*D7
  1

  0
LINE
  5
B227
  8
SP
 10
3236.7622074881142
 20
8813.6761894656483
 30
0.0
 11
3313.976355226921
 21
8813.6761894656483
 31
0.0
  0
LINE
  5
B228
  8
SP
 10
3236.7622074881142
 20
8653.6761894656465
 30
0.0
 11
3313.976355226921
 21
8653.6761894656465
 31
0.0
  0
LINE
  5
B229
  8
SP
 10
3303.976355226921
 20
8788.6761894656483
 30
0.0
 11
3303.976355226921
 21
8678.6761894656465
 31
0.0
  0
INSERT
  5
B22A
  8
SP
  2
_OPEN
 10
3303.976355226921
 20
8813.6761894656483
 30
0.0
 41
25.0
 42
25.0
 43
25.0
 50
90.0
  0
INSERT
  5
B22B
  8
SP
  2
_OPEN
 10
3303.976355226921
 20
8653.6761894656465
 30
0.0
 41
25.0
 42
25.0
 43
25.0
 50
270.0
  0
TEXT
  5
B22C
  8
SP
 10
3293.9763552269201
 20
8681.7622666625684
 30
0.0
 40
30.0
  1
φ160
 50
90.0
 51
15.0
  0
POINT
  5
B22D
  8
DEFPOINTS
 62
     0
 10
3226.7622074881142
 20
8813.6761894656483
 30
0.0
  0
POINT
  5
B22E
  8
DEFPOINTS
 62
     0
 10
3226.7622074881142
 20
8653.6761894656465
 30
0.0
  0
POINT
  5
B22F
  8
DEFPOINTS
 62
     0
 10
3303.976355226921
 20
8653.6761894656465
 30
0.0
  0
ENDBLK
  5
75FF
  8
0
  0
BLOCK
  8
0
  2
*D8
 70
     1
 10
0.0
 20
0.0
 30
0.0
  3
*D8
  1

  0
LINE
  5
9C55
  8
SP
 10
3107.7622074881142
 20
8873.6761894656483
 30
0.0
 11
3107.7622074881142
 21
8943.6761894656483
 31
0.0
  0
LINE
  5
9C56
  8
SP
 10
3219.7622074881142
 20
8873.6761894656483
 30
0.0
 11
3219.7622074881142
 21
8943.6761894656483
 31
0.0
  0
LINE
  5
9C57
  8
SP
 10
3132.7622074881151
 20
8933.6761894656483
 30
0.0
 11
3194.7622074881142
 21
8933.6761894656483
 31
0.0
  0
INSERT
  5
9C58
  8
SP
  2
_OPEN
 10
3107.7622074881142
 20
8933.6761894656483
 30
0.0
 41
25.0
 42
25.0
 43
25.0
 50
180.0
  0
INSERT
  5
9C59
  8
SP
  2
_OPEN
 10
3219.7622074881142
 20
8933.6761894656483
 30
0.0
 41
25.0
 42
25.0
 43
25.0
  0
TEXT
  5
9C5A
  8
SP
 10
3125.1120128147868
 20
8943.6761894656483
 30
0.0
 40
30.0
  1
112
 51
15.0
  0
POINT
  5
9C5B
  8
DEFPOINTS
 62
     0
 10
3107.7622074881142
 20
8863.6761894656483
 30
0.0
  0
POINT
  5
9C5C
  8
DEFPOINTS
 62
     0
 10
3219.7622074881142
 20
8863.6761894656483
 30
0.0
  0
POINT
  5
9C5D
  8
DEFPOINTS
 62
     0
 10
3219.7622074881142
 20
8933.6761894656483
 30
0.0
  0
ENDBLK
  5
760B
  8
0
  0
BLOCK
  8
0
  2
_DOT
 70
     0
 10
0.0
 20
0.0
 30
0.0
  3
_DOT
  1

  0
LINE
  5
9B41
  8
0
  6
BYBLOCK
 62
     0
 10
0.0
 20
0.0
 30
0.0
 11
-1.0
 21
-0.0000000000000284
 31
0.0
  0
POLYLINE
  5
9B42
  8
0
  6
BYBLOCK
 62
     0
 66
     1
 10
0.0
 20
0.0
 30
0.0
 70
     1
 40
0.1666666666666666
 41
0.1666666666666666
  0
VERTEX
  5
B242
  8
0
  6
BYBLOCK
 62
     0
 10
-0.0833333333333286
 20
-0.0000000000000284
 30
0.0
 42
1.0
  0
VERTEX
  5
B243
  8
0
  6
BYBLOCK
 62
     0
 10
0.0833333333333286
 20
-0.0000000000000284
 30
0.0
 42
1.0
  0
SEQEND
  5
B244
  8
0
  6
BYBLOCK
 62
     0
  0
ENDBLK
  5
9B29
  8
0
  0
BLOCK
  8
0
  2
_NONE
 70
     0
 10
0.0
 20
0.0
 30
0.0
  3
_NONE
  1

  0
ENDBLK
  5
9B45
  8
0
  0
BLOCK
  8
0
  2
L-30-3
 70
     0
 10
0.0
 20
0.0
 30
0.0
  3
L-30-3
  1

  0
LINE
  5
A495
  8
0
 10
115.2488417492448
 20
98.116970357453638
 30
0.0
 11
145.2488417492448
 21
98.116970357453638
 31
0.0
  0
LINE
  5
A496
  8
0
 10
115.2488417492448
 20
98.116970357453638
 30
0.0
 11
115.2488417492448
 21
128.1169703574536
 31
0.0
  0
LINE
  5
A497
  8
0
 10
145.2488417492448
 20
98.116970357453638
 30
0.0
 11
145.2488417492448
 21
99.116970357453638
 31
0.0
  0
LINE
  5
A498
  8
0
 10
115.2488417492448
 20
128.1169703574536
 30
0.0
 11
116.2488417492448
 21
128.1169703574536
 31
0.0
  0
LINE
  5
A499
  8
0
 10
122.2488417492448
 20
101.1169703574536
 30
0.0
 11
143.2488417492448
 21
101.1169703574536
 31
0.0
  0
LINE
  5
A49A
  8
0
 10
118.2488417492448
 20
105.1169703574536
 30
0.0
 11
118.2488417492448
 21
126.1169703574536
 31
0.0
  0
ARC
  5
A49B
  8
0
 10
143.2488417492448
 20
99.116970357453638
 30
0.0
 40
2.0
 50
0.0
 51
90.0
  0
ARC
  5
A49C
  8
0
 10
116.2488417492448
 20
126.1169703574536
 30
0.0
 40
2.0
 50
0.0
 51
90.0
  0
ARC
  5
A49D
  8
0
 10
122.2488417492448
 20
105.1169703574536
 30
0.0
 40
4.0
 50
180.0
 51
270.0
  0
ENDBLK
  5
A49F
  8
0
  0
BLOCK
  8
0
  2
*D12
 70
     1
 10
0.0
 20
0.0
 30
0.0
  3
*D12
  1

  0
LINE
  5
AB40
  8
SP
 10
2579.1211529572151
 20
9279.5412464436013
 30
0.0
 11
2579.1211529572151
 21
9209.5412464436013
 31
0.0
  0
LINE
  5
AB41
  8
SP
 10
2229.1211529572151
 20
9279.5412464436013
 30
0.0
 11
2229.1211529572151
 21
9209.5412464436013
 31
0.0
  0
LINE
  5
AB42
  8
SP
 10
2554.1211529572151
 20
9219.5412464436013
 30
0.0
 11
2254.1211529572138
 21
9219.5412464436013
 31
0.0
  0
INSERT
  5
AB43
  8
SP
  2
_OPEN
 10
2579.1211529572151
 20
9219.5412464436013
 30
0.0
 41
25.0
 42
25.0
 43
25.0
  0
INSERT
  5
AB44
  8
SP
  2
_OPEN
 10
2229.1211529572151
 20
9219.5412464436013
 30
0.0
 41
25.0
 42
25.0
 43
25.0
 50
180.0
  0
TEXT
  5
AB45
  8
SP
 10
2362.2447722136048
 20
9229.5412464435994
 30
0.0
 40
30.0
  1
350
 51
15.0
  0
POINT
  5
AB46
  8
DEFPOINTS
 62
     0
 10
2579.1211529572151
 20
9289.5412464436031
 30
0.0
  0
POINT
  5
AB47
  8
DEFPOINTS
 62
     0
 10
2229.1211529572151
 20
9289.5412464436031
 30
0.0
  0
POINT
  5
AB48
  8
DEFPOINTS
 62
     0
 10
2229.1211529572151
 20
9219.5412464436013
 30
0.0
  0
ENDBLK
  5
AB04
  8
0
  0
BLOCK
  8
0
  2
*D13
 70
     1
 10
0.0
 20
0.0
 30
0.0
  3
*D13
  1

  0
LINE
  5
AB07
  8
SP
 10
2589.1211529572138
 20
9739.5412464436013
 30
0.0
 11
2680.1512038374058
 21
9739.5412464436013
 31
0.0
  0
LINE
  5
AB08
  8
SP
 10
2589.1211529572138
 20
9289.5412464436031
 30
0.0
 11
2680.1512038374058
 21
9289.5412464436031
 31
0.0
  0
LINE
  5
AB09
  8
SP
 10
2670.1512038374058
 20
9714.5412464436013
 30
0.0
 11
2670.1512038374058
 21
9314.5412464436013
 31
0.0
  0
INSERT
  5
AB0A
  8
SP
  2
_OPEN
 10
2670.1512038374058
 20
9739.5412464436013
 30
0.0
 41
25.0
 42
25.0
 43
25.0
 50
90.0
  0
INSERT
  5
AB0B
  8
SP
  2
_OPEN
 10
2670.1512038374058
 20
9289.5412464436031
 30
0.0
 41
25.0
 42
25.0
 43
25.0
 50
270.0
  0
TEXT
  5
AB0C
  8
SP
 10
2660.151203837404
 20
9472.0906888590671
 30
0.0
 40
30.0
  1
450
 50
90.0
 51
15.0
  0
POINT
  5
AB0D
  8
DEFPOINTS
 62
     0
 10
2579.1211529572151
 20
9739.5412464436013
 30
0.0
  0
POINT
  5
AB0E
  8
DEFPOINTS
 62
     0
 10
2579.1211529572151
 20
9289.5412464436031
 30
0.0
  0
POINT
  5
AB0F
  8
DEFPOINTS
 62
     0
 10
2670.1512038374058
 20
9289.5412464436031
 30
0.0
  0
ENDBLK
  5
AB11
  8
0
  0
BLOCK
  8
0
  2
*D14
 70
     1
 10
0.0
 20
0.0
 30
0.0
  3
*D14
  1

  0
LINE
  5
AF1F
  8
SP
 10
2404.1211529572151
 20
8463.3272350085263
 30
0.0
 11
2404.1211529572151
 21
8401.6761894656502
 31
0.0
  0
LINE
  5
AF20
  8
SP
 10
2229.1211529572101
 20
8471.6761894656502
 30
0.0
 11
2229.1211529572101
 21
8401.6761894656502
 31
0.0
  0
LINE
  5
AF21
  8
SP
 10
2379.1211529572151
 20
8411.6761894656502
 30
0.0
 11
2254.1211529572101
 21
8411.6761894656502
 31
0.0
  0
INSERT
  5
AF22
  8
SP
  2
_OPEN
 10
2404.1211529572151
 20
8411.6761894656502
 30
0.0
 41
25.0
 42
25.0
 43
25.0
  0
INSERT
  5
AF23
  8
SP
  2
_OPEN
 10
2229.1211529572101
 20
8411.6761894656502
 30
0.0
 41
25.0
 42
25.0
 43
25.0
 50
180.0
  0
TEXT
  5
AF24
  8
SP
 10
2275.062532019796
 20
8421.6761894656483
 30
0.0
 40
30.0
  1
175
 51
15.0
  0
POINT
  5
AF25
  8
DEFPOINTS
 62
     0
 10
2404.1211529572151
 20
8473.3272350085299
 30
0.0
  0
POINT
  5
AF26
  8
DEFPOINTS
 62
     0
 10
2229.1211529572101
 20
8481.6761894656502
 30
0.0
  0
POINT
  5
AF27
  8
DEFPOINTS
 62
     0
 10
2229.1211529572101
 20
8411.6761894656502
 30
0.0
  0
ENDBLK
  5
AEE2
  8
0
  0
BLOCK
  8
0
  2
*D15
 70
     1
 10
0.0
 20
0.0
 30
0.0
  3
*D15
  1

  0
LINE
  5
AF28
  8
SP
 10
2579.1211529572151
 20
8471.6761894656502
 30
0.0
 11
2579.1211529572151
 21
8331.6761894656502
 31
0.0
  0
LINE
  5
AF29
  8
SP
 10
2229.1211529572151
 20
8471.6761894656502
 30
0.0
 11
2229.1211529572151
 21
8331.6761894656502
 31
0.0
  0
LINE
  5
AF2A
  8
SP
 10
2554.1211529572151
 20
8341.6761894656483
 30
0.0
 11
2254.1211529572151
 21
8341.6761894656483
 31
0.0
  0
INSERT
  5
AF2B
  8
SP
  2
_OPEN
 10
2579.1211529572151
 20
8341.6761894656483
 30
0.0
 41
25.0
 42
25.0
 43
25.0
  0
INSERT
  5
AF2C
  8
SP
  2
_OPEN
 10
2229.1211529572151
 20
8341.6761894656483
 30
0.0
 41
25.0
 42
25.0
 43
25.0
 50
180.0
  0
TEXT
  5
AF2D
  8
SP
 10
2362.2447722136062
 20
8351.6761894656483
 30
0.0
 40
30.0
  1
350
 51
15.0
  0
POINT
  5
AF2E
  8
DEFPOINTS
 62
     0
 10
2579.1211529572151
 20
8481.6761894656502
 30
0.0
  0
POINT
  5
AF2F
  8
DEFPOINTS
 62
     0
 10
2229.1211529572151
 20
8481.6761894656502
 30
0.0
  0
POINT
  5
AF30
  8
DEFPOINTS
 62
     0
 10
2229.1211529572151
 20
8341.6761894656483
 30
0.0
  0
ENDBLK
  5
AEEE
  8
0
  0
BLOCK
  8
0
  2
*D16
 70
     1
 10
0.0
 20
0.0
 30
0.0
  3
*D16
  1

  0
LINE
  5
AF31
  8
SP
 10
2404.1211529572151
 20
8463.3272350085263
 30
0.0
 11
2404.1211529572151
 21
8401.6761894656502
 31
0.0
  0
LINE
  5
AF32
  8
SP
 10
2579.1211529572151
 20
8471.6761894656502
 30
0.0
 11
2579.1211529572151
 21
8401.6761894656502
 31
0.0
  0
LINE
  5
AF33
  8
SP
 10
2429.1211529572151
 20
8411.6761894656502
 30
0.0
 11
2554.1211529572151
 21
8411.6761894656502
 31
0.0
  0
INSERT
  5
AF34
  8
SP
  2
_OPEN
 10
2404.1211529572151
 20
8411.6761894656502
 30
0.0
 41
25.0
 42
25.0
 43
25.0
 50
180.0
  0
INSERT
  5
AF35
  8
SP
  2
_OPEN
 10
2579.1211529572151
 20
8411.6761894656502
 30
0.0
 41
25.0
 42
25.0
 43
25.0
  0
TEXT
  5
AF36
  8
SP
 10
2450.0625320197992
 20
8421.6761894656483
 30
0.0
 40
30.0
  1
175
 51
15.0
  0
POINT
  5
AF37
  8
DEFPOINTS
 62
     0
 10
2404.1211529572151
 20
8473.3272350085299
 30
0.0
  0
POINT
  5
AF38
  8
DEFPOINTS
 62
     0
 10
2579.1211529572151
 20
8481.6761894656502
 30
0.0
  0
POINT
  5
AF39
  8
DEFPOINTS
 62
     0
 10
2579.1211529572151
 20
8411.6761894656502
 30
0.0
  0
ENDBLK
  5
AEFA
  8
0
  0
BLOCK
  8
0
  2
*D17
 70
     1
 10
0.0
 20
0.0
 30
0.0
  3
*D17
  1

  0
LINE
  5
AF3A
  8
SP
 10
3163.7622074881142
 20
8463.3272350085263
 30
0.0
 11
3163.7622074881142
 21
8401.6761894656502
 31
0.0
  0
LINE
  5
AF3B
  8
SP
 10
2858.7622074881142
 20
8501.6761894656483
 30
0.0
 11
2858.7622074881142
 21
8401.6761894656502
 31
0.0
  0
LINE
  5
AF3C
  8
SP
 10
3138.7622074881142
 20
8411.6761894656502
 30
0.0
 11
2883.7622074881142
 21
8411.6761894656502
 31
0.0
  0
INSERT
  5
AF3D
  8
SP
  2
_OPEN
 10
3163.7622074881142
 20
8411.6761894656502
 30
0.0
 41
25.0
 42
25.0
 43
25.0
  0
INSERT
  5
AF3E
  8
SP
  2
_OPEN
 10
2858.7622074881142
 20
8411.6761894656502
 30
0.0
 41
25.0
 42
25.0
 43
25.0
 50
180.0
  0
TEXT
  5
AF3F
  8
SP
 10
2969.3345433375589
 20
8421.6761894656483
 30
0.0
 40
30.0
  1
305
 51
15.0
  0
POINT
  5
AF40
  8
DEFPOINTS
 62
     0
 10
3163.7622074881142
 20
8473.3272350085299
 30
0.0
  0
POINT
  5
AF41
  8
DEFPOINTS
 62
     0
 10
2858.7622074881142
 20
8511.6761894656483
 30
0.0
  0
POINT
  5
AF42
  8
DEFPOINTS
 62
     0
 10
2858.7622074881142
 20
8411.6761894656502
 30
0.0
  0
ENDBLK
  5
AF06
  8
0
  0
BLOCK
  8
0
  2
*D18
 70
     1
 10
0.0
 20
0.0
 30
0.0
  3
*D18
  1

  0
LINE
  5
AF43
  8
SP
 10
2858.7622074881142
 20
8501.6761894656502
 30
0.0
 11
2858.7622074881142
 21
8331.6761894656502
 31
0.0
  0
LINE
  5
AF44
  8
SP
 10
3308.7622074881142
 20
8501.6761894656502
 30
0.0
 11
3308.7622074881142
 21
8331.6761894656502
 31
0.0
  0
LINE
  5
AF45
  8
SP
 10
2883.7622074881142
 20
8341.6761894656483
 30
0.0
 11
3283.7622074881142
 21
8341.6761894656483
 31
0.0
  0
INSERT
  5
AF46
  8
SP
  2
_OPEN
 10
2858.7622074881142
 20
8341.6761894656483
 30
0.0
 41
25.0
 42
25.0
 43
25.0
 50
180.0
  0
INSERT
  5
AF47
  8
SP
  2
_OPEN
 10
3308.7622074881142
 20
8341.6761894656483
 30
0.0
 41
25.0
 42
25.0
 43
25.0
  0
TEXT
  5
AF48
  8
SP
 10
3041.3116499035809
 20
8351.6761894656483
 30
0.0
 40
30.0
  1
450
 51
15.0
  0
POINT
  5
AF49
  8
DEFPOINTS
 62
     0
 10
2858.7622074881142
 20
8511.6761894656502
 30
0.0
  0
POINT
  5
AF4A
  8
DEFPOINTS
 62
     0
 10
3308.7622074881142
 20
8511.6761894656502
 30
0.0
  0
POINT
  5
AF4B
  8
DEFPOINTS
 62
     0
 10
3308.7622074881142
 20
8341.6761894656483
 30
0.0
  0
ENDBLK
  5
AF12
  8
0
  0
BLOCK
  8
0
  2
*D19
 70
     1
 10
0.0
 20
0.0
 30
0.0
  3
*D19
  1

  0
LINE
  5
AF4C
  8
SP
 10
3163.7622074881142
 20
8463.3272350085263
 30
0.0
 11
3163.7622074881142
 21
8401.6761894656502
 31
0.0
  0
LINE
  5
AF4D
  8
SP
 10
3308.7622074881142
 20
8501.6761894656502
 30
0.0
 11
3308.7622074881142
 21
8401.6761894656502
 31
0.0
  0
LINE
  5
AF4E
  8
SP
 10
3188.7622074881142
 20
8411.6761894656502
 30
0.0
 11
3283.7622074881142
 21
8411.6761894656502
 31
0.0
  0
INSERT
  5
AF4F
  8
SP
  2
_OPEN
 10
3163.7622074881142
 20
8411.6761894656502
 30
0.0
 41
25.0
 42
25.0
 43
25.0
 50
180.0
  0
INSERT
  5
AF50
  8
SP
  2
_OPEN
 10
3308.7622074881142
 20
8411.6761894656502
 30
0.0
 41
25.0
 42
25.0
 43
25.0
  0
TEXT
  5
AF51
  8
SP
 10
3194.7035865506982
 20
8421.6761894656483
 30
0.0
 40
30.0
  1
145
 51
15.0
  0
POINT
  5
AF52
  8
DEFPOINTS
 62
     0
 10
3163.7622074881142
 20
8473.3272350085299
 30
0.0
  0
POINT
  5
AF53
  8
DEFPOINTS
 62
     0
 10
3308.7622074881142
 20
8511.6761894656502
 30
0.0
  0
POINT
  5
AF54
  8
DEFPOINTS
 62
     0
 10
3308.7622074881142
 20
8411.6761894656502
 30
0.0
  0
ENDBLK
  5
AF1E
  8
0
  0
BLOCK
  8
0
  2
*D20
 70
     1
 10
0.0
 20
0.0
 30
0.0
  3
*D20
  1

  0
LINE
  5
B245
  8
SP
 10
2589.1211529572151
 20
8511.6761894656502
 30
0.0
 11
2656.1211529572151
 21
8511.6761894656502
 31
0.0
  0
LINE
  5
B246
  8
SP
 10
2589.1211529572151
 20
8481.6761894656502
 30
0.0
 11
2656.1211529572151
 21
8481.6761894656502
 31
0.0
  0
LINE
  5
B247
  8
SP
 10
2646.1211529572138
 20
8536.6761894656502
 30
0.0
 11
2646.1211529572138
 21
8561.6761894656502
 31
0.0
  0
LINE
  5
B248
  8
SP
 10
2646.1211529572138
 20
8456.6761894656502
 30
0.0
 11
2646.1211529572138
 21
8359.5571330347866
 31
0.0
  0
LINE
  5
B249
  8
SP
 10
2646.1211529572138
 20
8511.6761894656502
 30
0.0
 11
2646.1211529572138
 21
8481.6761894656502
 31
0.0
  0
INSERT
  5
B24A
  8
SP
  2
_DOT
 10
2646.1211529572138
 20
8511.6761894656502
 30
0.0
 41
25.0
 42
25.0
 43
25.0
 50
270.0
  0
INSERT
  5
B24B
  8
SP
  2
_OPEN
 10
2646.1211529572138
 20
8481.6761894656502
 30
0.0
 41
25.0
 42
25.0
 43
25.0
 50
90.0
  0
TEXT
  8
0
  40
30
  5
B257
  72
0
  71
0
 10
2561.12
 20
8342.52
 30
0.000000
  1
30
  0
POINT
  5
B24D
  8
DEFPOINTS
 62
     0
 10
2579.1211529572151
 20
8511.6761894656502
 30
0.0
  0
POINT
  5
B24E
  8
DEFPOINTS
 62
     0
 10
2579.1211529572151
 20
8481.6761894656502
 30
0.0
  0
POINT
  5
B24F
  8
DEFPOINTS
 62
     0
 10
2646.1211529572138
 20
8481.6761894656502
 30
0.0
  0
ENDBLK
  5
B17F
  8
0
  0
BLOCK
  8
0
  2
*D21
 70
     1
 10
0.0
 20
0.0
 30
0.0
  3
*D21
  1

  0
LINE
  5
B250
  8
SP
 10
2554.1211529572129
 20
8533.6761894656502
 30
0.0
 11
2656.1211529572129
 21
8533.6761894656502
 31
0.0
  0
LINE
  5
B251
  8
SP
 10
2589.1211529572151
 20
8511.6761894656502
 30
0.0
 11
2656.1211529572129
 21
8511.6761894656502
 31
0.0
  0
LINE
  5
B252
  8
SP
 10
2646.1211529572129
 20
8533.6761894656502
 30
0.0
 11
2646.1211529572129
 21
8511.6761894656502
 31
0.0
  0
TEXT
  8
0
  40
30
  5
B258
  72
0
  71
0
 10
2622.82
 20
8460.65
 30
0.000000
  1
（22）
  0
POINT
  5
B254
  8
DEFPOINTS
 62
     0
 10
2544.1211529572138
 20
8533.6761894656502
 30
0.0
  0
POINT
  5
B255
  8
DEFPOINTS
 62
     0
 10
2579.1211529572151
 20
8511.6761894656502
 30
0.0
  0
POINT
  5
B256
  8
DEFPOINTS
 62
     0
 10
2646.1211529572129
 20
8511.6761894656502
 30
0.0
  0
ENDBLK
  5
B18E
  8
0
  0
ENDSEC
  0
SECTION
  2
ENTITIES
  0
ARC
  5
5D61
  8
FUTO
 10
2415.1211529572138
 20
8722.6761894656502
 30
0.0
 40
123.0
 50
179.5135224137598
 51
270.44507939625589
  0
ARC
  5
5D62
  8
FUTO
 10
2415.1211529572138
 20
8722.6761894656502
 30
0.0
 40
135.0
 50
179.5135224137598
 51
270.44507939625589
  0
ARC
  5
5D63
  8
FUTO
 10
2395.1211529572138
 20
8724.6761894656483
 30
0.0
 40
115.0
 50
94.265608915666306
 51
180.53161476225981
  0
ARC
  5
5D64
  8
FUTO
 10
2395.1211529572138
 20
8724.6761894656483
 30
0.0
 40
103.0
 50
94.265608915666306
 51
180.53161476225981
  0
ARC
  5
5D65
  8
FUTO
 10
2404.1228177655271
 20
8729.9893469090021
 30
0.0
 40
64.186850605661149
 50
296.75862288962992
 51
243.29312137770901
  0
CIRCLE
  5
5D66
  8
CT
 10
2404.1211529572138
 20
8733.6761894656483
 30
0.0
 40
90.0
  0
LINE
  5
5D67
  8
FUTO
 10
2298.921152957214
 20
8670.6761894656483
 30
0.0
 11
2509.3211529572131
 21
8670.6761894656483
 31
0.0
  0
LINE
  5
5D68
  8
FUTO
 10
2464.1211529572138
 20
8652.2761894656469
 30
0.0
 11
2344.1211529572129
 21
8652.2761894656487
 31
0.0
  0
LINE
  5
5D69
  8
CT
 10
2587.2193008122372
 20
8733.6761894656483
 30
0.0
 11
2258.27552052079
 21
8733.6761894656483
 31
0.0
  0
LINE
  5
5D6A
  8
FUTO
 10
2369.1211529572138
 20
8838.6761894656483
 30
0.0
 11
2439.1211529572138
 21
8838.6761894656483
 31
0.0
  0
LINE
  5
5D6B
  8
FUTO
 10
2433.1193529572151
 20
8672.6761894656483
 30
0.0
 11
2375.2204529572141
 21
8672.6761894656483
 31
0.0
  0
LINE
  5
5D6E
  8
FUTO
 10
2567.1211529572151
 20
8862.6761894656483
 30
0.0
 11
2382.1211529572138
 21
8862.6761894656483
 31
0.0
  0
LINE
  5
5D6F
  8
FUTO
 10
2586.1211529572151
 20
8863.6761894656483
 30
0.0
 11
2382.1211529572138
 21
8863.6761894656483
 31
0.0
  0
LINE
  5
5D70
  8
FUTO
 10
2550.1211529572138
 20
8848.6761894656465
 30
0.0
 11
2418.1211529572151
 21
8848.6761894656465
 31
0.0
  0
ARC
  5
5D71
  8
FUTO
 10
2417.1211529572138
 20
8746.6761894656483
 30
0.0
 40
147.0
 50
312.71864451436312
 51
0.0
  0
ARC
  5
5D72
  8
FUTO
 10
2417.1211529572138
 20
8746.6761894656483
 30
0.0
 40
159.0
 50
317.2153050893574
 51
0.0
  0
LINE
  5
5D73
  8
FUTO
 10
2515.7211529572141
 20
8533.6761894656502
 30
0.0
 11
2544.1211529572138
 21
8533.6761894656502
 31
0.0
  0
LINE
  5
5D74
  8
FUTO
 10
2515.1211529572129
 20
8535.2761894656487
 30
0.0
 11
2544.1211529572138
 21
8535.2761894656487
 31
0.0
  0
LINE
  5
5D76
  8
FUTO
 10
2544.1211529572138
 20
8533.6761894656502
 30
0.0
 11
2544.1211529572138
 21
8535.2761894656487
 31
0.0
  0
LINE
  5
5D77
  8
FUTO
 10
2576.1211529572138
 20
8848.6761894656465
 30
0.0
 11
2576.1211529572138
 21
8746.6761894656483
 31
0.0
  0
LINE
  5
5D78
  8
FUTO
 10
2564.1211529572138
 20
8863.6761894656483
 30
0.0
 11
2564.1211529572138
 21
8746.6761894656483
 31
0.0
  0
LINE
  5
5D79
  8
FUTO
 10
2586.1211529572151
 20
8862.6761894656483
 30
0.0
 11
2567.1211529572151
 21
8862.6761894656483
 31
0.0
  0
LINE
  5
5D7A
  8
FUTO
 10
2586.1211529572151
 20
8863.6761894656483
 30
0.0
 11
2586.1211529572151
 21
8862.6761894656483
 31
0.0
  0
LINE
  5
5D7B
  8
FUTO
 10
2561.7069393948409
 20
8860.261975903275
 30
0.0
 11
2550.1211529572138
 21
8848.6761894656465
 31
0.0
  0
LINE
  5
5D7C
  8
CT
 10
2576.1211529572138
 20
8870.8610350440813
 30
0.0
 11
2576.1211529572138
 21
8854.2998756768175
 31
0.0
  0
ARC
  5
5D7D
  8
FUTO
 10
2563.1211529572151
 20
8858.8477623409017
 30
0.0
 40
2.0
 50
0.0
 51
134.99999999999071
  0
LINE
  5
5D7E
  8
FUTO
 10
2565.1211529572138
 20
8860.6761894656483
 30
0.0
 11
2565.1211529572138
 21
8848.6761894656465
 31
0.0
  0
ARC
  5
5D7F
  8
FUTO
 10
2567.1211529572151
 20
8860.6761894656483
 30
0.0
 40
2.0
 50
89.999999999999986
 51
179.99999999999989
  0
LINE
  5
5D80
  8
FUTO
 10
2576.1211529572138
 20
8848.6761894656465
 30
0.0
 11
2564.1211529572138
 21
8848.6761894656465
 31
0.0
  0
LINE
  5
5D81
  8
FUTO
 10
2510.9211529572131
 20
8583.8761894656473
 30
0.0
 11
2510.921152957214
 21
8667.4761894656494
 31
0.0
  0
LINE
  5
5D82
  8
FUTO
 10
2512.521152957213
 20
8584.8761894656491
 30
0.0
 11
2512.5211529572139
 21
8668.4761894656476
 31
0.0
  0
ARC
  5
5D83
  8
FUTO
 10
2417.1211529572138
 20
8746.6761894656483
 30
0.0
 40
159.0
 50
269.59287178573129
 51
317.2153050893574
  0
ARC
  5
5D84
  8
FUTO
 10
2417.1211529572138
 20
8746.6761894656483
 30
0.0
 40
147.0
 50
269.59287178573129
 51
312.71864451436312
  0
LINE
  5
5D85
  8
FUTO
 10
2514.1211529572138
 20
8536.213904973738
 30
0.0
 11
2514.1211529572138
 21
8763.6761894656483
 31
0.0
  0
LINE
  5
5D86
  8
FUTO
 10
2512.521152957213
 20
8536.6761894656502
 30
0.0
 11
2512.5211529572139
 21
8765.2761894656505
 31
0.0
  0
LINE
  5
5D87
  8
CT
 10
2404.1211529572138
 20
8886.1327277346245
 30
0.0
 11
2404.1211529572129
 21
8473.3272350085299
 31
0.0
  0
ARC
  5
5D89
  8
FUTO
 10
2512.521152957213
 20
8533.6761894656502
 30
0.0
 40
3.0
 50
0.0000000000000085
 51
0.1194908935784608
  0
ARC
  5
5D8A
  8
FUTO
 10
2515.1211529572129
 20
8536.2761894656487
 30
0.0
 40
1.0
 50
180.0
 51
270.0
  0
ARC
  5
5D8B
  8
FUTO
 10
2515.7211529572141
 20
8536.8761894656491
 30
0.0
 40
3.2000000000000002
 50
180.0
 51
270.0
  0
LINE
  5
5D8C
  8
CT
 10
2503.2869403383811
 20
8598.8761894656491
 30
0.0
 11
2522.7611419489399
 21
8598.8761894656491
 31
0.0
  0
LINE
  5
5D8D
  8
FUTO
 10
2512.521152957213
 20
8583.8761894656473
 30
0.0
 11
2510.9211529572131
 21
8583.8761894656473
 31
0.0
  0
LINE
  5
5D8E
  8
FUTO
 10
2438.1211529572151
 20
8670.6761894656483
 30
0.0
 11
2468.1211529572138
 21
8670.6761894656483
 31
0.0
  0
LINE
  5
5D8F
  8
FUTO
 10
2514.1211529572138
 20
8763.6761894656483
 30
0.0
 11
2439.1211529572138
 21
8838.6761894656483
 31
0.0
  0
LINE
  5
5D90
  8
FUTO
 10
2453.7060529572141
 20
8687.3912894656496
 30
0.0
 11
2468.1211529572138
 21
8672.9761894656476
 31
0.0
  0
LINE
  5
5D91
  8
FUTO
 10
2468.1211529572138
 20
8672.9761894656476
 30
0.0
 11
2439.257252957214
 21
8672.9761894656476
 31
0.0
  0
LINE
  5
5D92
  8
FUTO
 10
2494.9601501716988
 20
8669.0761894656498
 30
0.0
 11
2509.3211529572131
 21
8669.0761894656498
 31
0.0
  0
LINE
  5
5D93
  8
CT
 10
2503.2869403383811
 20
8653.8761894656473
 30
0.0
 11
2522.7611419489408
 21
8653.8761894656473
 31
0.0
  0
ARC
  5
5D94
  8
FUTO
 10
2509.3211529572131
 20
8667.4761894656494
 30
0.0
 40
3.2000000000000002
 50
0.0000000000000085
 51
90.0
  0
ARC
  5
5D95
  8
FUTO
 10
2509.3211529572131
 20
8667.4761894656494
 30
0.0
 40
1.6000000000000001
 50
0.0000000000000085
 51
90.0
  0
LINE
  5
5D96
  8
FUTO
 10
2497.8971975254599
 20
8670.6761894656483
 30
0.0
 11
2464.1211529572138
 21
8652.2761894656487
 31
0.0
  0
LINE
  5
5D97
  8
CT
 10
2495.585226675832
 20
8695.7905296615063
 30
0.0
 11
2478.9553950906279
 21
8702.6788314440782
 31
0.0
  0
CIRCLE
  5
5D98
  8
FUTO
 10
2487.2703108832302
 20
8699.2346805527923
 30
0.0
 40
4.0
  0
LINE
  5
5D99
  8
FUTO
 10
2468.1211529572138
 20
8672.9761894656476
 30
0.0
 11
2468.1211529572138
 21
8670.6761894656483
 31
0.0
  0
LINE
  5
5D9A
  8
CT
 10
2495.585226675832
 20
8771.5618492697922
 30
0.0
 11
2478.9553950906279
 21
8764.6735474872203
 31
0.0
  0
CIRCLE
  5
5D9B
  8
FUTO
 10
2487.2703108832302
 20
8768.1176983785081
 30
0.0
 40
4.0
  0
LINE
  5
5D9C
  8
CT
 10
2442.0068127613581
 20
8825.1402631842666
 30
0.0
 11
2435.1185109787862
 21
8808.5104315990648
 31
0.0
  0
CIRCLE
  5
5D9D
  8
FUTO
 10
2438.5626618700721
 20
8816.8253473916666
 30
0.0
 40
4.0
  0
CIRCLE
  5
5D9E
  8
FUTO
 10
2438.5626618700721
 20
8650.5270315396356
 30
0.0
 40
4.0
  0
LINE
  5
5D9F
  8
CT
 10
2442.0068127613581
 20
8642.2121157470319
 30
0.0
 11
2435.1185109787871
 21
8658.8419473322356
 31
0.0
  0
ARC
  5
5DA0
  8
FUTO
 10
2439.2573529572151
 20
8676.6762894656495
 30
0.0
 40
3.7000999999999991
 50
218.82630000000199
 51
274.60909999999433
  0
ARC
  5
5DA1
  8
FUTO
 10
2438.9685529572139
 20
8677.1759894656498
 30
0.0
 40
5.9997999999999987
 50
220.71839999999469
 51
261.88309999999711
  0
LINE
  5
5DA2
  8
FUTO
 10
2438.1211529572151
 20
8671.2323894656474
 30
0.0
 11
2438.1211529572151
 21
8670.6761894656483
 31
0.0
  0
LINE
  5
5DA3
  8
FUTO
 10
2406.5353665195839
 20
8860.261975903275
 30
0.0
 11
2418.1211529572151
 21
8848.6761894656465
 31
0.0
  0
ARC
  5
5DA4
  8
FUTO
 10
2400.6669464141892
 20
8838.6761894656483
 30
0.0
 40
10.0
 50
89.999999999999986
 51
150.0000000000027
  0
ARC
  5
5DA5
  8
FUTO
 10
2386.1211529572151
 20
8845.3410144976351
 30
0.0
 40
18.0
 50
274.26560891566618
 51
354.69311266367549
  0
ARC
  5
5DA6
  8
FUTO
 10
2405.1211529572111
 20
8858.8477623409017
 30
0.0
 40
2.0
 50
45.000000000009187
 51
179.99999999999989
  0
LINE
  5
5DA7
  8
FUTO
 10
2403.1211529572138
 20
8860.6761894656483
 30
0.0
 11
2403.1211529572138
 21
8848.6761894656465
 31
0.0
  0
ARC
  5
5DA8
  8
FUTO
 10
2386.1211529572151
 20
8845.3410144976351
 30
0.0
 40
18.0
 50
354.69311266367549
 51
0.0
  0
LINE
  5
5DA9
  8
FUTO
 10
2404.1211529572138
 20
8848.6761894656465
 30
0.0
 11
2400.6669464141892
 21
8848.6761894656465
 31
0.0
  0
ARC
  5
5DAA
  8
FUTO
 10
2401.1211529572138
 20
8860.6761894656483
 30
0.0
 40
2.0
 50
0.0
 51
89.999999999999986
  0
LINE
  5
5DAB
  8
CT
 10
2392.1211529572138
 20
8870.8610350440813
 30
0.0
 11
2392.1211529572138
 21
8852.9924161740491
 31
0.0
  0
ARC
  5
5DAC
  8
FUTO
 10
2386.1211529572151
 20
8845.3410144976351
 30
0.0
 40
6.0
 50
274.26560891566618
 51
335.38293604451962
  0
ARC
  5
5DAD
  8
FUTO
 10
2400.6669464141892
 20
8838.6761894656483
 30
0.0
 40
10.0
 50
150.0000000000027
 51
155.38293604451411
  0
LINE
  5
5DAE
  8
FUTO
 10
2382.1211529572138
 20
8863.6761894656483
 30
0.0
 11
2382.1211529572138
 21
8862.6761894656483
 31
0.0
  0
LINE
  5
5DB0
  8
FUTO
 10
2295.7211529572141
 20
8583.8761894656473
 30
0.0
 11
2295.7211529572151
 21
8667.4761894656494
 31
0.0
  0
LINE
  5
5DB1
  8
FUTO
 10
2297.3211529572141
 20
8583.8761894656473
 30
0.0
 11
2297.3211529572141
 21
8667.4761894656494
 31
0.0
  0
LINE
  5
5DB2
  8
FUTO
 10
2294.1211529572138
 20
8536.2761894656487
 30
0.0
 11
2294.1211529572138
 21
8763.6761894656483
 31
0.0
  0
LINE
  5
5DB3
  8
FUTO
 10
2295.7211529572141
 20
8536.8761894656491
 30
0.0
 11
2295.7211529572151
 21
8765.2761894656505
 31
0.0
  0
LINE
  5
5DB4
  8
CT
 10
2285.8127110386231
 20
8598.8761894656491
 30
0.0
 11
2305.2869126491819
 21
8598.8761894656491
 31
0.0
  0
ARC
  5
5DB5
  8
FUTO
 10
2292.5211529572139
 20
8536.8761894656491
 30
0.0
 40
3.2000000000000002
 50
270.0
 51
0.0000000000000085
  0
LINE
  5
5DB6
  8
FUTO
 10
2295.7211529572141
 20
8583.8761894656473
 30
0.0
 11
2297.3211529572141
 21
8583.8761894656473
 31
0.0
  0
LINE
  5
5DB7
  8
FUTO
 10
2293.1211529572129
 20
8535.2761894656487
 30
0.0
 11
2264.1211529572129
 21
8535.2761894656487
 31
0.0
  0
LINE
  5
5DB8
  8
FUTO
 10
2292.5211529572139
 20
8533.6761894656502
 30
0.0
 11
2264.1211529572129
 21
8533.6761894656502
 31
0.0
  0
ARC
  5
5DB9
  8
FUTO
 10
2293.1211529572129
 20
8536.2761894656487
 30
0.0
 40
1.0
 50
270.0
 51
0.0000000000000085
  0
LINE
  5
5DBB
  8
FUTO
 10
2264.1211529572129
 20
8533.6761894656502
 30
0.0
 11
2264.1211529572129
 21
8535.2761894656487
 31
0.0
  0
LINE
  5
5DBC
  8
FUTO
 10
2294.1211529572138
 20
8763.6761894656483
 30
0.0
 11
2369.1211529572138
 21
8838.6761894656483
 31
0.0
  0
LINE
  5
5DBD
  8
CT
 10
2285.8127110386231
 20
8653.8761894656473
 30
0.0
 11
2305.2869126491819
 21
8653.8761894656473
 31
0.0
  0
LINE
  5
5DBE
  8
CT
 10
2366.2354931530699
 20
8825.1402631842648
 30
0.0
 11
2373.1237949356409
 21
8808.5104315990648
 31
0.0
  0
CIRCLE
  5
5DBF
  8
FUTO
 10
2369.6796440443559
 20
8816.8253473916648
 30
0.0
 40
4.0
  0
LINE
  5
5DC0
  8
FUTO
 10
2310.3451083889681
 20
8670.6761894656483
 30
0.0
 11
2344.1211529572129
 21
8652.2761894656487
 31
0.0
  0
LINE
  5
5DC1
  8
FUTO
 10
2370.1211529572151
 20
8670.6761894656483
 30
0.0
 11
2340.1211529572138
 21
8670.6761894656483
 31
0.0
  0
LINE
  5
5DC2
  8
FUTO
 10
2369.308552957214
 20
8672.9761894656476
 30
0.0
 11
2340.3848529572128
 21
8672.9761894656476
 31
0.0
  0
ARC
  5
5DC3
  8
FUTO
 10
2369.042552957214
 20
8676.2763894656473
 30
0.0
 40
3.3001999999999989
 50
270.00130000000058
 51
326.01850000000201
  0
LINE
  5
5DC4
  8
FUTO
 10
2370.1211529572151
 20
8671.2520894656482
 30
0.0
 11
2370.1211529572151
 21
8670.6761894656483
 31
0.0
  0
CIRCLE
  5
5DC5
  8
FUTO
 10
2369.6796440443559
 20
8650.5270315396356
 30
0.0
 40
4.0
  0
LINE
  5
5DC6
  8
CT
 10
2366.2354931530699
 20
8642.2121157470319
 30
0.0
 11
2373.1237949356419
 21
8658.8419473322356
 31
0.0
  0
ARC
  5
5DC7
  8
FUTO
 10
2369.1004529572142
 20
8677.1760894656509
 30
0.0
 40
5.9999000000000002
 50
279.6292000000023
 51
320.9463999999993
  0
LINE
  5
5DC8
  8
FUTO
 10
2354.775252957214
 20
8687.6302894656474
 30
0.0
 11
2340.1211529572138
 21
8672.9761894656476
 31
0.0
  0
LINE
  5
5DC9
  8
FUTO
 10
2340.1211529572138
 20
8672.9761894656476
 30
0.0
 11
2340.1211529572138
 21
8670.6761894656483
 31
0.0
  0
LINE
  5
5DCA
  8
CT
 10
2312.657079238596
 20
8695.7905296615063
 30
0.0
 11
2329.2869108238001
 21
8702.6788314440764
 31
0.0
  0
CIRCLE
  5
5DCB
  8
FUTO
 10
2320.9719950311978
 20
8699.2346805527886
 30
0.0
 40
4.0
  0
ARC
  5
5DCC
  8
FUTO
 10
2298.921152957214
 20
8667.4761894656494
 30
0.0
 40
3.2000000000000002
 50
90.0
 51
180.0
  0
LINE
  5
5DCD
  8
FUTO
 10
2298.921152957214
 20
8669.0761894656498
 30
0.0
 11
2313.2821557427292
 21
8669.0761894656462
 31
0.0
  0
ARC
  5
5DCE
  8
FUTO
 10
2298.921152957214
 20
8667.4761894656494
 30
0.0
 40
1.6000000000000001
 50
90.0
 51
180.0
  0
LINE
  5
5DCF
  8
CT
 10
2312.657079238596
 20
8771.5618492697922
 30
0.0
 11
2329.2869108238001
 21
8764.6735474872203
 31
0.0
  0
CIRCLE
  5
5DD0
  8
FUTO
 10
2320.9719950311978
 20
8768.1176983785081
 30
0.0
 40
4.0
  0
DIMENSION
  5
5E3A
  8
SP
  2
*D1
 10
2646.1211529572138
 20
8863.6761894656483
 30
0.0
 11
2621.1211529572129
 21
8798.6761894656483
 31
0.0
 70
     0
 13
2587.2193008122372
 23
8733.6761894656483
 33
0.0
 14
2586.1211529572151
 24
8863.6761894656483
 34
0.0
 50
90.0
  0
DIMENSION
  5
5E3B
  8
SP
  2
*D2
 10
2646.1211529572138
 20
8733.6761894656483
 30
0.0
 11
2621.1211529572129
 21
8633.6761894656483
 31
0.0
 70
     0
 13
2544.1211529572138
 23
8533.6761894656502
 33
0.0
 14
2587.2193008122372
 24
8733.6761894656483
 34
0.0
 50
90.0
  0
DIMENSION
  5
6433
  8
SP
  2
*D3
 10
2404.1211529572138
 20
8933.6761894656483
 30
0.0
 11
2484.1211529572138
 21
8958.6761894656483
 31
0.0
 70
     0
 13
2564.1211529572138
 23
8863.6761894656483
 33
0.0
 14
2404.1211529572138
 24
8886.1327277346245
 34
0.0
  0
DIMENSION
  5
6440
  8
SP
  2
*D4
 10
2292.1211529572138
 20
8933.6761894656483
 30
0.0
 11
2348.1211529572138
 21
8958.6761894656483
 31
0.0
 70
     0
 13
2404.1211529572138
 23
8886.1327277346245
 33
0.0
 14
2292.1211529572138
 24
8722.6761894656502
 34
0.0
  0
LINE
  5
74A6
  8
CT
 10
2399.5024776616729
 20
9634.5412464436013
 30
0.0
 11
2384.739828252757
 21
9634.5412464436013
 31
0.0
  0
LINE
  5
74A7
  8
CT
 10
2399.5024776616729
 20
9554.5412464436013
 30
0.0
 11
2384.739828252757
 21
9554.5412464436013
 31
0.0
  0
ARC
  5
74A8
  8
FUTO
 10
2402.1211529572151
 20
9537.5412464435994
 30
0.0
 40
20.0
 50
180.0
 51
270.0
  0
ARC
  5
74A9
  8
FUTO
 10
2402.1211529572151
 20
9651.5412464436013
 30
0.0
 40
20.0
 50
90.0
 51
180.0
  0
LINE
  5
74B5
  8
CT
 10
2241.7526339273568
 20
9594.5412464436013
 30
0.0
 11
2605.607011480341
 21
9594.5412464436013
 31
0.0
  0
LINE
  5
74B6
  8
FUTO
 10
2382.1211529572138
 20
9651.5412464436013
 30
0.0
 11
2382.1211529572138
 21
9537.5412464435994
 31
0.0
  0
LINE
  5
74B7
  8
FUTO
 10
2280.7211529572151
 20
9546.2831962449382
 30
0.0
 11
2280.7211529572151
 21
9642.7992966422607
 31
0.0
  0
LINE
  5
74B8
  8
FUTO
 10
2280.1211529572138
 20
9546.2831962449382
 30
0.0
 11
2280.1211529572138
 21
9642.7992966422607
 31
0.0
  0
LINE
  5
74C4
  8
FUTO
 10
2288.7211529572151
 20
9538.2831962449382
 30
0.0
 11
2382.1211529572151
 21
9538.2831962449382
 31
0.0
  0
LINE
  5
74C5
  8
FUTO
 10
2288.7211529572151
 20
9537.6831962449396
 30
0.0
 11
2382.1211529572151
 21
9537.6831962449396
 31
0.0
  0
ARC
  5
74C9
  8
FUTO
 10
2288.7211529572151
 20
9546.2831962449382
 30
0.0
 40
8.5999999999999996
 50
180.0
 51
270.0
  0
ARC
  5
74CA
  8
FUTO
 10
2288.7211529572151
 20
9546.2831962449382
 30
0.0
 40
8.0
 50
180.0
 51
270.0
  0
POINT
  5
74D6
  8
DEFPOINTS
 10
2382.1211529572138
 20
9537.5412464435994
 30
0.0
  0
LINE
  5
74D7
  8
FUTO
 10
2285.7867761556081
 20
9650.8831962449403
 30
0.0
 11
2382.1211529572151
 21
9650.8831962449403
 31
0.0
  0
LINE
  5
74D8
  8
FUTO
 10
2285.894273628865
 20
9650.2831962449382
 30
0.0
 11
2382.1211529572151
 21
9650.2831962449382
 31
0.0
  0
ARC
  5
74DA
  8
FUTO
 10
2288.7211529572151
 20
9642.7992966422607
 30
0.0
 40
8.5999999999999996
 50
109.95040400980091
 51
180.0
  0
ARC
  5
74DB
  8
FUTO
 10
2288.7211529572151
 20
9642.7992966422607
 30
0.0
 40
8.0
 50
110.69296086014189
 51
180.0
  0
LINE
  5
74E0
  8
FUTO
 10
2566.1211529572138
 20
9641.5412464436013
 30
0.0
 11
2566.1211529572138
 21
9547.5412464436013
 31
0.0
  0
LINE
  5
74E1
  8
FUTO
 10
2586.1211529572151
 20
9651.5412464436013
 30
0.0
 11
2586.1211529572151
 21
9537.5412464435994
 31
0.0
  0
LINE
  5
74E2
  8
FUTO
 10
2402.1211529572151
 20
9641.5412464436013
 30
0.0
 11
2402.1211529572151
 21
9547.5412464436013
 31
0.0
  0
LINE
  5
74E3
  8
HOSO
 10
2563.1922207690809
 20
9648.6123142554661
 30
0.0
 11
2405.0500851453498
 21
9540.4701786317346
 31
0.0
  0
LINE
  5
74E4
  8
HOSO
 10
2563.1922207690809
 20
9540.4701786317346
 30
0.0
 11
2405.0500851453498
 21
9648.6123142554661
 31
0.0
  0
LINE
  5
74E5
  8
CT
 10
2404.1211529572138
 20
9689.0556291608555
 30
0.0
 11
2404.1211529572138
 21
9306.3458193096176
 31
0.0
  0
LINE
  5
74E6
  8
FUTO
 10
2556.1211529572138
 20
9537.5412464435994
 30
0.0
 11
2412.1211529572138
 21
9537.5412464435994
 31
0.0
  0
LINE
  5
74E7
  8
FUTO
 10
2566.1211529572138
 20
9517.5412464436013
 30
0.0
 11
2402.1211529572151
 21
9517.5412464436013
 31
0.0
  0
ARC
  5
74F8
  8
FUTO
 10
2412.1211529572151
 20
9547.5412464436013
 30
0.0
 40
10.0
 50
180.0
 51
270.0
  0
CIRCLE
  5
74F9
  8
FUTO
 10
2392.1211529572151
 20
9554.5412464436013
 30
0.0
 40
4.0
  0
LINE
  5
74FA
  8
CT
 10
2392.1211529572161
 20
9547.1599217391413
 30
0.0
 11
2392.1211529572161
 21
9561.9225711480576
 31
0.0
  0
LINE
  5
74FF
  8
CT
 10
2434.1211529572151
 20
9520.1599217391449
 30
0.0
 11
2434.1211529572151
 21
9534.9225711480613
 31
0.0
  0
CIRCLE
  5
7500
  8
FUTO
 10
2434.1211529572151
 20
9527.5412464436013
 30
0.0
 40
4.0
  0
LINE
  5
7501
  8
CT
 10
2441.5024776616729
 20
9527.5412464436013
 30
0.0
 11
2426.739828252757
 21
9527.5412464436013
 31
0.0
  0
LINE
  5
7507
  8
CT
 10
2541.5024776616729
 20
9527.5412464436013
 30
0.0
 11
2526.7398282527579
 21
9527.5412464436013
 31
0.0
  0
LINE
  5
7508
  8
CT
 10
2534.1211529572151
 20
9520.1599217391449
 30
0.0
 11
2534.1211529572151
 21
9534.9225711480613
 31
0.0
  0
CIRCLE
  5
7509
  8
FUTO
 10
2534.1211529572151
 20
9527.5412464436013
 30
0.0
 40
4.0
  0
ARC
  5
750D
  8
FUTO
 10
2566.1211529572151
 20
9537.5412464435994
 30
0.0
 40
20.0
 50
270.0
 51
0.0
  0
LINE
  5
750E
  8
CT
 10
2568.739828252757
 20
9554.5412464436013
 30
0.0
 11
2583.5024776616729
 21
9554.5412464436013
 31
0.0
  0
ARC
  5
750F
  8
FUTO
 10
2556.1211529572151
 20
9547.5412464436013
 30
0.0
 40
10.0
 50
270.0
 51
0.0
  0
CIRCLE
  5
7510
  8
FUTO
 10
2576.1211529572151
 20
9554.5412464436013
 30
0.0
 40
4.0
  0
LINE
  5
7511
  8
CT
 10
2576.1211529572138
 20
9547.1599217391413
 30
0.0
 11
2576.1211529572138
 21
9561.9225711480576
 31
0.0
  0
POINT
  5
7512
  8
DEFPOINTS
 10
2586.1211529572151
 20
9537.5412464435994
 30
0.0
  0
LINE
  5
7513
  8
FUTO
 10
2566.1211529572138
 20
9671.5412464436013
 30
0.0
 11
2402.1211529572151
 21
9671.5412464436013
 31
0.0
  0
LINE
  5
7514
  8
FUTO
 10
2556.1211529572138
 20
9651.5412464436013
 30
0.0
 11
2412.1211529572138
 21
9651.5412464436013
 31
0.0
  0
LINE
  5
7516
  8
CT
 10
2392.1211529572161
 20
9641.9225711480576
 30
0.0
 11
2392.1211529572161
 21
9627.1599217391413
 31
0.0
  0
ARC
  5
7517
  8
FUTO
 10
2412.1211529572151
 20
9641.5412464436013
 30
0.0
 40
10.0
 50
90.0
 51
180.0
  0
CIRCLE
  5
7518
  8
FUTO
 10
2392.1211529572151
 20
9634.5412464436013
 30
0.0
 40
4.0
  0
LINE
  5
7519
  8
CT
 10
2441.5024776616729
 20
9661.5412464436031
 30
0.0
 11
2426.739828252757
 21
9661.5412464436031
 31
0.0
  0
CIRCLE
  5
751A
  8
FUTO
 10
2434.1211529572151
 20
9661.5412464436031
 30
0.0
 40
4.0
  0
LINE
  5
751B
  8
CT
 10
2434.1211529572151
 20
9668.9225711480576
 30
0.0
 11
2434.1211529572151
 21
9654.1599217391431
 31
0.0
  0
LINE
  5
751E
  8
CT
 10
2541.5024776616729
 20
9661.5412464436031
 30
0.0
 11
2526.7398282527579
 21
9661.5412464436031
 31
0.0
  0
CIRCLE
  5
751F
  8
FUTO
 10
2534.1211529572151
 20
9661.5412464436031
 30
0.0
 40
4.0
  0
LINE
  5
7520
  8
CT
 10
2534.1211529572151
 20
9668.9225711480576
 30
0.0
 11
2534.1211529572151
 21
9654.1599217391431
 31
0.0
  0
ARC
  5
7521
  8
FUTO
 10
2566.1211529572151
 20
9651.5412464436013
 30
0.0
 40
20.0
 50
0.0
 51
90.0
  0
LINE
  5
7522
  8
CT
 10
2576.1211529572138
 20
9641.9225711480576
 30
0.0
 11
2576.1211529572138
 21
9627.1599217391413
 31
0.0
  0
LINE
  5
7523
  8
CT
 10
2568.739828252757
 20
9634.5412464436013
 30
0.0
 11
2583.5024776616729
 21
9634.5412464436013
 31
0.0
  0
ARC
  5
7524
  8
FUTO
 10
2556.1211529572151
 20
9641.5412464436013
 30
0.0
 40
10.0
 50
0.0
 51
90.0
  0
CIRCLE
  5
7525
  8
FUTO
 10
2576.1211529572151
 20
9634.5412464436013
 30
0.0
 40
4.0
  0
DIMENSION
  5
7529
  8
SP
  2
*D5
 10
2902.8154285066421
 20
9003.6761894656483
 30
0.0
 11
3033.2888179973779
 21
9028.6761894656465
 31
0.0
 70
     0
  1
（330）
 13
3163.7622074881142
 23
8973.6761894656465
 33
0.0
 14
2902.8154285066421
 24
8790.2404894656484
 34
0.0
  0
DIMENSION
  5
752A
  8
SP
  2
*D6
 10
3226.7622074881142
 20
9003.6761894656483
 30
0.0
 11
3313.0644113908002
 21
9028.6761894656465
 31
0.0
 70
     0
 13
3163.7622074881142
 23
8973.6761894656465
 33
0.0
 14
3226.7622074881142
 24
8831.6761894656483
 34
0.0
  0
LINE
  5
752D
  8
FUTO
 10
3040.7622074881142
 20
8706.8761894656491
 30
0.0
 11
3099.1622074881152
 21
8765.2761894656505
 31
0.0
  0
LINE
  5
7533
  8
CT
 10
2859.0217463120371
 20
8733.6761894656483
 30
0.0
 11
3245.5214802665009
 21
8733.6761894656483
 31
0.0
  0
LINE
  5
753E
  8
FUTO
 10
2927.9622074881149
 20
8669.0761894656498
 30
0.0
 11
3016.5314382573451
 21
8669.0761894656462
 31
0.0
  0
LINE
  5
753F
  8
FUTO
 10
2927.9622074881149
 20
8670.6761894656483
 30
0.0
 11
3017.5570792829858
 21
8670.6761894656483
 31
0.0
  0
LINE
  5
7540
  8
FUTO
 10
2930.7622074881151
 20
8535.2761894656487
 30
0.0
 11
3040.7622074881142
 21
8706.8761894656491
 31
0.0
  0
LINE
  5
7544
  8
FUTO
 10
2971.5634937461541
 20
8598.9261960281892
 30
0.0
 11
2933.3482469418332
 21
8669.0761894656498
 31
0.0
  0
ARC
  5
7547
  8
FUTO
 10
2927.9622074881149
 20
8667.4761894656494
 30
0.0
 40
1.6000000000000001
 50
90.0
 51
180.0
  0
ARC
  5
7548
  8
FUTO
 10
2927.9622074881149
 20
8667.4761894656494
 30
0.0
 40
3.2000000000000002
 50
90.0
 51
180.0
  0
LINE
  5
7549
  8
FUTO
 10
2924.7622074881151
 20
8652.2761894656487
 30
0.0
 11
2926.362207488115
 21
8652.2761894656487
 31
0.0
  0
LINE
  5
754A
  8
FUTO
 10
2924.7622074881142
 20
8652.2761894656487
 30
0.0
 11
2924.7622074881142
 21
8667.4761894656494
 31
0.0
  0
LINE
  5
754B
  8
FUTO
 10
2926.362207488115
 20
8652.2761894656487
 30
0.0
 11
2926.362207488115
 21
8667.4761894656494
 31
0.0
  0
LINE
  5
755D
  8
CT
 10
3163.7622074881142
 20
8473.3272350085299
 30
0.0
 11
3163.7622074881142
 21
8924.3420348391664
 31
0.0
  0
DIMENSION
  5
755F
  8
SP
  2
*D7
 10
3303.976355226921
 20
8653.6761894656465
 30
0.0
 11
3278.9763552269192
 21
8733.6761894656483
 31
0.0
 70
     0
 13
3226.7622074881142
 23
8813.6761894656483
 33
0.0
 14
3226.7622074881142
 24
8653.6761894656465
 34
0.0
 50
90.0
1001
ACAD
1000
DSTYLE
1002
{
1070
     3
1000
φ<>
1002
}
  0
LINE
  5
7560
  8
FUTO
 10
3086.7622074881142
 20
8862.6761894656483
 30
0.0
 11
3240.7622074881151
 21
8862.6761894656483
 31
0.0
  0
LINE
  5
7561
  8
FUTO
 10
3086.7622074881142
 20
8863.6761894656483
 30
0.0
 11
3240.7622074881142
 21
8863.6761894656483
 31
0.0
  0
LINE
  5
7562
  8
FUTO
 10
3099.1622074881152
 20
8838.6761894656483
 30
0.0
 11
3099.1622074881152
 21
8533.6761894656502
 31
0.0
  0
LINE
  5
7563
  8
FUTO
 10
3100.7622074881151
 20
8838.6761894656483
 30
0.0
 11
3100.7622074881151
 21
8533.6761894656502
 31
0.0
  0
LINE
  5
7567
  8
FUTO
 10
3107.7622074881142
 20
8606.6761894656483
 30
0.0
 11
3107.7622074881142
 21
8863.6761894656483
 31
0.0
  0
LINE
  5
7568
  8
FUTO
 10
3107.1622074881138
 20
8606.6761894656483
 30
0.0
 11
3107.1622074881138
 21
8863.6761894656483
 31
0.0
  0
LINE
  5
7569
  8
FUTO
 10
3107.1622074881138
 20
8733.6761894656483
 30
0.0
 11
3107.1622074881138
 21
8863.6761894656483
 31
0.0
  0
LINE
  5
756A
  8
FUTO
 10
3220.362207488115
 20
8603.7418126640441
 30
0.0
 11
3220.3622074881132
 21
8863.6761894656483
 31
0.0
  0
LINE
  5
756B
  8
FUTO
 10
3219.7622074881142
 20
8603.8493101373006
 30
0.0
 11
3219.7622074881142
 21
8863.6761894656483
 31
0.0
  0
LINE
  5
756C
  8
FUTO
 10
3226.7622074881142
 20
8831.6761894656483
 30
0.0
 11
3226.7622074881142
 21
8713.2886948957093
 31
0.0
  0
LINE
  5
756D
  8
FUTO
 10
3115.7622074881142
 20
8598.6761894656502
 30
0.0
 11
3212.2783078854368
 21
8598.6761894656502
 31
0.0
  0
LINE
  5
756E
  8
FUTO
 10
3115.7622074881142
 20
8598.0761894656498
 30
0.0
 11
3212.2783078854368
 21
8598.0761894656498
 31
0.0
  0
LINE
  5
756F
  8
FUTO
 10
3100.7622074881151
 20
8713.2886948957093
 30
0.0
 11
3100.7622074881151
 21
8634.3352785927054
 31
0.0
  0
ARC
  5
7570
  8
FUTO
 10
3115.7622074881142
 20
8606.6761894656483
 30
0.0
 40
8.0
 50
180.0
 51
270.0
  0
ARC
  5
7571
  8
FUTO
 10
3115.7622074881142
 20
8606.6761894656483
 30
0.0
 40
8.5999999999999996
 50
180.0
 51
270.0
  0
ARC
  5
7572
  8
FUTO
 10
3102.2461070907921
 20
8635.6761894656483
 30
0.0
 40
2.0
 50
222.10222534310009
 51
270.0
  0
LINE
  5
7573
  8
FUTO
 10
3107.1622074881161
 20
8633.6761894656483
 30
0.0
 11
3102.2461070907921
 21
8633.6761894656483
 31
0.0
  0
LINE
  5
7574
  8
CT
 10
3111.48887070109
 20
8643.6761894656483
 30
0.0
 11
3096.9834834934072
 21
8643.6761894656483
 31
0.0
  0
LINE
  5
7578
  8
FUTO
 10
3226.7622074881142
 20
8713.2886948957093
 30
0.0
 11
3226.7622074881142
 21
8634.3352785927054
 31
0.0
  0
LINE
  5
7579
  8
FUTO
 10
3162.5622074881139
 20
8595.6761894656465
 30
0.0
 11
3162.5622074881139
 21
8588.8761894656491
 31
0.0
  0
LINE
  5
757A
  8
FUTO
 10
3164.9622074881149
 20
8595.6761894656465
 30
0.0
 11
3164.9622074881149
 21
8588.8761894656491
 31
0.0
  0
ARC
  5
757B
  8
FUTO
 10
3163.7622074881142
 20
8588.8761894656491
 30
0.0
 40
1.1999999999999991
 50
180.0
 51
0.0
  0
ARC
  5
757C
  8
FUTO
 10
3159.5622074881139
 20
8595.6761894656465
 30
0.0
 40
3.0
 50
0.0
 51
53.130102354171612
  0
ARC
  5
757D
  8
FUTO
 10
3167.9622074881149
 20
8595.6761894656465
 30
0.0
 40
3.0
 50
126.8698976458283
 51
180.0
  0
ARC
  5
757E
  8
FUTO
 10
3212.2783078854368
 20
8606.6761894656483
 30
0.0
 40
8.0
 50
270.0
 51
339.30703913986719
  0
ARC
  5
757F
  8
FUTO
 10
3212.2783078854368
 20
8606.6761894656483
 30
0.0
 40
8.5999999999999996
 50
270.0
 51
340.04959599021521
  0
LINE
  5
7580
  8
FUTO
 10
3220.362207488115
 20
8633.6761894656483
 30
0.0
 11
3225.2783078854368
 21
8633.6761894656483
 31
0.0
  0
ARC
  5
7581
  8
FUTO
 10
3225.2783078854368
 20
8635.6761894656483
 30
0.0
 40
2.0
 50
270.0
 51
317.8977746568998
  0
LINE
  5
7582
  8
CT
 10
3216.0355442751388
 20
8643.6761894656483
 30
0.0
 11
3230.540931482823
 21
8643.6761894656483
 31
0.0
  0
LINE
  5
7583
  8
CT
 10
3219.7622074881142
 20
8653.6761894656465
 30
0.0
 11
3220.3622074881132
 21
8653.6761894656465
 31
0.0
  0
LINE
  5
7584
  8
CT
 10
3219.7622074881142
 20
8653.6761894656465
 30
0.0
 11
3220.3622074881132
 21
8653.6761894656465
 31
0.0
  0
DIMENSION
  5
7585
  8
SP
  2
*D8
 10
3219.7622074881142
 20
8933.6761894656483
 30
0.0
 11
3163.7622074881142
 21
8958.6761894656483
 31
0.0
 70
     0
 13
3107.7622074881142
 23
8863.6761894656483
 33
0.0
 14
3219.7622074881142
 24
8863.6761894656483
 34
0.0
  0
LINE
  5
7586
  8
FUTO
 10
3206.1764210504839
 20
8848.6761894656465
 30
0.0
 11
3121.347993925745
 21
8848.6761894656465
 31
0.0
  0
LINE
  5
7587
  8
CT
 10
3096.7622074881151
 20
8855.3347615312287
 30
0.0
 11
3096.7622074881151
 21
8870.0176174000717
 31
0.0
  0
LINE
  5
7588
  8
CT
 10
3111.48887070109
 20
8823.6761894656483
 30
0.0
 11
3096.9834834934072
 21
8823.6761894656483
 31
0.0
  0
LINE
  5
7589
  8
FUTO
 10
3109.7622074881151
 20
8860.2619759032768
 30
0.0
 11
3121.347993925745
 21
8848.6761894656465
 31
0.0
  0
LINE
  5
758D
  8
FUTO
 10
3086.7622074881142
 20
8862.6761894656483
 30
0.0
 11
3086.7622074881142
 21
8863.6761894656483
 31
0.0
  0
LINE
  5
758E
  8
FUTO
 10
3099.1622074881152
 20
8838.6761894656483
 30
0.0
 11
3100.7622074881151
 21
8838.6761894656483
 31
0.0
  0
ARC
  5
758F
  8
FUTO
 10
3102.7622074881142
 20
8831.6761894656483
 30
0.0
 40
2.0
 50
90.0
 51
180.0
  0
POINT
  5
7590
  8
FUTO
 10
3100.7622074881151
 20
8831.6761894656483
 30
0.0
  0
POINT
  5
7591
  8
FUTO
 10
3100.7622074881151
 20
8831.6761894656483
 30
0.0
  0
LINE
  5
7592
  8
FUTO
 10
3107.1622074881161
 20
8833.6761894656483
 30
0.0
 11
3102.7622074881142
 21
8833.6761894656483
 31
0.0
  0
LINE
  5
7593
  8
FUTO
 10
3109.7622074881151
 20
8860.2619759032768
 30
0.0
 11
3107.7622074881142
 21
8860.2619759032768
 31
0.0
  0
LINE
  5
7594
  8
CT
 10
3230.7622074881142
 20
8855.3347615312287
 30
0.0
 11
3230.7622074881151
 21
8870.0176174000717
 31
0.0
  0
LINE
  5
7595
  8
FUTO
 10
3217.762207488116
 20
8860.2619759032768
 30
0.0
 11
3206.1764210504848
 21
8848.6761894656465
 31
0.0
  0
LINE
  5
7596
  8
CT
 10
3216.0355442751388
 20
8823.6761894656483
 30
0.0
 11
3230.540931482823
 21
8823.6761894656483
 31
0.0
  0
LINE
  5
7597
  8
CT
 10
3219.7622074881142
 20
8813.6761894656483
 30
0.0
 11
3220.3622074881132
 21
8813.6761894656483
 31
0.0
  0
LINE
  5
7598
  8
FUTO
 10
3217.762207488116
 20
8860.2619759032768
 30
0.0
 11
3219.7622074881142
 21
8860.2619759032768
 31
0.0
  0
LINE
  5
7599
  8
FUTO
 10
3220.362207488115
 20
8833.6761894656483
 30
0.0
 11
3224.7622074881151
 21
8833.6761894656483
 31
0.0
  0
ARC
  5
759A
  8
FUTO
 10
3224.7622074881151
 20
8831.6761894656483
 30
0.0
 40
2.0
 50
0.0
 51
90.0
  0
POINT
  5
759B
  8
FUTO
 10
3226.7622074881142
 20
8831.6761894656483
 30
0.0
  0
POINT
  5
759C
  8
FUTO
 10
3226.7622074881142
 20
8831.6761894656483
 30
0.0
  0
LINE
  5
759D
  8
FUTO
 10
3240.7622074881142
 20
8862.6761894656483
 30
0.0
 11
3240.7622074881142
 21
8863.6761894656483
 31
0.0
  0
LINE
  5
84DA
  8
FUTO
 10
3073.1154285066409
 20
8790.7761894656487
 30
0.0
 11
2954.8154285066421
 21
8790.7761894656487
 31
0.0
  0
LINE
  5
84DB
  8
FUTO
 10
2954.8154285066421
 20
8673.1761894656483
 30
0.0
 11
2954.8154285066421
 21
8794.1761894656483
 31
0.0
  0
LINE
  5
84DC
  8
FUTO
 10
2954.8154285066421
 20
8794.1761894656483
 30
0.0
 11
2933.8154285066421
 21
8794.1761894656483
 31
0.0
  0
LINE
  5
84DD
  8
FUTO
 10
2932.8154285066421
 20
8793.1761894656483
 30
0.0
 11
2903.7489285066422
 21
8791.2383894656487
 31
0.0
  0
ARC
  5
84DE
  8
FUTO
 10
2903.8155285066409
 20
8790.2404894656484
 30
0.0
 40
1.0000999999999991
 50
93.821000000000112
 51
180.00165729919101
  0
ARC
  5
84DF
  8
FUTO
 10
2933.8155285066409
 20
8793.1761894656483
 30
0.0
 40
1.0000999999999991
 50
90.003500000015705
 51
180.0
  0
LINE
  5
84E0
  8
CT
 10
3011.7622074881142
 20
8666.4715762572214
 30
0.0
 11
3011.7622074881142
 21
8800.8808026740753
 31
0.0
  0
LINE
  5
84E1
  8
FUTO
 10
3070.8154285066421
 20
8790.7761894656487
 30
0.0
 11
3070.8154285066412
 21
8736.9294104841756
 31
0.0
  0
LINE
  5
84E2
  8
FUTO
 10
3076.6198285066421
 20
8771.9427894656474
 30
0.0
 11
3073.1465285066411
 21
8785.5544894656487
 31
0.0
  0
ARC
  5
84E3
  8
FUTO
 10
3074.110328506642
 20
8785.8011894656483
 30
0.0
 40
0.9948999999999999
 50
179.9684000000118
 51
194.35770000002071
  0
LINE
  5
84E4
  8
FUTO
 10
3073.1154285066409
 20
8790.7761894656487
 30
0.0
 11
3073.1154285066418
 21
8739.2294104841767
 31
0.0
  0
ARC
  5
84E5
  8
FUTO
 10
3070.5178285066422
 20
8770.3853894656495
 30
0.0
 40
6.2976000000000001
 50
359.9977999999864
 51
14.31809999998419
  0
ARC
  5
84E6
  8
FUTO
 10
3075.115228506641
 20
8743.2293894656486
 30
0.0
 40
4.7001999999999988
 50
27.487694404151469
 51
44.998399999985907
  0
LINE
  5
84E7
  8
FUTO
 10
3078.4388285066411
 20
8746.5527894656461
 30
0.0
 11
3077.1083285066411
 21
8747.8832894656462
 31
0.0
  0
ARC
  5
84E8
  8
FUTO
 10
3077.815128506641
 20
8748.5902894656483
 30
0.0
 40
0.9996999999999999
 50
179.99650000001029
 51
225.00990000000041
  0
LINE
  5
84E9
  8
FUTO
 10
3076.8154285066421
 20
8770.385089465648
 30
0.0
 11
3076.8154285066421
 21
8742.9294104841756
 31
0.0
  0
ARC
  5
84EA
  8
FUTO
 10
2998.0661285066408
 20
8685.5363894656475
 30
0.0
 40
7.9999000000000002
 50
90.0
 51
166.00459999998009
  0
ARC
  5
84EB
  8
FUTO
 10
2983.6470285066412
 20
8692.4708894656487
 30
0.0
 40
8.0
 50
270.0
 51
334.31589999997709
  0
LINE
  5
84EC
  8
FUTO
 10
2990.3036285066419
 20
8687.4710894656491
 30
0.0
 11
2987.3823285066419
 21
8675.7506894656472
 31
0.0
  0
LINE
  5
84ED
  8
FUTO
 10
3025.5647285066411
 20
8693.5362894656464
 30
0.0
 11
2998.0661285066408
 21
8693.5362894656464
 31
0.0
  0
LINE
  5
84EE
  8
FUTO
 10
2988.8406285066421
 20
8673.4761894656476
 30
0.0
 11
3019.3519510778578
 21
8673.4761894656476
 31
0.0
  0
ARC
  5
84EF
  8
FUTO
 10
2984.4713285066409
 20
8676.4761894656476
 30
0.0
 40
3.0
 50
270.0
 51
346.00480000002148
  0
ARC
  5
84F0
  8
FUTO
 10
2984.4715285066418
 20
8676.4760894656501
 30
0.0
 40
5.2999000000000001
 50
269.99930000000768
 51
326.34980000001821
  0
LINE
  5
84F1
  8
FUTO
 10
2961.8154285066421
 20
8671.1761894656483
 30
0.0
 11
2984.4715285066418
 21
8671.1761894656483
 31
0.0
  0
LINE
  5
84F2
  8
FUTO
 10
2961.8154285066421
 20
8673.4761894656476
 30
0.0
 11
2984.4713285066409
 21
8673.4761894656476
 31
0.0
  0
ARC
  5
84F3
  8
FUTO
 10
2969.8154285066421
 20
8676.4708894656487
 30
0.0
 40
8.0
 50
90.0
 51
180.0
  0
LINE
  5
84F4
  8
FUTO
 10
2961.8154285066421
 20
8671.1761894656483
 30
0.0
 11
2961.8154285066421
 21
8676.4708894656487
 31
0.0
  0
LINE
  5
84F5
  8
FUTO
 10
2961.8154285066421
 20
8677.576189465648
 30
0.0
 11
2954.8154285066421
 21
8677.576189465648
 31
0.0
  0
LINE
  5
84F6
  8
CT
 10
2971.8154285066421
 20
8679.4076394656477
 30
0.0
 11
2971.8154285066421
 21
8667.5447394656476
 31
0.0
  0
LINE
  5
84F7
  8
FUTO
 10
2983.6470285066412
 20
8684.4708894656487
 30
0.0
 11
2969.8154285066421
 21
8684.4708894656487
 31
0.0
  0
ARC
  5
84F8
  8
FUTO
 10
3025.5646285066409
 20
8685.5362894656482
 30
0.0
 40
8.0000999999999998
 50
48.146064575372058
 51
89.999599999985804
  0
LINE
  5
84F9
  8
FUTO
 10
2902.8154285066421
 20
8790.2404894656484
 30
0.0
 11
2902.8154285066421
 21
8677.1117894656509
 31
0.0
  0
LINE
  5
84FA
  8
FUTO
 10
2932.8154285066421
 20
8793.1761894656483
 30
0.0
 11
2932.8154285066421
 21
8674.1761894656483
 31
0.0
  0
LINE
  5
84FB
  8
FUTO
 10
2932.8154285066421
 20
8674.1761894656483
 30
0.0
 11
2903.7489285066422
 21
8676.113989465648
 31
0.0
  0
ARC
  5
84FC
  8
FUTO
 10
2903.8155285066409
 20
8677.1118894656465
 30
0.0
 40
1.0000999999999991
 50
180.0069999999923
 51
266.17899999999992
  0
ARC
  5
84FD
  8
FUTO
 10
2933.8155285066409
 20
8674.1761894656483
 30
0.0
 40
1.0000999999999991
 50
180.0
 51
269.99649999998422
  0
LINE
  5
84FE
  8
FUTO
 10
2954.8154285066421
 20
8673.1761894656483
 30
0.0
 11
2933.8154285066421
 21
8673.1761894656483
 31
0.0
  0
LINE
  5
8898
  8
FUTO
 10
2471.6211529572151
 20
9385.5944674621296
 30
0.0
 11
2336.6211529572138
 21
9385.5944674621278
 31
0.0
  0
LINE
  5
8899
  8
FUTO
 10
2337.6211529572138
 20
9363.5944674621278
 30
0.0
 11
2470.6211529572138
 21
9363.5944674621278
 31
0.0
  0
LINE
  5
889A
  8
CT
 10
2476.464651081817
 20
9442.5412464436013
 30
0.0
 11
2329.3451510818159
 21
9442.5412464436013
 31
0.0
  0
LINE
  5
889B
  8
FUTO
 10
2347.838112342034
 20
9333.5944674621278
 30
0.0
 11
2460.404193572394
 21
9333.5944674621278
 31
0.0
  0
LINE
  5
889C
  8
FUTO
 10
2460.7211529572151
 20
9506.0803602373853
 30
0.0
 11
2347.5211529572139
 21
9506.0803602373853
 31
0.0
  0
LINE
  5
889D
  8
FUTO
 10
2460.7211529572151
 20
9508.3803602373846
 30
0.0
 11
2347.5211529572139
 21
9508.3803602373846
 31
0.0
  0
LINE
  5
889E
  8
FUTO
 10
2441.8877529572142
 20
9511.8847602373862
 30
0.0
 11
2455.499452957215
 21
9508.4114602373847
 31
0.0
  0
LINE
  5
889F
  8
FUTO
 10
2347.5211529572139
 20
9508.3803602373846
 30
0.0
 11
2347.5211529572148
 21
9385.5944674621278
 31
0.0
  0
LINE
  5
88A0
  8
FUTO
 10
2341.0183284393261
 20
9363.5944674621278
 30
0.0
 11
2346.8575315371659
 21
9334.3983519728754
 31
0.0
  0
LINE
  5
88A1
  8
FUTO
 10
2336.6211529572138
 20
9385.5944674621278
 30
0.0
 11
2336.6211529572138
 21
9364.5944674621278
 31
0.0
  0
ARC
  5
88A2
  8
FUTO
 10
2337.6211529572138
 20
9364.5944674621278
 30
0.0
 40
1.0
 50
180.0
 51
270.0
  0
ARC
  5
88A3
  8
FUTO
 10
2347.838112342034
 20
9334.5944674621278
 30
0.0
 40
1.0
 50
191.3098947346725
 51
270.0
  0
LINE
  5
88A4
  8
FUTO
 10
2440.3300529572139
 20
9512.0803602373853
 30
0.0
 11
2367.8581529572139
 21
9512.0803602373853
 31
0.0
  0
LINE
  5
88A5
  8
FUTO
 10
2366.4042529572139
 20
9511.9103602373852
 30
0.0
 11
2351.634952957214
 21
9508.4073602373865
 31
0.0
  0
LINE
  5
88A6
  8
FUTO
 10
2347.5211529572139
 20
9508.4241602373877
 30
0.0
 11
2347.5211529572139
 21
9497.0036602373857
 31
0.0
  0
ARC
  5
88A7
  8
FUTO
 10
2351.4041529572141
 20
9509.3815602373834
 30
0.0
 40
1.0012000000000001
 50
270.00349999998957
 51
283.32969999999011
  0
ARC
  5
88A8
  8
FUTO
 10
2367.8581529572139
 20
9505.7801602373856
 30
0.0
 40
6.3002000000000002
 50
89.999399999991695
 51
103.3419999999974
  0
LINE
  5
88A9
  8
FUTO
 10
2395.0680529572141
 20
9515.0803602373853
 30
0.0
 11
2413.174352957215
 21
9515.0803602373853
 31
0.0
  0
ARC
  5
88AA
  8
FUTO
 10
2389.7070529572138
 20
9513.0800602373856
 30
0.0
 40
0.9996999999999999
 50
269.99649999998422
 51
315.009899999982
  0
LINE
  5
88AB
  8
FUTO
 10
2391.7445529572142
 20
9513.7037602373875
 30
0.0
 11
2390.4140529572142
 21
9512.3732602373875
 31
0.0
  0
ARC
  5
88AC
  8
FUTO
 10
2395.0681529572139
 20
9510.3800602373867
 30
0.0
 40
4.7003000000000004
 50
90.001499999994792
 51
134.9984000000043
  0
LINE
  5
88AD
  8
FUTO
 10
2396.6211529572151
 20
9518.3123619205726
 30
0.0
 11
2396.6211529572151
 21
9515.0803602373853
 31
0.0
  0
LINE
  5
88AE
  8
FUTO
 10
2416.4977529572138
 20
9513.7037602373875
 30
0.0
 11
2417.8282529572139
 21
9512.3732602373875
 31
0.0
  0
ARC
  5
88AF
  8
FUTO
 10
2418.5352529572142
 20
9513.0800602373856
 30
0.0
 40
0.9996999999999999
 50
224.99010000001789
 51
270.00349999998957
  0
ARC
  5
88B0
  8
FUTO
 10
2413.174352957215
 20
9510.3801602373878
 30
0.0
 40
4.7001999999999988
 50
45.001599999995662
 51
90.0
  0
LINE
  5
88B1
  8
FUTO
 10
2411.6211529572129
 20
9517.5412464436013
 30
0.0
 11
2411.6211529572151
 21
9515.0803602373853
 31
0.0
  0
ARC
  5
88B2
  8
FUTO
 10
2440.330352957214
 20
9505.7827602373854
 30
0.0
 40
6.2976000000000001
 50
75.681899999984111
 51
90.00219999998744
  0
LINE
  5
88B3
  8
FUTO
 10
2460.7211529572151
 20
9508.3803602373846
 30
0.0
 11
2460.7211529572141
 21
9385.5944674621296
 31
0.0
  0
LINE
  5
88B4
  8
FUTO
 10
2467.2239774751029
 20
9363.5944674621296
 30
0.0
 11
2461.3847743772621
 21
9334.3983519728754
 31
0.0
  0
ARC
  5
88B5
  8
FUTO
 10
2470.6211529572138
 20
9364.5944674621278
 30
0.0
 40
1.0
 50
270.0
 51
0.0
  0
LINE
  5
88B6
  8
FUTO
 10
2471.6211529572151
 20
9385.5944674621278
 30
0.0
 11
2471.6211529572151
 21
9364.5944674621278
 31
0.0
  0
ARC
  5
88B7
  8
FUTO
 10
2460.404193572394
 20
9334.5944674621278
 30
0.0
 40
1.0
 50
270.0
 51
348.69010526532742
  0
ARC
  5
88B8
  8
FUTO
 10
2455.7461529572138
 20
9509.3752602373861
 30
0.0
 40
0.9948999999999999
 50
255.64230000000441
 51
270.03159999998809
  0
LINE
  5
88B9
  8
FUTO
 10
2514.1211529572138
 20
9355.5412464436013
 30
0.0
 11
2465.6133387880391
 21
9355.5412464436013
 31
0.0
  0
LINE
  5
88BC
  8
FUTO
 10
2514.1211529572138
 20
9361.5412464436013
 30
0.0
 11
2544.1211529572138
 21
9361.5412464436013
 31
0.0
  0
ARC
  5
88C5
  8
FUTO
 10
2306.1211529572138
 20
9532.9412464436009
 30
0.0
 40
2.0
 50
180.0
 51
270.0
  0
LINE
  5
88C6
  8
FUTO
 10
2304.1211529572138
 20
9532.9412464436009
 30
0.0
 11
2304.1211529572138
 21
9537.9412464436009
 31
0.0
  0
LINE
  5
88C7
  8
CT
 10
2314.1211529572138
 20
9524.3575731466008
 30
0.0
 11
2314.1211529572138
 21
9535.3305936665893
 31
0.0
  0
LINE
  5
88CA
  8
FUTO
 10
2294.1211529572138
 20
9361.5412464436013
 30
0.0
 11
2264.1211529572138
 21
9361.5412464436013
 31
0.0
  0
LINE
  5
88CE
  8
FUTO
 10
2264.1211529572138
 20
9531.5412464435994
 30
0.0
 11
2294.1211529572138
 21
9531.5412464435994
 31
0.0
  0
LINE
  5
88D2
  8
FUTO
 10
2294.1211529572138
 20
9530.9412464436009
 30
0.0
 11
2294.1211529572138
 21
9529.3412464436005
 31
0.0
  0
LINE
  5
88D3
  8
FUTO
 10
2342.6289671263899
 20
9355.5412464436013
 30
0.0
 11
2294.1211529572138
 21
9355.5412464436013
 31
0.0
  0
LINE
  5
8AF3
  8
FUTO
 10
3100.7622074881151
 20
8533.6761894656465
 30
0.0
 11
2930.7622074881151
 21
8533.6761894656502
 31
0.0
  0
LINE
  5
8AF4
  8
FUTO
 10
3099.1622074881138
 20
8535.2761894656469
 30
0.0
 11
2930.7622074881151
 21
8535.2761894656469
 31
0.0
  0
LINE
  5
8AF5
  8
FUTO
 10
2930.7622074881151
 20
8535.2761894656469
 30
0.0
 11
2930.7622074881151
 21
8533.6761894656502
 31
0.0
  0
LINE
  5
8CE3
  8
4
 10
3820.3435473019958
 20
7555.2190595897273
 30
0.0
 11
1720.3435473019961
 21
7555.2190595897273
 31
0.0
  0
LINE
  5
8CE4
  8
4
 10
1720.3435473019961
 20
10505.219059589719
 30
0.0
 11
3820.3435473019958
 21
10505.219059589719
 31
0.0
  0
LINE
  5
8CE5
  8
4
 10
1720.3435473019961
 20
7555.2190595897273
 30
0.0
 11
1720.3435473019961
 21
10505.219059589719
 31
0.0
  0
TEXT
  5
8CE7
  8
4
 10
2706.9980428874769
 20
7872.3786438696698
 30
0.0
 40
50.0
  1
MF＃1-7
  0
TEXT
  5
8CE8
  8
4
 10
2698.0222927896612
 20
7977.790828547295
 30
0.0
 40
50.0
  1
ミツヤ多翼送風機
  0
LINE
  5
8CEA
  8
4
 10
2170.3435473019958
 20
7855.2190595897273
 30
0.0
 11
3370.3435473019958
 21
7855.2190595897273
 31
0.0
  0
LINE
  5
8CEB
  8
4
 10
2170.3435473019958
 20
7955.2190595897273
 30
0.0
 11
3370.3435473019958
 21
7955.2190595897273
 31
0.0
  0
LINE
  5
8CEC
  8
4
 10
2170.3435473019958
 20
8055.2190595897273
 30
0.0
 11
3370.3435473019958
 21
8055.2190595897273
 31
0.0
  0
TEXT
  5
8CED
  8
4
 10
2208.845628148897
 20
7986.7620854563402
 30
0.0
 40
50.0
  1
機器名称
  0
TEXT
  5
8CEE
  8
4
 10
2206.6016533267939
 20
7876.8642163217382
 30
0.0
 40
50.0
  1
機器型番
  0
LINE
  5
8CF0
  8
4
 10
2170.3435473019958
 20
8055.2190595897273
 30
0.0
 11
2170.3435473019958
 21
7855.2190595897246
 31
0.0
  0
LINE
  5
8CF1
  8
4
 10
2670.3435473019958
 20
8055.2190595897273
 30
0.0
 11
2670.3435473019958
 21
7855.2190595897246
 31
0.0
  0
LINE
  5
8CF2
  8
4
 10
3370.3435473019958
 20
8055.2190595897273
 30
0.0
 11
3370.3435473019958
 21
7855.2190595897246
 31
0.0
  0
LINE
  5
8CF3
  8
4
 10
3570.3435473019958
 20
10224.627813854529
 30
0.0
 11
3570.3435473019958
 21
10024.627813854529
 31
0.0
  0
LINE
  5
8CF4
  8
4
 10
1970.3435473019961
 20
10224.627813854529
 30
0.0
 11
1970.3435473019961
 21
10024.627813854529
 31
0.0
  0
TEXT
  5
8CF5
  8
4
 10
2208.4064512468549
 20
10089.100035789021
 30
0.0
 40
72.0
  1
遠心式片吸込直動形多翼ファン
  0
LINE
  5
8CF6
  8
4
 10
1970.3435473019961
 20
10024.627813854529
 30
0.0
 11
3570.3435473019958
 21
10024.627813854529
 31
0.0
  0
TEXT
  5
8CF7
  8
4
 10
2492.4548530690408
 20
9938.6479009222421
 30
0.0
 40
53.999999999999993
  1
天井吊ベッド型
  0
TEXT
  5
8CF8
  8
4
 10
2009.974928603762
 20
9937.5385371360699
 30
0.0
 40
53.999999999999993
  1
左回転上向
  0
TEXT
  5
8CF9
  8
4
 10
3089.936825588683
 20
9938.6479009222421
 30
0.0
 40
53.999999999999993
  1
縮尺：1/10
  0
LINE
  5
8CFA
  8
4
 10
1970.3435473019961
 20
10224.627813854529
 30
0.0
 11
3570.3435473019958
 21
10224.627813854529
 31
0.0
  0
TEXT
  5
8CFB
  8
4
 10
3189.3131065512862
 20
10261.28014108503
 30
0.0
 40
56.000000000000007
  1
No.
  0
LINE
  5
8CFC
  8
4
 10
3160.9609696618609
 20
10341.87132113947
 30
0.0
 11
3570.3435473019958
 21
10341.87132113947
 31
0.0
  0
LINE
  5
8CFD
  8
4
 10
3570.3435473019958
 20
10236.48264271512
 30
0.0
 11
3160.9609696618609
 21
10236.48264271512
 31
0.0
  0
LINE
  5
8CFE
  8
4
 10
3160.9609696618609
 20
10236.48264271512
 30
0.0
 11
3160.9609696618609
 21
10341.87132113947
 31
0.0
  0
LINE
  5
8CFF
  8
4
 10
3570.3435473019958
 20
10341.87132113947
 30
0.0
 11
3570.3435473019958
 21
10236.48264271512
 31
0.0
  0
LINE
  5
8D00
  8
4
 10
3820.3435473019958
 20
10505.219059589719
 30
0.0
 11
3820.3435473019958
 21
7555.2190595897273
 31
0.0
  0
LINE
  5
8D01
  8
4
 10
3820.3435473019958
 20
10505.219059589719
 30
0.0
 11
3820.3435473019958
 21
10505.219059589719
 31
0.0
  0
LINE
  5
A4DD
  8
CT
 10
2277.1211529572138
 20
8523.3514176007757
 30
0.0
 11
2277.1211529572138
 21
8542.7003335502086
 31
0.0
  0
LINE
  5
A4DE
  8
CT
 10
2531.1211529572138
 20
8523.3514176007757
 30
0.0
 11
2531.1211529572138
 21
8542.7003335502086
 31
0.0
  0
LINE
  5
AA69
  8
FUTO
 10
2383.2415343169992
 20
9530.9412464436009
 30
0.0
 11
2294.1211529572138
 21
9530.9412464436009
 31
0.0
  0
LINE
  5
AA6A
  8
FUTO
 10
2383.8794425110968
 20
9529.3412464436005
 30
0.0
 11
2294.1211529572151
 21
9529.3412464436005
 31
0.0
  0
LINE
  5
AA8A
  8
FUTO
 10
2229.1211529572151
 20
9709.5412464436013
 30
0.0
 11
2579.1211529572151
 21
9709.5412464436013
 31
0.0
  0
LINE
  5
AA8B
  8
FUTO
 10
2229.1211529572151
 20
9739.5412464436013
 30
0.0
 11
2579.1211529572151
 21
9739.5412464436013
 31
0.0
  0
LINE
  5
AA8C
  8
FUTO
 10
2229.1211529572151
 20
9739.5412464436013
 30
0.0
 11
2229.1211529572151
 21
9709.5412464436013
 31
0.0
  0
CIRCLE
  5
AA8D
  8
FUTO
 10
2249.1211529572151
 20
9726.5412464436013
 30
0.0
 40
6.5
  0
LINE
  5
AA8E
  8
CT
 10
2249.1211529572151
 20
9736.5412464436013
 30
0.0
 11
2249.1211529572151
 21
9716.5412464436013
 31
0.0
  0
LINE
  5
AA8F
  8
CT
 10
2259.1211529572138
 20
9726.5412464436013
 30
0.0
 11
2239.1211529572151
 21
9726.5412464436013
 31
0.0
  0
LINE
  5
AA90
  8
CT
 10
2569.1211529572138
 20
9726.5412464436013
 30
0.0
 11
2549.1211529572151
 21
9726.5412464436013
 31
0.0
  0
CIRCLE
  5
AA91
  8
FUTO
 10
2559.1211529572151
 20
9726.5412464436013
 30
0.0
 40
6.5
  0
LINE
  5
AA92
  8
CT
 10
2559.1211529572151
 20
9736.5412464436013
 30
0.0
 11
2559.1211529572151
 21
9716.5412464436013
 31
0.0
  0
LINE
  5
AA93
  8
FUTO
 10
2579.1211529572151
 20
9739.5412464436013
 30
0.0
 11
2579.1211529572151
 21
9709.5412464436013
 31
0.0
  0
LINE
  5
AA94
  8
FUTO
 10
2229.1211529572151
 20
9319.5412464436013
 30
0.0
 11
2229.1211529572151
 21
9289.5412464436031
 31
0.0
  0
CIRCLE
  5
AA95
  8
FUTO
 10
2249.1211529572151
 20
9302.5412464436013
 30
0.0
 40
6.5
  0
LINE
  5
AA96
  8
CT
 10
2249.1211529572151
 20
9312.5412464436013
 30
0.0
 11
2249.1211529572151
 21
9292.5412464436013
 31
0.0
  0
LINE
  5
AA97
  8
CT
 10
2259.1211529572138
 20
9302.5412464436013
 30
0.0
 11
2239.1211529572151
 21
9302.5412464436013
 31
0.0
  0
LINE
  5
AA98
  8
FUTO
 10
2229.1211529572151
 20
9289.5412464436031
 30
0.0
 11
2579.1211529572151
 21
9289.5412464436031
 31
0.0
  0
CIRCLE
  5
AA99
  8
FUTO
 10
2559.1211529572151
 20
9302.5412464436013
 30
0.0
 40
6.5
  0
LINE
  5
AA9A
  8
CT
 10
2559.1211529572151
 20
9312.5412464436013
 30
0.0
 11
2559.1211529572151
 21
9292.5412464436013
 31
0.0
  0
LINE
  5
AA9B
  8
FUTO
 10
2229.1211529572151
 20
9319.5412464436013
 30
0.0
 11
2579.1211529572151
 21
9319.5412464436013
 31
0.0
  0
LINE
  5
AA9C
  8
FUTO
 10
2579.1211529572151
 20
9319.5412464436013
 30
0.0
 11
2579.1211529572151
 21
9289.5412464436031
 31
0.0
  0
LINE
  5
AA9D
  8
FUTO
 10
2294.1211529572138
 20
9319.5412464436013
 30
0.0
 11
2294.1211529572101
 21
9537.6831962449396
 31
0.0
  0
LINE
  5
AA9E
  8
FUTO
 10
2264.1211529572138
 20
9709.5412464436013
 30
0.0
 11
2264.1211529572138
 21
9319.5412464436013
 31
0.0
  0
LINE
  5
AAA1
  8
FUTO
 10
2514.1211529572138
 20
9517.5412464435994
 30
0.0
 11
2514.1211529572138
 21
9319.5412464436013
 31
0.0
  0
LINE
  5
AAA2
  8
FUTO
 10
2544.1211529572138
 20
9517.5412464436013
 30
0.0
 11
2544.1211529572138
 21
9319.5412464436013
 31
0.0
  0
LINE
  5
AAA3
  8
FUTO
 10
2294.1211529572138
 20
9650.8831962449403
 30
0.0
 11
2294.1211529572101
 21
9709.5412464436013
 31
0.0
  0
LINE
  5
AAA5
  8
FUTO
 10
2544.1211529572138
 20
9709.5412464436013
 30
0.0
 11
2544.1211529572138
 21
9671.5412464436013
 31
0.0
  0
LINE
  5
AAA6
  8
FUTO
 10
2514.1211529572138
 20
9709.5412464435994
 30
0.0
 11
2514.1211529572151
 21
9671.5412464436013
 31
0.0
  0
LINE
  5
AAA7
  8
CT
 10
2569.1211529572138
 20
9302.5412464436013
 30
0.0
 11
2549.1211529572151
 21
9302.5412464436013
 31
0.0
  0
DIMENSION
  5
AAF8
  8
SP
  2
*D12
 10
2229.1211529572151
 20
9219.5412464436013
 30
0.0
 11
2404.1211529572138
 21
9244.5412464436013
 31
0.0
 70
     0
 13
2579.1211529572151
 23
9289.5412464436031
 33
0.0
 14
2229.1211529572151
 24
9289.5412464436031
 34
0.0
  0
DIMENSION
  5
AB05
  8
SP
  2
*D13
 10
2670.1512038374058
 20
9289.5412464436031
 30
0.0
 11
2645.151203837404
 21
9514.5412464436013
 31
0.0
 70
     0
 13
2579.1211529572151
 23
9739.5412464436013
 33
0.0
 14
2579.1211529572151
 24
9289.5412464436031
 34
0.0
 50
90.0
  0
DIMENSION
  5
AEB8
  8
SP
  2
*D16
 10
2579.1211529572151
 20
8411.6761894656502
 30
0.0
 11
2491.6211529572151
 21
8436.6761894656502
 31
0.0
 70
     0
 13
2404.1211529572151
 23
8473.3272350085299
 33
0.0
 14
2579.1211529572151
 24
8481.6761894656502
 34
0.0
 50
180.0
  0
DIMENSION
  5
AEB9
  8
SP
  2
*D15
 10
2229.1211529572151
 20
8341.6761894656483
 30
0.0
 11
2404.1211529572151
 21
8366.6761894656502
 31
0.0
 70
     0
 13
2579.1211529572151
 23
8481.6761894656502
 33
0.0
 14
2229.1211529572151
 24
8481.6761894656502
 34
0.0
 50
180.0
  0
LINE
  5
AEBA
  8
FUTO
 10
2229.1211529572151
 20
8511.6761894656502
 30
0.0
 11
2579.1211529572151
 21
8511.6761894656502
 31
0.0
  0
LINE
  5
AEBB
  8
FUTO
 10
2229.1211529572151
 20
8481.6761894656502
 30
0.0
 11
2579.1211529572151
 21
8481.6761894656502
 31
0.0
  0
LINE
  5
AEBC
  8
FUTO
 10
2229.1211529572151
 20
8508.6761894656502
 30
0.0
 11
2579.1211529572151
 21
8508.6761894656502
 31
0.0
  0
DIMENSION
  5
AEBD
  8
SP
  2
*D14
 10
2229.1211529572101
 20
8411.6761894656502
 30
0.0
 11
2316.6211529572129
 21
8436.6761894656502
 31
0.0
 70
     0
 13
2404.1211529572151
 23
8473.3272350085299
 33
0.0
 14
2229.1211529572101
 24
8481.6761894656502
 34
0.0
 50
180.0
  0
LINE
  5
AEBE
  8
FUTO
 10
2229.1211529572151
 20
8511.6761894656502
 30
0.0
 11
2229.1211529572151
 21
8481.6761894656502
 31
0.0
  0
LINE
  5
AEBF
  8
FUTO
 10
2579.1211529572151
 20
8511.6761894656502
 30
0.0
 11
2579.1211529572151
 21
8481.6761894656502
 31
0.0
  0
DIMENSION
  5
AEC0
  8
SP
  2
*D19
 10
3308.7622074881142
 20
8411.6761894656502
 30
0.0
 11
3236.2622074881142
 21
8436.6761894656502
 31
0.0
 70
     0
 13
3163.7622074881142
 23
8473.3272350085299
 33
0.0
 14
3308.7622074881142
 24
8511.6761894656502
 34
0.0
  0
DIMENSION
  5
AEC1
  8
SP
  2
*D18
 10
3308.7622074881142
 20
8341.6761894656483
 30
0.0
 11
3083.7622074881142
 21
8366.6761894656502
 31
0.0
 70
     0
 13
2858.7622074881142
 23
8511.6761894656502
 33
0.0
 14
3308.7622074881142
 24
8511.6761894656502
 34
0.0
  0
LINE
  5
AEC2
  8
FUTO
 10
2888.7622074881151
 20
8511.6761894656502
 30
0.0
 11
3278.7622074881151
 21
8511.6761894656502
 31
0.0
  0
LINE
  5
AEC3
  8
FUTO
 10
2887.7622074881142
 20
8481.676189465652
 30
0.0
 11
3279.7622074881142
 21
8481.6761894656483
 31
0.0
  0
DIMENSION
  5
AEC4
  8
SP
  2
*D17
 10
2858.7622074881142
 20
8411.6761894656502
 30
0.0
 11
3011.2622074881151
 21
8436.6761894656502
 31
0.0
 70
     0
 13
3163.7622074881142
 23
8473.3272350085299
 33
0.0
 14
2858.7622074881142
 24
8511.6761894656483
 34
0.0
  0
LINE
  5
AEC5
  8
FUTO
 10
2888.7622074881151
 20
8511.6761894656502
 30
0.0
 11
2858.7622074881142
 21
8511.6761894656502
 31
0.0
  0
LINE
  5
AEC6
  8
FUTO
 10
2888.7622074881151
 20
8511.6761894656502
 30
0.0
 11
2888.7622074881151
 21
8481.6761894656502
 31
0.0
  0
LINE
  5
AEC7
  8
FUTO
 10
2858.7622074881142
 20
8511.6761894656502
 30
0.0
 11
2858.7622074881142
 21
8510.6761894656502
 31
0.0
  0
LINE
  5
AEC8
  8
FUTO
 10
2888.7622074881151
 20
8481.6761894656502
 30
0.0
 11
2887.7622074881142
 21
8481.6761894656502
 31
0.0
  0
LINE
  5
AEC9
  8
FUTO
 10
2881.7622074881142
 20
8508.6761894656502
 30
0.0
 11
2860.7622074881142
 21
8508.6761894656502
 31
0.0
  0
LINE
  5
AECA
  8
FUTO
 10
2885.7622074881142
 20
8504.6761894656502
 30
0.0
 11
2885.7622074881142
 21
8483.6761894656502
 31
0.0
  0
ARC
  5
AECB
  8
FUTO
 10
2860.7622074881142
 20
8510.6761894656502
 30
0.0
 40
2.0
 50
180.0
 51
270.0
  0
ARC
  5
AECC
  8
FUTO
 10
2887.7622074881142
 20
8483.6761894656502
 30
0.0
 40
2.0
 50
180.0
 51
270.0
  0
ARC
  5
AECD
  8
FUTO
 10
2881.7622074881142
 20
8504.6761894656502
 30
0.0
 40
4.0
 50
0.0
 51
90.0
  0
ARC
  5
AECE
  8
FUTO
 10
3285.7622074881151
 20
8504.6761894656502
 30
0.0
 40
4.0
 50
90.0
 51
180.0
  0
ARC
  5
AECF
  8
FUTO
 10
3279.7622074881142
 20
8483.6761894656502
 30
0.0
 40
2.0
 50
270.0
 51
0.000000000000007
  0
ARC
  5
AED0
  8
FUTO
 10
3306.7622074881151
 20
8510.6761894656502
 30
0.0
 40
2.0
 50
270.0
 51
0.000000000000007
  0
LINE
  5
AED1
  8
FUTO
 10
3281.7622074881151
 20
8504.6761894656502
 30
0.0
 11
3281.7622074881151
 21
8483.6761894656502
 31
0.0
  0
LINE
  5
AED2
  8
FUTO
 10
3285.7622074881151
 20
8508.6761894656502
 30
0.0
 11
3306.7622074881151
 21
8508.6761894656502
 31
0.0
  0
LINE
  5
AED3
  8
FUTO
 10
3278.7622074881151
 20
8481.6761894656502
 30
0.0
 11
3279.7622074881142
 21
8481.6761894656502
 31
0.0
  0
LINE
  5
AED4
  8
FUTO
 10
3308.7622074881142
 20
8511.6761894656502
 30
0.0
 11
3308.7622074881142
 21
8510.6761894656502
 31
0.0
  0
LINE
  5
AED5
  8
FUTO
 10
3278.7622074881151
 20
8511.6761894656502
 30
0.0
 11
3278.7622074881151
 21
8481.6761894656502
 31
0.0
  0
LINE
  5
AED6
  8
FUTO
 10
3278.7622074881151
 20
8511.6761894656502
 30
0.0
 11
3308.7622074881142
 21
8511.6761894656502
 31
0.0
  0
DIMENSION
  5
B171
  8
SP
  2
*D20
 10
2646.1211529572138
 20
8481.6761894656502
 30
0.0
 11
2621.1211529572129
 21
8395.6166612502184
 31
0.0
 70
     0
 13
2579.1211529572151
 23
8511.6761894656502
 33
0.0
 14
2579.1211529572151
 24
8481.6761894656502
 34
0.0
 50
90.0
1001
ACAD
1000
DSTYLE
1002
{
1070
     6
1000
DOT
1002
}
  0
DIMENSION
  5
B180
  8
SP
  2
*D21
 10
2646.1211529572129
 20
8511.6761894656502
 30
0.0
 11
2682.822665178599
 21
8513.753886556191
 31
0.0
 70
   128
 13
2544.1211529572138
 23
8533.6761894656502
 33
0.0
 14
2579.1211529572151
 24
8511.6761894656502
 34
0.0
 50
90.0
1001
ACAD
1000
DSTYLE
1002
{
1070
   287
1070
     5
1070
     3
1000
（<>）
1070
   279
1070
     2
1070
     6
1000
NONE
1070
     7
1000
NONE
1002
}
  0
LINE
  5
B217
  8
FUTO
 10
3219.7622074881142
 20
8813.6761894656483
 30
0.0
 11
3220.3622074881132
 21
8813.6761894656483
 31
0.0
  0
LINE
  5
B218
  8
FUTO
 10
3219.7622074881142
 20
8813.6761894656483
 30
0.0
 11
3220.3622074881132
 21
8813.6761894656483
 31
0.0
  0
LINE
  5
B219
  8
FUTO
 10
3220.3622074881159
 20
8813.6761894656483
 30
0.0
 11
3226.7622074881142
 21
8813.6761894656483
 31
0.0
  0
LINE
  5
B21A
  8
FUTO
 10
3219.7622074881142
 20
8813.6761894656483
 30
0.0
 11
3220.3622074881132
 21
8813.6761894656483
 31
0.0
  0
LINE
  5
B21B
  8
FUTO
 10
3220.3622074881159
 20
8653.6761894656465
 30
0.0
 11
3226.7622074881142
 21
8653.6761894656465
 31
0.0
  0
LINE
  5
B21C
  8
FUTO
 10
3219.7622074881142
 20
8653.6761894656465
 30
0.0
 11
3220.3622074881132
 21
8653.6761894656465
 31
0.0
  0
LINE
  5
B21D
  8
FUTO
 10
3219.7622074881142
 20
8653.6761894656465
 30
0.0
 11
3220.3622074881132
 21
8653.6761894656465
 31
0.0
  0
ENDSEC
  0
EOF
