  0
SECTION
  2
HEADER
  9
$ACADVER
  1
AC1027
  9
$ACADMAINTVER
 70
    81
  9
$DWGCODEPAGE
  3
ANSI_932
  9
$LASTSAVEDBY
  1
reiko.miyawaki
  9
$REQUIREDVERSIONS
160
                 0
  9
$INSBASE
 10
0.0
 20
0.0
 30
0.0
  9
$EXTMIN
 10
0.0
 20
0.0
 30
0.0
  9
$EXTMAX
 10
2100.0
 20
2950.0
 30
0.0
  9
$LIMMIN
 10
0.0
 20
0.0
  9
$LIMMAX
 10
297.0
 20
210.0
  9
$ORTHOMODE
 70
     0
  9
$REGENMODE
 70
     1
  9
$FILLMODE
 70
     0
  9
$QTEXTMODE
 70
     0
  9
$MIRRTEXT
 70
     1
  9
$LTSCALE
 40
100.0
  9
$ATTMODE
 70
     1
  9
$TEXTSIZE
 40
180.0
  9
$TRACEWID
 40
0.05
  9
$TEXTSTYLE
  7
STANDARD
  9
$CLAYER
  8
3
  9
$CELTYPE
  6
BYLAYER
  9
$CECOLOR
 62
   256
  9
$CELTSCALE
 40
1.0
  9
$DISPSILH
 70
     0
  9
$DIMSCALE
 40
10.0
  9
$DIMASZ
 40
2.0
  9
$DIMEXO
 40
0.5
  9
$DIMDLI
 40
10.0
  9
$DIMRND
 40
0.0
  9
$DIMDLE
 40
0.0
  9
$DIMEXE
 40
1.0
  9
$DIMTP
 40
1.0
  9
$DIMTM
 40
1.0
  9
$DIMTXT
 40
3.0
  9
$DIMCEN
 40
0.0
  9
$DIMTSZ
 40
0.0
  9
$DIMTOL
 70
     0
  9
$DIMLIM
 70
     0
  9
$DIMTIH
 70
     0
  9
$DIMTOH
 70
     0
  9
$DIMSE1
 70
     0
  9
$DIMSE2
 70
     0
  9
$DIMTAD
 70
     1
  9
$DIMZIN
 70
     8
  9
$DIMBLK
  1

  9
$DIMASO
 70
     1
  9
$DIMSHO
 70
     1
  9
$DIMPOST
  1
(<>)
  9
$DIMAPOST
  1

  9
$DIMALT
 70
     0
  9
$DIMALTD
 70
     2
  9
$DIMALTF
 40
0.039
  9
$DIMLFAC
 40
1.0
  9
$DIMTOFL
 70
     1
  9
$DIMTVP
 40
0.0
  9
$DIMTIX
 70
     0
  9
$DIMSOXD
 70
     0
  9
$DIMSAH
 70
     1
  9
$DIMBLK1
  1
OPEN
  9
$DIMBLK2
  1
OPEN
  9
$DIMSTYLE
  2
IGA
  9
$DIMCLRD
 70
     0
  9
$DIMCLRE
 70
     0
  9
$DIMCLRT
 70
     0
  9
$DIMTFAC
 40
10.0
  9
$DIMGAP
 40
1.0
  9
$DIMJUST
 70
     0
  9
$DIMSD1
 70
     0
  9
$DIMSD2
 70
     0
  9
$DIMTOLJ
 70
     1
  9
$DIMTZIN
 70
     8
  9
$DIMALTZ
 70
     0
  9
$DIMALTTZ
 70
     0
  9
$DIMUPT
 70
     0
  9
$DIMDEC
 70
     0
  9
$DIMTDEC
 70
     0
  9
$DIMALTU
 70
     2
  9
$DIMALTTD
 70
     2
  9
$DIMTXSTY
  7
STANDARD
  9
$DIMAUNIT
 70
     0
  9
$DIMADEC
 70
     0
  9
$DIMALTRND
 40
0.0
  9
$DIMAZIN
 70
     0
  9
$DIMDSEP
 70
    46
  9
$DIMATFIT
 70
     3
  9
$DIMFRAC
 70
     0
  9
$DIMLDRBLK
  1
OPEN
  9
$DIMLUNIT
 70
     2
  9
$DIMLWD
 70
    -2
  9
$DIMLWE
 70
    -2
  9
$DIMTMOVE
 70
     2
  9
$DIMFXL
 40
1.0
  9
$DIMFXLON
 70
     0
  9
$DIMJOGANG
 40
0.7853981633974483
  9
$DIMTFILL
 70
     0
  9
$DIMTFILLCLR
 70
     0
  9
$DIMARCSYM
 70
     0
  9
$DIMLTYPE
  6

  9
$DIMLTEX1
  6

  9
$DIMLTEX2
  6

  9
$DIMTXTDIRECTION
 70
     0
  9
$LUNITS
 70
     2
  9
$LUPREC
 70
     3
  9
$SKETCHINC
 40
0.1
  9
$FILLETRAD
 40
50.0
  9
$AUNITS
 70
     0
  9
$AUPREC
 70
     0
  9
$MENU
  1
acad
  9
$ELEVATION
 40
0.0
  9
$PELEVATION
 40
0.0
  9
$THICKNESS
 40
0.0
  9
$LIMCHECK
 70
     0
  9
$CHAMFERA
 40
0.5
  9
$CHAMFERB
 40
0.5
  9
$CHAMFERC
 40
20.0
  9
$CHAMFERD
 40
0.0
  9
$SKPOLY
 70
     0
  9
$TDCREATE
 40
2451935.566007176
  9
$TDUCREATE
 40
2451935.191007176
  9
$TDUPDATE
 40
2459024.484433959
  9
$TDUUPDATE
 40
2459024.109433958
  9
$TDINDWG
 40
0.1961458102
  9
$TDUSRTIMER
 40
0.1961458102
  9
$USRTIMER
 70
     1
  9
$ANGBASE
 50
0.0
  9
$ANGDIR
 70
     0
  9
$PDMODE
 70
     0
  9
$PDSIZE
 40
0.0
  9
$PLINEWID
 40
0.0
  9
$SPLFRAME
 70
     0
  9
$SPLINETYPE
 70
     6
  9
$SPLINESEGS
 70
     8
  9
$HANDSEED
  5
845B
  9
$SURFTAB1
 70
     6
  9
$SURFTAB2
 70
     6
  9
$SURFTYPE
 70
     6
  9
$SURFU
 70
     6
  9
$SURFV
 70
     6
  9
$UCSBASE
  2

  9
$UCSNAME
  2

  9
$UCSORG
 10
0.0
 20
0.0
 30
0.0
  9
$UCSXDIR
 10
1.0
 20
0.0
 30
0.0
  9
$UCSYDIR
 10
0.0
 20
1.0
 30
0.0
  9
$UCSORTHOREF
  2

  9
$UCSORTHOVIEW
 70
     0
  9
$UCSORGTOP
 10
0.0
 20
0.0
 30
0.0
  9
$UCSORGBOTTOM
 10
0.0
 20
0.0
 30
0.0
  9
$UCSORGLEFT
 10
0.0
 20
0.0
 30
0.0
  9
$UCSORGRIGHT
 10
0.0
 20
0.0
 30
0.0
  9
$UCSORGFRONT
 10
0.0
 20
0.0
 30
0.0
  9
$UCSORGBACK
 10
0.0
 20
0.0
 30
0.0
  9
$PUCSBASE
  2

  9
$PUCSNAME
  2

  9
$PUCSORG
 10
0.0
 20
0.0
 30
0.0
  9
$PUCSXDIR
 10
1.0
 20
0.0
 30
0.0
  9
$PUCSYDIR
 10
0.0
 20
1.0
 30
0.0
  9
$PUCSORTHOREF
  2

  9
$PUCSORTHOVIEW
 70
     0
  9
$PUCSORGTOP
 10
0.0
 20
0.0
 30
0.0
  9
$PUCSORGBOTTOM
 10
0.0
 20
0.0
 30
0.0
  9
$PUCSORGLEFT
 10
0.0
 20
0.0
 30
0.0
  9
$PUCSORGRIGHT
 10
0.0
 20
0.0
 30
0.0
  9
$PUCSORGFRONT
 10
0.0
 20
0.0
 30
0.0
  9
$PUCSORGBACK
 10
0.0
 20
0.0
 30
0.0
  9
$USERI1
 70
     0
  9
$USERI2
 70
     0
  9
$USERI3
 70
     0
  9
$USERI4
 70
     0
  9
$USERI5
 70
     0
  9
$USERR1
 40
0.0
  9
$USERR2
 40
0.0
  9
$USERR3
 40
0.0
  9
$USERR4
 40
0.0
  9
$USERR5
 40
0.0
  9
$WORLDVIEW
 70
     1
  9
$SHADEDGE
 70
     3
  9
$SHADEDIF
 70
    70
  9
$TILEMODE
 70
     1
  9
$MAXACTVP
 70
    16
  9
$PINSBASE
 10
0.0
 20
0.0
 30
0.0
  9
$PLIMCHECK
 70
     0
  9
$PEXTMIN
 10
1.000000000000000E+20
 20
1.000000000000000E+20
 30
1.000000000000000E+20
  9
$PEXTMAX
 10
-1.000000000000000E+20
 20
-1.000000000000000E+20
 30
-1.000000000000000E+20
  9
$PLIMMIN
 10
0.0
 20
0.0
  9
$PLIMMAX
 10
12.0
 20
9.0
  9
$UNITMODE
 70
     0
  9
$VISRETAIN
 70
     0
  9
$PLINEGEN
 70
     0
  9
$PSLTSCALE
 70
     1
  9
$TREEDEPTH
 70
  3020
  9
$CMLSTYLE
  2
STANDARD
  9
$CMLJUST
 70
     0
  9
$CMLSCALE
 40
20.0
  9
$PROXYGRAPHICS
 70
     1
  9
$MEASUREMENT
 70
     1
  9
$CELWEIGHT
370
    -1
  9
$ENDCAPS
280
     0
  9
$JOINSTYLE
280
     0
  9
$LWDISPLAY
290
     0
  9
$INSUNITS
 70
     0
  9
$HYPERLINKBASE
  1

  9
$STYLESHEET
  1

  9
$XEDIT
290
     1
  9
$CEPSNTYPE
380
     0
  9
$PSTYLEMODE
290
     1
  9
$FINGERPRINTGUID
  2
{C6C4A266-A3F8-4413-AE82-C21E2C7DF86B}
  9
$VERSIONGUID
  2
{0441FCAA-EB67-4264-9A8F-CE2E1688586F}
  9
$EXTNAMES
290
     1
  9
$PSVPSCALE
 40
0.0
  9
$OLESTARTUP
290
     0
  9
$SORTENTS
280
   127
  9
$INDEXCTL
280
     0
  9
$HIDETEXT
280
     0
  9
$XCLIPFRAME
280
     2
  9
$HALOGAP
280
     0
  9
$OBSCOLOR
 70
   257
  9
$OBSLTYPE
280
     0
  9
$INTERSECTIONDISPLAY
280
     0
  9
$INTERSECTIONCOLOR
 70
   257
  9
$DIMASSOC
280
     1
  9
$PROJECTNAME
  1

  9
$CAMERADISPLAY
290
     0
  9
$LENSLENGTH
 40
50.0
  9
$CAMERAHEIGHT
 40
0.0
  9
$STEPSPERSEC
 40
2.0
  9
$STEPSIZE
 40
6.0
  9
$3DDWFPREC
 40
2.0
  9
$PSOLWIDTH
 40
0.25
  9
$PSOLHEIGHT
 40
4.0
  9
$LOFTANG1
 40
1.570796326794896
  9
$LOFTANG2
 40
1.570796326794896
  9
$LOFTMAG1
 40
0.0
  9
$LOFTMAG2
 40
0.0
  9
$LOFTPARAM
 70
     7
  9
$LOFTNORMALS
280
     1
  9
$LATITUDE
 40
37.795
  9
$LONGITUDE
 40
-122.394
  9
$NORTHDIRECTION
 40
0.0
  9
$TIMEZONE
 70
 -8000
  9
$LIGHTGLYPHDISPLAY
280
     1
  9
$TILEMODELIGHTSYNCH
280
     1
  9
$CMATERIAL
347
8312
  9
$SOLIDHIST
280
     0
  9
$SHOWHIST
280
     1
  9
$DWFFRAME
280
     2
  9
$DGNFRAME
280
     0
  9
$REALWORLDSCALE
290
     1
  9
$INTERFERECOLOR
 62
     1
  9
$INTERFEREOBJVS
345
8334
  9
$INTERFEREVPVS
346
8331
  9
$CSHADOW
280
     0
  9
$SHADOWPLANELOCATION
 40
0.0
  0
ENDSEC
  0
SECTION
  2
CLASSES
  0
CLASS
  1
ACDBDICTIONARYWDFLT
  2
AcDbDictionaryWithDefault
  3
ObjectDBX Classes
 90
        0
 91
        1
280
     0
281
     0
  0
CLASS
  1
MATERIAL
  2
AcDbMaterial
  3
ObjectDBX Classes
 90
     1153
 91
        3
280
     0
281
     0
  0
CLASS
  1
VISUALSTYLE
  2
AcDbVisualStyle
  3
ObjectDBX Classes
 90
     4095
 91
       24
280
     0
281
     0
  0
CLASS
  1
TABLESTYLE
  2
AcDbTableStyle
  3
ObjectDBX Classes
 90
     4095
 91
        1
280
     0
281
     0
  0
CLASS
  1
SCALE
  2
AcDbScale
  3
ObjectDBX Classes
 90
     1153
 91
       17
280
     0
281
     0
  0
CLASS
  1
MLEADERSTYLE
  2
AcDbMLeaderStyle
  3
ACDB_MLEADERSTYLE_CLASS
 90
     4095
 91
        1
280
     0
281
     0
  0
CLASS
  1
ACDBSECTIONVIEWSTYLE
  2
AcDbSectionViewStyle
  3
ObjectDBX Classes
 90
     1025
 91
        1
280
     0
281
     0
  0
CLASS
  1
ACDBDETAILVIEWSTYLE
  2
AcDbDetailViewStyle
  3
ObjectDBX Classes
 90
     1025
 91
        1
280
     0
281
     0
  0
CLASS
  1
SORTENTSTABLE
  2
AcDbSortentsTable
  3
ObjectDBX Classes
 90
        0
 91
        1
280
     0
281
     0
  0
CLASS
  1
DICTIONARYVAR
  2
AcDbDictionaryVar
  3
ObjectDBX Classes
 90
        0
 91
        9
280
     0
281
     0
  0
CLASS
  1
CELLSTYLEMAP
  2
AcDbCellStyleMap
  3
ObjectDBX Classes
 90
     1152
 91
        1
280
     0
281
     0
  0
ENDSEC
  0
SECTION
  2
TABLES
  0
TABLE
  2
VPORT
  5
8
330
0
100
AcDbSymbolTable
 70
     1
  0
VPORT
  5
830F
330
8
100
AcDbSymbolTableRecord
100
AcDbViewportTableRecord
  2
*Active
 70
     0
 10
0.0
 20
0.0
 11
1.0
 21
1.0
 12
1050.000014669225
 22
1545.621937369708
 13
0.0
 23
0.0
 14
10.0
 24
10.0
 15
10.0
 25
10.0
 16
0.0
 26
0.0
 36
1.0
 17
0.0
 27
0.0
 37
0.0
 40
3110.224489446325
 41
1.957107843137254
 42
50.0
 43
0.0
 44
0.0
 50
0.0
 51
0.0
 71
     0
 72
   100
 73
     1
 74
     0
 75
     0
 76
     0
 77
     0
 78
     0
281
     0
 65
     1
110
0.0
120
0.0
130
0.0
111
1.0
121
0.0
131
0.0
112
0.0
122
1.0
132
0.0
 79
     0
146
0.0
348
8330
 60
     3
 61
     5
292
     1
282
     1
141
0.0
142
0.0
 63
   250
421
  3355443
1001
ACAD_NAV_VCDISPLAY
1070
     3
  0
ENDTAB
  0
TABLE
  2
LTYPE
  5
5
330
0
100
AcDbSymbolTable
 70
     2
  0
LTYPE
  5
13
330
5
100
AcDbSymbolTableRecord
100
AcDbLinetypeTableRecord
  2
BYBLOCK
 70
     0
  3

 72
    65
 73
     0
 40
0.0
  0
LTYPE
  5
14
330
5
100
AcDbSymbolTableRecord
100
AcDbLinetypeTableRecord
  2
BYLAYER
 70
     0
  3

 72
    65
 73
     0
 40
0.0
  0
LTYPE
  5
15
330
5
100
AcDbSymbolTableRecord
100
AcDbLinetypeTableRecord
  2
CONTINUOUS
 70
     0
  3
Solid line
 72
    65
 73
     0
 40
0.0
  0
LTYPE
  5
1F
330
5
100
AcDbSymbolTableRecord
100
AcDbLinetypeTableRecord
  2
CENTER
 70
     0
  3
____ _ ____ _ ____ _ ____ _ ____ _ ____ _ ____ 
 72
    65
 73
     4
 40
2.0
 49
1.25
 74
     0
 49
-0.25
 74
     0
 49
0.25
 74
     0
 49
-0.25
 74
     0
  0
ENDTAB
  0
TABLE
  2
LAYER
  5
2
102
{ACAD_XDICTIONARY
360
83CA
102
}
330
0
100
AcDbSymbolTable
 70
     6
  0
LAYER
  5
F
102
{ACAD_XDICTIONARY
360
83BD
102
}
330
2
100
AcDbSymbolTableRecord
100
AcDbLayerTableRecord
  2
0
 70
     0
 62
     7
  6
CONTINUOUS
370
    -3
390
8302
347
8322
348
0
  0
LAYER
  5
31
102
{ACAD_XDICTIONARY
360
83BF
102
}
330
2
100
AcDbSymbolTableRecord
100
AcDbLayerTableRecord
  2
3
 70
     0
 62
     2
  6
CONTINUOUS
370
    -3
390
8302
347
8322
348
0
  0
LAYER
  5
76D0
102
{ACAD_XDICTIONARY
360
83C1
102
}
330
2
100
AcDbSymbolTableRecord
100
AcDbLayerTableRecord
  2
2
 70
     0
 62
     3
  6
CENTER
370
    -3
390
8302
347
8322
348
0
  0
LAYER
  5
76D1
102
{ACAD_XDICTIONARY
360
83C3
102
}
330
2
100
AcDbSymbolTableRecord
100
AcDbLayerTableRecord
  2
1
 70
     0
 62
     4
  6
CONTINUOUS
370
    -3
390
8302
347
8322
348
0
  0
LAYER
  5
76D2
102
{ACAD_XDICTIONARY
360
83C5
102
}
330
2
100
AcDbSymbolTableRecord
100
AcDbLayerTableRecord
  2
4
 70
     0
 62
     7
  6
CONTINUOUS
370
    -3
390
8302
347
8322
348
0
  0
LAYER
  5
7B1B
330
2
100
AcDbSymbolTableRecord
100
AcDbLayerTableRecord
  2
DEFPOINTS
 70
     0
 62
     7
  6
CONTINUOUS
290
     0
370
    -3
390
8302
347
8322
348
0
  0
ENDTAB
  0
TABLE
  2
STYLE
  5
3
330
0
100
AcDbSymbolTable
 70
     1
  0
STYLE
  5
10
330
3
100
AcDbSymbolTableRecord
100
AcDbTextStyleTableRecord
  2
STANDARD
 70
     0
 40
0.0
 41
1.0
 50
0.0
 71
     0
 42
180.0
  3
simplex.shx
  4
extfont.shx
  0
ENDTAB
  0
TABLE
  2
VIEW
  5
6
330
0
100
AcDbSymbolTable
 70
     0
  0
ENDTAB
  0
TABLE
  2
UCS
  5
7
330
0
100
AcDbSymbolTable
 70
     0
  0
ENDTAB
  0
TABLE
  2
APPID
  5
9
330
0
100
AcDbSymbolTable
 70
     4
  0
APPID
  5
11
330
9
100
AcDbSymbolTableRecord
100
AcDbRegAppTableRecord
  2
ACAD
 70
     0
  0
APPID
  5
83D0
330
9
100
AcDbSymbolTableRecord
100
AcDbRegAppTableRecord
  2
ACAD_NAV_VCDISPLAY
 70
     0
  0
APPID
  5
8403
330
9
100
AcDbSymbolTableRecord
100
AcDbRegAppTableRecord
  2
AcadAnnoMonitorAlertIconDisabled
 70
     0
  0
APPID
  5
8404
330
9
100
AcDbSymbolTableRecord
100
AcDbRegAppTableRecord
  2
ACAD_EXEMPT_FROM_CAD_STANDARDS
 70
     0
  0
ENDTAB
  0
TABLE
  2
DIMSTYLE
  5
A
330
0
100
AcDbSymbolTable
 70
     1
100
AcDbDimStyleTable
 71
     1
340
1D
  0
DIMSTYLE
105
1D
102
{ACAD_REACTORS
330
7C9A
330
7CBA
330
7CBB
330
7CBC
330
7CBD
330
7D09
330
7D0A
330
7D0B
330
7D0C
330
7D0F
330
7D10
330
819A
330
81A7
330
820F
330
821C
330
8229
330
8238
330
8263
330
82D0
330
82DD
102
}
330
A
100
AcDbSymbolTableRecord
100
AcDbDimStyleTableRecord
  2
IGA
 70
     0
 40
2.0
 41
2.0
 42
0.5
 43
10.0
 44
1.0
 47
1.0
 48
1.0
 73
     0
 74
     0
 77
     1
 78
     8
140
3.0
141
0.0
143
0.03937
146
10.0
147
1.0
173
     1
271
     1
272
     0
279
     2
284
     8
340
10
341
79FC
343
79FC
344
79FC
  0
ENDTAB
  0
TABLE
  2
BLOCK_RECORD
  5
1
330
0
100
AcDbSymbolTable
 70
    23
  0
BLOCK_RECORD
  5
19
102
{ACAD_XDICTIONARY
360
8362
102
}
330
1
100
AcDbSymbolTableRecord
100
AcDbBlockTableRecord
  2
*MODEL_SPACE
340
8305
 70
     0
280
     1
281
     0
  0
BLOCK_RECORD
  5
16
330
1
100
AcDbSymbolTableRecord
100
AcDbBlockTableRecord
  2
*PAPER_SPACE
340
8306
 70
     0
280
     1
281
     0
  0
BLOCK_RECORD
  5
79FC
330
1
100
AcDbSymbolTableRecord
100
AcDbBlockTableRecord
  2
_OPEN
340
0
102
{BLKREFS
331
7F3F
331
7F40
331
7F4A
331
7F4B
331
7F6F
331
7F70
331
7F85
331
7F86
331
7F90
331
7F91
331
8022
331
8023
331
8051
331
8052
331
80CA
331
80CB
331
8367
331
8368
331
8370
331
8371
331
8379
331
837A
331
8384
331
8385
331
83B8
331
83E5
331
8412
331
8413
331
8442
331
8443
331
80E3
331
80E4
331
8193
331
8194
331
81A0
331
81A1
331
829A
331
829B
102
}
 70
     0
280
     1
281
     0
  0
BLOCK_RECORD
  5
7A02
330
1
100
AcDbSymbolTableRecord
100
AcDbBlockTableRecord
  2
YA_N
340
0
102
{BLKREFS
331
7C1E
331
7C1F
102
}
 70
     0
280
     1
281
     0
  0
BLOCK_RECORD
  5
7D1A
330
1
100
AcDbSymbolTableRecord
100
AcDbBlockTableRecord
  2
*D2
340
0
 70
     0
280
     1
281
     0
  0
BLOCK_RECORD
  5
7D6C
330
1
100
AcDbSymbolTableRecord
100
AcDbBlockTableRecord
  2
*D3
340
0
 70
     0
280
     1
281
     0
  0
BLOCK_RECORD
  5
7D78
330
1
100
AcDbSymbolTableRecord
100
AcDbBlockTableRecord
  2
*D4
340
0
 70
     0
280
     1
281
     0
  0
BLOCK_RECORD
  5
7D84
330
1
100
AcDbSymbolTableRecord
100
AcDbBlockTableRecord
  2
*D5
340
0
 70
     0
280
     1
281
     0
  0
BLOCK_RECORD
  5
7D90
330
1
100
AcDbSymbolTableRecord
100
AcDbBlockTableRecord
  2
*D6
340
0
 70
     0
280
     1
281
     0
  0
BLOCK_RECORD
  5
7DB3
330
1
100
AcDbSymbolTableRecord
100
AcDbBlockTableRecord
  2
*D7
340
0
 70
     0
280
     1
281
     0
  0
BLOCK_RECORD
  5
7DBF
330
1
100
AcDbSymbolTableRecord
100
AcDbBlockTableRecord
  2
*D8
340
0
 70
     0
280
     1
281
     0
  0
BLOCK_RECORD
  5
7DCA
330
1
100
AcDbSymbolTableRecord
100
AcDbBlockTableRecord
  2
*D9
340
0
 70
     0
280
     1
281
     0
  0
BLOCK_RECORD
  5
7DD6
330
1
100
AcDbSymbolTableRecord
100
AcDbBlockTableRecord
  2
*D10
340
0
 70
     0
280
     1
281
     0
  0
BLOCK_RECORD
  5
7DFC
330
1
100
AcDbSymbolTableRecord
100
AcDbBlockTableRecord
  2
*D11
340
0
 70
     0
280
     1
281
     0
  0
BLOCK_RECORD
  5
7E08
330
1
100
AcDbSymbolTableRecord
100
AcDbBlockTableRecord
  2
*D12
340
0
 70
     0
280
     1
281
     0
  0
BLOCK_RECORD
  5
807C
330
1
100
AcDbSymbolTableRecord
100
AcDbBlockTableRecord
  2
_DOT
340
0
102
{BLKREFS
331
83B7
331
83E4
102
}
 70
     0
280
     1
281
     0
  0
BLOCK_RECORD
  5
818E
330
1
100
AcDbSymbolTableRecord
100
AcDbBlockTableRecord
  2
*D14
340
0
 70
     0
280
     1
281
     0
  0
BLOCK_RECORD
  5
819B
330
1
100
AcDbSymbolTableRecord
100
AcDbBlockTableRecord
  2
*D15
340
0
 70
     0
280
     1
281
     0
  0
BLOCK_RECORD
  5
8203
330
1
100
AcDbSymbolTableRecord
100
AcDbBlockTableRecord
  2
*D16
340
0
 70
     0
280
     1
281
     0
  0
BLOCK_RECORD
  5
8210
330
1
100
AcDbSymbolTableRecord
100
AcDbBlockTableRecord
  2
*D17
340
0
 70
     0
280
     1
281
     0
  0
BLOCK_RECORD
  5
821D
330
1
100
AcDbSymbolTableRecord
100
AcDbBlockTableRecord
  2
*D18
340
0
 70
     0
280
     1
281
     0
  0
BLOCK_RECORD
  5
822A
330
1
100
AcDbSymbolTableRecord
100
AcDbBlockTableRecord
  2
*D19
340
0
 70
     0
280
     1
281
     0
  0
BLOCK_RECORD
  5
8255
330
1
100
AcDbSymbolTableRecord
100
AcDbBlockTableRecord
  2
*D20
340
0
 70
     0
280
     1
281
     0
  0
BLOCK_RECORD
  5
82C4
330
1
100
AcDbSymbolTableRecord
100
AcDbBlockTableRecord
  2
*D21
340
0
 70
     0
280
     1
281
     0
  0
BLOCK_RECORD
  5
82D1
330
1
100
AcDbSymbolTableRecord
100
AcDbBlockTableRecord
  2
*D22
340
0
 70
     0
280
     1
281
     0
  0
ENDTAB
  0
ENDSEC
  0
SECTION
  2
BLOCKS
  0
BLOCK
  5
1A
330
19
100
AcDbEntity
  8
0
100
AcDbBlockBegin
  2
*MODEL_SPACE
 70
     0
 10
0.0
 20
0.0
 30
0.0
  3
*MODEL_SPACE
  1

  0
ENDBLK
  5
1B
330
19
100
AcDbEntity
  8
0
100
AcDbBlockEnd
  0
BLOCK
  5
17
330
16
100
AcDbEntity
 67
     1
  8
0
100
AcDbBlockBegin
  2
*PAPER_SPACE
 70
     0
 10
0.0
 20
0.0
 30
0.0
  3
*PAPER_SPACE
  1

  0
ENDBLK
  5
18
330
16
100
AcDbEntity
 67
     1
  8
0
100
AcDbBlockEnd
  0
BLOCK
  5
7A00
330
79FC
100
AcDbEntity
  8
0
100
AcDbBlockBegin
  2
_OPEN
 70
     0
 10
0.0
 20
0.0
 30
0.0
  3
_OPEN
  1

  0
LINE
  5
79FD
330
79FC
100
AcDbEntity
  8
0
  6
ByBlock
 62
     0
100
AcDbLine
 10
-1.0
 20
0.1666666666666666
 30
0.0
 11
0.0
 21
0.0
 31
0.0
  0
LINE
  5
79FE
330
79FC
100
AcDbEntity
  8
0
  6
ByBlock
 62
     0
100
AcDbLine
 10
0.0
 20
0.0
 30
0.0
 11
-1.0
 21
-0.1666666666666666
 31
0.0
  0
LINE
  5
79FF
330
79FC
100
AcDbEntity
  8
0
  6
ByBlock
 62
     0
100
AcDbLine
 10
0.0
 20
0.0
 30
0.0
 11
-1.0
 21
0.0
 31
0.0
  0
ENDBLK
  5
7A01
330
79FC
100
AcDbEntity
  8
0
100
AcDbBlockEnd
  0
BLOCK
  5
7A03
330
7A02
100
AcDbEntity
  8
0
100
AcDbBlockBegin
  2
YA_N
 70
     0
 10
0.0
 20
0.0
 30
0.0
  3
YA_N
  1

  0
ENDBLK
  5
7A04
330
7A02
100
AcDbEntity
  8
0
100
AcDbBlockEnd
  0
BLOCK
  5
801E
330
7D1A
100
AcDbEntity
  8
0
100
AcDbBlockBegin
  2
*D2
 70
     1
 10
0.0
 20
0.0
 30
0.0
  3
*D2
  1

  0
LINE
  5
801F
330
7D1A
100
AcDbEntity
  8
0
  6
ByBlock
 62
     0
440
 16777216
100
AcDbLine
 10
441.3078329276514
 20
869.6103456486662
 30
0.0
 11
380.3746801828884
 21
869.6103456486662
 31
0.0
  0
LINE
  5
8020
330
7D1A
100
AcDbEntity
  8
0
  6
ByBlock
 62
     0
440
 16777216
100
AcDbLine
 10
441.3078329276518
 20
1029.610345648666
 30
0.0
 11
380.3746801828884
 21
1029.610345648666
 31
0.0
  0
LINE
  5
8021
330
7D1A
100
AcDbEntity
  8
0
  6
ByBlock
 62
     0
440
 16777216
100
AcDbLine
 10
390.3746801828884
 20
889.6103456486661
 30
0.0
 11
390.3746801828884
 21
1009.610345648666
 31
0.0
  0
INSERT
  5
8022
330
7D1A
100
AcDbEntity
  8
0
  6
ByBlock
 62
     0
440
 16777216
100
AcDbBlockReference
  2
_OPEN
 10
390.3746801828884
 20
869.6103456486662
 30
0.0
 41
20.0
 42
20.0
 43
20.0
 50
270.0
  0
INSERT
  5
8023
330
7D1A
100
AcDbEntity
  8
0
  6
ByBlock
 62
     0
440
 16777216
100
AcDbBlockReference
  2
_OPEN
 10
390.3746801828884
 20
1029.610345648666
 30
0.0
 41
20.0
 42
20.0
 43
20.0
 50
90.0
  0
MTEXT
  5
8024
330
7D1A
100
AcDbEntity
  8
0
  6
ByBlock
 62
     0
440
 16777216
100
AcDbMText
 10
365.3746801828884
 20
963.8960599343803
 30
0.0
 40
30.0
 41
0.0
 46
0.0
 71
     5
 72
     5
  1
\A1;160
 11
0.0
 21
1.0
 31
0.0
 73
     1
 44
1.0
  0
POINT
  5
8025
330
7D1A
100
AcDbEntity
  8
DEFPOINTS
  6
ByBlock
 62
     0
440
 16777216
100
AcDbPoint
 10
446.3078329276513
 20
869.6103456486662
 30
0.0
  0
POINT
  5
8026
330
7D1A
100
AcDbEntity
  8
DEFPOINTS
  6
ByBlock
 62
     0
440
 16777216
100
AcDbPoint
 10
446.3078329276518
 20
1029.610345648666
 30
0.0
  0
POINT
  5
8027
330
7D1A
100
AcDbEntity
  8
DEFPOINTS
  6
ByBlock
 62
     0
440
 16777216
100
AcDbPoint
 10
390.3746801828884
 20
1029.610345648666
 30
0.0
  0
ENDBLK
  5
8028
330
7D1A
100
AcDbEntity
  8
0
100
AcDbBlockEnd
  0
BLOCK
  5
80C6
330
7D6C
100
AcDbEntity
  8
0
100
AcDbBlockBegin
  2
*D3
 70
     1
 10
0.0
 20
0.0
 30
0.0
  3
*D3
  1

  0
LINE
  5
80C7
330
7D6C
100
AcDbEntity
  8
0
  6
ByBlock
 62
     0
440
 16777216
100
AcDbLine
 10
1781.474917534525
 20
1111.560350946807
 30
0.0
 11
1867.115581344062
 21
1111.560350946807
 31
0.0
  0
LINE
  5
80C8
330
7D6C
100
AcDbEntity
  8
0
  6
ByBlock
 62
     0
440
 16777216
100
AcDbLine
 10
1781.474917534525
 20
935.5603509468075
 30
0.0
 11
1867.115581344062
 21
935.5603509468075
 31
0.0
  0
LINE
  5
80C9
330
7D6C
100
AcDbEntity
  8
0
  6
ByBlock
 62
     0
440
 16777216
100
AcDbLine
 10
1857.115581344062
 20
1091.560350946807
 30
0.0
 11
1857.115581344062
 21
955.5603509468074
 31
0.0
  0
INSERT
  5
80CA
330
7D6C
100
AcDbEntity
  8
0
  6
ByBlock
 62
     0
440
 16777216
100
AcDbBlockReference
  2
_OPEN
 10
1857.115581344062
 20
1111.560350946807
 30
0.0
 41
20.0
 42
20.0
 43
20.0
 50
90.0
  0
INSERT
  5
80CB
330
7D6C
100
AcDbEntity
  8
0
  6
ByBlock
 62
     0
440
 16777216
100
AcDbBlockReference
  2
_OPEN
 10
1857.115581344062
 20
935.5603509468075
 30
0.0
 41
20.0
 42
20.0
 43
20.0
 50
270.0
  0
MTEXT
  5
80CC
330
7D6C
100
AcDbEntity
  8
0
  6
ByBlock
 62
     0
440
 16777216
100
AcDbMText
 10
1832.115581344062
 20
1023.560350946807
 30
0.0
 40
30.0
 41
0.0
 46
0.0
 71
     5
 72
     5
  1
\A1;φ176
 11
0.0
 21
1.0
 31
0.0
 73
     1
 44
1.0
  0
POINT
  5
80CD
330
7D6C
100
AcDbEntity
  8
DEFPOINTS
  6
ByBlock
 62
     0
440
 16777216
100
AcDbPoint
 10
1776.474917534525
 20
1111.560350946807
 30
0.0
  0
POINT
  5
80CE
330
7D6C
100
AcDbEntity
  8
DEFPOINTS
  6
ByBlock
 62
     0
440
 16777216
100
AcDbPoint
 10
1776.474917534525
 20
935.5603509468075
 30
0.0
  0
POINT
  5
80CF
330
7D6C
100
AcDbEntity
  8
DEFPOINTS
  6
ByBlock
 62
     0
440
 16777216
100
AcDbPoint
 10
1857.115581344062
 20
935.5603509468075
 30
0.0
  0
ENDBLK
  5
80D0
330
7D6C
100
AcDbEntity
  8
0
100
AcDbBlockEnd
  0
BLOCK
  5
804C
330
7D78
100
AcDbEntity
  8
0
100
AcDbBlockBegin
  2
*D4
 70
     1
 10
0.0
 20
0.0
 30
0.0
  3
*D4
  1

  0
LINE
  5
804D
330
7D78
100
AcDbEntity
  8
0
  6
ByBlock
 62
     0
440
 16777216
100
AcDbLine
 10
1632.474917534525
 20
1141.326904276719
 30
0.0
 11
1632.474917534525
 21
1219.670860064085
 31
0.0
  0
LINE
  5
804E
330
7D78
100
AcDbEntity
  8
0
  6
ByBlock
 62
     0
440
 16777216
100
AcDbLine
 10
1752.474917534524
 20
1141.326904276718
 30
0.0
 11
1752.474917534524
 21
1219.670860064085
 31
0.0
  0
LINE
  5
804F
330
7D78
100
AcDbEntity
  8
0
  6
ByBlock
 62
     0
440
 16777216
100
AcDbLine
 10
1652.474917534524
 20
1209.670860064085
 30
0.0
 11
1732.474917534524
 21
1209.670860064085
 31
0.0
  0
MTEXT
  5
8050
330
7D78
100
AcDbEntity
  8
0
  6
ByBlock
 62
     0
440
 16777216
100
AcDbMText
 10
1693.260378736319
 20
1234.257393024634
 30
0.0
 40
30.0
 41
0.0
 46
0.0
 71
     5
 72
     5
  1
\A1;120
 73
     1
 44
1.0
  0
INSERT
  5
8051
330
7D78
100
AcDbEntity
  8
0
  6
ByBlock
 62
     0
440
 16777216
100
AcDbBlockReference
  2
_OPEN
 10
1632.474917534525
 20
1209.670860064085
 30
0.0
 41
20.0
 42
20.0
 43
20.0
 50
180.0
  0
INSERT
  5
8052
330
7D78
100
AcDbEntity
  8
0
  6
ByBlock
 62
     0
440
 16777216
100
AcDbBlockReference
  2
_OPEN
 10
1752.474917534524
 20
1209.670860064085
 30
0.0
 41
20.0
 42
20.0
 43
20.0
  0
POINT
  5
8053
330
7D78
100
AcDbEntity
  8
DEFPOINTS
  6
ByBlock
 62
     0
440
 16777216
100
AcDbPoint
 10
1632.474917534525
 20
1136.326904276719
 30
0.0
  0
POINT
  5
8054
330
7D78
100
AcDbEntity
  8
DEFPOINTS
  6
ByBlock
 62
     0
440
 16777216
100
AcDbPoint
 10
1752.474917534524
 20
1136.326904276718
 30
0.0
  0
POINT
  5
8055
330
7D78
100
AcDbEntity
  8
DEFPOINTS
  6
ByBlock
 62
     0
440
 16777216
100
AcDbPoint
 10
1752.474917534524
 20
1209.670860064085
 30
0.0
  0
ENDBLK
  5
8056
330
7D78
100
AcDbEntity
  8
0
100
AcDbBlockEnd
  0
BLOCK
  5
80DE
330
7D84
100
AcDbEntity
  8
0
100
AcDbBlockBegin
  2
*D5
 70
     1
 10
0.0
 20
0.0
 30
0.0
  3
*D5
  1

  0
LINE
  5
80DF
330
7D84
100
AcDbEntity
  8
0
  6
ByBlock
 62
     0
440
 16777216
100
AcDbLine
 10
1756.474917534525
 20
1139.560350946807
 30
0.0
 11
1756.474917534525
 21
1294.084594143669
 31
0.0
  0
LINE
  5
80E0
330
7D84
100
AcDbEntity
  8
0
  6
ByBlock
 62
     0
440
 16777216
100
AcDbLine
 10
1692.474917534525
 20
1263.965900725336
 30
0.0
 11
1692.474917534525
 21
1294.084594143669
 31
0.0
  0
LINE
  5
80E1
330
7D84
100
AcDbEntity
  8
0
  6
ByBlock
 62
     0
440
 16777216
100
AcDbLine
 10
1736.474917534525
 20
1284.084594143669
 30
0.0
 11
1712.474917534525
 21
1284.084594143669
 31
0.0
  0
MTEXT
  5
80E2
330
7D84
100
AcDbEntity
  8
0
  6
ByBlock
 62
     0
440
 16777216
100
AcDbMText
 10
1724.474917534525
 20
1324.084594143669
 30
0.0
 40
30.0
 41
0.0
 46
0.0
 71
     5
 72
     5
  1
\A1;64
 73
     1
 44
1.0
  0
INSERT
  5
80E3
330
7D84
100
AcDbEntity
  8
0
  6
ByBlock
 62
     0
440
 16777216
100
AcDbBlockReference
  2
_OPEN
 10
1756.474917534525
 20
1284.084594143669
 30
0.0
 41
20.0
 42
20.0
 43
20.0
  0
INSERT
  5
80E4
330
7D84
100
AcDbEntity
  8
0
  6
ByBlock
 62
     0
440
 16777216
100
AcDbBlockReference
  2
_OPEN
 10
1692.474917534525
 20
1284.084594143669
 30
0.0
 41
20.0
 42
20.0
 43
20.0
 50
180.0
  0
POINT
  5
80E5
330
7D84
100
AcDbEntity
  8
DEFPOINTS
  6
ByBlock
 62
     0
440
 16777216
100
AcDbPoint
 10
1756.474917534525
 20
1134.560350946807
 30
0.0
  0
POINT
  5
80E6
330
7D84
100
AcDbEntity
  8
DEFPOINTS
  6
ByBlock
 62
     0
440
 16777216
100
AcDbPoint
 10
1692.474917534525
 20
1258.965900725336
 30
0.0
  0
POINT
  5
80E7
330
7D84
100
AcDbEntity
  8
DEFPOINTS
  6
ByBlock
 62
     0
440
 16777216
100
AcDbPoint
 10
1692.474917534525
 20
1284.084594143669
 30
0.0
  0
ENDBLK
  5
80E8
330
7D84
100
AcDbEntity
  8
0
100
AcDbBlockEnd
  0
BLOCK
  5
80E9
330
7D90
100
AcDbEntity
  8
0
100
AcDbBlockBegin
  2
*D6
 70
     1
 10
0.0
 20
0.0
 30
0.0
  3
*D6
  1

  0
LINE
  5
843F
330
7D90
100
AcDbEntity
  8
3
 62
     0
440
 16777216
370
    -2
100
AcDbLine
 10
1692.474917534525
 20
1263.965900725336
 30
0.0
 11
1692.474917534525
 21
1294.084594143669
 31
0.0
  0
LINE
  5
8440
330
7D90
100
AcDbEntity
  8
3
 62
     0
440
 16777216
370
    -2
100
AcDbLine
 10
1276.729867139227
 20
1183.566316032927
 30
0.0
 11
1276.729867139227
 21
1294.084594143669
 31
0.0
  0
LINE
  5
8441
330
7D90
100
AcDbEntity
  8
3
 62
     0
440
 16777216
370
    -2
100
AcDbLine
 10
1672.474917534525
 20
1284.084594143669
 30
0.0
 11
1296.729867139227
 21
1284.084594143669
 31
0.0
  0
INSERT
  5
8442
330
7D90
100
AcDbEntity
  8
3
 62
     0
440
 16777216
370
    -2
100
AcDbBlockReference
  2
_OPEN
 10
1692.474917534525
 20
1284.084594143669
 30
0.0
 41
20.0
 42
20.0
 43
20.0
  0
INSERT
  5
8443
330
7D90
100
AcDbEntity
  8
3
 62
     0
440
 16777216
370
    -2
100
AcDbBlockReference
  2
_OPEN
 10
1276.729867139227
 20
1284.084594143669
 30
0.0
 41
20.0
 42
20.0
 43
20.0
 50
180.0
  0
MTEXT
  5
8444
330
7D90
100
AcDbEntity
  8
3
 62
     0
440
 16777216
100
AcDbMText
 10
1484.602392336876
 20
1341.941737000812
 30
0.0
 40
30.0
 41
0.0
 46
0.0
 71
     5
 72
     1
  1
\A1;\P(500)
 73
     1
 44
1.0
  0
POINT
  5
8445
330
7D90
100
AcDbEntity
  8
DEFPOINTS
 62
     0
440
 16777216
100
AcDbPoint
 10
1692.474917534525
 20
1258.965900725336
 30
0.0
  0
POINT
  5
8446
330
7D90
100
AcDbEntity
  8
DEFPOINTS
 62
     0
440
 16777216
100
AcDbPoint
 10
1276.729867139227
 20
1178.566316032926
 30
0.0
  0
POINT
  5
8447
330
7D90
100
AcDbEntity
  8
DEFPOINTS
 62
     0
440
 16777216
100
AcDbPoint
 10
1276.729867139227
 20
1284.084594143669
 30
0.0
  0
ENDBLK
  5
80F3
330
7D90
100
AcDbEntity
  8
0
100
AcDbBlockEnd
  0
BLOCK
  5
7F8C
330
7DB3
100
AcDbEntity
  8
0
100
AcDbBlockBegin
  2
*D7
 70
     1
 10
0.0
 20
0.0
 30
0.0
  3
*D7
  1

  0
LINE
  5
7F8D
330
7DB3
100
AcDbEntity
  8
0
  6
ByBlock
 62
     0
440
 16777216
100
AcDbLine
 10
426.307832927652
 20
1056.910345648666
 30
0.0
 11
426.307832927652
 21
1236.863442546009
 31
0.0
  0
LINE
  5
7F8E
330
7DB3
100
AcDbEntity
  8
0
  6
ByBlock
 62
     0
440
 16777216
100
AcDbLine
 10
586.3078329276523
 20
1207.166409443899
 30
0.0
 11
586.3078329276523
 21
1236.863442546009
 31
0.0
  0
LINE
  5
7F8F
330
7DB3
100
AcDbEntity
  8
0
  6
ByBlock
 62
     0
440
 16777216
100
AcDbLine
 10
446.307832927652
 20
1226.863442546009
 30
0.0
 11
566.3078329276522
 21
1226.863442546009
 31
0.0
  0
INSERT
  5
7F90
330
7DB3
100
AcDbEntity
  8
0
  6
ByBlock
 62
     0
440
 16777216
100
AcDbBlockReference
  2
_OPEN
 10
426.307832927652
 20
1226.863442546009
 30
0.0
 41
20.0
 42
20.0
 43
20.0
 50
180.0
  0
INSERT
  5
7F91
330
7DB3
100
AcDbEntity
  8
0
  6
ByBlock
 62
     0
440
 16777216
100
AcDbBlockReference
  2
_OPEN
 10
586.3078329276523
 20
1226.863442546009
 30
0.0
 41
20.0
 42
20.0
 43
20.0
  0
MTEXT
  5
7F92
330
7DB3
100
AcDbEntity
  8
0
  6
ByBlock
 62
     0
440
 16777216
100
AcDbMText
 10
506.3078329276521
 20
1251.86344254601
 30
0.0
 40
30.0
 41
0.0
 46
0.0
 71
     5
 72
     5
  1
\A1;160
 73
     1
 44
1.0
  0
POINT
  5
7F93
330
7DB3
100
AcDbEntity
  8
DEFPOINTS
  6
ByBlock
 62
     0
440
 16777216
100
AcDbPoint
 10
426.307832927652
 20
1051.910345648666
 30
0.0
  0
POINT
  5
7F94
330
7DB3
100
AcDbEntity
  8
DEFPOINTS
  6
ByBlock
 62
     0
440
 16777216
100
AcDbPoint
 10
586.3078329276523
 20
1202.166409443899
 30
0.0
  0
POINT
  5
7F95
330
7DB3
100
AcDbEntity
  8
DEFPOINTS
  6
ByBlock
 62
     0
440
 16777216
100
AcDbPoint
 10
586.3078329276523
 20
1226.863442546009
 30
0.0
  0
ENDBLK
  5
7F96
330
7DB3
100
AcDbEntity
  8
0
100
AcDbBlockEnd
  0
BLOCK
  5
7F81
330
7DBF
100
AcDbEntity
  8
0
100
AcDbBlockBegin
  2
*D8
 70
     1
 10
0.0
 20
0.0
 30
0.0
  3
*D8
  1

  0
LINE
  5
7F82
330
7DBF
100
AcDbEntity
  8
0
  6
ByBlock
 62
     0
440
 16777216
100
AcDbLine
 10
586.3078329276523
 20
1207.166409443899
 30
0.0
 11
586.3078329276523
 21
1236.863442546009
 31
0.0
  0
LINE
  5
7F83
330
7DBF
100
AcDbEntity
  8
0
  6
ByBlock
 62
     0
440
 16777216
100
AcDbLine
 10
722.8078329276518
 20
1021.110345648666
 30
0.0
 11
722.8078329276518
 21
1236.863442546009
 31
0.0
  0
LINE
  5
7F84
330
7DBF
100
AcDbEntity
  8
0
  6
ByBlock
 62
     0
440
 16777216
100
AcDbLine
 10
606.3078329276522
 20
1226.863442546009
 30
0.0
 11
702.8078329276517
 21
1226.863442546009
 31
0.0
  0
INSERT
  5
7F85
330
7DBF
100
AcDbEntity
  8
0
  6
ByBlock
 62
     0
440
 16777216
100
AcDbBlockReference
  2
_OPEN
 10
586.3078329276523
 20
1226.863442546009
 30
0.0
 41
20.0
 42
20.0
 43
20.0
 50
180.0
  0
INSERT
  5
7F86
330
7DBF
100
AcDbEntity
  8
0
  6
ByBlock
 62
     0
440
 16777216
100
AcDbBlockReference
  2
_OPEN
 10
722.8078329276518
 20
1226.863442546009
 30
0.0
 41
20.0
 42
20.0
 43
20.0
  0
MTEXT
  5
7F87
330
7DBF
100
AcDbEntity
  8
0
  6
ByBlock
 62
     0
440
 16777216
100
AcDbMText
 10
654.557832927652
 20
1251.86344254601
 30
0.0
 40
30.0
 41
0.0
 46
0.0
 71
     5
 72
     5
  1
\A1;136
 73
     1
 44
1.0
  0
POINT
  5
7F88
330
7DBF
100
AcDbEntity
  8
DEFPOINTS
  6
ByBlock
 62
     0
440
 16777216
100
AcDbPoint
 10
586.3078329276523
 20
1202.166409443899
 30
0.0
  0
POINT
  5
7F89
330
7DBF
100
AcDbEntity
  8
DEFPOINTS
  6
ByBlock
 62
     0
440
 16777216
100
AcDbPoint
 10
722.8078329276518
 20
1016.110345648666
 30
0.0
  0
POINT
  5
7F8A
330
7DBF
100
AcDbEntity
  8
DEFPOINTS
  6
ByBlock
 62
     0
440
 16777216
100
AcDbPoint
 10
722.8078329276518
 20
1226.863442546009
 30
0.0
  0
ENDBLK
  5
7F8B
330
7DBF
100
AcDbEntity
  8
0
100
AcDbBlockEnd
  0
BLOCK
  5
8296
330
7DCA
100
AcDbEntity
  8
0
100
AcDbBlockBegin
  2
*D9
 70
     1
 10
0.0
 20
0.0
 30
0.0
  3
*D9
  1

  0
LINE
  5
8297
330
7DCA
100
AcDbEntity
  8
0
  6
ByBlock
 62
     0
440
 16777216
100
AcDbLine
 10
588.8078329276518
 20
1145.110345648665
 30
0.0
 11
277.5116689490205
 21
1145.110345648665
 31
0.0
  0
LINE
  5
8298
330
7DCA
100
AcDbEntity
  8
0
  6
ByBlock
 62
     0
440
 16777216
100
AcDbLine
 10
404.5615889303101
 20
1023.610345648666
 30
0.0
 11
277.5116689490205
 21
1023.610345648666
 31
0.0
  0
LINE
  5
8299
330
7DCA
100
AcDbEntity
  8
0
  6
ByBlock
 62
     0
440
 16777216
100
AcDbLine
 10
287.5116689490205
 20
1125.110345648666
 30
0.0
 11
287.5116689490205
 21
1043.610345648666
 31
0.0
  0
INSERT
  5
829A
330
7DCA
100
AcDbEntity
  8
0
  6
ByBlock
 62
     0
440
 16777216
100
AcDbBlockReference
  2
_OPEN
 10
287.5116689490205
 20
1145.110345648665
 30
0.0
 41
20.0
 42
20.0
 43
20.0
 50
90.0
  0
INSERT
  5
829B
330
7DCA
100
AcDbEntity
  8
0
  6
ByBlock
 62
     0
440
 16777216
100
AcDbBlockReference
  2
_OPEN
 10
287.5116689490205
 20
1023.610345648666
 30
0.0
 41
20.0
 42
20.0
 43
20.0
 50
270.0
  0
MTEXT
  5
829C
330
7DCA
100
AcDbEntity
  8
0
  6
ByBlock
 62
     0
440
 16777216
100
AcDbMText
 10
262.5116689490205
 20
1084.360345648666
 30
0.0
 40
30.0
 41
0.0
 46
0.0
 71
     5
 72
     5
  1
\A1;121
 11
0.0
 21
1.0
 31
0.0
 73
     1
 44
1.0
  0
POINT
  5
829D
330
7DCA
100
AcDbEntity
  8
DEFPOINTS
  6
ByBlock
 62
     0
440
 16777216
100
AcDbPoint
 10
593.8078329276518
 20
1145.110345648665
 30
0.0
  0
POINT
  5
829E
330
7DCA
100
AcDbEntity
  8
DEFPOINTS
  6
ByBlock
 62
     0
440
 16777216
100
AcDbPoint
 10
409.56158893031
 20
1023.610345648666
 30
0.0
  0
POINT
  5
829F
330
7DCA
100
AcDbEntity
  8
DEFPOINTS
  6
ByBlock
 62
     0
440
 16777216
100
AcDbPoint
 10
287.5116689490205
 20
1023.610345648666
 30
0.0
  0
ENDBLK
  5
82A0
330
7DCA
100
AcDbEntity
  8
0
100
AcDbBlockEnd
  0
BLOCK
  5
7F6B
330
7DD6
100
AcDbEntity
  8
0
100
AcDbBlockBegin
  2
*D10
 70
     1
 10
0.0
 20
0.0
 30
0.0
  3
*D10
  1

  0
LINE
  5
7F6C
330
7DD6
100
AcDbEntity
  8
0
  6
ByBlock
 62
     0
440
 16777216
100
AcDbLine
 10
404.5615889303101
 20
1023.610345648666
 30
0.0
 11
277.5116689490205
 21
1023.610345648666
 31
0.0
  0
LINE
  5
7F6D
330
7DD6
100
AcDbEntity
  8
0
  6
ByBlock
 62
     0
440
 16777216
100
AcDbLine
 10
431.3078329276511
 20
803.6103456486664
 30
0.0
 11
277.5116689490205
 21
803.6103456486664
 31
0.0
  0
LINE
  5
7F6E
330
7DD6
100
AcDbEntity
  8
0
  6
ByBlock
 62
     0
440
 16777216
100
AcDbLine
 10
287.5116689490205
 20
1003.610345648666
 30
0.0
 11
287.5116689490205
 21
823.6103456486663
 31
0.0
  0
INSERT
  5
7F6F
330
7DD6
100
AcDbEntity
  8
0
  6
ByBlock
 62
     0
440
 16777216
100
AcDbBlockReference
  2
_OPEN
 10
287.5116689490205
 20
1023.610345648666
 30
0.0
 41
20.0
 42
20.0
 43
20.0
 50
90.0
  0
INSERT
  5
7F70
330
7DD6
100
AcDbEntity
  8
0
  6
ByBlock
 62
     0
440
 16777216
100
AcDbBlockReference
  2
_OPEN
 10
287.5116689490205
 20
803.6103456486664
 30
0.0
 41
20.0
 42
20.0
 43
20.0
 50
270.0
  0
MTEXT
  5
7F71
330
7DD6
100
AcDbEntity
  8
0
  6
ByBlock
 62
     0
440
 16777216
100
AcDbMText
 10
262.5116689490205
 20
913.6103456486663
 30
0.0
 40
30.0
 41
0.0
 46
0.0
 71
     5
 72
     5
  1
\A1;220
 11
0.0
 21
1.0
 31
0.0
 73
     1
 44
1.0
  0
POINT
  5
7F72
330
7DD6
100
AcDbEntity
  8
DEFPOINTS
  6
ByBlock
 62
     0
440
 16777216
100
AcDbPoint
 10
409.56158893031
 20
1023.610345648666
 30
0.0
  0
POINT
  5
7F73
330
7DD6
100
AcDbEntity
  8
DEFPOINTS
  6
ByBlock
 62
     0
440
 16777216
100
AcDbPoint
 10
436.3078329276511
 20
803.6103456486664
 30
0.0
  0
POINT
  5
7F74
330
7DD6
100
AcDbEntity
  8
DEFPOINTS
  6
ByBlock
 62
     0
440
 16777216
100
AcDbPoint
 10
287.5116689490205
 20
803.6103456486664
 30
0.0
  0
ENDBLK
  5
7F75
330
7DD6
100
AcDbEntity
  8
0
100
AcDbBlockEnd
  0
BLOCK
  5
7F46
330
7DFC
100
AcDbEntity
  8
0
100
AcDbBlockBegin
  2
*D11
 70
     1
 10
0.0
 20
0.0
 30
0.0
  3
*D11
  1

  0
LINE
  5
7F47
330
7DFC
100
AcDbEntity
  8
0
  6
ByBlock
 62
     0
440
 16777216
100
AcDbLine
 10
404.5615889303101
 20
1023.610345648666
 30
0.0
 11
328.2069332220917
 21
1023.610345648666
 31
0.0
  0
LINE
  5
7F48
330
7DFC
100
AcDbEntity
  8
0
  6
ByBlock
 62
     0
440
 16777216
100
AcDbLine
 10
441.3078329276514
 20
869.6103456486662
 30
0.0
 11
328.2069332220917
 21
869.6103456486662
 31
0.0
  0
LINE
  5
7F49
330
7DFC
100
AcDbEntity
  8
0
  6
ByBlock
 62
     0
440
 16777216
100
AcDbLine
 10
338.2069332220917
 20
1003.610345648666
 30
0.0
 11
338.2069332220917
 21
889.6103456486661
 31
0.0
  0
INSERT
  5
7F4A
330
7DFC
100
AcDbEntity
  8
0
  6
ByBlock
 62
     0
440
 16777216
100
AcDbBlockReference
  2
_OPEN
 10
338.2069332220917
 20
1023.610345648666
 30
0.0
 41
20.0
 42
20.0
 43
20.0
 50
90.0
  0
INSERT
  5
7F4B
330
7DFC
100
AcDbEntity
  8
0
  6
ByBlock
 62
     0
440
 16777216
100
AcDbBlockReference
  2
_OPEN
 10
338.2069332220917
 20
869.6103456486662
 30
0.0
 41
20.0
 42
20.0
 43
20.0
 50
270.0
  0
MTEXT
  5
7F4C
330
7DFC
100
AcDbEntity
  8
0
  6
ByBlock
 62
     0
440
 16777216
100
AcDbMText
 10
313.2069332220917
 20
946.6103456486663
 30
0.0
 40
30.0
 41
0.0
 46
0.0
 71
     5
 72
     5
  1
\A1;154
 11
0.0
 21
1.0
 31
0.0
 73
     1
 44
1.0
  0
POINT
  5
7F4D
330
7DFC
100
AcDbEntity
  8
DEFPOINTS
  6
ByBlock
 62
     0
440
 16777216
100
AcDbPoint
 10
409.56158893031
 20
1023.610345648666
 30
0.0
  0
POINT
  5
7F4E
330
7DFC
100
AcDbEntity
  8
DEFPOINTS
  6
ByBlock
 62
     0
440
 16777216
100
AcDbPoint
 10
446.3078329276513
 20
869.6103456486662
 30
0.0
  0
POINT
  5
7F4F
330
7DFC
100
AcDbEntity
  8
DEFPOINTS
  6
ByBlock
 62
     0
440
 16777216
100
AcDbPoint
 10
338.2069332220917
 20
869.6103456486662
 30
0.0
  0
ENDBLK
  5
7F50
330
7DFC
100
AcDbEntity
  8
0
100
AcDbBlockEnd
  0
BLOCK
  5
7F3B
330
7E08
100
AcDbEntity
  8
0
100
AcDbBlockBegin
  2
*D12
 70
     1
 10
0.0
 20
0.0
 30
0.0
  3
*D12
  1

  0
LINE
  5
7F3C
330
7E08
100
AcDbEntity
  8
0
  6
ByBlock
 62
     0
440
 16777216
100
AcDbLine
 10
426.307832927652
 20
1056.910345648666
 30
0.0
 11
426.307832927652
 21
1298.518154213291
 31
0.0
  0
LINE
  5
7F3D
330
7E08
100
AcDbEntity
  8
0
  6
ByBlock
 62
     0
440
 16777216
100
AcDbLine
 10
1016.307832927651
 20
848.6103456486642
 30
0.0
 11
1016.307832927651
 21
1298.518154213291
 31
0.0
  0
LINE
  5
7F3E
330
7E08
100
AcDbEntity
  8
0
  6
ByBlock
 62
     0
440
 16777216
100
AcDbLine
 10
446.307832927652
 20
1288.518154213291
 30
0.0
 11
996.3078329276509
 21
1288.518154213291
 31
0.0
  0
INSERT
  5
7F3F
330
7E08
100
AcDbEntity
  8
0
  6
ByBlock
 62
     0
440
 16777216
100
AcDbBlockReference
  2
_OPEN
 10
426.307832927652
 20
1288.518154213291
 30
0.0
 41
20.0
 42
20.0
 43
20.0
 50
180.0
  0
INSERT
  5
7F40
330
7E08
100
AcDbEntity
  8
0
  6
ByBlock
 62
     0
440
 16777216
100
AcDbBlockReference
  2
_OPEN
 10
1016.307832927651
 20
1288.518154213291
 30
0.0
 41
20.0
 42
20.0
 43
20.0
  0
MTEXT
  5
7F41
330
7E08
100
AcDbEntity
  8
0
  6
ByBlock
 62
     0
440
 16777216
100
AcDbMText
 10
721.3078329276514
 20
1313.518154213291
 30
0.0
 40
30.0
 41
0.0
 46
0.0
 71
     5
 72
     5
  1
\A1;590
 73
     1
 44
1.0
  0
POINT
  5
7F42
330
7E08
100
AcDbEntity
  8
DEFPOINTS
  6
ByBlock
 62
     0
440
 16777216
100
AcDbPoint
 10
426.307832927652
 20
1051.910345648666
 30
0.0
  0
POINT
  5
7F43
330
7E08
100
AcDbEntity
  8
DEFPOINTS
  6
ByBlock
 62
     0
440
 16777216
100
AcDbPoint
 10
1016.307832927651
 20
843.6103456486643
 30
0.0
  0
POINT
  5
7F44
330
7E08
100
AcDbEntity
  8
DEFPOINTS
  6
ByBlock
 62
     0
440
 16777216
100
AcDbPoint
 10
1016.307832927651
 20
1288.518154213291
 30
0.0
  0
ENDBLK
  5
7F45
330
7E08
100
AcDbEntity
  8
0
100
AcDbBlockEnd
  0
BLOCK
  5
807D
330
807C
100
AcDbEntity
  8
0
100
AcDbBlockBegin
  2
_DOT
 70
     0
 10
0.0
 20
0.0
 30
0.0
  3
_DOT
  1

  0
LINE
  5
80D5
330
807C
100
AcDbEntity
  8
0
  6
ByBlock
 62
     0
100
AcDbLine
 10
0.0
 20
0.0
 30
0.0
 11
-1.0
 21
-0.0000000000000284
 31
0.0
  0
LWPOLYLINE
  5
80D6
330
807C
100
AcDbEntity
  8
0
  6
ByBlock
 62
     0
100
AcDbPolyline
 90
        2
 70
     1
 43
0.1666666666666666
 10
-0.0833333333333286
 20
-0.0000000000000284
 42
1.0
 10
0.0833333333333286
 20
-0.0000000000000284
 42
1.0
  0
ENDBLK
  5
8083
330
807C
100
AcDbEntity
  8
0
100
AcDbBlockEnd
  0
BLOCK
  5
818F
330
818E
100
AcDbEntity
  8
0
100
AcDbBlockBegin
  2
*D14
 70
     1
 10
0.0
 20
0.0
 30
0.0
  3
*D14
  1

  0
LINE
  5
8190
330
818E
100
AcDbEntity
  8
0
  6
ByBlock
 62
     0
440
 16777216
100
AcDbLine
 10
1021.307832927656
 20
1980.322383093996
 30
0.0
 11
1121.742217886369
 21
1980.322383093996
 31
0.0
  0
LINE
  5
8191
330
818E
100
AcDbEntity
  8
0
  6
ByBlock
 62
     0
440
 16777216
100
AcDbLine
 10
1021.307832927654
 20
1600.322383093996
 30
0.0
 11
1121.742217886369
 21
1600.322383093996
 31
0.0
  0
LINE
  5
8192
330
818E
100
AcDbEntity
  8
0
  6
ByBlock
 62
     0
440
 16777216
100
AcDbLine
 10
1111.742217886369
 20
1960.322383093996
 30
0.0
 11
1111.742217886369
 21
1620.322383093996
 31
0.0
  0
INSERT
  5
8193
330
818E
100
AcDbEntity
  8
0
  6
ByBlock
 62
     0
440
 16777216
100
AcDbBlockReference
  2
_OPEN
 10
1111.742217886369
 20
1980.322383093996
 30
0.0
 41
20.0
 42
20.0
 43
20.0
 50
90.0
  0
INSERT
  5
8194
330
818E
100
AcDbEntity
  8
0
  6
ByBlock
 62
     0
440
 16777216
100
AcDbBlockReference
  2
_OPEN
 10
1111.742217886369
 20
1600.322383093996
 30
0.0
 41
20.0
 42
20.0
 43
20.0
 50
270.0
  0
MTEXT
  5
8195
330
818E
100
AcDbEntity
  8
0
  6
ByBlock
 62
     0
440
 16777216
100
AcDbMText
 10
1086.742217886369
 20
1786.188621445269
 30
0.0
 40
30.0
 41
0.0
 46
0.0
 71
     5
 72
     5
  1
\A1;380
 11
0.0
 21
1.0
 31
0.0
 73
     1
 44
1.0
  0
POINT
  5
8196
330
818E
100
AcDbEntity
  8
DEFPOINTS
  6
ByBlock
 62
     0
440
 16777216
100
AcDbPoint
 10
1016.307832927656
 20
1980.322383093996
 30
0.0
  0
POINT
  5
8197
330
818E
100
AcDbEntity
  8
DEFPOINTS
  6
ByBlock
 62
     0
440
 16777216
100
AcDbPoint
 10
1016.307832927654
 20
1600.322383093996
 30
0.0
  0
POINT
  5
8198
330
818E
100
AcDbEntity
  8
DEFPOINTS
  6
ByBlock
 62
     0
440
 16777216
100
AcDbPoint
 10
1111.742217886369
 20
1600.322383093996
 30
0.0
  0
ENDBLK
  5
8199
330
818E
100
AcDbEntity
  8
0
100
AcDbBlockEnd
  0
BLOCK
  5
819C
330
819B
100
AcDbEntity
  8
0
100
AcDbBlockBegin
  2
*D15
 70
     1
 10
0.0
 20
0.0
 30
0.0
  3
*D15
  1

  0
LINE
  5
819D
330
819B
100
AcDbEntity
  8
0
  6
ByBlock
 62
     0
440
 16777216
100
AcDbLine
 10
436.3078329276546
 20
1595.322383093996
 30
0.0
 11
436.3078329276546
 21
1486.466626631064
 31
0.0
  0
LINE
  5
819E
330
819B
100
AcDbEntity
  8
0
  6
ByBlock
 62
     0
440
 16777216
100
AcDbLine
 10
1016.307832927654
 20
1595.322383093996
 30
0.0
 11
1016.307832927654
 21
1486.466626631064
 31
0.0
  0
LINE
  5
819F
330
819B
100
AcDbEntity
  8
0
  6
ByBlock
 62
     0
440
 16777216
100
AcDbLine
 10
456.3078329276546
 20
1496.466626631064
 30
0.0
 11
996.3078329276545
 21
1496.466626631064
 31
0.0
  0
INSERT
  5
81A0
330
819B
100
AcDbEntity
  8
0
  6
ByBlock
 62
     0
440
 16777216
100
AcDbBlockReference
  2
_OPEN
 10
436.3078329276546
 20
1496.466626631064
 30
0.0
 41
20.0
 42
20.0
 43
20.0
 50
180.0
  0
INSERT
  5
81A1
330
819B
100
AcDbEntity
  8
0
  6
ByBlock
 62
     0
440
 16777216
100
AcDbBlockReference
  2
_OPEN
 10
1016.307832927654
 20
1496.466626631064
 30
0.0
 41
20.0
 42
20.0
 43
20.0
  0
MTEXT
  5
81A2
330
819B
100
AcDbEntity
  8
0
  6
ByBlock
 62
     0
440
 16777216
100
AcDbMText
 10
727.0223469640823
 20
1521.466626631064
 30
0.0
 40
30.0
 41
0.0
 46
0.0
 71
     5
 72
     5
  1
\A1;580
 73
     1
 44
1.0
  0
POINT
  5
81A3
330
819B
100
AcDbEntity
  8
DEFPOINTS
  6
ByBlock
 62
     0
440
 16777216
100
AcDbPoint
 10
436.3078329276546
 20
1600.322383093996
 30
0.0
  0
POINT
  5
81A4
330
819B
100
AcDbEntity
  8
DEFPOINTS
  6
ByBlock
 62
     0
440
 16777216
100
AcDbPoint
 10
1016.307832927654
 20
1600.322383093996
 30
0.0
  0
POINT
  5
81A5
330
819B
100
AcDbEntity
  8
DEFPOINTS
  6
ByBlock
 62
     0
440
 16777216
100
AcDbPoint
 10
1016.307832927654
 20
1496.466626631064
 30
0.0
  0
ENDBLK
  5
81A6
330
819B
100
AcDbEntity
  8
0
100
AcDbBlockEnd
  0
BLOCK
  5
8204
330
8203
100
AcDbEntity
  8
0
100
AcDbBlockBegin
  2
*D16
 70
     1
 10
0.0
 20
0.0
 30
0.0
  3
*D16
  1

  0
LINE
  5
8364
330
8203
100
AcDbEntity
  8
3
 62
     0
440
 16777216
370
    -2
100
AcDbLine
 10
436.3078329276511
 20
688.6103456486661
 30
0.0
 11
436.3078329276511
 21
609.3093419557487
 31
0.0
  0
LINE
  5
8365
330
8203
100
AcDbEntity
  8
3
 62
     0
440
 16777216
370
    -2
100
AcDbLine
 10
586.3078329276507
 20
688.6103456486655
 30
0.0
 11
586.3078329276507
 21
609.3093419557487
 31
0.0
  0
LINE
  5
8366
330
8203
100
AcDbEntity
  8
3
 62
     0
440
 16777216
370
    -2
100
AcDbLine
 10
456.3078329276511
 20
619.3093419557487
 30
0.0
 11
566.3078329276507
 21
619.3093419557487
 31
0.0
  0
INSERT
  5
8367
330
8203
100
AcDbEntity
  8
3
 62
     0
440
 16777216
370
    -2
100
AcDbBlockReference
  2
_OPEN
 10
436.3078329276511
 20
619.3093419557487
 30
0.0
 41
20.0
 42
20.0
 43
20.0
 50
180.0
  0
INSERT
  5
8368
330
8203
100
AcDbEntity
  8
3
 62
     0
440
 16777216
370
    -2
100
AcDbBlockReference
  2
_OPEN
 10
586.3078329276507
 20
619.3093419557487
 30
0.0
 41
20.0
 42
20.0
 43
20.0
  0
MTEXT
  5
8369
330
8203
100
AcDbEntity
  8
3
 62
     0
440
 16777216
100
AcDbMText
 10
511.3078329276508
 20
644.3093419557487
 30
0.0
 40
30.0
 41
0.0
 46
0.0
 71
     5
 72
     1
  1
\A1;150
 73
     1
 44
1.0
  0
POINT
  5
836A
330
8203
100
AcDbEntity
  8
DEFPOINTS
 62
     0
440
 16777216
100
AcDbPoint
 10
436.3078329276511
 20
693.6103456486661
 30
0.0
  0
POINT
  5
836B
330
8203
100
AcDbEntity
  8
DEFPOINTS
 62
     0
440
 16777216
100
AcDbPoint
 10
586.3078329276507
 20
693.6103456486655
 30
0.0
  0
POINT
  5
836C
330
8203
100
AcDbEntity
  8
DEFPOINTS
 62
     0
440
 16777216
100
AcDbPoint
 10
586.3078329276507
 20
619.3093419557487
 30
0.0
  0
ENDBLK
  5
820E
330
8203
100
AcDbEntity
  8
0
100
AcDbBlockEnd
  0
BLOCK
  5
8211
330
8210
100
AcDbEntity
  8
0
100
AcDbBlockBegin
  2
*D17
 70
     1
 10
0.0
 20
0.0
 30
0.0
  3
*D17
  1

  0
LINE
  5
836D
330
8210
100
AcDbEntity
  8
3
 62
     0
440
 16777216
370
    -2
100
AcDbLine
 10
586.3078329276507
 20
688.6103456486655
 30
0.0
 11
586.3078329276507
 21
609.3093419557487
 31
0.0
  0
LINE
  5
836E
330
8210
100
AcDbEntity
  8
3
 62
     0
440
 16777216
370
    -2
100
AcDbLine
 10
1016.30783292765
 20
688.5663160329248
 30
0.0
 11
1016.30783292765
 21
609.3093419557487
 31
0.0
  0
LINE
  5
836F
330
8210
100
AcDbEntity
  8
3
 62
     0
440
 16777216
370
    -2
100
AcDbLine
 10
606.3078329276507
 20
619.3093419557487
 30
0.0
 11
996.3078329276507
 21
619.3093419557487
 31
0.0
  0
INSERT
  5
8370
330
8210
100
AcDbEntity
  8
3
 62
     0
440
 16777216
370
    -2
100
AcDbBlockReference
  2
_OPEN
 10
586.3078329276507
 20
619.3093419557487
 30
0.0
 41
20.0
 42
20.0
 43
20.0
 50
180.0
  0
INSERT
  5
8371
330
8210
100
AcDbEntity
  8
3
 62
     0
440
 16777216
370
    -2
100
AcDbBlockReference
  2
_OPEN
 10
1016.30783292765
 20
619.3093419557487
 30
0.0
 41
20.0
 42
20.0
 43
20.0
  0
MTEXT
  5
8372
330
8210
100
AcDbEntity
  8
3
 62
     0
440
 16777216
100
AcDbMText
 10
801.3078329276506
 20
644.3093419557487
 30
0.0
 40
30.0
 41
0.0
 46
0.0
 71
     5
 72
     1
  1
\A1;430
 73
     1
 44
1.0
  0
POINT
  5
8373
330
8210
100
AcDbEntity
  8
DEFPOINTS
 62
     0
440
 16777216
100
AcDbPoint
 10
586.3078329276507
 20
693.6103456486655
 30
0.0
  0
POINT
  5
8374
330
8210
100
AcDbEntity
  8
DEFPOINTS
 62
     0
440
 16777216
100
AcDbPoint
 10
1016.30783292765
 20
693.5663160329248
 30
0.0
  0
POINT
  5
8375
330
8210
100
AcDbEntity
  8
DEFPOINTS
 62
     0
440
 16777216
100
AcDbPoint
 10
1016.30783292765
 20
619.3093419557487
 30
0.0
  0
ENDBLK
  5
821B
330
8210
100
AcDbEntity
  8
0
100
AcDbBlockEnd
  0
BLOCK
  5
821E
330
821D
100
AcDbEntity
  8
0
100
AcDbBlockBegin
  2
*D18
 70
     1
 10
0.0
 20
0.0
 30
0.0
  3
*D18
  1

  0
LINE
  5
8376
330
821D
100
AcDbEntity
  8
3
 62
     0
440
 16777216
370
    -2
100
AcDbLine
 10
1287.474917534524
 20
688.5603509468072
 30
0.0
 11
1287.474917534524
 21
609.3093419557487
 31
0.0
  0
LINE
  5
8377
330
821D
100
AcDbEntity
  8
3
 62
     0
440
 16777216
370
    -2
100
AcDbLine
 10
1667.474917534525
 20
688.560350946807
 30
0.0
 11
1667.474917534525
 21
609.3093419557487
 31
0.0
  0
LINE
  5
8378
330
821D
100
AcDbEntity
  8
3
 62
     0
440
 16777216
370
    -2
100
AcDbLine
 10
1307.474917534525
 20
619.3093419557487
 30
0.0
 11
1647.474917534525
 21
619.3093419557487
 31
0.0
  0
INSERT
  5
8379
330
821D
100
AcDbEntity
  8
3
 62
     0
440
 16777216
370
    -2
100
AcDbBlockReference
  2
_OPEN
 10
1287.474917534524
 20
619.3093419557487
 30
0.0
 41
20.0
 42
20.0
 43
20.0
 50
180.0
  0
INSERT
  5
837A
330
821D
100
AcDbEntity
  8
3
 62
     0
440
 16777216
370
    -2
100
AcDbBlockReference
  2
_OPEN
 10
1667.474917534525
 20
619.3093419557487
 30
0.0
 41
20.0
 42
20.0
 43
20.0
  0
MTEXT
  5
837B
330
821D
100
AcDbEntity
  8
3
 62
     0
440
 16777216
100
AcDbMText
 10
1477.474917534525
 20
644.3093419557487
 30
0.0
 40
30.0
 41
0.0
 46
0.0
 71
     5
 72
     1
  1
\A1;380
 73
     1
 44
1.0
  0
POINT
  5
837C
330
821D
100
AcDbEntity
  8
DEFPOINTS
 62
     0
440
 16777216
100
AcDbPoint
 10
1287.474917534524
 20
693.5603509468072
 30
0.0
  0
POINT
  5
837D
330
821D
100
AcDbEntity
  8
DEFPOINTS
 62
     0
440
 16777216
100
AcDbPoint
 10
1667.474917534525
 20
693.560350946807
 30
0.0
  0
POINT
  5
837E
330
821D
100
AcDbEntity
  8
DEFPOINTS
 62
     0
440
 16777216
100
AcDbPoint
 10
1667.474917534525
 20
619.3093419557487
 30
0.0
  0
ENDBLK
  5
8228
330
821D
100
AcDbEntity
  8
0
100
AcDbBlockEnd
  0
BLOCK
  5
822B
330
822A
100
AcDbEntity
  8
0
100
AcDbBlockBegin
  2
*D19
 70
     1
 10
0.0
 20
0.0
 30
0.0
  3
*D19
  1

  0
LINE
  5
837F
330
822A
100
AcDbEntity
  8
3
 62
     0
440
 16777216
370
    -2
100
AcDbLine
 10
1667.474917534525
 20
688.5603509468071
 30
0.0
 11
1667.474917534525
 21
609.3093419557487
 31
0.0
  0
LINE
  5
8380
330
822A
100
AcDbEntity
  8
3
 62
     0
440
 16777216
370
    -2
100
AcDbLine
 10
1692.474917534524
 20
688.560350946807
 30
0.0
 11
1692.474917534524
 21
609.3093419557487
 31
0.0
  0
LINE
  5
8381
330
822A
100
AcDbEntity
  8
3
 62
     0
440
 16777216
370
    -2
100
AcDbLine
 10
1647.474917534525
 20
619.3093419557487
 30
0.0
 11
1627.474917534525
 21
619.3093419557487
 31
0.0
  0
LINE
  5
8382
330
822A
100
AcDbEntity
  8
3
 62
     0
440
 16777216
370
    -2
100
AcDbLine
 10
1712.474917534524
 20
619.3093419557487
 30
0.0
 11
1801.046346105952
 21
619.3093419557487
 31
0.0
  0
LINE
  5
8383
330
822A
100
AcDbEntity
  8
3
 62
     0
440
 16777216
370
    -2
100
AcDbLine
 10
1667.474917534525
 20
619.3093419557487
 30
0.0
 11
1692.474917534524
 21
619.3093419557487
 31
0.0
  0
INSERT
  5
8384
330
822A
100
AcDbEntity
  8
3
 62
     0
440
 16777216
370
    -2
100
AcDbBlockReference
  2
_OPEN
 10
1667.474917534525
 20
619.3093419557487
 30
0.0
 41
20.0
 42
20.0
 43
20.0
  0
INSERT
  5
8385
330
822A
100
AcDbEntity
  8
3
 62
     0
440
 16777216
370
    -2
100
AcDbBlockReference
  2
_OPEN
 10
1692.474917534524
 20
619.3093419557487
 30
0.0
 41
20.0
 42
20.0
 43
20.0
 50
180.0
  0
MTEXT
  5
8386
330
822A
100
AcDbEntity
  8
3
 62
     0
440
 16777216
100
AcDbMText
 10
1766.760631820238
 20
644.3093419557487
 30
0.0
 40
30.0
 41
0.0
 46
0.0
 71
     5
 72
     1
  1
\A1;25
 73
     1
 44
1.0
  0
POINT
  5
8387
330
822A
100
AcDbEntity
  8
DEFPOINTS
 62
     0
440
 16777216
100
AcDbPoint
 10
1667.474917534525
 20
693.5603509468071
 30
0.0
  0
POINT
  5
8388
330
822A
100
AcDbEntity
  8
DEFPOINTS
 62
     0
440
 16777216
100
AcDbPoint
 10
1692.474917534524
 20
693.560350946807
 30
0.0
  0
POINT
  5
8389
330
822A
100
AcDbEntity
  8
DEFPOINTS
 62
     0
440
 16777216
100
AcDbPoint
 10
1692.474917534524
 20
619.3093419557487
 30
0.0
  0
ENDBLK
  5
8237
330
822A
100
AcDbEntity
  8
0
100
AcDbBlockEnd
  0
BLOCK
  5
8256
330
8255
100
AcDbEntity
  8
0
100
AcDbBlockBegin
  2
*D20
 70
     1
 10
0.0
 20
0.0
 30
0.0
  3
*D20
  1

  0
LINE
  5
83B2
330
8255
100
AcDbEntity
  8
3
 62
     0
440
 16777216
370
    -2
100
AcDbLine
 10
431.3078329276518
 20
733.6103456486661
 30
0.0
 11
277.5263016601505
 21
733.6103456486661
 31
0.0
  0
LINE
  5
83B3
330
8255
100
AcDbEntity
  8
3
 62
     0
440
 16777216
370
    -2
100
AcDbLine
 10
431.3078329276511
 20
693.6103456486661
 30
0.0
 11
277.5263016601505
 21
693.6103456486661
 31
0.0
  0
LINE
  5
83B4
330
8255
100
AcDbEntity
  8
3
 62
     0
440
 16777216
370
    -2
100
AcDbLine
 10
287.5263016601505
 20
753.6103456486661
 30
0.0
 11
287.5263016601505
 21
773.610345648666
 31
0.0
  0
LINE
  5
83B5
330
8255
100
AcDbEntity
  8
3
 62
     0
440
 16777216
370
    -2
100
AcDbLine
 10
287.5263016601505
 20
673.610345648666
 30
0.0
 11
287.5263016601504
 21
585.0389170772375
 31
0.0
  0
LINE
  5
83B6
330
8255
100
AcDbEntity
  8
3
 62
     0
440
 16777216
370
    -2
100
AcDbLine
 10
287.5263016601505
 20
733.6103456486661
 30
0.0
 11
287.5263016601505
 21
693.6103456486661
 31
0.0
  0
INSERT
  5
83B7
330
8255
100
AcDbEntity
  8
3
 62
     0
440
 16777216
370
    -2
100
AcDbBlockReference
  2
_DOT
 10
287.5263016601505
 20
733.6103456486661
 30
0.0
 41
20.0
 42
20.0
 43
20.0
 50
270.0
  0
INSERT
  5
83B8
330
8255
100
AcDbEntity
  8
3
 62
     0
440
 16777216
370
    -2
100
AcDbBlockReference
  2
_OPEN
 10
287.5263016601505
 20
693.6103456486661
 30
0.0
 41
20.0
 42
20.0
 43
20.0
 50
90.0
  0
MTEXT
  5
83B9
330
8255
100
AcDbEntity
  8
3
 62
     0
440
 16777216
100
AcDbMText
 10
262.5263016601504
 20
619.3246313629519
 30
0.0
 40
30.0
 41
0.0
 46
0.0
 71
     5
 72
     1
  1
\A1;40
 11
0.0000000000000001
 21
1.0
 31
0.0
 73
     1
 44
1.0
  0
POINT
  5
83BA
330
8255
100
AcDbEntity
  8
DEFPOINTS
 62
     0
440
 16777216
100
AcDbPoint
 10
436.3078329276517
 20
733.6103456486661
 30
0.0
  0
POINT
  5
83BB
330
8255
100
AcDbEntity
  8
DEFPOINTS
 62
     0
440
 16777216
100
AcDbPoint
 10
436.3078329276511
 20
693.6103456486661
 30
0.0
  0
POINT
  5
83BC
330
8255
100
AcDbEntity
  8
DEFPOINTS
 62
     0
440
 16777216
100
AcDbPoint
 10
287.5263016601505
 20
693.6103456486661
 30
0.0
  0
ENDBLK
  5
8262
330
8255
100
AcDbEntity
  8
0
100
AcDbBlockEnd
  0
BLOCK
  5
82C5
330
82C4
100
AcDbEntity
  8
0
100
AcDbBlockBegin
  2
*D21
 70
     1
 10
0.0
 20
0.0
 30
0.0
  3
*D21
  1

  0
LINE
  5
83E0
330
82C4
100
AcDbEntity
  8
3
 62
     0
440
 16777216
370
    -2
100
AcDbLine
 10
431.3078329276518
 20
733.6103456486661
 30
0.0
 11
277.5263016601511
 21
733.6103456486661
 31
0.0
  0
LINE
  5
83E1
330
82C4
100
AcDbEntity
  8
3
 62
     0
440
 16777216
370
    -2
100
AcDbLine
 10
431.3078329276511
 20
803.6103456486664
 30
0.0
 11
277.5263016601511
 21
803.6103456486664
 31
0.0
  0
LINE
  5
83E2
330
82C4
100
AcDbEntity
  8
3
 62
     0
440
 16777216
370
    -2
100
AcDbLine
 10
287.5263016601511
 20
753.6103456486661
 30
0.0
 11
287.5263016601511
 21
783.6103456486663
 31
0.0
  0
MTEXT
  5
83E3
330
82C4
100
AcDbEntity
  8
3
 62
     0
440
 16777216
100
AcDbMText
 10
255.4666071965348
 20
766.3883327210542
 30
0.0
 40
30.0
 41
0.0
 46
0.0
 71
     5
 72
     1
  1
\A1;(70)
 11
0.0000000000000001
 21
1.0
 31
0.0
 73
     1
 44
1.0
  0
INSERT
  5
83E4
330
82C4
100
AcDbEntity
  8
3
 62
     0
440
 16777216
370
    -2
100
AcDbBlockReference
  2
_DOT
 10
287.5263016601511
 20
733.6103456486661
 30
0.0
 41
20.0
 42
20.0
 43
20.0
 50
270.0
  0
INSERT
  5
83E5
330
82C4
100
AcDbEntity
  8
3
 62
     0
440
 16777216
370
    -2
100
AcDbBlockReference
  2
_OPEN
 10
287.5263016601511
 20
803.6103456486664
 30
0.0
 41
20.0
 42
20.0
 43
20.0
 50
90.0
  0
POINT
  5
83E6
330
82C4
100
AcDbEntity
  8
DEFPOINTS
 62
     0
440
 16777216
100
AcDbPoint
 10
436.3078329276517
 20
733.6103456486661
 30
0.0
  0
POINT
  5
83E7
330
82C4
100
AcDbEntity
  8
DEFPOINTS
 62
     0
440
 16777216
100
AcDbPoint
 10
436.3078329276511
 20
803.6103456486664
 30
0.0
  0
POINT
  5
83E8
330
82C4
100
AcDbEntity
  8
DEFPOINTS
 62
     0
440
 16777216
100
AcDbPoint
 10
287.5263016601511
 20
803.6103456486664
 30
0.0
  0
ENDBLK
  5
82CF
330
82C4
100
AcDbEntity
  8
0
100
AcDbBlockEnd
  0
BLOCK
  5
82F4
330
82D1
100
AcDbEntity
  8
0
100
AcDbBlockBegin
  2
*D22
 70
     1
 10
0.0
 20
0.0
 30
0.0
  3
*D22
  1

  0
LINE
  5
840F
330
82D1
100
AcDbEntity
  8
3
 62
     0
440
 16777216
370
    -2
100
AcDbLine
 10
588.8078329276523
 20
1145.110345648666
 30
0.0
 11
183.866511698625
 21
1145.110345648666
 31
0.0
  0
LINE
  5
8410
330
82D1
100
AcDbEntity
  8
3
 62
     0
440
 16777216
370
    -2
100
AcDbLine
 10
431.3078329276511
 20
693.6103456486661
 30
0.0
 11
183.8665116986249
 21
693.6103456486662
 31
0.0
  0
LINE
  5
8411
330
82D1
100
AcDbEntity
  8
3
 62
     0
440
 16777216
370
    -2
100
AcDbLine
 10
193.866511698625
 20
1125.110345648666
 30
0.0
 11
193.8665116986249
 21
713.6103456486662
 31
0.0
  0
INSERT
  5
8412
330
82D1
100
AcDbEntity
  8
3
 62
     0
440
 16777216
370
    -2
100
AcDbBlockReference
  2
_OPEN
 10
193.866511698625
 20
1145.110345648666
 30
0.0
 41
20.0
 42
20.0
 43
20.0
 50
90.0
  0
INSERT
  5
8413
330
82D1
100
AcDbEntity
  8
3
 62
     0
440
 16777216
370
    -2
100
AcDbBlockReference
  2
_OPEN
 10
193.8665116986249
 20
693.6103456486662
 30
0.0
 41
20.0
 42
20.0
 43
20.0
 50
270.0
  0
MTEXT
  5
8414
330
82D1
100
AcDbEntity
  8
3
 62
     0
440
 16777216
100
AcDbMText
 10
161.0093688414819
 20
919.3603456486663
 30
0.0
 40
30.0
 41
0.0
 46
0.0
 71
     5
 72
     1
  1
\A1;(452)
 11
0.0000000000000001
 21
1.0
 31
0.0
 73
     1
 44
1.0
  0
POINT
  5
8415
330
82D1
100
AcDbEntity
  8
DEFPOINTS
 62
     0
440
 16777216
100
AcDbPoint
 10
593.8078329276524
 20
1145.110345648666
 30
0.0
  0
POINT
  5
8416
330
82D1
100
AcDbEntity
  8
DEFPOINTS
 62
     0
440
 16777216
100
AcDbPoint
 10
436.3078329276511
 20
693.6103456486661
 30
0.0
  0
POINT
  5
8417
330
82D1
100
AcDbEntity
  8
DEFPOINTS
 62
     0
440
 16777216
100
AcDbPoint
 10
193.8665116986249
 20
693.6103456486662
 30
0.0
  0
ENDBLK
  5
82FE
330
82D1
100
AcDbEntity
  8
0
100
AcDbBlockEnd
  0
ENDSEC
  0
SECTION
  2
ENTITIES
  0
INSERT
  5
7C1E
330
19
100
AcDbEntity
  8
0
100
AcDbBlockReference
  2
YA_N
 10
2724.161206490659
 20
327.0207551769345
 30
0.0
  0
INSERT
  5
7C1F
330
19
100
AcDbEntity
  8
0
100
AcDbBlockReference
  2
YA_N
 10
2724.161206490659
 20
327.0207551769345
 30
0.0
  0
LINE
  5
7C21
330
19
100
AcDbEntity
  8
1
100
AcDbLine
 10
1530.174917534525
 20
843.5603509468073
 30
0.0
 11
1330.174917534525
 21
843.5603509468073
 31
0.0
  0
LINE
  5
7C22
330
19
100
AcDbEntity
  8
1
100
AcDbLine
 10
1287.474917534524
 20
843.5603509468075
 30
0.0
 11
1667.474917534525
 21
843.5603509468073
 31
0.0
  0
LINE
  5
7C23
330
19
100
AcDbEntity
  8
1
100
AcDbLine
 10
1287.474917534524
 20
803.5603509468074
 30
0.0
 11
1667.474917534525
 21
803.5603509468073
 31
0.0
  0
LINE
  5
7C24
330
19
100
AcDbEntity
  8
1
100
AcDbLine
 10
1355.174917534525
 20
984.760350946807
 30
0.0
 11
1360.974917534522
 21
984.7603509468068
 31
0.0
  0
LINE
  5
7C25
330
19
100
AcDbEntity
  8
1
100
AcDbLine
 10
1355.174917534525
 20
987.0603509468075
 30
0.0
 11
1360.974917534522
 21
987.0603509468075
 31
0.0
  0
LINE
  5
7C26
330
19
100
AcDbEntity
  8
2
100
AcDbLine
 10
1294.221409813981
 20
1023.560350946807
 30
0.0
 11
1788.956441514352
 21
1023.560350946807
 31
0.0
  0
LINE
  5
7C27
330
19
100
AcDbEntity
  8
1
100
AcDbLine
 10
989.6935212820707
 20
1178.566316032925
 30
0.0
 11
459.6935212820708
 21
1178.566316032927
 31
0.0
  0
LINE
  5
7C28
330
19
100
AcDbEntity
  8
1
100
AcDbLine
 10
574.1961923503204
 20
980.2708929233999
 30
0.0
 11
891.504716666469
 21
900.6399034288953
 31
0.0
  0
LINE
  5
7C29
330
19
100
AcDbEntity
  8
1
100
AcDbLine
 10
595.7687104012515
 20
1067.604570240418
 30
0.0
 11
917.8711276176068
 21
1007.381064594139
 31
0.0
  0
LINE
  5
7C2A
330
19
100
AcDbEntity
  8
1
100
AcDbLine
 10
989.6935212820707
 20
1178.566316032925
 30
0.0
 11
989.6935212820695
 21
843.5663160329252
 31
0.0
  0
LINE
  5
7C2B
330
19
100
AcDbEntity
  8
1
100
AcDbLine
 10
1001.307832927651
 20
843.6103456486645
 30
0.0
 11
811.3078329276502
 21
843.610345648665
 31
0.0
  0
LINE
  5
7C2C
330
19
100
AcDbEntity
  8
1
100
AcDbLine
 10
1016.307832927651
 20
843.6103456486643
 30
0.0
 11
1016.30783292765
 21
803.5663160329251
 31
0.0
  0
CIRCLE
  5
7C2D
330
19
100
AcDbEntity
  8
1
100
AcDbCircle
 10
906.307832927651
 20
953.6103456486648
 30
0.0
 40
55.0
  0
LINE
  5
7C2E
330
19
100
AcDbEntity
  8
2
100
AcDbLine
 10
809.1492874520042
 20
953.6103456486651
 30
0.0
 11
1000.694512702038
 21
953.6103456486644
 31
0.0
  0
LINE
  5
7C2F
330
19
100
AcDbEntity
  8
2
100
AcDbLine
 10
906.3078329276514
 20
1034.999845648664
 30
0.0
 11
906.3078329276507
 21
825.615947489155
 31
0.0
  0
LINE
  5
7C30
330
19
100
AcDbEntity
  8
1
100
AcDbLine
 10
1362.174917534524
 20
868.5663160329266
 30
0.0
 11
1362.174917534524
 21
843.5603509468073
 31
0.0
  0
LINE
  5
7C31
330
19
100
AcDbEntity
  8
2
100
AcDbLine
 10
586.3078329276523
 20
1202.166409443899
 30
0.0
 11
586.30783292765
 21
693.6103456486655
 31
0.0
  0
LINE
  5
7C32
330
19
100
AcDbEntity
  8
1
100
AcDbLine
 10
686.3078329276513
 20
983.9103456486654
 30
0.0
 11
686.3078329276508
 21
843.566316032926
 31
0.0
  0
LINE
  5
7C33
330
19
100
AcDbEntity
  8
1
100
AcDbLine
 10
459.6935212820694
 20
843.5663160329273
 30
0.0
 11
459.6935212820708
 21
1178.566316032927
 31
0.0
  0
LINE
  5
7C34
330
19
100
AcDbEntity
  8
1
100
AcDbLine
 10
486.3078329276513
 20
983.9103456486663
 30
0.0
 11
486.3078329276508
 21
843.5663160329266
 31
0.0
  0
LINE
  5
7C35
330
19
100
AcDbEntity
  8
1
100
AcDbLine
 10
1351.729867139227
 20
852.5603509468075
 30
0.0
 11
1351.729867139227
 21
891.1605352802736
 31
0.0
  0
LINE
  5
7C36
330
19
100
AcDbEntity
  8
1
100
AcDbLine
 10
1276.729867139227
 20
852.5603509468075
 30
0.0
 11
1276.729867139227
 21
1178.566316032926
 31
0.0
  0
LINE
  5
7C37
330
19
100
AcDbEntity
  8
1
100
AcDbLine
 10
1351.729867139227
 20
852.5603509468073
 30
0.0
 11
1276.729867139227
 21
852.5603509468073
 31
0.0
  0
LINE
  5
7C38
330
19
100
AcDbEntity
  8
1
100
AcDbLine
 10
436.3078329276513
 20
843.6103456486662
 30
0.0
 11
436.3078329276511
 21
803.5663160329269
 31
0.0
  0
POINT
  5
7C39
330
19
100
AcDbEntity
  8
1
100
AcDbPoint
 10
1327.474917534524
 20
803.5603509468073
 30
0.0
  0
POINT
  5
7C3A
330
19
100
AcDbEntity
  8
1
100
AcDbPoint
 10
1359.874917534525
 20
843.5603509468073
 30
0.0
  0
POINT
  5
7C3B
330
19
100
AcDbEntity
  8
1
100
AcDbPoint
 10
1359.874917534525
 20
843.5603509468073
 30
0.0
  0
ARC
  5
7C3C
330
19
100
AcDbEntity
  8
1
100
AcDbCircle
 10
593.8078329276518
 20
1016.110345648666
 30
0.0
 40
129.0
100
AcDbArc
 50
359.9999999999998
 51
89.99999999999976
  0
ARC
  5
7C3D
330
19
100
AcDbEntity
  8
1
100
AcDbCircle
 10
593.8078329276518
 20
1031.110345648666
 30
0.0
 40
114.0
100
AcDbArc
 50
89.99999999999976
 51
179.9999999999998
  0
LINE
  5
7C3E
330
19
100
AcDbEntity
  8
2
100
AcDbLine
 10
409.56158893031
 20
1023.610345648666
 30
0.0
 11
762.4801456908919
 21
1023.610345648665
 31
0.0
  0
LINE
  5
7C3F
330
19
100
AcDbEntity
  8
1
100
AcDbLine
 10
678.607832927652
 20
1087.110350946807
 30
0.0
 11
678.6078329276515
 21
987.1103456486654
 31
0.0
  0
LINE
  5
7C40
330
19
100
AcDbEntity
  8
1
100
AcDbLine
 10
684.607832927652
 20
1087.110350946807
 30
0.0
 11
684.6078329276515
 21
987.1103456486652
 31
0.0
  0
LINE
  5
7C41
330
19
100
AcDbEntity
  8
1
100
AcDbLine
 10
488.007832927652
 20
1087.110350946807
 30
0.0
 11
488.0078329276511
 21
987.1103456486661
 31
0.0
  0
LINE
  5
7C42
330
19
100
AcDbEntity
  8
1
100
AcDbLine
 10
494.0078329276521
 20
1087.110350946807
 30
0.0
 11
494.0078329276511
 21
987.1103456486661
 31
0.0
  0
LINE
  5
7C43
330
19
100
AcDbEntity
  8
1
100
AcDbLine
 10
446.3078329276518
 20
869.6103456486662
 30
0.0
 11
583.5278759152865
 21
872.1877234025614
 31
0.0
  0
ARC
  5
7C44
330
19
100
AcDbEntity
  8
1
100
AcDbCircle
 10
578.8078329276518
 20
1016.110345648666
 30
0.0
 40
144.0
100
AcDbArc
 50
270.0000000000017
 51
359.9999999999998
  0
CIRCLE
  5
7C45
330
19
100
AcDbEntity
  8
1
100
AcDbCircle
 10
586.3078329276511
 20
913.5663160329265
 30
0.0
 40
60.0
  0
LINE
  5
7C47
330
19
100
AcDbEntity
  8
1
100
AcDbLine
 10
481.3078329276513
 20
983.9103456486663
 30
0.0
 11
691.3078329276514
 21
983.9103456486654
 31
0.0
  0
LINE
  5
7C48
330
19
100
AcDbEntity
  8
1
100
AcDbLine
 10
481.3078329276513
 20
987.1103456486661
 30
0.0
 11
691.3078329276514
 21
987.1103456486652
 31
0.0
  0
CIRCLE
  5
7C49
330
19
100
AcDbEntity
  8
1
100
AcDbCircle
 10
586.3078329276516
 20
1023.610345648666
 30
0.0
 40
45.0
  0
LINE
  5
7C4A
330
19
100
AcDbEntity
  8
1
100
AcDbLine
 10
661.3078329276513
 20
990.3103456486654
 30
0.0
 11
511.3078329276513
 21
990.3103456486659
 31
0.0
  0
LINE
  5
7C4B
330
19
100
AcDbEntity
  8
1
100
AcDbLine
 10
511.3078329276513
 20
987.1103456486659
 30
0.0
 11
661.3078329276513
 21
987.1103456486654
 31
0.0
  0
LINE
  5
7C4C
330
19
100
AcDbEntity
  8
1
100
AcDbLine
 10
691.3078329276514
 20
987.1103456486652
 30
0.0
 11
691.3078329276514
 21
983.9103456486654
 31
0.0
  0
LINE
  5
7C4D
330
19
100
AcDbEntity
  8
1
100
AcDbLine
 10
661.3078329276513
 20
987.1103456486654
 30
0.0
 11
661.3078329276513
 21
990.3103456486654
 31
0.0
  0
LINE
  5
7C4E
330
19
100
AcDbEntity
  8
1
100
AcDbLine
 10
511.3078329276513
 20
990.3103456486659
 30
0.0
 11
511.3078329276513
 21
987.1103456486659
 31
0.0
  0
LINE
  5
7C4F
330
19
100
AcDbEntity
  8
1
100
AcDbLine
 10
481.3078329276513
 20
987.1103456486661
 30
0.0
 11
481.3078329276513
 21
983.9103456486663
 31
0.0
  0
LINE
  5
7C50
330
19
100
AcDbEntity
  8
1
100
AcDbLine
 10
446.3078329276511
 20
847.3106546430926
 30
0.0
 11
446.307832927652
 21
1051.910345648666
 31
0.0
  0
LINE
  5
7C51
330
19
100
AcDbEntity
  8
1
100
AcDbLine
 10
426.3078329276511
 20
847.3106546430926
 30
0.0
 11
426.307832927652
 21
1051.910345648666
 31
0.0
  0
LINE
  5
7C52
330
19
100
AcDbEntity
  8
1
100
AcDbLine
 10
446.3078329276511
 20
847.3106546430926
 30
0.0
 11
426.3078329276511
 21
847.3106546430926
 31
0.0
  0
LINE
  5
7C53
330
19
100
AcDbEntity
  8
1
100
AcDbLine
 10
678.607832927652
 20
1087.110350946807
 30
0.0
 11
684.607832927652
 21
1087.110350946807
 31
0.0
  0
CIRCLE
  5
7C54
330
19
100
AcDbEntity
  8
1
100
AcDbCircle
 10
478.3351998378398
 20
1000.610345648666
 30
0.0
 40
6.0
  0
LINE
  5
7C55
330
19
100
AcDbEntity
  8
1
100
AcDbLine
 10
446.3078329276518
 20
1029.610345648666
 30
0.0
 11
479.8191972162735
 21
1029.610345648666
 31
0.0
  0
ARC
  5
7C56
330
19
100
AcDbEntity
  8
1
100
AcDbCircle
 10
578.8078329276518
 20
1031.110345648666
 30
0.0
 40
99.0
100
AcDbArc
 50
179.9999999999998
 51
196.8864669975613
  0
LINE
  5
7C57
330
19
100
AcDbEntity
  8
1
100
AcDbLine
 10
426.307832927652
 20
1051.910345648666
 30
0.0
 11
446.307832927652
 21
1051.910345648666
 31
0.0
  0
LINE
  5
7C58
330
19
100
AcDbEntity
  8
1
100
AcDbLine
 10
488.007832927652
 20
1087.110350946807
 30
0.0
 11
494.0078329276521
 21
1087.110350946807
 31
0.0
  0
LINE
  5
7C59
330
19
100
AcDbEntity
  8
1
100
AcDbLine
 10
1329.229867139227
 20
1068.560350946808
 30
0.0
 11
1329.229867139227
 21
899.5603509468073
 31
0.0
  0
LINE
  5
7C5A
330
19
100
AcDbEntity
  8
1
100
AcDbLine
 10
1299.229867139227
 20
1068.560350946807
 30
0.0
 11
1299.229867139227
 21
899.5603509468073
 31
0.0
  0
LINE
  5
7C5B
330
19
100
AcDbEntity
  8
2
100
AcDbLine
 10
1295.837618930057
 20
953.5663160329267
 30
0.0
 11
1604.821287323862
 21
953.5663160329267
 31
0.0
  0
LINE
  5
7C5C
330
19
100
AcDbEntity
  8
1
100
AcDbLine
 10
1329.229867139227
 20
899.5603509468073
 30
0.0
 11
1299.229867139227
 21
899.5603509468073
 31
0.0
  0
LINE
  5
7C5D
330
19
100
AcDbEntity
  8
1
100
AcDbLine
 10
1339.229867139227
 20
1013.560350946807
 30
0.0
 11
1360.974917534523
 21
1013.560350946807
 31
0.0
  0
LINE
  5
7C5E
330
19
100
AcDbEntity
  8
1
100
AcDbLine
 10
1339.229867139227
 20
1033.560350946807
 30
0.0
 11
1360.974917534522
 21
1033.560350946807
 31
0.0
  0
LINE
  5
7C5F
330
19
100
AcDbEntity
  8
1
100
AcDbLine
 10
1339.229867139227
 20
1033.560350946807
 30
0.0
 11
1339.229867139227
 21
1013.560350946807
 31
0.0
  0
LINE
  5
7C60
330
19
100
AcDbEntity
  8
1
100
AcDbLine
 10
1329.229867139227
 20
1009.560350946807
 30
0.0
 11
1299.229867139227
 21
1009.560350946807
 31
0.0
  0
LINE
  5
7C61
330
19
100
AcDbEntity
  8
1
100
AcDbLine
 10
1299.229867139227
 20
978.5603509468074
 30
0.0
 11
1329.229867139227
 21
978.5603509468074
 31
0.0
  0
LINE
  5
7C62
330
19
100
AcDbEntity
  8
1
100
AcDbLine
 10
1355.174917534524
 20
987.0603509468075
 30
0.0
 11
1355.174917534524
 21
984.760350946807
 31
0.0
  0
LINE
  5
7C63
330
19
100
AcDbEntity
  8
1
100
AcDbLine
 10
1329.229867139227
 20
1014.060350946807
 30
0.0
 11
1339.229867139227
 21
1014.060350946807
 31
0.0
  0
LINE
  5
7C64
330
19
100
AcDbEntity
  8
1
100
AcDbLine
 10
1299.229867139227
 20
1068.560350946807
 30
0.0
 11
1329.229867139227
 21
1068.560350946807
 31
0.0
  0
LINE
  5
7C65
330
19
100
AcDbEntity
  8
1
100
AcDbLine
 10
1329.229867139227
 20
1033.060350946807
 30
0.0
 11
1339.229867139227
 21
1033.060350946807
 31
0.0
  0
LINE
  5
7C66
330
19
100
AcDbEntity
  8
1
100
AcDbLine
 10
1276.729867139227
 20
1178.566316032926
 30
0.0
 11
1351.729867139227
 21
1178.566316032926
 31
0.0
  0
LINE
  5
7C6A
330
19
100
AcDbEntity
  8
1
100
AcDbLine
 10
976.3078329276545
 20
1600.322383093994
 30
0.0
 11
976.3078329276551
 21
1672.325885466934
 31
0.0
  0
LINE
  5
7C6B
330
19
100
AcDbEntity
  8
1
100
AcDbLine
 10
1016.307832927655
 20
1640.322383093994
 30
0.0
 11
1016.307832927656
 21
1980.322383093996
 31
0.0
  0
LINE
  5
7C6C
330
19
100
AcDbEntity
  8
2
100
AcDbLine
 10
906.3078329276546
 20
1601.062643773446
 30
0.0
 11
906.3078329276549
 21
1946.651510690865
 31
0.0
  0
LINE
  5
7C6D
330
19
100
AcDbEntity
  8
1
100
AcDbLine
 10
1016.307832927654
 20
1600.322383093994
 30
0.0
 11
1016.307832927655
 21
1640.322383093993
 31
0.0
  0
LINE
  5
7C6F
330
19
100
AcDbEntity
  8
2
100
AcDbLine
 10
586.3078329276543
 20
1606.952780587564
 30
0.0
 11
586.3078329276552
 21
2087.067114208555
 31
0.0
  0
LINE
  5
7C70
330
19
100
AcDbEntity
  8
1
100
AcDbLine
 10
436.3078329276548
 20
1640.322383093996
 30
0.0
 11
436.3078329276557
 21
1923.82588546694
 31
0.0
  0
LINE
  5
7C71
330
19
100
AcDbEntity
  8
1
100
AcDbLine
 10
476.3078329276545
 20
1600.322383093996
 30
0.0
 11
476.3078329276559
 21
1943.825885466936
 31
0.0
  0
LINE
  5
7C72
330
19
100
AcDbEntity
  8
1
100
AcDbLine
 10
436.3078329276546
 20
1600.322383093996
 30
0.0
 11
436.3078329276548
 21
1640.322383093996
 31
0.0
  0
LINE
  5
7C75
330
19
100
AcDbEntity
  8
2
100
AcDbLine
 10
1692.474917534525
 20
1217.575824577693
 30
0.0
 11
1692.474917534523
 21
693.560350946807
 31
0.0
  0
LINE
  5
7C76
330
19
100
AcDbEntity
  8
1
100
AcDbLine
 10
1776.474917534525
 20
935.5603509468075
 30
0.0
 11
1756.474917534525
 21
935.5603509468075
 31
0.0
  0
LINE
  5
7C77
330
19
100
AcDbEntity
  8
1
100
AcDbLine
 10
1756.474917534526
 20
1023.560350946807
 30
0.0
 11
1756.474917534525
 21
912.5603509468076
 31
0.0
  0
LINE
  5
7C79
330
19
100
AcDbEntity
  8
1
100
AcDbLine
 10
1752.474917534524
 20
1145.110345648666
 30
0.0
 11
1752.474917534524
 21
1029.560350946807
 31
0.0
  0
LINE
  5
7C7A
330
19
100
AcDbEntity
  8
1
100
AcDbLine
 10
1632.474917534525
 20
1145.110345648666
 30
0.0
 11
1632.474917534524
 21
1029.560350946807
 31
0.0
  0
LINE
  5
7C80
330
19
100
AcDbEntity
  8
1
100
AcDbLine
 10
1756.474917534525
 20
935.5603509468075
 30
0.0
 11
1756.474917534525
 21
915.5603509468075
 31
0.0
  0
LINE
  5
7C81
330
19
100
AcDbEntity
  8
1
100
AcDbLine
 10
1752.474917534525
 20
912.5603509468074
 30
0.0
 11
1756.474917534525
 21
912.5603509468074
 31
0.0
  0
LINE
  5
7C86
330
19
100
AcDbEntity
  8
1
100
AcDbLine
 10
1605.174917534525
 20
1087.110350946807
 30
0.0
 11
1630.174917534525
 21
1087.110350946807
 31
0.0
  0
POINT
  5
7C87
330
19
100
AcDbEntity
  8
1
100
AcDbPoint
 10
1692.474917534525
 20
1154.40749948442
 30
0.0
  0
LINE
  5
7C88
330
19
100
AcDbEntity
  8
1
100
AcDbLine
 10
1759.474917534524
 20
1023.560350946807
 30
0.0
 11
1759.474917534525
 21
935.5603509468076
 31
0.0
  0
ARC
  5
7C89
330
19
100
AcDbEntity
  8
1
100
AcDbCircle
 10
906.307832927651
 20
953.6103456486648
 30
0.0
 40
85.000008
100
AcDbArc
 50
295.9177259999998
 51
359.9999999999998
  0
ARC
  5
7C8A
330
19
100
AcDbEntity
  8
1
100
AcDbCircle
 10
906.307832927651
 20
953.6103456486648
 30
0.0
 40
85.0
100
AcDbArc
 50
359.9999999999998
 51
244.1244659999998
  0
LINE
  5
7C8B
330
19
100
AcDbEntity
  8
1
100
AcDbLine
 10
869.2123339276509
 20
877.1594176486649
 30
0.0
 11
943.4596419276509
 21
877.1594176486646
 31
0.0
  0
LINE
  5
7C8C
330
19
100
AcDbEntity
  8
1
100
AcDbLine
 10
824.5332353618868
 20
873.6103456486649
 30
0.0
 11
843.984664927651
 21
895.7918416486648
 31
0.0
  0
LINE
  5
7C8D
330
19
100
AcDbEntity
  8
1
100
AcDbLine
 10
828.8078329276508
 20
873.6103456486651
 30
0.0
 11
863.8078329276508
 21
873.6103456486649
 31
0.0
  0
LINE
  5
7C8E
330
19
100
AcDbEntity
  8
1
100
AcDbLine
 10
988.0823416022456
 20
873.6103456486643
 30
0.0
 11
968.629140927651
 21
895.7939836486644
 31
0.0
  0
LINE
  5
7C8F
330
19
100
AcDbEntity
  8
1
100
AcDbLine
 10
983.8078329276509
 20
873.6103456486643
 30
0.0
 11
948.8078329276509
 21
873.6103456486645
 31
0.0
  0
LINE
  5
7C90
330
19
100
AcDbEntity
  8
1
100
AcDbLine
 10
1008.807832927651
 20
873.6103456486643
 30
0.0
 11
906.3078329276509
 21
873.6103456486649
 31
0.0
  0
LINE
  5
7C91
330
19
100
AcDbEntity
  8
1
100
AcDbLine
 10
1008.807832927651
 20
873.6103456486643
 30
0.0
 11
1013.80783292765
 21
843.6103456486643
 31
0.0
  0
LINE
  5
7C92
330
19
100
AcDbEntity
  8
1
100
AcDbLine
 10
803.8078329276508
 20
873.6103456486649
 30
0.0
 11
798.8078329276507
 21
843.610345648665
 31
0.0
  0
LINE
  5
7C93
330
19
100
AcDbEntity
  8
1
100
AcDbLine
 10
906.3078329276509
 20
873.6103456486649
 30
0.0
 11
803.8078329276508
 21
873.6103456486649
 31
0.0
  0
LINE
  5
7C94
330
19
100
AcDbEntity
  8
1
100
AcDbLine
 10
722.8078329276516
 20
1980.322383093996
 30
0.0
 11
1016.307832927656
 21
1980.322383093996
 31
0.0
  0
LINE
  5
7C95
330
19
100
AcDbEntity
  8
1
100
AcDbLine
 10
436.3078329276546
 20
1600.322383093996
 30
0.0
 11
1016.307832927654
 21
1600.322383093996
 31
0.0
  0
DIMENSION
  5
7C9A
330
19
100
AcDbEntity
  8
3
100
AcDbDimension
280
     0
  2
*D2
 10
390.3746801828884
 20
1029.610345648666
 30
0.0
 11
390.3746801828884
 21
963.8960599343803
 31
0.0
 70
   160
 71
     5
 42
-1.0
 73
     0
 74
     0
 75
     0
  3
IGA
100
AcDbAlignedDimension
 13
446.3078329276513
 23
869.6103456486662
 33
0.0
 14
446.3078329276518
 24
1029.610345648666
 34
0.0
 50
269.9999999999998
100
AcDbRotatedDimension
1001
ACAD
1000
DSTYLE
1002
{
1070
    40
1040
10.0
1070
   143
1040
0.039
1070
   172
1070
     1
1070
   271
1070
     0
1070
   279
1070
     0
1070
   288
1070
     1
1002
}
  0
LINE
  5
7C9B
330
19
100
AcDbEntity
  8
1
100
AcDbLine
 10
436.3078329276511
 20
803.6103456486664
 30
0.0
 11
1016.30783292765
 21
803.6103456486641
 31
0.0
  0
LINE
  5
7C9C
330
19
100
AcDbEntity
  8
1
100
AcDbLine
 10
436.3078329276517
 20
843.6103456486662
 30
0.0
 11
1016.307832927651
 21
843.6103456486643
 31
0.0
  0
LINE
  5
7CA9
330
19
100
AcDbEntity
  8
1
100
AcDbLine
 10
1752.474917534524
 20
1029.560350946807
 30
0.0
 11
1752.474917534525
 21
869.5603509468073
 31
0.0
  0
LINE
  5
7CAA
330
19
100
AcDbEntity
  8
1
100
AcDbLine
 10
1632.474917534523
 20
1029.560350946807
 30
0.0
 11
1632.474917534525
 21
843.5603509468071
 31
0.0
  0
LINE
  5
7CAD
330
19
100
AcDbEntity
  8
1
100
AcDbLine
 10
1776.474917534525
 20
1111.560350946807
 30
0.0
 11
1776.474917534525
 21
935.5603509468073
 31
0.0
  0
LINE
  5
7CAE
330
19
100
AcDbEntity
  8
1
100
AcDbLine
 10
1776.474917534525
 20
1111.560350946807
 30
0.0
 11
1774.774917534526
 21
1111.560350946807
 31
0.0
  0
ARC
  5
7CAF
330
19
100
AcDbEntity
  8
1
100
AcDbCircle
 10
1774.474917534525
 20
1112.560350946807
 30
0.0
 40
2.0
100
AcDbArc
 50
0.0
 51
90.0
  0
LINE
  5
7CB0
330
19
100
AcDbEntity
  8
1
100
AcDbLine
 10
1776.474917534525
 20
1112.560350946807
 30
0.0
 11
1776.474917534525
 21
1111.560350946807
 31
0.0
  0
LINE
  5
7CB1
330
19
100
AcDbEntity
  8
1
100
AcDbLine
 10
1759.474917534525
 20
917.5603509468075
 30
0.0
 11
1759.474917534525
 21
928.5603509468074
 31
0.0
  0
LINE
  5
7CB2
330
19
100
AcDbEntity
  8
1
100
AcDbLine
 10
1756.474917534525
 20
915.5603509468075
 30
0.0
 11
1756.474917534525
 21
935.5603509468075
 31
0.0
  0
LINE
  5
7CB3
330
19
100
AcDbEntity
  8
1
100
AcDbLine
 10
1763.474917534525
 20
932.5603509468075
 30
0.0
 11
1774.474917534525
 21
932.5603509468075
 31
0.0
  0
LINE
  5
7CB4
330
19
100
AcDbEntity
  8
1
100
AcDbLine
 10
1756.474917534525
 20
935.5603509468075
 30
0.0
 11
1776.474917534525
 21
935.5603509468075
 31
0.0
  0
ARC
  5
7CB5
330
19
100
AcDbEntity
  8
1
100
AcDbCircle
 10
1763.474917534525
 20
928.5603509468074
 30
0.0
 40
4.0
100
AcDbArc
 50
90.0
 51
180.0
  0
LINE
  5
7CB6
330
19
100
AcDbEntity
  8
1
100
AcDbLine
 10
1776.474917534525
 20
935.5603509468075
 30
0.0
 11
1776.474917534525
 21
934.5603509468075
 31
0.0
  0
ARC
  5
7CB7
330
19
100
AcDbEntity
  8
1
100
AcDbCircle
 10
1774.474917534525
 20
934.5603509468075
 30
0.0
 40
2.0
100
AcDbArc
 50
270.0
 51
0.0
  0
ARC
  5
7CB8
330
19
100
AcDbEntity
  8
1
100
AcDbCircle
 10
1757.474917534525
 20
917.5603509468075
 30
0.0
 40
2.0
100
AcDbArc
 50
270.0
 51
0.0
  0
LINE
  5
7CB9
330
19
100
AcDbEntity
  8
1
100
AcDbLine
 10
1757.474917534525
 20
915.5603509468075
 30
0.0
 11
1756.474917534525
 21
915.5603509468075
 31
0.0
  0
DIMENSION
  5
7CBA
330
19
100
AcDbEntity
  8
3
100
AcDbDimension
280
     0
  2
*D3
 10
1857.115581344062
 20
935.5603509468075
 30
0.0
 11
1832.115581344062
 21
1023.560350946807
 31
0.0
 70
    32
 71
     5
 42
-1.0
 73
     0
 74
     0
 75
     0
  3
IGA
100
AcDbAlignedDimension
 13
1776.474917534525
 23
1111.560350946807
 33
0.0
 14
1776.474917534525
 24
935.5603509468075
 34
0.0
 50
90.0
100
AcDbRotatedDimension
1001
ACAD
1000
DSTYLE
1002
{
1070
     3
1000
φ<>
1070
    40
1040
10.0
1070
   143
1040
0.039
1070
   172
1070
     1
1070
   271
1070
     0
1070
   279
1070
     0
1070
   288
1070
     1
1002
}
  0
DIMENSION
  5
7CBB
330
19
100
AcDbEntity
  8
3
100
AcDbDimension
280
     0
  2
*D4
 10
1752.474917534524
 20
1209.670860064085
 30
0.0
 11
1693.260378736319
 21
1234.257393024634
 31
0.0
 70
   160
 71
     5
 42
-1.0
 73
     0
 74
     0
 75
     0
  3
IGA
100
AcDbAlignedDimension
 13
1632.474917534525
 23
1136.326904276719
 33
0.0
 14
1752.474917534524
 24
1136.326904276718
 34
0.0
100
AcDbRotatedDimension
1001
ACAD
1000
DSTYLE
1002
{
1070
   288
1070
     1
1070
   172
1070
     1
1070
    40
1040
10.0
1070
   271
1070
     0
1070
   143
1040
0.039
1002
}
  0
DIMENSION
  5
7CBC
330
19
100
AcDbEntity
  8
3
100
AcDbDimension
280
     0
  2
*D5
 10
1692.474917534525
 20
1284.084594143669
 30
0.0
 11
1724.474917534525
 21
1324.084594143669
 31
0.0
 70
    32
 71
     5
 42
-1.0
 73
     0
 74
     0
 75
     0
  3
IGA
100
AcDbAlignedDimension
 13
1756.474917534525
 23
1134.560350946807
 33
0.0
 14
1692.474917534525
 24
1258.965900725336
 34
0.0
100
AcDbRotatedDimension
1001
ACAD
1000
DSTYLE
1002
{
1070
   288
1070
     1
1070
   172
1070
     1
1070
    40
1040
10.0
1070
   271
1070
     0
1070
   143
1040
0.039
1002
}
  0
DIMENSION
  5
7CBD
330
19
100
AcDbEntity
  8
3
100
AcDbDimension
280
     0
  2
*D6
 10
1276.729867139227
 20
1284.084594143669
 30
0.0
 11
1484.602392336876
 21
1341.941737000812
 31
0.0
 70
    32
  1
\P(500)
 71
     5
 42
415.7450503952977
 73
     0
 74
     0
 75
     0
  3
IGA
100
AcDbAlignedDimension
 13
1692.474917534525
 23
1258.965900725336
 33
0.0
 14
1276.729867139227
 24
1178.566316032926
 34
0.0
100
AcDbRotatedDimension
1001
ACAD
1000
DSTYLE
1002
{
1070
    40
1040
10.0
1070
   143
1040
0.039
1070
   172
1070
     1
1070
   271
1070
     0
1070
   279
1070
     0
1070
   288
1070
     1
1002
}
  0
LINE
  5
7CBE
330
19
100
AcDbEntity
  8
2
100
AcDbLine
 10
400.576169378892
 20
2005.322383093996
 30
0.0
 11
816.5641815644903
 21
2005.322383093995
 31
0.0
  0
LINE
  5
7CBF
330
19
100
AcDbEntity
  8
1
100
AcDbLine
 10
446.3078329276522
 20
2063.825885466937
 30
0.0
 11
722.8078329276516
 21
2063.825885466936
 31
0.0
  0
LINE
  5
7CC0
330
19
100
AcDbEntity
  8
1
100
AcDbLine
 10
446.3078329276522
 20
1943.825885466937
 30
0.0
 11
722.8078329276516
 21
1943.825885466934
 31
0.0
  0
LINE
  5
7CC1
330
19
100
AcDbEntity
  8
1
100
AcDbLine
 10
426.307832927652
 20
2083.825885466937
 30
0.0
 11
446.307832927652
 21
2083.825885466937
 31
0.0
  0
LINE
  5
7CC2
330
19
100
AcDbEntity
  8
1
100
AcDbLine
 10
426.307832927652
 20
1923.82588546694
 30
0.0
 11
446.307832927652
 21
1923.82588546694
 31
0.0
  0
LINE
  5
7CC4
330
19
100
AcDbEntity
  8
1
100
AcDbLine
 10
541.3078329276545
 20
1610.58083507164
 30
0.0
 11
541.3078329276545
 21
1640.58083507164
 31
0.0
  0
LINE
  5
7CC5
330
19
100
AcDbEntity
  8
1
100
AcDbLine
 10
631.3078329276545
 20
1610.580835071639
 30
0.0
 11
631.3078329276545
 21
1640.58083507164
 31
0.0
  0
LINE
  5
7CC6
330
19
100
AcDbEntity
  8
1
100
AcDbLine
 10
850.3137980137735
 20
1640.580835071639
 30
0.0
 11
850.3137980137735
 21
1610.580835071639
 31
0.0
  0
LINE
  5
7CC7
330
19
100
AcDbEntity
  8
1
100
AcDbLine
 10
960.3137980137734
 20
1640.580835071639
 30
0.0
 11
960.3137980137734
 21
1610.580835071639
 31
0.0
  0
LINE
  5
7CCA
330
19
100
AcDbEntity
  8
1
100
AcDbLine
 10
989.6935212820707
 20
1588.08083507164
 30
0.0
 11
459.6935212820708
 21
1588.08083507164
 31
0.0
  0
LINE
  5
7CCB
330
19
100
AcDbEntity
  8
1
100
AcDbLine
 10
541.3078329276545
 20
1610.58083507164
 30
0.0
 11
631.3078329276548
 21
1610.580835071639
 31
0.0
  0
LINE
  5
7CCC
330
19
100
AcDbEntity
  8
1
100
AcDbLine
 10
989.6935212820707
 20
1663.080835071639
 30
0.0
 11
459.6935212820707
 21
1663.080835071639
 31
0.0
  0
LINE
  5
7CCD
330
19
100
AcDbEntity
  8
1
100
AcDbLine
 10
576.3078329276547
 20
1650.580835071639
 30
0.0
 11
576.3078329276545
 21
1943.825885466935
 31
0.0
  0
LINE
  5
7CCE
330
19
100
AcDbEntity
  8
1
100
AcDbLine
 10
596.3078329276547
 20
1650.580835071639
 30
0.0
 11
596.3078329276552
 21
1943.825885466935
 31
0.0
  0
LINE
  5
7CCF
330
19
100
AcDbEntity
  8
1
100
AcDbLine
 10
576.3078329276547
 20
1650.580835071639
 30
0.0
 11
596.3078329276547
 21
1650.580835071639
 31
0.0
  0
LINE
  5
7CD0
330
19
100
AcDbEntity
  8
1
100
AcDbLine
 10
541.3078329276545
 20
1640.58083507164
 30
0.0
 11
631.3078329276548
 21
1640.580835071639
 31
0.0
  0
LINE
  5
7CD1
330
19
100
AcDbEntity
  8
1
100
AcDbLine
 10
595.8078329276547
 20
1640.58083507164
 30
0.0
 11
595.8078329276547
 21
1650.58083507164
 31
0.0
  0
LINE
  5
7CD2
330
19
100
AcDbEntity
  8
1
100
AcDbLine
 10
576.8078329276547
 20
1640.58083507164
 30
0.0
 11
576.8078329276547
 21
1650.58083507164
 31
0.0
  0
LINE
  5
7CD4
330
19
100
AcDbEntity
  8
1
100
AcDbLine
 10
481.3078329276541
 20
1675.022383093996
 30
0.0
 11
481.3078329276552
 21
1943.825885466937
 31
0.0
  0
LINE
  5
7CD5
330
19
100
AcDbEntity
  8
1
100
AcDbLine
 10
691.3078329276543
 20
1675.022383093995
 30
0.0
 11
691.307832927655
 21
1943.825885466934
 31
0.0
  0
LINE
  5
7CD6
330
19
100
AcDbEntity
  8
1
100
AcDbLine
 10
481.3078329276541
 20
1675.022383093996
 30
0.0
 11
576.307832927655
 21
1675.022383093995
 31
0.0
  0
LINE
  5
7CD7
330
19
100
AcDbEntity
  8
1
100
AcDbLine
 10
596.307832927655
 20
1675.022383093995
 30
0.0
 11
691.3078329276543
 21
1675.022383093995
 31
0.0
  0
LINE
  5
7CD8
330
19
100
AcDbEntity
  8
1
100
AcDbLine
 10
821.3078329276545
 20
1672.325885466935
 30
0.0
 11
821.307832927655
 21
1900.325885466935
 31
0.0
  0
LINE
  5
7CD9
330
19
100
AcDbEntity
  8
1
100
AcDbLine
 10
991.3078409276545
 20
1672.325885466934
 30
0.0
 11
991.3078409276552
 21
1900.325885466935
 31
0.0
  0
LINE
  5
7CDA
330
19
100
AcDbEntity
  8
1
100
AcDbLine
 10
821.307832927655
 20
1900.325885466935
 30
0.0
 11
991.3078409276552
 21
1900.325885466935
 31
0.0
  0
LINE
  5
7CDB
330
19
100
AcDbEntity
  8
1
100
AcDbLine
 10
821.3078329276541
 20
1672.325885466935
 30
0.0
 11
991.3078409276543
 21
1672.325885466934
 31
0.0
  0
LINE
  5
7CDC
330
19
100
AcDbEntity
  8
1
100
AcDbLine
 10
896.8078329276549
 20
1640.58083507164
 30
0.0
 11
896.8078329276549
 21
1672.325885466934
 31
0.0
  0
LINE
  5
7CDD
330
19
100
AcDbEntity
  8
1
100
AcDbLine
 10
915.8078329276547
 20
1640.58083507164
 30
0.0
 11
915.807832927655
 21
1672.325885466934
 31
0.0
  0
LINE
  5
7CDE
330
19
100
AcDbEntity
  8
1
100
AcDbLine
 10
976.3078329276559
 20
1900.325885466934
 30
0.0
 11
976.3078329276563
 21
1980.322383093994
 31
0.0
  0
LINE
  5
7CE4
330
19
100
AcDbEntity
  8
1
100
AcDbLine
 10
850.3137980137736
 20
1640.58083507164
 30
0.0
 11
960.3137980137733
 21
1640.58083507164
 31
0.0
  0
LINE
  5
7CE5
330
19
100
AcDbEntity
  8
1
100
AcDbLine
 10
850.3137980137736
 20
1610.580835071639
 30
0.0
 11
960.3137980137733
 21
1610.580835071639
 31
0.0
  0
LINE
  5
7CE8
330
19
100
AcDbEntity
  8
1
100
AcDbLine
 10
1287.474917534524
 20
803.5603509468073
 30
0.0
 11
1287.474917534524
 21
843.5603509468073
 31
0.0
  0
LINE
  5
7CE9
330
19
100
AcDbEntity
  8
1
100
AcDbLine
 10
1667.474917534525
 20
803.5603509468073
 30
0.0
 11
1667.474917534525
 21
843.5603509468071
 31
0.0
  0
LINE
  5
7CEA
330
19
100
AcDbEntity
  8
1
100
AcDbLine
 10
1360.974917534522
 20
1038.566324032926
 30
0.0
 11
1588.974917534522
 21
1038.566324032926
 31
0.0
  0
LINE
  5
7CEB
330
19
100
AcDbEntity
  8
1
100
AcDbLine
 10
1588.974917534522
 20
868.5663160329267
 30
0.0
 11
1360.974917534522
 21
868.5663160329266
 31
0.0
  0
LINE
  5
7CEC
330
19
100
AcDbEntity
  8
1
100
AcDbLine
 10
1360.974917534522
 20
868.566316032926
 30
0.0
 11
1360.974917534522
 21
1038.566324032927
 31
0.0
  0
LINE
  5
7CED
330
19
100
AcDbEntity
  8
1
100
AcDbLine
 10
1329.229867139227
 20
944.066316032927
 30
0.0
 11
1360.974917534522
 21
944.066316032927
 31
0.0
  0
LINE
  5
7CEE
330
19
100
AcDbEntity
  8
1
100
AcDbLine
 10
1329.229867139227
 20
963.066316032927
 30
0.0
 11
1360.974917534522
 21
963.066316032927
 31
0.0
  0
LINE
  5
7CEF
330
19
100
AcDbEntity
  8
1
100
AcDbLine
 10
1588.974917534522
 20
1038.566324032926
 30
0.0
 11
1588.974917534522
 21
868.5663160329264
 31
0.0
  0
LINE
  5
7CF0
330
19
100
AcDbEntity
  8
1
100
AcDbLine
 10
1772.47491753453
 20
847.3106546430926
 30
0.0
 11
1772.474917534529
 21
932.5603509468075
 31
0.0
  0
LINE
  5
7CF1
330
19
100
AcDbEntity
  8
1
100
AcDbLine
 10
1756.474917534525
 20
1111.560350946807
 30
0.0
 11
1776.474917534525
 21
1111.560350946807
 31
0.0
  0
LINE
  5
7CF2
330
19
100
AcDbEntity
  8
1
100
AcDbLine
 10
1763.474917534525
 20
1114.560350946807
 30
0.0
 11
1774.474917534525
 21
1114.560350946807
 31
0.0
  0
LINE
  5
7CF3
330
19
100
AcDbEntity
  8
1
100
AcDbLine
 10
1776.474917534525
 20
1111.560350946807
 30
0.0
 11
1756.474917534525
 21
1111.560350946807
 31
0.0
  0
LINE
  5
7CF4
330
19
100
AcDbEntity
  8
1
100
AcDbLine
 10
1756.474917534526
 20
1023.560350946807
 30
0.0
 11
1756.474917534525
 21
1134.560350946807
 31
0.0
  0
LINE
  5
7CF5
330
19
100
AcDbEntity
  8
1
100
AcDbLine
 10
1759.474917534524
 20
1023.560350946807
 30
0.0
 11
1759.474917534525
 21
1111.560350946807
 31
0.0
  0
LINE
  5
7CF6
330
19
100
AcDbEntity
  8
1
100
AcDbLine
 10
1757.474917534525
 20
1131.560350946807
 30
0.0
 11
1756.474917534525
 21
1131.560350946807
 31
0.0
  0
ARC
  5
7CF7
330
19
100
AcDbEntity
  8
1
100
AcDbCircle
 10
1757.474917534525
 20
1129.560350946807
 30
0.0
 40
2.0
100
AcDbArc
 50
0.0
 51
90.0
  0
ARC
  5
7CF8
330
19
100
AcDbEntity
  8
1
100
AcDbCircle
 10
1763.474917534525
 20
1118.560350946807
 30
0.0
 40
4.0
100
AcDbArc
 50
180.0
 51
270.0
  0
LINE
  5
7CF9
330
19
100
AcDbEntity
  8
1
100
AcDbLine
 10
1756.474917534525
 20
1131.560350946807
 30
0.0
 11
1756.474917534525
 21
1111.560350946807
 31
0.0
  0
LINE
  5
7CFA
330
19
100
AcDbEntity
  8
1
100
AcDbLine
 10
1759.474917534525
 20
1129.560350946807
 30
0.0
 11
1759.474917534525
 21
1118.560350946807
 31
0.0
  0
LINE
  5
7CFB
330
19
100
AcDbEntity
  8
1
100
AcDbLine
 10
1752.474917534524
 20
1134.560350946807
 30
0.0
 11
1756.474917534525
 21
1134.560350946807
 31
0.0
  0
LINE
  5
7CFC
330
19
100
AcDbEntity
  8
1
100
AcDbLine
 10
1756.474917534525
 20
1111.560350946807
 30
0.0
 11
1756.474917534525
 21
1131.560350946807
 31
0.0
  0
LINE
  5
7CFD
330
19
100
AcDbEntity
  8
1
100
AcDbLine
 10
1776.474917534525
 20
935.5603509468073
 30
0.0
 11
1776.474917534525
 21
1111.560350946807
 31
0.0
  0
ARC
  5
7CFE
330
19
100
AcDbEntity
  8
1
100
AcDbCircle
 10
1774.474917534525
 20
1112.560350946807
 30
0.0
 40
2.0
100
AcDbArc
 50
0.0
 51
90.0
  0
LINE
  5
7CFF
330
19
100
AcDbEntity
  8
1
100
AcDbLine
 10
1776.474917534525
 20
1111.560350946807
 30
0.0
 11
1776.474917534525
 21
1112.560350946807
 31
0.0
  0
LINE
  5
7D00
330
19
100
AcDbEntity
  8
1
100
AcDbLine
 10
722.8078329276516
 20
1943.825885466934
 30
0.0
 11
722.8078329276518
 21
2063.825885466936
 31
0.0
  0
LINE
  5
7D01
330
19
100
AcDbEntity
  8
1
100
AcDbLine
 10
426.307832927652
 20
1923.82588546694
 30
0.0
 11
426.307832927652
 21
2083.825885466937
 31
0.0
  0
LINE
  5
7D02
330
19
100
AcDbEntity
  8
1
100
AcDbLine
 10
446.3078329276522
 20
1923.82588546694
 30
0.0
 11
446.307832927652
 21
2083.825885466937
 31
0.0
  0
LINE
  5
7D03
330
19
100
AcDbEntity
  8
1
100
AcDbLine
 10
1588.974917534522
 20
987.0603509468075
 30
0.0
 11
1605.174917534525
 21
987.0603509468073
 31
0.0
  0
LINE
  5
7D04
330
19
100
AcDbEntity
  8
1
100
AcDbLine
 10
1588.974917534522
 20
984.7603509468072
 30
0.0
 11
1605.174917534525
 21
984.7603509468072
 31
0.0
  0
LINE
  5
7D05
330
19
100
AcDbEntity
  8
1
100
AcDbLine
 10
1588.974917534522
 20
1013.560350946807
 30
0.0
 11
1605.174917534525
 21
1013.560350946807
 31
0.0
  0
LINE
  5
7D06
330
19
100
AcDbEntity
  8
1
100
AcDbLine
 10
1588.974917534523
 20
1033.560350946807
 30
0.0
 11
1605.174917534525
 21
1033.560350946807
 31
0.0
  0
LINE
  5
7D07
330
19
100
AcDbEntity
  8
1
100
AcDbLine
 10
1549.308708689
 20
868.5663160329266
 30
0.0
 11
1549.308708689
 21
843.5603509468071
 31
0.0
  0
LINE
  5
7D08
330
19
100
AcDbEntity
  8
1
100
AcDbLine
 10
1405.950554169552
 20
868.5663160329264
 30
0.0
 11
1405.950554169552
 21
843.5603509468073
 31
0.0
  0
DIMENSION
  5
7D09
330
19
100
AcDbEntity
  8
3
100
AcDbDimension
280
     0
  2
*D7
 10
586.3078329276523
 20
1226.863442546009
 30
0.0
 11
506.3078329276521
 21
1251.86344254601
 31
0.0
 70
    32
 71
     5
 42
-1.0
 73
     0
 74
     0
 75
     0
  3
IGA
100
AcDbAlignedDimension
 13
426.307832927652
 23
1051.910345648666
 33
0.0
 14
586.3078329276523
 24
1202.166409443899
 34
0.0
100
AcDbRotatedDimension
1001
ACAD
1000
DSTYLE
1002
{
1070
    40
1040
10.0
1070
   143
1040
0.039
1070
   172
1070
     1
1070
   271
1070
     0
1070
   279
1070
     0
1070
   288
1070
     1
1002
}
  0
DIMENSION
  5
7D0A
330
19
100
AcDbEntity
  8
3
100
AcDbDimension
280
     0
  2
*D8
 10
722.8078329276518
 20
1226.863442546009
 30
0.0
 11
654.557832927652
 21
1251.86344254601
 31
0.0
 70
    32
  1
136
 71
     5
 42
-1.0
 73
     0
 74
     0
 75
     0
  3
IGA
100
AcDbAlignedDimension
 13
586.3078329276523
 23
1202.166409443899
 33
0.0
 14
722.8078329276518
 24
1016.110345648666
 34
0.0
100
AcDbRotatedDimension
1001
ACAD
1000
DSTYLE
1002
{
1070
    40
1040
10.0
1070
   143
1040
0.039
1070
   172
1070
     1
1070
   271
1070
     0
1070
   279
1070
     0
1070
   288
1070
     1
1002
}
  0
DIMENSION
  5
7D0B
330
19
100
AcDbEntity
  8
3
100
AcDbDimension
280
     0
  2
*D9
 10
287.5116689490205
 20
1023.610345648666
 30
0.0
 11
262.5116689490205
 21
1084.360345648666
 31
0.0
 70
    32
  1
121
 71
     5
 42
-1.0
 73
     0
 74
     0
 75
     0
  3
IGA
100
AcDbAlignedDimension
 13
593.8078329276518
 23
1145.110345648665
 33
0.0
 14
409.56158893031
 24
1023.610345648666
 34
0.0
 50
90.0
100
AcDbRotatedDimension
1001
ACAD
1000
DSTYLE
1002
{
1070
    40
1040
10.0
1070
   143
1040
0.039
1070
   172
1070
     1
1070
   271
1070
     0
1070
   279
1070
     0
1070
   288
1070
     1
1002
}
  0
DIMENSION
  5
7D0C
330
19
100
AcDbEntity
  8
3
100
AcDbDimension
280
     0
  2
*D10
 10
287.5116689490205
 20
803.6103456486664
 30
0.0
 11
262.5116689490205
 21
913.6103456486663
 31
0.0
 70
    32
 71
     5
 42
-1.0
 73
     0
 74
     0
 75
     0
  3
IGA
100
AcDbAlignedDimension
 13
409.56158893031
 23
1023.610345648666
 33
0.0
 14
436.3078329276511
 24
803.6103456486664
 34
0.0
 50
90.0
100
AcDbRotatedDimension
1001
ACAD
1000
DSTYLE
1002
{
1070
    40
1040
10.0
1070
   143
1040
0.039
1070
   172
1070
     1
1070
   271
1070
     0
1070
   279
1070
     0
1070
   288
1070
     1
1002
}
  0
DIMENSION
  5
7D0F
330
19
100
AcDbEntity
  8
3
100
AcDbDimension
280
     0
  2
*D11
 10
338.2069332220917
 20
869.6103456486662
 30
0.0
 11
338.2069332220917
 21
946.6103456486663
 31
0.0
 70
   160
 71
     5
 42
-1.0
 73
     0
 74
     0
 75
     0
  3
IGA
100
AcDbAlignedDimension
 13
409.56158893031
 23
1023.610345648666
 33
0.0
 14
446.3078329276513
 24
869.6103456486662
 34
0.0
 50
90.0
100
AcDbRotatedDimension
1001
ACAD
1000
DSTYLE
1002
{
1070
    40
1040
10.0
1070
   143
1040
0.039
1070
   172
1070
     1
1070
   271
1070
     0
1070
   279
1070
     0
1070
   288
1070
     1
1002
}
  0
DIMENSION
  5
7D10
330
19
100
AcDbEntity
  8
3
100
AcDbDimension
280
     0
  2
*D12
 10
1016.307832927651
 20
1288.518154213291
 30
0.0
 11
721.3078329276514
 21
1313.518154213291
 31
0.0
 70
    32
 71
     5
 42
-1.0
 73
     0
 74
     0
 75
     0
  3
IGA
100
AcDbAlignedDimension
 13
426.307832927652
 23
1051.910345648666
 33
0.0
 14
1016.307832927651
 24
843.6103456486643
 34
0.0
100
AcDbRotatedDimension
1001
ACAD
1000
DSTYLE
1002
{
1070
    40
1040
10.0
1070
   143
1040
0.039
1070
   172
1070
     1
1070
   271
1070
     0
1070
   279
1070
     0
1070
   288
1070
     1
1002
}
  0
LINE
  5
7D12
330
19
100
AcDbEntity
  8
1
100
AcDbLine
 10
1632.474917534525
 20
1145.110345648666
 30
0.0
 11
1752.474917534524
 21
1145.110345648666
 31
0.0
  0
LINE
  5
7D13
330
19
100
AcDbEntity
  8
1
100
AcDbLine
 10
1632.474917534525
 20
869.5603509468073
 30
0.0
 11
1752.474917534525
 21
869.5603509468071
 31
0.0
  0
LINE
  5
7D15
330
19
100
AcDbEntity
  8
1
100
AcDbLine
 10
1632.474917534525
 20
847.3106546430926
 30
0.0
 11
1772.474917534531
 21
847.3106546430926
 31
0.0
  0
LINE
  5
7D18
330
19
100
AcDbEntity
  8
1
100
AcDbLine
 10
1605.174917534524
 20
1087.110350946807
 30
0.0
 11
1605.174917534525
 21
867.1103509468071
 31
0.0
  0
LINE
  5
7D19
330
19
100
AcDbEntity
  8
1
100
AcDbLine
 10
1605.174917534526
 20
867.1103509468071
 30
0.0
 11
1632.474917534525
 21
867.1103509468071
 31
0.0
  0
LINE
  5
7F10
330
19
100
AcDbEntity
  8
4
100
AcDbLine
 10
1850.0
 20
500.0
 30
0.0
 11
1850.0
 21
300.0
 31
0.0
  0
LINE
  5
7F11
330
19
100
AcDbEntity
  8
4
100
AcDbLine
 10
1150.0
 20
500.0
 30
0.0
 11
1150.0
 21
300.0
 31
0.0
  0
LINE
  5
7F12
330
19
100
AcDbEntity
  8
4
100
AcDbLine
 10
650.0
 20
500.0
 30
0.0
 11
650.0
 21
300.0
 31
0.0
  0
LINE
  5
7F15
330
19
100
AcDbEntity
  8
4
100
AcDbLine
 10
650.0
 20
300.0
 30
0.0
 11
1850.0
 21
300.0
 31
0.0
  0
LINE
  5
7F16
330
19
100
AcDbEntity
  8
4
100
AcDbLine
 10
650.0
 20
400.0
 30
0.0
 11
1850.0
 21
400.0
 31
0.0
  0
TEXT
  5
7F17
330
19
100
AcDbEntity
  8
4
100
AcDbText
 10
688.5020808469016
 20
431.5430258666128
 30
0.0
 40
50.0
  1
機器名称
100
AcDbText
  0
TEXT
  5
7F18
330
19
100
AcDbEntity
  8
4
100
AcDbText
 10
686.2581060247975
 20
321.645156732011
 30
0.0
 40
50.0
  1
機器型番
100
AcDbText
  0
TEXT
  5
7F19
330
19
100
AcDbEntity
  8
4
100
AcDbText
 10
1177.678745487665
 20
422.5717689575685
 30
0.0
 40
50.0
  1
ミツヤ多翼送風機
100
AcDbText
  0
TEXT
  5
7F1A
330
19
100
AcDbEntity
  8
4
100
AcDbText
 10
1186.65449558548
 20
317.1595842799434
 30
0.0
 40
50.0
  1
MF#1-1
100
AcDbText
  0
TEXT
  5
7F1C
330
19
100
AcDbEntity
  8
4
100
AcDbText
 10
724.6185823938685
 20
2383.428841332516
 30
0.0
 40
53.99999999999999
  1
床置防振ベット
100
AcDbText
  0
TEXT
  5
7F1D
330
19
100
AcDbEntity
  8
4
100
AcDbText
 10
316.1675933294464
 20
2533.880976199298
 30
0.0
 40
72.0
  1
遠心式片吸込片持多翼ファン
100
AcDbText
  0
LINE
  5
7F1E
330
19
100
AcDbEntity
  8
4
100
AcDbLine
 10
250.0
 20
2469.408754264805
 30
0.0
 11
1850.0
 21
2469.408754264805
 31
0.0
  0
LINE
  5
7F1F
330
19
100
AcDbEntity
  8
4
100
AcDbLine
 10
250.0
 20
2669.408754264805
 30
0.0
 11
1850.0
 21
2669.408754264805
 31
0.0
  0
LINE
  5
7F20
330
19
100
AcDbEntity
  8
4
100
AcDbLine
 10
650.0
 20
500.0
 30
0.0
 11
1850.0
 21
500.0
 31
0.0
  0
LINE
  5
7F21
330
19
100
AcDbEntity
  8
4
100
AcDbLine
 10
250.0
 20
2669.408754264805
 30
0.0
 11
250.0
 21
2469.408754264805
 31
0.0
  0
TEXT
  5
7F22
330
19
100
AcDbEntity
  8
4
100
AcDbText
 10
288.7597501511664
 20
2382.319477546344
 30
0.0
 40
53.99999999999999
  1
右回転左横向
100
AcDbText
  0
TEXT
  5
7F23
330
19
100
AcDbEntity
  8
4
100
AcDbText
 10
1468.96955924929
 20
2706.061081495309
 30
0.0
 40
56.00000000000001
  1
No.
100
AcDbText
  0
TEXT
  5
7F24
330
19
100
AcDbEntity
  8
4
100
AcDbText
 10
1311.296062600013
 20
2383.428841332516
 30
0.0
 40
53.99999999999999
  1
縮尺：1/10
100
AcDbText
  0
LINE
  5
7F25
330
19
100
AcDbEntity
  8
4
100
AcDbLine
 10
1850.0
 20
2669.408754264805
 30
0.0
 11
1850.0
 21
2469.408754264805
 31
0.0
  0
LINE
  5
7F26
330
19
100
AcDbEntity
  8
4
100
AcDbLine
 10
2100.0
 20
2950.0
 30
0.0
 11
2100.0
 21
2950.0
 31
0.0
  0
LINE
  5
7F27
330
19
100
AcDbEntity
  8
4
100
AcDbLine
 10
1440.617422359864
 20
2681.263583125401
 30
0.0
 11
1440.617422359864
 21
2786.652261549753
 31
0.0
  0
LINE
  5
7F28
330
19
100
AcDbEntity
  8
4
100
AcDbLine
 10
1440.617422359864
 20
2786.652261549753
 30
0.0
 11
1850.0
 21
2786.652261549753
 31
0.0
  0
LINE
  5
7F29
330
19
100
AcDbEntity
  8
4
100
AcDbLine
 10
1850.0
 20
2786.652261549753
 30
0.0
 11
1850.0
 21
2681.263583125401
 31
0.0
  0
LINE
  5
7F2A
330
19
100
AcDbEntity
  8
4
100
AcDbLine
 10
1850.0
 20
2681.263583125401
 30
0.0
 11
1440.617422359864
 21
2681.263583125401
 31
0.0
  0
LINE
  5
7F2B
330
19
100
AcDbEntity
  8
4
100
AcDbLine
 10
0.0
 20
0.0
 30
0.0
 11
0.0
 21
2950.0
 31
0.0
  0
LINE
  5
7F2C
330
19
100
AcDbEntity
  8
4
100
AcDbLine
 10
0.0
 20
2950.0
 30
0.0
 11
2100.0
 21
2950.0
 31
0.0
  0
LINE
  5
7F2D
330
19
100
AcDbEntity
  8
4
100
AcDbLine
 10
2100.0
 20
2950.0
 30
0.0
 11
2100.0
 21
0.0
 31
0.0
  0
LINE
  5
7F2E
330
19
100
AcDbEntity
  8
4
100
AcDbLine
 10
2100.0
 20
0.0
 30
0.0
 11
0.0
 21
0.0
 31
0.0
  0
LINE
  5
80F8
330
19
100
AcDbEntity
  8
1
100
AcDbLine
 10
1351.729867139227
 20
1143.64158386005
 30
0.0
 11
1351.729867139227
 21
1178.566316032926
 31
0.0
  0
LINE
  5
8101
330
19
100
AcDbEntity
  8
1
100
AcDbLine
 10
989.6935212820707
 20
1588.08083507164
 30
0.0
 11
989.6935212820707
 21
1663.080835071639
 31
0.0
  0
LINE
  5
8102
330
19
100
AcDbEntity
  8
1
100
AcDbLine
 10
459.6935212820708
 20
1588.08083507164
 30
0.0
 11
459.6935212820707
 21
1663.080835071639
 31
0.0
  0
LINE
  5
8189
330
19
100
AcDbEntity
  8
1
100
AcDbLine
 10
476.3078329276547
 20
1640.322383093996
 30
0.0
 11
976.3078329276547
 21
1640.322383093996
 31
0.0
  0
LINE
  5
818C
330
19
100
AcDbEntity
  8
1
100
AcDbLine
 10
476.3078329276559
 20
1940.322383093996
 30
0.0
 11
481.3078329276551
 21
1940.322383093997
 31
0.0
  0
LINE
  5
818D
330
19
100
AcDbEntity
  8
1
100
AcDbLine
 10
691.307832927655
 20
1940.322383093996
 30
0.0
 11
976.3078329276559
 21
1940.322383093996
 31
0.0
  0
DIMENSION
  5
819A
330
19
100
AcDbEntity
  8
3
100
AcDbDimension
280
     0
  2
*D14
 10
1111.742217886369
 20
1600.322383093996
 30
0.0
 11
1111.742217886369
 21
1786.188621445269
 31
0.0
 70
   160
 71
     5
 42
-1.0
 73
     0
 74
     0
 75
     0
  3
IGA
100
AcDbAlignedDimension
 13
1016.307832927656
 23
1980.322383093996
 33
0.0
 14
1016.307832927654
 24
1600.322383093996
 34
0.0
 50
90.0
100
AcDbRotatedDimension
1001
ACAD
1000
DSTYLE
1002
{
1070
    40
1040
10.0
1070
   143
1040
0.039
1070
   172
1070
     1
1070
   271
1070
     0
1070
   279
1070
     0
1070
   288
1070
     1
1002
}
  0
DIMENSION
  5
81A7
330
19
100
AcDbEntity
  8
3
100
AcDbDimension
280
     0
  2
*D15
 10
1016.307832927654
 20
1496.466626631064
 30
0.0
 11
727.0223469640823
 21
1496.466626631064
 31
0.0
 70
   160
 71
     5
 42
-1.0
 73
     0
 74
     0
 75
     0
  3
IGA
100
AcDbAlignedDimension
 13
436.3078329276546
 23
1600.322383093996
 33
0.0
 14
1016.307832927654
 24
1600.322383093996
 34
0.0
100
AcDbRotatedDimension
1001
ACAD
1000
DSTYLE
1002
{
1070
    40
1040
10.0
1070
   143
1040
0.039
1070
   172
1070
     1
1070
   271
1070
     0
1070
   279
1070
     0
1070
   288
1070
     1
1002
}
  0
DIMENSION
  5
820F
330
19
100
AcDbEntity
  8
3
100
AcDbDimension
280
     0
  2
*D16
 10
586.3078329276507
 20
619.3093419557487
 30
0.0
 11
511.3078329276508
 21
644.3093419557487
 31
0.0
 70
    32
 71
     5
 42
149.9999999999995
 73
     0
 74
     0
 75
     0
  3
IGA
100
AcDbAlignedDimension
 13
436.3078329276511
 23
693.6103456486661
 33
0.0
 14
586.3078329276507
 24
693.6103456486655
 34
0.0
100
AcDbRotatedDimension
1001
ACAD
1000
DSTYLE
1002
{
1070
    40
1040
10.0
1070
   143
1040
0.039
1070
   172
1070
     1
1070
   271
1070
     0
1070
   279
1070
     0
1002
}
  0
DIMENSION
  5
821C
330
19
100
AcDbEntity
  8
3
100
AcDbDimension
280
     0
  2
*D17
 10
1016.30783292765
 20
619.3093419557487
 30
0.0
 11
801.3078329276506
 21
644.3093419557487
 31
0.0
 70
    32
 71
     5
 42
430.0
 73
     0
 74
     0
 75
     0
  3
IGA
100
AcDbAlignedDimension
 13
586.3078329276507
 23
693.6103456486655
 33
0.0
 14
1016.30783292765
 24
693.5663160329248
 34
0.0
100
AcDbRotatedDimension
1001
ACAD
1000
DSTYLE
1002
{
1070
    40
1040
10.0
1070
   143
1040
0.039
1070
   172
1070
     1
1070
   271
1070
     0
1070
   279
1070
     0
1002
}
  0
DIMENSION
  5
8229
330
19
100
AcDbEntity
  8
3
100
AcDbDimension
280
     0
  2
*D18
 10
1667.474917534525
 20
619.3093419557487
 30
0.0
 11
1477.474917534525
 21
644.3093419557487
 31
0.0
 70
    32
 71
     5
 42
380.0000000000005
 73
     0
 74
     0
 75
     0
  3
IGA
100
AcDbAlignedDimension
 13
1287.474917534524
 23
693.5603509468072
 33
0.0
 14
1667.474917534525
 24
693.560350946807
 34
0.0
100
AcDbRotatedDimension
1001
ACAD
1000
DSTYLE
1002
{
1070
    40
1040
10.0
1070
   143
1040
0.039
1070
   172
1070
     1
1070
   271
1070
     0
1070
   279
1070
     0
1002
}
  0
DIMENSION
  5
8238
330
19
100
AcDbEntity
  8
3
100
AcDbDimension
280
     0
  2
*D19
 10
1692.474917534524
 20
619.3093419557487
 30
0.0
 11
1766.760631820238
 21
644.3093419557487
 31
0.0
 70
    32
 71
     5
 42
24.99999999999909
 73
     0
 74
     0
 75
     0
  3
IGA
100
AcDbAlignedDimension
 13
1667.474917534525
 23
693.5603509468071
 33
0.0
 14
1692.474917534524
 24
693.560350946807
 34
0.0
100
AcDbRotatedDimension
1001
ACAD
1000
DSTYLE
1002
{
1070
    40
1040
10.0
1070
   143
1040
0.039
1070
   172
1070
     1
1070
   271
1070
     0
1070
   279
1070
     0
1002
}
  0
LINE
  5
824B
330
19
100
AcDbEntity
  8
1
100
AcDbLine
 10
1667.474917534525
 20
693.5603509468071
 30
0.0
 11
1667.474917534525
 21
733.5603509468069
 31
0.0
  0
LINE
  5
824C
330
19
100
AcDbEntity
  8
1
100
AcDbLine
 10
1287.474917534524
 20
693.5603509468072
 30
0.0
 11
1667.474917534525
 21
693.560350946807
 31
0.0
  0
LINE
  5
824D
330
19
100
AcDbEntity
  8
1
100
AcDbLine
 10
1287.474917534524
 20
733.5603509468072
 30
0.0
 11
1667.474917534525
 21
733.560350946807
 31
0.0
  0
LINE
  5
824E
330
19
100
AcDbEntity
  8
1
100
AcDbLine
 10
1530.174917534525
 20
733.5603509468072
 30
0.0
 11
1330.174917534525
 21
733.5603509468072
 31
0.0
  0
LINE
  5
824F
330
19
100
AcDbEntity
  8
1
100
AcDbLine
 10
1287.474917534524
 20
693.5603509468071
 30
0.0
 11
1287.474917534524
 21
733.5603509468072
 31
0.0
  0
LINE
  5
8250
330
19
100
AcDbEntity
  8
1
100
AcDbLine
 10
1016.307832927651
 20
733.610345648664
 30
0.0
 11
1016.30783292765
 21
693.5663160329248
 31
0.0
  0
LINE
  5
8251
330
19
100
AcDbEntity
  8
1
100
AcDbLine
 10
436.3078329276517
 20
733.6103456486661
 30
0.0
 11
1016.307832927651
 21
733.610345648664
 31
0.0
  0
LINE
  5
8252
330
19
100
AcDbEntity
  8
1
100
AcDbLine
 10
436.3078329276511
 20
693.6103456486661
 30
0.0
 11
1016.30783292765
 21
693.6103456486638
 31
0.0
  0
LINE
  5
8253
330
19
100
AcDbEntity
  8
1
100
AcDbLine
 10
436.3078329276513
 20
733.6103456486661
 30
0.0
 11
436.3078329276511
 21
693.5663160329267
 31
0.0
  0
DIMENSION
  5
8263
330
19
100
AcDbEntity
  8
3
100
AcDbDimension
280
     0
  2
*D20
 10
287.5263016601505
 20
693.6103456486661
 30
0.0
 11
262.5263016601504
 21
619.3246313629519
 31
0.0
 70
    32
 71
     5
 42
40.0
 73
     0
 74
     0
 75
     0
  3
IGA
100
AcDbAlignedDimension
 13
436.3078329276517
 23
733.6103456486661
 33
0.0
 14
436.3078329276511
 24
693.6103456486661
 34
0.0
 50
90.0
100
AcDbRotatedDimension
1001
ACAD
1000
DSTYLE
1002
{
1070
    40
1040
10.0
1070
   143
1040
0.039
1070
   172
1070
     1
1070
   271
1070
     0
1070
   279
1070
     0
1070
   343
1005
807C
1002
}
  0
DIMENSION
  5
82D0
330
19
100
AcDbEntity
  8
3
100
AcDbDimension
280
     0
  2
*D21
 10
287.5263016601511
 20
803.6103456486664
 30
0.0
 11
255.4666071965348
 21
766.3883327210542
 31
0.0
 70
   160
 71
     5
 42
70.00000000000023
 73
     0
 74
     0
 75
     0
  3
IGA
100
AcDbAlignedDimension
 13
436.3078329276517
 23
733.6103456486661
 33
0.0
 14
436.3078329276511
 24
803.6103456486664
 34
0.0
 50
90.0
100
AcDbRotatedDimension
1001
ACAD
1000
DSTYLE
1002
{
1070
     3
1000
(<>)
1070
    40
1040
10.0
1070
   143
1040
0.039
1070
   172
1070
     1
1070
   271
1070
     0
1070
   343
1005
807C
1002
}
  0
DIMENSION
  5
82DD
330
19
100
AcDbEntity
  8
3
100
AcDbDimension
280
     0
  2
*D22
 10
193.8665116986249
 20
693.6103456486662
 30
0.0
 11
161.0093688414819
 21
919.3603456486663
 31
0.0
 70
    32
 71
     5
 42
451.5000000000002
 73
     0
 74
     0
 75
     0
  3
IGA
100
AcDbAlignedDimension
 13
593.8078329276524
 23
1145.110345648666
 33
0.0
 14
436.3078329276511
 24
693.6103456486661
 34
0.0
 50
90.0
100
AcDbRotatedDimension
1001
ACAD
1000
DSTYLE
1002
{
1070
   172
1070
     1
1070
    40
1040
10.0
1070
     3
1000
(<>)
1070
   271
1070
     0
1070
   143
1040
0.039
1002
}
  0
ENDSEC
  0
SECTION
  2
OBJECTS
  0
DICTIONARY
  5
C
330
0
100
AcDbDictionary
281
     1
  3
ACAD_CIP_PREVIOUS_PRODUCT_INFO
350
8360
  3
ACAD_COLOR
350
8343
  3
ACAD_DETAILVIEWSTYLE
350
835C
  3
ACAD_GROUP
350
D
  3
ACAD_LAYOUT
350
8303
  3
ACAD_MATERIAL
350
8311
  3
ACAD_MLEADERSTYLE
350
8358
  3
ACAD_MLINESTYLE
350
E
  3
ACAD_PLOTSETTINGS
350
8304
  3
ACAD_PLOTSTYLENAME
350
8301
  3
ACAD_SCALELIST
350
8346
  3
ACAD_SECTIONVIEWSTYLE
350
835A
  3
ACAD_TABLESTYLE
350
8344
  3
ACAD_VISUALSTYLE
350
832A
  3
ACDB_RECOMPOSE_DATA
350
845A
  3
AcDbVariableDictionary
350
83F5
  0
DICTIONARY
  5
83CA
330
2
100
AcDbDictionary
280
     1
281
     1
  3
ACAD_LAYERSTATES
360
83CB
  0
DICTIONARY
  5
83BD
330
F
100
AcDbDictionary
280
     1
281
     1
  3
ADSK_XREC_LAYER_RECONCILED
360
83BE
  0
DICTIONARY
  5
83BF
330
31
100
AcDbDictionary
280
     1
281
     1
  3
ADSK_XREC_LAYER_RECONCILED
360
83C0
  0
DICTIONARY
  5
83C1
330
76D0
100
AcDbDictionary
280
     1
281
     1
  3
ADSK_XREC_LAYER_RECONCILED
360
83C2
  0
DICTIONARY
  5
83C3
330
76D1
100
AcDbDictionary
280
     1
281
     1
  3
ADSK_XREC_LAYER_RECONCILED
360
83C4
  0
DICTIONARY
  5
83C5
330
76D2
100
AcDbDictionary
280
     1
281
     1
  3
ADSK_XREC_LAYER_RECONCILED
360
83C6
  0
DICTIONARY
  5
8362
330
19
100
AcDbDictionary
280
     1
281
     1
  3
ACAD_SORTENTS
360
8363
  0
XRECORD
  5
8360
102
{ACAD_REACTORS
330
C
102
}
330
C
100
AcDbXrecord
280
     1
300
ACDLT
300
2015
300
INVLTS_F_S
  0
DICTIONARY
  5
8343
102
{ACAD_REACTORS
330
C
102
}
330
C
100
AcDbDictionary
281
     1
  0
DICTIONARY
  5
835C
102
{ACAD_REACTORS
330
C
102
}
330
C
100
AcDbDictionary
281
     1
  3
Metric50
350
835D
  0
DICTIONARY
  5
D
102
{ACAD_REACTORS
330
C
102
}
330
C
100
AcDbDictionary
281
     1
  0
DICTIONARY
  5
8303
102
{ACAD_REACTORS
330
C
102
}
330
C
100
AcDbDictionary
281
     1
  3
Model
350
8305
  3
ﾚｲｱｳﾄ1
350
8306
  0
DICTIONARY
  5
8311
102
{ACAD_REACTORS
330
C
102
}
330
C
100
AcDbDictionary
281
     1
  3
ByBlock
350
831A
  3
ByLayer
350
8312
  3
Global
350
8322
  0
DICTIONARY
  5
8358
102
{ACAD_REACTORS
330
C
102
}
330
C
100
AcDbDictionary
281
     1
  3
Standard
350
8359
  0
DICTIONARY
  5
E
102
{ACAD_REACTORS
330
C
102
}
330
C
100
AcDbDictionary
281
     1
  3
STANDARD
350
1C
  0
DICTIONARY
  5
8304
102
{ACAD_REACTORS
330
C
102
}
330
C
100
AcDbDictionary
281
     1
  0
ACDBDICTIONARYWDFLT
  5
8301
102
{ACAD_REACTORS
330
C
102
}
330
C
100
AcDbDictionary
281
     1
  3
Normal
350
8302
100
AcDbDictionaryWithDefault
340
8302
  0
DICTIONARY
  5
8346
102
{ACAD_REACTORS
330
C
102
}
330
C
100
AcDbDictionary
281
     1
  3
A0
350
8347
  3
A1
350
8348
  3
A2
350
8349
  3
A3
350
834A
  3
A4
350
834B
  3
A5
350
834C
  3
A6
350
834D
  3
A7
350
834E
  3
A8
350
834F
  3
A9
350
8350
  3
B0
350
8351
  3
B1
350
8352
  3
B2
350
8353
  3
B3
350
8354
  3
B4
350
8355
  3
B5
350
8356
  3
B6
350
8357
  0
DICTIONARY
  5
835A
102
{ACAD_REACTORS
330
C
102
}
330
C
100
AcDbDictionary
281
     1
  3
Metric50
350
835B
  0
DICTIONARY
  5
8344
102
{ACAD_REACTORS
330
C
102
}
330
C
100
AcDbDictionary
281
     1
  3
Standard
350
8345
  0
DICTIONARY
  5
832A
102
{ACAD_REACTORS
330
C
102
}
330
C
100
AcDbDictionary
281
     1
  3
2dWireframe
350
8330
  3
Basic
350
832F
  3
Brighten
350
8336
  3
ColorChange
350
833A
  3
Conceptual
350
8333
  3
Dim
350
8335
  3
EdgeColorOff
350
8342
  3
Facepattern
350
8339
  3
Flat
350
832B
  3
FlatWithEdges
350
832C
  3
Gouraud
350
832D
  3
GouraudWithEdges
350
832E
  3
Hidden
350
8332
  3
JitterOff
350
8340
  3
Linepattern
350
8338
  3
OverhangOff
350
8341
  3
Realistic
350
8334
  3
Shaded
350
833F
  3
Shaded with edges
350
833E
  3
Shades of Gray
350
833B
  3
Sketchy
350
833C
  3
Thicken
350
8337
  3
Wireframe
350
8331
  3
X-Ray
350
833D
  0
XRECORD
  5
845A
102
{ACAD_REACTORS
330
C
102
}
330
C
100
AcDbXrecord
280
     1
 90
        1
330
8345
330
835B
330
835D
  0
DICTIONARY
  5
83F5
102
{ACAD_REACTORS
330
C
102
}
330
C
100
AcDbDictionary
281
     1
  3
CANNOSCALE
350
83FB
  3
CMLEADERSTYLE
350
83F7
  3
CTABLESTYLE
350
83F6
  3
CVIEWDETAILSTYLE
350
83F8
  3
CVIEWSECTIONSTYLE
350
83F9
  3
LAYEREVAL
350
83FD
  3
LAYERNOTIFY
350
83FE
  3
LIGHTINGUNITS
350
83FC
  3
MSLTSCALE
350
83FA
  0
DICTIONARY
  5
83CB
102
{ACAD_REACTORS
330
83CA
102
}
330
83CA
100
AcDbDictionary
281
     1
  0
XRECORD
  5
83BE
102
{ACAD_REACTORS
330
83BD
102
}
330
83BD
100
AcDbXrecord
280
     1
290
     1
  0
XRECORD
  5
83C0
102
{ACAD_REACTORS
330
83BF
102
}
330
83BF
100
AcDbXrecord
280
     1
290
     1
  0
XRECORD
  5
83C2
102
{ACAD_REACTORS
330
83C1
102
}
330
83C1
100
AcDbXrecord
280
     1
290
     1
  0
XRECORD
  5
83C4
102
{ACAD_REACTORS
330
83C3
102
}
330
83C3
100
AcDbXrecord
280
     1
290
     1
  0
XRECORD
  5
83C6
102
{ACAD_REACTORS
330
83C5
102
}
330
83C5
100
AcDbXrecord
280
     1
290
     1
  0
SORTENTSTABLE
  5
8363
102
{ACAD_REACTORS
330
8362
102
}
330
8362
100
AcDbSortentsTable
330
19
331
7F1F
  5
7F20
331
7F17
  5
7F18
331
7C42
  5
7C42
331
7D06
  5
7D07
331
7D02
  5
7D03
331
7CFE
  5
7CFF
331
7CC7
  5
7CCA
331
7C80
  5
7C80
331
7CFA
  5
7CFB
331
7C3E
  5
7C3E
331
7C3A
  5
7C3A
331
7C36
  5
7C36
331
7C32
  5
7C32
331
7CBF
  5
7CC0
331
7CF6
  5
7CF7
331
7CF2
  5
7CF3
331
7CBB
  5
7CBC
331
7CEE
  5
7CEF
331
7C70
  5
7C70
331
7CB7
  5
7CB8
331
7CEA
  5
7CEB
331
7CB3
  5
7CB4
331
7C6C
  5
7C6C
331
818D
  5
819A
331
8189
  5
818C
331
821C
  5
8229
331
8101
  5
8102
331
7C2E
  5
7C2E
331
7C2A
  5
7C2A
331
7C26
  5
7C26
331
7C22
  5
7C22
331
7CAF
  5
7CB0
331
7C64
  5
7C64
331
7C60
  5
7C60
331
7CDE
  5
7CE4
331
7CDA
  5
7CDB
331
7C9B
  5
7C9B
331
7C5C
  5
7C5C
331
7D19
  5
7F10
331
8263
  5
82D0
331
7C58
  5
7C58
331
8253
  5
8263
331
7F2E
  5
80F8
331
7F2A
  5
7F2B
331
7F26
  5
7F27
331
7F22
  5
7F23
331
7C1E
  5
7C1E
331
7CD6
  5
7CD7
331
7D15
  5
7D16
331
7C93
  5
7C93
331
7C54
  5
7C54
331
7CD2
  5
7CD4
331
7CCE
  5
7CCF
331
7C50
  5
7C50
331
7C8F
  5
7C8F
331
824F
  5
8250
331
7D09
  5
7D0A
331
7CCA
  5
7CCB
331
7C8B
  5
7C8B
331
7C4C
  5
7C4C
331
824B
  5
824C
331
7C48
  5
7C48
331
7F1E
  5
7F1F
331
7F1A
  5
7F1C
331
7F16
  5
7F17
331
7F12
  5
7F15
331
7C45
  5
7C45
331
7C41
  5
7C41
331
7C87
  5
7C87
331
7D05
  5
7D06
331
7D01
  5
7D02
331
7CFD
  5
7CFE
331
7CC6
  5
7CC7
331
7CF9
  5
7CFA
331
7CC2
  5
7CC4
331
7C3D
  5
7C3D
331
7C39
  5
7C39
331
7C35
  5
7C35
331
7C31
  5
7C31
331
7CBE
  5
7CBF
331
7C77
  5
7C77
331
7CF5
  5
7CF6
331
7CF1
  5
7CF2
331
7CBA
  5
7CBB
331
7CED
  5
7CEE
331
7CB6
  5
7CB7
331
7C6F
  5
7C6F
331
7CE9
  5
7CEA
331
7CB2
  5
7CB3
331
7C6B
  5
7C6B
331
818C
  5
818D
331
7C2D
  5
7C2D
331
7C29
  5
7C29
331
7C25
  5
7C25
331
7C21
  5
7C21
331
7CAE
  5
7CAF
331
7CE5
  5
7CE8
331
7C63
  5
7C63
331
7CAA
  5
7CAD
331
7C5F
  5
7C5F
331
7CDD
  5
7CDE
331
7CD9
  5
7CDA
331
7C9A
  5
7C9A
331
7C5B
  5
7C5B
331
7D18
  5
7D19
331
82DD
  5
8361
331
80F8
  5
8101
331
820F
  5
821C
331
8252
  5
8253
331
7F2D
  5
7F2E
331
7F29
  5
7F2A
331
7F25
  5
7F26
331
7F21
  5
7F22
331
7C57
  5
7C57
331
7CD5
  5
7CD6
331
7D10
  5
7D12
331
7C92
  5
7C92
331
7C53
  5
7C53
331
7CD1
  5
7CD2
331
7D0C
  5
7D0F
331
7CCD
  5
7CCE
331
7C4F
  5
7C4F
331
7C8E
  5
7C8E
331
824E
  5
824F
331
7C8A
  5
7C8A
331
7C4B
  5
7C4B
331
7D08
  5
7D09
331
81A7
  5
820F
331
7F1D
  5
7F1E
331
7F19
  5
7F1A
331
7F15
  5
7F16
331
7F11
  5
7F12
331
7C44
  5
7C44
331
7C40
  5
7C40
331
7C86
  5
7C86
331
7D04
  5
7D05
331
7D00
  5
7D01
331
7CFC
  5
7CFD
331
7CC5
  5
7CC6
331
7CF8
  5
7CF9
331
7CC1
  5
7CC2
331
7C7A
  5
7C7A
331
7C3C
  5
7C3C
331
7C38
  5
7C38
331
7C34
  5
7C34
331
7C30
  5
7C30
331
7CBD
  5
7CBE
331
7C76
  5
7C76
331
7CF4
  5
7CF5
331
7CF0
  5
7CF1
331
7C72
  5
7C72
331
7CB9
  5
7CBA
331
7CEC
  5
7CED
331
7CB5
  5
7CB6
331
7CE8
  5
7CE9
331
7CB1
  5
7CB2
331
7C6A
  5
7C6A
331
7C2C
  5
7C2C
331
7C28
  5
7C28
331
7C24
  5
7C24
331
7CAD
  5
7CAE
331
7C66
  5
7C66
331
7CE4
  5
7CE5
331
7C62
  5
7C62
331
7CA9
  5
7CAA
331
7CDC
  5
7CDD
331
7C5E
  5
7C5E
331
7CD8
  5
7CD9
331
7C5A
  5
7C5A
331
8251
  5
8252
331
7F2C
  5
7F2D
331
7F28
  5
7F29
331
7F24
  5
7F25
331
7F20
  5
7F21
331
7D13
  5
7D14
331
7C95
  5
7C95
331
7C56
  5
7C56
331
7CD4
  5
7CD5
331
7D0F
  5
7D10
331
7CD0
  5
7CD1
331
7C52
  5
7C52
331
7C91
  5
7C91
331
7D0B
  5
7D0C
331
7CCC
  5
7CCD
331
824D
  5
824E
331
7C4E
  5
7C4E
331
7C8D
  5
7C8D
331
7C89
  5
7C89
331
82D0
  5
82DD
331
7C4A
  5
7C4A
331
7F1C
  5
7F1D
331
7F18
  5
7F19
331
7F10
  5
7F11
331
7C47
  5
7C47
331
7C43
  5
7C43
331
7D07
  5
7D08
331
7D03
  5
7D04
331
7C81
  5
7C81
331
7CFF
  5
7D00
331
7CFB
  5
7CFC
331
7CC4
  5
7CC5
331
7CC0
  5
7CC1
331
819A
  5
81A7
331
7C79
  5
7C79
331
7C3F
  5
7C3F
331
7C3B
  5
7C3B
331
7C37
  5
7C37
331
7C33
  5
7C33
331
7CF7
  5
7CF8
331
7CBC
  5
7CBD
331
7C75
  5
7C75
331
7CF3
  5
7CF4
331
7CEF
  5
7CF0
331
7C71
  5
7C71
331
7CB8
  5
7CB9
331
7CEB
  5
7CEC
331
7CB4
  5
7CB5
331
7C6D
  5
7C6D
331
8229
  5
8238
331
7CB0
  5
7CB1
331
8102
  5
8189
331
7C2F
  5
7C2F
331
7C2B
  5
7C2B
331
7C27
  5
7C27
331
7C23
  5
7C23
331
7C65
  5
7C65
331
7C61
  5
7C61
331
7CDB
  5
7CDC
331
7C9C
  5
7CA9
331
7C5D
  5
7C5D
331
7C59
  5
7C59
331
8250
  5
8251
331
7F2B
  5
7F2C
331
7F27
  5
7F28
331
7F23
  5
7F24
331
7C1F
  5
7C1F
331
7CD7
  5
7CD8
331
7C94
  5
7C94
331
7C55
  5
7C55
331
7D12
  5
7D13
331
7CCF
  5
7CD0
331
7C51
  5
7C51
331
7C90
  5
7C90
331
7D0A
  5
7D0B
331
7CCB
  5
7CCC
331
7C8C
  5
7C8C
331
7C4D
  5
7C4D
331
824C
  5
824D
331
7C88
  5
7C88
331
7C49
  5
7C49
331
8238
  5
824B
  0
ACDBDETAILVIEWSTYLE
  5
835D
102
{ACAD_XDICTIONARY
360
83F2
102
}
102
{ACAD_REACTORS
330
835C
102
}
330
835C
100
AcDbModelDocViewStyle
 70
     0
  3
Metric50
290
     0
100
AcDbDetailViewStyle
 70
     0
 71
     0
 90
        3
 71
     1
340
10
 62
   256
 40
5.0
340
0
 62
   256
 40
5.0
300

 40
0.0
280
     1
 71
     2
340
15
 90
       25
 62
   256
 71
     3
340
10
 62
   256
 40
5.0
 90
        0
 40
15.0
 90
        1
300
%<\AcVar ViewDetailId>% (%<\AcVar ViewScale \f "%sn">%)
 71
     4
340
15
 90
       25
 62
   256
340
15
 90
       25
 62
   256
280
     0
  0
LAYOUT
  5
8305
102
{ACAD_REACTORS
330
8303
102
}
330
8303
100
AcDbPlotSettings
  1

  2
EPSON LP-9300
  4

  6

 40
0.0
 41
0.0
 42
0.0
 43
0.0
 44
0.0
 45
0.0
 46
0.0
 47
0.0
 48
0.0
 49
0.0
140
0.0
141
0.0
142
1.0
143
1.0
 70
  1712
 72
     0
 73
     0
 74
     0
  7

 75
     0
147
1.0
 76
     0
 77
     2
 78
   300
148
0.0
149
0.0
100
AcDbLayout
  1
Model
 70
     1
 71
     0
 10
0.0
 20
0.0
 11
12.0
 21
9.0
 12
0.0
 22
0.0
 32
0.0
 14
0.0
 24
0.0
 34
0.0
 15
0.0
 25
0.0
 35
0.0
146
0.0
 13
0.0
 23
0.0
 33
0.0
 16
1.0
 26
0.0
 36
0.0
 17
0.0
 27
1.0
 37
0.0
 76
     0
330
19
331
830F
  0
LAYOUT
  5
8306
102
{ACAD_REACTORS
330
8303
102
}
330
8303
100
AcDbPlotSettings
  1

  2
EPSON LP-9300
  4

  6

 40
0.0
 41
0.0
 42
0.0
 43
0.0
 44
0.0
 45
0.0
 46
0.0
 47
0.0
 48
0.0
 49
0.0
140
0.0
141
0.0
142
1.0
143
1.0
 70
   688
 72
     0
 73
     0
 74
     5
  7

 75
    16
147
1.0
 76
     0
 77
     2
 78
   300
148
0.0
149
0.0
100
AcDbLayout
  1
ﾚｲｱｳﾄ1
 70
     1
 71
     1
 10
0.0
 20
0.0
 11
12.0
 21
9.0
 12
0.0
 22
0.0
 32
0.0
 14
1.000000000000000E+20
 24
1.000000000000000E+20
 34
1.000000000000000E+20
 15
-1.000000000000000E+20
 25
-1.000000000000000E+20
 35
-1.000000000000000E+20
146
0.0
 13
0.0
 23
0.0
 33
0.0
 16
1.0
 26
0.0
 36
0.0
 17
0.0
 27
1.0
 37
0.0
 76
     0
330
16
  0
MATERIAL
  5
831A
102
{ACAD_XDICTIONARY
360
831B
102
}
102
{ACAD_REACTORS
330
8311
102
}
330
8311
100
AcDbMaterial
  1
ByBlock
 72
     0
 43
0.0208333333333333
 43
0.0
 43
0.0
 43
0.0
 43
0.0
 43
0.0208333333333333
 43
0.0
 43
0.0
 43
0.0
 43
0.0
 43
1.0
 43
0.0
 43
0.0
 43
0.0
 43
0.0
 43
1.0
 77
     0
 47
0.0208333333333333
 47
0.0
 47
0.0
 47
0.0
 47
0.0
 47
0.0208333333333333
 47
0.0
 47
0.0
 47
0.0
 47
0.0
 47
1.0
 47
0.0
 47
0.0
 47
0.0
 47
0.0
 47
1.0
171
     0
 49
0.0208333333333333
 49
0.0
 49
0.0
 49
0.0
 49
0.0
 49
0.0208333333333333
 49
0.0
 49
0.0
 49
0.0
 49
0.0
 49
1.0
 49
0.0
 49
0.0
 49
0.0
 49
0.0
 49
1.0
175
     0
142
0.0208333333333333
142
0.0
142
0.0
142
0.0
142
0.0
142
0.0208333333333333
142
0.0
142
0.0
142
0.0
142
0.0
142
1.0
142
0.0
142
0.0
142
0.0
142
0.0
142
1.0
179
     0
144
0.0208333333333333
144
0.0
144
0.0
144
0.0
144
0.0
144
0.0208333333333333
144
0.0
144
0.0
144
0.0
144
0.0
144
1.0
144
0.0
144
0.0
144
0.0
144
0.0
144
1.0
147
0.0208333333333333
147
0.0
147
0.0
147
0.0
147
0.0
147
0.0208333333333333
147
0.0
147
0.0
147
0.0
147
0.0
147
1.0
147
0.0
147
0.0
147
0.0
147
0.0
147
1.0
  0
MATERIAL
  5
8312
102
{ACAD_XDICTIONARY
360
8313
102
}
102
{ACAD_REACTORS
330
8311
102
}
330
8311
100
AcDbMaterial
  1
ByLayer
 72
     0
 43
0.0208333333333333
 43
0.0
 43
0.0
 43
0.0
 43
0.0
 43
0.0208333333333333
 43
0.0
 43
0.0
 43
0.0
 43
0.0
 43
1.0
 43
0.0
 43
0.0
 43
0.0
 43
0.0
 43
1.0
 77
     0
 47
0.0208333333333333
 47
0.0
 47
0.0
 47
0.0
 47
0.0
 47
0.0208333333333333
 47
0.0
 47
0.0
 47
0.0
 47
0.0
 47
1.0
 47
0.0
 47
0.0
 47
0.0
 47
0.0
 47
1.0
171
     0
 49
0.0208333333333333
 49
0.0
 49
0.0
 49
0.0
 49
0.0
 49
0.0208333333333333
 49
0.0
 49
0.0
 49
0.0
 49
0.0
 49
1.0
 49
0.0
 49
0.0
 49
0.0
 49
0.0
 49
1.0
175
     0
142
0.0208333333333333
142
0.0
142
0.0
142
0.0
142
0.0
142
0.0208333333333333
142
0.0
142
0.0
142
0.0
142
0.0
142
1.0
142
0.0
142
0.0
142
0.0
142
0.0
142
1.0
179
     0
144
0.0208333333333333
144
0.0
144
0.0
144
0.0
144
0.0
144
0.0208333333333333
144
0.0
144
0.0
144
0.0
144
0.0
144
1.0
144
0.0
144
0.0
144
0.0
144
0.0
144
1.0
147
0.0208333333333333
147
0.0
147
0.0
147
0.0
147
0.0
147
0.0208333333333333
147
0.0
147
0.0
147
0.0
147
0.0
147
1.0
147
0.0
147
0.0
147
0.0
147
0.0
147
1.0
  0
MATERIAL
  5
8322
102
{ACAD_XDICTIONARY
360
8323
102
}
102
{ACAD_REACTORS
330
8311
102
}
330
8311
100
AcDbMaterial
  1
Global
 72
     0
 43
0.0208333333333333
 43
0.0
 43
0.0
 43
0.0
 43
0.0
 43
0.0208333333333333
 43
0.0
 43
0.0
 43
0.0
 43
0.0
 43
1.0
 43
0.0
 43
0.0
 43
0.0
 43
0.0
 43
1.0
 77
     0
 47
0.0208333333333333
 47
0.0
 47
0.0
 47
0.0
 47
0.0
 47
0.0208333333333333
 47
0.0
 47
0.0
 47
0.0
 47
0.0
 47
1.0
 47
0.0
 47
0.0
 47
0.0
 47
0.0
 47
1.0
171
     0
 49
0.0208333333333333
 49
0.0
 49
0.0
 49
0.0
 49
0.0
 49
0.0208333333333333
 49
0.0
 49
0.0
 49
0.0
 49
0.0
 49
1.0
 49
0.0
 49
0.0
 49
0.0
 49
0.0
 49
1.0
175
     0
142
0.0208333333333333
142
0.0
142
0.0
142
0.0
142
0.0
142
0.0208333333333333
142
0.0
142
0.0
142
0.0
142
0.0
142
1.0
142
0.0
142
0.0
142
0.0
142
0.0
142
1.0
179
     0
144
0.0208333333333333
144
0.0
144
0.0
144
0.0
144
0.0
144
0.0208333333333333
144
0.0
144
0.0
144
0.0
144
0.0
144
1.0
144
0.0
144
0.0
144
0.0
144
0.0
144
1.0
147
0.0208333333333333
147
0.0
147
0.0
147
0.0
147
0.0
147
0.0208333333333333
147
0.0
147
0.0
147
0.0
147
0.0
147
1.0
147
0.0
147
0.0
147
0.0
147
0.0
147
1.0
  0
MLEADERSTYLE
  5
8359
102
{ACAD_REACTORS
330
8358
102
}
330
8358
100
AcDbMLeaderStyle
179
     2
170
     2
171
     1
172
     0
 90
        2
 40
0.0
 41
0.0
173
     1
 91
-1056964608
340
13
 92
       -2
290
     1
 42
2.0
291
     1
 43
0.36
  3
Standard
 44
4.0
300

342
10
174
     1
178
     6
175
     1
176
     0
 93
-1056964608
 45
4.0
292
     0
297
     0
 46
4.0
 94
-1056964608
 47
1.0
 49
1.0
140
1.0
293
     1
141
0.0
294
     1
177
     0
142
1.0
295
     1
296
     0
143
0.125
271
     0
272
     9
273
     9
298
     1
  0
MLINESTYLE
  5
1C
102
{ACAD_REACTORS
330
E
102
}
330
E
100
AcDbMlineStyle
  2
STANDARD
 70
     0
  3

 62
     0
 51
90.0
 52
90.0
 71
     2
 49
0.5
 62
   256
  6
BYLAYER
 49
-0.5
 62
   256
  6
BYLAYER
  0
ACDBPLACEHOLDER
  5
8302
102
{ACAD_REACTORS
330
8301
102
}
330
8301
  0
SCALE
  5
8347
102
{ACAD_REACTORS
330
8346
102
}
330
8346
100
AcDbScale
 70
     0
300
1:1
140
1.0
141
1.0
290
     1
  0
SCALE
  5
8348
102
{ACAD_REACTORS
330
8346
102
}
330
8346
100
AcDbScale
 70
     0
300
1:2
140
1.0
141
2.0
290
     0
  0
SCALE
  5
8349
102
{ACAD_REACTORS
330
8346
102
}
330
8346
100
AcDbScale
 70
     0
300
1:4
140
1.0
141
4.0
290
     0
  0
SCALE
  5
834A
102
{ACAD_REACTORS
330
8346
102
}
330
8346
100
AcDbScale
 70
     0
300
1:5
140
1.0
141
5.0
290
     0
  0
SCALE
  5
834B
102
{ACAD_REACTORS
330
8346
102
}
330
8346
100
AcDbScale
 70
     0
300
1:8
140
1.0
141
8.0
290
     0
  0
SCALE
  5
834C
102
{ACAD_REACTORS
330
8346
102
}
330
8346
100
AcDbScale
 70
     0
300
1:10
140
1.0
141
10.0
290
     0
  0
SCALE
  5
834D
102
{ACAD_REACTORS
330
8346
102
}
330
8346
100
AcDbScale
 70
     0
300
1:16
140
1.0
141
16.0
290
     0
  0
SCALE
  5
834E
102
{ACAD_REACTORS
330
8346
102
}
330
8346
100
AcDbScale
 70
     0
300
1:20
140
1.0
141
20.0
290
     0
  0
SCALE
  5
834F
102
{ACAD_REACTORS
330
8346
102
}
330
8346
100
AcDbScale
 70
     0
300
1:30
140
1.0
141
30.0
290
     0
  0
SCALE
  5
8350
102
{ACAD_REACTORS
330
8346
102
}
330
8346
100
AcDbScale
 70
     0
300
1:40
140
1.0
141
40.0
290
     0
  0
SCALE
  5
8351
102
{ACAD_REACTORS
330
8346
102
}
330
8346
100
AcDbScale
 70
     0
300
1:50
140
1.0
141
50.0
290
     0
  0
SCALE
  5
8352
102
{ACAD_REACTORS
330
8346
102
}
330
8346
100
AcDbScale
 70
     0
300
1:100
140
1.0
141
100.0
290
     0
  0
SCALE
  5
8353
102
{ACAD_REACTORS
330
8346
102
}
330
8346
100
AcDbScale
 70
     0
300
2:1
140
2.0
141
1.0
290
     0
  0
SCALE
  5
8354
102
{ACAD_REACTORS
330
8346
102
}
330
8346
100
AcDbScale
 70
     0
300
4:1
140
4.0
141
1.0
290
     0
  0
SCALE
  5
8355
102
{ACAD_REACTORS
330
8346
102
}
330
8346
100
AcDbScale
 70
     0
300
8:1
140
8.0
141
1.0
290
     0
  0
SCALE
  5
8356
102
{ACAD_REACTORS
330
8346
102
}
330
8346
100
AcDbScale
 70
     0
300
10:1
140
10.0
141
1.0
290
     0
  0
SCALE
  5
8357
102
{ACAD_REACTORS
330
8346
102
}
330
8346
100
AcDbScale
 70
     0
300
100:1
140
100.0
141
1.0
290
     0
  0
ACDBSECTIONVIEWSTYLE
  5
835B
102
{ACAD_XDICTIONARY
360
83F0
102
}
102
{ACAD_REACTORS
330
835A
102
}
330
835A
100
AcDbModelDocViewStyle
 70
     0
  3
Metric50
290
     0
100
AcDbSectionViewStyle
 70
     0
 71
     0
 90
      102
 71
     1
340
10
 62
   256
 40
5.0
340
0
340
0
 62
   256
 40
5.0
300
I, O, Q, S, X, Z
 40
10.0
 90
        0
 40
2.5
 90
        0
 71
     2
340
15
 90
       25
 62
   256
340
15
 90
       50
 62
   256
 40
5.0
 40
2.5
 40
5.0
 71
     3
340
10
 62
   256
 40
5.0
 90
        0
 40
15.0
 90
        1
300
%<\AcVar ViewSectionStartId>%-%<\AcVar ViewSectionEndId>% (%<\AcVar ViewScale \f "%sn">%)
 71
     4
 62
   256
 62
   257
300
ANSI31
 40
1.0
 90
        0
290
     0
290
     0
 90
        6
 40
0.0
 40
1.570796326794896
 40
0.2617993877991494
 40
1.308996938995747
 40
-0.2617993877991494
 40
1.832595714594046
  0
TABLESTYLE
  5
8345
102
{ACAD_XDICTIONARY
360
8456
102
}
102
{ACAD_REACTORS
330
8344
102
}
330
8344
100
AcDbTableStyle
280
     0
  3
Standard
 70
     0
 71
     0
 40
1.5
 41
1.5
280
     0
281
     0
  7
STANDARD
140
4.5
170
     2
 62
     0
 63
     7
283
     0
 90
      512
 91
        0
  1

274
    -2
284
     1
 64
     0
275
    -2
285
     1
 65
     0
276
    -2
286
     1
 66
     0
277
    -2
287
     1
 67
     0
278
    -2
288
     1
 68
     0
279
    -2
289
     1
 69
     0
  7
STANDARD
140
6.0
170
     5
 62
     0
 63
     7
283
     0
 90
      512
 91
        0
  1

274
    -2
284
     1
 64
     0
275
    -2
285
     1
 65
     0
276
    -2
286
     1
 66
     0
277
    -2
287
     1
 67
     0
278
    -2
288
     1
 68
     0
279
    -2
289
     1
 69
     0
  7
STANDARD
140
4.5
170
     5
 62
     0
 63
     7
283
     0
 90
      512
 91
        0
  1

274
    -2
284
     1
 64
     0
275
    -2
285
     1
 65
     0
276
    -2
286
     1
 66
     0
277
    -2
287
     1
 67
     0
278
    -2
288
     1
 68
     0
279
    -2
289
     1
 69
     0
  0
VISUALSTYLE
  5
8330
102
{ACAD_REACTORS
330
832A
102
}
330
832A
100
AcDbVisualStyle
  2
2dWireframe
 70
     4
177
     3
291
     0
 70
    58
 90
        0
176
     1
 90
        2
176
     1
 90
        0
176
     1
 90
        0
176
     1
 40
0.6
176
     1
 40
30.0
176
     1
 62
     7
420
 16777215
176
     1
 90
        1
176
     1
 90
        4
176
     1
 62
     7
176
     1
 62
   257
176
     1
 90
        1
176
     1
 90
        1
176
     1
 40
1.0
176
     1
 90
        0
176
     1
 62
   257
176
     1
 40
1.0
176
     1
 90
        1
176
     1
 90
        6
176
     1
 90
        2
176
     1
 62
     7
176
     1
 90
        5
176
     1
 90
        0
176
     1
 90
        0
176
     1
290
     0
176
     1
 90
        1
176
     1
 40
0.0
176
     1
 90
        0
176
     1
290
     1
176
     1
290
     1
176
     1
290
     0
176
     1
290
     0
176
     1
290
     0
176
     1
290
     0
176
     1
290
     0
176
     1
290
     0
176
     1
290
     0
176
     1
 90
       50
176
     1
 40
0.0
176
     1
 40
1.0
176
     1
 90
        0
176
     1
 62
    18
420
        0
176
     1
 90
       50
176
     1
 90
        3
176
     1
 62
     5
420
      255
176
     1
290
     0
176
     1
 90
       50
176
     1
 90
       50
176
     1
 90
       50
176
     1
290
     0
176
     1
 90
       50
176
     1
 62
   256
176
     0
 40
1.0
176
     0
 90
        2
176
     1
  1
strokes_ogs.tif
176
     1
290
     0
176
     1
 40
1.0
176
     1
 40
1.0
176
     1
  0
VISUALSTYLE
  5
832F
102
{ACAD_REACTORS
330
832A
102
}
330
832A
100
AcDbVisualStyle
  2
Basic
 70
     7
177
     3
291
     1
 70
    58
 90
        1
176
     1
 90
        0
176
     1
 90
        1
176
     1
 90
        0
176
     1
 40
0.6
176
     1
 40
30.0
176
     1
 62
     7
420
 16777215
176
     1
 90
        0
176
     1
 90
        4
176
     1
 62
     7
176
     1
 62
   257
176
     1
 90
        1
176
     1
 90
        1
176
     1
 40
1.0
176
     1
 90
        8
176
     1
 62
     7
176
     1
 40
1.0
176
     1
 90
        1
176
     1
 90
        6
176
     1
 90
        2
176
     1
 62
     7
176
     1
 90
        5
176
     1
 90
        0
176
     1
 90
        0
176
     1
290
     0
176
     1
 90
        1
176
     1
 40
0.0
176
     1
 90
        0
176
     1
290
     0
176
     1
290
     1
176
     1
290
     1
176
     1
290
     0
176
     1
290
     0
176
     1
290
     0
176
     1
290
     0
176
     1
290
     0
176
     1
290
     0
176
     1
 90
       50
176
     1
 40
0.0
176
     1
 40
1.0
176
     1
 90
        0
176
     1
 62
    18
420
        0
176
     1
 90
       50
176
     1
 90
        3
176
     1
 62
     5
420
      255
176
     1
290
     0
176
     1
 90
       50
176
     1
 90
       50
176
     1
 90
       50
176
     1
290
     0
176
     1
 90
       50
176
     1
 62
   256
176
     0
 40
1.0
176
     0
 90
        2
176
     1
  1
strokes_ogs.tif
176
     1
290
     0
176
     1
 40
1.0
176
     1
 40
1.0
176
     1
  0
VISUALSTYLE
  5
8336
102
{ACAD_REACTORS
330
832A
102
}
330
832A
100
AcDbVisualStyle
  2
Brighten
 70
    12
177
     3
291
     1
 70
    58
 90
        2
176
     1
 90
        2
176
     1
 90
        0
176
     1
 90
        0
176
     1
 40
0.6
176
     1
 40
30.0
176
     1
 62
     7
420
 16777215
176
     1
 90
        1
176
     1
 90
        4
176
     1
 62
     7
176
     1
 62
   257
176
     1
 90
        1
176
     1
 90
        1
176
     1
 40
1.0
176
     1
 90
        8
176
     1
 62
     7
176
     1
 40
1.0
176
     1
 90
        1
176
     1
 90
        6
176
     1
 90
        2
176
     1
 62
     7
176
     1
 90
        5
176
     1
 90
        0
176
     1
 90
        0
176
     1
290
     0
176
     1
 90
        1
176
     1
 40
50.0
176
     1
 90
        0
176
     1
290
     0
176
     1
290
     1
176
     1
290
     1
176
     1
290
     0
176
     1
290
     0
176
     1
290
     0
176
     1
290
     0
176
     1
290
     0
176
     1
290
     0
176
     1
 90
       50
176
     1
 40
0.0
176
     1
 40
1.0
176
     1
 90
        0
176
     1
 62
    18
420
        0
176
     1
 90
       50
176
     1
 90
        3
176
     1
 62
     5
420
      255
176
     1
290
     0
176
     1
 90
       50
176
     1
 90
       50
176
     1
 90
       50
176
     1
290
     0
176
     1
 90
       50
176
     1
 62
   256
176
     0
 40
1.0
176
     0
 90
        2
176
     1
  1
strokes_ogs.tif
176
     1
290
     0
176
     1
 40
1.0
176
     1
 40
1.0
176
     1
  0
VISUALSTYLE
  5
833A
102
{ACAD_REACTORS
330
832A
102
}
330
832A
100
AcDbVisualStyle
  2
ColorChange
 70
    16
177
     3
291
     1
 70
    58
 90
        2
176
     1
 90
        2
176
     1
 90
        3
176
     1
 90
        0
176
     1
 40
0.6
176
     1
 40
30.0
176
     1
 62
     8
420
  8421504
176
     1
 90
        1
176
     1
 90
        4
176
     1
 62
     7
176
     1
 62
   257
176
     1
 90
        1
176
     1
 90
        1
176
     1
 40
1.0
176
     1
 90
        8
176
     1
 62
     8
420
  8421504
176
     1
 40
1.0
176
     1
 90
        1
176
     1
 90
        6
176
     1
 90
        2
176
     1
 62
     7
176
     1
 90
        5
176
     1
 90
        0
176
     1
 90
        0
176
     1
290
     0
176
     1
 90
        1
176
     1
 40
0.0
176
     1
 90
        0
176
     1
290
     0
176
     1
290
     1
176
     1
290
     1
176
     1
290
     0
176
     1
290
     0
176
     1
290
     0
176
     1
290
     0
176
     1
290
     0
176
     1
290
     0
176
     1
 90
       50
176
     1
 40
0.0
176
     1
 40
1.0
176
     1
 90
        0
176
     1
 62
    18
420
        0
176
     1
 90
       50
176
     1
 90
        3
176
     1
 62
     5
420
      255
176
     1
290
     0
176
     1
 90
       50
176
     1
 90
       50
176
     1
 90
       50
176
     1
290
     0
176
     1
 90
       50
176
     1
 62
   256
176
     0
 40
1.0
176
     0
 90
        2
176
     1
  1
strokes_ogs.tif
176
     1
290
     0
176
     1
 40
1.0
176
     1
 40
1.0
176
     1
  0
VISUALSTYLE
  5
8333
102
{ACAD_REACTORS
330
832A
102
}
330
832A
100
AcDbVisualStyle
  2
Conceptual
 70
     9
177
     3
291
     0
 70
    58
 90
        3
176
     1
 90
        2
176
     1
 90
        0
176
     1
 90
        0
176
     1
 40
0.6
176
     1
 40
30.0
176
     1
 62
     7
420
 16777215
176
     1
 90
        2
176
     1
 90
        2
176
     1
 62
     7
176
     1
 62
   257
176
     1
 90
        1
176
     1
 90
        1
176
     1
 40
179.0
176
     1
 90
        8
176
     1
 62
     7
176
     1
 40
1.0
176
     1
 90
        1
176
     1
 90
        6
176
     1
 90
        2
176
     1
 62
     7
176
     1
 90
        3
176
     1
 90
        0
176
     1
 90
        0
176
     1
290
     0
176
     1
 90
        1
176
     1
 40
0.0
176
     1
 90
        0
176
     1
290
     0
176
     1
290
     1
176
     1
290
     1
176
     1
290
     0
176
     1
290
     0
176
     1
290
     0
176
     1
290
     0
176
     1
290
     0
176
     1
290
     0
176
     1
 90
       50
176
     1
 40
0.0
176
     1
 40
1.0
176
     1
 90
        0
176
     1
 62
    18
420
        0
176
     1
 90
       50
176
     1
 90
        3
176
     1
 62
     5
420
      255
176
     1
290
     0
176
     1
 90
       50
176
     1
 90
       50
176
     1
 90
       50
176
     1
290
     0
176
     1
 90
       50
176
     1
 62
   256
176
     0
 40
1.0
176
     0
 90
        2
176
     1
  1
strokes_ogs.tif
176
     1
290
     0
176
     1
 40
1.0
176
     1
 40
1.0
176
     1
  0
VISUALSTYLE
  5
8335
102
{ACAD_REACTORS
330
832A
102
}
330
832A
100
AcDbVisualStyle
  2
Dim
 70
    11
177
     3
291
     1
 70
    58
 90
        2
176
     1
 90
        2
176
     1
 90
        0
176
     1
 90
        0
176
     1
 40
0.6
176
     1
 40
30.0
176
     1
 62
     7
420
 16777215
176
     1
 90
        1
176
     1
 90
        4
176
     1
 62
     7
176
     1
 62
   257
176
     1
 90
        1
176
     1
 90
        1
176
     1
 40
1.0
176
     1
 90
        8
176
     1
 62
     7
176
     1
 40
1.0
176
     1
 90
        1
176
     1
 90
        6
176
     1
 90
        2
176
     1
 62
     7
176
     1
 90
        5
176
     1
 90
        0
176
     1
 90
        0
176
     1
290
     0
176
     1
 90
        1
176
     1
 40
-50.0
176
     1
 90
        0
176
     1
290
     0
176
     1
290
     1
176
     1
290
     1
176
     1
290
     0
176
     1
290
     0
176
     1
290
     0
176
     1
290
     0
176
     1
290
     0
176
     1
290
     0
176
     1
 90
       50
176
     1
 40
0.0
176
     1
 40
1.0
176
     1
 90
        0
176
     1
 62
    18
420
        0
176
     1
 90
       50
176
     1
 90
        3
176
     1
 62
     5
420
      255
176
     1
290
     0
176
     1
 90
       50
176
     1
 90
       50
176
     1
 90
       50
176
     1
290
     0
176
     1
 90
       50
176
     1
 62
   256
176
     0
 40
1.0
176
     0
 90
        2
176
     1
  1
strokes_ogs.tif
176
     1
290
     0
176
     1
 40
1.0
176
     1
 40
1.0
176
     1
  0
VISUALSTYLE
  5
8342
102
{ACAD_REACTORS
330
832A
102
}
330
832A
100
AcDbVisualStyle
  2
EdgeColorOff
 70
    22
177
     3
291
     1
 70
    58
 90
        2
176
     0
 90
        2
176
     0
 90
        0
176
     0
 90
        0
176
     0
 40
0.6
176
     0
 40
30.0
176
     0
 62
     7
420
 16777215
176
     0
 90
        1
176
     0
 90
        4
176
     0
 62
     7
176
     0
 62
   257
176
     0
 90
        1
176
     0
 90
        1
176
     0
 40
1.0
176
     0
 90
        8
176
     2
 62
     7
176
     0
 40
1.0
176
     0
 90
        1
176
     0
 90
        6
176
     0
 90
        2
176
     0
 62
     7
176
     0
 90
        5
176
     0
 90
        0
176
     0
 90
        0
176
     0
290
     0
176
     0
 90
        1
176
     0
 40
0.0
176
     0
 90
        0
176
     0
290
     0
176
     0
290
     1
176
     0
290
     1
176
     0
290
     0
176
     0
290
     0
176
     0
290
     0
176
     0
290
     0
176
     0
290
     0
176
     0
290
     0
176
     0
 90
       50
176
     0
 40
0.0
176
     0
 40
1.0
176
     0
 90
        0
176
     0
 62
    18
420
        0
176
     0
 90
       50
176
     0
 90
        3
176
     0
 62
     5
420
      255
176
     0
290
     0
176
     0
 90
       50
176
     0
 90
       50
176
     0
 90
       50
176
     0
290
     0
176
     0
 90
       50
176
     0
 62
   256
176
     0
 40
1.0
176
     0
 90
        2
176
     0
  1
strokes_ogs.tif
176
     0
290
     0
176
     0
 40
1.0
176
     0
 40
1.0
176
     0
  0
VISUALSTYLE
  5
8339
102
{ACAD_REACTORS
330
832A
102
}
330
832A
100
AcDbVisualStyle
  2
Facepattern
 70
    15
177
     3
291
     1
 70
    58
 90
        2
176
     1
 90
        2
176
     1
 90
        0
176
     1
 90
        0
176
     1
 40
0.6
176
     1
 40
30.0
176
     1
 62
     7
420
 16777215
176
     1
 90
        1
176
     1
 90
        4
176
     1
 62
     7
176
     1
 62
   257
176
     1
 90
        1
176
     1
 90
        1
176
     1
 40
1.0
176
     1
 90
        8
176
     1
 62
     7
176
     1
 40
1.0
176
     1
 90
        1
176
     1
 90
        6
176
     1
 90
        2
176
     1
 62
     7
176
     1
 90
        5
176
     1
 90
        0
176
     1
 90
        0
176
     1
290
     0
176
     1
 90
        1
176
     1
 40
0.0
176
     1
 90
        0
176
     1
290
     0
176
     1
290
     1
176
     1
290
     1
176
     1
290
     0
176
     1
290
     0
176
     1
290
     0
176
     1
290
     0
176
     1
290
     0
176
     1
290
     0
176
     1
 90
       50
176
     1
 40
0.0
176
     1
 40
1.0
176
     1
 90
        0
176
     1
 62
    18
420
        0
176
     1
 90
       50
176
     1
 90
        3
176
     1
 62
     5
420
      255
176
     1
290
     0
176
     1
 90
       50
176
     1
 90
       50
176
     1
 90
       50
176
     1
290
     0
176
     1
 90
       50
176
     1
 62
   256
176
     0
 40
1.0
176
     0
 90
        2
176
     1
  1
strokes_ogs.tif
176
     1
290
     0
176
     1
 40
1.0
176
     1
 40
1.0
176
     1
  0
VISUALSTYLE
  5
832B
102
{ACAD_REACTORS
330
832A
102
}
330
832A
100
AcDbVisualStyle
  2
Flat
 70
     0
177
     3
291
     1
 70
    58
 90
        2
176
     1
 90
        1
176
     1
 90
        1
176
     1
 90
        2
176
     1
 40
0.6
176
     1
 40
30.0
176
     1
 62
     7
420
 16777215
176
     1
 90
        0
176
     1
 90
        0
176
     1
 62
     7
176
     1
 62
   257
176
     1
 90
        1
176
     1
 90
        1
176
     1
 40
1.0
176
     1
 90
        8
176
     1
 62
     7
176
     1
 40
1.0
176
     1
 90
        1
176
     1
 90
        6
176
     1
 90
        2
176
     1
 62
     7
176
     1
 90
        5
176
     1
 90
        0
176
     1
 90
        0
176
     1
290
     0
176
     1
 90
       13
176
     1
 40
0.0
176
     1
 90
        0
176
     1
290
     0
176
     1
290
     1
176
     1
290
     1
176
     1
290
     0
176
     1
290
     0
176
     1
290
     0
176
     1
290
     0
176
     1
290
     0
176
     1
290
     0
176
     1
 90
       50
176
     1
 40
0.0
176
     1
 40
1.0
176
     1
 90
        0
176
     1
 62
    18
420
        0
176
     1
 90
       50
176
     1
 90
        3
176
     1
 62
     5
420
      255
176
     1
290
     0
176
     1
 90
       50
176
     1
 90
       50
176
     1
 90
       50
176
     1
290
     0
176
     1
 90
       50
176
     1
 62
   256
176
     0
 40
1.0
176
     0
 90
        2
176
     1
  1
strokes_ogs.tif
176
     1
290
     0
176
     1
 40
1.0
176
     1
 40
1.0
176
     1
  0
VISUALSTYLE
  5
832C
102
{ACAD_REACTORS
330
832A
102
}
330
832A
100
AcDbVisualStyle
  2
FlatWithEdges
 70
     1
177
     3
291
     1
 70
    58
 90
        2
176
     1
 90
        1
176
     1
 90
        1
176
     1
 90
        2
176
     1
 40
0.6
176
     1
 40
30.0
176
     1
 62
     7
420
 16777215
176
     1
 90
        1
176
     1
 90
        0
176
     1
 62
     7
176
     1
 62
   257
176
     1
 90
        1
176
     1
 90
        1
176
     1
 40
1.0
176
     1
 90
        0
176
     1
 62
   257
176
     1
 40
1.0
176
     1
 90
        1
176
     1
 90
        6
176
     1
 90
        2
176
     1
 62
     7
176
     1
 90
        5
176
     1
 90
        0
176
     1
 90
        0
176
     1
290
     0
176
     1
 90
       13
176
     1
 40
0.0
176
     1
 90
        0
176
     1
290
     0
176
     1
290
     1
176
     1
290
     1
176
     1
290
     0
176
     1
290
     0
176
     1
290
     0
176
     1
290
     0
176
     1
290
     0
176
     1
290
     0
176
     1
 90
       50
176
     1
 40
0.0
176
     1
 40
1.0
176
     1
 90
        0
176
     1
 62
    18
420
        0
176
     1
 90
       50
176
     1
 90
        3
176
     1
 62
     5
420
      255
176
     1
290
     0
176
     1
 90
       50
176
     1
 90
       50
176
     1
 90
       50
176
     1
290
     0
176
     1
 90
       50
176
     1
 62
   256
176
     0
 40
1.0
176
     0
 90
        2
176
     1
  1
strokes_ogs.tif
176
     1
290
     0
176
     1
 40
1.0
176
     1
 40
1.0
176
     1
  0
VISUALSTYLE
  5
832D
102
{ACAD_REACTORS
330
832A
102
}
330
832A
100
AcDbVisualStyle
  2
Gouraud
 70
     2
177
     3
291
     1
 70
    58
 90
        2
176
     1
 90
        2
176
     1
 90
        1
176
     1
 90
        2
176
     1
 40
0.6
176
     1
 40
30.0
176
     1
 62
     7
420
 16777215
176
     1
 90
        0
176
     1
 90
        0
176
     1
 62
     7
176
     1
 62
   257
176
     1
 90
        1
176
     1
 90
        1
176
     1
 40
1.0
176
     1
 90
        0
176
     1
 62
     7
176
     1
 40
1.0
176
     1
 90
        1
176
     1
 90
        6
176
     1
 90
        2
176
     1
 62
     7
176
     1
 90
        5
176
     1
 90
        0
176
     1
 90
        0
176
     1
290
     0
176
     1
 90
       13
176
     1
 40
0.0
176
     1
 90
        0
176
     1
290
     0
176
     1
290
     1
176
     1
290
     1
176
     1
290
     0
176
     1
290
     0
176
     1
290
     0
176
     1
290
     0
176
     1
290
     0
176
     1
290
     0
176
     1
 90
       50
176
     1
 40
0.0
176
     1
 40
1.0
176
     1
 90
        0
176
     1
 62
    18
420
        0
176
     1
 90
       50
176
     1
 90
        3
176
     1
 62
     5
420
      255
176
     1
290
     0
176
     1
 90
       50
176
     1
 90
       50
176
     1
 90
       50
176
     1
290
     0
176
     1
 90
       50
176
     1
 62
   256
176
     0
 40
1.0
176
     0
 90
        2
176
     1
  1
strokes_ogs.tif
176
     1
290
     0
176
     1
 40
1.0
176
     1
 40
1.0
176
     1
  0
VISUALSTYLE
  5
832E
102
{ACAD_REACTORS
330
832A
102
}
330
832A
100
AcDbVisualStyle
  2
GouraudWithEdges
 70
     3
177
     3
291
     1
 70
    58
 90
        2
176
     1
 90
        2
176
     1
 90
        1
176
     1
 90
        2
176
     1
 40
0.6
176
     1
 40
30.0
176
     1
 62
     7
420
 16777215
176
     1
 90
        1
176
     1
 90
        0
176
     1
 62
     7
176
     1
 62
   257
176
     1
 90
        1
176
     1
 90
        1
176
     1
 40
1.0
176
     1
 90
        0
176
     1
 62
   257
176
     1
 40
1.0
176
     1
 90
        1
176
     1
 90
        6
176
     1
 90
        2
176
     1
 62
     7
176
     1
 90
        5
176
     1
 90
        0
176
     1
 90
        0
176
     1
290
     0
176
     1
 90
       13
176
     1
 40
0.0
176
     1
 90
        0
176
     1
290
     0
176
     1
290
     1
176
     1
290
     1
176
     1
290
     0
176
     1
290
     0
176
     1
290
     0
176
     1
290
     0
176
     1
290
     0
176
     1
290
     0
176
     1
 90
       50
176
     1
 40
0.0
176
     1
 40
1.0
176
     1
 90
        0
176
     1
 62
    18
420
        0
176
     1
 90
       50
176
     1
 90
        3
176
     1
 62
     5
420
      255
176
     1
290
     0
176
     1
 90
       50
176
     1
 90
       50
176
     1
 90
       50
176
     1
290
     0
176
     1
 90
       50
176
     1
 62
   256
176
     0
 40
1.0
176
     0
 90
        2
176
     1
  1
strokes_ogs.tif
176
     1
290
     0
176
     1
 40
1.0
176
     1
 40
1.0
176
     1
  0
VISUALSTYLE
  5
8332
102
{ACAD_REACTORS
330
832A
102
}
330
832A
100
AcDbVisualStyle
  2
Hidden
 70
     6
177
     3
291
     0
 70
    58
 90
        1
176
     1
 90
        2
176
     1
 90
        2
176
     1
 90
        0
176
     1
 40
0.6
176
     1
 40
30.0
176
     1
 62
     7
420
 16777215
176
     1
 90
        2
176
     1
 90
        2
176
     1
 62
     7
176
     1
 62
   257
176
     1
 90
        2
176
     1
 90
        1
176
     1
 40
40.0
176
     1
 90
        0
176
     1
 62
   257
176
     1
 40
1.0
176
     1
 90
        1
176
     1
 90
        6
176
     1
 90
        2
176
     1
 62
     7
176
     1
 90
        3
176
     1
 90
        0
176
     1
 90
        0
176
     1
290
     0
176
     1
 90
        1
176
     1
 40
0.0
176
     1
 90
        0
176
     1
290
     0
176
     1
290
     1
176
     1
290
     1
176
     1
290
     0
176
     1
290
     0
176
     1
290
     0
176
     1
290
     0
176
     1
290
     0
176
     1
290
     0
176
     1
 90
       50
176
     1
 40
0.0
176
     1
 40
1.0
176
     1
 90
        0
176
     1
 62
    18
420
        0
176
     1
 90
       50
176
     1
 90
        3
176
     1
 62
     5
420
      255
176
     1
290
     0
176
     1
 90
       50
176
     1
 90
       50
176
     1
 90
       50
176
     1
290
     0
176
     1
 90
       50
176
     1
 62
   256
176
     0
 40
1.0
176
     0
 90
        2
176
     1
  1
strokes_ogs.tif
176
     1
290
     0
176
     1
 40
1.0
176
     1
 40
1.0
176
     1
  0
VISUALSTYLE
  5
8340
102
{ACAD_REACTORS
330
832A
102
}
330
832A
100
AcDbVisualStyle
  2
JitterOff
 70
    20
177
     3
291
     1
 70
    58
 90
        2
176
     0
 90
        2
176
     0
 90
        0
176
     0
 90
        0
176
     0
 40
0.6
176
     0
 40
30.0
176
     0
 62
     7
420
 16777215
176
     0
 90
        1
176
     0
 90
        4
176
     0
 62
     7
176
     0
 62
   257
176
     0
 90
        1
176
     0
 90
        1
176
     0
 40
1.0
176
     0
 90
       10
176
     2
 62
     7
176
     0
 40
1.0
176
     0
 90
        1
176
     0
 90
        6
176
     0
 90
        2
176
     0
 62
     7
176
     0
 90
        5
176
     0
 90
        0
176
     0
 90
        0
176
     0
290
     0
176
     0
 90
        1
176
     0
 40
0.0
176
     0
 90
        0
176
     0
290
     0
176
     0
290
     1
176
     0
290
     1
176
     0
290
     0
176
     0
290
     0
176
     0
290
     0
176
     0
290
     0
176
     0
290
     0
176
     0
290
     0
176
     0
 90
       50
176
     0
 40
0.0
176
     0
 40
1.0
176
     0
 90
        0
176
     0
 62
    18
420
        0
176
     0
 90
       50
176
     0
 90
        3
176
     0
 62
     5
420
      255
176
     0
290
     0
176
     0
 90
       50
176
     0
 90
       50
176
     0
 90
       50
176
     0
290
     0
176
     0
 90
       50
176
     0
 62
   256
176
     0
 40
1.0
176
     0
 90
        2
176
     0
  1
strokes_ogs.tif
176
     0
290
     0
176
     0
 40
1.0
176
     0
 40
1.0
176
     0
  0
VISUALSTYLE
  5
8338
102
{ACAD_REACTORS
330
832A
102
}
330
832A
100
AcDbVisualStyle
  2
Linepattern
 70
    14
177
     3
291
     1
 70
    58
 90
        2
176
     1
 90
        2
176
     1
 90
        0
176
     1
 90
        0
176
     1
 40
0.6
176
     1
 40
30.0
176
     1
 62
     7
420
 16777215
176
     1
 90
        1
176
     1
 90
        4
176
     1
 62
     7
176
     1
 62
   257
176
     1
 90
        7
176
     1
 90
        7
176
     1
 40
1.0
176
     1
 90
        8
176
     1
 62
     7
176
     1
 40
1.0
176
     1
 90
        1
176
     1
 90
        6
176
     1
 90
        2
176
     1
 62
     7
176
     1
 90
        5
176
     1
 90
        0
176
     1
 90
        0
176
     1
290
     0
176
     1
 90
        1
176
     1
 40
0.0
176
     1
 90
        0
176
     1
290
     0
176
     1
290
     1
176
     1
290
     1
176
     1
290
     0
176
     1
290
     0
176
     1
290
     0
176
     1
290
     0
176
     1
290
     0
176
     1
290
     0
176
     1
 90
       50
176
     1
 40
0.0
176
     1
 40
1.0
176
     1
 90
        0
176
     1
 62
    18
420
        0
176
     1
 90
       50
176
     1
 90
        3
176
     1
 62
     5
420
      255
176
     1
290
     0
176
     1
 90
       50
176
     1
 90
       50
176
     1
 90
       50
176
     1
290
     0
176
     1
 90
       50
176
     1
 62
   256
176
     0
 40
1.0
176
     0
 90
        2
176
     1
  1
strokes_ogs.tif
176
     1
290
     0
176
     1
 40
1.0
176
     1
 40
1.0
176
     1
  0
VISUALSTYLE
  5
8341
102
{ACAD_REACTORS
330
832A
102
}
330
832A
100
AcDbVisualStyle
  2
OverhangOff
 70
    21
177
     3
291
     1
 70
    58
 90
        2
176
     0
 90
        2
176
     0
 90
        0
176
     0
 90
        0
176
     0
 40
0.6
176
     0
 40
30.0
176
     0
 62
     7
420
 16777215
176
     0
 90
        1
176
     0
 90
        4
176
     0
 62
     7
176
     0
 62
   257
176
     0
 90
        1
176
     0
 90
        1
176
     0
 40
1.0
176
     0
 90
        9
176
     2
 62
     7
176
     0
 40
1.0
176
     0
 90
        1
176
     0
 90
        6
176
     0
 90
        2
176
     0
 62
     7
176
     0
 90
        5
176
     0
 90
        0
176
     0
 90
        0
176
     0
290
     0
176
     0
 90
        1
176
     0
 40
0.0
176
     0
 90
        0
176
     0
290
     0
176
     0
290
     1
176
     0
290
     1
176
     0
290
     0
176
     0
290
     0
176
     0
290
     0
176
     0
290
     0
176
     0
290
     0
176
     0
290
     0
176
     0
 90
       50
176
     0
 40
0.0
176
     0
 40
1.0
176
     0
 90
        0
176
     0
 62
    18
420
        0
176
     0
 90
       50
176
     0
 90
        3
176
     0
 62
     5
420
      255
176
     0
290
     0
176
     0
 90
       50
176
     0
 90
       50
176
     0
 90
       50
176
     0
290
     0
176
     0
 90
       50
176
     0
 62
   256
176
     0
 40
1.0
176
     0
 90
        2
176
     0
  1
strokes_ogs.tif
176
     0
290
     0
176
     0
 40
1.0
176
     0
 40
1.0
176
     0
  0
VISUALSTYLE
  5
8334
102
{ACAD_REACTORS
330
832A
102
}
330
832A
100
AcDbVisualStyle
  2
Realistic
 70
     8
177
     3
291
     0
 70
    58
 90
        2
176
     1
 90
        3
176
     1
 90
        0
176
     1
 90
        2
176
     1
 40
0.6
176
     1
 40
30.0
176
     1
 62
     7
420
 16777215
176
     1
 90
        0
176
     1
 90
        0
176
     1
 62
     7
176
     1
 62
   257
176
     1
 90
        1
176
     1
 90
        1
176
     1
 40
1.0
176
     1
 90
        8
176
     1
 62
   257
176
     1
 40
1.0
176
     1
 90
        1
176
     1
 90
        6
176
     1
 90
        2
176
     1
 62
     7
176
     1
 90
        3
176
     1
 90
        0
176
     1
 90
        0
176
     1
290
     0
176
     1
 90
       13
176
     1
 40
0.0
176
     1
 90
        0
176
     1
290
     0
176
     1
290
     1
176
     1
290
     1
176
     1
290
     0
176
     1
290
     0
176
     1
290
     0
176
     1
290
     0
176
     1
290
     0
176
     1
290
     0
176
     1
 90
       50
176
     1
 40
0.0
176
     1
 40
1.0
176
     1
 90
        0
176
     1
 62
    18
420
        0
176
     1
 90
       50
176
     1
 90
        3
176
     1
 62
     5
420
      255
176
     1
290
     0
176
     1
 90
       50
176
     1
 90
       50
176
     1
 90
       50
176
     1
290
     0
176
     1
 90
       50
176
     1
 62
   256
176
     0
 40
1.0
176
     0
 90
        2
176
     1
  1
strokes_ogs.tif
176
     1
290
     0
176
     1
 40
1.0
176
     1
 40
1.0
176
     1
  0
VISUALSTYLE
  5
833F
102
{ACAD_REACTORS
330
832A
102
}
330
832A
100
AcDbVisualStyle
  2
Shaded
 70
    27
177
     3
291
     0
 70
    58
 90
        2
176
     1
 90
        2
176
     1
 90
        1
176
     1
 90
        2
176
     1
 40
0.6
176
     1
 40
30.0
176
     1
 62
     7
420
 16777215
176
     1
 90
        0
176
     1
 90
        4
176
     1
 62
     7
176
     1
 62
   257
176
     1
 90
        1
176
     1
 90
        1
176
     1
 40
1.0
176
     1
 90
        8
176
     1
 62
   257
176
     1
 40
1.0
176
     1
 90
        1
176
     1
 90
        6
176
     1
 90
        2
176
     1
 62
     8
420
  7895160
176
     1
 90
        3
176
     1
 90
        0
176
     1
 90
        0
176
     1
290
     0
176
     1
 90
        5
176
     1
 40
0.0
176
     1
 90
        0
176
     1
290
     0
176
     1
290
     1
176
     1
290
     1
176
     1
290
     0
176
     1
290
     0
176
     1
290
     0
176
     1
290
     0
176
     1
290
     0
176
     1
290
     0
176
     1
 90
       50
176
     1
 40
0.0
176
     1
 40
1.0
176
     1
 90
        0
176
     1
 62
    18
420
        0
176
     1
 90
       50
176
     1
 90
        3
176
     1
 62
     5
420
      255
176
     1
290
     0
176
     1
 90
       50
176
     1
 90
       50
176
     1
 90
       50
176
     1
290
     0
176
     1
 90
       50
176
     1
 62
   256
176
     0
 40
1.0
176
     0
 90
        2
176
     1
  1
strokes_ogs.tif
176
     1
290
     0
176
     1
 40
1.0
176
     1
 40
1.0
176
     1
  0
VISUALSTYLE
  5
833E
102
{ACAD_REACTORS
330
832A
102
}
330
832A
100
AcDbVisualStyle
  2
Shaded with edges
 70
    26
177
     3
291
     0
 70
    58
 90
        2
176
     1
 90
        2
176
     1
 90
        1
176
     1
 90
        2
176
     1
 40
0.6
176
     1
 40
30.0
176
     1
 62
     7
420
 16777215
176
     1
 90
        1
176
     1
 90
       10
176
     1
 62
     7
176
     1
 62
   257
176
     1
 90
        2
176
     1
 90
        1
176
     1
 40
1.0
176
     1
 90
        8
176
     1
 62
   257
176
     1
 40
1.0
176
     1
 90
        1
176
     1
 90
        6
176
     1
 90
        2
176
     1
 62
     7
176
     1
 90
        3
176
     1
 90
        0
176
     1
 90
        0
176
     1
290
     0
176
     1
 90
        5
176
     1
 40
0.0
176
     1
 90
        0
176
     1
290
     0
176
     1
290
     1
176
     1
290
     1
176
     1
290
     0
176
     1
290
     0
176
     1
290
     0
176
     1
290
     0
176
     1
290
     0
176
     1
290
     0
176
     1
 90
       50
176
     1
 40
0.0
176
     1
 40
1.0
176
     1
 90
        0
176
     1
 62
    18
420
        0
176
     1
 90
       50
176
     1
 90
        3
176
     1
 62
     5
420
      255
176
     1
290
     0
176
     1
 90
       50
176
     1
 90
       50
176
     1
 90
       50
176
     1
290
     0
176
     1
 90
       50
176
     1
 62
   256
176
     0
 40
1.0
176
     0
 90
        2
176
     1
  1
strokes_ogs.tif
176
     1
290
     0
176
     1
 40
1.0
176
     1
 40
1.0
176
     1
  0
VISUALSTYLE
  5
833B
102
{ACAD_REACTORS
330
832A
102
}
330
832A
100
AcDbVisualStyle
  2
Shades of Gray
 70
    23
177
     3
291
     0
 70
    58
 90
        2
176
     1
 90
        2
176
     1
 90
        3
176
     1
 90
        0
176
     1
 40
0.6
176
     1
 40
30.0
176
     1
 62
     7
420
 16777215
176
     1
 90
        2
176
     1
 90
        2
176
     1
 62
     7
176
     1
 62
     7
176
     1
 90
        1
176
     1
 90
        1
176
     1
 40
40.0
176
     1
 90
        8
176
     1
 62
     7
176
     1
 40
1.0
176
     1
 90
        1
176
     1
 90
        6
176
     1
 90
        2
176
     1
 62
     7
176
     1
 90
        3
176
     1
 90
        0
176
     1
 90
        0
176
     1
290
     0
176
     1
 90
        1
176
     1
 40
0.0
176
     1
 90
        0
176
     1
290
     0
176
     1
290
     1
176
     1
290
     1
176
     1
290
     0
176
     1
290
     0
176
     1
290
     0
176
     1
290
     0
176
     1
290
     0
176
     1
290
     0
176
     1
 90
       50
176
     1
 40
0.0
176
     1
 40
1.0
176
     1
 90
        0
176
     1
 62
    18
420
        0
176
     1
 90
       50
176
     1
 90
        3
176
     1
 62
     5
420
      255
176
     1
290
     0
176
     1
 90
       50
176
     1
 90
       50
176
     1
 90
       50
176
     1
290
     0
176
     1
 90
       50
176
     1
 62
   256
176
     0
 40
1.0
176
     0
 90
        2
176
     1
  1
strokes_ogs.tif
176
     1
290
     0
176
     1
 40
1.0
176
     1
 40
1.0
176
     1
  0
VISUALSTYLE
  5
833C
102
{ACAD_REACTORS
330
832A
102
}
330
832A
100
AcDbVisualStyle
  2
Sketchy
 70
    24
177
     3
291
     0
 70
    58
 90
        1
176
     1
 90
        2
176
     1
 90
        2
176
     1
 90
        0
176
     1
 40
0.6
176
     1
 40
30.0
176
     1
 62
     7
420
 16777215
176
     1
 90
        2
176
     1
 90
        2
176
     1
 62
     7
176
     1
 62
     7
176
     1
 90
        1
176
     1
 90
        1
176
     1
 40
40.0
176
     1
 90
       11
176
     1
 62
     7
176
     1
 40
1.0
176
     1
 90
        1
176
     1
 90
        6
176
     1
 90
        2
176
     1
 62
     7
176
     1
 90
        6
176
     1
 90
        0
176
     1
 90
        0
176
     1
290
     0
176
     1
 90
        1
176
     1
 40
0.0
176
     1
 90
        0
176
     1
290
     0
176
     1
290
     1
176
     1
290
     1
176
     1
290
     0
176
     1
290
     0
176
     1
290
     0
176
     1
290
     0
176
     1
290
     0
176
     1
290
     0
176
     1
 90
       50
176
     1
 40
0.0
176
     1
 40
1.0
176
     1
 90
        0
176
     1
 62
    18
420
        0
176
     1
 90
       50
176
     1
 90
        3
176
     1
 62
     5
420
      255
176
     1
290
     0
176
     1
 90
       50
176
     1
 90
       50
176
     1
 90
       50
176
     1
290
     0
176
     1
 90
       50
176
     1
 62
   256
176
     0
 40
1.0
176
     0
 90
        2
176
     1
  1
strokes_ogs.tif
176
     1
290
     0
176
     1
 40
1.0
176
     1
 40
1.0
176
     1
  0
VISUALSTYLE
  5
8337
102
{ACAD_REACTORS
330
832A
102
}
330
832A
100
AcDbVisualStyle
  2
Thicken
 70
    13
177
     3
291
     1
 70
    58
 90
        2
176
     1
 90
        2
176
     1
 90
        0
176
     1
 90
        0
176
     1
 40
0.6
176
     1
 40
30.0
176
     1
 62
     7
420
 16777215
176
     1
 90
        1
176
     1
 90
        4
176
     1
 62
     7
176
     1
 62
   257
176
     1
 90
        1
176
     1
 90
        1
176
     1
 40
1.0
176
     1
 90
       12
176
     1
 62
     7
176
     1
 40
1.0
176
     1
 90
        1
176
     1
 90
        6
176
     1
 90
        2
176
     1
 62
     7
176
     1
 90
        5
176
     1
 90
        0
176
     1
 90
        0
176
     1
290
     0
176
     1
 90
        1
176
     1
 40
0.0
176
     1
 90
        0
176
     1
290
     0
176
     1
290
     1
176
     1
290
     1
176
     1
290
     0
176
     1
290
     0
176
     1
290
     0
176
     1
290
     0
176
     1
290
     0
176
     1
290
     0
176
     1
 90
       50
176
     1
 40
0.0
176
     1
 40
1.0
176
     1
 90
        0
176
     1
 62
    18
420
        0
176
     1
 90
       50
176
     1
 90
        3
176
     1
 62
     5
420
      255
176
     1
290
     0
176
     1
 90
       50
176
     1
 90
       50
176
     1
 90
       50
176
     1
290
     0
176
     1
 90
       50
176
     1
 62
   256
176
     0
 40
1.0
176
     0
 90
        2
176
     1
  1
strokes_ogs.tif
176
     1
290
     0
176
     1
 40
1.0
176
     1
 40
1.0
176
     1
  0
VISUALSTYLE
  5
8331
102
{ACAD_REACTORS
330
832A
102
}
330
832A
100
AcDbVisualStyle
  2
Wireframe
 70
     5
177
     3
291
     0
 70
    58
 90
        0
176
     1
 90
        2
176
     1
 90
        0
176
     1
 90
        0
176
     1
 40
0.6
176
     1
 40
30.0
176
     1
 62
     7
420
 16777215
176
     1
 90
        1
176
     1
 90
        4
176
     1
 62
     7
176
     1
 62
   257
176
     1
 90
        1
176
     1
 90
        1
176
     1
 40
1.0
176
     1
 90
        0
176
     1
 62
   257
176
     1
 40
1.0
176
     1
 90
        1
176
     1
 90
        6
176
     1
 90
        2
176
     1
 62
     7
176
     1
 90
        3
176
     1
 90
        0
176
     1
 90
        0
176
     1
290
     0
176
     1
 90
        1
176
     1
 40
0.0
176
     1
 90
        0
176
     1
290
     0
176
     1
290
     1
176
     1
290
     1
176
     1
290
     0
176
     1
290
     0
176
     1
290
     0
176
     1
290
     0
176
     1
290
     0
176
     1
290
     0
176
     1
 90
       50
176
     1
 40
0.0
176
     1
 40
1.0
176
     1
 90
        0
176
     1
 62
    18
420
        0
176
     1
 90
       50
176
     1
 90
        3
176
     1
 62
     5
420
      255
176
     1
290
     0
176
     1
 90
       50
176
     1
 90
       50
176
     1
 90
       50
176
     1
290
     0
176
     1
 90
       50
176
     1
 62
   256
176
     0
 40
1.0
176
     0
 90
        2
176
     1
  1
strokes_ogs.tif
176
     1
290
     0
176
     1
 40
1.0
176
     1
 40
1.0
176
     1
  0
VISUALSTYLE
  5
833D
102
{ACAD_REACTORS
330
832A
102
}
330
832A
100
AcDbVisualStyle
  2
X-Ray
 70
    25
177
     3
291
     0
 70
    58
 90
        2
176
     1
 90
        2
176
     1
 90
        1
176
     1
 90
        1
176
     1
 40
0.5
176
     1
 40
30.0
176
     1
 62
     7
420
 16777215
176
     1
 90
        1
176
     1
 90
        0
176
     1
 62
     7
176
     1
 62
   257
176
     1
 90
        1
176
     1
 90
        1
176
     1
 40
1.0
176
     1
 90
        8
176
     1
 62
     7
176
     1
 40
1.0
176
     1
 90
        1
176
     1
 90
        6
176
     1
 90
        2
176
     1
 62
     7
176
     1
 90
        3
176
     1
 90
        0
176
     1
 90
        0
176
     1
290
     0
176
     1
 90
       13
176
     1
 40
0.0
176
     1
 90
        0
176
     1
290
     0
176
     1
290
     1
176
     1
290
     1
176
     1
290
     0
176
     1
290
     0
176
     1
290
     0
176
     1
290
     0
176
     1
290
     0
176
     1
290
     0
176
     1
 90
       50
176
     1
 40
0.0
176
     1
 40
1.0
176
     1
 90
        0
176
     1
 62
    18
420
        0
176
     1
 90
       50
176
     1
 90
        3
176
     1
 62
     5
420
      255
176
     1
290
     0
176
     1
 90
       50
176
     1
 90
       50
176
     1
 90
       50
176
     1
290
     0
176
     1
 90
       50
176
     1
 62
   256
176
     0
 40
1.0
176
     0
 90
        2
176
     1
  1
strokes_ogs.tif
176
     1
290
     0
176
     1
 40
1.0
176
     1
 40
1.0
176
     1
  0
DICTIONARYVAR
  5
83FB
102
{ACAD_REACTORS
330
83F5
102
}
330
83F5
100
DictionaryVariables
280
     0
  1
1:1
  0
DICTIONARYVAR
  5
83F7
102
{ACAD_REACTORS
330
83F5
102
}
330
83F5
100
DictionaryVariables
280
     0
  1
STANDARD
  0
DICTIONARYVAR
  5
83F6
102
{ACAD_REACTORS
330
83F5
102
}
330
83F5
100
DictionaryVariables
280
     0
  1
STANDARD
  0
DICTIONARYVAR
  5
83F8
102
{ACAD_REACTORS
330
83F5
102
}
330
83F5
100
DictionaryVariables
280
     0
  1
Metric50
  0
DICTIONARYVAR
  5
83F9
102
{ACAD_REACTORS
330
83F5
102
}
330
83F5
100
DictionaryVariables
280
     0
  1
Metric50
  0
DICTIONARYVAR
  5
83FD
102
{ACAD_REACTORS
330
83F5
102
}
330
83F5
100
DictionaryVariables
280
     0
  1
1
  0
DICTIONARYVAR
  5
83FE
102
{ACAD_REACTORS
330
83F5
102
}
330
83F5
100
DictionaryVariables
280
     0
  1
15
  0
DICTIONARYVAR
  5
83FC
102
{ACAD_REACTORS
330
83F5
102
}
330
83F5
100
DictionaryVariables
280
     0
  1
0
  0
DICTIONARYVAR
  5
83FA
102
{ACAD_REACTORS
330
83F5
102
}
330
83F5
100
DictionaryVariables
280
     0
  1
0
  0
DICTIONARY
  5
83F2
330
835D
100
AcDbDictionary
280
     1
281
     1
  3
ACAD_XREC_ROUNDTRIP
360
8459
  0
DICTIONARY
  5
831B
330
831A
100
AcDbDictionary
280
     1
281
     1
  3
BUMPTILE
360
831D
  3
DIFFUSETILE
360
831C
  3
OPACITYTILE
360
8320
  3
REFLECTIONTILE
360
831F
  3
REFRACTIONTILE
360
8321
  3
SPECULARTILE
360
831E
  0
DICTIONARY
  5
8313
330
8312
100
AcDbDictionary
280
     1
281
     1
  3
BUMPTILE
360
8315
  3
DIFFUSETILE
360
8314
  3
OPACITYTILE
360
8318
  3
REFLECTIONTILE
360
8317
  3
REFRACTIONTILE
360
8319
  3
SPECULARTILE
360
8316
  0
DICTIONARY
  5
8323
330
8322
100
AcDbDictionary
280
     1
281
     1
  3
BUMPTILE
360
8325
  3
DIFFUSETILE
360
8324
  3
OPACITYTILE
360
8328
  3
REFLECTIONTILE
360
8327
  3
REFRACTIONTILE
360
8329
  3
SPECULARTILE
360
8326
  0
DICTIONARY
  5
83F0
330
835B
100
AcDbDictionary
280
     1
281
     1
  3
ACAD_XREC_ROUNDTRIP
360
8458
  0
DICTIONARY
  5
8456
330
8345
100
AcDbDictionary
280
     1
281
     1
  3
ACAD_ROUNDTRIP_2008_TABLESTYLE_CELLSTYLEMAP
360
8457
  0
XRECORD
  5
8459
102
{ACAD_REACTORS
330
83F2
102
}
330
83F2
100
AcDbXrecord
280
     1
102
DISPLAYNAME
  1
Metric50
102
FLAGS
 90
        0
  0
XRECORD
  5
831D
102
{ACAD_REACTORS
330
831B
102
}
330
831B
100
AcDbXrecord
280
     1
270
     1
271
     1
  0
XRECORD
  5
831C
102
{ACAD_REACTORS
330
831B
102
}
330
831B
100
AcDbXrecord
280
     1
270
     1
271
     1
  0
XRECORD
  5
8320
102
{ACAD_REACTORS
330
831B
102
}
330
831B
100
AcDbXrecord
280
     1
270
     1
271
     1
  0
XRECORD
  5
831F
102
{ACAD_REACTORS
330
831B
102
}
330
831B
100
AcDbXrecord
280
     1
270
     1
271
     1
  0
XRECORD
  5
8321
102
{ACAD_REACTORS
330
831B
102
}
330
831B
100
AcDbXrecord
280
     1
270
     1
271
     1
  0
XRECORD
  5
831E
102
{ACAD_REACTORS
330
831B
102
}
330
831B
100
AcDbXrecord
280
     1
270
     1
271
     1
  0
XRECORD
  5
8315
102
{ACAD_REACTORS
330
8313
102
}
330
8313
100
AcDbXrecord
280
     1
270
     1
271
     1
  0
XRECORD
  5
8314
102
{ACAD_REACTORS
330
8313
102
}
330
8313
100
AcDbXrecord
280
     1
270
     1
271
     1
  0
XRECORD
  5
8318
102
{ACAD_REACTORS
330
8313
102
}
330
8313
100
AcDbXrecord
280
     1
270
     1
271
     1
  0
XRECORD
  5
8317
102
{ACAD_REACTORS
330
8313
102
}
330
8313
100
AcDbXrecord
280
     1
270
     1
271
     1
  0
XRECORD
  5
8319
102
{ACAD_REACTORS
330
8313
102
}
330
8313
100
AcDbXrecord
280
     1
270
     1
271
     1
  0
XRECORD
  5
8316
102
{ACAD_REACTORS
330
8313
102
}
330
8313
100
AcDbXrecord
280
     1
270
     1
271
     1
  0
XRECORD
  5
8325
102
{ACAD_REACTORS
330
8323
102
}
330
8323
100
AcDbXrecord
280
     1
270
     1
271
     1
  0
XRECORD
  5
8324
102
{ACAD_REACTORS
330
8323
102
}
330
8323
100
AcDbXrecord
280
     1
270
     1
271
     1
  0
XRECORD
  5
8328
102
{ACAD_REACTORS
330
8323
102
}
330
8323
100
AcDbXrecord
280
     1
270
     1
271
     1
  0
XRECORD
  5
8327
102
{ACAD_REACTORS
330
8323
102
}
330
8323
100
AcDbXrecord
280
     1
270
     1
271
     1
  0
XRECORD
  5
8329
102
{ACAD_REACTORS
330
8323
102
}
330
8323
100
AcDbXrecord
280
     1
270
     1
271
     1
  0
XRECORD
  5
8326
102
{ACAD_REACTORS
330
8323
102
}
330
8323
100
AcDbXrecord
280
     1
270
     1
271
     1
  0
XRECORD
  5
8458
102
{ACAD_REACTORS
330
83F0
102
}
330
83F0
100
AcDbXrecord
280
     1
102
DISPLAYNAME
  1
Metric50
102
FLAGS
 90
        0
  0
CELLSTYLEMAP
  5
8457
102
{ACAD_REACTORS
330
8456
102
}
330
8456
100
AcDbCellStyleMap
 90
        3
300
CELLSTYLE
  1
TABLEFORMAT_BEGIN
 90
        5
170
     1
 91
        0
 92
    32768
 62
   257
 93
        1
300
CONTENTFORMAT
  1
CONTENTFORMAT_BEGIN
 90
        0
 91
        0
 92
      512
 93
        0
300

 40
0.0
140
1.0
 94
        5
 62
     0
340
10
144
6.0
309
CONTENTFORMAT_END
171
     1
301
MARGIN
  1
CELLMARGIN_BEGIN
 40
1.5
 40
1.5
 40
1.5
 40
1.5
 40
4.5
 40
4.5
309
CELLMARGIN_END
 94
        6
 95
        1
302
GRIDFORMAT
  1
GRIDFORMAT_BEGIN
 90
        0
 91
        1
 62
     0
 92
       -2
340
0
 93
        0
 40
1.125
309
GRIDFORMAT_END
 95
        2
302
GRIDFORMAT
  1
GRIDFORMAT_BEGIN
 90
        0
 91
        1
 62
     0
 92
       -2
340
0
 93
        0
 40
1.125
309
GRIDFORMAT_END
 95
        4
302
GRIDFORMAT
  1
GRIDFORMAT_BEGIN
 90
        0
 91
        1
 62
     0
 92
       -2
340
0
 93
        0
 40
1.125
309
GRIDFORMAT_END
 95
        8
302
GRIDFORMAT
  1
GRIDFORMAT_BEGIN
 90
        0
 91
        1
 62
     0
 92
       -2
340
0
 93
        0
 40
1.125
309
GRIDFORMAT_END
 95
       16
302
GRIDFORMAT
  1
GRIDFORMAT_BEGIN
 90
        0
 91
        1
 62
     0
 92
       -2
340
0
 93
        0
 40
1.125
309
GRIDFORMAT_END
 95
       32
302
GRIDFORMAT
  1
GRIDFORMAT_BEGIN
 90
        0
 91
        1
 62
     0
 92
       -2
340
0
 93
        0
 40
1.125
309
GRIDFORMAT_END
309
TABLEFORMAT_END
  1
CELLSTYLE_BEGIN
 90
        1
 91
        1
300
_TITLE
309
CELLSTYLE_END
300
CELLSTYLE
  1
TABLEFORMAT_BEGIN
 90
        5
170
     1
 91
        0
 92
        0
 62
   257
 93
        1
300
CONTENTFORMAT
  1
CONTENTFORMAT_BEGIN
 90
        0
 91
        0
 92
      512
 93
        0
300

 40
0.0
140
1.0
 94
        5
 62
     0
340
10
144
4.5
309
CONTENTFORMAT_END
171
     1
301
MARGIN
  1
CELLMARGIN_BEGIN
 40
1.5
 40
1.5
 40
1.5
 40
1.5
 40
4.5
 40
4.5
309
CELLMARGIN_END
 94
        6
 95
        1
302
GRIDFORMAT
  1
GRIDFORMAT_BEGIN
 90
        0
 91
        1
 62
     0
 92
       -2
340
0
 93
        0
 40
1.125
309
GRIDFORMAT_END
 95
        2
302
GRIDFORMAT
  1
GRIDFORMAT_BEGIN
 90
        0
 91
        1
 62
     0
 92
       -2
340
0
 93
        0
 40
1.125
309
GRIDFORMAT_END
 95
        4
302
GRIDFORMAT
  1
GRIDFORMAT_BEGIN
 90
        0
 91
        1
 62
     0
 92
       -2
340
0
 93
        0
 40
1.125
309
GRIDFORMAT_END
 95
        8
302
GRIDFORMAT
  1
GRIDFORMAT_BEGIN
 90
        0
 91
        1
 62
     0
 92
       -2
340
0
 93
        0
 40
1.125
309
GRIDFORMAT_END
 95
       16
302
GRIDFORMAT
  1
GRIDFORMAT_BEGIN
 90
        0
 91
        1
 62
     0
 92
       -2
340
0
 93
        0
 40
1.125
309
GRIDFORMAT_END
 95
       32
302
GRIDFORMAT
  1
GRIDFORMAT_BEGIN
 90
        0
 91
        1
 62
     0
 92
       -2
340
0
 93
        0
 40
1.125
309
GRIDFORMAT_END
309
TABLEFORMAT_END
  1
CELLSTYLE_BEGIN
 90
        2
 91
        1
300
_HEADER
309
CELLSTYLE_END
300
CELLSTYLE
  1
TABLEFORMAT_BEGIN
 90
        5
170
     1
 91
        0
 92
        0
 62
   257
 93
        1
300
CONTENTFORMAT
  1
CONTENTFORMAT_BEGIN
 90
        0
 91
        0
 92
      512
 93
        0
300

 40
0.0
140
1.0
 94
        2
 62
     0
340
10
144
4.5
309
CONTENTFORMAT_END
171
     1
301
MARGIN
  1
CELLMARGIN_BEGIN
 40
1.5
 40
1.5
 40
1.5
 40
1.5
 40
4.5
 40
4.5
309
CELLMARGIN_END
 94
        6
 95
        1
302
GRIDFORMAT
  1
GRIDFORMAT_BEGIN
 90
        0
 91
        1
 62
     0
 92
       -2
340
0
 93
        0
 40
1.125
309
GRIDFORMAT_END
 95
        2
302
GRIDFORMAT
  1
GRIDFORMAT_BEGIN
 90
        0
 91
        1
 62
     0
 92
       -2
340
0
 93
        0
 40
1.125
309
GRIDFORMAT_END
 95
        4
302
GRIDFORMAT
  1
GRIDFORMAT_BEGIN
 90
        0
 91
        1
 62
     0
 92
       -2
340
0
 93
        0
 40
1.125
309
GRIDFORMAT_END
 95
        8
302
GRIDFORMAT
  1
GRIDFORMAT_BEGIN
 90
        0
 91
        1
 62
     0
 92
       -2
340
0
 93
        0
 40
1.125
309
GRIDFORMAT_END
 95
       16
302
GRIDFORMAT
  1
GRIDFORMAT_BEGIN
 90
        0
 91
        1
 62
     0
 92
       -2
340
0
 93
        0
 40
1.125
309
GRIDFORMAT_END
 95
       32
302
GRIDFORMAT
  1
GRIDFORMAT_BEGIN
 90
        0
 91
        1
 62
     0
 92
       -2
340
0
 93
        0
 40
1.125
309
GRIDFORMAT_END
309
TABLEFORMAT_END
  1
CELLSTYLE_BEGIN
 90
        3
 91
        2
300
_DATA
309
CELLSTYLE_END
  0
ENDSEC
  0
SECTION
  2
ACDSDATA
 70
     2
 71
     8
  0
ACDSSCHEMA
 90
        0
  1
AcDb_Thumbnail_Schema
  2
AcDbDs::ID
280
    10
 91
        8
  2
Thumbnail_Data
280
    15
 91
        0
101
ACDSRECORD
 95
        0
 90
        1
  2
AcDbDs::TreatedAsObjectData
280
     1
291
     1
101
ACDSRECORD
 95
        0
 90
        2
  2
AcDbDs::Legacy
280
     1
291
     1
101
ACDSRECORD
  1
AcDbDs::ID
 90
        3
  2
AcDs:Indexable
280
     1
291
     1
101
ACDSRECORD
  1
AcDbDs::ID
 90
        4
  2
AcDbDs::HandleAttribute
280
     7
282
     1
  0
ACDSSCHEMA
 90
        1
  1
AcDbDs::TreatedAsObjectDataSchema
  2
AcDbDs::TreatedAsObjectData
280
     1
 91
        0
  0
ACDSSCHEMA
 90
        2
  1
AcDbDs::LegacySchema
  2
AcDbDs::Legacy
280
     1
 91
        0
  0
ACDSSCHEMA
 90
        3
  1
AcDbDs::IndexedPropertySchema
  2
AcDs:Indexable
280
     1
 91
        0
  0
ACDSSCHEMA
 90
        4
  1
AcDbDs::HandleAttributeSchema
  2
AcDbDs::HandleAttribute
280
     7
 91
        1
284
     1
  0
ACDSRECORD
 90
        0
  2
AcDbDs::ID
280
    10
320
8305
  2
Thumbnail_Data
280
    15
 94
     1706
310
89504E470D0A1A0A0000000D49484452000001000000007C0803000000B13B9E5A00000300504C5445000000000000C8C8C80000000000000000000000000000000000000000000000000000330000660000990000CC0000FF0033000033330033660033990033CC0033FF0066000066330066660066990066CC0066FF0099
310
000099330099660099990099CC0099FF00CC0000CC3300CC6600CC9900CCCC00CCFF00FF0000FF3300FF6600FF9900FFCC00FFFF3300003300333300663300993300CC3300FF3333003333333333663333993333CC3333FF3366003366333366663366993366CC3366FF3399003399333399663399993399CC3399FF33CC00
310
33CC3333CC6633CC9933CCCC33CCFF33FF0033FF3333FF6633FF9933FFCC33FFFF6600006600336600666600996600CC6600FF6633006633336633666633996633CC6633FF6666006666336666666666996666CC6666FF6699006699336699666699996699CC6699FF66CC0066CC3366CC6666CC9966CCCC66CCFF66FF0066
310
FF3366FF6666FF9966FFCC66FFFF9900009900339900669900999900CC9900FF9933009933339933669933999933CC9933FF9966009966339966669966999966CC9966FF9999009999339999669999999999CC9999FF99CC0099CC3399CC6699CC9999CCCC99CCFF99FF0099FF3399FF6699FF9999FFCC99FFFFCC0000CC00
310
33CC0066CC0099CC00CCCC00FFCC3300CC3333CC3366CC3399CC33CCCC33FFCC6600CC6633CC6666CC6699CC66CCCC66FFCC9900CC9933CC9966CC9999CC99CCCC99FFCCCC00CCCC33CCCC66CCCC99CCCCCCCCCCFFCCFF00CCFF33CCFF66CCFF99CCFFCCCCFFFFFF0000FF0033FF0066FF0099FF00CCFF00FFFF3300FF3333
310
FF3366FF3399FF33CCFF33FFFF6600FF6633FF6666FF6699FF66CCFF66FFFF9900FF9933FF9966FF9999FF99CCFF99FFFFCC00FFCC33FFCC66FFCC99FFCCCCFFCCFFFFFF00FFFF33FFFF66FFFF99FFFFCCFFFFFF0000000D0D0D1A1A1A2828283535354343435050505D5D5D6B6B6B787878868686939393A1A1A1AEAEAEBB
310
BBBBC9C9C9D6D6D6E4E4E4F1F1F1FFFFFF00000000000000000000000000000000000000000000000000000000000008F1915C000003144944415478DAEDDD5B72C3200C05502D871FF6BF196DC3FF6D30060983E3F41949974E934E937AC289100F1397E817CAF64B85AC94CDD46101000000000000EFF34A2F3ABF2800C3
310
9F6F212320340069817000EB5F5804F8D119804980373B1800FE01A0C671BFABDF3409F46D52490F0054337BAB6C8368B52F24349BF2FB88001D072A18B616109E01B636C8DB48074179CA55F59004310E88381DDEFC4C87CFEFE7E9FDDDE453F7AEB026C50800A2AA1D609C10F901200D50FB89FE4C125F4E007EF0EFB126
310
0800000000000000000000000073003997BB14184096E8110080780029E7D44BF939740488C2A5444B82221D3E60986200D4D6DF32407AFC1C05804600D925C604D81302000040F73B0100000000488200300CA05603220E8416B30100C400E045FDA34C87D70041164496611E1040C77C1C009E02702080458902F0CE8705
310
0000000080F779A5B26FE06198E003E049DFA700D80D00DF18073C1F265806A86FFCA94E3C1B2CAE62C534408967AEB7738059D4F86C02B700BC350171771720912780B2FC91F64590F98208EBED53FC5836360E704EEAA58EA2561220EBDD43930D6506018EAE9CF7EA955301170034468016B0D70414403D17A22BBD06C8
310
3B80CC84B601F21ED6171190750BA8112012A1658052F523094602A09EFED26795D2E76DE2D43789F198F57A295B0A3D00D09EFD7369D5AD09D47018016438588F809ABE8EEE4FEF0D3CEAE71EA0F7FF3502F65AA6BA755601A4DC77D47600720640251BE67904D039020C77831D803A401BDA4C73C004C0F240A84F7F79FC
310
B8C46C2E90657D3D00C824F86804D45360B949E771C07CFF80F96E902EF647780750F3C027153C3D949ECEB26D0088DFBFF639111F00141C80423781BE2042AB0F4EE6E57A00B900F8561264FB4D80DAE90E7D46409EFE136B60FA31E6F1648945805E1B01C02F00B027802F9C1B340FF0E23EB0DB87B50360E0B00000C05F
310
BED2F057945CD46CBFC4EAF4D14000F337DE1B004DFE6DD271A5C56811103307CC23804E5758A55039A05D6AFBF24AA2DE0016ED225004E0CAD2180A0300000000000000000000000000CE000CFDEBED0F9DB3B8F1A6E61FCE0000000049454E44AE42608244AE4260824E44AE426082A08F0BAA7F65617137610D00FD7DA6
310
B502D4BF3E7237006EAF8FB90000000000000000000000000000702BC0AF96B77FDC7F54B73772E392F0F70000000049454E44AE426082
  0
ENDSEC
  0
EOF
